  0
SECTION
  2
HEADER
  9
$ACADVER
  1
AC1015
  9
$ACADMAINTVER
 70
     6
  9
$DWGCODEPAGE
  3
DOS932
  9
$INSBASE
 10
0.0
 20
0.0
 30
0.0
  9
$EXTMIN
 10
0.0
 20
0.0
 30
0.0
  9
$EXTMAX
 10
735.0
 20
1039.5
 30
0.0
  9
$LIMMIN
 10
0.0
 20
0.0
  9
$LIMMAX
 10
12.0
 20
9.0
  9
$ORTHOMODE
 70
     0
  9
$REGENMODE
 70
     1
  9
$FILLMODE
 70
     1
  9
$QTEXTMODE
 70
     0
  9
$MIRRTEXT
 70
     1
  9
$LTSCALE
 40
1.0
  9
$ATTMODE
 70
     1
  9
$TEXTSIZE
 40
0.2
  9
$TRACEWID
 40
0.05
  9
$TEXTSTYLE
  7
Standard
  9
$CLAYER
  8
0
  9
$CELTYPE
  6
ByLayer
  9
$CECOLOR
 62
   256
  9
$CELTSCALE
 40
1.0
  9
$DISPSILH
 70
     0
  9
$DIMSCALE
 40
1.0
  9
$DIMASZ
 40
0.18
  9
$DIMEXO
 40
0.0625
  9
$DIMDLI
 40
0.38
  9
$DIMRND
 40
0.0
  9
$DIMDLE
 40
0.0
  9
$DIMEXE
 40
0.18
  9
$DIMTP
 40
0.0
  9
$DIMTM
 40
0.0
  9
$DIMTXT
 40
0.18
  9
$DIMCEN
 40
0.09
  9
$DIMTSZ
 40
0.0
  9
$DIMTOL
 70
     0
  9
$DIMLIM
 70
     0
  9
$DIMTIH
 70
     1
  9
$DIMTOH
 70
     1
  9
$DIMSE1
 70
     0
  9
$DIMSE2
 70
     0
  9
$DIMTAD
 70
     0
  9
$DIMZIN
 70
     0
  9
$DIMBLK
  1

  9
$DIMASO
 70
     1
  9
$DIMSHO
 70
     1
  9
$DIMPOST
  1

  9
$DIMAPOST
  1

  9
$DIMALT
 70
     0
  9
$DIMALTD
 70
     2
  9
$DIMALTF
 40
25.4
  9
$DIMLFAC
 40
1.0
  9
$DIMTOFL
 70
     0
  9
$DIMTVP
 40
0.0
  9
$DIMTIX
 70
     0
  9
$DIMSOXD
 70
     0
  9
$DIMSAH
 70
     0
  9
$DIMBLK1
  1

  9
$DIMBLK2
  1

  9
$DIMSTYLE
  2
Standard
  9
$DIMCLRD
 70
     0
  9
$DIMCLRE
 70
     0
  9
$DIMCLRT
 70
     0
  9
$DIMTFAC
 40
1.0
  9
$DIMGAP
 40
0.09
  9
$DIMJUST
 70
     0
  9
$DIMSD1
 70
     0
  9
$DIMSD2
 70
     0
  9
$DIMTOLJ
 70
     1
  9
$DIMTZIN
 70
     0
  9
$DIMALTZ
 70
     0
  9
$DIMALTTZ
 70
     0
  9
$DIMUPT
 70
     0
  9
$DIMDEC
 70
     4
  9
$DIMTDEC
 70
     4
  9
$DIMALTU
 70
     2
  9
$DIMALTTD
 70
     2
  9
$DIMTXSTY
  7
Standard
  9
$DIMAUNIT
 70
     0
  9
$DIMADEC
 70
     0
  9
$DIMALTRND
 40
0.0
  9
$DIMAZIN
 70
     0
  9
$DIMDSEP
 70
    46
  9
$DIMATFIT
 70
     3
  9
$DIMFRAC
 70
     0
  9
$DIMLDRBLK
  1

  9
$DIMLUNIT
 70
     2
  9
$DIMLWD
 70
    -2
  9
$DIMLWE
 70
    -2
  9
$DIMTMOVE
 70
     0
  9
$LUNITS
 70
     2
  9
$LUPREC
 70
     4
  9
$SKETCHINC
 40
0.1
  9
$FILLETRAD
 40
0.5
  9
$AUNITS
 70
     0
  9
$AUPREC
 70
     0
  9
$MENU
  1
.
  9
$ELEVATION
 40
0.0
  9
$PELEVATION
 40
0.0
  9
$THICKNESS
 40
0.0
  9
$LIMCHECK
 70
     0
  9
$CHAMFERA
 40
0.5
  9
$CHAMFERB
 40
0.5
  9
$CHAMFERC
 40
1.0
  9
$CHAMFERD
 40
0.0
  9
$SKPOLY
 70
     0
  9
$TDCREATE
 40
2456141.495068172
  9
$TDUCREATE
 40
2456141.120068172
  9
$TDUPDATE
 40
2456141.495068183
  9
$TDUUPDATE
 40
2456141.120068183
  9
$TDINDWG
 40
0.0000000116
  9
$TDUSRTIMER
 40
0.0000000116
  9
$USRTIMER
 70
     1
  9
$ANGBASE
 50
0.0
  9
$ANGDIR
 70
     0
  9
$PDMODE
 70
     0
  9
$PDSIZE
 40
0.0
  9
$PLINEWID
 40
0.0
  9
$SPLFRAME
 70
     0
  9
$SPLINETYPE
 70
     6
  9
$SPLINESEGS
 70
     8
  9
$HANDSEED
  5
262
  9
$SURFTAB1
 70
     6
  9
$SURFTAB2
 70
     6
  9
$SURFTYPE
 70
     6
  9
$SURFU
 70
     6
  9
$SURFV
 70
     6
  9
$UCSBASE
  2

  9
$UCSNAME
  2

  9
$UCSORG
 10
0.0
 20
0.0
 30
0.0
  9
$UCSXDIR
 10
1.0
 20
0.0
 30
0.0
  9
$UCSYDIR
 10
0.0
 20
1.0
 30
0.0
  9
$UCSORTHOREF
  2

  9
$UCSORTHOVIEW
 70
     0
  9
$UCSORGTOP
 10
0.0
 20
0.0
 30
0.0
  9
$UCSORGBOTTOM
 10
0.0
 20
0.0
 30
0.0
  9
$UCSORGLEFT
 10
0.0
 20
0.0
 30
0.0
  9
$UCSORGRIGHT
 10
0.0
 20
0.0
 30
0.0
  9
$UCSORGFRONT
 10
0.0
 20
0.0
 30
0.0
  9
$UCSORGBACK
 10
0.0
 20
0.0
 30
0.0
  9
$PUCSBASE
  2

  9
$PUCSNAME
  2

  9
$PUCSORG
 10
0.0
 20
0.0
 30
0.0
  9
$PUCSXDIR
 10
1.0
 20
0.0
 30
0.0
  9
$PUCSYDIR
 10
0.0
 20
1.0
 30
0.0
  9
$PUCSORTHOREF
  2

  9
$PUCSORTHOVIEW
 70
     0
  9
$PUCSORGTOP
 10
0.0
 20
0.0
 30
0.0
  9
$PUCSORGBOTTOM
 10
0.0
 20
0.0
 30
0.0
  9
$PUCSORGLEFT
 10
0.0
 20
0.0
 30
0.0
  9
$PUCSORGRIGHT
 10
0.0
 20
0.0
 30
0.0
  9
$PUCSORGFRONT
 10
0.0
 20
0.0
 30
0.0
  9
$PUCSORGBACK
 10
0.0
 20
0.0
 30
0.0
  9
$USERI1
 70
     0
  9
$USERI2
 70
     0
  9
$USERI3
 70
     0
  9
$USERI4
 70
     0
  9
$USERI5
 70
     0
  9
$USERR1
 40
13.2
  9
$USERR2
 40
0.0
  9
$USERR3
 40
0.0
  9
$USERR4
 40
0.0
  9
$USERR5
 40
0.0
  9
$WORLDVIEW
 70
     1
  9
$SHADEDGE
 70
     3
  9
$SHADEDIF
 70
    70
  9
$TILEMODE
 70
     1
  9
$MAXACTVP
 70
    64
  9
$PINSBASE
 10
0.0
 20
0.0
 30
0.0
  9
$PLIMCHECK
 70
     0
  9
$PEXTMIN
 10
1.00000000000000E+20
 20
1.00000000000000E+20
 30
1.00000000000000E+20
  9
$PEXTMAX
 10
-1.00000000000000E+20
 20
-1.00000000000000E+20
 30
-1.00000000000000E+20
  9
$PLIMMIN
 10
0.0
 20
0.0
  9
$PLIMMAX
 10
12.0
 20
9.0
  9
$UNITMODE
 70
     0
  9
$VISRETAIN
 70
     1
  9
$PLINEGEN
 70
     0
  9
$PSLTSCALE
 70
     1
  9
$TREEDEPTH
 70
  3020
  9
$CMLSTYLE
  2
Standard
  9
$CMLJUST
 70
     0
  9
$CMLSCALE
 40
1.0
  9
$PROXYGRAPHICS
 70
     1
  9
$MEASUREMENT
 70
     1
  9
$CELWEIGHT
370
    -1
  9
$ENDCAPS
280
     0
  9
$JOINSTYLE
280
     0
  9
$LWDISPLAY
290
     0
  9
$INSUNITS
 70
     1
  9
$HYPERLINKBASE
  1

  9
$STYLESHEET
  1

  9
$XEDIT
290
     1
  9
$CEPSNTYPE
380
     0
  9
$PSTYLEMODE
290
     0
  9
$FINGERPRINTGUID
  2
{FAEB1C30-E019-11D5-929B-00C0DF256EC4}
  9
$VERSIONGUID
  2
{FAEB1C32-E019-11D5-929B-00C0DF256EC4}
  9
$EXTNAMES
290
     1
  9
$PSVPSCALE
 40
0.0
  9
$OLESTARTUP
290
     0
  0
ENDSEC
  0
SECTION
  2
CLASSES
  0
CLASS
  1
ACDBDICTIONARYWDFLT
  2
AcDbDictionaryWithDefault
  3
ObjectDBX Classes
 90
        0
280
     0
281
     0
  0
CLASS
  1
TABLESTYLE
  2
AcDbTableStyle
  3
ObjectDBX Classes
 90
     2047
280
     0
281
     0
  0
CLASS
  1
DICTIONARYVAR
  2
AcDbDictionaryVar
  3
ObjectDBX Classes
 90
        0
280
     0
281
     0
  0
CLASS
  1

  2
exOdDbSpline
  3

 90
        0
280
     0
281
     1
  0
CLASS
  1

  2
exOdDbCircle
  3

 90
        0
280
     0
281
     1
  0
CLASS
  1
ACDBPLACEHOLDER
  2
AcDbPlaceHolder
  3
ObjectDBX Classes
 90
        0
280
     0
281
     0
  0
CLASS
  1
LAYOUT
  2
AcDbLayout
  3
ObjectDBX Classes
 90
        0
280
     0
281
     0
  0
ENDSEC
  0
SECTION
  2
TABLES
  0
TABLE
  2
VPORT
  5
8
330
0
100
AcDbSymbolTable
 70
     2
  0
VPORT
  5
29
330
8
100
AcDbSymbolTableRecord
100
AcDbViewportTableRecord
  2
*Active
 70
     0
 10
0.0
 20
0.0
 11
1.0
 21
1.0
 12
367.5
 22
519.75
 13
0.0
 23
0.0
 14
0.5
 24
0.5
 15
0.5
 25
0.5
 16
0.0
 26
0.0
 36
1.0
 17
0.0
 27
0.0
 37
0.0
 40
1143.45
 41
1.60267857142857
 42
50.0
 43
0.0
 44
0.0
 50
0.0
 51
0.0
 71
     0
 72
   100
 73
     1
 74
     3
 75
     0
 76
     0
 77
     0
 78
     0
281
     0
 65
     1
110
0.0
120
0.0
130
0.0
111
1.0
121
0.0
131
0.0
112
0.0
122
1.0
132
0.0
 79
     0
146
0.0
  0
ENDTAB
  0
TABLE
  2
LTYPE
  5
5
330
0
100
AcDbSymbolTable
 70
     8
  0
LTYPE
  5
14
330
5
100
AcDbSymbolTableRecord
100
AcDbLinetypeTableRecord
  2
ByBlock
 70
     0
  3

 72
    65
 73
     0
 40
0.0
  0
LTYPE
  5
15
330
5
100
AcDbSymbolTableRecord
100
AcDbLinetypeTableRecord
  2
ByLayer
 70
     0
  3

 72
    65
 73
     0
 40
0.0
  0
LTYPE
  5
16
330
5
100
AcDbSymbolTableRecord
100
AcDbLinetypeTableRecord
  2
Continuous
 70
     0
  3
Solid line
 72
    65
 73
     0
 40
0.0
  0
LTYPE
  5
2E
330
5
100
AcDbSymbolTableRecord
100
AcDbLinetypeTableRecord
  2
DASHED
 70
     0
  3
Dashed
 72
    65
 73
     2
 40
15.0
 49
7.0
 74
     0
 49
-8.0
 74
     0
  0
LTYPE
  5
2F
330
5
100
AcDbSymbolTableRecord
100
AcDbLinetypeTableRecord
  2
DOTTED
 70
     0
  3
Dotted
 72
    65
 73
     2
 40
1.0
 49
0.0
 74
     0
 49
-1.0
 74
     0
  0
LTYPE
  5
30
330
5
100
AcDbSymbolTableRecord
100
AcDbLinetypeTableRecord
  2
DOT_CENTER
 70
     0
  3
Dot_Center
 72
    65
 73
     4
 40
14.0
 49
12.0
 74
     0
 49
-1.0
 74
     0
 49
0.0
 74
     0
 49
-1.0
 74
     0
  0
LTYPE
  5
31
330
5
100
AcDbSymbolTableRecord
100
AcDbLinetypeTableRecord
  2
LONG_DASHED
 70
     0
  3
Long_Dashed
 72
    65
 73
     2
 40
15.0
 49
10.0
 74
     0
 49
-5.0
 74
     0
  0
LTYPE
  5
32
330
5
100
AcDbSymbolTableRecord
100
AcDbLinetypeTableRecord
  2
DASH_CENTER
 70
     0
  3
Dash_Center
 72
    65
 73
     4
 40
14.0
 49
11.0
 74
     0
 49
-1.0
 74
     0
 49
1.0
 74
     0
 49
-1.0
 74
     0
  0
LTYPE
  5
33
330
5
100
AcDbSymbolTableRecord
100
AcDbLinetypeTableRecord
  2
PHANTOM
 70
     0
  3
Phantom
 72
    65
 73
     6
 40
13.0
 49
10.0
 74
     0
 49
-1.0
 74
     0
 49
0.0
 74
     0
 49
-1.0
 74
     0
 49
0.0
 74
     0
 49
-1.0
 74
     0
  0
LTYPE
  5
34
330
5
100
AcDbSymbolTableRecord
100
AcDbLinetypeTableRecord
  2
CENTER_DASH_DASH
 70
     0
  3
Center_Dash_Dash
 72
    65
 73
     6
 40
14.0
 49
9.0
 74
     0
 49
-1.0
 74
     0
 49
1.0
 74
     0
 49
-1.0
 74
     0
 49
1.0
 74
     0
 49
-1.0
 74
     0
  0
ENDTAB
  0
TABLE
  2
LAYER
  5
2
330
0
100
AcDbSymbolTable
 70
     2
  0
LAYER
  5
10
330
2
100
AcDbSymbolTableRecord
100
AcDbLayerTableRecord
  2
0
 70
     0
 62
     7
  6
Continuous
370
    -3
390
F
  0
LAYER
  5
35
330
2
100
AcDbSymbolTableRecord
100
AcDbLayerTableRecord
  2
1
 70
     0
 62
     7
  6
Continuous
370
    -3
390
F
  0
ENDTAB
  0
TABLE
  2
STYLE
  5
3
330
0
100
AcDbSymbolTable
 70
     3
  0
STYLE
  5
11
330
3
100
AcDbSymbolTableRecord
100
AcDbTextStyleTableRecord
  2
Standard
 70
     0
 40
0.0
 41
1.0
 50
0.0
 71
     0
 42
0.2
  3
txt
  4

  0
STYLE
  5
1EA
330
3
100
AcDbSymbolTableRecord
100
AcDbTextStyleTableRecord
  2
CONVERTER_1
 70
     0
 40
0.0
 41
0.89
 50
0.0
 71
     0
 42
0.2
  3
msmincho.ttc
  4

1001
ACAD
1000
MS Mincho
1071
    32785
  0
STYLE
  5
20B
330
3
100
AcDbSymbolTableRecord
100
AcDbTextStyleTableRecord
  2
CONVERTER_2
 70
     0
 40
0.0
 41
0.9
 50
0.0
 71
     0
 42
0.2
  3
txt.shx
  4

  0
ENDTAB
  0
TABLE
  2
VIEW
  5
6
330
0
100
AcDbSymbolTable
 70
     0
  0
ENDTAB
  0
TABLE
  2
UCS
  5
7
330
0
100
AcDbSymbolTable
 70
     0
  0
ENDTAB
  0
TABLE
  2
APPID
  5
9
330
0
100
AcDbSymbolTable
 70
     1
  0
APPID
  5
12
330
9
100
AcDbSymbolTableRecord
100
AcDbRegAppTableRecord
  2
ACAD
 70
     0
  0
ENDTAB
  0
TABLE
  2
DIMSTYLE
  5
A
330
0
100
AcDbSymbolTable
 70
     8
100
AcDbDimStyleTable
  0
DIMSTYLE
105
27
330
A
100
AcDbSymbolTableRecord
100
AcDbDimStyleTableRecord
  2
Standard
 70
     0
340
11
  0
DIMSTYLE
105
21A
102
{ACAD_REACTORS
330
21B
102
}
330
A
100
AcDbSymbolTableRecord
100
AcDbDimStyleTableRecord
  2
ME10_DIM_0
 70
     0
  3
{\Fgdt;n}<>
 41
12.25
 42
0.0
 44
3.5
 73
     0
 74
     0
 77
     1
 78
     8
140
12.25
147
0.625
172
     1
173
     1
176
     2
177
     2
178
     7
271
     2
340
20B
  0
DIMSTYLE
105
225
102
{ACAD_REACTORS
330
226
102
}
330
A
100
AcDbSymbolTableRecord
100
AcDbDimStyleTableRecord
  2
ME10_DIM_1
 70
     0
 41
12.25
 42
0.0
 44
3.5
 73
     0
 74
     0
 77
     1
 78
     8
140
12.25
147
0.625
172
     1
173
     1
176
     2
177
     2
178
     7
271
     2
340
20B
  0
DIMSTYLE
105
230
102
{ACAD_REACTORS
330
231
102
}
330
A
100
AcDbSymbolTableRecord
100
AcDbDimStyleTableRecord
  2
ME10_DIM_2
 70
     0
 41
12.25
 42
0.0
 44
3.5
 73
     0
 74
     0
 77
     1
 78
     8
140
12.25
147
0.625
172
     1
173
     1
176
     2
177
     2
178
     7
271
     2
340
20B
  0
DIMSTYLE
105
23C
102
{ACAD_REACTORS
330
23D
102
}
330
A
100
AcDbSymbolTableRecord
100
AcDbDimStyleTableRecord
  2
ME10_DIM_3
 70
     0
 41
12.25
 42
0.0
 44
3.5
 73
     0
 74
     0
 77
     1
 78
     8
140
12.25
147
0.625
172
     1
173
     1
176
     2
177
     2
178
     7
271
     2
340
1EA
  0
DIMSTYLE
105
247
102
{ACAD_REACTORS
330
248
102
}
330
A
100
AcDbSymbolTableRecord
100
AcDbDimStyleTableRecord
  2
ME10_DIM_4
 70
     0
 41
12.25
 42
0.0
 44
3.5
 73
     0
 74
     0
 77
     1
 78
     8
140
12.25
147
0.625
172
     1
173
     1
176
     2
177
     2
178
     7
271
     2
340
20B
  0
DIMSTYLE
105
252
102
{ACAD_REACTORS
330
253
102
}
330
A
100
AcDbSymbolTableRecord
100
AcDbDimStyleTableRecord
  2
ME10_DIM_5
 70
     0
 41
12.25
 42
0.0
 44
3.5
 73
     0
 74
     0
 77
     1
 78
     8
140
12.25
147
0.625
172
     1
173
     1
176
     2
177
     2
178
     7
271
     2
340
20B
  0
DIMSTYLE
105
260
102
{ACAD_REACTORS
330
261
102
}
330
A
100
AcDbSymbolTableRecord
100
AcDbDimStyleTableRecord
  2
ME10_DIM_6
 70
     0
 41
12.25
 42
0.0
 44
3.5
 73
     0
 74
     0
 77
     1
 78
     8
140
12.25
147
0.625
172
     1
173
     1
176
     2
177
     2
178
     7
271
     2
340
20B
343
25D
  0
ENDTAB
  0
TABLE
  2
BLOCK_RECORD
  5
1
330
0
100
AcDbSymbolTable
 70
    18
  0
BLOCK_RECORD
  5
1F
330
1
100
AcDbSymbolTableRecord
100
AcDbBlockTableRecord
  2
*Model_Space
340
22
  0
BLOCK_RECORD
  5
1B
330
1
100
AcDbSymbolTableRecord
100
AcDbBlockTableRecord
  2
*Paper_Space
340
1E
  0
BLOCK_RECORD
  5
23
330
1
100
AcDbSymbolTableRecord
100
AcDbBlockTableRecord
  2
*Paper_Space0
340
26
  0
BLOCK_RECORD
  5
36
330
1
100
AcDbSymbolTableRecord
100
AcDbBlockTableRecord
  2
61-1-16-170
340
0
102
{BLKREFS
331
49
102
}
  0
BLOCK_RECORD
  5
39
330
1
100
AcDbSymbolTableRecord
100
AcDbBlockTableRecord
  2
32-1-16
340
0
102
{BLKREFS
331
4A
102
}
  0
BLOCK_RECORD
  5
3C
330
1
100
AcDbSymbolTableRecord
100
AcDbBlockTableRecord
  2
21-1C
340
0
102
{BLKREFS
331
4B
102
}
  0
BLOCK_RECORD
  5
3F
330
1
100
AcDbSymbolTableRecord
100
AcDbBlockTableRecord
  2
42-1
340
0
102
{BLKREFS
331
4C
102
}
  0
BLOCK_RECORD
  5
42
330
1
100
AcDbSymbolTableRecord
100
AcDbBlockTableRecord
  2
37-1-13
340
0
102
{BLKREFS
331
4D
102
}
  0
BLOCK_RECORD
  5
45
330
1
100
AcDbSymbolTableRecord
100
AcDbBlockTableRecord
  2
36-1A-13-M11
340
0
102
{BLKREFS
331
4E
102
}
  0
BLOCK_RECORD
  5
48
330
1
100
AcDbSymbolTableRecord
100
AcDbBlockTableRecord
  2
R10A-13
340
0
102
{BLKREFS
331
57
102
}
  0
BLOCK_RECORD
  5
51
330
1
100
AcDbSymbolTableRecord
100
AcDbBlockTableRecord
  2
A20-0-13
340
0
102
{BLKREFS
331
58
102
}
  0
BLOCK_RECORD
  5
54
330
1
100
AcDbSymbolTableRecord
100
AcDbBlockTableRecord
  2
_J__A4
340
0
102
{BLKREFS
331
59
102
}
  0
BLOCK_RECORD
  5
211
330
1
100
AcDbSymbolTableRecord
100
AcDbBlockTableRecord
  2
*D010
340
0
  0
BLOCK_RECORD
  5
21C
330
1
100
AcDbSymbolTableRecord
100
AcDbBlockTableRecord
  2
*D111
340
0
  0
BLOCK_RECORD
  5
227
330
1
100
AcDbSymbolTableRecord
100
AcDbBlockTableRecord
  2
*D212
340
0
  0
BLOCK_RECORD
  5
232
330
1
100
AcDbSymbolTableRecord
100
AcDbBlockTableRecord
  2
*D313
340
0
  0
BLOCK_RECORD
  5
23E
330
1
100
AcDbSymbolTableRecord
100
AcDbBlockTableRecord
  2
*D414
340
0
  0
BLOCK_RECORD
  5
249
330
1
100
AcDbSymbolTableRecord
100
AcDbBlockTableRecord
  2
*D515
340
0
  0
BLOCK_RECORD
  5
254
330
1
100
AcDbSymbolTableRecord
100
AcDbBlockTableRecord
  2
*D616
340
0
  0
BLOCK_RECORD
  5
25D
330
1
100
AcDbSymbolTableRecord
100
AcDbBlockTableRecord
  2
_None
340
0
  0
ENDTAB
  0
ENDSEC
  0
SECTION
  2
BLOCKS
  0
BLOCK
  5
20
330
1F
100
AcDbEntity
  8
0
100
AcDbBlockBegin
  2
*Model_Space
 70
     0
 71
     0
 10
0.0
 20
0.0
 30
0.0
  3
*Model_Space
  1

  0
ENDBLK
  5
21
330
1F
100
AcDbEntity
  8
0
100
AcDbBlockEnd
  0
BLOCK
  5
1C
330
1B
100
AcDbEntity
 67
     1
  8
0
100
AcDbBlockBegin
  2
*Paper_Space
 70
     0
 71
     0
 10
0.0
 20
0.0
 30
0.0
  3
*Paper_Space
  1

  0
ENDBLK
  5
1D
330
1B
100
AcDbEntity
 67
     1
  8
0
100
AcDbBlockEnd
  0
BLOCK
  5
24
330
23
100
AcDbEntity
  8
0
100
AcDbBlockBegin
  2
*Paper_Space0
 70
     0
 71
     0
 10
0.0
 20
0.0
 30
0.0
  3
*Paper_Space0
  1

  0
ENDBLK
  5
25
330
23
100
AcDbEntity
  8
0
100
AcDbBlockEnd
  0
BLOCK
  5
37
330
36
100
AcDbEntity
  8
0
100
AcDbBlockBegin
  2
61-1-16-170
 70
     0
 71
     0
 10
-5.21582803369785
 20
365.7100281160254
 30
0.0
  3
61-1-16-170
  1

  0
LINE
  5
5A
330
36
100
AcDbEntity
  8
1
  6
Continuous
 62
     7
100
AcDbLine
 10
287.2549551811782
 20
328.8142307952437
 30
0.0
 11
287.2549551811782
 21
329.8142307952437
 31
0.0
  0
LINE
  5
5B
330
36
100
AcDbEntity
  8
1
  6
Continuous
 62
     7
100
AcDbLine
 10
271.2549551811782
 20
328.8142307952438
 30
0.0
 11
271.2549551811782
 21
329.8142307952438
 31
0.0
  0
LINE
  5
5C
330
36
100
AcDbEntity
  8
1
  6
Continuous
 62
     7
100
AcDbLine
 10
552.2549551811782
 20
348.8142307952438
 30
0.0
 11
306.2549551811782
 21
348.8142307952438
 31
0.0
  0
LINE
  5
5D
330
36
100
AcDbEntity
  8
1
  6
Continuous
 62
     7
100
AcDbLine
 10
587.2549551811782
 20
329.8142307952438
 30
0.0
 11
587.2549551811782
 21
324.3142307952438
 31
0.0
  0
LINE
  5
5E
330
36
100
AcDbEntity
  8
1
  6
Continuous
 62
     7
100
AcDbLine
 10
571.2549551811782
 20
324.3142307952438
 30
0.0
 11
571.2549551811782
 21
329.8142307952438
 31
0.0
  0
LINE
  5
5F
330
36
100
AcDbEntity
  8
1
  6
Continuous
 62
     7
100
AcDbLine
 10
552.2549551811782
 20
364.8142307952438
 30
0.0
 11
306.2549551811782
 21
364.8142307952438
 31
0.0
  0
LINE
  5
60
330
36
100
AcDbEntity
  8
1
  6
Continuous
 62
     7
100
AcDbLine
 10
286.6413621871643
 20
323.8142307952437
 30
0.0
 11
279.2549551811782
 21
323.8142307952437
 31
0.0
  0
LINE
  5
61
330
36
100
AcDbEntity
  8
1
  6
Continuous
 62
     7
100
AcDbLine
 10
279.2549551811782
 20
323.8142307952437
 30
0.0
 11
271.8685481751921
 21
323.8142307952437
 31
0.0
  0
LINE
  5
62
330
36
100
AcDbEntity
  8
1
  6
Continuous
 62
     7
100
AcDbLine
 10
287.2549551811782
 20
328.8142307952437
 30
0.0
 11
271.2549551811782
 21
328.8142307952438
 31
0.0
  0
LINE
  5
63
330
36
100
AcDbEntity
  8
1
  6
Continuous
 62
     7
100
AcDbLine
 10
164.1146331018696
 20
754.655936177615
 30
0.0
 11
164.1146331018697
 21
454.655936177615
 31
0.0
  0
LINE
  5
64
330
36
100
AcDbEntity
  8
1
  6
Continuous
 62
     7
100
AcDbLine
 10
148.1146331018697
 20
754.655936177615
 30
0.0
 11
148.1146331018697
 21
454.655936177615
 31
0.0
  0
LINE
  5
65
330
36
100
AcDbEntity
  8
1
  6
PHANTOM
 62
     4
100
AcDbLine
 10
167.4888552957316
 20
454.655936177615
 30
0.0
 11
145.1366818896487
 21
454.655936177615
 31
0.0
  0
LINE
  5
66
330
36
100
AcDbEntity
  8
1
  6
Continuous
 62
     7
100
AcDbLine
 10
164.1146331018697
 20
328.8142307952437
 30
0.0
 11
148.1146331018697
 21
328.8142307952438
 31
0.0
  0
LINE
  5
67
330
36
100
AcDbEntity
  8
1
  6
Continuous
 62
     7
100
AcDbLine
 10
148.7282260958835
 20
323.8142307952437
 30
0.0
 11
163.5010401078558
 21
323.8142307952437
 31
0.0
  0
LINE
  5
68
330
36
100
AcDbEntity
  8
1
  6
Continuous
 62
     7
100
AcDbLine
 10
164.1146331018697
 20
328.8142307952437
 30
0.0
 11
164.1146331018697
 21
356.8142307952438
 31
0.0
  0
LINE
  5
69
330
36
100
AcDbEntity
  8
1
  6
Continuous
 62
     7
100
AcDbLine
 10
148.1146331018697
 20
328.8142307952438
 30
0.0
 11
148.1146331018697
 21
356.8142307952438
 31
0.0
  0
LINE
  5
6A
330
36
100
AcDbEntity
  8
1
  6
PHANTOM
 62
     4
100
AcDbLine
 10
145.6014126925107
 20
356.8142307952438
 30
0.0
 11
167.0073491102972
 21
356.8142307952438
 31
0.0
  0
ARC
  5
6B
330
36
100
AcDbEntity
  8
1
  6
Continuous
 62
     7
100
AcDbCircle
 10
284.04492888646
 20
326.6705110880213
 30
0.0
 40
3.860026294718068
100
AcDbArc
 50
0.0
 51
33.73579100002926
  0
ARC
  5
6C
330
36
100
AcDbEntity
  8
1
  6
Continuous
 62
     7
100
AcDbCircle
 10
274.4649814758965
 20
326.6705110880213
 30
0.0
 40
3.860026294718296
100
AcDbArc
 50
180.0
 51
-132.2716554964199
  0
ARC
  5
6D
330
36
100
AcDbEntity
  8
1
  6
Continuous
 62
     7
100
AcDbCircle
 10
274.4649814758965
 20
326.6705110880213
 30
0.0
 40
3.860026294718304
100
AcDbArc
 50
146.2642089999698
 51
180.0
  0
ARC
  5
6E
330
36
100
AcDbEntity
  8
1
  6
Continuous
 62
     7
100
AcDbCircle
 10
284.04492888646
 20
326.6705110880213
 30
0.0
 40
3.860026294718213
100
AcDbArc
 50
-47.72834450358135
 51
0.0
  0
ARC
  5
6F
330
36
100
AcDbEntity
  8
1
  6
Continuous
 62
     7
100
AcDbCircle
 10
306.2549551811782
 20
329.8142307952437
 30
0.0
 40
19.00000000000011
100
AcDbArc
 50
90.0
 51
180.0
  0
ARC
  5
70
330
36
100
AcDbEntity
  8
1
  6
Continuous
 62
     7
100
AcDbCircle
 10
306.2549551811782
 20
329.8142307952437
 30
0.0
 40
35.00000000000011
100
AcDbArc
 50
90.0
 51
179.9999999999998
  0
ARC
  5
71
330
36
100
AcDbEntity
  8
1
  6
Continuous
 62
     7
100
AcDbCircle
 10
552.2549551811782
 20
329.8142307952438
 30
0.0
 40
19.0
100
AcDbArc
 50
0.0
 51
90.0
  0
ARC
  5
72
330
36
100
AcDbEntity
  8
1
  6
Continuous
 62
     7
100
AcDbCircle
 10
552.2549551811782
 20
329.8142307952438
 30
0.0
 40
35.0
100
AcDbArc
 50
0.0
 51
90.0
  0
ARC
  5
73
330
36
100
AcDbEntity
  8
1
  6
Continuous
 62
     7
100
AcDbCircle
 10
156.1146331018697
 20
454.655936177615
 30
0.0
 40
8.0
100
AcDbArc
 50
180.0
 51
0.0
  0
ARC
  5
74
330
36
100
AcDbEntity
  8
1
  6
Continuous
 62
     7
100
AcDbCircle
 10
156.1146331018697
 20
454.655936177615
 30
0.0
 40
8.650000000000205
100
AcDbArc
 50
-90.0
 51
22.35342559933236
  0
ARC
  5
75
330
36
100
AcDbEntity
  8
1
  6
Continuous
 62
     7
100
AcDbCircle
 10
156.1146331018697
 20
454.655936177615
 30
0.0
 40
8.650000000000071
100
AcDbArc
 50
157.6465744006677
 51
-90.0
  0
ARC
  5
76
330
36
100
AcDbEntity
  8
1
  6
Continuous
 62
     7
100
AcDbCircle
 10
160.9046068071515
 20
326.6705110880213
 30
0.0
 40
3.860026294718182
100
AcDbArc
 50
0.0
 51
33.73579100002926
  0
ARC
  5
77
330
36
100
AcDbEntity
  8
1
  6
Continuous
 62
     7
100
AcDbCircle
 10
151.324659396588
 20
326.6705110880213
 30
0.0
 40
3.860026294718296
100
AcDbArc
 50
180.0
 51
-132.2716554964208
  0
ARC
  5
78
330
36
100
AcDbEntity
  8
1
  6
Continuous
 62
     7
100
AcDbCircle
 10
151.324659396588
 20
326.6705110880213
 30
0.0
 40
3.860026294718328
100
AcDbArc
 50
146.26420899997
 51
180.0
  0
ARC
  5
79
330
36
100
AcDbEntity
  8
1
  6
Continuous
 62
     7
100
AcDbCircle
 10
160.9046068071515
 20
326.6705110880213
 30
0.0
 40
3.860026294718213
100
AcDbArc
 50
-47.72834450358135
 51
0.0
  0
ARC
  5
7A
330
36
100
AcDbEntity
  8
1
  6
Continuous
 62
     7
100
AcDbCircle
 10
156.1146331018697
 20
356.8142307952438
 30
0.0
 40
8.0
100
AcDbArc
 50
0.0
 51
180.0
  0
ARC
  5
7B
330
36
100
AcDbEntity
  8
1
  6
Continuous
 62
     7
100
AcDbCircle
 10
156.1146331018697
 20
754.655936177615
 30
0.0
 40
7.999999999999886
100
AcDbArc
 50
0.0
 51
180.0
  0
ENDBLK
  5
38
330
36
100
AcDbEntity
  8
0
100
AcDbBlockEnd
  0
BLOCK
  5
3A
330
39
100
AcDbEntity
  8
0
100
AcDbBlockBegin
  2
32-1-16
 70
     0
 71
     0
 10
360.9019112083782
 20
547.3491420378471
 30
0.0
  3
32-1-16
  1

  0
LINE
  5
7C
330
39
100
AcDbEntity
  8
1
  6
Continuous
 62
     7
100
AcDbLine
 10
573.0621974920211
 20
314.3142307952427
 30
0.0
 11
565.9549551811781
 21
314.3142307952427
 31
0.0
  0
LINE
  5
7D
330
39
100
AcDbEntity
  8
1
  6
Continuous
 62
     7
100
AcDbLine
 10
590.7549551811782
 20
323.3142307952427
 30
0.0
 11
590.8129762429088
 21
323.3142307952427
 31
0.0
  0
LINE
  5
7E
330
39
100
AcDbEntity
  8
1
  6
Continuous
 62
     7
100
AcDbLine
 10
566.0679551811782
 20
314.3142307952427
 30
0.0
 11
565.9549551811781
 21
314.3142307952427
 31
0.0
  0
LINE
  5
7F
330
39
100
AcDbEntity
  8
1
  6
Continuous
 62
     7
100
AcDbLine
 10
567.6969341194476
 20
323.3142307952427
 30
0.0
 11
567.7549551811782
 21
323.3142307952427
 31
0.0
  0
LINE
  5
80
330
39
100
AcDbEntity
  8
1
  6
Continuous
 62
     7
100
AcDbLine
 10
592.5549551811782
 20
314.3142307952427
 30
0.0
 11
585.4595333380827
 21
314.3142307952427
 31
0.0
  0
LINE
  5
81
330
39
100
AcDbEntity
  8
1
  6
Continuous
 62
     7
100
AcDbLine
 10
589.0229043736093
 20
324.3142307952427
 30
0.0
 11
569.4870059887471
 21
324.3142307952427
 31
0.0
  0
LINE
  5
82
330
39
100
AcDbEntity
  8
1
  6
Continuous
 62
     7
100
AcDbLine
 10
565.2549551811782
 20
314.8859796164129
 30
0.0
 11
565.2549551811782
 21
322.0274080449558
 31
0.0
  0
LINE
  5
83
330
39
100
AcDbEntity
  8
1
  6
Continuous
 62
     7
100
AcDbLine
 10
593.2549551811782
 20
322.0274080449557
 30
0.0
 11
593.2549551811782
 21
314.8859796164129
 31
0.0
  0
LINE
  5
84
330
39
100
AcDbEntity
  8
1
  6
Continuous
 62
     7
100
AcDbLine
 10
568.6209805849627
 20
323.3142307952427
 30
0.0
 11
589.8889297773937
 21
323.3142307952427
 31
0.0
  0
LINE
  5
85
330
39
100
AcDbEntity
  8
1
  6
Continuous
 62
     7
100
AcDbLine
 10
144.556612040139
 20
323.3142307952435
 30
0.0
 11
144.6146331018697
 21
323.3142307952435
 31
0.0
  0
LINE
  5
86
330
39
100
AcDbEntity
  8
1
  6
Continuous
 62
     7
100
AcDbLine
 10
142.9276331018697
 20
314.3142307952435
 30
0.0
 11
142.8146331018696
 21
314.3142307952435
 31
0.0
  0
LINE
  5
87
330
39
100
AcDbEntity
  8
1
  6
Continuous
 62
     7
100
AcDbLine
 10
142.8146331018696
 20
314.3142307952435
 30
0.0
 11
156.1146331018697
 21
314.3142307952435
 31
0.0
  0
LINE
  5
88
330
39
100
AcDbEntity
  8
1
  6
Continuous
 62
     7
100
AcDbLine
 10
162.7667004496947
 20
768.655936177615
 30
0.0
 11
149.4625657540446
 21
768.655936177615
 31
0.0
  0
LINE
  5
89
330
39
100
AcDbEntity
  8
1
  6
Continuous
 62
     7
100
AcDbLine
 10
171.5650224287642
 20
755.8950768667138
 30
0.0
 11
164.9129550809392
 21
767.4167954885164
 31
0.0
  0
LINE
  5
8A
330
39
100
AcDbEntity
  8
1
  6
Continuous
 62
     7
100
AcDbLine
 10
164.9129550809392
 20
741.8950768667138
 30
0.0
 11
171.5650224287642
 21
753.4167954885164
 31
0.0
  0
LINE
  5
8B
330
39
100
AcDbEntity
  8
1
  6
Continuous
 62
     7
100
AcDbLine
 10
165.8825822943008
 20
324.3142307952435
 30
0.0
 11
163.9093810563909
 21
324.3142307952435
 31
0.0
  0
LINE
  5
8C
330
39
100
AcDbEntity
  8
1
  6
Continuous
 62
     7
100
AcDbLine
 10
167.6146331018697
 20
323.3142307952435
 30
0.0
 11
167.6726541636002
 21
323.3142307952435
 31
0.0
  0
LINE
  5
8D
330
39
100
AcDbEntity
  8
1
  6
Continuous
 62
     7
100
AcDbLine
 10
169.4146331018696
 20
314.3142307952435
 30
0.0
 11
169.3016331018696
 21
314.3142307952435
 31
0.0
  0
LINE
  5
8E
330
39
100
AcDbEntity
  8
1
  6
Continuous
 62
     7
100
AcDbLine
 10
156.1146331018697
 20
314.3142307952435
 30
0.0
 11
169.4146331018696
 21
314.3142307952435
 31
0.0
  0
LINE
  5
8F
330
39
100
AcDbEntity
  8
1
  6
Continuous
 62
     7
100
AcDbLine
 10
148.2690504522834
 20
324.3142307952435
 30
0.0
 11
146.3466839094384
 21
324.3142307952435
 31
0.0
  0
LINE
  5
90
330
39
100
AcDbEntity
  8
1
  6
Continuous
 62
     7
100
AcDbLine
 10
147.3163111228002
 20
767.4167954885164
 30
0.0
 11
140.6642437749753
 21
755.8950768667138
 31
0.0
  0
LINE
  5
91
330
39
100
AcDbEntity
  8
1
  6
Continuous
 62
     7
100
AcDbLine
 10
140.6642437749753
 20
753.4167954885164
 30
0.0
 11
147.3163111228002
 21
741.8950768667138
 31
0.0
  0
ARC
  5
92
330
39
100
AcDbEntity
  8
1
  6
Continuous
 62
     7
100
AcDbCircle
 10
589.7549551811782
 20
318.4566938306843
 30
0.0
 40
4.999999999999975
100
AcDbArc
 50
45.57299599919402
 51
74.66244233044527
  0
ARC
  5
93
330
39
100
AcDbEntity
  8
1
  6
Continuous
 62
     7
100
AcDbCircle
 10
568.7549551811782
 20
318.4566938306843
 30
0.0
 40
4.999999999999975
100
AcDbArc
 50
-134.427004000806
 51
-124.0557977425685
  0
ARC
  5
94
330
39
100
AcDbEntity
  8
1
  6
Continuous
 62
     7
100
AcDbCircle
 10
568.7549551811782
 20
318.4566938306843
 30
0.0
 40
5.0
100
AcDbArc
 50
105.3375576695547
 51
134.4270040008051
  0
ARC
  5
95
330
39
100
AcDbEntity
  8
1
  6
Continuous
 62
     7
100
AcDbCircle
 10
589.7549551811782
 20
318.4566938306843
 30
0.0
 40
5.000000000000048
100
AcDbArc
 50
-55.94420225743153
 51
-45.57299599919402
  0
ARC
  5
96
330
39
100
AcDbEntity
  8
1
  6
Continuous
 62
     7
100
AcDbCircle
 10
145.6146331018697
 20
318.4566938306851
 30
0.0
 40
5.000000000000124
100
AcDbArc
 50
105.337557669555
 51
-124.055797742569
  0
ARC
  5
97
330
39
100
AcDbEntity
  8
1
  6
Continuous
 62
     7
100
AcDbCircle
 10
156.1146331018696
 20
754.655936177615
 30
0.0
 40
15.49999999999997
100
AcDbArc
 50
55.41462091516095
 51
64.58537908483883
  0
ARC
  5
98
330
39
100
AcDbEntity
  8
1
  6
Continuous
 62
     7
100
AcDbCircle
 10
156.1146331018696
 20
754.655936177615
 30
0.0
 40
15.5
100
AcDbArc
 50
0.0
 51
4.58537908484
  0
ARC
  5
99
330
39
100
AcDbEntity
  8
1
  6
Continuous
 62
     7
100
AcDbCircle
 10
156.1146331018696
 20
754.655936177615
 30
0.0
 40
15.49999999999986
100
AcDbArc
 50
-58.92704902784588
 51
-55.41462091516047
  0
ARC
  5
9A
330
39
100
AcDbEntity
  8
1
  6
Continuous
 62
     7
100
AcDbCircle
 10
156.1146331018696
 20
754.655936177615
 30
0.0
 40
15.49999999999994
100
AcDbArc
 50
-4.58537908483916
 51
0.0
  0
ARC
  5
9B
330
39
100
AcDbEntity
  8
1
  6
Continuous
 62
     7
100
AcDbCircle
 10
166.6146331018697
 20
318.4566938306851
 30
0.0
 40
4.999999999999953
100
AcDbArc
 50
-55.94420225743315
 51
74.66244233044588
  0
ARC
  5
9C
330
39
100
AcDbEntity
  8
1
  6
Continuous
 62
     7
100
AcDbCircle
 10
156.1146331018696
 20
754.655936177615
 30
0.0
 40
15.49999999999999
100
AcDbArc
 50
115.4146209151609
 51
124.5853790848385
  0
ARC
  5
9D
330
39
100
AcDbEntity
  8
1
  6
Continuous
 62
     7
100
AcDbCircle
 10
156.1146331018696
 20
754.655936177615
 30
0.0
 40
15.49999999999967
100
AcDbArc
 50
175.4146209151599
 51
180.0
  0
ARC
  5
9E
330
39
100
AcDbEntity
  8
1
  6
Continuous
 62
     7
100
AcDbCircle
 10
156.1146331018696
 20
754.655936177615
 30
0.0
 40
15.49999999999967
100
AcDbArc
 50
-124.5853790848389
 51
-121.0729509721534
  0
ARC
  5
9F
330
39
100
AcDbEntity
  8
1
  6
Continuous
 62
     7
100
AcDbCircle
 10
156.1146331018696
 20
754.655936177615
 30
0.0
 40
15.49999999999969
100
AcDbArc
 50
180.0
 51
-175.4146209151608
  0
ARC
  5
A0
330
39
100
AcDbEntity
  8
1
  6
Continuous
 62
     7
100
AcDbCircle
 10
156.1146331018696
 20
754.655936177615
 30
0.0
 40
10.76794919243111
100
AcDbArc
 50
-42.01706006464686
 51
89.9999999999994
  0
ARC
  5
A1
330
39
100
AcDbEntity
  8
1
  6
Continuous
 62
     7
100
AcDbCircle
 10
156.1146331018696
 20
754.655936177615
 30
0.0
 40
10.76794919243116
100
AcDbArc
 50
89.9999999999994
 51
-137.9829399353523
  0
SPLINE
  5
A2
330
39
100
AcDbEntity
  8
1
  6
Continuous
 62
     7
100
AcDbSpline
210
0.0
220
0.0
230
1.0
 70
     8
 71
     3
 72
    59
 73
    55
 74
    53
 42
0.0000000001
 43
0.0000000001
 44
0.00000001
 40
0.0
 40
0.0
 40
0.0
 40
0.0
 40
0.3328651923268225
 40
0.6657611143671209
 40
1.067419790257974
 40
1.468838798305351
 40
1.902250715066092
 40
2.335501159483226
 40
2.796817196309538
 40
3.258030103351307
 40
3.74092690223037
 40
4.22376303518277
 40
4.720245461026764
 40
5.216699839322686
 40
5.717807166082894
 40
6.2189144928431
 40
6.715368871138908
 40
7.211851296982911
 40
7.694687429935343
 40
8.177584228814364
 40
8.638797135856242
 40
9.100113172682555
 40
9.533363617099846
 40
9.966775533860616
 40
10.36819454190806
 40
10.76985321779877
 40
11.1389613409462
 40
11.50839734425428
 40
11.84902950637075
 40
12.19003325534106
 40
12.51084708735683
 40
12.83192840047517
 40
13.1456903857139
 40
13.45945237095267
 40
13.78053368407085
 40
14.10134751608672
 40
14.44235126505713
 40
14.78298342717367
 40
15.15241943048168
 40
15.52152755362927
 40
15.92318622951986
 40
16.32460523756729
 40
16.75801715432813
 40
17.19126759874537
 40
17.65258363557166
 40
18.11379654261345
 40
18.59669334149237
 40
19.07952947444489
 40
19.57601190028901
 40
20.07246627858481
 40
20.57357360534513
 40
21.07468093210522
 40
21.30241172854301
 40
21.52997850248056
 40
21.52997850248056
 40
21.52997850248056
 40
21.52997850248056
 10
581.0829666847018
 20
320.0289813534852
 30
0.0
 10
581.1542390287309
 20
320.1141292600704
 30
0.0
 10
581.2967902965663
 20
320.2844329339931
 30
0.0
 10
581.5561361901156
 20
320.5290373160337
 30
0.0
 10
581.8517079419162
 20
320.7663233860496
 30
0.0
 10
582.194479248831
 20
320.9960644942048
 30
0.0
 10
582.5631311744814
 20
321.2036693383253
 30
0.0
 10
582.9636982446757
 20
321.3928758344963
 30
0.0
 10
583.3847992354467
 20
321.5578434256826
 30
0.0
 10
583.8311585096246
 20
321.7010266255421
 30
0.0
 10
584.292354096398
 20
321.8185540825409
 30
0.0
 10
584.7710492669148
 20
321.9116378260983
 30
0.0
 10
585.258716555502
 20
321.9781406419821
 30
0.0
 10
585.7553343667828
 20
322.0185261997463
 30
0.0
 10
586.2549551808592
 20
322.0318696812178
 30
0.0
 10
586.7545759968477
 20
322.0185262006763
 30
0.0
 10
587.2511938024445
 20
321.9781406383023
 30
0.0
 10
587.7388611116423
 20
321.9116378397422
 30
0.0
 10
588.2175562073639
 20
321.8185540331564
 30
0.0
 10
588.6787520674902
 20
321.7010268065477
 30
0.0
 10
589.1251103652667
 20
321.5578427837378
 30
0.0
 10
589.5462148920599
 20
321.3928781728544
 30
0.0
 10
589.9467695299881
 20
321.2036611982656
 30
0.0
 10
590.3154661211755
 20
320.9960940000713
 30
0.0
 10
590.6580824126534
 20
320.7662222386169
 30
0.0
 10
590.9636302562923
 20
320.5218389316791
 30
0.0
 10
591.2377827219702
 20
320.2578076815756
 30
0.0
 10
591.4710263869522
 20
319.9830503373245
 30
0.0
 10
591.6679054204205
 20
319.6923497853793
 30
0.0
 10
591.8210049626356
 20
319.3943641305724
 30
0.0
 10
591.9335524331457
 20
319.0856635110598
 30
0.0
 10
592.0001039435067
 20
318.7730928738232
 30
0.0
 10
592.0235792001938
 20
318.4566938306844
 30
0.0
 10
592.0001039435069
 20
318.1402947875455
 30
0.0
 10
591.9335524331457
 20
317.8277241503089
 30
0.0
 10
591.8210049626359
 20
317.5190235307963
 30
0.0
 10
591.6679054204207
 20
317.221037875989
 30
0.0
 10
591.4710263869522
 20
316.9303373240456
 30
0.0
 10
591.23778272197
 20
316.655579979787
 30
0.0
 10
590.9636302562928
 20
316.3915487297119
 30
0.0
 10
590.6580824126509
 20
316.1471654226613
 30
0.0
 10
590.3154661211845
 20
315.9172936616452
 30
0.0
 10
589.9467695299526
 20
315.7097264616892
 30
0.0
 10
589.5462148921952
 20
315.5205094939195
 30
0.0
 10
589.1251103647257
 20
315.3555448560045
 30
0.0
 10
588.6787520695443
 20
315.2123609369432
 30
0.0
 10
588.2175561992981
 20
315.0948333057077
 30
0.0
 10
587.7388611420527
 20
315.0017510375675
 30
0.0
 10
587.2511936853914
 20
314.9352423427187
 30
0.0
 10
586.7545764349894
 20
314.8948789796895
 30
0.0
 10
586.2549535287302
 20
314.8814519201568
 30
0.0
 10
585.8449251966455
 20
314.8926584965464
 30
0.0
 10
585.5267536762054
 20
314.9133554651319
 30
0.0
 10
585.3756891374389
 20
314.9280197405517
 30
0.0
 10
585.3001840788132
 20
314.9353492368341
 30
0.0
 11
581.0829666847018
 21
320.0289813534852
 31
0.0
 11
581.3015846569704
 21
320.2799901550519
 31
0.0
 11
581.5420282422697
 21
320.5102217280376
 31
0.0
 11
581.8551895994915
 21
320.7617364517843
 31
0.0
 11
582.1882167186723
 21
320.9858573073777
 31
0.0
 11
582.5655450813906
 21
321.1990923801929
 31
0.0
 11
582.957112750584
 21
321.3845127351438
 31
0.0
 11
583.3864461023231
 21
321.5532887965908
 31
0.0
 11
583.8255351908236
 21
321.6944203592609
 31
0.0
 11
584.2933810812245
 21
321.8140428538121
 31
0.0
 11
584.7673131087232
 21
321.9063421744781
 31
0.0
 11
585.2592098154167
 21
321.9736654922514
 31
0.0
 11
585.7540293673992
 21
322.0139216806585
 31
0.0
 11
586.2549551811788
 21
322.0274080449559
 31
0.0
 11
586.7558809949585
 21
322.0139216806586
 31
0.0
 11
587.2507005469408
 21
321.9736654922515
 31
0.0
 11
587.7425972536344
 21
321.9063421744781
 31
0.0
 11
588.216529281133
 21
321.8140428538119
 31
0.0
 11
588.6843751715339
 21
321.6944203592609
 31
0.0
 11
589.1234642600346
 21
321.5532887965908
 31
0.0
 11
589.5527976117737
 21
321.3845127351438
 31
0.0
 11
589.9443652809673
 21
321.199092380193
 31
0.0
 11
590.3216936436857
 21
320.9858573073777
 31
0.0
 11
590.6547207628665
 21
320.7617364517844
 31
0.0
 11
590.9678821200881
 21
320.5102217280377
 31
0.0
 11
591.2332192491929
 21
320.2536344826573
 31
0.0
 11
591.4717125457482
 21
319.9714928373116
 31
0.0
 11
591.6619482698538
 21
319.6889319781287
 31
0.0
 11
591.8173731364311
 21
319.3854082267332
 31
0.0
 11
591.9263279685755
 21
319.0836627058633
 31
0.0
 11
591.9933235102783
 21
318.7696486822501
 31
0.0
 11
592.0158144920803
 21
318.4566938306843
 31
0.0
 11
591.9933235102785
 21
318.1437389791186
 31
0.0
 11
591.9263279685757
 21
317.8297249555055
 31
0.0
 11
591.8173731364313
 21
317.5279794346355
 31
0.0
 11
591.661948269854
 21
317.2244556832399
 31
0.0
 11
591.4717125457482
 21
316.941894824057
 31
0.0
 11
591.233219249193
 21
316.6597531787113
 31
0.0
 11
590.967882120088
 21
316.403165933331
 31
0.0
 11
590.6547207628665
 21
316.1516512095843
 31
0.0
 11
590.3216936436857
 21
315.927530353991
 31
0.0
 11
589.9443652809672
 21
315.7142952811757
 31
0.0
 11
589.5527976117737
 21
315.5288749262248
 31
0.0
 11
589.1234642600346
 21
315.3600988647779
 31
0.0
 11
588.684375171534
 21
315.2189673021077
 31
0.0
 11
588.2165292811333
 21
315.0993448075567
 31
0.0
 11
587.7425972536345
 21
315.0070454868906
 31
0.0
 11
587.2507005469408
 21
314.9397221691172
 31
0.0
 11
586.7558809949585
 21
314.8994659807102
 31
0.0
 11
586.2549551811787
 21
314.8859796164128
 31
0.0
 11
585.7540293673992
 21
314.8994659807102
 31
0.0
 11
585.526799520551
 21
314.9145627468382
 31
0.0
 11
585.3001840788132
 21
314.9353492368341
 31
0.0
  0
SPLINE
  5
A3
330
39
100
AcDbEntity
  8
1
  6
Continuous
 62
     7
100
AcDbSpline
210
0.0
220
0.0
230
1.0
 70
     8
 71
     3
 72
    59
 73
    55
 74
    53
 42
0.0000000001
 43
0.0000000001
 44
0.00000001
 40
0.0
 40
0.0
 40
0.0
 40
0.0
 40
0.3328651923234099
 40
0.6657611143602149
 40
1.067419790250855
 40
1.468838798298326
 40
1.902250715059068
 40
2.335501159476407
 40
2.796817196302613
 40
3.258030103344382
 40
3.740926902223335
 40
4.223763035175958
 40
4.720245461020065
 40
5.216699839315874
 40
5.717807166076194
 40
6.2189144928364
 40
6.715368871132209
 40
7.211851296976324
 40
7.694687429928756
 40
8.177584228807557
 40
8.638797135849327
 40
9.100113172675638
 40
9.533363617092826
 40
9.966775533853497
 40
10.36819454190084
 40
10.76985321779164
 40
11.13896134093931
 40
11.50839734424732
 40
11.84902950636379
 40
12.19003325533416
 40
12.51084708734992
 40
12.83192840046829
 40
13.14569038570701
 40
13.45945237094579
 40
13.78053368406397
 40
14.10134751607984
 40
14.4423512650502
 40
14.78298342716668
 40
15.15241943047476
 40
15.52152755362227
 40
15.92318622951321
 40
16.32460523756055
 40
16.7580171543212
 40
17.19126759873854
 40
17.65258363556472
 40
18.11379654260651
 40
18.59669334148544
 40
19.07952947443785
 40
19.57601190028196
 40
20.07246627857765
 40
20.57357360533797
 40
21.07468093209818
 40
21.30241172853619
 40
21.52997850247409
 40
21.52997850247409
 40
21.52997850247409
 40
21.52997850247409
 10
577.4269436776517
 20
320.0289813534907
 30
0.0
 10
577.3556713336232
 20
320.1141292600751
 30
0.0
 10
577.213120065789
 20
320.2844329339957
 30
0.0
 10
576.9537741722418
 20
320.5290373160344
 30
0.0
 10
576.6582024204414
 20
320.7663233860497
 30
0.0
 10
576.3154311135271
 20
320.9960644942048
 30
0.0
 10
575.946779187876
 20
321.2036693383254
 30
0.0
 10
575.5462121176823
 20
321.3928758344961
 30
0.0
 10
575.1251111269113
 20
321.5578434256827
 30
0.0
 10
574.6787518527329
 20
321.7010266255419
 30
0.0
 10
574.2175562659598
 20
321.8185540825409
 30
0.0
 10
573.7388610954429
 20
321.9116378260983
 30
0.0
 10
573.2511938068558
 20
321.978140641982
 30
0.0
 10
572.7545759955749
 20
322.0185261997463
 30
0.0
 10
572.2549551814984
 20
322.0318696812177
 30
0.0
 10
571.7553343655097
 20
322.0185262006762
 30
0.0
 10
571.258716559913
 20
321.9781406383024
 30
0.0
 10
570.7710492507151
 20
321.9116378397422
 30
0.0
 10
570.2923541549938
 20
321.8185540331564
 30
0.0
 10
569.8311582948672
 20
321.7010268065479
 30
0.0
 10
569.3847999970913
 20
321.5578427837378
 30
0.0
 10
568.9636954702977
 20
321.3928781728543
 30
0.0
 10
568.56314083237
 20
321.2036611982657
 30
0.0
 10
568.1944442411823
 20
320.9960940000714
 30
0.0
 10
567.8518279497048
 20
320.7662222386168
 30
0.0
 10
567.5462801060659
 20
320.5218389316789
 30
0.0
 10
567.2721276403875
 20
320.2578076815759
 30
0.0
 10
567.0388839754055
 20
319.9830503373243
 30
0.0
 10
566.8420049419374
 20
319.6923497853794
 30
0.0
 10
566.6889053997219
 20
319.3943641305725
 30
0.0
 10
566.5763579292124
 20
319.0856635110598
 30
0.0
 10
566.5098064188508
 20
318.7730928738232
 30
0.0
 10
566.4863311621639
 20
318.4566938306843
 30
0.0
 10
566.5098064188511
 20
318.1402947875455
 30
0.0
 10
566.576357929212
 20
317.8277241503089
 30
0.0
 10
566.6889053997222
 20
317.5190235307964
 30
0.0
 10
566.842004941937
 20
317.2210378759889
 30
0.0
 10
567.0388839754055
 20
316.9303373240456
 30
0.0
 10
567.2721276403877
 20
316.6555799797872
 30
0.0
 10
567.5462801060648
 20
316.3915487297116
 30
0.0
 10
567.8518279497072
 20
316.1471654226615
 30
0.0
 10
568.1944442411734
 20
315.9172936616452
 30
0.0
 10
568.5631408324053
 20
315.7097264616893
 30
0.0
 10
568.9636954701625
 20
315.5205094939194
 30
0.0
 10
569.3847999976324
 20
315.3555448560045
 30
0.0
 10
569.8311582928134
 20
315.2123609369431
 30
0.0
 10
570.2923541630596
 20
315.0948333057079
 30
0.0
 10
570.7710492203051
 20
315.0017510375676
 30
0.0
 10
571.2587166769661
 20
314.9352423427185
 30
0.0
 10
571.7553339273682
 20
314.8948789796894
 30
0.0
 10
572.2549568336274
 20
314.881451920157
 30
0.0
 10
572.6649851657121
 20
314.8926584965465
 30
0.0
 10
572.9831566861526
 20
314.9133554651319
 30
0.0
 10
573.134221224919
 20
314.9280197405518
 30
0.0
 10
573.209726283545
 20
314.9353492368342
 30
0.0
 11
577.4269436776517
 21
320.0289813534907
 31
0.0
 11
577.2083257053851
 21
320.2799901550545
 31
0.0
 11
576.9678821200881
 21
320.5102217280377
 31
0.0
 11
576.6547207628665
 21
320.7617364517843
 31
0.0
 11
576.3216936436857
 21
320.9858573073777
 31
0.0
 11
575.9443652809673
 21
321.1990923801929
 31
0.0
 11
575.5527976117737
 21
321.3845127351438
 31
0.0
 11
575.1234642600347
 21
321.5532887965908
 31
0.0
 11
574.6843751715342
 21
321.6944203592609
 31
0.0
 11
574.2165292811334
 21
321.8140428538121
 31
0.0
 11
573.7425972536345
 21
321.9063421744781
 31
0.0
 11
573.2507005469408
 21
321.9736654922514
 31
0.0
 11
572.7558809949585
 21
322.0139216806585
 31
0.0
 11
572.2549551811787
 21
322.0274080449559
 31
0.0
 11
571.7540293673991
 21
322.0139216806586
 31
0.0
 11
571.2592098154167
 21
321.9736654922515
 31
0.0
 11
570.7673131087231
 21
321.9063421744781
 31
0.0
 11
570.2933810812244
 21
321.8140428538119
 31
0.0
 11
569.8255351908238
 21
321.6944203592609
 31
0.0
 11
569.3864461023233
 21
321.5532887965908
 31
0.0
 11
568.9571127505841
 21
321.3845127351438
 31
0.0
 11
568.5655450813906
 21
321.199092380193
 31
0.0
 11
568.1882167186724
 21
320.9858573073777
 31
0.0
 11
567.8551895994916
 21
320.7617364517844
 31
0.0
 11
567.5420282422699
 21
320.5102217280377
 31
0.0
 11
567.2766911131648
 21
320.2536344826573
 31
0.0
 11
567.0381978166096
 21
319.9714928373116
 31
0.0
 11
566.847962092504
 21
319.6889319781287
 31
0.0
 11
566.6925372259266
 21
319.3854082267332
 31
0.0
 11
566.5835823937822
 21
319.0836627058633
 31
0.0
 11
566.5165868520793
 21
318.7696486822501
 31
0.0
 11
566.4940958702774
 21
318.4566938306843
 31
0.0
 11
566.5165868520794
 21
318.1437389791186
 31
0.0
 11
566.5835823937822
 21
317.8297249555055
 31
0.0
 11
566.6925372259266
 21
317.5279794346355
 31
0.0
 11
566.8479620925039
 21
317.2244556832399
 31
0.0
 11
567.0381978166095
 21
316.941894824057
 31
0.0
 11
567.2766911131648
 21
316.6597531787113
 31
0.0
 11
567.5420282422697
 21
316.403165933331
 31
0.0
 11
567.8551895994916
 21
316.1516512095843
 31
0.0
 11
568.1882167186724
 21
315.927530353991
 31
0.0
 11
568.5655450813906
 21
315.7142952811757
 31
0.0
 11
568.9571127505842
 21
315.5288749262248
 31
0.0
 11
569.3864461023233
 21
315.3600988647779
 31
0.0
 11
569.8255351908238
 21
315.2189673021077
 31
0.0
 11
570.2933810812245
 21
315.0993448075567
 31
0.0
 11
570.7673131087232
 21
315.0070454868906
 31
0.0
 11
571.2592098154169
 21
314.9397221691172
 31
0.0
 11
571.7540293673991
 21
314.8994659807102
 31
0.0
 11
572.2549551811788
 21
314.8859796164129
 31
0.0
 11
572.7558809949585
 21
314.8994659807102
 31
0.0
 11
572.9831108418069
 21
314.9145627468383
 31
0.0
 11
573.209726283545
 21
314.9353492368342
 31
0.0
  0
SPLINE
  5
A4
330
39
100
AcDbEntity
  8
0
  6
Continuous
 62
     7
100
AcDbSpline
210
0.0
220
0.0
230
1.0
 70
    11
 71
     3
 72
    79
 73
    75
 74
    73
 42
0.0000000001
 43
0.0000000001
 44
0.00000001
 40
0.0
 40
0.0
 40
0.0
 40
0.0
 40
0.2910229153818732
 40
0.5820342278738235
 40
0.8749339334364943
 40
1.167812547519338
 40
1.463561188767215
 40
1.759282806464782
 40
2.058487811140732
 40
2.357663885605937
 40
2.660503341347648
 40
2.963315625194682
 40
3.269530826276446
 40
3.575723468843754
 40
3.884662744191385
 40
4.193586027919014
 40
4.50428908561068
 40
4.814983882015305
 40
5.126294430971123
 40
5.437604979926885
 40
5.748299776331569
 40
6.059002834023231
 40
6.36792611775086
 40
6.676865393098438
 40
6.983058035665746
 40
7.289273236747558
 40
7.592085520594575
 40
7.894924976336348
 40
8.194101050801494
 40
8.49330605547746
 40
8.789027673174987
 40
9.084776314422921
 40
9.377654928505791
 40
9.67055463406847
 40
9.961565946560434
 40
10.2525888619423
 40
10.54295309984926
 40
10.83331733775627
 40
11.12434025313812
 40
11.41535156563001
 40
11.70825127119268
 40
12.0011298852756
 40
12.29687852652358
 40
12.59260014422108
 40
12.89180514889702
 40
13.19098122336219
 40
13.49382067910388
 40
13.79663296295094
 40
14.1028481640328
 40
14.40904080660006
 40
14.71798008194764
 40
15.02690336567527
 40
15.33760642336687
 40
15.64830121977156
 40
15.95961176872732
 40
16.27092231768313
 40
16.58161711408787
 40
16.89232017177953
 40
17.20124345550712
 40
17.51018273085468
 40
17.81637537342195
 40
18.12259057450376
 40
18.42540285835084
 40
18.72824231409257
 40
19.02741838855772
 40
19.3266233932337
 40
19.62234501093127
 40
19.91809365217925
 40
20.21097226626207
 40
20.50387197182472
 40
20.79488328431663
 40
21.08590619969847
 40
21.37627043760552
 40
21.66663467551256
 40
21.66663467551256
 40
21.66663467551256
 40
21.66663467551256
 10
167.9489453001013
 20
322.0137630820863
 30
0.0
 10
167.8525702413843
 20
322.0020874142849
 30
0.0
 10
167.6598239663599
 20
321.9787365441832
 30
0.0
 10
167.3758874570949
 20
321.9093805507328
 30
0.0
 10
167.0986231912362
 20
321.8159377931572
 30
0.0
 10
166.8298708073861
 20
321.69603080718
 30
0.0
 10
166.5722254238664
 20
321.5519853019929
 30
0.0
 10
166.3269984766317
 20
321.3839187011474
 30
0.0
 10
166.0967351205745
 20
321.1940839680735
 30
0.0
 10
165.8825029120585
 20
320.9829478394061
 30
0.0
 10
165.6865484832958
 20
320.7531682357723
 30
0.0
 10
165.5097911396751
 20
320.505439703548
 30
0.0
 10
165.3540203057079
 20
320.2427074637142
 30
0.0
 10
165.2200518883389
 20
319.9659564520722
 30
0.0
 10
165.1091288570534
 20
319.6782244743088
 30
0.0
 10
165.0219520646821
 20
319.3808710278859
 30
0.0
 10
164.9592040545891
 20
319.0768250317428
 30
0.0
 10
164.9214036753769
 20
318.7678834359886
 30
0.0
 10
164.9087266018886
 20
318.4566938306861
 30
0.0
 10
164.9214036753766
 20
318.1455042253778
 30
0.0
 10
164.9592040545904
 20
317.8365626296404
 30
0.0
 10
165.0219520646775
 20
317.5325166334358
 30
0.0
 10
165.1091288570705
 20
317.2351631872419
 30
0.0
 10
165.2200518882758
 20
316.9474312086271
 30
0.0
 10
165.3540203059411
 20
316.6706802001349
 30
0.0
 10
165.5097911388085
 20
316.4079479486107
 30
0.0
 10
165.6865484864899
 20
316.1602194595525
 30
0.0
 10
165.882502900193
 20
315.9304396958318
 30
0.0
 10
166.0967351642642
 20
315.7193041577239
 30
0.0
 10
166.3269983142985
 20
315.5294672345963
 30
0.0
 10
166.5722260218938
 20
315.3614087165016
 30
0.0
 10
166.8298685835731
 20
315.2173332147085
 30
0.0
 10
167.0986314014644
 20
315.0975371442289
 30
0.0
 10
167.3758568871567
 20
315.0036821473875
 30
0.0
 10
167.6599372406594
 20
314.9358552407979
 30
0.0
 10
167.9483047211724
 20
314.8951602791741
 30
0.0
 10
168.2389887548519
 20
314.8813944856092
 30
0.0
 10
168.5296727885313
 20
314.895160279174
 30
0.0
 10
168.8180402690443
 20
314.9358552407977
 30
0.0
 10
169.1021206225469
 20
315.0036821473877
 30
0.0
 10
169.3793461082392
 20
315.0975371442289
 30
0.0
 10
169.6481089261305
 20
315.2173332147087
 30
0.0
 10
169.9057514878099
 20
315.3614087165015
 30
0.0
 10
170.1509791954051
 20
315.5294672345964
 30
0.0
 10
170.3812423454395
 20
315.7193041577239
 30
0.0
 10
170.5954746095106
 20
315.9304396958319
 30
0.0
 10
170.7914290232138
 20
316.1602194595524
 30
0.0
 10
170.9681863708951
 20
316.4079479486109
 30
0.0
 10
171.1239572037624
 20
316.6706802001351
 30
0.0
 10
171.2579256214279
 20
316.9474312086271
 30
0.0
 10
171.3688486526332
 20
317.2351631872418
 30
0.0
 10
171.4560254450262
 20
317.5325166334357
 30
0.0
 10
171.5187734551132
 20
317.8365626296404
 30
0.0
 10
171.5565738343271
 20
318.1455042253779
 30
0.0
 10
171.5692509078148
 20
318.4566938306851
 30
0.0
 10
171.5565738343271
 20
318.7678834359919
 30
0.0
 10
171.5187734551132
 20
319.0768250317307
 30
0.0
 10
171.4560254450265
 20
319.380871027931
 30
0.0
 10
171.3688486526319
 20
319.6782244741412
 30
0.0
 10
171.2579256214325
 20
319.9659564526951
 30
0.0
 10
171.1239572037458
 20
320.2427074614129
 30
0.0
 10
170.9681863709572
 20
320.5054397120988
 30
0.0
 10
170.7914290229847
 20
320.7531682042527
 30
0.0
 10
170.5954746103615
 20
320.9829479564928
 30
0.0
 10
170.3812423423064
 20
321.1940835369526
 30
0.0
 10
170.1509792070467
 20
321.3839203030208
 30
0.0
 10
169.9057514449226
 20
321.5519794007685
 30
0.0
 10
169.6481090856105
 20
321.696052751362
 30
0.0
 10
169.3793455194448
 20
321.8158567761191
 30
0.0
 10
169.1021228148623
 20
321.9096822093242
 30
0.0
 10
168.8180321456062
 20
321.9776187739963
 30
0.0
 10
168.5297030845351
 20
322.0179053309129
 30
0.0
 10
168.2388759718692
 20
322.0331920765971
 30
0.0
 10
168.0455888573573
 20
322.0202394135899
 30
0.0
 10
167.9489453001013
 20
322.0137630820863
 30
0.0
 11
167.9489453001013
 21
322.0137630820863
 31
0.0
 11
167.6607858038264
 21
321.9730391089997
 31
0.0
 11
167.3777035974439
 21
321.9055702389344
 31
0.0
 11
167.1002795549001
 21
321.8116227102956
 31
0.0
 11
166.8327178027827
 21
321.6925068364962
 31
0.0
 11
166.5745854340676
 21
321.5481637070391
 31
0.0
 11
166.3305727814565
 21
321.3811035366233
 31
0.0
 11
166.0996932759256
 21
321.1907925050226
 31
0.0
 11
165.8865179809744
 21
320.980881530667
 31
0.0
 11
165.6899836569661
 21
320.7504775475405
 31
0.0
 11
165.5140101211665
 21
320.5040458248528
 31
0.0
 11
165.3578129806936
 21
320.2406635880151
 31
0.0
 11
165.2243172927294
 21
319.9651044552372
 31
0.0
 11
165.1131673671723
 21
319.6768525343399
 31
0.0
 11
165.026190713146
 21
319.3804260562995
 31
0.0
 11
164.9633856388244
 21
319.0761368637566
 31
0.0
 11
164.9256102771529
 21
318.7677470478361
 31
0.0
 11
164.9129550809393
 21
318.4566938306851
 31
0.0
 11
164.9256102771529
 21
318.1456406135342
 31
0.0
 11
164.9633856388245
 21
317.8372507976136
 31
0.0
 11
165.026190713146
 21
317.5329616050707
 31
0.0
 11
165.1131673671723
 21
317.2365351270303
 31
0.0
 11
165.2243172927294
 21
316.9482832061331
 31
0.0
 11
165.3578129806936
 21
316.6727240733551
 31
0.0
 11
165.5140101211665
 21
316.4093418365173
 31
0.0
 11
165.6899836569661
 21
316.1629101138296
 31
0.0
 11
165.8865179809744
 21
315.9325061307031
 31
0.0
 11
166.0996932759256
 21
315.7225951563477
 31
0.0
 11
166.3305727814565
 21
315.5322841247469
 31
0.0
 11
166.5745854340676
 21
315.3652239543312
 31
0.0
 11
166.8327178027827
 21
315.2208808248739
 31
0.0
 11
167.1002795549001
 21
315.1017649510745
 31
0.0
 11
167.3777035974439
 21
315.0078174224358
 31
0.0
 11
167.6607858038265
 21
314.9403485523705
 31
0.0
 11
167.9489453001014
 21
314.899624579284
 31
0.0
 11
168.2389887548518
 21
314.8859796164137
 31
0.0
 11
168.5290322096023
 21
314.8996245792839
 31
0.0
 11
168.8171917058772
 21
314.9403485523704
 31
0.0
 11
169.1002739122596
 21
315.0078174224358
 31
0.0
 11
169.3776979548035
 21
315.1017649510746
 31
0.0
 11
169.6452597069209
 21
315.220880824874
 31
0.0
 11
169.9033920756361
 21
315.3652239543312
 31
0.0
 11
170.1474047282472
 21
315.5322841247469
 31
0.0
 11
170.3782842337781
 21
315.7225951563477
 31
0.0
 11
170.5914595287293
 21
315.9325061307031
 31
0.0
 11
170.7879938527375
 21
316.1629101138296
 31
0.0
 11
170.9639673885371
 21
316.4093418365173
 31
0.0
 11
171.12016452901
 21
316.6727240733552
 31
0.0
 11
171.2536602169742
 21
316.9482832061331
 31
0.0
 11
171.3648101425313
 21
317.2365351270303
 31
0.0
 11
171.4517867965576
 21
317.5329616050707
 31
0.0
 11
171.5145918708791
 21
317.8372507976135
 31
0.0
 11
171.5523672325508
 21
318.1456406135341
 31
0.0
 11
171.5650224287643
 21
318.456693830685
 31
0.0
 11
171.5523672325508
 21
318.767747047836
 31
0.0
 11
171.5145918708792
 21
319.0761368637566
 31
0.0
 11
171.4517867965577
 21
319.3804260562995
 31
0.0
 11
171.3648101425313
 21
319.6768525343399
 31
0.0
 11
171.2536602169742
 21
319.9651044552371
 31
0.0
 11
171.12016452901
 21
320.240663588015
 31
0.0
 11
170.9639673885371
 21
320.5040458248528
 31
0.0
 11
170.7879938527375
 21
320.7504775475405
 31
0.0
 11
170.5914595287292
 21
320.980881530667
 31
0.0
 11
170.3782842337781
 21
321.1907925050225
 31
0.0
 11
170.1474047282472
 21
321.3811035366233
 31
0.0
 11
169.903392075636
 21
321.5481637070391
 31
0.0
 11
169.6452597069208
 21
321.6925068364963
 31
0.0
 11
169.3776979548035
 21
321.8116227102956
 31
0.0
 11
169.1002739122596
 21
321.9055702389343
 31
0.0
 11
168.8171917058772
 21
321.9730391089997
 31
0.0
 11
168.5290322096023
 21
322.0137630820863
 31
0.0
 11
168.2389887548518
 21
322.0274080449565
 31
0.0
 11
167.9489453001013
 21
322.0137630820863
 31
0.0
  0
SPLINE
  5
A5
330
39
100
AcDbEntity
  8
0
  6
Continuous
 62
     7
100
AcDbSpline
210
0.0
220
0.0
230
1.0
 70
    11
 71
     3
 72
    79
 73
    75
 74
    73
 42
0.0000000001
 43
0.0000000001
 44
0.00000001
 40
0.0
 40
0.0
 40
0.0
 40
0.0
 40
0.3261189881638701
 40
0.6517242273662529
 40
1.00757073407179
 40
1.362786578155781
 40
1.759886314710466
 40
2.156516714717088
 40
2.599210008268825
 40
3.041603627004222
 40
3.528307206464711
 40
4.014826849024948
 40
4.539616314403893
 40
5.064295509496614
 40
5.618233632287882
 40
6.172109437578905
 40
6.744280968665784
 40
7.316424323670501
 40
7.894787044418029
 40
8.473149765165529
 40
9.045293120170307
 40
9.617464651257206
 40
10.17134045654819
 40
10.72527857933946
 40
11.24995777443214
 40
11.77474723981117
 40
12.26126688237147
 40
12.74797046183193
 40
13.19036408056723
 40
13.63305737411895
 40
14.02968777412561
 40
14.4267875106802
 40
14.78200335476425
 40
15.13784986146981
 40
15.4634551006722
 40
15.78957408883613
 40
16.10448972240902
 40
16.41940535598198
 40
16.74552434414593
 40
17.07112958334835
 40
17.42697609005386
 40
17.78219193413781
 40
18.17929167069242
 40
18.57592207069907
 40
19.01861536425082
 40
19.46100898298609
 40
19.9477125624466
 40
20.43423220500689
 40
20.95902167038594
 40
21.48370086547862
 40
22.03763898826983
 40
22.59151479356089
 40
23.16368632464782
 40
23.7358296796526
 40
24.31419240040007
 40
24.89255512114757
 40
25.46469847615226
 40
26.03687000723916
 40
26.59074581253017
 40
27.14468393532149
 40
27.66936313041421
 40
28.19415259579321
 40
28.68067223835348
 40
29.16737581781394
 40
29.6097694365493
 40
30.05246273010101
 40
30.44909313010771
 40
30.84619286666228
 40
31.20140871074631
 40
31.5572552174518
 40
31.88286045665419
 40
32.20897944481818
 40
32.52389507839101
 40
32.83881071196397
 40
32.83881071196397
 40
32.83881071196397
 40
32.83881071196397
 10
162.7404122587592
 20
318.1428773440468
 30
0.0
 10
162.7178549847644
 20
318.0362875857749
 30
0.0
 10
162.6727759721973
 20
317.8232759845611
 30
0.0
 10
162.538248200626
 20
317.5134574898457
 30
0.0
 10
162.3615041104424
 20
317.2156736439623
 30
0.0
 10
162.1326226976873
 20
316.924527600374
 30
0.0
 10
161.8634047879061
 20
316.6511353832871
 30
0.0
 10
161.5461346719833
 20
316.3871756561758
 30
0.0
 10
161.194082251294
 20
316.1441694550918
 30
0.0
 10
160.7982088835035
 20
315.9145152044642
 30
0.0
 10
160.3735004688461
 20
315.7079642453626
 30
0.0
 10
159.9109830954992
 20
315.5189614901849
 30
0.0
 10
159.4257425937162
 20
315.3546476955446
 30
0.0
 10
158.9105011056879
 20
315.2116321937065
 30
0.0
 10
158.3788358449301
 20
315.0944797580622
 30
0.0
 10
157.8263867953309
 20
315.0015058670353
 30
0.0
 10
157.2639959553957
 20
314.9351868080703
 30
0.0
 10
156.6909793051471
 20
314.8948405500262
 30
0.0
 10
156.1146331018733
 20
314.8815502182484
 30
0.0
 10
155.5382868985772
 20
314.894840550024
 30
0.0
 10
154.9652702483949
 20
314.935186808079
 30
0.0
 10
154.4028794082192
 20
315.0015058670034
 30
0.0
 10
153.8504303594893
 20
315.0944797581768
 30
0.0
 10
153.3187650955658
 20
315.2116321932875
 30
0.0
 10
152.8035236187565
 20
315.3546476970171
 30
0.0
 10
152.3182830765856
 20
315.518961484848
 30
0.0
 10
151.8557658435101
 20
315.7079642636754
 30
0.0
 10
151.4310569293065
 20
315.914515138553
 30
0.0
 10
151.0351852649457
 20
316.1441696763815
 30
0.0
 10
150.6831268301785
 20
316.387174863482
 30
0.0
 10
150.3658769534912
 20
316.6511380029622
 30
0.0
 10
150.0965878243276
 20
316.9245182123422
 30
0.0
 10
149.8679458322083
 20
317.2157046226496
 30
0.0
 10
149.6903531069602
 20
317.5133453872444
 30
0.0
 10
149.5587400353256
 20
317.823655305235
 30
0.0
 10
149.481315059249
 20
318.1378138822611
 30
0.0
 10
149.4533549421362
 20
318.4566938306851
 30
0.0
 10
149.4813150592491
 20
318.7755737791091
 30
0.0
 10
149.5587400353257
 20
319.0897323561352
 30
0.0
 10
149.6903531069603
 20
319.4000422741259
 30
0.0
 10
149.8679458322082
 20
319.6976830387206
 30
0.0
 10
150.0965878243277
 20
319.9888694490279
 30
0.0
 10
150.3658769534912
 20
320.262249658408
 30
0.0
 10
150.6831268301785
 20
320.5262127978882
 30
0.0
 10
151.0351852649457
 20
320.7692179849888
 30
0.0
 10
151.4310569293064
 20
320.9988725228172
 30
0.0
 10
151.8557658435102
 20
321.2054233976947
 30
0.0
 10
152.3182830765856
 20
321.3944261765223
 30
0.0
 10
152.8035236187564
 20
321.5587399643531
 30
0.0
 10
153.3187650955658
 20
321.7017554680829
 30
0.0
 10
153.8504303594893
 20
321.8189079031932
 30
0.0
 10
154.4028794082192
 20
321.9118817943669
 30
0.0
 10
154.9652702483948
 20
321.9782008532911
 30
0.0
 10
155.5382868985781
 20
322.0185471113464
 30
0.0
 10
156.1146331018699
 20
322.0318374431213
 30
0.0
 10
156.69097930516
 20
322.0185471113466
 30
0.0
 10
157.2639959553481
 20
321.9782008532906
 30
0.0
 10
157.8263867955065
 20
321.911881794369
 30
0.0
 10
158.3788358442978
 20
321.8189079031853
 30
0.0
 10
158.910501107998
 20
321.7017554681123
 30
0.0
 10
159.4257425855988
 20
321.5587399642493
 30
0.0
 10
159.9109831249208
 20
321.3944261768986
 30
0.0
 10
160.3735003678904
 20
321.205423396403
 30
0.0
 10
160.7982092468581
 20
320.9988725274664
 30
0.0
 10
161.1940810313719
 20
320.7692179693798
 30
0.0
 10
161.5461390419305
 20
320.5262128538017
 30
0.0
 10
161.8633903462116
 20
320.2622494736267
 30
0.0
 10
162.132674451848
 20
319.9888701112218
 30
0.0
 10
162.3613333317308
 20
319.6976808536094
 30
0.0
 10
162.5388661976929
 20
319.40005018139
 30
0.0
 10
162.6706848604749
 20
319.0897056003888
 30
0.0
 10
162.747364722033
 20
318.7756726509142
 30
0.0
 10
162.7780166223411
 20
318.4563388633497
 30
0.0
 10
162.7529470466199
 20
318.2473645171478
 30
0.0
 10
162.7404122587593
 20
318.1428773440468
 30
0.0
 11
162.7404122587592
 21
318.1428773440468
 31
0.0
 11
162.6622395962055
 21
317.8262661798876
 31
0.0
 11
162.5365333411289
 21
317.5259052149959
 31
0.0
 11
162.3549769576939
 21
317.2198594406932
 31
0.0
 11
162.136614897799
 21
316.9396875172484
 31
0.0
 11
161.8588673484237
 21
316.6558838886814
 31
0.0
 11
161.5545677962443
 21
316.4014876293676
 31
0.0
 11
161.1909201709253
 21
316.1490242523096
 31
0.0
 11
160.8085871640462
 21
315.9264628321385
 31
0.0
 11
160.371318603271
 21
315.7127420329231
 31
0.0
 11
159.921123175572
 21
315.5282821742117
 31
0.0
 11
159.4242834539575
 21
315.3593020747954
 31
0.0
 11
158.9187967860381
 21
315.218690957458
 31
0.0
 11
158.3779389790309
 21
315.099023599833
 31
0.0
 11
157.8317686709141
 21
315.0069562211457
 31
0.0
 11
157.2635687038749
 21
314.9396579415026
 31
0.0
 11
156.6928390258242
 21
314.8994627518878
 31
0.0
 11
156.1146331018696
 21
314.8859962655491
 31
0.0
 11
155.536427177915
 21
314.8994627518878
 31
0.0
 11
154.9656974998642
 21
314.9396579415026
 31
0.0
 11
154.397497532825
 21
315.0069562211457
 31
0.0
 11
153.8513272247082
 21
315.0990235998329
 31
0.0
 11
153.3104694177011
 21
315.2186909574581
 31
0.0
 11
152.8049827497817
 21
315.3593020747954
 31
0.0
 11
152.3081430281671
 21
315.5282821742117
 31
0.0
 11
151.8579476004679
 21
315.7127420329229
 31
0.0
 11
151.4206790396929
 21
315.9264628321384
 31
0.0
 11
151.0383460328139
 21
316.1490242523096
 31
0.0
 11
150.6746984074949
 21
316.4014876293676
 31
0.0
 11
150.3703988553155
 21
316.6558838886814
 31
0.0
 11
150.0926513059403
 21
316.9396875172484
 31
0.0
 11
149.8742892460454
 21
317.2198594406933
 31
0.0
 11
149.6927328626102
 21
317.5259052149959
 31
0.0
 11
149.5670266075335
 21
317.8262661798875
 31
0.0
 11
149.4888539449797
 21
318.1428773440468
 31
0.0
 11
149.4625657540445
 21
318.4566938306851
 31
0.0
 11
149.4888539449798
 21
318.7705103173234
 31
0.0
 11
149.5670266075336
 21
319.0871214814827
 31
0.0
 11
149.6927328626103
 21
319.3874824463744
 31
0.0
 11
149.8742892460454
 21
319.693528220677
 31
0.0
 11
150.0926513059403
 21
319.9737001441217
 31
0.0
 11
150.3703988553155
 21
320.2575037726888
 31
0.0
 11
150.6746984074949
 21
320.5119000320026
 31
0.0
 11
151.0383460328139
 21
320.7643634090607
 31
0.0
 11
151.4206790396928
 21
320.9869248292317
 31
0.0
 11
151.857947600468
 21
321.2006456284473
 31
0.0
 11
152.3081430281671
 21
321.3851054871586
 31
0.0
 11
152.8049827497817
 21
321.5540855865749
 31
0.0
 11
153.3104694177011
 21
321.6946967039122
 31
0.0
 11
153.8513272247081
 21
321.8143640615373
 31
0.0
 11
154.397497532825
 21
321.9064314402245
 31
0.0
 11
154.9656974998643
 21
321.9737297198676
 31
0.0
 11
155.5364271779151
 21
322.0139249094825
 31
0.0
 11
156.1146331018696
 21
322.0273913958212
 31
0.0
 11
156.6928390258242
 21
322.0139249094825
 31
0.0
 11
157.2635687038749
 21
321.9737297198677
 31
0.0
 11
157.8317686709141
 21
321.9064314402245
 31
0.0
 11
158.3779389790309
 21
321.8143640615374
 31
0.0
 11
158.9187967860381
 21
321.6946967039122
 31
0.0
 11
159.4242834539575
 21
321.5540855865748
 31
0.0
 11
159.9211231755721
 21
321.3851054871585
 31
0.0
 11
160.3713186032712
 21
321.2006456284473
 31
0.0
 11
160.8085871640463
 21
320.9869248292318
 31
0.0
 11
161.1909201709253
 21
320.7643634090606
 31
0.0
 11
161.5545677962443
 21
320.5119000320026
 31
0.0
 11
161.8588673484237
 21
320.2575037726888
 31
0.0
 11
162.136614897799
 21
319.9737001441218
 31
0.0
 11
162.3549769576939
 21
319.693528220677
 31
0.0
 11
162.5365333411289
 21
319.3874824463744
 31
0.0
 11
162.6622395962055
 21
319.0871214814827
 31
0.0
 11
162.7404122587593
 21
318.7705103173233
 31
0.0
 11
162.7667004496945
 21
318.4566938306851
 31
0.0
 11
162.7404122587593
 21
318.1428773440468
 31
0.0
  0
SPLINE
  5
A6
330
39
100
AcDbEntity
  8
0
  6
Continuous
 62
     7
100
AcDbSpline
210
0.0
220
0.0
230
1.0
 70
    11
 71
     3
 72
    79
 73
    75
 74
    73
 42
0.0000000001
 43
0.0000000001
 44
0.00000001
 40
0.0
 40
0.0
 40
0.0
 40
0.0
 40
0.2910229153818371
 40
0.5820342278737729
 40
0.8749339334364167
 40
1.167812547519284
 40
1.463561188767213
 40
1.759282806464771
 40
2.058487811140664
 40
2.357663885605768
 40
2.66050334134748
 40
2.963315625194497
 40
3.269530826276373
 40
3.575723468843744
 40
3.884662744191375
 40
4.193586027918942
 40
4.504289085610597
 40
4.814983882015222
 40
5.126294430970985
 40
5.437604979926805
 40
5.748299776331489
 40
6.059002834023139
 40
6.367926117750698
 40
6.676865393098339
 40
6.983058035665557
 40
7.289273236747482
 40
7.592085520594516
 40
7.894924976336209
 40
8.194101050801333
 40
8.493306055477275
 40
8.789027673174811
 40
9.084776314422792
 40
9.377654928505688
 40
9.67055463406834
 40
9.961565946560222
 40
10.25258886194208
 40
10.54295309984903
 40
10.83331733775599
 40
11.12434025313782
 40
11.41535156562972
 40
11.70825127119236
 40
12.00112988527528
 40
12.29687852652329
 40
12.59260014422082
 40
12.89180514889669
 40
13.19098122336186
 40
13.49382067910357
 40
13.79663296295062
 40
14.10284816403257
 40
14.40904080659978
 40
14.71798008194739
 40
15.02690336567495
 40
15.33760642336661
 40
15.64830121977129
 40
15.95961176872705
 40
16.27092231768281
 40
16.5816171140875
 40
16.89232017177921
 40
17.20124345550682
 40
17.51018273085444
 40
17.81637537342164
 40
18.12259057450349
 40
18.42540285835054
 40
18.72824231409226
 40
19.02741838855738
 40
19.32662339323332
 40
19.62234501093086
 40
19.91809365217881
 40
20.21097226626178
 40
20.50387197182438
 40
20.79488328431633
 40
21.08590619969812
 40
21.37627043760508
 40
21.66663467551203
 40
21.66663467551203
 40
21.66663467551203
 40
21.66663467551203
 10
144.2803209036379
 20
322.0137630820863
 30
0.0
 10
144.3766959623549
 20
322.0020874142849
 30
0.0
 10
144.5694422373793
 20
321.9787365441833
 30
0.0
 10
144.8533787466442
 20
321.9093805507328
 30
0.0
 10
145.130643012503
 20
321.8159377931572
 30
0.0
 10
145.399395396353
 20
321.69603080718
 30
0.0
 10
145.6570407798728
 20
321.5519853019928
 30
0.0
 10
145.9022677271075
 20
321.3839187011473
 30
0.0
 10
146.1325310831647
 20
321.1940839680735
 30
0.0
 10
146.3467632916807
 20
320.9829478394062
 30
0.0
 10
146.5427177204434
 20
320.7531682357723
 30
0.0
 10
146.7194750640641
 20
320.505439703548
 30
0.0
 10
146.8752458980312
 20
320.2427074637142
 30
0.0
 10
147.0092143154003
 20
319.9659564520723
 30
0.0
 10
147.1201373466856
 20
319.6782244743085
 30
0.0
 10
147.2073141390571
 20
319.3808710278858
 30
0.0
 10
147.27006214915
 20
319.0768250317428
 30
0.0
 10
147.3078625283622
 20
318.7678834359888
 30
0.0
 10
147.3205396018505
 20
318.4566938306859
 30
0.0
 10
147.3078625283625
 20
318.1455042253779
 30
0.0
 10
147.2700621491487
 20
317.8365626296405
 30
0.0
 10
147.2073141390617
 20
317.5325166334357
 30
0.0
 10
147.1201373466688
 20
317.2351631872419
 30
0.0
 10
147.0092143154635
 20
316.9474312086271
 30
0.0
 10
146.875245897798
 20
316.6706802001351
 30
0.0
 10
146.7194750649307
 20
316.4079479486107
 30
0.0
 10
146.5427177172492
 20
316.1602194595525
 30
0.0
 10
146.3467633035461
 20
315.9304396958318
 30
0.0
 10
146.1325310394751
 20
315.7193041577239
 30
0.0
 10
145.9022678894408
 20
315.5294672345964
 30
0.0
 10
145.6570401818455
 20
315.3614087165014
 30
0.0
 10
145.3993976201661
 20
315.2173332147086
 30
0.0
 10
145.1306348022748
 20
315.0975371442288
 30
0.0
 10
144.8534093165825
 20
315.0036821473876
 30
0.0
 10
144.5693289630799
 20
314.9358552407979
 30
0.0
 10
144.280961482567
 20
314.895160279174
 30
0.0
 10
143.9902774488875
 20
314.8813944856092
 30
0.0
 10
143.699593415208
 20
314.895160279174
 30
0.0
 10
143.411225934695
 20
314.9358552407978
 30
0.0
 10
143.1271455811925
 20
315.0036821473875
 30
0.0
 10
142.8499200955002
 20
315.0975371442288
 30
0.0
 10
142.581157277609
 20
315.2173332147086
 30
0.0
 10
142.3235147159295
 20
315.3614087165015
 30
0.0
 10
142.0782870083343
 20
315.5294672345964
 30
0.0
 10
141.8480238582998
 20
315.7193041577237
 30
0.0
 10
141.6337915942289
 20
315.9304396958319
 30
0.0
 10
141.4378371805258
 20
316.1602194595527
 30
0.0
 10
141.2610798328443
 20
316.4079479486108
 30
0.0
 10
141.105308999977
 20
316.6706802001351
 30
0.0
 10
140.9713405823114
 20
316.9474312086271
 30
0.0
 10
140.8604175511062
 20
317.2351631872418
 30
0.0
 10
140.7732407587133
 20
317.5325166334358
 30
0.0
 10
140.7104927486262
 20
317.8365626296404
 30
0.0
 10
140.6726923694125
 20
318.145504225378
 30
0.0
 10
140.6600152959246
 20
318.4566938306851
 30
0.0
 10
140.6726923694124
 20
318.767883435992
 30
0.0
 10
140.7104927486264
 20
319.0768250317307
 30
0.0
 10
140.773240758713
 20
319.380871027931
 30
0.0
 10
140.8604175511075
 20
319.6782244741414
 30
0.0
 10
140.9713405823069
 20
319.965956452695
 30
0.0
 10
141.1053089999936
 20
320.242707461413
 30
0.0
 10
141.2610798327822
 20
320.5054397120988
 30
0.0
 10
141.4378371807548
 20
320.7531682042526
 30
0.0
 10
141.6337915933779
 20
320.9829479564928
 30
0.0
 10
141.8480238614331
 20
321.1940835369525
 30
0.0
 10
142.0782869966926
 20
321.3839203030209
 30
0.0
 10
142.3235147588168
 20
321.5519794007684
 30
0.0
 10
142.5811571181287
 20
321.696052751362
 30
0.0
 10
142.8499206842947
 20
321.8158567761191
 30
0.0
 10
143.1271433888771
 20
321.9096822093243
 30
0.0
 10
143.4112340581331
 20
321.9776187739963
 30
0.0
 10
143.6995631192042
 20
322.017905330913
 30
0.0
 10
143.9903902318701
 20
322.0331920765971
 30
0.0
 10
144.183677346382
 20
322.0202394135899
 30
0.0
 10
144.2803209036379
 20
322.0137630820863
 30
0.0
 11
144.2803209036379
 21
322.0137630820863
 31
0.0
 11
144.5684803999128
 21
321.9730391089998
 31
0.0
 11
144.8515626062953
 21
321.9055702389344
 31
0.0
 11
145.1289866488391
 21
321.8116227102956
 31
0.0
 11
145.3965484009564
 21
321.6925068364961
 31
0.0
 11
145.6546807696716
 21
321.548163707039
 31
0.0
 11
145.8986934222828
 21
321.3811035366232
 31
0.0
 11
146.1295729278136
 21
321.1907925050226
 31
0.0
 11
146.3427482227648
 21
320.9808815306672
 31
0.0
 11
146.539282546773
 21
320.7504775475406
 31
0.0
 11
146.7152560825726
 21
320.5040458248529
 31
0.0
 11
146.8714532230455
 21
320.2406635880151
 31
0.0
 11
147.0049489110097
 21
319.9651044552371
 31
0.0
 11
147.1160988365669
 21
319.6768525343398
 31
0.0
 11
147.2030754905932
 21
319.3804260562995
 31
0.0
 11
147.2658805649147
 21
319.0761368637566
 31
0.0
 11
147.3036559265862
 21
318.7677470478361
 31
0.0
 11
147.3163111227999
 21
318.4566938306851
 31
0.0
 11
147.3036559265862
 21
318.1456406135342
 31
0.0
 11
147.2658805649146
 21
317.8372507976136
 31
0.0
 11
147.2030754905932
 21
317.5329616050707
 31
0.0
 11
147.1160988365669
 21
317.2365351270303
 31
0.0
 11
147.0049489110097
 21
316.9482832061331
 31
0.0
 11
146.8714532230455
 21
316.6727240733553
 31
0.0
 11
146.7152560825726
 21
316.4093418365173
 31
0.0
 11
146.539282546773
 21
316.1629101138296
 31
0.0
 11
146.3427482227648
 21
315.9325061307031
 31
0.0
 11
146.1295729278137
 21
315.7225951563477
 31
0.0
 11
145.8986934222828
 21
315.5322841247469
 31
0.0
 11
145.6546807696717
 21
315.3652239543312
 31
0.0
 11
145.3965484009565
 21
315.2208808248739
 31
0.0
 11
145.1289866488391
 21
315.1017649510745
 31
0.0
 11
144.8515626062953
 21
315.0078174224358
 31
0.0
 11
144.5684803999128
 21
314.9403485523705
 31
0.0
 11
144.2803209036379
 21
314.8996245792839
 31
0.0
 11
143.9902774488875
 21
314.8859796164137
 31
0.0
 11
143.7002339941371
 21
314.8996245792839
 31
0.0
 11
143.4120744978622
 21
314.9403485523704
 31
0.0
 11
143.1289922914797
 21
315.0078174224357
 31
0.0
 11
142.8515682489359
 21
315.1017649510745
 31
0.0
 11
142.5840064968186
 21
315.220880824874
 31
0.0
 11
142.3258741281033
 21
315.3652239543312
 31
0.0
 11
142.0818614754922
 21
315.5322841247469
 31
0.0
 11
141.8509819699613
 21
315.7225951563476
 31
0.0
 11
141.6378066750102
 21
315.9325061307031
 31
0.0
 11
141.441272351002
 21
316.1629101138296
 31
0.0
 11
141.2652988152023
 21
316.4093418365173
 31
0.0
 11
141.1091016747294
 21
316.6727240733553
 31
0.0
 11
140.9756059867652
 21
316.9482832061331
 31
0.0
 11
140.8644560612081
 21
317.2365351270303
 31
0.0
 11
140.7774794071818
 21
317.5329616050707
 31
0.0
 11
140.7146743328603
 21
317.8372507976136
 31
0.0
 11
140.6768989711887
 21
318.1456406135342
 31
0.0
 11
140.6642437749751
 21
318.4566938306851
 31
0.0
 11
140.6768989711887
 21
318.767747047836
 31
0.0
 11
140.7146743328603
 21
319.0761368637566
 31
0.0
 11
140.7774794071818
 21
319.3804260562995
 31
0.0
 11
140.8644560612081
 21
319.67685253434
 31
0.0
 11
140.9756059867652
 21
319.9651044552372
 31
0.0
 11
141.1091016747294
 21
320.240663588015
 31
0.0
 11
141.2652988152023
 21
320.5040458248528
 31
0.0
 11
141.441272351002
 21
320.7504775475405
 31
0.0
 11
141.6378066750102
 21
320.980881530667
 31
0.0
 11
141.8509819699613
 21
321.1907925050225
 31
0.0
 11
142.0818614754922
 21
321.3811035366233
 31
0.0
 11
142.3258741281033
 21
321.548163707039
 31
0.0
 11
142.5840064968185
 21
321.6925068364962
 31
0.0
 11
142.851568248936
 21
321.8116227102956
 31
0.0
 11
143.1289922914797
 21
321.9055702389344
 31
0.0
 11
143.4120744978623
 21
321.9730391089997
 31
0.0
 11
143.7002339941371
 21
322.0137630820863
 31
0.0
 11
143.9902774488875
 21
322.0274080449565
 31
0.0
 11
144.2803209036379
 21
322.0137630820863
 31
0.0
  0
ARC
  5
A7
330
39
100
AcDbEntity
  8
1
  6
Continuous
 62
     7
100
AcDbCircle
 10
590.8129762429088
 20
322.3142307952427
 30
0.0
 40
0.9999999999999989
100
AcDbArc
 50
74.66244233044795
 51
90.0
  0
ARC
  5
A8
330
39
100
AcDbEntity
  8
1
  6
Continuous
 62
     7
100
AcDbCircle
 10
589.0229043736093
 20
323.3142307952427
 30
0.0
 40
0.9999999999999694
100
AcDbArc
 50
42.94140286488121
 51
90.0
  0
ARC
  5
A9
330
39
100
AcDbEntity
  8
1
  6
Continuous
 62
     7
100
AcDbCircle
 10
590.7549551811782
 20
324.3142307952427
 30
0.0
 40
0.9999999999999836
100
AcDbArc
 50
-149.9999999999995
 51
-90.0
  0
ARC
  5
AA
330
39
100
AcDbEntity
  8
1
  6
Continuous
 62
     7
100
AcDbCircle
 10
589.0229043736093
 20
323.3142307952427
 30
0.0
 40
0.9999999999999836
100
AcDbArc
 50
30.00000000000054
 51
42.94140286488121
  0
ARC
  5
AB
330
39
100
AcDbEntity
  8
1
  6
Continuous
 62
     7
100
AcDbCircle
 10
567.6969341194476
 20
322.3142307952427
 30
0.0
 40
1.0
100
AcDbArc
 50
90.0
 51
105.3375576695584
  0
ARC
  5
AC
330
39
100
AcDbEntity
  8
1
  6
Continuous
 62
     7
100
AcDbCircle
 10
569.4870059887471
 20
323.3142307952427
 30
0.0
 40
1.0
100
AcDbArc
 50
90.0
 51
137.0585971351233
  0
ARC
  5
AD
330
39
100
AcDbEntity
  8
1
  6
Continuous
 62
     7
100
AcDbCircle
 10
567.7549551811782
 20
324.3142307952427
 30
0.0
 40
1.0
100
AcDbArc
 50
-90.0
 51
-29.99999999999729
  0
ARC
  5
AE
330
39
100
AcDbEntity
  8
1
  6
Continuous
 62
     7
100
AcDbCircle
 10
569.4870059887471
 20
323.3142307952427
 30
0.0
 40
1.000000000000053
100
AcDbArc
 50
137.0585971351233
 51
149.9999999999995
  0
ARC
  5
AF
330
39
100
AcDbEntity
  8
1
  6
Continuous
 62
     7
100
AcDbCircle
 10
144.6146331018697
 20
324.3142307952435
 30
0.0
 40
1.0
100
AcDbArc
 50
-90.0
 51
-30.00000000000136
  0
ARC
  5
B0
330
39
100
AcDbEntity
  8
1
  6
Continuous
 62
     7
100
AcDbCircle
 10
146.3466839094384
 20
323.3142307952435
 30
0.0
 40
1.0
100
AcDbArc
 50
90.0
 51
149.9999999999962
  0
ARC
  5
B1
330
39
100
AcDbEntity
  8
1
  6
Continuous
 62
     7
100
AcDbCircle
 10
144.556612040139
 20
322.3142307952435
 30
0.0
 40
1.0
100
AcDbArc
 50
90.0
 51
105.3375576695488
  0
ARC
  5
B2
330
39
100
AcDbEntity
  8
1
  6
Continuous
 62
     7
100
AcDbCircle
 10
167.6146331018697
 20
324.3142307952435
 30
0.0
 40
1.000000000000058
100
AcDbArc
 50
-150.0000000000019
 51
-90.0
  0
ARC
  5
B3
330
39
100
AcDbEntity
  8
1
  6
Continuous
 62
     7
100
AcDbCircle
 10
165.8825822943008
 20
323.3142307952435
 30
0.0
 40
0.9999999999999836
100
AcDbArc
 50
30.00000000000054
 51
90.0
  0
ARC
  5
B4
330
39
100
AcDbEntity
  8
1
  6
Continuous
 62
     7
100
AcDbCircle
 10
167.6726541636002
 20
322.3142307952435
 30
0.0
 40
1.000000000000021
100
AcDbArc
 50
74.66244233044323
 51
90.0
  0
ENDBLK
  5
3B
330
39
100
AcDbEntity
  8
0
100
AcDbBlockEnd
  0
BLOCK
  5
3D
330
3C
100
AcDbEntity
  8
0
100
AcDbBlockBegin
  2
21-1C
 70
     0
 71
     0
 10
297.1146331018698
 20
244.3142307952435
 30
0.0
  3
21-1C
  1

  0
LINE
  5
B5
330
3C
100
AcDbEntity
  8
1
  6
Continuous
 62
     7
100
AcDbLine
 10
553.361679399448
 20
281.0568714823631
 30
0.0
 11
563.3375148844103
 21
291.0327069673254
 31
0.0
  0
LINE
  5
B6
330
3C
100
AcDbEntity
  8
1
  6
Continuous
 62
     7
100
AcDbLine
 10
558.3967294545619
 20
270.8148991630123
 30
0.0
 11
572.7844790536152
 21
274.6700850489799
 31
0.0
  0
LINE
  5
B7
330
3C
100
AcDbEntity
  8
1
  6
Continuous
 62
     7
100
AcDbLine
 10
573.4594002234438
 20
315.8671450658589
 30
0.0
 11
569.8079910119734
 21
302.2399003694261
 31
0.0
  0
LINE
  5
B8
330
3C
100
AcDbEntity
  8
1
  6
Continuous
 62
     7
100
AcDbLine
 10
599.3526760051741
 20
271.0186758375094
 30
0.0
 11
585.7254313087412
 21
274.6700850489799
 31
0.0
  0
LINE
  5
B9
330
3C
100
AcDbEntity
  8
1
  6
Continuous
 62
     7
100
AcDbLine
 10
605.1482309629084
 20
281.0568714823631
 30
0.0
 11
595.1723954779461
 21
291.0327069673254
 31
0.0
  0
LINE
  5
BA
330
3C
100
AcDbEntity
  8
1
  6
Continuous
 62
     7
100
AcDbLine
 10
585.0505101389126
 20
315.8671450658589
 30
0.0
 11
588.701919350383
 21
302.2399003694261
 31
0.0
  0
LINE
  5
BB
330
3C
100
AcDbEntity
  8
1
  6
PHANTOM
 62
     4
100
AcDbLine
 10
611.2967374742691
 20
270.8148991630123
 30
0.0
 11
560.1089240517723
 21
300.3681970217193
 31
0.0
  0
LINE
  5
BC
330
3C
100
AcDbEntity
  8
1
  6
PHANTOM
 62
     4
100
AcDbLine
 10
547.2131728880872
 20
270.8148991630123
 30
0.0
 11
597.7663117930979
 21
300.0017675182008
 31
0.0
  0
LINE
  5
BD
330
3C
100
AcDbEntity
  8
1
  6
Continuous
 62
     7
100
AcDbLine
 10
203.3773715832045
 20
781.8497972076042
 30
0.0
 11
200.1618783783339
 21
782.3017053065966
 31
0.0
  0
LINE
  5
BE
330
3C
100
AcDbEntity
  8
1
  6
Continuous
 62
     7
100
AcDbLine
 10
200.1618783783341
 20
727.010167048633
 30
0.0
 11
203.3773715832045
 21
727.4620751476255
 31
0.0
  0
LINE
  5
BF
330
3C
100
AcDbEntity
  8
1
  6
Continuous
 62
     7
100
AcDbLine
 10
199.5922918278538
 20
319.739046591633
 30
0.0
 11
199.5922918278538
 21
289.3142307952435
 31
0.0
  0
LINE
  5
C0
330
3C
100
AcDbEntity
  8
1
  6
Continuous
 62
     7
100
AcDbLine
 10
204.5513684335974
 20
271.5115449408924
 30
0.0
 11
200.1619137605665
 21
270.8943274468847
 31
0.0
  0
LINE
  5
C1
330
3C
100
AcDbEntity
  8
1
  6
Continuous
 62
     7
100
AcDbLine
 10
203.3773715832045
 20
319.7822725270114
 30
0.0
 11
200.1618783783339
 21
320.2341806260039
 31
0.0
  0
LINE
  5
C2
330
3C
100
AcDbEntity
  8
1
  6
Continuous
 62
     7
100
AcDbLine
 10
199.5922918278538
 20
271.3894565073178
 30
0.0
 11
199.5922918278538
 21
289.3142307952435
 31
0.0
  0
LINE
  5
C3
330
3C
100
AcDbEntity
  8
1
  6
Continuous
 62
     7
100
AcDbLine
 10
199.5922918278538
 20
781.8065712722258
 30
0.0
 11
199.5922918278538
 21
727.5053010830039
 31
0.0
  0
ARC
  5
C4
330
3C
100
AcDbEntity
  8
1
  6
Continuous
 62
     7
100
AcDbCircle
 10
557.6043200865672
 20
276.8142307952438
 30
0.0
 40
5.999999999999928
100
AcDbArc
 50
134.9999999999996
 51
-82.47575892105928
  0
ARC
  5
C5
330
3C
100
AcDbEntity
  8
1
  6
Continuous
 62
     7
100
AcDbCircle
 10
579.2549551811782
 20
314.3142307952438
 30
0.0
 40
6.0
100
AcDbArc
 50
90.0
 51
165.0000000000003
  0
ARC
  5
C6
330
3C
100
AcDbEntity
  8
1
  6
Continuous
 62
     7
100
AcDbCircle
 10
600.9055902757891
 20
276.8142307952438
 30
0.0
 40
5.999999999999959
100
AcDbArc
 50
-104.9999999999991
 51
44.99999999999962
  0
ARC
  5
C7
330
3C
100
AcDbEntity
  8
1
  6
Continuous
 62
     7
100
AcDbCircle
 10
579.2549551811782
 20
314.3142307952438
 30
0.0
 40
6.000000000000029
100
AcDbArc
 50
14.99999999999945
 51
90.0
  0
ARC
  5
C8
330
3C
100
AcDbEntity
  8
1
  6
Continuous
 62
     7
100
AcDbCircle
 10
83.22213928752939
 20
753.0188458267256
 30
0.0
 40
127.4948334081409
100
AcDbArc
 50
2.53411689479742
 51
10.80949324635216
  0
ARC
  5
C9
330
3C
100
AcDbEntity
  8
1
  6
Continuous
 62
     7
100
AcDbCircle
 10
83.22213928752939
 20
756.2930265285041
 30
0.0
 40
127.4948334081411
100
AcDbArc
 50
-10.80949324635226
 51
-2.53411689479732
  0
ARC
  5
CA
330
3C
100
AcDbEntity
  8
1
  6
Continuous
 62
     7
100
AcDbCircle
 10
135.6804708191544
 20
288.9500351299968
 30
0.0
 40
75.00000000000009
100
AcDbArc
 50
-9.59149248266509
 51
-2.77863896596257
  0
ARC
  5
CB
330
3C
100
AcDbEntity
  8
1
  6
Continuous
 62
     7
100
AcDbCircle
 10
60.59229182785379
 20
289.3142307952435
 30
0.0
 40
150.0533238552216
100
AcDbArc
 50
1.52752544221297
 51
9.80290179376781
  0
ARC
  5
CC
330
3C
100
AcDbEntity
  8
1
  6
Continuous
 62
     7
100
AcDbCircle
 10
545.6598453547466
 20
308.7103764969891
 30
0.0
 40
25.00000000000004
100
AcDbArc
 50
-45.0
 51
-14.99999999999995
  0
ARC
  5
CD
330
3C
100
AcDbEntity
  8
1
  6
Continuous
 62
     7
100
AcDbCircle
 10
579.2549551811782
 20
250.5219393917531
 30
0.0
 40
25.0000000000001
100
AcDbArc
 50
74.99999999999993
 51
104.9999999999998
  0
ARC
  5
CE
330
3C
100
AcDbEntity
  8
1
  6
Continuous
 62
     7
100
AcDbCircle
 10
612.8500650076098
 20
308.7103764969891
 30
0.0
 40
25.00000000000008
100
AcDbArc
 50
-165.0000000000001
 51
-135.0
  0
ARC
  5
CF
330
3C
100
AcDbEntity
  8
1
  6
Continuous
 62
     7
100
AcDbCircle
 10
202.5423329774442
 20
775.9081887951548
 30
0.0
 40
6.000000000000004
100
AcDbArc
 50
9.80290179376699
 51
82.00000000000074
  0
ARC
  5
D0
330
3C
100
AcDbEntity
  8
1
  6
Continuous
 62
     7
100
AcDbCircle
 10
200.0922918278538
 20
781.8065712722258
 30
0.0
 40
0.4999999999999459
100
AcDbArc
 50
81.99999999999177
 51
180.0
  0
ARC
  5
D1
330
3C
100
AcDbEntity
  8
1
  6
Continuous
 62
     7
100
AcDbCircle
 10
200.0922918278538
 20
727.5053010830039
 30
0.0
 40
0.5
100
AcDbArc
 50
180.0
 51
-81.99999999997283
  0
ARC
  5
D2
330
3C
100
AcDbEntity
  8
1
  6
Continuous
 62
     7
100
AcDbCircle
 10
202.5423329774443
 20
733.4036835600749
 30
0.0
 40
6.000000000000008
100
AcDbArc
 50
-82.00000000000169
 51
-9.80290179376927
  0
ARC
  5
D3
330
3C
100
AcDbEntity
  8
1
  6
Continuous
 62
     7
100
AcDbCircle
 10
200.0922918278538
 20
271.389456507318
 30
0.0
 40
0.5
100
AcDbArc
 50
-179.9999999999739
 51
-81.99590562829411
  0
ARC
  5
D4
330
3C
100
AcDbEntity
  8
1
  6
Continuous
 62
     7
100
AcDbCircle
 10
200.0922918278538
 20
319.739046591633
 30
0.0
 40
0.5000000000001147
100
AcDbArc
 50
81.99999999999449
 51
180.0
  0
ARC
  5
D5
330
3C
100
AcDbEntity
  8
1
  6
Continuous
 62
     7
100
AcDbCircle
 10
203.715905241046
 20
277.4530936660894
 30
0.0
 40
5.999999999999838
100
AcDbArc
 50
-81.99590562829879
 51
-9.5914924826642
  0
ARC
  5
D6
330
3C
100
AcDbEntity
  8
1
  6
Continuous
 62
     7
100
AcDbCircle
 10
202.5423329774441
 20
313.840664114562
 30
0.0
 40
5.99999999999994
100
AcDbArc
 50
9.8029017937682
 51
81.99999999999974
  0
ENDBLK
  5
3E
330
3C
100
AcDbEntity
  8
0
100
AcDbBlockEnd
  0
BLOCK
  5
40
330
3F
100
AcDbEntity
  8
0
100
AcDbBlockBegin
  2
42-1
 70
     0
 71
     0
 10
158.8249840922849
 20
377.4184908818471
 30
0.0
  3
42-1
  1

  0
LINE
  5
D7
330
3F
100
AcDbEntity
  8
1
  6
Continuous
 62
     7
100
AcDbLine
 10
213.6109533036295
 20
294.3142307952436
 30
0.0
 11
213.6109533036295
 21
284.3142307952436
 31
0.0
  0
LINE
  5
D8
330
3F
100
AcDbEntity
  8
1
  6
Continuous
 62
     7
100
AcDbLine
 10
213.9407190238332
 20
295.0642307952435
 30
0.0
 11
213.9407190238332
 21
289.3142307952436
 31
0.0
  0
LINE
  5
D9
330
3F
100
AcDbEntity
  8
1
  6
Continuous
 62
     2
100
AcDbLine
 10
212.8532914058007
 20
290.3142307952436
 30
0.0
 11
211.5880523151903
 21
290.3142307952436
 31
0.0
  0
LINE
  5
DA
330
3F
100
AcDbEntity
  8
1
  6
Continuous
 62
     2
100
AcDbLine
 10
213.0966066155335
 20
291.3142307952436
 30
0.0
 11
211.3285160914754
 21
291.3142307952436
 31
0.0
  0
LINE
  5
DB
330
3F
100
AcDbEntity
  8
1
  6
Continuous
 62
     2
100
AcDbLine
 10
213.3074797973019
 20
292.3142307952436
 30
0.0
 11
210.9716537838673
 21
292.3142307952436
 31
0.0
  0
LINE
  5
DC
330
3F
100
AcDbEntity
  8
1
  6
Continuous
 62
     2
100
AcDbLine
 10
213.4210268951772
 20
293.3142307952436
 30
0.0
 11
210.7770016160811
 21
293.3142307952436
 31
0.0
  0
LINE
  5
DD
330
3F
100
AcDbEntity
  8
1
  6
Continuous
 62
     2
100
AcDbLine
 10
213.6109533036295
 20
294.3142307952436
 30
0.0
 11
210.6109533036295
 21
294.3142307952436
 31
0.0
  0
LINE
  5
DE
330
3F
100
AcDbEntity
  8
1
  6
Continuous
 62
     7
100
AcDbLine
 10
210.6109533036295
 20
296.3142307952436
 30
0.0
 11
210.6109533036295
 21
282.3142307952435
 31
0.0
  0
LINE
  5
DF
330
3F
100
AcDbEntity
  8
1
  6
Continuous
 62
     7
100
AcDbLine
 10
213.6109533036295
 20
295.3142307952436
 30
0.0
 11
213.6109533036295
 21
294.3142307952436
 31
0.0
  0
LINE
  5
E0
330
3F
100
AcDbEntity
  8
1
  6
Continuous
 62
     2
100
AcDbLine
 10
213.6109533036295
 20
295.3142307952436
 30
0.0
 11
210.6109533036295
 21
295.3142307952436
 31
0.0
  0
LINE
  5
E1
330
3F
100
AcDbEntity
  8
1
  6
Continuous
 62
     7
100
AcDbLine
 10
213.6109533036295
 20
296.3142307952436
 30
0.0
 11
213.6109533036295
 21
295.3142307952436
 31
0.0
  0
LINE
  5
E2
330
3F
100
AcDbEntity
  8
1
  6
Continuous
 62
     7
100
AcDbLine
 10
213.6109533036295
 20
296.3142307952436
 30
0.0
 11
213.8802755026527
 21
295.3142307952436
 31
0.0
  0
LINE
  5
E3
330
3F
100
AcDbEntity
  8
1
  6
Continuous
 62
     7
100
AcDbLine
 10
210.6109533036295
 20
296.3142307952436
 30
0.0
 11
213.6109533036295
 21
296.3142307952436
 31
0.0
  0
LINE
  5
E4
330
3F
100
AcDbEntity
  8
1
  6
Continuous
 62
     7
100
AcDbLine
 10
213.6109533036295
 20
282.3142307952435
 30
0.0
 11
210.6109533036295
 21
282.3142307952435
 31
0.0
  0
LINE
  5
E5
330
3F
100
AcDbEntity
  8
1
  6
Continuous
 62
     7
100
AcDbLine
 10
213.8802755026527
 20
283.3142307952435
 30
0.0
 11
213.6109533036295
 21
282.3142307952435
 31
0.0
  0
LINE
  5
E6
330
3F
100
AcDbEntity
  8
1
  6
Continuous
 62
     7
100
AcDbLine
 10
213.6109533036295
 20
283.3142307952436
 30
0.0
 11
213.6109533036295
 21
282.3142307952435
 31
0.0
  0
LINE
  5
E7
330
3F
100
AcDbEntity
  8
1
  6
Continuous
 62
     2
100
AcDbLine
 10
210.6109533036295
 20
283.3142307952436
 30
0.0
 11
213.6109533036295
 21
283.3142307952436
 31
0.0
  0
LINE
  5
E8
330
3F
100
AcDbEntity
  8
1
  6
Continuous
 62
     7
100
AcDbLine
 10
213.6109533036295
 20
284.3142307952436
 30
0.0
 11
213.6109533036295
 21
283.3142307952436
 31
0.0
  0
LINE
  5
E9
330
3F
100
AcDbEntity
  8
1
  6
Continuous
 62
     2
100
AcDbLine
 10
210.6109533036295
 20
284.3142307952436
 30
0.0
 11
213.6109533036295
 21
284.3142307952436
 31
0.0
  0
LINE
  5
EA
330
3F
100
AcDbEntity
  8
1
  6
Continuous
 62
     2
100
AcDbLine
 10
210.7770016160811
 20
285.3142307952436
 30
0.0
 11
213.4210268951772
 21
285.3142307952436
 31
0.0
  0
LINE
  5
EB
330
3F
100
AcDbEntity
  8
1
  6
Continuous
 62
     2
100
AcDbLine
 10
210.9716537838673
 20
286.3142307952436
 30
0.0
 11
213.3074797973019
 21
286.3142307952436
 31
0.0
  0
LINE
  5
EC
330
3F
100
AcDbEntity
  8
1
  6
Continuous
 62
     2
100
AcDbLine
 10
211.3285160914754
 20
287.3142307952436
 30
0.0
 11
213.0966066155335
 21
287.3142307952436
 31
0.0
  0
LINE
  5
ED
330
3F
100
AcDbEntity
  8
1
  6
Continuous
 62
     2
100
AcDbLine
 10
211.5880523151903
 20
288.3142307952436
 30
0.0
 11
212.8532914058007
 21
288.3142307952436
 31
0.0
  0
LINE
  5
EE
330
3F
100
AcDbEntity
  8
1
  6
Continuous
 62
     7
100
AcDbLine
 10
213.9407190238332
 20
289.3142307952436
 30
0.0
 11
213.9407190238332
 21
283.5642307952436
 31
0.0
  0
LINE
  5
EF
330
3F
100
AcDbEntity
  8
1
  6
Continuous
 62
     2
100
AcDbLine
 10
211.5693908394146
 20
753.6559361776152
 30
0.0
 11
212.8346299300251
 21
753.6559361776152
 31
0.0
  0
LINE
  5
F0
330
3F
100
AcDbEntity
  8
1
  6
Continuous
 62
     2
100
AcDbLine
 10
211.3098546156996
 20
752.655936177615
 30
0.0
 11
213.0779451397578
 21
752.655936177615
 31
0.0
  0
LINE
  5
F1
330
3F
100
AcDbEntity
  8
1
  6
Continuous
 62
     2
100
AcDbLine
 10
210.9529923080916
 20
751.6559361776152
 30
0.0
 11
213.2888183215262
 21
751.6559361776152
 31
0.0
  0
LINE
  5
F2
330
3F
100
AcDbEntity
  8
1
  6
Continuous
 62
     2
100
AcDbLine
 10
210.7583401403054
 20
750.6559361776152
 30
0.0
 11
213.4023654194015
 21
750.6559361776152
 31
0.0
  0
LINE
  5
F3
330
3F
100
AcDbEntity
  8
1
  6
Continuous
 62
     2
100
AcDbLine
 10
210.5922918278538
 20
749.6559361776152
 30
0.0
 11
213.5922918278538
 21
749.655936177615
 31
0.0
  0
LINE
  5
F4
330
3F
100
AcDbEntity
  8
1
  6
Continuous
 62
     2
100
AcDbLine
 10
210.5922918278538
 20
748.655936177615
 30
0.0
 11
213.5922918278538
 21
748.655936177615
 31
0.0
  0
LINE
  5
F5
330
3F
100
AcDbEntity
  8
1
  6
Continuous
 62
     7
100
AcDbLine
 10
213.861614026877
 20
748.6559361776152
 30
0.0
 11
213.5922918278538
 21
747.655936177615
 31
0.0
  0
LINE
  5
F6
330
3F
100
AcDbEntity
  8
1
  6
Continuous
 62
     7
100
AcDbLine
 10
213.5922918278538
 20
747.655936177615
 30
0.0
 11
210.5922918278538
 21
747.655936177615
 31
0.0
  0
LINE
  5
F7
330
3F
100
AcDbEntity
  8
1
  6
Continuous
 62
     7
100
AcDbLine
 10
210.5922918278538
 20
761.655936177615
 30
0.0
 11
213.5922918278538
 21
761.655936177615
 31
0.0
  0
LINE
  5
F8
330
3F
100
AcDbEntity
  8
1
  6
Continuous
 62
     7
100
AcDbLine
 10
213.5922918278538
 20
761.655936177615
 30
0.0
 11
213.861614026877
 21
760.6559361776152
 31
0.0
  0
LINE
  5
F9
330
3F
100
AcDbEntity
  8
1
  6
Continuous
 62
     2
100
AcDbLine
 10
213.5922918278538
 20
760.655936177615
 30
0.0
 11
210.5922918278538
 21
760.655936177615
 31
0.0
  0
LINE
  5
FA
330
3F
100
AcDbEntity
  8
1
  6
Continuous
 62
     7
100
AcDbLine
 10
210.5922918278538
 20
761.655936177615
 30
0.0
 11
210.5922918278538
 21
747.655936177615
 31
0.0
  0
LINE
  5
FB
330
3F
100
AcDbEntity
  8
1
  6
Continuous
 62
     2
100
AcDbLine
 10
213.5922918278538
 20
759.655936177615
 30
0.0
 11
210.5922918278538
 21
759.655936177615
 31
0.0
  0
LINE
  5
FC
330
3F
100
AcDbEntity
  8
1
  6
Continuous
 62
     2
100
AcDbLine
 10
213.4023654194015
 20
758.655936177615
 30
0.0
 11
210.7583401403054
 21
758.655936177615
 31
0.0
  0
LINE
  5
FD
330
3F
100
AcDbEntity
  8
1
  6
Continuous
 62
     2
100
AcDbLine
 10
213.2888183215262
 20
757.655936177615
 30
0.0
 11
210.9529923080916
 21
757.655936177615
 31
0.0
  0
LINE
  5
FE
330
3F
100
AcDbEntity
  8
1
  6
Continuous
 62
     2
100
AcDbLine
 10
213.0779451397578
 20
756.655936177615
 30
0.0
 11
211.3098546156996
 21
756.655936177615
 31
0.0
  0
LINE
  5
FF
330
3F
100
AcDbEntity
  8
1
  6
Continuous
 62
     2
100
AcDbLine
 10
212.8346299300251
 20
755.655936177615
 30
0.0
 11
211.5693908394146
 21
755.655936177615
 31
0.0
  0
LINE
  5
100
330
3F
100
AcDbEntity
  8
1
  6
Continuous
 62
     7
100
AcDbLine
 10
213.9220575480576
 20
760.405936177615
 30
0.0
 11
213.9220575480576
 21
748.9059361776152
 31
0.0
  0
LINE
  5
101
330
3F
100
AcDbEntity
  8
1
  6
Continuous
 62
     7
100
AcDbLine
 10
213.5922918278538
 20
761.655936177615
 30
0.0
 11
213.5922918278538
 21
747.655936177615
 31
0.0
  0
ARC
  5
102
330
3F
100
AcDbEntity
  8
1
  6
Continuous
 62
     7
100
AcDbCircle
 10
189.6109533036295
 20
289.3142307952435
 30
0.0
 40
25.0
100
AcDbArc
 50
0.00000000000026
 51
13.29707174720906
  0
ARC
  5
103
330
3F
100
AcDbEntity
  8
1
  6
Continuous
 62
     7
100
AcDbCircle
 10
189.6109533036295
 20
289.3142307952435
 30
0.0
 40
24.99999999999999
100
AcDbArc
 50
13.29707174720906
 51
13.88654036262924
  0
ARC
  5
104
330
3F
100
AcDbEntity
  8
1
  6
Continuous
 62
     7
100
AcDbCircle
 10
189.6109533036295
 20
289.3142307952435
 30
0.0
 40
25.00000000000001
100
AcDbArc
 50
-13.88654036262899
 51
-13.29707174720881
  0
ARC
  5
105
330
3F
100
AcDbEntity
  8
1
  6
Continuous
 62
     7
100
AcDbCircle
 10
189.6109533036295
 20
289.3142307952435
 30
0.0
 40
24.99999999999996
100
AcDbArc
 50
-13.29707174720881
 51
0.00000000000026
  0
ARC
  5
106
330
3F
100
AcDbEntity
  8
1
  6
Continuous
 62
     7
100
AcDbCircle
 10
189.5922918278538
 20
754.655936177615
 30
0.0
 40
24.99999999999993
100
AcDbArc
 50
-13.88654036262849
 51
0.0
  0
ARC
  5
107
330
3F
100
AcDbEntity
  8
1
  6
Continuous
 62
     7
100
AcDbCircle
 10
189.5922918278538
 20
754.655936177615
 30
0.0
 40
25.0
100
AcDbArc
 50
0.0
 51
13.88654036262951
  0
CIRCLE
  5
108
330
3F
100
AcDbEntity
  8
0
  6
Continuous
 62
     7
100
AcDbCircle
 10
579.2549551811788
 20
289.3142307952434
 30
0.0
 40
5.749999999999318
  0
CIRCLE
  5
109
330
3F
100
AcDbEntity
  8
0
  6
Continuous
 62
     7
100
AcDbCircle
 10
579.2549551811788
 20
289.3142307952434
 30
0.0
 40
6.999999999999773
  0
ENDBLK
  5
41
330
3F
100
AcDbEntity
  8
0
100
AcDbBlockEnd
  0
BLOCK
  5
43
330
42
100
AcDbEntity
  8
0
100
AcDbBlockBegin
  2
37-1-13
 70
     0
 71
     0
 10
179.6189272117252
 20
381.1154610120146
 30
0.0
  3
37-1-13
  1

  0
LINE
  5
10A
330
42
100
AcDbEntity
  8
1
  6
Continuous
 62
     7
100
AcDbLine
 10
189.1146331018697
 20
289.3142307952435
 30
0.0
 11
189.1146331018698
 21
276.8142307952437
 31
0.0
  0
LINE
  5
10B
330
42
100
AcDbEntity
  8
1
  6
Continuous
 62
     7
100
AcDbLine
 10
189.1146331018698
 20
301.8142307952434
 30
0.0
 11
189.1146331018697
 21
289.3142307952435
 31
0.0
  0
LINE
  5
10C
330
42
100
AcDbEntity
  8
1
  6
Continuous
 62
     7
100
AcDbLine
 10
181.6146331018697
 20
276.2435165809722
 30
0.0
 11
181.6146331018697
 21
302.3849450095151
 31
0.0
  0
LINE
  5
10D
330
42
100
AcDbEntity
  8
1
  6
Continuous
 62
     7
100
AcDbLine
 10
195.6146331018697
 20
283.3142307952435
 30
0.0
 11
195.6146331018697
 21
295.3142307952435
 31
0.0
  0
LINE
  5
10E
330
42
100
AcDbEntity
  8
1
  6
Continuous
 62
     7
100
AcDbLine
 10
189.1146331018697
 20
754.655936177615
 30
0.0
 11
189.1146331018697
 21
742.1559361776152
 31
0.0
  0
LINE
  5
10F
330
42
100
AcDbEntity
  8
1
  6
Continuous
 62
     7
100
AcDbLine
 10
181.6146331018697
 20
741.655936177615
 30
0.0
 11
181.6146331018697
 21
754.655936177615
 31
0.0
  0
LINE
  5
110
330
42
100
AcDbEntity
  8
1
  6
Continuous
 62
     7
100
AcDbLine
 10
195.6146331018697
 20
748.6559361776149
 30
0.0
 11
195.6146331018697
 21
754.655936177615
 31
0.0
  0
LINE
  5
111
330
42
100
AcDbEntity
  8
1
  6
Continuous
 62
     7
100
AcDbLine
 10
181.6146331018697
 20
741.655936177615
 30
0.0
 11
188.6853473161411
 21
741.655936177615
 31
0.0
  0
LINE
  5
112
330
42
100
AcDbEntity
  8
1
  6
Continuous
 62
     7
100
AcDbLine
 10
189.1146331018697
 20
767.1559361776145
 30
0.0
 11
189.1146331018697
 21
754.655936177615
 31
0.0
  0
LINE
  5
113
330
42
100
AcDbEntity
  8
1
  6
Continuous
 62
     7
100
AcDbLine
 10
181.6146331018697
 20
754.655936177615
 30
0.0
 11
181.6146331018697
 21
767.6559361776148
 31
0.0
  0
LINE
  5
114
330
42
100
AcDbEntity
  8
1
  6
Continuous
 62
     7
100
AcDbLine
 10
195.6146331018697
 20
754.655936177615
 30
0.0
 11
195.6146331018697
 21
760.6559361776148
 31
0.0
  0
LINE
  5
115
330
42
100
AcDbEntity
  8
1
  6
Continuous
 62
     7
100
AcDbLine
 10
188.6853473161412
 20
767.6559361776148
 30
0.0
 11
181.6146331018697
 21
767.6559361776148
 31
0.0
  0
ARC
  5
116
330
42
100
AcDbEntity
  8
1
  6
Continuous
 62
     7
100
AcDbCircle
 10
209.0210883069847
 20
263.4077755901286
 30
0.0
 40
23.99999999999999
100
AcDbArc
 50
123.9591925000977
 51
146.0408074999021
  0
ARC
  5
117
330
42
100
AcDbEntity
  8
1
  6
Continuous
 62
     7
100
AcDbCircle
 10
185.1146331018697
 20
279.8142307952435
 30
0.0
 40
4.999999999999894
100
AcDbArc
 50
-134.4270040008069
 51
-36.86989764584135
  0
ARC
  5
118
330
42
100
AcDbEntity
  8
1
  6
Continuous
 62
     7
100
AcDbCircle
 10
209.0210883069846
 20
315.2206860003585
 30
0.0
 40
24.0
100
AcDbArc
 50
-146.040807499902
 51
-123.9591925000973
  0
ARC
  5
119
330
42
100
AcDbEntity
  8
1
  6
Continuous
 62
     7
100
AcDbCircle
 10
185.1146331018697
 20
298.8142307952435
 30
0.0
 40
5.000000000000034
100
AcDbArc
 50
36.86989764584291
 51
134.4270040008042
  0
ARC
  5
11A
330
42
100
AcDbEntity
  8
1
  6
Continuous
 62
     7
100
AcDbCircle
 10
209.0210883069846
 20
728.7494809725002
 30
0.0
 40
23.99999999999975
100
AcDbArc
 50
123.9591925000978
 51
146.0408074999024
  0
ARC
  5
11B
330
42
100
AcDbEntity
  8
1
  6
Continuous
 62
     7
100
AcDbCircle
 10
185.1146331018697
 20
745.155936177615
 30
0.0
 40
4.999999999999975
100
AcDbArc
 50
-44.42700400080598
 51
-36.86989764584194
  0
ARC
  5
11C
330
42
100
AcDbEntity
  8
1
  6
Continuous
 62
     7
100
AcDbCircle
 10
209.0210883069846
 20
780.5623913827297
 30
0.0
 40
24.00000000000014
100
AcDbArc
 50
-146.0408074999019
 51
-123.9591925000974
  0
ARC
  5
11D
330
42
100
AcDbEntity
  8
1
  6
Continuous
 62
     7
100
AcDbCircle
 10
185.1146331018697
 20
764.1559361776148
 30
0.0
 40
4.999999999999863
100
AcDbArc
 50
36.86989764584194
 51
44.4270040008053
  0
SPLINE
  5
11E
330
42
100
AcDbEntity
  8
1
  6
Continuous
 62
     7
100
AcDbSpline
210
0.0
220
0.0
230
1.0
 70
    11
 71
     3
 72
    79
 73
    75
 74
    73
 42
0.0000000001
 43
0.0000000001
 44
0.00000001
 40
0.0
 40
0.0
 40
0.0
 40
0.0
 40
0.3171598656885095
 40
0.6340856861075931
 40
0.9694901489363705
 40
1.304562820901358
 40
1.666124796939153
 40
2.027385866505016
 40
2.418724079015959
 40
2.809836934323456
 40
3.230628787512834
 40
3.651266058867638
 40
4.098016897819074
 40
4.544667758504444
 40
5.011536287768416
 40
5.478345522146716
 40
5.95789480197509
 40
6.437416541840534
 40
6.921284920564567
 40
7.4051532992886
 40
7.884675039154041
 40
8.364224318982533
 40
8.83103355336084
 40
9.29790208262482
 40
9.744552943310207
 40
10.19130378226161
 40
10.61194105361651
 40
11.03273290680569
 40
11.42384576211328
 40
11.8151839746242
 40
12.17644504419006
 40
12.53800702022788
 40
12.87307969219282
 40
13.2084841550216
 40
13.52540997544064
 40
13.84256984112922
 40
14.15305257372688
 40
14.4635353063246
 40
14.78069517201318
 40
15.09762099243216
 40
15.43302545526091
 40
15.7680981272259
 40
16.12966010326374
 40
16.49092117282968
 40
16.88225938534057
 40
17.27337224064797
 40
17.69416409383725
 40
18.11480136519225
 40
18.56155220414357
 40
19.00820306482907
 40
19.47507159409294
 40
19.94188082847123
 40
20.42143010829961
 40
20.90095184816505
 40
21.3848202268892
 40
21.86868860561335
 40
22.34821034547879
 40
22.82775962530717
 40
23.29456885968535
 40
23.76143738894934
 40
24.20808824963485
 40
24.65483908858636
 40
25.07547635994123
 40
25.49626821313052
 40
25.88738106843803
 40
26.27871928094892
 40
26.63998035051472
 40
27.00154232655256
 40
27.33661499851759
 40
27.67201946134634
 40
27.98894528176538
 40
28.30610514745389
 40
28.6165878800516
 40
28.92707061264925
 40
28.92707061264925
 40
28.92707061264925
 40
28.92707061264925
 10
184.8402649970949
 20
742.6154626519283
 30
0.0
 10
184.736016607596
 20
742.634040583037
 30
0.0
 10
184.5275967577592
 20
742.6711827358375
 30
0.0
 10
184.2225594539827
 20
742.7820378088003
 30
0.0
 10
183.9274078088201
 20
742.9290581180084
 30
0.0
 10
183.6397181826866
 20
743.119129227129
 30
0.0
 10
183.3674793557007
 20
743.3442571748685
 30
0.0
 10
183.1060705802076
 20
743.6088414314849
 30
0.0
 10
182.863883015
 20
743.9039378565399
 30
0.0
 10
182.6362560398814
 20
744.2346802123509
 30
0.0
 10
182.4305640939874
 20
744.5908062130876
 30
0.0
 10
182.2431827938361
 20
744.9775350606466
 30
0.0
 10
182.0797291955356
 20
745.3842717423863
 30
0.0
 10
181.9379305622343
 20
745.8152572706763
 30
0.0
 10
181.821493638372
 20
746.2606891309383
 30
0.0
 10
181.7293095471458
 20
746.7229221182713
 30
0.0
 10
181.6634283087334
 20
747.1938900405025
 30
0.0
 10
181.6234346582183
 20
747.6734514036945
 30
0.0
 10
181.6102124681948
 20
748.1559361776124
 30
0.0
 10
181.6234346582171
 20
748.6384209515452
 30
0.0
 10
181.6634283087381
 20
749.1179823146925
 30
0.0
 10
181.7293095471281
 20
749.5889502370854
 30
0.0
 10
181.8214936384364
 20
750.0511832238321
 30
0.0
 10
181.9379305619981
 20
750.4966150862376
 30
0.0
 10
182.0797291963749
 20
750.9276006068592
 30
0.0
 10
182.2431827907766
 20
751.3343373164032
 30
0.0
 10
182.4305641046679
 20
751.7210660659717
 30
0.0
 10
182.6362560011146
 20
752.0771924193497
 30
0.0
 10
182.8638831484168
 20
752.4079335472078
 30
0.0
 10
183.1060700969643
 20
752.7030343700673
 30
0.0
 10
183.3674810064206
 20
752.9676034080035
 30
0.0
 10
183.6397121912118
 20
753.1927858572074
 30
0.0
 10
183.9274283654045
 20
753.3826676348369
 30
0.0
 10
184.2224842471424
 20
753.5303708953617
 30
0.0
 10
184.5278603955991
 20
753.6388094463481
 30
0.0
 10
184.8370924495366
 20
753.7029920353486
 30
0.0
 10
185.1499902090054
 20
753.7255512637638
 30
0.0
 10
185.4628879684744
 20
753.7029920353486
 30
0.0
 10
185.7721200224118
 20
753.638809446348
 30
0.0
 10
186.0774961708684
 20
753.5303708953619
 30
0.0
 10
186.3725520526063
 20
753.3826676348371
 30
0.0
 10
186.6602682267991
 20
753.1927858572078
 30
0.0
 10
186.9324994115904
 20
752.9676034080035
 30
0.0
 10
187.1939103210465
 20
752.7030343700671
 30
0.0
 10
187.436097269594
 20
752.4079335472078
 30
0.0
 10
187.6637244168963
 20
752.07719241935
 30
0.0
 10
187.8694163133429
 20
751.7210660659719
 30
0.0
 10
188.0567976272342
 20
751.3343373164031
 30
0.0
 10
188.2202512216361
 20
750.9276006068593
 30
0.0
 10
188.3620498560126
 20
750.4966150862379
 30
0.0
 10
188.4784867795746
 20
750.0511832238327
 30
0.0
 10
188.5706708708828
 20
749.5889502370851
 30
0.0
 10
188.6365521092727
 20
749.1179823146933
 30
0.0
 10
188.6765457597938
 20
748.6384209515448
 30
0.0
 10
188.6897679498158
 20
748.1559361776149
 30
0.0
 10
188.6765457597939
 20
747.6734514036857
 30
0.0
 10
188.6365521092724
 20
747.1938900405347
 30
0.0
 10
188.570670870884
 20
746.7229221181535
 30
0.0
 10
188.47848677957
 20
746.2606891313653
 30
0.0
 10
188.3620498560294
 20
745.8152572691116
 30
0.0
 10
188.2202512215764
 20
745.3842717479461
 30
0.0
 10
188.0567976274515
 20
744.9775350403761
 30
0.0
 10
187.8694163125844
 20
744.5908062838479
 30
0.0
 10
187.6637244196498
 20
744.234679955517
 30
0.0
 10
187.4360972601177
 20
743.90393874044
 30
0.0
 10
187.1939103553705
 20
743.6088382299488
 30
0.0
 10
186.9324992943425
 20
743.3442681110562
 30
0.0
 10
186.660268652363
 20
743.1190895329967
 30
0.0
 10
186.3725505925079
 20
742.92919430748
 30
0.0
 10
186.0775015126797
 20
742.7815395558016
 30
0.0
 10
185.7721012966737
 20
742.6729293634543
 30
0.0
 10
185.4629574211358
 20
742.609375632019
 30
0.0
 10
185.1497370476268
 20
742.5845156328867
 30
0.0
 10
184.9434223472722
 20
742.6051469789143
 30
0.0
 10
184.8402649970949
 20
742.6154626519283
 30
0.0
 11
184.8402649970949
 21
742.6154626519283
 31
0.0
 11
184.5297497593108
 21
742.6800433573086
 31
0.0
 11
184.2307939436138
 21
742.785245048879
 31
0.0
 11
183.9306909567832
 21
742.9350260589597
 31
0.0
 11
183.6505542313983
 21
743.1188659637367
 31
0.0
 11
183.371510272928
 21
743.3487823219141
 31
0.0
 11
183.1170929959155
 21
743.6052611895453
 31
0.0
 11
182.8682543438247
 21
743.9072958262957
 31
0.0
 11
182.6460709357977
 21
744.2291712661545
 31
0.0
 11
182.4350462854469
 21
744.5932239830169
 31
0.0
 11
182.251279701906
 21
744.9715962293914
 31
0.0
 11
182.0842176594926
 21
745.3859349629036
 31
0.0
 11
181.9443814187662
 21
745.8101316356044
 31
0.0
 11
181.8259533495819
 21
746.2617299261751
 31
0.0
 11
181.7345214538849
 21
746.7194974105491
 31
0.0
 11
181.6678599049782
 21
747.1943908193066
 31
0.0
 11
181.6279899739446
 21
747.6722521879094
 31
0.0
 11
181.6146331018697
 21
748.1559361776149
 31
0.0
 11
181.6279899739446
 21
748.6396201673203
 31
0.0
 11
181.6678599049782
 21
749.1174815359232
 31
0.0
 11
181.7345214538849
 21
749.5923749446807
 31
0.0
 11
181.8259533495819
 21
750.0501424290547
 31
0.0
 11
181.9443814187662
 21
750.5017407196255
 31
0.0
 11
182.0842176594927
 21
750.9259373923263
 31
0.0
 11
182.251279701906
 21
751.3402761258385
 31
0.0
 11
182.4350462854469
 21
751.7186483722131
 31
0.0
 11
182.6460709357977
 21
752.0827010890753
 31
0.0
 11
182.8682543438247
 21
752.4045765289342
 31
0.0
 11
183.1170929959154
 21
752.7066111656845
 31
0.0
 11
183.371510272928
 21
752.9630900333158
 31
0.0
 11
183.6505542313983
 21
753.1930063914932
 31
0.0
 11
183.9306909567831
 21
753.3768462962702
 31
0.0
 11
184.2307939436138
 21
753.5266273063508
 31
0.0
 11
184.5297497593108
 21
753.6318289979211
 31
0.0
 11
184.8402649970949
 21
753.6964097033017
 31
0.0
 11
185.1499902090054
 21
753.7180850429368
 31
0.0
 11
185.459715420916
 21
753.6964097033017
 31
0.0
 11
185.7702306587001
 21
753.6318289979211
 31
0.0
 11
186.069186474397
 21
753.5266273063509
 31
0.0
 11
186.3692894612277
 21
753.3768462962703
 31
0.0
 11
186.6494261866126
 21
753.1930063914933
 31
0.0
 11
186.9284701450829
 21
752.9630900333159
 31
0.0
 11
187.1828874220955
 21
752.7066111656845
 31
0.0
 11
187.4317260741861
 21
752.4045765289342
 31
0.0
 11
187.6539094822131
 21
752.0827010890755
 31
0.0
 11
187.8649341325639
 21
751.7186483722132
 31
0.0
 11
188.0487007161049
 21
751.3402761258385
 31
0.0
 11
188.2157627585182
 21
750.9259373923264
 31
0.0
 11
188.3555989992447
 21
750.5017407196255
 31
0.0
 11
188.474027068429
 21
750.0501424290549
 31
0.0
 11
188.565458964126
 21
749.5923749446808
 31
0.0
 11
188.6321205130327
 21
749.1174815359234
 31
0.0
 11
188.6719904440663
 21
748.6396201673206
 31
0.0
 11
188.6853473161412
 21
748.155936177615
 31
0.0
 11
188.6719904440663
 21
747.6722521879094
 31
0.0
 11
188.6321205130327
 21
747.1943908193066
 31
0.0
 11
188.565458964126
 21
746.7194974105491
 31
0.0
 11
188.4740270684291
 21
746.2617299261752
 31
0.0
 11
188.3555989992447
 21
745.8101316356045
 31
0.0
 11
188.2157627585182
 21
745.3859349629036
 31
0.0
 11
188.0487007161049
 21
744.9715962293913
 31
0.0
 11
187.864934132564
 21
744.5932239830166
 31
0.0
 11
187.6539094822132
 21
744.2291712661544
 31
0.0
 11
187.4317260741861
 21
743.9072958262956
 31
0.0
 11
187.1828874220955
 21
743.6052611895452
 31
0.0
 11
186.9284701450829
 21
743.3487823219141
 31
0.0
 11
186.6494261866125
 21
743.1188659637367
 31
0.0
 11
186.3692894612277
 21
742.9350260589596
 31
0.0
 11
186.069186474397
 21
742.785245048879
 31
0.0
 11
185.7702306587001
 21
742.6800433573087
 31
0.0
 11
185.459715420916
 21
742.6154626519283
 31
0.0
 11
185.1499902090054
 21
742.5937873122933
 31
0.0
 11
184.8402649970949
 21
742.6154626519283
 31
0.0
  0
SPLINE
  5
11F
330
42
100
AcDbEntity
  8
1
  6
Continuous
 62
     7
100
AcDbSpline
210
0.0
220
0.0
230
1.0
 70
    11
 71
     3
 72
    79
 73
    75
 74
    73
 42
0.0000000001
 43
0.0000000001
 44
0.00000001
 40
0.0
 40
0.0
 40
0.0
 40
0.0
 40
0.3171598656885327
 40
0.6340856861075785
 40
0.9694901489363053
 40
1.304562820901293
 40
1.666124796939087
 40
2.027385866504951
 40
2.418724079015894
 40
2.809836934323484
 40
3.230628787512961
 40
3.651266058867662
 40
4.098016897818993
 40
4.544667758504471
 40
5.011536287768553
 40
5.478345522146743
 40
5.957894801975004
 40
6.437416541840449
 40
6.921284920564482
 40
7.405153299288627
 40
7.884675039154182
 40
8.364224318982448
 40
8.831033553360754
 40
9.297902082624734
 40
9.744552943310231
 40
10.19130378226164
 40
10.61194105361653
 40
11.03273290680591
 40
11.42384576211331
 40
11.81518397462424
 40
12.17644504419018
 40
12.53800702022785
 40
12.87307969219286
 40
13.20848415502168
 40
13.52540997544073
 40
13.84256984112926
 40
14.15305257372693
 40
14.46353530632466
 40
14.78069517201321
 40
15.09762099243223
 40
15.43302545526093
 40
15.76809812722598
 40
16.12966010326382
 40
16.49092117282968
 40
16.88225938534066
 40
17.27337224064806
 40
17.69416409383744
 40
18.11480136519223
 40
18.56155220414366
 40
19.00820306482906
 40
19.47507159409292
 40
19.94188082847133
 40
20.42143010829982
 40
20.90095184816526
 40
21.38482022688941
 40
21.86868860561333
 40
22.34821034547878
 40
22.82775962530715
 40
23.29456885968556
 40
23.76143738894944
 40
24.20808824963494
 40
24.65483908858635
 40
25.07547635994122
 40
25.49626821313042
 40
25.88738106843803
 40
26.27871928094891
 40
26.6399803505148
 40
27.00154232655263
 40
27.3366149985176
 40
27.67201946134635
 40
27.9889452817654
 40
28.3061051474539
 40
28.61658788005163
 40
28.9270706126493
 40
28.9270706126493
 40
28.9270706126493
 40
28.9270706126493
 10
184.8402649970949
 20
766.6964097033015
 30
0.0
 10
184.7360166075959
 20
766.6778317721926
 30
0.0
 10
184.5275967577591
 20
766.6406896193921
 30
0.0
 10
184.2225594539828
 20
766.5298345464295
 30
0.0
 10
183.92740780882
 20
766.3828142372216
 30
0.0
 10
183.6397181826866
 20
766.192743128101
 30
0.0
 10
183.3674793557007
 20
765.9676151803614
 30
0.0
 10
183.1060705802076
 20
765.703030923745
 30
0.0
 10
182.8638830149999
 20
765.40793449869
 30
0.0
 10
182.6362560398813
 20
765.077192142879
 30
0.0
 10
182.4305640939875
 20
764.7210661421422
 30
0.0
 10
182.243182793836
 20
764.3343372945833
 30
0.0
 10
182.0797291955357
 20
763.9276006128436
 30
0.0
 10
181.9379305622343
 20
763.4966150845532
 30
0.0
 10
181.821493638372
 20
763.0511832242913
 30
0.0
 10
181.7293095471458
 20
762.5889502369583
 30
0.0
 10
181.6634283087334
 20
762.1179823147272
 30
0.0
 10
181.6234346582184
 20
761.6384209515354
 30
0.0
 10
181.6102124681948
 20
761.1559361776176
 30
0.0
 10
181.6234346582172
 20
760.6734514036843
 30
0.0
 10
181.6634283087381
 20
760.1938900405371
 30
0.0
 10
181.7293095471281
 20
759.7229221181445
 30
0.0
 10
181.8214936384364
 20
759.2606891313976
 30
0.0
 10
181.9379305619982
 20
758.8152572689919
 30
0.0
 10
182.0797291963749
 20
758.3842717483706
 30
0.0
 10
182.2431827907766
 20
757.9775350388268
 30
0.0
 10
182.430564104668
 20
757.5908062892579
 30
0.0
 10
182.6362560011145
 20
757.2346799358799
 30
0.0
 10
182.8638831484169
 20
756.9039388080222
 30
0.0
 10
183.1060700969643
 20
756.6088379851625
 30
0.0
 10
183.3674810064205
 20
756.3442689472263
 30
0.0
 10
183.6397121912119
 20
756.1190864980224
 30
0.0
 10
183.9274283654045
 20
755.9292047203926
 30
0.0
 10
184.2224842471424
 20
755.7815014598679
 30
0.0
 10
184.527860395599
 20
755.6730629088817
 30
0.0
 10
184.8370924495366
 20
755.6088803198816
 30
0.0
 10
185.1499902090054
 20
755.5863210914661
 30
0.0
 10
185.4628879684743
 20
755.6088803198812
 30
0.0
 10
185.7721200224119
 20
755.6730629088819
 30
0.0
 10
186.0774961708684
 20
755.7815014598679
 30
0.0
 10
186.3725520526065
 20
755.9292047203928
 30
0.0
 10
186.660268226799
 20
756.1190864980223
 30
0.0
 10
186.9324994115904
 20
756.3442689472263
 30
0.0
 10
187.1939103210467
 20
756.6088379851625
 30
0.0
 10
187.4360972695939
 20
756.9039388080223
 30
0.0
 10
187.6637244168964
 20
757.2346799358799
 30
0.0
 10
187.8694163133428
 20
757.590806289258
 30
0.0
 10
188.0567976272343
 20
757.9775350388266
 30
0.0
 10
188.220251221636
 20
758.3842717483708
 30
0.0
 10
188.3620498560127
 20
758.8152572689919
 30
0.0
 10
188.4784867795745
 20
759.2606891313974
 30
0.0
 10
188.5706708708829
 20
759.7229221181444
 30
0.0
 10
188.6365521092727
 20
760.1938900405369
 30
0.0
 10
188.6765457597938
 20
760.6734514036853
 30
0.0
 10
188.6897679498158
 20
761.1559361776152
 30
0.0
 10
188.6765457597939
 20
761.6384209515438
 30
0.0
 10
188.6365521092724
 20
762.1179823146955
 30
0.0
 10
188.570670870884
 20
762.588950237076
 30
0.0
 10
188.47848677957
 20
763.0511832238648
 30
0.0
 10
188.3620498560294
 20
763.4966150861183
 30
0.0
 10
188.2202512215764
 20
763.9276006072842
 30
0.0
 10
188.0567976274515
 20
764.3343373148534
 30
0.0
 10
187.8694163125844
 20
764.721066071382
 30
0.0
 10
187.6637244196498
 20
765.0771923997127
 30
0.0
 10
187.4360972601176
 20
765.4079336147895
 30
0.0
 10
187.1939103553706
 20
765.7030341252812
 30
0.0
 10
186.9324992943426
 20
765.9676042441736
 30
0.0
 10
186.6602686523631
 20
766.1927828222332
 30
0.0
 10
186.3725505925079
 20
766.3826780477501
 30
0.0
 10
186.0775015126797
 20
766.5303327994282
 30
0.0
 10
185.7721012966738
 20
766.6389429917754
 30
0.0
 10
185.4629574211358
 20
766.7024967232106
 30
0.0
 10
185.1497370476268
 20
766.7273567223433
 30
0.0
 10
184.9434223472722
 20
766.7067253763154
 30
0.0
 10
184.8402649970949
 20
766.6964097033015
 30
0.0
 11
184.8402649970949
 21
766.6964097033015
 31
0.0
 11
184.5297497593108
 21
766.6318289979211
 31
0.0
 11
184.2307939436138
 21
766.5266273063508
 31
0.0
 11
183.9306909567832
 21
766.3768462962702
 31
0.0
 11
183.6505542313983
 21
766.1930063914932
 31
0.0
 11
183.371510272928
 21
765.9630900333158
 31
0.0
 11
183.1170929959155
 21
765.7066111656845
 31
0.0
 11
182.8682543438247
 21
765.4045765289342
 31
0.0
 11
182.6460709357977
 21
765.0827010890753
 31
0.0
 11
182.4350462854469
 21
764.7186483722128
 31
0.0
 11
182.251279701906
 21
764.3402761258384
 31
0.0
 11
182.0842176594926
 21
763.9259373923263
 31
0.0
 11
181.9443814187662
 21
763.5017407196253
 31
0.0
 11
181.8259533495819
 21
763.0501424290545
 31
0.0
 11
181.7345214538849
 21
762.5923749446806
 31
0.0
 11
181.6678599049782
 21
762.1174815359233
 31
0.0
 11
181.6279899739446
 21
761.6396201673205
 31
0.0
 11
181.6146331018697
 21
761.155936177615
 31
0.0
 11
181.6279899739446
 21
760.6722521879094
 31
0.0
 11
181.6678599049782
 21
760.1943908193065
 31
0.0
 11
181.7345214538849
 21
759.7194974105491
 31
0.0
 11
181.8259533495819
 21
759.2617299261751
 31
0.0
 11
181.9443814187662
 21
758.8101316356044
 31
0.0
 11
182.0842176594927
 21
758.3859349629034
 31
0.0
 11
182.251279701906
 21
757.9715962293913
 31
0.0
 11
182.4350462854469
 21
757.5932239830166
 31
0.0
 11
182.6460709357977
 21
757.2291712661543
 31
0.0
 11
182.8682543438247
 21
756.9072958262956
 31
0.0
 11
183.1170929959154
 21
756.6052611895452
 31
0.0
 11
183.371510272928
 21
756.3487823219139
 31
0.0
 11
183.6505542313983
 21
756.1188659637367
 31
0.0
 11
183.9306909567831
 21
755.9350260589596
 31
0.0
 11
184.2307939436138
 21
755.7852450488789
 31
0.0
 11
184.5297497593108
 21
755.6800433573086
 31
0.0
 11
184.8402649970949
 21
755.6154626519282
 31
0.0
 11
185.1499902090054
 21
755.593787312293
 31
0.0
 11
185.459715420916
 21
755.6154626519282
 31
0.0
 11
185.7702306587001
 21
755.6800433573087
 31
0.0
 11
186.069186474397
 21
755.785245048879
 31
0.0
 11
186.3692894612277
 21
755.9350260589595
 31
0.0
 11
186.6494261866126
 21
756.1188659637365
 31
0.0
 11
186.9284701450829
 21
756.348782321914
 31
0.0
 11
187.1828874220955
 21
756.6052611895452
 31
0.0
 11
187.4317260741861
 21
756.9072958262957
 31
0.0
 11
187.6539094822131
 21
757.2291712661544
 31
0.0
 11
187.8649341325639
 21
757.5932239830167
 31
0.0
 11
188.0487007161049
 21
757.9715962293913
 31
0.0
 11
188.2157627585182
 21
758.3859349629034
 31
0.0
 11
188.3555989992447
 21
758.8101316356043
 31
0.0
 11
188.474027068429
 21
759.2617299261749
 31
0.0
 11
188.565458964126
 21
759.719497410549
 31
0.0
 11
188.6321205130327
 21
760.1943908193066
 31
0.0
 11
188.6719904440663
 21
760.6722521879094
 31
0.0
 11
188.6853473161412
 21
761.155936177615
 31
0.0
 11
188.6719904440663
 21
761.6396201673203
 31
0.0
 11
188.6321205130327
 21
762.1174815359232
 31
0.0
 11
188.565458964126
 21
762.5923749446806
 31
0.0
 11
188.4740270684291
 21
763.0501424290547
 31
0.0
 11
188.3555989992447
 21
763.5017407196253
 31
0.0
 11
188.2157627585182
 21
763.9259373923263
 31
0.0
 11
188.0487007161049
 21
764.3402761258385
 31
0.0
 11
187.864934132564
 21
764.7186483722131
 31
0.0
 11
187.6539094822132
 21
765.0827010890753
 31
0.0
 11
187.4317260741861
 21
765.4045765289342
 31
0.0
 11
187.1828874220955
 21
765.7066111656845
 31
0.0
 11
186.9284701450829
 21
765.9630900333158
 31
0.0
 11
186.6494261866125
 21
766.1930063914932
 31
0.0
 11
186.3692894612277
 21
766.3768462962702
 31
0.0
 11
186.069186474397
 21
766.5266273063508
 31
0.0
 11
185.7702306587001
 21
766.6318289979211
 31
0.0
 11
185.459715420916
 21
766.6964097033015
 31
0.0
 11
185.1499902090054
 21
766.7180850429367
 31
0.0
 11
184.8402649970949
 21
766.6964097033015
 31
0.0
  0
SPLINE
  5
120
330
42
100
AcDbEntity
  8
0
  6
Continuous
 62
     7
100
AcDbSpline
210
0.0
220
0.0
230
1.0
 70
    11
 71
     3
 72
    79
 73
    75
 74
    73
 42
0.0000000001
 43
0.0000000001
 44
0.00000001
 40
0.0
 40
0.0
 40
0.0
 40
0.0
 40
0.2811775426108807
 40
0.5623408931992859
 40
0.8457466631367643
 40
1.129126830422826
 40
1.415908903032326
 40
1.702658539054572
 40
1.993527432940177
 40
2.284362055943265
 40
2.579517800564306
 40
2.874641782101761
 40
3.173769982296606
 40
3.472872122788012
 40
3.775199692337231
 40
4.077508957859501
 40
4.381905225139263
 40
4.686292091405293
 40
4.991400459518919
 40
5.29650882763252
 40
5.600895693898544
 40
5.905291961178278
 40
6.207601226700576
 40
6.509928796249795
 40
6.809030936741201
 40
7.108159136936076
 40
7.403283118473531
 40
7.698438863094556
 40
7.989273486097645
 40
8.28014237998325
 40
8.566892016005495
 40
8.853674088614982
 40
9.137054255901107
 40
9.420460025838631
 40
9.701623376426994
 40
9.982800919037928
 40
10.26319552186807
 40
10.54359012469832
 40
10.82476766730915
 40
11.1059310178975
 40
11.38933678783498
 40
11.67271695512115
 40
11.95949902773068
 40
12.24624866375291
 40
12.53711755763844
 40
12.82795218064154
 40
13.1231079252625
 40
13.41823190680006
 40
13.71736010699494
 40
14.01646224748632
 40
14.31878981703556
 40
14.62109908255787
 40
14.92549534983756
 40
15.22988221610362
 40
15.53499058421724
 40
15.8400989523309
 40
16.14448581859689
 40
16.44888208587664
 40
16.75119135139896
 40
17.05351892094815
 40
17.35262106143951
 40
17.65174926163441
 40
17.94687324317193
 40
18.24202898779296
 40
18.53286361079605
 40
18.82373250468163
 40
19.11048214070388
 40
19.39726421331343
 40
19.6806443805995
 40
19.96405015053706
 40
20.24521350112536
 40
20.52639104373623
 40
20.80678564656649
 40
21.08718024939674
 40
21.08718024939674
 40
21.08718024939674
 40
21.08718024939674
 10
188.6012512229881
 20
300.2924859498435
 30
0.0
 10
188.5898001008982
 20
300.1993898747529
 30
0.0
 10
188.566898434697
 20
300.0132024234592
 30
0.0
 10
188.4988611436484
 20
299.7389649701534
 30
0.0
 10
188.4072390146746
 20
299.4712383028461
 30
0.0
 10
188.28962802689
 20
299.2116778146781
 30
0.0
 10
188.1484097036708
 20
298.9629435223111
 30
0.0
 10
187.9835877329261
 20
298.7261294175204
 30
0.0
 10
187.7975104357613
 20
298.5038710534536
 30
0.0
 10
187.59048558615
 20
298.2970156663185
 30
0.0
 10
187.365286788436
 20
298.1079018628051
 30
0.0
 10
187.1224218829065
 20
297.9372534786543
 30
0.0
 10
186.8649532518964
 20
297.7869361614046
 30
0.0
 10
186.593675354625
 20
297.6576128260438
 30
0.0
 10
186.3117222007175
 20
297.5505798986055
 30
0.0
 10
186.020285047348
 20
297.4664327609436
 30
0.0
 10
185.7223471038903
 20
297.4058882522357
 30
0.0
 10
185.4195814390899
 20
297.3694010554964
 30
0.0
 10
185.1146331018706
 20
297.3571739991453
 30
0.0
 10
184.8096847646457
 20
297.3694010554962
 30
0.0
 10
184.5069190998622
 20
297.4058882522368
 30
0.0
 10
184.2089811563428
 20
297.466432760939
 30
0.0
 10
183.9175440032021
 20
297.5505798986227
 30
0.0
 10
183.6355908484446
 20
297.6576128259799
 30
0.0
 10
183.3643129543134
 20
297.7869361616407
 30
0.0
 10
183.1068443116614
 20
297.9372534777781
 30
0.0
 10
182.8639794490246
 20
298.1079018660269
 30
0.0
 10
182.6387804924476
 20
298.2970156543624
 30
0.0
 10
182.4317562274441
 20
298.5038710973506
 30
0.0
 10
182.2456767652601
 20
298.7261292545732
 30
0.0
 10
182.0808627655063
 20
298.9629441209061
 30
0.0
 10
181.9396148970924
 20
299.2116755905481
 30
0.0
 10
181.8221129296383
 20
299.4712464944345
 30
0.0
 10
181.7300859822686
 20
299.7389344857048
 30
0.0
 10
181.6635481546483
 20
300.0133151965879
 30
0.0
 10
181.6236453710359
 20
300.2918062080514
 30
0.0
 10
181.6101332497066
 20
300.5725610444413
 30
0.0
 10
181.6236453710358
 20
300.8533158808311
 30
0.0
 10
181.6635481546484
 20
301.1318068922946
 30
0.0
 10
181.7300859822685
 20
301.4061876031776
 30
0.0
 10
181.8221129296384
 20
301.6738755944479
 30
0.0
 10
181.9396148970924
 20
301.9334464983344
 30
0.0
 10
182.0808627655062
 20
302.1821779679763
 30
0.0
 10
182.2456767652601
 20
302.4189928343094
 30
0.0
 10
182.431756227444
 20
302.6412509915318
 30
0.0
 10
182.6387804924475
 20
302.8481064345199
 30
0.0
 10
182.8639794490246
 20
303.0372202228555
 30
0.0
 10
183.1068443116613
 20
303.2078686111043
 30
0.0
 10
183.3643129543134
 20
303.3581859272418
 30
0.0
 10
183.6355908484446
 20
303.4875092629025
 30
0.0
 10
183.9175440032021
 20
303.5945421902599
 30
0.0
 10
184.2089811563428
 20
303.6786893279435
 30
0.0
 10
184.5069190998622
 20
303.7392338366456
 30
0.0
 10
184.8096847646459
 20
303.7757210333863
 30
0.0
 10
185.1146331018697
 20
303.787948089737
 30
0.0
 10
185.4195814390932
 20
303.7757210333864
 30
0.0
 10
185.7223471038782
 20
303.7392338366454
 30
0.0
 10
186.0202850473931
 20
303.6786893279439
 30
0.0
 10
186.3117222005502
 20
303.5945421902586
 30
0.0
 10
186.5936753552468
 20
303.4875092629072
 30
0.0
 10
186.8649532496032
 20
303.3581859272251
 30
0.0
 10
187.1224218914205
 20
303.2078686111672
 30
0.0
 10
187.3652867571325
 20
303.0372202226246
 30
0.0
 10
187.5904857023197
 20
302.8481064353771
 30
0.0
 10
187.7975100092371
 20
302.6412509883846
 30
0.0
 10
187.9835893161982
 20
302.4189928459919
 30
0.0
 10
188.148403887439
 20
302.1821779250596
 30
0.0
 10
188.2896496375851
 20
301.9334466577952
 30
0.0
 10
188.4071594213439
 20
301.6738750071452
 30
0.0
 10
188.4991573449174
 20
301.4061897887859
 30
0.0
 10
188.5658026778325
 20
301.13179880693
 30
0.0
 10
188.6053052637791
 20
300.8533460300423
 30
0.0
 10
188.6203070435965
 20
300.5724488728317
 30
0.0
 10
188.6076031631909
 20
300.3858069241729
 30
0.0
 10
188.6012512229881
 20
300.2924859498435
 30
0.0
 11
188.6012512229881
 21
300.2924859498435
 31
0.0
 11
188.5613134135243
 21
300.0141591961098
 31
0.0
 11
188.4951761943852
 21
299.7408851615609
 31
0.0
 11
188.4030223727194
 21
299.4728804907317
 31
0.0
 11
188.2862923214447
 21
299.2146588527141
 31
0.0
 11
188.1446933832827
 21
298.9652722093637
 31
0.0
 11
187.9810157827586
 21
298.7298258315076
 31
0.0
 11
187.7943273091821
 21
298.5067739826834
 31
0.0
 11
187.5886930989112
 21
298.3011059260882
 31
0.0
 11
187.3626989447848
 21
298.1112545213437
 31
0.0
 11
187.1212961356626
 21
297.9414815899723
 31
0.0
 11
186.8629970204392
 21
297.7906199075389
 31
0.0
 11
186.5930476090211
 21
297.6618200406074
 31
0.0
 11
186.3104140100268
 21
297.5544878085937
 31
0.0
 11
186.0199884959664
 21
297.4705597870313
 31
0.0
 11
185.7216924573255
 21
297.4099251363357
 31
0.0
 11
185.4194969030833
 21
297.3734667854195
 31
0.0
 11
185.1146331018697
 21
297.361252899775
 31
0.0
 11
184.8097693006561
 21
297.3734667854196
 31
0.0
 11
184.5075737464139
 21
297.4099251363357
 31
0.0
 11
184.209277707773
 21
297.4705597870313
 31
0.0
 11
183.9188521937126
 21
297.5544878085937
 31
0.0
 11
183.6362185947183
 21
297.6618200406074
 31
0.0
 11
183.3662691833002
 21
297.7906199075389
 31
0.0
 11
183.1079700680768
 21
297.9414815899723
 31
0.0
 11
182.8665672589546
 21
298.1112545213437
 31
0.0
 11
182.6405731048282
 21
298.3011059260882
 31
0.0
 11
182.4349388945573
 21
298.5067739826834
 31
0.0
 11
182.2482504209808
 21
298.7298258315076
 31
0.0
 11
182.0845728204567
 21
298.9652722093637
 31
0.0
 11
181.9429738822947
 21
299.2146588527141
 31
0.0
 11
181.82624383102
 21
299.4728804907318
 31
0.0
 11
181.7340900093542
 21
299.740885161561
 31
0.0
 11
181.6679527902151
 21
300.0141591961099
 31
0.0
 11
181.6280149807512
 21
300.2924859498436
 31
0.0
 11
181.6146331018698
 21
300.5725610444412
 31
0.0
 11
181.6280149807512
 21
300.852636139039
 31
0.0
 11
181.6679527902151
 21
301.1309628927726
 31
0.0
 11
181.7340900093542
 21
301.4042369273215
 31
0.0
 11
181.82624383102
 21
301.6722415981506
 31
0.0
 11
181.9429738822947
 21
301.9304632361683
 31
0.0
 11
182.0845728204567
 21
302.1798498795188
 31
0.0
 11
182.2482504209807
 21
302.4152962573749
 31
0.0
 11
182.4349388945572
 21
302.638348106199
 31
0.0
 11
182.6405731048281
 21
302.8440161627942
 31
0.0
 11
182.8665672589546
 21
303.0338675675386
 31
0.0
 11
183.1079700680768
 21
303.2036404989101
 31
0.0
 11
183.3662691833002
 21
303.3545021813435
 31
0.0
 11
183.6362185947182
 21
303.4833020482751
 31
0.0
 11
183.9188521937126
 21
303.5906342802888
 31
0.0
 11
184.209277707773
 21
303.6745623018512
 31
0.0
 11
184.5075737464139
 21
303.7351969525468
 31
0.0
 11
184.8097693006561
 21
303.7716553034629
 31
0.0
 11
185.1146331018697
 21
303.7838691891075
 31
0.0
 11
185.4194969030833
 21
303.7716553034629
 31
0.0
 11
185.7216924573255
 21
303.7351969525468
 31
0.0
 11
186.0199884959664
 21
303.6745623018512
 31
0.0
 11
186.3104140100268
 21
303.5906342802888
 31
0.0
 11
186.5930476090211
 21
303.4833020482751
 31
0.0
 11
186.8629970204392
 21
303.3545021813437
 31
0.0
 11
187.1212961356626
 21
303.2036404989102
 31
0.0
 11
187.3626989447848
 21
303.0338675675387
 31
0.0
 11
187.5886930989113
 21
302.8440161627942
 31
0.0
 11
187.7943273091821
 21
302.638348106199
 31
0.0
 11
187.9810157827586
 21
302.4152962573749
 31
0.0
 11
188.1446933832827
 21
302.1798498795187
 31
0.0
 11
188.2862923214447
 21
301.9304632361682
 31
0.0
 11
188.4030223727195
 21
301.6722415981507
 31
0.0
 11
188.4951761943853
 21
301.4042369273215
 31
0.0
 11
188.5613134135244
 21
301.1309628927726
 31
0.0
 11
188.6012512229882
 21
300.852636139039
 31
0.0
 11
188.6146331018696
 21
300.5725610444412
 31
0.0
 11
188.6012512229881
 21
300.2924859498435
 31
0.0
  0
SPLINE
  5
121
330
42
100
AcDbEntity
  8
0
  6
Continuous
 62
     7
100
AcDbSpline
210
0.0
220
0.0
230
1.0
 70
    11
 71
     3
 72
    79
 73
    75
 74
    73
 42
0.0000000001
 43
0.0000000001
 44
0.00000001
 40
0.0
 40
0.0
 40
0.0
 40
0.0
 40
0.3165105491713043
 40
0.6328929319855404
 40
0.96174316606334
 40
1.290395356804434
 40
1.637286321305621
 40
1.983975457781564
 40
2.35181648559328
 40
2.719488759026616
 40
3.108422409522006
 40
3.497229809231764
 40
3.905017581393903
 40
4.312718388939225
 40
4.735267628544449
 40
5.157763077150513
 40
5.589677248610228
 40
6.021565830284216
 40
6.456678185770388
 40
6.891790541256559
 40
7.323679122930489
 40
7.755593294390208
 40
8.178088742996266
 40
8.600637982601505
 40
9.008338790146837
 40
9.416126562308925
 40
9.804933962018669
 40
10.193867612514
 40
10.56153988594744
 40
10.9293809137591
 40
11.27607005023504
 40
11.62296101473619
 40
11.95161320547729
 40
12.28046343955509
 40
12.59684582236928
 40
12.91335637154061
 40
13.22542041382611
 40
13.53748445611156
 40
13.85399500528286
 40
14.17037738809708
 40
14.49922762217488
 40
14.827879812916
 40
15.17477077741713
 40
15.52145991389307
 40
15.88930094170468
 40
16.25697321513816
 40
16.64590686563352
 40
17.03471426534326
 40
17.44250203750528
 40
17.85020284505065
 40
18.27275208465588
 40
18.69524753326196
 40
19.12716170472168
 40
19.5590502863956
 40
19.99416264188178
 40
20.42927499736795
 40
20.86116357904188
 40
21.2930777505016
 40
21.71557319910773
 40
22.13812243871301
 40
22.54582324625843
 40
22.95361101842044
 40
23.34241841813016
 40
23.73135206862551
 40
24.09902434205894
 40
24.46686536987055
 40
24.81355450634655
 40
25.16044547084769
 40
25.48909766158879
 40
25.81794789566656
 40
26.13433027848077
 40
26.45084082765209
 40
26.76290486993754
 40
27.07496891222299
 40
27.07496891222299
 40
27.07496891222299
 40
27.07496891222299
 10
184.8645607265622
 20
294.2941141142782
 30
0.0
 10
184.7602284418713
 20
294.2775487830643
 30
0.0
 10
184.5516061203352
 20
294.2444248285268
 30
0.0
 10
184.2454220222571
 20
294.1456656923199
 30
0.0
 10
183.9481332659559
 20
294.0139634945335
 30
0.0
 10
183.658873353652
 20
293.8440060687514
 30
0.0
 10
183.3839051643978
 20
293.6417847585578
 30
0.0
 10
183.1206752196019
 20
293.4045843398857
 30
0.0
 10
182.8757652685151
 20
293.1390481404845
 30
0.0
 10
182.6463561304493
 20
292.8420939249863
 30
0.0
 10
182.4383319647824
 20
292.5214348944857
 30
0.0
 10
182.2494037727451
 20
292.1739317777289
 30
0.0
 10
182.0841581340742
 20
291.8076932982268
 30
0.0
 10
181.9411586969307
 20
291.4202414501553
 30
0.0
 10
181.8234971360962
 20
291.0192481736362
 30
0.0
 10
181.7305231423169
 20
290.6035742754976
 30
0.0
 10
181.6639671545073
 20
290.1797106179503
 30
0.0
 10
181.6236381602011
 20
289.7483411810832
 30
0.0
 10
181.6102620285124
 20
289.3142307952454
 30
0.0
 10
181.6236381602004
 20
288.8801204093961
 30
0.0
 10
181.6639671545105
 20
288.4487509725633
 30
0.0
 10
181.7305231423048
 20
288.0248873148915
 30
0.0
 10
181.8234971361405
 20
287.6092134172073
 30
0.0
 10
181.9411586967677
 20
287.2082201390199
 30
0.0
 10
182.0841581346588
 20
286.8207682969652
 30
0.0
 10
182.2494037706036
 20
286.4545297955193
 30
0.0
 10
182.4383319723636
 20
286.1070267570267
 30
0.0
 10
182.6463561027554
 20
285.7863674425756
 30
0.0
 10
182.8757653656293
 20
285.4894142317348
 30
0.0
 10
183.1206748651246
 20
285.2238743971944
 30
0.0
 10
183.3839064033763
 20
284.9866868052327
 30
0.0
 10
183.6588688205197
 20
284.7844190317558
 30
0.0
 10
183.948149202642
 20
284.6146263801781
 30
0.0
 10
184.2453633530865
 20
284.4823236337975
 30
0.0
 10
184.5518159142295
 20
284.3857255225216
 30
0.0
 10
184.8623153364866
 20
284.3283041077801
 30
0.0
 10
185.1760249790911
 20
284.3084081137803
 30
0.0
 10
185.4897346216956
 20
284.3283041077802
 30
0.0
 10
185.8002340439526
 20
284.3857255225215
 30
0.0
 10
186.1066866050956
 20
284.4823236337975
 30
0.0
 10
186.4039007555401
 20
284.6146263801781
 30
0.0
 10
186.6931811376624
 20
284.7844190317558
 30
0.0
 10
186.9681435548058
 20
284.9866868052326
 30
0.0
 10
187.2313750930574
 20
285.2238743971946
 30
0.0
 10
187.4762845925528
 20
285.4894142317348
 30
0.0
 10
187.7056938554268
 20
285.7863674425757
 30
0.0
 10
187.9137179858186
 20
286.1070267570267
 30
0.0
 10
188.1026461875786
 20
286.4545297955193
 30
0.0
 10
188.2678918235234
 20
286.8207682969652
 30
0.0
 10
188.4108912614144
 20
287.20822013902
 30
0.0
 10
188.5285528220416
 20
287.6092134172072
 30
0.0
 10
188.6215268158774
 20
288.0248873148915
 30
0.0
 10
188.6880828036717
 20
288.4487509725632
 30
0.0
 10
188.7284117979818
 20
288.8801204093965
 30
0.0
 10
188.7417879296695
 20
289.3142307952437
 30
0.0
 10
188.7284117979819
 20
289.7483411810899
 30
0.0
 10
188.6880828036715
 20
290.1797106179257
 30
0.0
 10
188.6215268158782
 20
290.6035742755885
 30
0.0
 10
188.5285528220384
 20
291.0192481733052
 30
0.0
 10
188.410891261426
 20
291.4202414513736
 30
0.0
 10
188.2678918234818
 20
291.8076932938573
 30
0.0
 10
188.1026461877314
 20
292.173931793739
 30
0.0
 10
187.9137179852781
 20
292.5214348378106
 30
0.0
 10
187.705693857401
 20
292.8420941320202
 30
0.0
 10
187.4762845856299
 20
293.1390474144783
 30
0.0
 10
187.2313751183265
 20
293.4045869898862
 30
0.0
 10
186.9681434664847
 20
293.6417754962049
 30
0.0
 10
186.6931814608084
 20
293.8440399575298
 30
0.0
 10
186.4038996194877
 20
294.0138443550965
 30
0.0
 10
186.1066907873485
 20
294.1461042911524
 30
0.0
 10
185.8002190887188
 20
294.2428564518746
 30
0.0
 10
185.4897902011246
 20
294.2997100895739
 30
0.0
 10
185.175820779097
 20
294.3216972085128
 30
0.0
 10
184.9683140774071
 20
294.303308479023
 30
0.0
 10
184.8645607265622
 20
294.2941141142782
 30
0.0
 11
184.8645607265622
 21
294.2941141142782
 31
0.0
 11
184.5533476436516
 21
294.2364483119167
 31
0.0
 11
184.2514240580375
 21
294.1418969470129
 31
0.0
 11
183.9509126399006
 21
294.0083478398561
 31
0.0
 11
183.667164989758
 21
293.8425180068421
 31
0.0
 11
183.3874926108504
 21
293.6372944659684
 31
0.0
 11
183.1295694965834
 21
293.4056287057075
 31
0.0
 11
182.8798271356232
 21
293.1355624640489
 31
0.0
 11
182.6546968991596
 21
292.8448748700902
 31
0.0
 11
182.442637204298
 21
292.5188379545379
 31
0.0
 11
182.2566316758188
 21
292.1774098692195
 31
0.0
 11
182.0885729190693
 21
291.8058629389337
 31
0.0
 11
181.9471945702086
 21
291.4234598650097
 31
0.0
 11
181.8279532281746
 21
291.0180842833069
 31
0.0
 11
181.7356101327067
 21
290.6058038486362
 31
0.0
 11
181.6684349906693
 21
290.1791454937432
 31
0.0
 11
181.6282079390975
 21
289.7491344109765
 31
0.0
 11
181.6147317779567
 21
289.3142307952435
 31
0.0
 11
181.6282079390975
 21
288.8793271795105
 31
0.0
 11
181.6684349906693
 21
288.4493160967438
 31
0.0
 11
181.7356101327067
 21
288.0226577418508
 31
0.0
 11
181.8279532281746
 21
287.6103773071802
 31
0.0
 11
181.9471945702087
 21
287.2050017254774
 31
0.0
 11
182.0885729190694
 21
286.8225986515533
 31
0.0
 11
182.2566316758188
 21
286.4510517212676
 31
0.0
 11
182.442637204298
 21
286.1096236359492
 31
0.0
 11
182.6546968991596
 21
285.7835867203969
 31
0.0
 11
182.8798271356232
 21
285.4928991264381
 31
0.0
 11
183.1295694965834
 21
285.2228328847796
 31
0.0
 11
183.3874926108504
 21
284.9911671245187
 31
0.0
 11
183.667164989758
 21
284.7859435836451
 31
0.0
 11
183.9509126399006
 21
284.620113750631
 31
0.0
 11
184.2514240580375
 21
284.4865646434741
 31
0.0
 11
184.5533476436515
 21
284.3920132785704
 31
0.0
 11
184.8645607265621
 21
284.3343474762089
 31
0.0
 11
185.1760249790911
 21
284.3150087615638
 31
0.0
 11
185.48748923162
 21
284.3343474762089
 31
0.0
 11
185.7987023145306
 21
284.3920132785704
 31
0.0
 11
186.1006259001447
 21
284.4865646434741
 31
0.0
 11
186.4011373182815
 21
284.620113750631
 31
0.0
 11
186.6848849684242
 21
284.7859435836451
 31
0.0
 11
186.9645573473317
 21
284.9911671245187
 31
0.0
 11
187.2224804615987
 21
285.2228328847796
 31
0.0
 11
187.4722228225589
 21
285.4928991264381
 31
0.0
 11
187.6973530590225
 21
285.7835867203969
 31
0.0
 11
187.9094127538842
 21
286.1096236359492
 31
0.0
 11
188.0954182823634
 21
286.4510517212676
 31
0.0
 11
188.2634770391128
 21
286.8225986515533
 31
0.0
 11
188.4048553879734
 21
287.2050017254774
 31
0.0
 11
188.5240967300075
 21
287.6103773071802
 31
0.0
 11
188.6164398254755
 21
288.0226577418508
 31
0.0
 11
188.6836149675129
 21
288.4493160967438
 31
0.0
 11
188.7238420190846
 21
288.8793271795105
 31
0.0
 11
188.7373181802255
 21
289.3142307952435
 31
0.0
 11
188.7238420190846
 21
289.7491344109765
 31
0.0
 11
188.6836149675129
 21
290.1791454937431
 31
0.0
 11
188.6164398254755
 21
290.6058038486361
 31
0.0
 11
188.5240967300075
 21
291.0180842833069
 31
0.0
 11
188.4048553879734
 21
291.4234598650097
 31
0.0
 11
188.2634770391128
 21
291.8058629389338
 31
0.0
 11
188.0954182823634
 21
292.1774098692195
 31
0.0
 11
187.9094127538841
 21
292.5188379545379
 31
0.0
 11
187.6973530590225
 21
292.8448748700902
 31
0.0
 11
187.4722228225589
 21
293.1355624640489
 31
0.0
 11
187.2224804615987
 21
293.4056287057074
 31
0.0
 11
186.9645573473317
 21
293.6372944659684
 31
0.0
 11
186.6848849684242
 21
293.8425180068421
 31
0.0
 11
186.4011373182815
 21
294.0083478398561
 31
0.0
 11
186.1006259001447
 21
294.1418969470128
 31
0.0
 11
185.7987023145306
 21
294.2364483119166
 31
0.0
 11
185.48748923162
 21
294.2941141142782
 31
0.0
 11
185.1760249790911
 21
294.3134528289234
 31
0.0
 11
184.8645607265622
 21
294.2941141142782
 31
0.0
  0
SPLINE
  5
122
330
42
100
AcDbEntity
  8
0
  6
Continuous
 62
     7
100
AcDbSpline
210
0.0
220
0.0
230
1.0
 70
    11
 71
     3
 72
    79
 73
    75
 74
    73
 42
0.0000000001
 43
0.0000000001
 44
0.00000001
 40
0.0
 40
0.0
 40
0.0
 40
0.0
 40
0.2811775426108767
 40
0.5623408931992333
 40
0.845746663136721
 40
1.129126830422835
 40
1.415908903032384
 40
1.702658539054677
 40
1.993527432940263
 40
2.284362055943372
 40
2.579517800564376
 40
2.874641782101896
 40
3.17376998229677
 40
3.472872122788127
 40
3.775199692337345
 40
4.077508957859616
 40
4.381905225139378
 40
4.686292091405394
 40
4.991400459519021
 40
5.296508827632617
 40
5.600895693898639
 40
5.905291961178363
 40
6.20760122670066
 40
6.509928796249898
 40
6.809030936741279
 40
7.108159136936203
 40
7.403283118473691
 40
7.698438863094657
 40
7.989273486097746
 40
8.280142379983332
 40
8.566892016005641
 40
8.853674088615176
 40
9.137054255901301
 40
9.420460025838825
 40
9.701623376427126
 40
9.982800919038006
 40
10.2631955218682
 40
10.54359012469852
 40
10.82476766730945
 40
11.1059310178978
 40
11.38933678783521
 40
11.67271695512138
 40
11.95949902773097
 40
12.2462486637532
 40
12.53711755763881
 40
12.82795218064185
 40
13.12310792526284
 40
13.41823190680038
 40
13.7173601069953
 40
14.01646224748668
 40
14.31878981703592
 40
14.62109908255824
 40
14.92549534983799
 40
15.229882216104
 40
15.53499058421761
 40
15.84009895233123
 40
16.14448581859722
 40
16.44888208587697
 40
16.75119135139929
 40
17.05351892094846
 40
17.35262106143989
 40
17.65174926163474
 40
17.94687324317226
 40
18.24202898779326
 40
18.53286361079635
 40
18.82373250468191
 40
19.11048214070416
 40
19.39726421331371
 40
19.68064438059988
 40
19.96405015053738
 40
20.24521350112579
 40
20.52639104373673
 40
20.80678564656698
 40
21.08718024939718
 40
21.08718024939718
 40
21.08718024939718
 40
21.08718024939718
 10
188.6012512229882
 20
278.3359756406436
 30
0.0
 10
188.5898001008983
 20
278.429071715734
 30
0.0
 10
188.5668984346971
 20
278.6152591670278
 30
0.0
 10
188.4988611436483
 20
278.8894966203337
 30
0.0
 10
188.4072390146746
 20
279.1572232876408
 30
0.0
 10
188.2896280268899
 20
279.4167837758091
 30
0.0
 10
188.1484097036709
 20
279.6655180681761
 30
0.0
 10
187.9835877329261
 20
279.9023321729667
 30
0.0
 10
187.7975104357613
 20
280.1245905370337
 30
0.0
 10
187.59048558615
 20
280.3314459241686
 30
0.0
 10
187.365286788436
 20
280.5205597276822
 30
0.0
 10
187.1224218829065
 20
280.6912081118328
 30
0.0
 10
186.8649532518964
 20
280.8415254290828
 30
0.0
 10
186.5936753546249
 20
280.9708487644433
 30
0.0
 10
186.3117222007175
 20
281.0778816918817
 30
0.0
 10
186.0202850473479
 20
281.1620288295435
 30
0.0
 10
185.7223471038903
 20
281.2225733382516
 30
0.0
 10
185.4195814390899
 20
281.2590605349906
 30
0.0
 10
185.1146331018706
 20
281.2712875913417
 30
0.0
 10
184.8096847646458
 20
281.259060534991
 30
0.0
 10
184.5069190998623
 20
281.2225733382503
 30
0.0
 10
184.2089811563428
 20
281.1620288295483
 30
0.0
 10
183.9175440032021
 20
281.0778816918645
 30
0.0
 10
183.6355908484446
 20
280.9708487645073
 30
0.0
 10
183.3643129543133
 20
280.8415254288466
 30
0.0
 10
183.1068443116614
 20
280.6912081127091
 30
0.0
 10
182.8639794490245
 20
280.5205597244602
 30
0.0
 10
182.6387804924476
 20
280.3314459361246
 30
0.0
 10
182.4317562274441
 20
280.1245904931366
 30
0.0
 10
182.2456767652601
 20
279.902332335914
 30
0.0
 10
182.0808627655063
 20
279.6655174695811
 30
0.0
 10
181.9396148970924
 20
279.416785999939
 30
0.0
 10
181.8221129296383
 20
279.1572150960526
 30
0.0
 10
181.7300859822685
 20
278.8895271047823
 30
0.0
 10
181.6635481546483
 20
278.6151463938992
 30
0.0
 10
181.6236453710359
 20
278.3366553824359
 30
0.0
 10
181.6101332497066
 20
278.0559005460459
 30
0.0
 10
181.6236453710359
 20
277.7751457096559
 30
0.0
 10
181.6635481546484
 20
277.4966546981925
 30
0.0
 10
181.7300859822684
 20
277.2222739873093
 30
0.0
 10
181.8221129296383
 20
276.9545859960391
 30
0.0
 10
181.9396148970923
 20
276.6950150921526
 30
0.0
 10
182.0808627655064
 20
276.4462836225108
 30
0.0
 10
182.24567676526
 20
276.2094687561777
 30
0.0
 10
182.4317562274441
 20
275.9872105989551
 30
0.0
 10
182.6387804924476
 20
275.7803551559671
 30
0.0
 10
182.8639794490245
 20
275.5912413676314
 30
0.0
 10
183.1068443116613
 20
275.4205929793826
 30
0.0
 10
183.3643129543133
 20
275.270275663245
 30
0.0
 10
183.6355908484447
 20
275.1409523275844
 30
0.0
 10
183.9175440032021
 20
275.0339194002271
 30
0.0
 10
184.2089811563429
 20
274.9497722625433
 30
0.0
 10
184.5069190998622
 20
274.8892277538414
 30
0.0
 10
184.809684764646
 20
274.8527405571007
 30
0.0
 10
185.1146331018698
 20
274.8405135007499
 30
0.0
 10
185.4195814390932
 20
274.8527405571007
 30
0.0
 10
185.7223471038782
 20
274.8892277538415
 30
0.0
 10
186.0202850473931
 20
274.949772262543
 30
0.0
 10
186.3117222005502
 20
275.0339194002284
 30
0.0
 10
186.5936753552468
 20
275.1409523275797
 30
0.0
 10
186.8649532496031
 20
275.2702756632619
 30
0.0
 10
187.1224218914205
 20
275.4205929793197
 30
0.0
 10
187.3652867571325
 20
275.5912413678623
 30
0.0
 10
187.5904857023196
 20
275.7803551551099
 30
0.0
 10
187.797510009237
 20
275.9872106021024
 30
0.0
 10
187.9835893161983
 20
276.209468744495
 30
0.0
 10
188.148403887439
 20
276.4462836654274
 30
0.0
 10
188.2896496375852
 20
276.6950149326917
 30
0.0
 10
188.4071594213438
 20
276.9545865833419
 30
0.0
 10
188.4991573449175
 20
277.2222718017011
 30
0.0
 10
188.5658026778324
 20
277.4966627835569
 30
0.0
 10
188.6053052637792
 20
277.7751155604449
 30
0.0
 10
188.6203070435965
 20
278.0560127176553
 30
0.0
 10
188.6076031631909
 20
278.2426546663142
 30
0.0
 10
188.6012512229881
 20
278.3359756406436
 30
0.0
 11
188.6012512229882
 21
278.3359756406436
 31
0.0
 11
188.5613134135243
 21
278.6143023943773
 31
0.0
 11
188.4951761943852
 21
278.8875764289261
 31
0.0
 11
188.4030223727194
 21
279.1555810997553
 31
0.0
 11
188.2862923214447
 21
279.4138027377729
 31
0.0
 11
188.1446933832827
 21
279.6631893811234
 31
0.0
 11
187.9810157827586
 21
279.8986357589796
 31
0.0
 11
187.7943273091821
 21
280.1216876078038
 31
0.0
 11
187.5886930989112
 21
280.327355664399
 31
0.0
 11
187.3626989447848
 21
280.5172070691435
 31
0.0
 11
187.1212961356626
 21
280.686980000515
 31
0.0
 11
186.8629970204392
 21
280.8378416829484
 31
0.0
 11
186.5930476090211
 21
280.9666415498798
 31
0.0
 11
186.3104140100268
 21
281.0739737818935
 31
0.0
 11
186.0199884959664
 21
281.1579018034558
 31
0.0
 11
185.7216924573255
 21
281.2185364541515
 31
0.0
 11
185.4194969030833
 21
281.2549948050676
 31
0.0
 11
185.1146331018697
 21
281.2672086907121
 31
0.0
 11
184.8097693006561
 21
281.2549948050676
 31
0.0
 11
184.5075737464139
 21
281.2185364541515
 31
0.0
 11
184.209277707773
 21
281.1579018034559
 31
0.0
 11
183.9188521937126
 21
281.0739737818935
 31
0.0
 11
183.6362185947183
 21
280.9666415498798
 31
0.0
 11
183.3662691833002
 21
280.8378416829482
 31
0.0
 11
183.1079700680768
 21
280.6869800005148
 31
0.0
 11
182.8665672589546
 21
280.5172070691434
 31
0.0
 11
182.6405731048282
 21
280.327355664399
 31
0.0
 11
182.4349388945573
 21
280.1216876078038
 31
0.0
 11
182.2482504209808
 21
279.8986357589796
 31
0.0
 11
182.0845728204567
 21
279.6631893811234
 31
0.0
 11
181.9429738822947
 21
279.4138027377729
 31
0.0
 11
181.82624383102
 21
279.1555810997553
 31
0.0
 11
181.7340900093542
 21
278.8875764289261
 31
0.0
 11
181.6679527902151
 21
278.6143023943773
 31
0.0
 11
181.6280149807512
 21
278.3359756406436
 31
0.0
 11
181.6146331018698
 21
278.0559005460459
 31
0.0
 11
181.6280149807512
 21
277.7758254514481
 31
0.0
 11
181.6679527902151
 21
277.4974986977144
 31
0.0
 11
181.7340900093541
 21
277.2242246631655
 31
0.0
 11
181.8262438310199
 21
276.9562199923364
 31
0.0
 11
181.9429738822946
 21
276.6979983543187
 31
0.0
 11
182.0845728204567
 21
276.4486117109682
 31
0.0
 11
182.2482504209808
 21
276.2131653331121
 31
0.0
 11
182.4349388945573
 21
275.9901134842879
 31
0.0
 11
182.6405731048281
 21
275.7844454276927
 31
0.0
 11
182.8665672589545
 21
275.5945940229482
 31
0.0
 11
183.1079700680767
 21
275.4248210915768
 31
0.0
 11
183.3662691833002
 21
275.2739594091434
 31
0.0
 11
183.6362185947182
 21
275.1451595422118
 31
0.0
 11
183.9188521937126
 21
275.0378273101982
 31
0.0
 11
184.209277707773
 21
274.9538992886357
 31
0.0
 11
184.507573746414
 21
274.8932646379402
 31
0.0
 11
184.8097693006561
 21
274.8568062870241
 31
0.0
 11
185.1146331018697
 21
274.8445924013795
 31
0.0
 11
185.4194969030833
 21
274.8568062870241
 31
0.0
 11
185.7216924573255
 21
274.8932646379402
 31
0.0
 11
186.0199884959664
 21
274.9538992886357
 31
0.0
 11
186.3104140100268
 21
275.0378273101982
 31
0.0
 11
186.5930476090211
 21
275.1451595422118
 31
0.0
 11
186.8629970204392
 21
275.2739594091434
 31
0.0
 11
187.1212961356626
 21
275.4248210915768
 31
0.0
 11
187.3626989447848
 21
275.5945940229482
 31
0.0
 11
187.5886930989112
 21
275.7844454276927
 31
0.0
 11
187.7943273091821
 21
275.9901134842879
 31
0.0
 11
187.9810157827586
 21
276.213165333112
 31
0.0
 11
188.1446933832827
 21
276.4486117109682
 31
0.0
 11
188.2862923214447
 21
276.6979983543187
 31
0.0
 11
188.4030223727194
 21
276.9562199923363
 31
0.0
 11
188.4951761943853
 21
277.2242246631655
 31
0.0
 11
188.5613134135244
 21
277.4974986977144
 31
0.0
 11
188.6012512229882
 21
277.7758254514482
 31
0.0
 11
188.6146331018696
 21
278.0559005460459
 31
0.0
 11
188.6012512229881
 21
278.3359756406436
 31
0.0
  0
ENDBLK
  5
44
330
42
100
AcDbEntity
  8
0
100
AcDbBlockEnd
  0
BLOCK
  5
46
330
45
100
AcDbEntity
  8
0
100
AcDbBlockBegin
  2
36-1A-13-M11
 70
     0
 71
     0
 10
198.5455070924335
 20
391.6963568046798
 30
0.0
  3
36-1A-13-M11
  1

  0
LINE
  5
123
330
45
100
AcDbEntity
  8
1
  6
Continuous
 62
     7
100
AcDbLine
 10
199.5922918278538
 20
284.5642307952435
 30
0.0
 11
195.6146331018697
 21
284.5642307952435
 31
0.0
  0
LINE
  5
124
330
45
100
AcDbEntity
  8
1
  6
Continuous
 62
     7
100
AcDbLine
 10
195.6146331018697
 20
294.0642307952436
 30
0.0
 11
199.5922918278538
 21
294.0642307952436
 31
0.0
  0
LINE
  5
125
330
45
100
AcDbEntity
  8
1
  6
Continuous
 62
     7
100
AcDbLine
 10
199.5922918278538
 20
749.905936177615
 30
0.0
 11
195.6146331018697
 21
749.905936177615
 31
0.0
  0
LINE
  5
126
330
45
100
AcDbEntity
  8
1
  6
Continuous
 62
     7
100
AcDbLine
 10
195.6146331018697
 20
759.405936177615
 30
0.0
 11
199.5922918278538
 21
759.405936177615
 31
0.0
  0
ENDBLK
  5
47
330
45
100
AcDbEntity
  8
0
100
AcDbBlockEnd
  0
BLOCK
  5
4F
330
48
100
AcDbEntity
  8
0
100
AcDbBlockBegin
  2
R10A-13
 70
     0
 71
     0
 10
342.1146331018696
 20
244.3142307952435
 30
0.0
  3
R10A-13
  1

  0
INSERT
  5
49
330
48
100
AcDbEntity
  8
0
100
AcDbBlockReference
  2
61-1-16-170
 10
-5.21582803369785
 20
365.7100281160254
 30
0.0
  0
INSERT
  5
4A
330
48
100
AcDbEntity
  8
0
100
AcDbBlockReference
  2
32-1-16
 10
360.9019112083782
 20
547.3491420378471
 30
0.0
  0
INSERT
  5
4B
330
48
100
AcDbEntity
  8
0
100
AcDbBlockReference
  2
21-1C
 10
297.1146331018698
 20
244.3142307952435
 30
0.0
  0
INSERT
  5
4C
330
48
100
AcDbEntity
  8
0
100
AcDbBlockReference
  2
42-1
 10
158.8249840922849
 20
377.4184908818471
 30
0.0
  0
INSERT
  5
4D
330
48
100
AcDbEntity
  8
0
100
AcDbBlockReference
  2
37-1-13
 10
179.6189272117252
 20
381.1154610120146
 30
0.0
  0
INSERT
  5
4E
330
48
100
AcDbEntity
  8
0
100
AcDbBlockReference
  2
36-1A-13-M11
 10
198.5455070924335
 20
391.6963568046798
 30
0.0
  0
LINE
  5
127
330
48
100
AcDbEntity
  8
1
  6
PHANTOM
 62
     4
100
AcDbLine
 10
183.6146331018697
 20
289.3142307952436
 30
0.0
 11
194.6146331018697
 21
289.3142307952436
 31
0.0
  0
ENDBLK
  5
50
330
48
100
AcDbEntity
  8
0
100
AcDbBlockEnd
  0
BLOCK
  5
52
330
51
100
AcDbEntity
  8
0
100
AcDbBlockBegin
  2
A20-0-13
 70
     0
 71
     0
 10
319.1146331018697
 20
266.3142307952434
 30
0.0
  3
A20-0-13
  1

  0
LINE
  5
128
330
51
100
AcDbEntity
  8
1
  6
Continuous
 62
     7
100
AcDbLine
 10
617.7549551811782
 20
280.5642307952437
 30
0.0
 11
605.5670002380055
 21
280.5642307952437
 31
0.0
  0
LINE
  5
129
330
51
100
AcDbEntity
  8
1
  6
Continuous
 62
     7
100
AcDbLine
 10
572.641374310071
 20
312.8142307952437
 30
0.0
 11
566.2549551811782
 21
312.8142307952437
 31
0.0
  0
LINE
  5
12A
330
51
100
AcDbEntity
  8
1
  6
Continuous
 62
     7
100
AcDbLine
 10
625.9870059887471
 20
278.8142307952437
 30
0.0
 11
625.9870059887471
 21
279.8142307952437
 31
0.0
  0
LINE
  5
12B
330
51
100
AcDbEntity
  8
1
  6
Continuous
 62
     7
100
AcDbLine
 10
637.2549551811782
 20
278.8142307952437
 30
0.0
 11
624.2549551811782
 21
278.8142307952437
 31
0.0
  0
LINE
  5
12C
330
51
100
AcDbEntity
  8
1
  6
Continuous
 62
     7
100
AcDbLine
 10
624.2549551811782
 20
299.8142307952438
 30
0.0
 11
637.2549551811782
 21
299.8142307952438
 31
0.0
  0
LINE
  5
12D
330
51
100
AcDbEntity
  8
1
  6
Continuous
 62
     7
100
AcDbLine
 10
638.2549551811782
 20
298.8142307952438
 30
0.0
 11
637.2549551811782
 21
299.8142307952438
 31
0.0
  0
LINE
  5
12E
330
51
100
AcDbEntity
  8
1
  6
Continuous
 62
     7
100
AcDbLine
 10
625.9870059887471
 20
298.8142307952438
 30
0.0
 11
625.9870059887471
 21
299.8142307952438
 31
0.0
  0
LINE
  5
12F
330
51
100
AcDbEntity
  8
1
  6
Continuous
 62
     7
100
AcDbLine
 10
637.2549551811782
 20
299.8142307952438
 30
0.0
 11
637.2549551811782
 21
298.8142307952438
 31
0.0
  0
LINE
  5
130
330
51
100
AcDbEntity
  8
1
  6
Continuous
 62
     7
100
AcDbLine
 10
637.2549551811782
 20
279.8142307952437
 30
0.0
 11
637.2549551811782
 21
278.8142307952437
 31
0.0
  0
LINE
  5
131
330
51
100
AcDbEntity
  8
1
  6
Continuous
 62
     7
100
AcDbLine
 10
637.2549551811782
 20
278.8142307952437
 30
0.0
 11
638.2549551811782
 21
279.8142307952437
 31
0.0
  0
LINE
  5
132
330
51
100
AcDbEntity
  8
1
  6
Continuous
 62
     7
100
AcDbLine
 10
638.2549551811782
 20
298.8142307952438
 30
0.0
 11
638.2549551811782
 21
279.8142307952437
 31
0.0
  0
LINE
  5
133
330
51
100
AcDbEntity
  8
1
  6
Continuous
 62
     7
100
AcDbLine
 10
592.2549551811782
 20
311.0821799876749
 30
0.0
 11
592.2549551811782
 21
314.3142307952437
 31
0.0
  0
LINE
  5
134
330
51
100
AcDbEntity
  8
1
  6
Continuous
 62
     7
100
AcDbLine
 10
592.2549551811782
 20
312.8142307952437
 30
0.0
 11
585.8685360522853
 21
312.8142307952437
 31
0.0
  0
LINE
  5
135
330
51
100
AcDbEntity
  8
1
  6
Continuous
 62
     7
100
AcDbLine
 10
566.2549551811782
 20
314.3142307952437
 30
0.0
 11
566.2549551811782
 21
298.6416098483326
 31
0.0
  0
LINE
  5
136
330
51
100
AcDbEntity
  8
1
  6
Continuous
 62
     7
100
AcDbLine
 10
592.2549551811782
 20
311.0821799876749
 30
0.0
 11
592.2549551811782
 21
310.0642307952437
 31
0.0
  0
LINE
  5
137
330
51
100
AcDbEntity
  8
1
  6
Continuous
 62
     2
100
AcDbLine
 10
567.2549551811782
 20
312.8142307952437
 30
0.0
 11
567.2549551811782
 21
314.3142307952437
 31
0.0
  0
LINE
  5
138
330
51
100
AcDbEntity
  8
1
  6
Continuous
 62
     2
100
AcDbLine
 10
567.2549551811782
 20
312.8142307952437
 30
0.0
 11
566.2549551811782
 21
311.0821799876749
 31
0.0
  0
LINE
  5
139
330
51
100
AcDbEntity
  8
1
  6
Continuous
 62
     2
100
AcDbLine
 10
592.2549551811782
 20
311.0821799876749
 30
0.0
 11
591.2549551811782
 21
312.8142307952437
 31
0.0
  0
LINE
  5
13A
330
51
100
AcDbEntity
  8
1
  6
Continuous
 62
     7
100
AcDbLine
 10
621.7549551811782
 20
302.0642307952438
 30
0.0
 11
621.7549551811782
 21
311.8142307952437
 31
0.0
  0
LINE
  5
13B
330
51
100
AcDbEntity
  8
1
  6
Continuous
 62
     7
100
AcDbLine
 10
617.7549551811782
 20
298.0642307952438
 30
0.0
 11
604.2549551811782
 21
298.0642307952438
 31
0.0
  0
LINE
  5
13C
330
51
100
AcDbEntity
  8
1
  6
Continuous
 62
     2
100
AcDbLine
 10
625.9870059887471
 20
298.8142307952438
 30
0.0
 11
638.2549551811782
 21
298.8142307952438
 31
0.0
  0
LINE
  5
13D
330
51
100
AcDbEntity
  8
1
  6
Continuous
 62
     2
100
AcDbLine
 10
624.2549551811782
 20
299.8142307952438
 30
0.0
 11
625.9870059887471
 21
298.8142307952438
 31
0.0
  0
LINE
  5
13E
330
51
100
AcDbEntity
  8
1
  6
Continuous
 62
     7
100
AcDbLine
 10
624.2549551811782
 20
312.3142307952437
 30
0.0
 11
624.2549551811782
 21
299.8142307952438
 31
0.0
  0
LINE
  5
13F
330
51
100
AcDbEntity
  8
1
  6
Continuous
 62
     7
100
AcDbLine
 10
624.2549551811782
 20
312.3142307952437
 30
0.0
 11
622.2549551811782
 21
312.3142307952437
 31
0.0
  0
LINE
  5
140
330
51
100
AcDbEntity
  8
1
  6
Continuous
 62
     2
100
AcDbLine
 10
638.2549551811782
 20
279.8142307952437
 30
0.0
 11
625.9870059887471
 21
279.8142307952437
 31
0.0
  0
LINE
  5
141
330
51
100
AcDbEntity
  8
1
  6
Continuous
 62
     7
100
AcDbLine
 10
621.7549551811782
 20
266.8142307952438
 30
0.0
 11
621.7549551811782
 21
276.5642307952437
 31
0.0
  0
LINE
  5
142
330
51
100
AcDbEntity
  8
1
  6
Continuous
 62
     7
100
AcDbLine
 10
622.2549551811782
 20
266.3142307952438
 30
0.0
 11
624.2549551811782
 21
266.3142307952438
 31
0.0
  0
LINE
  5
143
330
51
100
AcDbEntity
  8
1
  6
Continuous
 62
     7
100
AcDbLine
 10
624.2549551811782
 20
278.8142307952437
 30
0.0
 11
624.2549551811782
 21
266.3142307952438
 31
0.0
  0
LINE
  5
144
330
51
100
AcDbEntity
  8
1
  6
Continuous
 62
     2
100
AcDbLine
 10
625.9870059887471
 20
279.8142307952437
 30
0.0
 11
624.2549551811782
 21
278.8142307952437
 31
0.0
  0
LINE
  5
145
330
51
100
AcDbEntity
  8
1
  6
Continuous
 62
     2
100
AcDbLine
 10
591.2549551811782
 20
314.3142307952437
 30
0.0
 11
591.2549551811782
 21
312.8142307952437
 31
0.0
  0
LINE
  5
146
330
51
100
AcDbEntity
  8
1
  6
Continuous
 62
     7
100
AcDbLine
 10
621.7549551811782
 20
302.0642307952438
 30
0.0
 11
621.7549551811782
 21
276.5642307952437
 31
0.0
  0
LINE
  5
147
330
51
100
AcDbEntity
  8
1
  6
Continuous
 62
     7
100
AcDbLine
 10
624.2549551811782
 20
299.8142307952438
 30
0.0
 11
624.2549551811782
 21
278.8142307952437
 31
0.0
  0
LINE
  5
148
330
51
100
AcDbEntity
  8
1
  6
Continuous
 62
     7
100
AcDbLine
 10
625.9870059887471
 20
279.8142307952437
 30
0.0
 11
625.9870059887471
 21
298.8142307952438
 31
0.0
  0
LINE
  5
149
330
51
100
AcDbEntity
  8
1
  6
Continuous
 62
     7
100
AcDbLine
 10
637.2549551811782
 20
298.8142307952438
 30
0.0
 11
637.2549551811782
 21
279.8142307952437
 31
0.0
  0
LINE
  5
14A
330
51
100
AcDbEntity
  8
1
  6
Continuous
 62
     2
100
AcDbLine
 10
146.6146331018701
 20
801.3879869851834
 30
0.0
 11
146.6146331018701
 21
813.6559361776145
 31
0.0
  0
LINE
  5
14B
330
51
100
AcDbEntity
  8
1
  6
Continuous
 62
     2
100
AcDbLine
 10
145.6146331018701
 20
799.6559361776145
 30
0.0
 11
146.6146331018701
 21
801.3879869851834
 31
0.0
  0
LINE
  5
14C
330
51
100
AcDbEntity
  8
1
  6
Continuous
 62
     7
100
AcDbLine
 10
133.1146331018701
 20
799.6559361776145
 30
0.0
 11
179.1146331018702
 21
799.6559361776145
 31
0.0
  0
LINE
  5
14D
330
51
100
AcDbEntity
  8
1
  6
Continuous
 62
     7
100
AcDbLine
 10
133.1146331018701
 20
799.6559361776145
 30
0.0
 11
133.1146331018701
 21
797.6559361776145
 31
0.0
  0
LINE
  5
14E
330
51
100
AcDbEntity
  8
1
  6
Continuous
 62
     7
100
AcDbLine
 10
178.6146331018702
 20
797.1559361776145
 30
0.0
 11
133.6146331018701
 21
797.1559361776145
 31
0.0
  0
LINE
  5
14F
330
51
100
AcDbEntity
  8
1
  6
Continuous
 62
     7
100
AcDbLine
 10
147.3646331018701
 20
773.5222421223417
 30
0.0
 11
147.3646331018701
 21
793.1559361776145
 31
0.0
  0
LINE
  5
150
330
51
100
AcDbEntity
  8
1
  6
Continuous
 62
     7
100
AcDbLine
 10
179.1146331018702
 20
797.6559361776145
 30
0.0
 11
179.1146331018702
 21
799.6559361776145
 31
0.0
  0
LINE
  5
151
330
51
100
AcDbEntity
  8
1
  6
Continuous
 62
     2
100
AcDbLine
 10
165.6146331018701
 20
801.3879869851834
 30
0.0
 11
166.6146331018701
 21
799.6559361776145
 31
0.0
  0
LINE
  5
152
330
51
100
AcDbEntity
  8
1
  6
Continuous
 62
     2
100
AcDbLine
 10
165.6146331018701
 20
813.6559361776145
 30
0.0
 11
165.6146331018701
 21
801.3879869851834
 31
0.0
  0
LINE
  5
153
330
51
100
AcDbEntity
  8
1
  6
Continuous
 62
     7
100
AcDbLine
 10
164.8646331018701
 20
779.2841189359077
 30
0.0
 11
164.8646331018701
 21
793.1559361776145
 31
0.0
  0
LINE
  5
154
330
51
100
AcDbEntity
  8
1
  6
Continuous
 62
     7
100
AcDbLine
 10
166.6146331018701
 20
812.6559361776145
 30
0.0
 11
166.6146331018701
 21
799.6559361776145
 31
0.0
  0
LINE
  5
155
330
51
100
AcDbEntity
  8
1
  6
Continuous
 62
     7
100
AcDbLine
 10
166.6146331018701
 20
812.6559361776145
 30
0.0
 11
165.6146331018701
 21
813.6559361776145
 31
0.0
  0
LINE
  5
156
330
51
100
AcDbEntity
  8
1
  6
Continuous
 62
     7
100
AcDbLine
 10
166.6146331018701
 20
801.3879869851834
 30
0.0
 11
145.6146331018701
 21
801.3879869851834
 31
0.0
  0
LINE
  5
157
330
51
100
AcDbEntity
  8
1
  6
Continuous
 62
     7
100
AcDbLine
 10
145.6146331018701
 20
812.6559361776145
 30
0.0
 11
166.6146331018701
 21
812.6559361776145
 31
0.0
  0
LINE
  5
158
330
51
100
AcDbEntity
  8
1
  6
Continuous
 62
     7
100
AcDbLine
 10
145.6146331018701
 20
799.6559361776145
 30
0.0
 11
145.6146331018701
 21
812.6559361776145
 31
0.0
  0
LINE
  5
159
330
51
100
AcDbEntity
  8
1
  6
Continuous
 62
     7
100
AcDbLine
 10
146.6146331018701
 20
813.6559361776145
 30
0.0
 11
145.6146331018701
 21
812.6559361776145
 31
0.0
  0
LINE
  5
15A
330
51
100
AcDbEntity
  8
1
  6
Continuous
 62
     7
100
AcDbLine
 10
146.6146331018701
 20
813.6559361776145
 30
0.0
 11
165.6146331018701
 21
813.6559361776145
 31
0.0
  0
LINE
  5
15B
330
51
100
AcDbEntity
  8
1
  6
Continuous
 62
     7
100
AcDbLine
 10
178.1146331018697
 20
766.655936177615
 30
0.0
 11
178.1146331018697
 21
767.1651859304378
 31
0.0
  0
LINE
  5
15C
330
51
100
AcDbEntity
  8
1
  6
Continuous
 62
     7
100
AcDbLine
 10
178.3825822943009
 20
766.655936177615
 30
0.0
 11
178.1146331018697
 21
766.655936177615
 31
0.0
  0
LINE
  5
15D
330
51
100
AcDbEntity
  8
1
  6
Continuous
 62
     7
100
AcDbLine
 10
180.1146331018697
 20
766.655936177615
 30
0.0
 11
178.3825822943009
 21
766.655936177615
 31
0.0
  0
LINE
  5
15E
330
51
100
AcDbEntity
  8
1
  6
Continuous
 62
     2
100
AcDbLine
 10
180.1146331018697
 20
765.655936177615
 30
0.0
 11
181.6146331018697
 21
765.655936177615
 31
0.0
  0
LINE
  5
15F
330
51
100
AcDbEntity
  8
1
  6
Continuous
 62
     2
100
AcDbLine
 10
180.1146331018697
 20
765.655936177615
 30
0.0
 11
178.3825822943009
 21
766.655936177615
 31
0.0
  0
LINE
  5
160
330
51
100
AcDbEntity
  8
1
  6
Continuous
 62
     7
100
AcDbLine
 10
180.1146331018697
 20
742.655936177615
 30
0.0
 11
180.1146331018697
 21
766.655936177615
 31
0.0
  0
LINE
  5
161
330
51
100
AcDbEntity
  8
1
  6
Continuous
 62
     2
100
AcDbLine
 10
178.3825822943009
 20
742.655936177615
 30
0.0
 11
180.1146331018697
 21
743.655936177615
 31
0.0
  0
LINE
  5
162
330
51
100
AcDbEntity
  8
1
  6
Continuous
 62
     2
100
AcDbLine
 10
180.1146331018697
 20
743.655936177615
 30
0.0
 11
181.6146331018697
 21
743.655936177615
 31
0.0
  0
LINE
  5
163
330
51
100
AcDbEntity
  8
1
  6
Continuous
 62
     7
100
AcDbLine
 10
180.1146331018697
 20
742.655936177615
 30
0.0
 11
181.6146331018697
 21
742.655936177615
 31
0.0
  0
LINE
  5
164
330
51
100
AcDbEntity
  8
1
  6
Continuous
 62
     7
100
AcDbLine
 10
178.3825822943009
 20
742.655936177615
 30
0.0
 11
180.1146331018697
 21
742.655936177615
 31
0.0
  0
LINE
  5
165
330
51
100
AcDbEntity
  8
1
  6
Continuous
 62
     7
100
AcDbLine
 10
178.1146331018697
 20
742.655936177615
 30
0.0
 11
178.3825822943009
 21
742.655936177615
 31
0.0
  0
LINE
  5
166
330
51
100
AcDbEntity
  8
1
  6
Continuous
 62
     7
100
AcDbLine
 10
178.1146331018697
 20
742.1466864247922
 30
0.0
 11
178.1146331018697
 21
742.655936177615
 31
0.0
  0
LINE
  5
167
330
51
100
AcDbEntity
  8
1
  6
Continuous
 62
     7
100
AcDbLine
 10
178.1146331018697
 20
766.655936177615
 30
0.0
 11
178.1146331018697
 21
742.655936177615
 31
0.0
  0
LINE
  5
168
330
51
100
AcDbEntity
  8
1
  6
Continuous
 62
     7
100
AcDbLine
 10
178.1146331018697
 20
767.1651859304378
 30
0.0
 11
176.0149141264864
 21
767.3142410057502
 31
0.0
  0
LINE
  5
169
330
51
100
AcDbEntity
  8
1
  6
Continuous
 62
     7
100
AcDbLine
 10
175.2836281935894
 20
741.9457187454217
 30
0.0
 11
178.1146331018697
 21
742.1466864247922
 31
0.0
  0
LINE
  5
16A
330
51
100
AcDbEntity
  8
1
  6
PHANTOM
 62
     4
100
AcDbLine
 10
136.4551458518835
 20
754.6559361776152
 30
0.0
 11
218.4837686423714
 21
754.6559361776152
 31
0.0
  0
LINE
  5
16B
330
51
100
AcDbEntity
  8
1
  6
Continuous
 62
     7
100
AcDbLine
 10
181.6146331018697
 20
766.655936177615
 30
0.0
 11
180.1146331018697
 21
766.655936177615
 31
0.0
  0
LINE
  5
16C
330
51
100
AcDbEntity
  8
1
  6
Continuous
 62
     7
100
AcDbLine
 10
164.1146331018697
 20
741.1528529266742
 30
0.0
 11
175.2836281935894
 21
741.9457187454217
 31
0.0
  0
LINE
  5
16D
330
51
100
AcDbEntity
  8
1
  6
Continuous
 62
     2
100
AcDbLine
 10
168.1146331018697
 20
312.8142307952435
 30
0.0
 11
168.1146331018697
 21
314.3142307952435
 31
0.0
  0
LINE
  5
16E
330
51
100
AcDbEntity
  8
1
  6
Continuous
 62
     2
100
AcDbLine
 10
169.1146331018697
 20
311.0821799876745
 30
0.0
 11
168.1146331018697
 21
312.8142307952435
 31
0.0
  0
LINE
  5
16F
330
51
100
AcDbEntity
  8
1
  6
Continuous
 62
     7
100
AcDbLine
 10
169.1146331018697
 20
311.0821799876745
 30
0.0
 11
169.1146331018697
 21
310.0642307952435
 31
0.0
  0
LINE
  5
170
330
51
100
AcDbEntity
  8
1
  6
Continuous
 62
     2
100
AcDbLine
 10
144.1146331018697
 20
312.8142307952435
 30
0.0
 11
143.1146331018697
 21
311.0821799876745
 31
0.0
  0
LINE
  5
171
330
51
100
AcDbEntity
  8
1
  6
Continuous
 62
     2
100
AcDbLine
 10
144.1146331018697
 20
312.8142307952435
 30
0.0
 11
144.1146331018697
 21
314.3142307952435
 31
0.0
  0
LINE
  5
172
330
51
100
AcDbEntity
  8
1
  6
Continuous
 62
     7
100
AcDbLine
 10
143.1146331018697
 20
311.0821799876745
 30
0.0
 11
143.1146331018697
 21
308.2878967562539
 31
0.0
  0
LINE
  5
173
330
51
100
AcDbEntity
  8
1
  6
Continuous
 62
     7
100
AcDbLine
 10
143.1146331018697
 20
311.0821799876745
 30
0.0
 11
143.1146331018697
 21
312.8142307952435
 31
0.0
  0
LINE
  5
174
330
51
100
AcDbEntity
  8
1
  6
Continuous
 62
     7
100
AcDbLine
 10
143.1146331018697
 20
312.8142307952435
 30
0.0
 11
143.1146331018697
 21
314.3142307952435
 31
0.0
  0
LINE
  5
175
330
51
100
AcDbEntity
  8
1
  6
Continuous
 62
     7
100
AcDbLine
 10
169.1146331018697
 20
312.8142307952435
 30
0.0
 11
169.1146331018697
 21
311.0821799876745
 31
0.0
  0
LINE
  5
176
330
51
100
AcDbEntity
  8
1
  6
Continuous
 62
     7
100
AcDbLine
 10
169.1146331018697
 20
312.8142307952435
 30
0.0
 11
143.1146331018697
 21
312.8142307952435
 31
0.0
  0
LINE
  5
177
330
51
100
AcDbEntity
  8
1
  6
Continuous
 62
     7
100
AcDbLine
 10
178.1146331018697
 20
301.8234805480664
 30
0.0
 11
175.2836281935894
 21
302.0244482274368
 31
0.0
  0
LINE
  5
178
330
51
100
AcDbEntity
  8
1
  6
Continuous
 62
     7
100
AcDbLine
 10
178.1146331018697
 20
301.3142307952435
 30
0.0
 11
178.1146331018697
 21
301.8234805480664
 31
0.0
  0
LINE
  5
179
330
51
100
AcDbEntity
  8
1
  6
Continuous
 62
     7
100
AcDbLine
 10
178.3825822943008
 20
301.3142307952435
 30
0.0
 11
178.1146331018697
 21
301.3142307952435
 31
0.0
  0
LINE
  5
17A
330
51
100
AcDbEntity
  8
1
  6
Continuous
 62
     7
100
AcDbLine
 10
180.1146331018697
 20
301.3142307952435
 30
0.0
 11
178.3825822943008
 21
301.3142307952435
 31
0.0
  0
LINE
  5
17B
330
51
100
AcDbEntity
  8
1
  6
Continuous
 62
     7
100
AcDbLine
 10
181.6146331018697
 20
301.3142307952435
 30
0.0
 11
180.1146331018697
 21
301.3142307952435
 31
0.0
  0
LINE
  5
17C
330
51
100
AcDbEntity
  8
1
  6
Continuous
 62
     2
100
AcDbLine
 10
180.1146331018697
 20
300.3142307952435
 30
0.0
 11
181.6146331018697
 21
300.3142307952435
 31
0.0
  0
LINE
  5
17D
330
51
100
AcDbEntity
  8
1
  6
Continuous
 62
     2
100
AcDbLine
 10
180.1146331018697
 20
300.3142307952435
 30
0.0
 11
178.3825822943008
 21
301.3142307952435
 31
0.0
  0
LINE
  5
17E
330
51
100
AcDbEntity
  8
1
  6
Continuous
 62
     7
100
AcDbLine
 10
180.1146331018697
 20
277.3142307952434
 30
0.0
 11
180.1146331018697
 21
301.3142307952435
 31
0.0
  0
LINE
  5
17F
330
51
100
AcDbEntity
  8
1
  6
Continuous
 62
     2
100
AcDbLine
 10
178.3825822943008
 20
277.3142307952434
 30
0.0
 11
180.1146331018697
 21
278.3142307952434
 31
0.0
  0
LINE
  5
180
330
51
100
AcDbEntity
  8
1
  6
Continuous
 62
     2
100
AcDbLine
 10
180.1146331018697
 20
278.3142307952434
 30
0.0
 11
181.6146331018697
 21
278.3142307952435
 31
0.0
  0
LINE
  5
181
330
51
100
AcDbEntity
  8
1
  6
Continuous
 62
     7
100
AcDbLine
 10
180.1146331018697
 20
277.3142307952434
 30
0.0
 11
181.6146331018697
 21
277.3142307952434
 31
0.0
  0
LINE
  5
182
330
51
100
AcDbEntity
  8
1
  6
Continuous
 62
     7
100
AcDbLine
 10
178.3825822943008
 20
277.3142307952434
 30
0.0
 11
180.1146331018697
 21
277.3142307952434
 31
0.0
  0
LINE
  5
183
330
51
100
AcDbEntity
  8
1
  6
Continuous
 62
     7
100
AcDbLine
 10
178.1146331018697
 20
277.3142307952434
 30
0.0
 11
178.3825822943008
 21
277.3142307952434
 31
0.0
  0
LINE
  5
184
330
51
100
AcDbEntity
  8
1
  6
Continuous
 62
     7
100
AcDbLine
 10
178.1146331018697
 20
276.8049810424205
 30
0.0
 11
178.1146331018697
 21
277.3142307952434
 31
0.0
  0
LINE
  5
185
330
51
100
AcDbEntity
  8
1
  6
Continuous
 62
     7
100
AcDbLine
 10
157.1146331018697
 20
275.3142307952434
 30
0.0
 11
175.2836281935894
 21
276.6040133630501
 31
0.0
  0
LINE
  5
186
330
51
100
AcDbEntity
  8
1
  6
Continuous
 62
     7
100
AcDbLine
 10
169.1146331018697
 20
310.0642307952435
 30
0.0
 11
169.1146331018697
 21
308.2878967562538
 31
0.0
  0
LINE
  5
187
330
51
100
AcDbEntity
  8
1
  6
Continuous
 62
     7
100
AcDbLine
 10
175.2836281935894
 20
276.6040133630501
 30
0.0
 11
178.1146331018697
 21
276.8049810424205
 31
0.0
  0
LINE
  5
188
330
51
100
AcDbEntity
  8
1
  6
Continuous
 62
     7
100
AcDbLine
 10
178.1146331018697
 20
301.3142307952435
 30
0.0
 11
178.1146331018697
 21
277.3142307952434
 31
0.0
  0
LINE
  5
189
330
51
100
AcDbEntity
  8
1
  6
Continuous
 62
     7
100
AcDbLine
 10
175.2836281935894
 20
302.0244482274368
 30
0.0
 11
174.6897736141778
 21
302.0666048398675
 31
0.0
  0
LINE
  5
18A
330
51
100
AcDbEntity
  8
1
  6
Continuous
 62
     7
100
AcDbLine
 10
143.1146331018697
 20
308.2878967562539
 30
0.0
 11
143.1146331018697
 21
289.3142307952435
 31
0.0
  0
LINE
  5
18B
330
51
100
AcDbEntity
  8
1
  6
Continuous
 62
     7
100
AcDbLine
 10
169.1146331018697
 20
308.2878967562538
 30
0.0
 11
169.1146331018697
 21
308.0515438049463
 31
0.0
  0
LINE
  5
18C
330
51
100
AcDbEntity
  8
1
  6
Continuous
 62
     7
100
AcDbLine
 10
169.805534309235
 20
302.8158466535237
 30
0.0
 11
158.0210610649474
 21
291.1943011886455
 31
0.0
  0
LINE
  5
18D
330
51
100
AcDbEntity
  8
1
  6
Continuous
 62
     7
100
AcDbLine
 10
169.1146331018697
 20
314.3142307952435
 30
0.0
 11
169.1146331018697
 21
312.8142307952435
 31
0.0
  0
ARC
  5
18E
330
51
100
AcDbEntity
  8
1
  6
Continuous
 62
     7
100
AcDbCircle
 10
579.2549551811782
 20
289.3142307952438
 30
0.0
 40
14.00000000000004
100
AcDbArc
 50
-97.13387664333094
 51
-82.87117407847889
  0
ARC
  5
18F
330
51
100
AcDbEntity
  8
1
  6
Continuous
 62
     7
100
AcDbCircle
 10
604.2549551811782
 20
310.0642307952437
 30
0.0
 40
12.0
100
AcDbArc
 50
180.0
 51
-90.0
  0
ARC
  5
190
330
51
100
AcDbEntity
  8
1
  6
Continuous
 62
     7
100
AcDbCircle
 10
536.2549551811782
 20
298.6416098483326
 30
0.0
 40
30.0
100
AcDbArc
 50
-8.83319836967786
 51
0.0
  0
ARC
  5
191
330
51
100
AcDbEntity
  8
1
  6
Continuous
 62
     7
100
AcDbCircle
 10
156.1146331018697
 20
289.3142307952435
 30
0.0
 40
23.0000000000001
100
AcDbArc
 50
124.4173887104414
 51
-33.5468150158143
  0
ARC
  5
192
330
51
100
AcDbEntity
  8
1
  6
Continuous
 62
     7
100
AcDbCircle
 10
157.1146331018697
 20
289.3142307952435
 30
0.0
 40
14.0
100
AcDbArc
 50
180.0
 51
-90.0
  0
ARC
  5
193
330
51
100
AcDbEntity
  8
1
  6
Continuous
 62
     7
100
AcDbCircle
 10
156.1146331018697
 20
289.3142307952435
 30
0.0
 40
23.00000000000009
100
AcDbArc
 50
33.54681501581418
 51
55.58261128955852
  0
ARC
  5
194
330
51
100
AcDbEntity
  8
1
  6
Continuous
 62
     7
100
AcDbCircle
 10
622.2549551811782
 20
311.8142307952437
 30
0.0
 40
0.5
100
AcDbArc
 50
90.0
 51
180.0
  0
ARC
  5
195
330
51
100
AcDbEntity
  8
1
  6
Continuous
 62
     7
100
AcDbCircle
 10
617.7549551811782
 20
302.0642307952438
 30
0.0
 40
4.0
100
AcDbArc
 50
-90.0
 51
0.0
  0
ARC
  5
196
330
51
100
AcDbEntity
  8
1
  6
Continuous
 62
     7
100
AcDbCircle
 10
622.2549551811782
 20
266.8142307952438
 30
0.0
 40
0.5
100
AcDbArc
 50
180.0
 51
-90.0
  0
ARC
  5
197
330
51
100
AcDbEntity
  8
1
  6
Continuous
 62
     7
100
AcDbCircle
 10
617.7549551811782
 20
276.5642307952437
 30
0.0
 40
4.0
100
AcDbArc
 50
0.0
 51
90.0
  0
ARC
  5
198
330
51
100
AcDbEntity
  8
1
  6
Continuous
 62
     7
100
AcDbCircle
 10
143.3646331018701
 20
793.1559361776145
 30
0.0
 40
4.0
100
AcDbArc
 50
0.0
 51
90.0
  0
ARC
  5
199
330
51
100
AcDbEntity
  8
1
  6
Continuous
 62
     7
100
AcDbCircle
 10
168.8646331018701
 20
793.1559361776145
 30
0.0
 40
4.0
100
AcDbArc
 50
90.0
 51
180.0
  0
ARC
  5
19A
330
51
100
AcDbEntity
  8
1
  6
Continuous
 62
     7
100
AcDbCircle
 10
178.6146331018702
 20
797.6559361776145
 30
0.0
 40
0.5
100
AcDbArc
 50
-90.0
 51
0.0
  0
ARC
  5
19B
330
51
100
AcDbEntity
  8
1
  6
Continuous
 62
     7
100
AcDbCircle
 10
133.6146331018701
 20
797.6559361776145
 30
0.0
 40
0.5
100
AcDbArc
 50
180.0
 51
-90.0
  0
ARC
  5
19C
330
51
100
AcDbEntity
  8
1
  6
Continuous
 62
     7
100
AcDbCircle
 10
117.3646331018701
 20
773.5222421223419
 30
0.0
 40
30.00000000000013
100
AcDbArc
 50
-15.10263691918622
 51
-0.00000000000043
  0
ARC
  5
19D
330
51
100
AcDbEntity
  8
1
  6
Continuous
 62
     7
100
AcDbCircle
 10
176.8646331018702
 20
779.2841189359077
 30
0.0
 40
12.00000000000009
100
AcDbArc
 50
180.0
 51
-94.06050734864745
  0
ARC
  5
19E
330
51
100
AcDbEntity
  8
1
  6
Continuous
 62
     7
100
AcDbCircle
 10
175.1146331018697
 20
308.0515438049463
 30
0.0
 40
6.0
100
AcDbArc
 50
180.0
 51
-94.06050734864759
  0
ENDBLK
  5
53
330
51
100
AcDbEntity
  8
0
100
AcDbBlockEnd
  0
BLOCK
  5
55
330
54
100
AcDbEntity
  8
0
100
AcDbBlockBegin
  2
_J__A4
 70
     0
 71
     0
 10
0.0
 20
0.0
 30
0.0
  3
_J__A4
  1

  0
POINT
  5
19F
330
54
100
AcDbEntity
  8
1
 62
     4
100
AcDbPoint
 10
93.75
 20
17.0
 30
0.0
  0
POINT
  5
1A0
330
54
100
AcDbEntity
  8
1
 62
     4
100
AcDbPoint
 10
85.25
 20
17.0
 30
0.0
  0
POINT
  5
1A1
330
54
100
AcDbEntity
  8
1
 62
     4
100
AcDbPoint
 10
106.5
 20
19.00000000000001
 30
0.0
  0
POINT
  5
1A2
330
54
100
AcDbEntity
  8
1
 62
     4
100
AcDbPoint
 10
106.5
 20
12.5
 30
0.0
  0
POINT
  5
1A3
330
54
100
AcDbEntity
  8
1
 62
     4
100
AcDbPoint
 10
112.25
 20
12.5
 30
0.0
  0
POINT
  5
1A4
330
54
100
AcDbEntity
  8
1
 62
     4
100
AcDbPoint
 10
100.75
 20
12.5
 30
0.0
  0
POINT
  5
1A5
330
54
100
AcDbEntity
  8
1
 62
     4
100
AcDbPoint
 10
123.5
 20
19.00000000000001
 30
0.0
  0
POINT
  5
1A6
330
54
100
AcDbEntity
  8
1
 62
     4
100
AcDbPoint
 10
123.5
 20
12.5
 30
0.0
  0
POINT
  5
1A7
330
54
100
AcDbEntity
  8
1
 62
     4
100
AcDbPoint
 10
129.25
 20
12.5
 30
0.0
  0
POINT
  5
1A8
330
54
100
AcDbEntity
  8
1
 62
     4
100
AcDbPoint
 10
117.75
 20
12.5
 30
0.0
  0
POINT
  5
1A9
330
54
100
AcDbEntity
  8
1
 62
     4
100
AcDbPoint
 10
140.5
 20
19.00000000000001
 30
0.0
  0
POINT
  5
1AA
330
54
100
AcDbEntity
  8
1
 62
     4
100
AcDbPoint
 10
140.5
 20
12.5
 30
0.0
  0
POINT
  5
1AB
330
54
100
AcDbEntity
  8
1
 62
     4
100
AcDbPoint
 10
146.25
 20
12.5
 30
0.0
  0
POINT
  5
1AC
330
54
100
AcDbEntity
  8
1
 62
     4
100
AcDbPoint
 10
134.75
 20
12.5
 30
0.0
  0
POINT
  5
1AD
330
54
100
AcDbEntity
  8
1
 62
     4
100
AcDbPoint
 10
151.75
 20
12.5
 30
0.0
  0
POINT
  5
1AE
330
54
100
AcDbEntity
  8
1
 62
     4
100
AcDbPoint
 10
163.25
 20
12.5
 30
0.0
  0
POINT
  5
1AF
330
54
100
AcDbEntity
  8
1
 62
     4
100
AcDbPoint
 10
157.5
 20
12.5
 30
0.0
  0
POINT
  5
1B0
330
54
100
AcDbEntity
  8
1
 62
     4
100
AcDbPoint
 10
57.0
 20
14.25
 30
0.0
  0
POINT
  5
1B1
330
54
100
AcDbEntity
  8
1
 62
     4
100
AcDbPoint
 10
57.0
 20
22.75000000000001
 30
0.0
  0
POINT
  5
1B2
330
54
100
AcDbEntity
  8
1
 62
     4
100
AcDbPoint
 10
47.5
 20
282.0000000000003
 30
0.0
  0
POINT
  5
1B3
330
54
100
AcDbEntity
  8
1
 62
     4
100
AcDbPoint
 10
157.5
 20
19.00000000000001
 30
0.0
  0
POINT
  5
1B4
330
54
100
AcDbEntity
  8
1
 62
     4
100
AcDbPoint
 10
57.0
 20
16.25
 30
0.0
  0
POINT
  5
1B5
330
54
100
AcDbEntity
  8
1
 62
     4
100
AcDbPoint
 10
57.0
 20
24.75000000000001
 30
0.0
  0
POINT
  5
1B6
330
54
100
AcDbEntity
  8
1
 62
     4
100
AcDbPoint
 10
57.0
 20
20.75000000000001
 30
0.0
  0
POINT
  5
1B7
330
54
100
AcDbEntity
  8
1
 62
     4
100
AcDbPoint
 10
57.0
 20
12.25
 30
0.0
  0
POINT
  5
1B8
330
54
100
AcDbEntity
  8
1
 62
     4
100
AcDbPoint
 10
34.0
 20
34.00000000000001
 30
0.0
  0
LINE
  5
1B9
330
54
100
AcDbEntity
  8
1
  6
Continuous
 62
     7
100
AcDbLine
 10
105.0
 20
10.0
 30
0.0
 11
200.0
 21
10.0
 31
0.0
  0
LINE
  5
1BA
330
54
100
AcDbEntity
  8
1
  6
Continuous
 62
     2
100
AcDbLine
 10
105.0
 20
10.0
 30
0.0
 11
105.0
 21
5.0
 31
0.0
  0
LINE
  5
1BB
330
54
100
AcDbEntity
  8
1
  6
Continuous
 62
     7
100
AcDbLine
 10
200.0
 20
148.5
 30
0.0
 11
200.0
 21
287.0000000000003
 31
0.0
  0
LINE
  5
1BC
330
54
100
AcDbEntity
  8
1
  6
Continuous
 62
     2
100
AcDbLine
 10
200.0
 20
148.5
 30
0.0
 11
205.0
 21
148.5
 31
0.0
  0
LINE
  5
1BD
330
54
100
AcDbEntity
  8
1
  6
Continuous
 62
     7
100
AcDbLine
 10
25.0
 20
148.5
 30
0.0
 11
25.0
 21
287.0000000000003
 31
0.0
  0
LINE
  5
1BE
330
54
100
AcDbEntity
  8
1
  6
Continuous
 62
     2
100
AcDbLine
 10
25.0
 20
148.5
 30
0.0
 11
20.0
 21
148.5
 31
0.0
  0
LINE
  5
1BF
330
54
100
AcDbEntity
  8
1
  6
Continuous
 62
     7
100
AcDbLine
 10
105.0
 20
287.0000000000003
 30
0.0
 11
25.0
 21
287.0000000000003
 31
0.0
  0
LINE
  5
1C0
330
54
100
AcDbEntity
  8
1
  6
Continuous
 62
     2
100
AcDbLine
 10
105.0
 20
287.0000000000003
 30
0.0
 11
105.0
 21
292.0000000000003
 31
0.0
  0
LINE
  5
1C1
330
54
100
AcDbEntity
  8
1
  6
Continuous
 62
     2
100
AcDbLine
 10
166.0
 20
20.00000000000001
 30
0.0
 11
200.0
 21
20.00000000000001
 31
0.0
  0
LINE
  5
1C2
330
54
100
AcDbEntity
  8
1
  6
Continuous
 62
     2
100
AcDbLine
 10
98.0
 20
27.00000000000001
 30
0.0
 11
98.0
 21
9.99999999999999
 31
0.0
  0
LINE
  5
1C3
330
54
100
AcDbEntity
  8
1
  6
Continuous
 62
     2
100
AcDbLine
 10
115.0
 20
27.00000000000001
 30
0.0
 11
115.0
 21
9.99999999999999
 31
0.0
  0
LINE
  5
1C4
330
54
100
AcDbEntity
  8
1
  6
Continuous
 62
     2
100
AcDbLine
 10
149.0
 20
27.00000000000001
 30
0.0
 11
149.0
 21
10.0
 31
0.0
  0
LINE
  5
1C5
330
54
100
AcDbEntity
  8
1
  6
Continuous
 62
     2
100
AcDbLine
 10
132.0
 20
27.00000000000001
 30
0.0
 11
132.0
 21
9.99999999999999
 31
0.0
  0
LINE
  5
1C6
330
54
100
AcDbEntity
  8
1
  6
Continuous
 62
     2
100
AcDbLine
 10
166.0
 20
27.00000000000001
 30
0.0
 11
166.0
 21
10.0
 31
0.0
  0
LINE
  5
1C7
330
54
100
AcDbEntity
  8
1
  6
Continuous
 62
     2
100
AcDbLine
 10
55.0
 20
277.0000000000003
 30
0.0
 11
25.0
 21
277.0000000000003
 31
0.0
  0
LINE
  5
1C8
330
54
100
AcDbEntity
  8
1
  6
Continuous
 62
     7
100
AcDbLine
 10
25.0
 20
10.0
 30
0.0
 11
25.0
 21
148.5
 31
0.0
  0
LINE
  5
1C9
330
54
100
AcDbEntity
  8
1
  6
Continuous
 62
     2
100
AcDbLine
 10
40.0
 20
287.0000000000003
 30
0.0
 11
40.0
 21
277.0000000000003
 31
0.0
  0
LINE
  5
1CA
330
54
100
AcDbEntity
  8
1
  6
Continuous
 62
     2
100
AcDbLine
 10
55.0
 20
287.0000000000003
 30
0.0
 11
55.0
 21
277.0000000000003
 31
0.0
  0
LINE
  5
1CB
330
54
100
AcDbEntity
  8
1
  6
Continuous
 62
     2
100
AcDbLine
 10
33.0
 20
41.00000000000001
 30
0.0
 11
33.0
 21
27.0
 31
0.0
  0
LINE
  5
1CC
330
54
100
AcDbEntity
  8
1
  6
Continuous
 62
     7
100
AcDbLine
 10
200.0
 20
27.00000000000001
 30
0.0
 11
25.0
 21
27.00000000000001
 31
0.0
  0
LINE
  5
1CD
330
54
100
AcDbEntity
  8
1
  6
Continuous
 62
     7
100
AcDbLine
 10
25.0
 20
41.0
 30
0.0
 11
200.0
 21
41.0
 31
0.0
  0
LINE
  5
1CE
330
54
100
AcDbEntity
  8
1
  6
PHANTOM
 62
     4
100
AcDbLine
 10
0.0
 20
0.0
 30
0.0
 11
210.0
 21
0.0
 31
0.0
  0
LINE
  5
1CF
330
54
100
AcDbEntity
  8
1
  6
PHANTOM
 62
     4
100
AcDbLine
 10
210.0
 20
0.0
 30
0.0
 11
210.0
 21
297.0
 31
0.0
  0
LINE
  5
1D0
330
54
100
AcDbEntity
  8
1
  6
PHANTOM
 62
     4
100
AcDbLine
 10
210.0
 20
297.0
 30
0.0
 11
0.0
 21
297.0
 31
0.0
  0
LINE
  5
1D1
330
54
100
AcDbEntity
  8
1
  6
PHANTOM
 62
     4
100
AcDbLine
 10
0.0
 20
297.0
 30
0.0
 11
0.0
 21
0.0
 31
0.0
  0
LINE
  5
1D2
330
54
100
AcDbEntity
  8
1
  6
Continuous
 62
     7
100
AcDbLine
 10
25.0
 20
10.0
 30
0.0
 11
105.0
 21
10.0
 31
0.0
  0
LINE
  5
1D3
330
54
100
AcDbEntity
  8
1
  6
Continuous
 62
     7
100
AcDbLine
 10
200.0
 20
10.0
 30
0.0
 11
200.0
 21
148.5
 31
0.0
  0
LINE
  5
1D4
330
54
100
AcDbEntity
  8
1
  6
Continuous
 62
     7
100
AcDbLine
 10
200.0
 20
287.0000000000003
 30
0.0
 11
105.0
 21
287.0000000000003
 31
0.0
  0
LINE
  5
1D5
330
54
100
AcDbEntity
  8
1
  6
Continuous
 62
     2
100
AcDbLine
 10
25.0
 20
18.50000000000001
 30
0.0
 11
81.0
 21
18.50000000000001
 31
0.0
  0
LINE
  5
1D6
330
54
100
AcDbEntity
  8
1
  6
Continuous
 62
     2
100
AcDbLine
 10
33.0
 20
27.0
 30
0.0
 11
33.0
 21
10.0
 31
0.0
  0
LINE
  5
1D7
330
54
100
AcDbEntity
  8
1
  6
Continuous
 62
     7
100
AcDbLine
 10
191.0
 20
24.70000000000001
 30
0.0
 11
191.0
 21
22.30000000000001
 31
0.0
  0
LINE
  5
1D8
330
54
100
AcDbEntity
  8
1
  6
Continuous
 62
     7
100
AcDbLine
 10
191.0
 20
24.70000000000001
 30
0.0
 11
196.0
 21
25.50000000000001
 31
0.0
  0
LINE
  5
1D9
330
54
100
AcDbEntity
  8
1
  6
Continuous
 62
     7
100
AcDbLine
 10
196.0
 20
25.50000000000001
 30
0.0
 11
196.0
 21
21.50000000000001
 31
0.0
  0
LINE
  5
1DA
330
54
100
AcDbEntity
  8
1
  6
Continuous
 62
     7
100
AcDbLine
 10
196.0
 20
21.50000000000001
 30
0.0
 11
191.0
 21
22.30000000000001
 31
0.0
  0
LINE
  5
1DB
330
54
100
AcDbEntity
  8
1
  6
DOT_CENTER
 62
     2
100
AcDbLine
 10
184.0
 20
23.50000000000001
 30
0.0
 11
197.0
 21
23.50000000000001
 31
0.0
  0
LINE
  5
1DC
330
54
100
AcDbEntity
  8
1
  6
DOT_CENTER
 62
     2
100
AcDbLine
 10
187.0
 20
26.50000000000001
 30
0.0
 11
187.0
 21
20.50000000000001
 31
0.0
  0
LINE
  5
1DD
330
54
100
AcDbEntity
  8
1
  6
Continuous
 62
     2
100
AcDbLine
 10
81.0
 20
27.00000000000001
 30
0.0
 11
81.0
 21
10.0
 31
0.0
  0
CIRCLE
  5
1DE
330
54
100
AcDbEntity
  8
1
  6
Continuous
 62
     7
100
AcDbCircle
 10
103.5
 20
12.5
 30
0.0
 40
0.2999999999999972
  0
CIRCLE
  5
1DF
330
54
100
AcDbEntity
  8
1
  6
Continuous
 62
     7
100
AcDbCircle
 10
109.5
 20
12.5
 30
0.0
 40
0.2999999999999972
  0
CIRCLE
  5
1E0
330
54
100
AcDbEntity
  8
1
  6
Continuous
 62
     7
100
AcDbCircle
 10
120.5
 20
12.5
 30
0.0
 40
0.2999999999999972
  0
CIRCLE
  5
1E1
330
54
100
AcDbEntity
  8
1
  6
Continuous
 62
     7
100
AcDbCircle
 10
126.5
 20
12.5
 30
0.0
 40
0.2999999999999972
  0
CIRCLE
  5
1E2
330
54
100
AcDbEntity
  8
1
  6
Continuous
 62
     7
100
AcDbCircle
 10
137.5
 20
12.5
 30
0.0
 40
0.3000000000000114
  0
CIRCLE
  5
1E3
330
54
100
AcDbEntity
  8
1
  6
Continuous
 62
     7
100
AcDbCircle
 10
143.5
 20
12.5
 30
0.0
 40
0.3000000000000114
  0
CIRCLE
  5
1E4
330
54
100
AcDbEntity
  8
1
  6
Continuous
 62
     7
100
AcDbCircle
 10
160.5
 20
12.5
 30
0.0
 40
0.3000000000000114
  0
CIRCLE
  5
1E5
330
54
100
AcDbEntity
  8
1
  6
Continuous
 62
     7
100
AcDbCircle
 10
154.5
 20
12.5
 30
0.0
 40
0.3000000000000114
  0
CIRCLE
  5
1E6
330
54
100
AcDbEntity
  8
1
  6
Continuous
 62
     7
100
AcDbCircle
 10
187.0
 20
23.50000000000001
 30
0.0
 40
1.200000000000102
  0
CIRCLE
  5
1E7
330
54
100
AcDbEntity
  8
1
  6
Continuous
 62
     7
100
AcDbCircle
 10
187.0
 20
23.50000000000001
 30
0.0
 40
2.0
  0
CIRCLE
  5
1E8
330
54
100
AcDbEntity
  8
1
  6
DOT_CENTER
 62
     7
100
AcDbCircle
 10
89.5
 20
16.0
 30
0.0
 40
0.1000000000000227
  0
CIRCLE
  5
1E9
330
54
100
AcDbEntity
  8
1
  6
DOT_CENTER
 62
     7
100
AcDbCircle
 10
89.5
 20
18.0
 30
0.0
 40
0.1000000000000227
  0
MTEXT
  5
1EB
330
54
100
AcDbEntity
  8
1
 62
     7
100
AcDbMText
 10
188.5
 20
15.0
 30
0.0
 40
3.0
 41
0.0
 71
     5
 72
     1
  1
三栄水栓製作所
  7
CONVERTER_1
 73
     1
 44
1.32052821128451
  0
MTEXT
  5
1EC
330
54
100
AcDbEntity
  8
1
 62
     7
100
AcDbMText
 10
171.5
 20
15.0
 30
0.0
 40
2.5
 41
0.0
 71
     5
 72
     1
  1
株式会社
  7
CONVERTER_1
 73
     1
 44
1.32052821128451
  0
MTEXT
  5
1ED
330
54
100
AcDbEntity
  8
1
 62
     2
100
AcDbMText
 10
32.5
 20
282.0000000000003
 30
0.0
 40
5.0
 41
0.0
 71
     5
 72
     1
  1
図番
  7
CONVERTER_1
 73
     1
 44
0.60024009603842
  0
MTEXT
  5
1EE
330
54
100
AcDbEntity
  8
1
 62
     2
100
AcDbMText
 10
29.0
 20
34.00000000000001
 30
0.0
 40
3.5
 41
0.0
 71
     5
 72
     1
  1
備考
  7
CONVERTER_1
 73
     1
 44
0.60024009603842
  0
MTEXT
  5
1EF
330
54
100
AcDbEntity
  8
1
 62
     2
100
AcDbMText
 10
29.0
 20
22.75
 30
0.0
 40
3.5
 41
0.0
 71
     5
 72
     1
  1
品名
  7
CONVERTER_1
 73
     1
 44
0.96038415366146
  0
MTEXT
  5
1F0
330
54
100
AcDbEntity
  8
1
 62
     2
100
AcDbMText
 10
29.0
 20
14.25
 30
0.0
 40
3.5
 41
0.0
 71
     5
 72
     1
  1
品番
  7
CONVERTER_1
 73
     1
 44
0.96038415366146
  0
MTEXT
  5
1F1
330
54
100
AcDbEntity
  8
1
 62
     2
100
AcDbMText
 10
101.5
 20
25.00000000000001
 30
0.0
 40
3.0
 41
0.0
 71
     5
 72
     1
  1
承認
  7
CONVERTER_1
 73
     1
 44
0.78031212484994
  0
MTEXT
  5
1F2
330
54
100
AcDbEntity
  8
1
 62
     2
100
AcDbMText
 10
175.0
 20
23.50000000000001
 30
0.0
 40
3.5
 41
0.0
 71
     5
 72
     1
  1
第三角法
  7
CONVERTER_1
 73
     1
 44
0.7202881152461
  0
MTEXT
  5
1F3
330
54
100
AcDbEntity
  8
1
 62
     2
100
AcDbMText
 10
118.5
 20
25.00000000000001
 30
0.0
 40
3.0
 41
0.0
 71
     5
 72
     1
  1
検図
  7
CONVERTER_1
 73
     1
 44
0.78031212484994
  0
MTEXT
  5
1F4
330
54
100
AcDbEntity
  8
1
 62
     2
100
AcDbMText
 10
152.5
 20
25.00000000000001
 30
0.0
 40
3.0
 41
0.0
 71
     5
 72
     1
  1
設計
  7
CONVERTER_1
 73
     1
 44
0.78031212484994
  0
MTEXT
  5
1F5
330
54
100
AcDbEntity
  8
1
 62
     2
100
AcDbMText
 10
135.5
 20
25.00000000000001
 30
0.0
 40
3.0
 41
0.0
 71
     5
 72
     1
  1
製図
  7
CONVERTER_1
 73
     1
 44
0.78031212484994
  0
MTEXT
  5
1F6
330
54
100
AcDbEntity
  8
1
 62
     2
100
AcDbMText
 10
89.5
 20
24.00000000000001
 30
0.0
 40
3.5
 41
0.0
 71
     5
 72
     1
  1
尺度
  7
CONVERTER_1
 73
     1
 44
0.7202881152461
  0
MTEXT
  5
1F7
330
54
100
AcDbEntity
  8
1
 62
   250
100
AcDbMText
 10
25.0
 20
5.0
 30
0.0
 40
3.5
 41
0.0
 71
     4
 72
     1
  1
備考欄の文字列 原点位置=4
  7
CONVERTER_1
 73
     1
 44
0.7202881152461
  0
ENDBLK
  5
56
330
54
100
AcDbEntity
  8
0
100
AcDbBlockEnd
  0
BLOCK
  5
218
330
211
100
AcDbEntity
  8
0
100
AcDbBlockBegin
  2
*D010
 70
     1
 71
     0
 10
0.0
 20
0.0
 30
0.0
  3
*D010
  1

  0
LINE
  5
212
330
211
100
AcDbEntity
  8
1
  6
Continuous
 62
     2
100
AcDbLine
 10
668.2549551811781
 20
312.3142307952437
 30
0.0
 11
668.2549551811781
 21
266.3142307952438
 31
0.0
  0
LINE
  5
213
330
211
100
AcDbEntity
  8
1
  6
Continuous
 62
     2
100
AcDbLine
 10
624.2549551811783
 20
266.3142307952438
 30
0.0
 11
671.7549551811781
 21
266.3142307952438
 31
0.0
  0
LINE
  5
214
330
211
100
AcDbEntity
  8
1
  6
Continuous
 62
     2
100
AcDbLine
 10
624.2549551811783
 20
312.3142307952437
 30
0.0
 11
671.7549551811781
 21
312.3142307952437
 31
0.0
  0
SOLID
  5
215
330
211
100
AcDbEntity
  8
1
 62
     2
100
AcDbTrace
 10
669.8676982766236
 20
300.0642307952437
 30
0.0
 11
666.6422120857325
 21
300.0642307952437
 31
0.0
 12
668.2549551811781
 22
312.3142307952437
 32
0.0
 13
668.2549551811781
 23
312.3142307952437
 33
0.0
  0
SOLID
  5
216
330
211
100
AcDbEntity
  8
1
 62
     2
100
AcDbTrace
 10
666.6422120857325
 20
278.5642307952438
 30
0.0
 11
669.8676982766236
 21
278.5642307952438
 31
0.0
 12
668.2549551811781
 22
266.3142307952438
 32
0.0
 13
668.2549551811781
 23
266.3142307952438
 33
0.0
  0
MTEXT
  5
217
330
211
100
AcDbEntity
  8
1
 62
     7
100
AcDbMText
 10
664.7549551811781
 20
267.3867307952439
 30
0.0
 40
12.25
 41
0.0
 71
     7
 72
     1
  1
\C7;{\Fgdt;n}\C7;46
  7
CONVERTER_2
 11
0.0
 21
1.0
 31
0.0
 73
     1
 44
0.60024009603842
  0
ENDBLK
  5
219
330
211
100
AcDbEntity
  8
0
100
AcDbBlockEnd
  0
BLOCK
  5
223
330
21C
100
AcDbEntity
  8
0
100
AcDbBlockBegin
  2
*D111
 70
     1
 71
     0
 10
0.0
 20
0.0
 30
0.0
  3
*D111
  1

  0
LINE
  5
21D
330
21C
100
AcDbEntity
  8
1
  6
Continuous
 62
     2
100
AcDbLine
 10
579.2549551811782
 20
241.0186758375094
 30
0.0
 11
624.2549551811782
 21
241.0186758375094
 31
0.0
  0
LINE
  5
21E
330
21C
100
AcDbEntity
  8
1
  6
Continuous
 62
     2
100
AcDbLine
 10
624.2549551811782
 20
266.3142307952438
 30
0.0
 11
624.2549551811782
 21
237.5186758375094
 31
0.0
  0
LINE
  5
21F
330
21C
100
AcDbEntity
  8
1
  6
Continuous
 62
     2
100
AcDbLine
 10
579.2549551811782
 20
272.3142307952438
 30
0.0
 11
579.2549551811782
 21
237.5186758375094
 31
0.0
  0
SOLID
  5
220
330
21C
100
AcDbEntity
  8
1
 62
     2
100
AcDbTrace
 10
591.5049551811782
 20
242.631418932955
 30
0.0
 11
591.5049551811782
 21
239.4059327420638
 31
0.0
 12
579.2549551811782
 22
241.0186758375094
 32
0.0
 13
579.2549551811782
 23
241.0186758375094
 33
0.0
  0
SOLID
  5
221
330
21C
100
AcDbEntity
  8
1
 62
     2
100
AcDbTrace
 10
612.0049551811782
 20
239.4059327420638
 30
0.0
 11
612.0049551811782
 21
242.631418932955
 31
0.0
 12
624.2549551811782
 22
241.0186758375094
 32
0.0
 13
624.2549551811782
 23
241.0186758375094
 33
0.0
  0
MTEXT
  5
222
330
21C
100
AcDbEntity
  8
1
 62
     7
100
AcDbMText
 10
592.5674551811781
 20
244.5186758375094
 30
0.0
 40
12.25
 41
0.0
 71
     7
 72
     1
  1
45
  7
CONVERTER_2
 11
0.9999999999970621
 21
2.424068405545307E-6
 31
0.0
 73
     1
 44
0.60024009603842
  0
ENDBLK
  5
224
330
21C
100
AcDbEntity
  8
0
100
AcDbBlockEnd
  0
BLOCK
  5
22E
330
227
100
AcDbEntity
  8
0
100
AcDbBlockBegin
  2
*D212
 70
     1
 71
     0
 10
0.0
 20
0.0
 30
0.0
  3
*D212
  1

  0
LINE
  5
228
330
227
100
AcDbEntity
  8
0
  6
Continuous
 62
     2
100
AcDbLine
 10
322.9049551811781
 20
289.3142307952433
 30
0.0
 11
322.9049551811781
 21
323.8142307952437
 31
0.0
  0
LINE
  5
229
330
227
100
AcDbEntity
  8
0
  6
Continuous
 62
     2
100
AcDbLine
 10
286.6413621871643
 20
323.8142307952437
 30
0.0
 11
326.4049551811781
 21
323.8142307952437
 31
0.0
  0
LINE
  5
22A
330
227
100
AcDbEntity
  8
0
  6
Continuous
 62
     2
100
AcDbLine
 10
552.3144836829433
 20
289.3142307952433
 30
0.0
 11
319.4049551811781
 21
289.3142307952433
 31
0.0
  0
SOLID
  5
22B
330
227
100
AcDbEntity
  8
0
 62
     2
100
AcDbTrace
 10
321.2922120857325
 20
301.5642307952433
 30
0.0
 11
324.5176982766237
 21
301.5642307952433
 31
0.0
 12
322.9049551811781
 22
289.3142307952433
 32
0.0
 13
322.9049551811781
 23
289.3142307952433
 33
0.0
  0
SOLID
  5
22C
330
227
100
AcDbEntity
  8
0
 62
     2
100
AcDbTrace
 10
324.5176982766237
 20
311.5642307952437
 30
0.0
 11
321.2922120857325
 21
311.5642307952437
 31
0.0
 12
322.9049551811781
 22
323.8142307952437
 32
0.0
 13
322.9049551811781
 23
323.8142307952437
 33
0.0
  0
MTEXT
  5
22D
330
227
100
AcDbEntity
  8
0
 62
     7
100
AcDbMText
 10
319.4049551811781
 20
297.3767307952434
 30
0.0
 40
12.25
 41
0.0
 71
     7
 72
     1
  1
35
  7
CONVERTER_2
 11
0.0
 21
1.0
 31
0.0
 73
     1
 44
0.60024009603842
  0
ENDBLK
  5
22F
330
227
100
AcDbEntity
  8
0
100
AcDbBlockEnd
  0
BLOCK
  5
23A
330
232
100
AcDbEntity
  8
0
100
AcDbBlockBegin
  2
*D313
 70
     1
 71
     0
 10
0.0
 20
0.0
 30
0.0
  3
*D313
  1

  0
LINE
  5
233
330
232
100
AcDbEntity
  8
0
  6
Continuous
 62
     2
100
AcDbLine
 10
214.6109533036295
 20
203.3142307952434
 30
0.0
 11
286.66612033707
 21
203.3142307952434
 31
0.0
  0
LINE
  5
234
330
232
100
AcDbEntity
  8
0
  6
Continuous
 62
     2
100
AcDbLine
 10
156.1146331018697
 20
203.3142307952434
 30
0.0
 11
214.6109533036295
 21
203.3142307952434
 31
0.0
  0
LINE
  5
235
330
232
100
AcDbEntity
  8
0
  6
Continuous
 62
     2
100
AcDbLine
 10
156.1146331018697
 20
263.3142307952436
 30
0.0
 11
156.1146331018697
 21
199.8142307952434
 31
0.0
  0
LINE
  5
236
330
232
100
AcDbEntity
  8
0
  6
Continuous
 62
     2
100
AcDbLine
 10
214.6109533036295
 20
289.3142307952436
 30
0.0
 11
214.6109533036295
 21
199.8142307952434
 31
0.0
  0
SOLID
  5
237
330
232
100
AcDbEntity
  8
0
 62
     2
100
AcDbTrace
 10
168.3646331018697
 20
204.926973890689
 30
0.0
 11
168.3646331018697
 21
201.7014876997978
 31
0.0
 12
156.1146331018697
 22
203.3142307952434
 32
0.0
 13
156.1146331018697
 23
203.3142307952434
 33
0.0
  0
SOLID
  5
238
330
232
100
AcDbEntity
  8
0
 62
     2
100
AcDbTrace
 10
202.3609533036295
 20
201.7014876997978
 30
0.0
 11
202.3609533036295
 21
204.926973890689
 31
0.0
 12
214.6109533036295
 22
203.3142307952434
 32
0.0
 13
214.6109533036295
 23
203.3142307952434
 33
0.0
  0
MTEXT
  5
239
330
232
100
AcDbEntity
  8
0
 62
     7
100
AcDbMText
 10
220.51612033707
 20
206.8142307952434
 30
0.0
 40
12.25
 41
0.0
 71
     7
 72
     1
  1
59リフト5
  7
CONVERTER_1
 11
0.9999999999970621
 21
2.424068405545307E-6
 31
0.0
 73
     1
 44
0.60024009603842
  0
ENDBLK
  5
23B
330
232
100
AcDbEntity
  8
0
100
AcDbBlockEnd
  0
BLOCK
  5
245
330
23E
100
AcDbEntity
  8
0
100
AcDbBlockBegin
  2
*D414
 70
     1
 71
     0
 10
0.0
 20
0.0
 30
0.0
  3
*D414
  1

  0
LINE
  5
23F
330
23E
100
AcDbEntity
  8
1
  6
Continuous
 62
     2
100
AcDbLine
 10
279.2549551811782
 20
241.0186758375094
 30
0.0
 11
579.2549551811783
 21
241.0186758375094
 31
0.0
  0
LINE
  5
240
330
23E
100
AcDbEntity
  8
1
  6
Continuous
 62
     2
100
AcDbLine
 10
579.2549551811783
 20
272.3142307952438
 30
0.0
 11
579.2549551811783
 21
237.5186758375094
 31
0.0
  0
LINE
  5
241
330
23E
100
AcDbEntity
  8
1
  6
Continuous
 62
     2
100
AcDbLine
 10
279.2549551811782
 20
313.3142307952437
 30
0.0
 11
279.2549551811782
 21
237.5186758375094
 31
0.0
  0
SOLID
  5
242
330
23E
100
AcDbEntity
  8
1
 62
     2
100
AcDbTrace
 10
291.5049551811782
 20
242.631418932955
 30
0.0
 11
291.5049551811782
 21
239.4059327420638
 31
0.0
 12
279.2549551811782
 22
241.0186758375094
 32
0.0
 13
279.2549551811782
 23
241.0186758375094
 33
0.0
  0
SOLID
  5
243
330
23E
100
AcDbEntity
  8
1
 62
     2
100
AcDbTrace
 10
567.0049551811783
 20
239.4059327420638
 30
0.0
 11
567.0049551811783
 21
242.631418932955
 31
0.0
 12
579.2549551811783
 22
241.0186758375094
 32
0.0
 13
579.2549551811783
 23
241.0186758375094
 33
0.0
  0
MTEXT
  5
244
330
23E
100
AcDbEntity
  8
1
 62
     7
100
AcDbMText
 10
414.5549551811781
 20
244.5186758375094
 30
0.0
 40
12.25
 41
0.0
 71
     7
 72
     1
  1
300
  7
CONVERTER_2
 11
0.9999999999970621
 21
2.424068405545307E-6
 31
0.0
 73
     1
 44
0.60024009603842
  0
ENDBLK
  5
246
330
23E
100
AcDbEntity
  8
0
100
AcDbBlockEnd
  0
BLOCK
  5
250
330
249
100
AcDbEntity
  8
0
100
AcDbBlockBegin
  2
*D515
 70
     1
 71
     0
 10
0.0
 20
0.0
 30
0.0
  3
*D515
  1

  0
LINE
  5
24A
330
249
100
AcDbEntity
  8
0
  6
Continuous
 62
     2
100
AcDbLine
 10
240.6049551811781
 20
289.3142307952432
 30
0.0
 11
240.6049551811781
 21
356.8142307952438
 31
0.0
  0
LINE
  5
24B
330
249
100
AcDbEntity
  8
0
  6
Continuous
 62
     2
100
AcDbLine
 10
306.2549551811782
 20
356.8142307952438
 30
0.0
 11
237.1049551811781
 21
356.8142307952438
 31
0.0
  0
LINE
  5
24C
330
249
100
AcDbEntity
  8
0
  6
Continuous
 62
     2
100
AcDbLine
 10
552.3144836829436
 20
289.3142307952432
 30
0.0
 11
237.1049551811781
 21
289.3142307952432
 31
0.0
  0
SOLID
  5
24D
330
249
100
AcDbEntity
  8
0
 62
     2
100
AcDbTrace
 10
238.9922120857325
 20
301.5642307952432
 30
0.0
 11
242.2176982766237
 21
301.5642307952432
 31
0.0
 12
240.6049551811781
 22
289.3142307952432
 32
0.0
 13
240.6049551811781
 23
289.3142307952432
 33
0.0
  0
SOLID
  5
24E
330
249
100
AcDbEntity
  8
0
 62
     2
100
AcDbTrace
 10
242.2176982766237
 20
344.5642307952438
 30
0.0
 11
238.9922120857325
 21
344.5642307952438
 31
0.0
 12
240.6049551811781
 22
356.8142307952438
 32
0.0
 13
240.6049551811781
 23
356.8142307952438
 33
0.0
  0
MTEXT
  5
24F
330
249
100
AcDbEntity
  8
0
 62
     7
100
AcDbMText
 10
237.1049551811781
 20
313.8767307952434
 30
0.0
 40
12.25
 41
0.0
 71
     7
 72
     1
  1
68
  7
CONVERTER_2
 11
0.0
 21
1.0
 31
0.0
 73
     1
 44
0.60024009603842
  0
ENDBLK
  5
251
330
249
100
AcDbEntity
  8
0
100
AcDbBlockEnd
  0
BLOCK
  5
25B
330
254
100
AcDbEntity
  8
0
100
AcDbBlockBegin
  2
*D616
 70
     1
 71
     0
 10
0.0
 20
0.0
 30
0.0
  3
*D616
  1

  0
LINE
  5
255
330
254
100
AcDbEntity
  8
1
  6
Continuous
 62
     2
100
AcDbLine
 10
670.9349793858451
 20
241.0186758375094
 30
0.0
 11
638.2549551811782
 21
241.0186758375094
 31
0.0
  0
LINE
  5
256
330
254
100
AcDbEntity
  8
1
  6
Continuous
 62
     2
100
AcDbLine
 10
638.2549551811782
 20
241.0186758375094
 30
0.0
 11
624.2549551811782
 21
241.0186758375094
 31
0.0
  0
LINE
  5
257
330
254
100
AcDbEntity
  8
1
  6
Continuous
 62
     2
100
AcDbLine
 10
624.2549551811782
 20
266.3142307952438
 30
0.0
 11
624.2549551811782
 21
237.5186758375094
 31
0.0
  0
LINE
  5
258
330
254
100
AcDbEntity
  8
1
  6
Continuous
 62
     2
100
AcDbLine
 10
638.2549551811782
 20
279.8142307952437
 30
0.0
 11
638.2549551811782
 21
237.5186758375094
 31
0.0
  0
SOLID
  5
259
330
254
100
AcDbEntity
  8
1
 62
     2
100
AcDbTrace
 10
650.5049551811782
 20
242.631418932955
 30
0.0
 11
650.5049551811782
 21
239.4059327420638
 31
0.0
 12
638.2549551811782
 22
241.0186758375094
 32
0.0
 13
638.2549551811782
 23
241.0186758375094
 33
0.0
  0
MTEXT
  5
25A
330
254
100
AcDbEntity
  8
1
 62
     7
100
AcDbMText
 10
656.234979385845
 20
244.5186758375094
 30
0.0
 40
12.25
 41
0.0
 71
     7
 72
     1
  1
14
  7
CONVERTER_2
 11
0.9999999999970621
 21
2.424068405545307E-6
 31
0.0
 73
     1
 44
0.60024009603842
  0
ENDBLK
  5
25C
330
254
100
AcDbEntity
  8
0
100
AcDbBlockEnd
  0
BLOCK
  5
25E
330
25D
100
AcDbEntity
  8
0
100
AcDbBlockBegin
  2
_None
 70
     0
 71
     0
 10
0.0
 20
0.0
 30
0.0
  3
_None
  1

  0
ENDBLK
  5
25F
330
25D
100
AcDbEntity
  8
0
100
AcDbBlockEnd
  0
ENDSEC
  0
SECTION
  2
ENTITIES
  0
INSERT
  5
57
330
1F
100
AcDbEntity
  8
0
100
AcDbBlockReference
  2
R10A-13
 10
342.1146331018696
 20
244.3142307952435
 30
0.0
  0
INSERT
  5
58
330
1F
100
AcDbEntity
  8
1
100
AcDbBlockReference
  2
A20-0-13
 10
319.1146331018697
 20
266.3142307952434
 30
0.0
  0
INSERT
  5
59
330
1F
100
AcDbEntity
  8
1
100
AcDbBlockReference
  2
_J__A4
 10
0.0
 20
0.0
 30
0.0
 41
3.5
 42
3.5
 43
3.5
  0
LINE
  5
1F8
330
1F
100
AcDbEntity
  8
0
  6
DASH_CENTER
 62
     2
100
AcDbLine
 10
199.4919700455404
 20
289.3142307952435
 30
0.0
 11
130.1146331018697
 21
289.3142307952435
 31
0.0
  0
LINE
  5
1F9
330
1F
100
AcDbEntity
  8
1
  6
DASH_CENTER
 62
     2
100
AcDbLine
 10
156.1146331018697
 20
307.8142307952435
 30
0.0
 11
156.1146331018697
 21
263.3142307952436
 31
0.0
  0
LINE
  5
1FA
330
1F
100
AcDbEntity
  8
1
  6
DASH_CENTER
 62
     2
100
AcDbLine
 10
641.2549551811782
 20
289.3142307952438
 30
0.0
 11
552.3144836829433
 21
289.3142307952432
 31
0.0
  0
LINE
  5
1FB
330
1F
100
AcDbEntity
  8
1
  6
DASH_CENTER
 62
     2
100
AcDbLine
 10
579.2549551811782
 20
272.3142307952438
 30
0.0
 11
579.2549551811782
 21
329.8142307952437
 31
0.0
  0
LINE
  5
1FC
330
1F
100
AcDbEntity
  8
1
  6
DASH_CENTER
 62
     2
100
AcDbLine
 10
156.1146331018697
 20
819.3795537761695
 30
0.0
 11
156.1146331018697
 21
442.6797389120605
 31
0.0
  0
LINE
  5
1FD
330
1F
100
AcDbEntity
  8
1
  6
Continuous
 62
     2
100
AcDbLine
 10
136.4551458518835
 20
754.6559361776151
 30
0.0
 11
218.4837686423714
 21
754.6559361776151
 31
0.0
  0
LINE
  5
1FE
330
1F
100
AcDbEntity
  8
1
  6
DASH_CENTER
 62
     2
100
AcDbLine
 10
145.1366818896487
 20
454.6559361776149
 30
0.0
 11
167.4888552957316
 21
454.6559361776149
 31
0.0
  0
LINE
  5
1FF
330
1F
100
AcDbEntity
  8
1
  6
DASH_CENTER
 62
     2
100
AcDbLine
 10
145.6014126925107
 20
356.8142307952438
 30
0.0
 11
167.0073491102972
 21
356.8142307952438
 31
0.0
  0
LINE
  5
200
330
1F
100
AcDbEntity
  8
1
  6
DASH_CENTER
 62
     2
100
AcDbLine
 10
156.1146331018697
 20
368.965711787964
 30
0.0
 11
156.1146331018697
 21
307.8142307952435
 31
0.0
  0
LINE
  5
201
330
1F
100
AcDbEntity
  8
1
  6
Continuous
 62
     2
100
AcDbLine
 10
199.5922918278538
 20
289.3142307952435
 30
0.0
 11
215.5442568942255
 21
289.3142307952436
 31
0.0
  0
LINE
  5
202
330
1F
100
AcDbEntity
  8
1
  6
DASH_CENTER
 62
     2
100
AcDbLine
 10
552.2549551811782
 20
356.8142307952438
 30
0.0
 11
306.2549551811782
 21
356.8142307952438
 31
0.0
  0
LINE
  5
203
330
1F
100
AcDbEntity
  8
1
  6
DASH_CENTER
 62
     2
100
AcDbLine
 10
279.2549551811782
 20
329.8142307952437
 30
0.0
 11
279.2549551811782
 21
313.3142307952437
 31
0.0
  0
LINE
  5
204
330
1F
100
AcDbEntity
  8
1
  6
DASH_CENTER
 62
     2
100
AcDbLine
 10
597.7663117930979
 20
300.0017675182008
 30
0.0
 11
547.2131728880872
 21
270.8148991630123
 31
0.0
  0
LINE
  5
205
330
1F
100
AcDbEntity
  8
1
  6
DASH_CENTER
 62
     2
100
AcDbLine
 10
560.1089240517722
 20
300.3681970217193
 30
0.0
 11
611.2967374742691
 21
270.8148991630123
 31
0.0
  0
ARC
  5
206
330
1F
100
AcDbEntity
  8
1
  6
DASH_CENTER
 62
     2
100
AcDbCircle
 10
552.2549551811782
 20
329.8142307952438
 30
0.0
 40
27.0
100
AcDbArc
 50
-0.00000000000024
 51
90.0
  0
ARC
  5
207
330
1F
100
AcDbEntity
  8
1
  6
DASH_CENTER
 62
     2
100
AcDbCircle
 10
306.2549551811782
 20
329.8142307952437
 30
0.0
 40
27.00000000000011
100
AcDbArc
 50
90.0
 51
180.0
  0
SOLID
  5
208
330
1F
100
AcDbEntity
  8
1
 62
     2
100
AcDbTrace
 10
171.3429566114364
 20
817.5711189216966
 30
0.0
 11
174.136309592304
 21
815.958375826251
 31
0.0
 12
166.6146331018701
 22
806.1559361776144
 32
0.0
 13
166.6146331018701
 23
806.1559361776144
 33
0.0
  0
LEADER
  5
209
330
1F
100
AcDbEntity
  8
1
  6
Continuous
 62
     2
100
AcDbLeader
  3
Standard
 71
     0
 76
     3
 10
166.6146331018701
 20
806.1559361776144
 30
0.0
 10
188.7879955652511
 20
844.5613265388308
 30
0.0
 10
237.487070879498
 20
844.5613265388308
 30
0.0
  0
MTEXT
  5
20A
330
1F
100
AcDbEntity
  8
0
 62
     7
100
AcDbMText
 10
199.5000000000003
 20
79.62500000000006
 30
0.0
 40
12.25
 41
0.0
 71
     5
 72
     1
  1
横形自在水栓
  7
CONVERTER_1
 73
     1
 44
1.32052821128451
  0
MTEXT
  5
20C
330
1F
100
AcDbEntity
  8
0
 62
     7
100
AcDbMText
 10
199.5000000000003
 20
49.87500000000001
 30
0.0
 40
12.25
 41
0.0
 71
     5
 72
     1
  1
A20J-L3-13
  7
CONVERTER_2
 73
     1
 44
0.7202881152461
  0
MTEXT
  5
20D
330
1F
100
AcDbEntity
  8
1
 62
     7
100
AcDbMText
 10
213.1375332223745
 20
855.0613265388307
 30
0.0
 40
12.25
 41
0.0
 71
     5
 72
     1
  1
PJ1/2
  7
CONVERTER_2
 73
     1
 44
1.32052821128451
  0
MTEXT
  5
20E
330
1F
100
AcDbEntity
  8
0
 62
     7
100
AcDbMText
 10
119.0000000000002
 20
119.0000000000001
 30
0.0
 40
12.25
 41
0.0
 71
     4
 72
     1
  1
JIS
  7
CONVERTER_2
 73
     1
 44
1.32052821128451
  0
MTEXT
  5
20F
330
1F
100
AcDbEntity
  8
1
 62
     7
100
AcDbMText
 10
298.3750000000003
 20
59.50000000000001
 30
0.0
 40
12.25
 41
0.0
 71
     5
 72
     1
  1
1
  7
CONVERTER_2
 73
     1
 44
0.7202881152461
  0
MTEXT
  5
210
330
1F
100
AcDbEntity
  8
1
 62
     7
100
AcDbMText
 10
328.1250000000003
 20
59.50000000000001
 30
0.0
 40
12.25
 41
0.0
 71
     5
 72
     1
  1
3,5
  7
CONVERTER_2
 73
     1
 44
0.7202881152461
  0
DIMENSION
  5
21B
330
1F
100
AcDbEntity
  8
1
100
AcDbDimension
  2
*D010
 10
668.2549551811781
 20
312.3142307952437
 30
0.0
 11
658.6299551811781
 21
289.3142307952438
 31
0.0
  1
<>
 71
     5
 42
0.0
 53
90.0
  3
ME10_DIM_0
100
AcDbAlignedDimension
 13
624.2549551811782
 23
266.3142307952438
 33
0.0
 14
624.2549551811782
 24
312.3142307952437
 34
0.0
 50
90.0
100
AcDbRotatedDimension
  0
DIMENSION
  5
226
330
1F
100
AcDbEntity
  8
1
100
AcDbDimension
  2
*D111
 10
579.2549551811782
 20
241.0186758375094
 30
0.0
 11
601.7549551811781
 21
250.6436758375094
 31
0.0
  1
<>
 71
     5
 42
0.0
 53
0.00013888888889
  3
ME10_DIM_1
100
AcDbAlignedDimension
 13
624.2549551811782
 23
266.3142307952438
 33
0.0
 14
579.2549551811782
 24
272.3142307952438
 34
0.0
100
AcDbRotatedDimension
  0
DIMENSION
  5
231
330
1F
100
AcDbEntity
  8
0
100
AcDbDimension
  2
*D212
 10
322.9049551811781
 20
289.3142307952433
 30
0.0
 11
313.2799551811781
 21
306.5642307952434
 31
0.0
  1
35
 71
     5
 42
0.0
 53
90.0
  3
ME10_DIM_2
100
AcDbAlignedDimension
 13
286.6413621871644
 23
323.8142307952437
 33
0.0
 14
552.3144836829433
 24
289.3142307952432
 34
0.0
 50
90.0
100
AcDbRotatedDimension
  0
DIMENSION
  5
23D
330
1F
100
AcDbEntity
  8
0
100
AcDbDimension
  2
*D313
 10
156.1146331018697
 20
203.3142307952434
 30
0.0
 11
253.59112033707
 21
212.9392307952434
 31
0.0
  1
59リフト5
 71
     5
 42
0.0
 53
0.00013888888889
  3
ME10_DIM_3
100
AcDbAlignedDimension
 13
214.6109533036295
 23
289.3142307952437
 33
0.0
 14
156.1146331018697
 24
263.3142307952436
 34
0.0
100
AcDbRotatedDimension
  0
DIMENSION
  5
248
330
1F
100
AcDbEntity
  8
1
100
AcDbDimension
  2
*D414
 10
279.2549551811782
 20
241.0186758375094
 30
0.0
 11
429.2549551811781
 21
250.6436758375094
 31
0.0
  1
<>
 71
     5
 42
0.0
 53
0.00013888888889
  3
ME10_DIM_4
100
AcDbAlignedDimension
 13
579.2549551811782
 23
272.3142307952438
 33
0.0
 14
279.2549551811782
 24
313.3142307952437
 34
0.0
100
AcDbRotatedDimension
  0
DIMENSION
  5
253
330
1F
100
AcDbEntity
  8
0
100
AcDbDimension
  2
*D515
 10
240.6049551811781
 20
289.3142307952432
 30
0.0
 11
230.9799551811781
 21
323.0642307952434
 31
0.0
  1
68
 71
     5
 42
0.0
 53
90.0
  3
ME10_DIM_5
100
AcDbAlignedDimension
 13
306.2549551811782
 23
356.8142307952438
 33
0.0
 14
552.3144836829433
 24
289.3142307952432
 34
0.0
 50
90.0
100
AcDbRotatedDimension
  0
DIMENSION
  5
261
330
1F
100
AcDbEntity
  8
1
100
AcDbDimension
  2
*D616
 10
638.2549551811782
 20
241.0186758375094
 30
0.0
 11
663.584979385845
 21
250.6436758375094
 31
0.0
  1
<>
 71
     5
 42
0.0
 53
0.00013888888889
  3
ME10_DIM_6
100
AcDbAlignedDimension
 13
624.2549551811782
 23
266.3142307952438
 33
0.0
 14
638.2549551811782
 24
279.8142307952437
 34
0.0
100
AcDbRotatedDimension
  0
ENDSEC
  0
SECTION
  2
OBJECTS
  0
DICTIONARY
  5
C
330
0
100
AcDbDictionary
281
     1
  3
ACAD_GROUP
350
D
  3
ACAD_LAYOUT
350
1A
  3
ACAD_MLINESTYLE
350
17
  3
ACAD_PLOTSETTINGS
350
19
  3
ACAD_PLOTSTYLENAME
350
E
  3
ACAD_TABLESTYLE
350
2A
  3
AcDbVariableDictionary
350
2C
  0
DICTIONARY
  5
D
102
{ACAD_REACTORS
330
C
102
}
330
C
100
AcDbDictionary
281
     1
  0
DICTIONARY
  5
1A
102
{ACAD_REACTORS
330
C
102
}
330
C
100
AcDbDictionary
281
     1
  3
Layout1
350
1E
  3
Layout2
350
26
  3
Model
350
22
  0
DICTIONARY
  5
17
102
{ACAD_REACTORS
330
C
102
}
330
C
100
AcDbDictionary
281
     1
  3
Standard
350
18
  0
DICTIONARY
  5
19
102
{ACAD_REACTORS
330
C
102
}
330
C
100
AcDbDictionary
281
     1
  0
ACDBDICTIONARYWDFLT
  5
E
102
{ACAD_REACTORS
330
C
102
}
330
C
100
AcDbDictionary
281
     1
  3
Normal
350
F
100
AcDbDictionaryWithDefault
340
F
  0
DICTIONARY
  5
2A
102
{ACAD_REACTORS
330
C
102
}
330
C
100
AcDbDictionary
281
     1
  3
Standard
350
2B
  0
DICTIONARY
  5
2C
102
{ACAD_REACTORS
330
C
102
}
330
C
100
AcDbDictionary
281
     1
  3
CTABLESTYLE
350
2D
  0
LAYOUT
  5
1E
102
{ACAD_REACTORS
330
1A
102
}
330
1A
100
AcDbPlotSettings
  1

  2

  4

  6

 40
0.0
 41
0.0
 42
0.0
 43
0.0
 44
0.0
 45
0.0
 46
0.0
 47
0.0
 48
0.0
 49
0.0
140
0.0
141
0.0
142
1.0
143
1.0
 70
   688
 72
     0
 73
     0
 74
     5
  7

 75
    16
147
1.0
148
0.0
149
0.0
100
AcDbLayout
  1
Layout1
 70
     1
 71
     1
 10
0.0
 20
0.0
 11
12.0
 21
9.0
 12
0.0
 22
0.0
 32
0.0
 14
1.00000000000000E+20
 24
1.00000000000000E+20
 34
1.00000000000000E+20
 15
-1.00000000000000E+20
 25
-1.00000000000000E+20
 35
-1.00000000000000E+20
146
0.0
 13
0.0
 23
0.0
 33
0.0
 16
1.0
 26
0.0
 36
0.0
 17
0.0
 27
1.0
 37
0.0
 76
     0
330
1B
  0
LAYOUT
  5
26
102
{ACAD_REACTORS
330
1A
102
}
330
1A
100
AcDbPlotSettings
  1

  2

  4

  6

 40
0.0
 41
0.0
 42
0.0
 43
0.0
 44
0.0
 45
0.0
 46
0.0
 47
0.0
 48
0.0
 49
0.0
140
0.0
141
0.0
142
1.0
143
1.0
 70
   688
 72
     0
 73
     0
 74
     5
  7

 75
    16
147
1.0
148
0.0
149
0.0
100
AcDbLayout
  1
Layout2
 70
     1
 71
     2
 10
0.0
 20
0.0
 11
0.0
 21
0.0
 12
0.0
 22
0.0
 32
0.0
 14
0.0
 24
0.0
 34
0.0
 15
0.0
 25
0.0
 35
0.0
146
0.0
 13
0.0
 23
0.0
 33
0.0
 16
1.0
 26
0.0
 36
0.0
 17
0.0
 27
1.0
 37
0.0
 76
     0
330
23
  0
LAYOUT
  5
22
102
{ACAD_REACTORS
330
1A
102
}
330
1A
100
AcDbPlotSettings
  1

  2

  4

  6

 40
0.0
 41
0.0
 42
0.0
 43
0.0
 44
0.0
 45
0.0
 46
0.0
 47
0.0
 48
0.0
 49
0.0
140
0.0
141
0.0
142
1.0
143
1.0
 70
  1712
 72
     0
 73
     0
 74
     0
  7

 75
     0
147
1.0
148
0.0
149
0.0
100
AcDbLayout
  1
Model
 70
     1
 71
     0
 10
0.0
 20
0.0
 11
0.0
 21
0.0
 12
0.0
 22
0.0
 32
0.0
 14
0.0
 24
0.0
 34
0.0
 15
735.0
 25
1039.5
 35
0.0
146
0.0
 13
0.0
 23
0.0
 33
0.0
 16
1.0
 26
0.0
 36
0.0
 17
0.0
 27
1.0
 37
0.0
 76
     0
330
1F
  0
MLINESTYLE
  5
18
102
{ACAD_REACTORS
330
17
102
}
330
17
100
AcDbMlineStyle
  2
Standard
 70
     0
  3

 62
   256
 51
90.0
 52
90.0
 71
     2
 49
0.5
 62
   256
  6
BYLAYER
 49
-0.5
 62
   256
  6
BYLAYER
  0
ACDBPLACEHOLDER
  5
F
102
{ACAD_REACTORS
330
E
102
}
330
E
  0
TABLESTYLE
  5
2B
102
{ACAD_REACTORS
330
2A
102
}
330
2A
100
AcDbTableStyle
  3
Standard
 70
     0
 71
     0
 40
0.06
 41
0.06
280
     0
281
     0
  7
Standard
140
0.18
170
     2
 62
     0
 63
     7
283
     0
274
    -2
284
     1
 64
     0
275
    -2
285
     1
 65
     0
276
    -2
286
     1
 66
     0
277
    -2
287
     1
 67
     0
278
    -2
288
     1
 68
     0
279
    -2
289
     1
 69
     0
  7
Standard
140
0.25
170
     5
 62
     0
 63
     7
283
     0
274
    -2
284
     1
 64
     0
275
    -2
285
     1
 65
     0
276
    -2
286
     1
 66
     0
277
    -2
287
     1
 67
     0
278
    -2
288
     1
 68
     0
279
    -2
289
     1
 69
     0
  7
Standard
140
0.18
170
     5
 62
     0
 63
     7
283
     0
274
    -2
284
     1
 64
     0
275
    -2
285
     1
 65
     0
276
    -2
286
     1
 66
     0
277
    -2
287
     1
 67
     0
278
    -2
288
     1
 68
     0
279
    -2
289
     1
 69
     0
  0
DICTIONARYVAR
  5
2D
102
{ACAD_REACTORS
330
2C
102
}
330
2C
100
DictionaryVariables
280
     0
  1
Standard
  0
ENDSEC
  0
EOF
