  0
SECTION
  2
HEADER
  9
$ACADVER
  1
AC1015
  9
$ACADMAINTVER
 70
     6
  9
$DWGCODEPAGE
  3
ANSI_932
  9
$INSBASE
 10
0.0
 20
0.0
 30
0.0
  9
$EXTMIN
 10
0.0
 20
0.0
 30
0.0
  9
$EXTMAX
 10
525.0
 20
742.5
 30
0.0
  9
$LIMMIN
 10
0.0
 20
0.0
  9
$LIMMAX
 10
12.0
 20
9.0
  9
$ORTHOMODE
 70
     0
  9
$REGENMODE
 70
     1
  9
$FILLMODE
 70
     1
  9
$QTEXTMODE
 70
     0
  9
$MIRRTEXT
 70
     1
  9
$LTSCALE
 40
1.0
  9
$ATTMODE
 70
     1
  9
$TEXTSIZE
 40
0.2
  9
$TRACEWID
 40
0.05
  9
$TEXTSTYLE
  7
Standard
  9
$CLAYER
  8
0
  9
$CELTYPE
  6
ByLayer
  9
$CECOLOR
 62
   256
  9
$CELTSCALE
 40
1.0
  9
$DISPSILH
 70
     0
  9
$DIMSCALE
 40
1.0
  9
$DIMASZ
 40
0.18
  9
$DIMEXO
 40
0.0625
  9
$DIMDLI
 40
0.38
  9
$DIMRND
 40
0.0
  9
$DIMDLE
 40
0.0
  9
$DIMEXE
 40
0.18
  9
$DIMTP
 40
0.0
  9
$DIMTM
 40
0.0
  9
$DIMTXT
 40
0.18
  9
$DIMCEN
 40
0.09
  9
$DIMTSZ
 40
0.0
  9
$DIMTOL
 70
     0
  9
$DIMLIM
 70
     0
  9
$DIMTIH
 70
     1
  9
$DIMTOH
 70
     1
  9
$DIMSE1
 70
     0
  9
$DIMSE2
 70
     0
  9
$DIMTAD
 70
     0
  9
$DIMZIN
 70
     0
  9
$DIMBLK
  1

  9
$DIMASO
 70
     1
  9
$DIMSHO
 70
     1
  9
$DIMPOST
  1

  9
$DIMAPOST
  1

  9
$DIMALT
 70
     0
  9
$DIMALTD
 70
     2
  9
$DIMALTF
 40
25.4
  9
$DIMLFAC
 40
1.0
  9
$DIMTOFL
 70
     0
  9
$DIMTVP
 40
0.0
  9
$DIMTIX
 70
     0
  9
$DIMSOXD
 70
     0
  9
$DIMSAH
 70
     0
  9
$DIMBLK1
  1

  9
$DIMBLK2
  1

  9
$DIMSTYLE
  2
Standard
  9
$DIMCLRD
 70
     0
  9
$DIMCLRE
 70
     0
  9
$DIMCLRT
 70
     0
  9
$DIMTFAC
 40
1.0
  9
$DIMGAP
 40
0.09
  9
$DIMJUST
 70
     0
  9
$DIMSD1
 70
     0
  9
$DIMSD2
 70
     0
  9
$DIMTOLJ
 70
     1
  9
$DIMTZIN
 70
     0
  9
$DIMALTZ
 70
     0
  9
$DIMALTTZ
 70
     0
  9
$DIMUPT
 70
     0
  9
$DIMDEC
 70
     4
  9
$DIMTDEC
 70
     4
  9
$DIMALTU
 70
     2
  9
$DIMALTTD
 70
     2
  9
$DIMTXSTY
  7
Standard
  9
$DIMAUNIT
 70
     0
  9
$DIMADEC
 70
     0
  9
$DIMALTRND
 40
0.0
  9
$DIMAZIN
 70
     0
  9
$DIMDSEP
 70
    46
  9
$DIMATFIT
 70
     3
  9
$DIMFRAC
 70
     0
  9
$DIMLDRBLK
  1

  9
$DIMLUNIT
 70
     2
  9
$DIMLWD
 70
    -2
  9
$DIMLWE
 70
    -2
  9
$DIMTMOVE
 70
     0
  9
$LUNITS
 70
     2
  9
$LUPREC
 70
     4
  9
$SKETCHINC
 40
0.1
  9
$FILLETRAD
 40
0.5
  9
$AUNITS
 70
     0
  9
$AUPREC
 70
     0
  9
$MENU
  1
.
  9
$ELEVATION
 40
0.0
  9
$PELEVATION
 40
0.0
  9
$THICKNESS
 40
0.0
  9
$LIMCHECK
 70
     0
  9
$CHAMFERA
 40
0.5
  9
$CHAMFERB
 40
0.5
  9
$CHAMFERC
 40
1.0
  9
$CHAMFERD
 40
0.0
  9
$SKPOLY
 70
     0
  9
$TDCREATE
 40
2457186.569222026
  9
$TDUCREATE
 40
2457186.194222026
  9
$TDUPDATE
 40
2457186.569223287
  9
$TDUUPDATE
 40
2457186.194223287
  9
$TDINDWG
 40
0.0000000116
  9
$TDUSRTIMER
 40
0.0000000116
  9
$USRTIMER
 70
     1
  9
$ANGBASE
 50
0.0
  9
$ANGDIR
 70
     0
  9
$PDMODE
 70
     0
  9
$PDSIZE
 40
0.0
  9
$PLINEWID
 40
0.0
  9
$SPLFRAME
 70
     0
  9
$SPLINETYPE
 70
     6
  9
$SPLINESEGS
 70
     8
  9
$HANDSEED
  5
281
  9
$SURFTAB1
 70
     6
  9
$SURFTAB2
 70
     6
  9
$SURFTYPE
 70
     6
  9
$SURFU
 70
     6
  9
$SURFV
 70
     6
  9
$UCSBASE
  2

  9
$UCSNAME
  2

  9
$UCSORG
 10
0.0
 20
0.0
 30
0.0
  9
$UCSXDIR
 10
1.0
 20
0.0
 30
0.0
  9
$UCSYDIR
 10
0.0
 20
1.0
 30
0.0
  9
$UCSORTHOREF
  2

  9
$UCSORTHOVIEW
 70
     0
  9
$UCSORGTOP
 10
0.0
 20
0.0
 30
0.0
  9
$UCSORGBOTTOM
 10
0.0
 20
0.0
 30
0.0
  9
$UCSORGLEFT
 10
0.0
 20
0.0
 30
0.0
  9
$UCSORGRIGHT
 10
0.0
 20
0.0
 30
0.0
  9
$UCSORGFRONT
 10
0.0
 20
0.0
 30
0.0
  9
$UCSORGBACK
 10
0.0
 20
0.0
 30
0.0
  9
$PUCSBASE
  2

  9
$PUCSNAME
  2

  9
$PUCSORG
 10
0.0
 20
0.0
 30
0.0
  9
$PUCSXDIR
 10
1.0
 20
0.0
 30
0.0
  9
$PUCSYDIR
 10
0.0
 20
1.0
 30
0.0
  9
$PUCSORTHOREF
  2

  9
$PUCSORTHOVIEW
 70
     0
  9
$PUCSORGTOP
 10
0.0
 20
0.0
 30
0.0
  9
$PUCSORGBOTTOM
 10
0.0
 20
0.0
 30
0.0
  9
$PUCSORGLEFT
 10
0.0
 20
0.0
 30
0.0
  9
$PUCSORGRIGHT
 10
0.0
 20
0.0
 30
0.0
  9
$PUCSORGFRONT
 10
0.0
 20
0.0
 30
0.0
  9
$PUCSORGBACK
 10
0.0
 20
0.0
 30
0.0
  9
$USERI1
 70
     0
  9
$USERI2
 70
     0
  9
$USERI3
 70
     0
  9
$USERI4
 70
     0
  9
$USERI5
 70
     0
  9
$USERR1
 40
18.1
  9
$USERR2
 40
0.0
  9
$USERR3
 40
0.0
  9
$USERR4
 40
0.0
  9
$USERR5
 40
0.0
  9
$WORLDVIEW
 70
     1
  9
$SHADEDGE
 70
     3
  9
$SHADEDIF
 70
    70
  9
$TILEMODE
 70
     1
  9
$MAXACTVP
 70
    64
  9
$PINSBASE
 10
0.0
 20
0.0
 30
0.0
  9
$PLIMCHECK
 70
     0
  9
$PEXTMIN
 10
1.00000000000000E+20
 20
1.00000000000000E+20
 30
1.00000000000000E+20
  9
$PEXTMAX
 10
-1.00000000000000E+20
 20
-1.00000000000000E+20
 30
-1.00000000000000E+20
  9
$PLIMMIN
 10
0.0
 20
0.0
  9
$PLIMMAX
 10
12.0
 20
9.0
  9
$UNITMODE
 70
     0
  9
$VISRETAIN
 70
     1
  9
$PLINEGEN
 70
     0
  9
$PSLTSCALE
 70
     1
  9
$TREEDEPTH
 70
  3020
  9
$CMLSTYLE
  2
Standard
  9
$CMLJUST
 70
     0
  9
$CMLSCALE
 40
1.0
  9
$PROXYGRAPHICS
 70
     1
  9
$MEASUREMENT
 70
     1
  9
$CELWEIGHT
370
    -1
  9
$ENDCAPS
280
     0
  9
$JOINSTYLE
280
     0
  9
$LWDISPLAY
290
     0
  9
$INSUNITS
 70
     4
  9
$HYPERLINKBASE
  1

  9
$STYLESHEET
  1

  9
$XEDIT
290
     1
  9
$CEPSNTYPE
380
     0
  9
$PSTYLEMODE
290
     1
  9
$FINGERPRINTGUID
  2
{98847193-146A-43C3-97B0-74B083534E12}
  9
$VERSIONGUID
  2
{FAEB1C32-E019-11D5-929B-00C0DF256EC4}
  9
$EXTNAMES
290
     1
  9
$PSVPSCALE
 40
0.0
  9
$OLESTARTUP
290
     0
  0
ENDSEC
  0
SECTION
  2
CLASSES
  0
CLASS
  1
ACDBDICTIONARYWDFLT
  2
AcDbDictionaryWithDefault
  3
ObjectDBX Classes
 90
        0
280
     0
281
     0
  0
CLASS
  1
VISUALSTYLE
  2
AcDbVisualStyle
  3
ObjectDBX Classes
 90
     4095
280
     0
281
     0
  0
CLASS
  1
MATERIAL
  2
AcDbMaterial
  3
ObjectDBX Classes
 90
     1153
280
     0
281
     0
  0
CLASS
  1
DICTIONARYVAR
  2
AcDbDictionaryVar
  3
ObjectDBX Classes
 90
        0
280
     0
281
     0
  0
CLASS
  1
ACDBPLACEHOLDER
  2
AcDbPlaceHolder
  3
ObjectDBX Classes
 90
        0
280
     0
281
     0
  0
CLASS
  1
LAYOUT
  2
AcDbLayout
  3
ObjectDBX Classes
 90
        0
280
     0
281
     0
  0
ENDSEC
  0
SECTION
  2
TABLES
  0
TABLE
  2
VPORT
  5
8
330
0
100
AcDbSymbolTable
 70
     1
  0
VPORT
  5
29
330
8
100
AcDbSymbolTableRecord
100
AcDbViewportTableRecord
  2
*Active
 70
     0
 10
0.0
 20
0.0
 11
1.0
 21
1.0
 12
262.5
 22
371.25
 13
0.0
 23
0.0
 14
0.5
 24
0.5
 15
0.5
 25
0.5
 16
0.0
 26
0.0
 36
1.0
 17
0.0
 27
0.0
 37
0.0
 40
816.7500000000001
 41
1.60267857142857
 42
50.0
 43
0.0
 44
0.0
 50
0.0
 51
0.0
 71
     0
 72
   100
 73
     1
 74
     3
 75
     0
 76
     0
 77
     0
 78
     0
281
     0
 65
     1
110
0.0
120
0.0
130
0.0
111
1.0
121
0.0
131
0.0
112
0.0
122
1.0
132
0.0
 79
     0
146
0.0
  0
ENDTAB
  0
TABLE
  2
LTYPE
  5
5
330
0
100
AcDbSymbolTable
 70
     8
  0
LTYPE
  5
14
330
5
100
AcDbSymbolTableRecord
100
AcDbLinetypeTableRecord
  2
ByBlock
 70
     0
  3

 72
    65
 73
     0
 40
0.0
  0
LTYPE
  5
15
330
5
100
AcDbSymbolTableRecord
100
AcDbLinetypeTableRecord
  2
ByLayer
 70
     0
  3

 72
    65
 73
     0
 40
0.0
  0
LTYPE
  5
16
330
5
100
AcDbSymbolTableRecord
100
AcDbLinetypeTableRecord
  2
Continuous
 70
     0
  3
Solid line
 72
    65
 73
     0
 40
0.0
  0
LTYPE
  5
3F
330
5
100
AcDbSymbolTableRecord
100
AcDbLinetypeTableRecord
  2
DASHED
 70
     0
  3
Dashed
 72
    65
 73
     2
 40
15.0
 49
7.0
 74
     0
 49
-8.0
 74
     0
  0
LTYPE
  5
40
330
5
100
AcDbSymbolTableRecord
100
AcDbLinetypeTableRecord
  2
DOTTED
 70
     0
  3
Dotted
 72
    65
 73
     2
 40
1.0
 49
0.0
 74
     0
 49
-1.0
 74
     0
  0
LTYPE
  5
41
330
5
100
AcDbSymbolTableRecord
100
AcDbLinetypeTableRecord
  2
DOT_CENTER
 70
     0
  3
Dot_Center
 72
    65
 73
     4
 40
14.0
 49
12.0
 74
     0
 49
-1.0
 74
     0
 49
0.0
 74
     0
 49
-1.0
 74
     0
  0
LTYPE
  5
42
330
5
100
AcDbSymbolTableRecord
100
AcDbLinetypeTableRecord
  2
LONG_DASHED
 70
     0
  3
Long_Dashed
 72
    65
 73
     2
 40
15.0
 49
10.0
 74
     0
 49
-5.0
 74
     0
  0
LTYPE
  5
43
330
5
100
AcDbSymbolTableRecord
100
AcDbLinetypeTableRecord
  2
DASH_CENTER
 70
     0
  3
Dash_Center
 72
    65
 73
     4
 40
14.0
 49
11.0
 74
     0
 49
-1.0
 74
     0
 49
1.0
 74
     0
 49
-1.0
 74
     0
  0
LTYPE
  5
44
330
5
100
AcDbSymbolTableRecord
100
AcDbLinetypeTableRecord
  2
PHANTOM
 70
     0
  3
Phantom
 72
    65
 73
     6
 40
13.0
 49
10.0
 74
     0
 49
-1.0
 74
     0
 49
0.0
 74
     0
 49
-1.0
 74
     0
 49
0.0
 74
     0
 49
-1.0
 74
     0
  0
LTYPE
  5
45
330
5
100
AcDbSymbolTableRecord
100
AcDbLinetypeTableRecord
  2
CENTER_DASH_DASH
 70
     0
  3
Center_Dash_Dash
 72
    65
 73
     6
 40
14.0
 49
9.0
 74
     0
 49
-1.0
 74
     0
 49
1.0
 74
     0
 49
-1.0
 74
     0
 49
1.0
 74
     0
 49
-1.0
 74
     0
  0
ENDTAB
  0
TABLE
  2
LAYER
  5
2
330
0
100
AcDbSymbolTable
 70
     2
  0
LAYER
  5
10
330
2
100
AcDbSymbolTableRecord
100
AcDbLayerTableRecord
  2
0
 70
     0
 62
     7
  6
Continuous
370
    -3
390
F
  0
LAYER
  5
46
330
2
100
AcDbSymbolTableRecord
100
AcDbLayerTableRecord
  2
1
 70
     0
 62
     7
  6
Continuous
370
    -3
390
F
  0
ENDTAB
  0
TABLE
  2
STYLE
  5
3
330
0
100
AcDbSymbolTable
 70
     3
  0
STYLE
  5
11
330
3
100
AcDbSymbolTableRecord
100
AcDbTextStyleTableRecord
  2
Standard
 70
     0
 40
0.0
 41
1.0
 50
0.0
 71
     0
 42
0.2
  3
txt
  4

  0
STYLE
  5
A6
330
3
100
AcDbSymbolTableRecord
100
AcDbTextStyleTableRecord
  2
CONVERTER_11
 70
     0
 40
0.0
 41
0.89
 50
0.0
 71
     0
 42
0.2
  3
MS Mincho.ttf
  4

1001
ACAD
1000
MS Mincho
1071
    32785
  0
STYLE
  5
1EF
330
3
100
AcDbSymbolTableRecord
100
AcDbTextStyleTableRecord
  2
CONVERTER_12
 70
     0
 40
0.0
 41
0.9
 50
0.0
 71
     0
 42
0.2
  3
txt.shx
  4

  0
ENDTAB
  0
TABLE
  2
VIEW
  5
6
330
0
100
AcDbSymbolTable
 70
     0
  0
ENDTAB
  0
TABLE
  2
UCS
  5
7
330
0
100
AcDbSymbolTable
 70
     0
  0
ENDTAB
  0
TABLE
  2
APPID
  5
9
330
0
100
AcDbSymbolTable
 70
     1
  0
APPID
  5
12
330
9
100
AcDbSymbolTableRecord
100
AcDbRegAppTableRecord
  2
ACAD
 70
     0
  0
ENDTAB
  0
TABLE
  2
DIMSTYLE
  5
A
330
0
100
AcDbSymbolTable
 70
     9
100
AcDbDimStyleTable
  0
DIMSTYLE
105
27
330
A
100
AcDbSymbolTableRecord
100
AcDbDimStyleTableRecord
  2
Standard
 70
     0
178
     0
340
11
  0
DIMSTYLE
105
202
102
{ACAD_REACTORS
330
203
102
}
330
A
100
AcDbSymbolTableRecord
100
AcDbDimStyleTableRecord
  2
ME10_DIM_10
 70
     0
 41
8.75
 42
0.0
 44
2.5
 73
     0
 74
     0
 77
     1
 78
     8
140
8.75
147
2.5
172
     1
173
     1
174
     1
175
     1
176
     2
177
     2
271
     2
178
     7
271
     2
340
1EF
  0
DIMSTYLE
105
210
102
{ACAD_REACTORS
330
211
102
}
330
A
100
AcDbSymbolTableRecord
100
AcDbDimStyleTableRecord
  2
ME10_DIM_11
 70
     0
 41
8.75
 42
0.0
 44
2.5
 73
     0
 74
     0
 77
     1
 78
     8
140
8.75
147
2.5
172
     1
173
     1
174
     1
175
     1
176
     2
177
     2
271
     2
178
     7
271
     2
340
1EF
344
20D
  0
DIMSTYLE
105
21B
102
{ACAD_REACTORS
330
21C
102
}
330
A
100
AcDbSymbolTableRecord
100
AcDbDimStyleTableRecord
  2
ME10_DIM_12
 70
     0
  3
{\Fgdt;n}<>
 41
8.75
 42
0.0
 44
2.5
 73
     0
 74
     0
 77
     1
 78
     8
140
8.75
147
2.5
172
     1
173
     1
174
     1
175
     1
176
     2
177
     2
271
     2
178
     7
271
     2
340
1EF
  0
DIMSTYLE
105
226
102
{ACAD_REACTORS
330
227
102
}
330
A
100
AcDbSymbolTableRecord
100
AcDbDimStyleTableRecord
  2
ME10_DIM_13
 70
     0
 41
8.75
 42
0.0
 44
2.5
 73
     0
 74
     0
 77
     1
 78
     8
140
8.75
147
2.5
172
     1
173
     1
174
     1
175
     1
176
     2
177
     2
271
     2
178
     7
271
     2
340
1EF
  0
DIMSTYLE
105
231
102
{ACAD_REACTORS
330
232
102
}
330
A
100
AcDbSymbolTableRecord
100
AcDbDimStyleTableRecord
  2
ME10_DIM_14
 70
     0
 41
8.75
 42
0.0
 44
2.5
 73
     0
 74
     0
 77
     1
 78
     8
140
8.75
147
2.5
172
     1
173
     1
174
     1
175
     1
176
     2
177
     2
271
     2
178
     7
271
     2
340
1EF
  0
DIMSTYLE
105
23C
102
{ACAD_REACTORS
330
23D
102
}
330
A
100
AcDbSymbolTableRecord
100
AcDbDimStyleTableRecord
  2
ME10_DIM_15
 70
     0
 41
8.75
 42
0.0
 44
2.5
 73
     0
 74
     0
 77
     1
 78
     8
140
8.75
147
2.5
172
     1
173
     1
174
     1
175
     1
176
     2
177
     2
271
     2
178
     7
271
     2
340
1EF
  0
DIMSTYLE
105
247
102
{ACAD_REACTORS
330
248
102
}
330
A
100
AcDbSymbolTableRecord
100
AcDbDimStyleTableRecord
  2
ME10_DIM_16
 70
     0
 41
8.75
 42
0.0
 44
2.5
 73
     0
 74
     0
 77
     1
 78
     8
140
8.75
147
2.5
172
     1
173
     1
174
     1
175
     1
176
     2
177
     2
271
     2
178
     7
271
     2
340
1EF
  0
DIMSTYLE
105
254
102
{ACAD_REACTORS
330
255
102
}
330
A
100
AcDbSymbolTableRecord
100
AcDbDimStyleTableRecord
  2
ME10_DIM_17
 70
     0
 41
7.5
 42
0.0
 44
2.5
 73
     0
 74
     0
 77
     1
 78
     8
140
8.75
147
2.5
172
     1
173
     1
174
     1
175
     1
176
     2
177
     2
271
     2
178
     7
271
     2
340
1EF
  0
ENDTAB
  0
TABLE
  2
BLOCK_RECORD
  5
1
330
0
100
AcDbSymbolTable
 70
    15
  0
BLOCK_RECORD
  5
1F
330
1
100
AcDbSymbolTableRecord
100
AcDbBlockTableRecord
  2
*Model_Space
340
22
  0
BLOCK_RECORD
  5
1B
330
1
100
AcDbSymbolTableRecord
100
AcDbBlockTableRecord
  2
*Paper_Space
340
1E
  0
BLOCK_RECORD
  5
23
330
1
100
AcDbSymbolTableRecord
100
AcDbBlockTableRecord
  2
*Paper_Space0
340
26
  0
BLOCK_RECORD
  5
47
330
1
100
AcDbSymbolTableRecord
100
AcDbBlockTableRecord
  2
開示A4
340
0
102
{BLKREFS
331
56
102
}
  0
BLOCK_RECORD
  5
4A
330
1
100
AcDbSymbolTableRecord
100
AcDbBlockTableRecord
  2
A205-0
340
0
102
{BLKREFS
331
57
102
}
  0
BLOCK_RECORD
  5
4D
330
1
100
AcDbSymbolTableRecord
100
AcDbBlockTableRecord
  2
61-5A-16
340
0
102
{BLKREFS
331
58
102
}
  0
BLOCK_RECORD
  5
50
330
1
100
AcDbSymbolTableRecord
100
AcDbBlockTableRecord
  2
81-100X-M21
340
0
102
{BLKREFS
331
59
102
}
  0
BLOCK_RECORD
  5
53
330
1
100
AcDbSymbolTableRecord
100
AcDbBlockTableRecord
  2
32-1-16
340
0
102
{BLKREFS
331
5A
102
}
  0
BLOCK_RECORD
  5
1F9
330
1
100
AcDbSymbolTableRecord
100
AcDbBlockTableRecord
  2
*D6
340
0
  0
BLOCK_RECORD
  5
204
330
1
100
AcDbSymbolTableRecord
100
AcDbBlockTableRecord
  2
*D7
340
0
  0
BLOCK_RECORD
  5
20D
330
1
100
AcDbSymbolTableRecord
100
AcDbBlockTableRecord
  2
_NONE
340
0
  0
BLOCK_RECORD
  5
212
330
1
100
AcDbSymbolTableRecord
100
AcDbBlockTableRecord
  2
*D9
340
0
  0
BLOCK_RECORD
  5
21D
330
1
100
AcDbSymbolTableRecord
100
AcDbBlockTableRecord
  2
*D10
340
0
  0
BLOCK_RECORD
  5
228
330
1
100
AcDbSymbolTableRecord
100
AcDbBlockTableRecord
  2
*D11
340
0
  0
BLOCK_RECORD
  5
233
330
1
100
AcDbSymbolTableRecord
100
AcDbBlockTableRecord
  2
*D12
340
0
  0
BLOCK_RECORD
  5
23E
330
1
100
AcDbSymbolTableRecord
100
AcDbBlockTableRecord
  2
*D13
340
0
  0
BLOCK_RECORD
  5
249
330
1
100
AcDbSymbolTableRecord
100
AcDbBlockTableRecord
  2
*D14
340
0
  0
ENDTAB
  0
ENDSEC
  0
SECTION
  2
BLOCKS
  0
BLOCK
  5
20
330
1F
100
AcDbEntity
  8
0
100
AcDbBlockBegin
  2
*Model_Space
 70
     0
 10
0.0
 20
0.0
 30
0.0
  3
*Model_Space
  1

  0
ENDBLK
  5
21
330
1F
100
AcDbEntity
  8
0
100
AcDbBlockEnd
  0
BLOCK
  5
1C
330
1B
100
AcDbEntity
 67
     1
  8
0
100
AcDbBlockBegin
  2
*Paper_Space
 70
     0
 10
0.0
 20
0.0
 30
0.0
  3
*Paper_Space
  1

  0
ENDBLK
  5
1D
330
1B
100
AcDbEntity
 67
     1
  8
0
100
AcDbBlockEnd
  0
BLOCK
  5
24
330
23
100
AcDbEntity
  8
0
100
AcDbBlockBegin
  2
*Paper_Space0
 70
     0
 10
0.0
 20
0.0
 30
0.0
  3
*Paper_Space0
  1

  0
ENDBLK
  5
25
330
23
100
AcDbEntity
  8
0
100
AcDbBlockEnd
  0
BLOCK
  5
48
330
47
100
AcDbEntity
  8
0
100
AcDbBlockBegin
  2
開示A4
 70
     0
 10
0.0
 20
0.0
 30
0.0
  3
開示A4
  1

  0
POINT
  5
5B
330
47
100
AcDbEntity
  8
1
 62
     4
100
AcDbPoint
 10
34.0
 20
34.00000000000001
 30
0.0
  0
POINT
  5
5C
330
47
100
AcDbEntity
  8
1
 62
     4
100
AcDbPoint
 10
57.0
 20
12.25
 30
0.0
  0
POINT
  5
5D
330
47
100
AcDbEntity
  8
1
 62
     4
100
AcDbPoint
 10
57.0
 20
20.75000000000001
 30
0.0
  0
POINT
  5
5E
330
47
100
AcDbEntity
  8
1
 62
     4
100
AcDbPoint
 10
57.0
 20
24.75000000000001
 30
0.0
  0
POINT
  5
5F
330
47
100
AcDbEntity
  8
1
 62
     4
100
AcDbPoint
 10
57.0
 20
16.25
 30
0.0
  0
POINT
  5
60
330
47
100
AcDbEntity
  8
1
 62
     4
100
AcDbPoint
 10
157.5
 20
19.00000000000001
 30
0.0
  0
POINT
  5
61
330
47
100
AcDbEntity
  8
1
 62
     4
100
AcDbPoint
 10
47.5
 20
282.0000000000003
 30
0.0
  0
POINT
  5
62
330
47
100
AcDbEntity
  8
1
 62
     4
100
AcDbPoint
 10
57.0
 20
22.75000000000001
 30
0.0
  0
POINT
  5
63
330
47
100
AcDbEntity
  8
1
 62
     4
100
AcDbPoint
 10
57.0
 20
14.25
 30
0.0
  0
POINT
  5
64
330
47
100
AcDbEntity
  8
1
 62
     4
100
AcDbPoint
 10
157.5
 20
12.5
 30
0.0
  0
POINT
  5
65
330
47
100
AcDbEntity
  8
1
 62
     4
100
AcDbPoint
 10
163.25
 20
12.5
 30
0.0
  0
POINT
  5
66
330
47
100
AcDbEntity
  8
1
 62
     4
100
AcDbPoint
 10
151.75
 20
12.5
 30
0.0
  0
POINT
  5
67
330
47
100
AcDbEntity
  8
1
 62
     4
100
AcDbPoint
 10
134.75
 20
12.5
 30
0.0
  0
POINT
  5
68
330
47
100
AcDbEntity
  8
1
 62
     4
100
AcDbPoint
 10
146.25
 20
12.5
 30
0.0
  0
POINT
  5
69
330
47
100
AcDbEntity
  8
1
 62
     4
100
AcDbPoint
 10
140.5
 20
12.5
 30
0.0
  0
POINT
  5
6A
330
47
100
AcDbEntity
  8
1
 62
     4
100
AcDbPoint
 10
140.5
 20
19.00000000000001
 30
0.0
  0
POINT
  5
6B
330
47
100
AcDbEntity
  8
1
 62
     4
100
AcDbPoint
 10
117.75
 20
12.5
 30
0.0
  0
POINT
  5
6C
330
47
100
AcDbEntity
  8
1
 62
     4
100
AcDbPoint
 10
129.25
 20
12.5
 30
0.0
  0
POINT
  5
6D
330
47
100
AcDbEntity
  8
1
 62
     4
100
AcDbPoint
 10
123.5
 20
12.5
 30
0.0
  0
POINT
  5
6E
330
47
100
AcDbEntity
  8
1
 62
     4
100
AcDbPoint
 10
123.5
 20
19.00000000000001
 30
0.0
  0
POINT
  5
6F
330
47
100
AcDbEntity
  8
1
 62
     4
100
AcDbPoint
 10
100.75
 20
12.5
 30
0.0
  0
POINT
  5
70
330
47
100
AcDbEntity
  8
1
 62
     4
100
AcDbPoint
 10
112.25
 20
12.5
 30
0.0
  0
POINT
  5
71
330
47
100
AcDbEntity
  8
1
 62
     4
100
AcDbPoint
 10
106.5
 20
12.5
 30
0.0
  0
POINT
  5
72
330
47
100
AcDbEntity
  8
1
 62
     4
100
AcDbPoint
 10
106.5
 20
19.00000000000001
 30
0.0
  0
POINT
  5
73
330
47
100
AcDbEntity
  8
1
 62
     4
100
AcDbPoint
 10
85.25
 20
17.0
 30
0.0
  0
POINT
  5
74
330
47
100
AcDbEntity
  8
1
 62
     4
100
AcDbPoint
 10
93.75
 20
17.0
 30
0.0
  0
LINE
  5
75
330
47
100
AcDbEntity
  8
1
  6
Continuous
 62
     2
100
AcDbLine
 10
81.0
 20
27.00000000000001
 30
0.0
 11
81.0
 21
10.0
 31
0.0
  0
LINE
  5
76
330
47
100
AcDbEntity
  8
1
  6
DOT_CENTER
 62
     2
100
AcDbLine
 10
187.0
 20
26.50000000000001
 30
0.0
 11
187.0
 21
20.50000000000001
 31
0.0
  0
LINE
  5
77
330
47
100
AcDbEntity
  8
1
  6
DOT_CENTER
 62
     2
100
AcDbLine
 10
184.0
 20
23.50000000000001
 30
0.0
 11
197.0
 21
23.50000000000001
 31
0.0
  0
LINE
  5
78
330
47
100
AcDbEntity
  8
1
  6
Continuous
 62
     7
100
AcDbLine
 10
196.0
 20
21.50000000000001
 30
0.0
 11
191.0
 21
22.30000000000001
 31
0.0
  0
LINE
  5
79
330
47
100
AcDbEntity
  8
1
  6
Continuous
 62
     7
100
AcDbLine
 10
196.0
 20
25.50000000000001
 30
0.0
 11
196.0
 21
21.50000000000001
 31
0.0
  0
LINE
  5
7A
330
47
100
AcDbEntity
  8
1
  6
Continuous
 62
     7
100
AcDbLine
 10
191.0
 20
24.70000000000001
 30
0.0
 11
196.0
 21
25.50000000000001
 31
0.0
  0
LINE
  5
7B
330
47
100
AcDbEntity
  8
1
  6
Continuous
 62
     7
100
AcDbLine
 10
191.0
 20
24.70000000000001
 30
0.0
 11
191.0
 21
22.30000000000001
 31
0.0
  0
LINE
  5
7C
330
47
100
AcDbEntity
  8
1
  6
Continuous
 62
     2
100
AcDbLine
 10
33.0
 20
27.0
 30
0.0
 11
33.0
 21
10.0
 31
0.0
  0
LINE
  5
7D
330
47
100
AcDbEntity
  8
1
  6
Continuous
 62
     2
100
AcDbLine
 10
25.0
 20
18.50000000000001
 30
0.0
 11
81.0
 21
18.50000000000001
 31
0.0
  0
LINE
  5
7E
330
47
100
AcDbEntity
  8
1
  6
Continuous
 62
     7
100
AcDbLine
 10
200.0
 20
287.0000000000003
 30
0.0
 11
105.0
 21
287.0000000000003
 31
0.0
  0
LINE
  5
7F
330
47
100
AcDbEntity
  8
1
  6
Continuous
 62
     7
100
AcDbLine
 10
200.0
 20
10.0
 30
0.0
 11
200.0
 21
148.5
 31
0.0
  0
LINE
  5
80
330
47
100
AcDbEntity
  8
1
  6
Continuous
 62
     7
100
AcDbLine
 10
25.0
 20
10.0
 30
0.0
 11
105.0
 21
10.0
 31
0.0
  0
LINE
  5
81
330
47
100
AcDbEntity
  8
1
  6
PHANTOM
 62
     4
100
AcDbLine
 10
0.0
 20
297.0
 30
0.0
 11
0.0
 21
0.0
 31
0.0
  0
LINE
  5
82
330
47
100
AcDbEntity
  8
1
  6
PHANTOM
 62
     4
100
AcDbLine
 10
210.0
 20
297.0
 30
0.0
 11
0.0
 21
297.0
 31
0.0
  0
LINE
  5
83
330
47
100
AcDbEntity
  8
1
  6
PHANTOM
 62
     4
100
AcDbLine
 10
210.0
 20
0.0
 30
0.0
 11
210.0
 21
297.0
 31
0.0
  0
LINE
  5
84
330
47
100
AcDbEntity
  8
1
  6
PHANTOM
 62
     4
100
AcDbLine
 10
0.0
 20
0.0
 30
0.0
 11
210.0
 21
0.0
 31
0.0
  0
LINE
  5
85
330
47
100
AcDbEntity
  8
1
  6
Continuous
 62
     7
100
AcDbLine
 10
25.0
 20
41.0
 30
0.0
 11
200.0
 21
41.0
 31
0.0
  0
LINE
  5
86
330
47
100
AcDbEntity
  8
1
  6
Continuous
 62
     7
100
AcDbLine
 10
200.0
 20
27.00000000000001
 30
0.0
 11
25.0
 21
27.00000000000001
 31
0.0
  0
LINE
  5
87
330
47
100
AcDbEntity
  8
1
  6
Continuous
 62
     2
100
AcDbLine
 10
33.0
 20
41.00000000000001
 30
0.0
 11
33.0
 21
27.0
 31
0.0
  0
LINE
  5
88
330
47
100
AcDbEntity
  8
1
  6
Continuous
 62
     2
100
AcDbLine
 10
55.0
 20
287.0000000000003
 30
0.0
 11
55.0
 21
277.0000000000003
 31
0.0
  0
LINE
  5
89
330
47
100
AcDbEntity
  8
1
  6
Continuous
 62
     2
100
AcDbLine
 10
40.0
 20
287.0000000000003
 30
0.0
 11
40.0
 21
277.0000000000003
 31
0.0
  0
LINE
  5
8A
330
47
100
AcDbEntity
  8
1
  6
Continuous
 62
     7
100
AcDbLine
 10
25.0
 20
10.0
 30
0.0
 11
25.0
 21
148.5
 31
0.0
  0
LINE
  5
8B
330
47
100
AcDbEntity
  8
1
  6
Continuous
 62
     2
100
AcDbLine
 10
55.0
 20
277.0000000000003
 30
0.0
 11
25.0
 21
277.0000000000003
 31
0.0
  0
LINE
  5
8C
330
47
100
AcDbEntity
  8
1
  6
Continuous
 62
     2
100
AcDbLine
 10
166.0
 20
27.00000000000001
 30
0.0
 11
166.0
 21
10.0
 31
0.0
  0
LINE
  5
8D
330
47
100
AcDbEntity
  8
1
  6
Continuous
 62
     2
100
AcDbLine
 10
132.0
 20
27.00000000000001
 30
0.0
 11
132.0
 21
9.99999999999999
 31
0.0
  0
LINE
  5
8E
330
47
100
AcDbEntity
  8
1
  6
Continuous
 62
     2
100
AcDbLine
 10
149.0
 20
27.00000000000001
 30
0.0
 11
149.0
 21
10.0
 31
0.0
  0
LINE
  5
8F
330
47
100
AcDbEntity
  8
1
  6
Continuous
 62
     2
100
AcDbLine
 10
115.0
 20
27.00000000000001
 30
0.0
 11
115.0
 21
9.99999999999999
 31
0.0
  0
LINE
  5
90
330
47
100
AcDbEntity
  8
1
  6
Continuous
 62
     2
100
AcDbLine
 10
98.0
 20
27.00000000000001
 30
0.0
 11
98.0
 21
9.99999999999999
 31
0.0
  0
LINE
  5
91
330
47
100
AcDbEntity
  8
1
  6
Continuous
 62
     2
100
AcDbLine
 10
166.0
 20
20.00000000000001
 30
0.0
 11
200.0
 21
20.00000000000001
 31
0.0
  0
LINE
  5
92
330
47
100
AcDbEntity
  8
1
  6
Continuous
 62
     2
100
AcDbLine
 10
105.0
 20
287.0000000000003
 30
0.0
 11
105.0
 21
292.0000000000003
 31
0.0
  0
LINE
  5
93
330
47
100
AcDbEntity
  8
1
  6
Continuous
 62
     7
100
AcDbLine
 10
105.0
 20
287.0000000000003
 30
0.0
 11
25.0
 21
287.0000000000003
 31
0.0
  0
LINE
  5
94
330
47
100
AcDbEntity
  8
1
  6
Continuous
 62
     2
100
AcDbLine
 10
25.0
 20
148.5
 30
0.0
 11
20.0
 21
148.5
 31
0.0
  0
LINE
  5
95
330
47
100
AcDbEntity
  8
1
  6
Continuous
 62
     7
100
AcDbLine
 10
25.0
 20
148.5
 30
0.0
 11
25.0
 21
287.0000000000003
 31
0.0
  0
LINE
  5
96
330
47
100
AcDbEntity
  8
1
  6
Continuous
 62
     2
100
AcDbLine
 10
200.0
 20
148.5
 30
0.0
 11
205.0
 21
148.5
 31
0.0
  0
LINE
  5
97
330
47
100
AcDbEntity
  8
1
  6
Continuous
 62
     7
100
AcDbLine
 10
200.0
 20
148.5
 30
0.0
 11
200.0
 21
287.0000000000003
 31
0.0
  0
LINE
  5
98
330
47
100
AcDbEntity
  8
1
  6
Continuous
 62
     2
100
AcDbLine
 10
105.0
 20
10.0
 30
0.0
 11
105.0
 21
5.0
 31
0.0
  0
LINE
  5
99
330
47
100
AcDbEntity
  8
1
  6
Continuous
 62
     7
100
AcDbLine
 10
105.0
 20
10.0
 30
0.0
 11
200.0
 21
10.0
 31
0.0
  0
CIRCLE
  5
9A
330
47
100
AcDbEntity
  8
1
  6
DOT_CENTER
 62
     7
100
AcDbCircle
 10
89.5
 20
18.0
 30
0.0
 40
0.1000000000000227
  0
CIRCLE
  5
9B
330
47
100
AcDbEntity
  8
1
  6
DOT_CENTER
 62
     7
100
AcDbCircle
 10
89.5
 20
16.0
 30
0.0
 40
0.1000000000000227
  0
CIRCLE
  5
9C
330
47
100
AcDbEntity
  8
1
  6
Continuous
 62
     7
100
AcDbCircle
 10
187.0
 20
23.50000000000001
 30
0.0
 40
2.0
  0
CIRCLE
  5
9D
330
47
100
AcDbEntity
  8
1
  6
Continuous
 62
     7
100
AcDbCircle
 10
187.0
 20
23.50000000000001
 30
0.0
 40
1.200000000000102
  0
CIRCLE
  5
9E
330
47
100
AcDbEntity
  8
1
  6
Continuous
 62
     7
100
AcDbCircle
 10
154.5
 20
12.5
 30
0.0
 40
0.3000000000000114
  0
CIRCLE
  5
9F
330
47
100
AcDbEntity
  8
1
  6
Continuous
 62
     7
100
AcDbCircle
 10
160.5
 20
12.5
 30
0.0
 40
0.3000000000000114
  0
CIRCLE
  5
A0
330
47
100
AcDbEntity
  8
1
  6
Continuous
 62
     7
100
AcDbCircle
 10
143.5
 20
12.5
 30
0.0
 40
0.3000000000000114
  0
CIRCLE
  5
A1
330
47
100
AcDbEntity
  8
1
  6
Continuous
 62
     7
100
AcDbCircle
 10
137.5
 20
12.5
 30
0.0
 40
0.3000000000000114
  0
CIRCLE
  5
A2
330
47
100
AcDbEntity
  8
1
  6
Continuous
 62
     7
100
AcDbCircle
 10
126.5
 20
12.5
 30
0.0
 40
0.2999999999999972
  0
CIRCLE
  5
A3
330
47
100
AcDbEntity
  8
1
  6
Continuous
 62
     7
100
AcDbCircle
 10
120.5
 20
12.5
 30
0.0
 40
0.2999999999999972
  0
CIRCLE
  5
A4
330
47
100
AcDbEntity
  8
1
  6
Continuous
 62
     7
100
AcDbCircle
 10
109.5
 20
12.5
 30
0.0
 40
0.2999999999999972
  0
CIRCLE
  5
A5
330
47
100
AcDbEntity
  8
1
  6
Continuous
 62
     7
100
AcDbCircle
 10
103.5
 20
12.5
 30
0.0
 40
0.2999999999999972
  0
MTEXT
  5
A7
330
47
100
AcDbEntity
  8
1
 62
   250
100
AcDbMText
 10
25.0
 20
5.0
 30
0.0
 40
3.5
 41
0.0
 71
     4
 72
     1
  1
備考欄の文字列 原点位置=4
  7
CONVERTER_11
 73
     1
 44
0.54545454545455
  0
MTEXT
  5
A8
330
47
100
AcDbEntity
  8
1
 62
     2
100
AcDbMText
 10
89.5
 20
24.00000000000001
 30
0.0
 40
3.5
 41
0.0
 71
     5
 72
     1
  1
尺度
  7
CONVERTER_11
 73
     1
 44
0.54545454545455
  0
MTEXT
  5
A9
330
47
100
AcDbEntity
  8
1
 62
     2
100
AcDbMText
 10
135.5
 20
25.00000000000001
 30
0.0
 40
3.0
 41
0.0
 71
     5
 72
     1
  1
製図
  7
CONVERTER_11
 73
     1
 44
0.59090909090909
  0
MTEXT
  5
AA
330
47
100
AcDbEntity
  8
1
 62
     2
100
AcDbMText
 10
152.5
 20
25.00000000000001
 30
0.0
 40
3.0
 41
0.0
 71
     5
 72
     1
  1
設計
  7
CONVERTER_11
 73
     1
 44
0.59090909090909
  0
MTEXT
  5
AB
330
47
100
AcDbEntity
  8
1
 62
     2
100
AcDbMText
 10
118.5
 20
25.00000000000001
 30
0.0
 40
3.0
 41
0.0
 71
     5
 72
     1
  1
検図
  7
CONVERTER_11
 73
     1
 44
0.59090909090909
  0
MTEXT
  5
AC
330
47
100
AcDbEntity
  8
1
 62
     2
100
AcDbMText
 10
175.0
 20
23.50000000000001
 30
0.0
 40
3.5
 41
0.0
 71
     5
 72
     1
  1
第三角法
  7
CONVERTER_11
 73
     1
 44
0.54545454545455
  0
MTEXT
  5
AD
330
47
100
AcDbEntity
  8
1
 62
     2
100
AcDbMText
 10
101.5
 20
25.00000000000001
 30
0.0
 40
3.0
 41
0.0
 71
     5
 72
     1
  1
承認
  7
CONVERTER_11
 73
     1
 44
0.59090909090909
  0
MTEXT
  5
AE
330
47
100
AcDbEntity
  8
1
 62
     2
100
AcDbMText
 10
29.0
 20
14.25
 30
0.0
 40
3.5
 41
0.0
 71
     5
 72
     1
  1
品番
  7
CONVERTER_11
 73
     1
 44
0.72727272727273
  0
MTEXT
  5
AF
330
47
100
AcDbEntity
  8
1
 62
     2
100
AcDbMText
 10
29.0
 20
22.75
 30
0.0
 40
3.5
 41
0.0
 71
     5
 72
     1
  1
品名
  7
CONVERTER_11
 73
     1
 44
0.72727272727273
  0
MTEXT
  5
B0
330
47
100
AcDbEntity
  8
1
 62
     2
100
AcDbMText
 10
29.0
 20
34.00000000000001
 30
0.0
 40
3.5
 41
0.0
 71
     5
 72
     1
  1
備考
  7
CONVERTER_11
 73
     1
 44
0.45454545454545
  0
MTEXT
  5
B1
330
47
100
AcDbEntity
  8
1
 62
     2
100
AcDbMText
 10
32.5
 20
282.0000000000003
 30
0.0
 40
5.0
 41
0.0
 71
     5
 72
     1
  1
図番
  7
CONVERTER_11
 73
     1
 44
0.45454545454545
  0
MTEXT
  5
B2
330
47
100
AcDbEntity
  8
1
 62
     7
100
AcDbMText
 10
171.5
 20
15.0
 30
0.0
 40
2.5
 41
0.0
 71
     5
 72
     1
  1
株式会社
  7
CONVERTER_11
 73
     1
 44
1.0
  0
MTEXT
  5
B3
330
47
100
AcDbEntity
  8
1
 62
     7
100
AcDbMText
 10
188.5
 20
15.0
 30
0.0
 40
3.0
 41
0.0
 71
     5
 72
     1
  1
三栄水栓製作所
  7
CONVERTER_11
 73
     1
 44
1.0
  0
ENDBLK
  5
49
330
47
100
AcDbEntity
  8
0
100
AcDbBlockEnd
  0
BLOCK
  5
4B
330
4A
100
AcDbEntity
  8
0
100
AcDbBlockBegin
  2
A205-0
 70
     0
 10
1139.102031602708
 20
107.0
 30
0.0
  3
A205-0
  1

  0
LINE
  5
B4
330
4A
100
AcDbEntity
  8
1
  6
Continuous
 62
     7
100
AcDbLine
 10
426.7013320828829
 20
235.7300000000002
 30
0.0
 11
426.7013320828829
 21
214.7700000000002
 31
0.0
  0
LINE
  5
B5
330
4A
100
AcDbEntity
  8
1
  6
Continuous
 62
     7
100
AcDbLine
 10
415.8705110196628
 20
234.5700000000002
 30
0.0
 11
415.8705110196628
 21
215.9300000000002
 31
0.0
  0
LINE
  5
B6
330
4A
100
AcDbEntity
  8
1
  6
Continuous
 62
     7
100
AcDbLine
 10
427.8613320828828
 20
234.5700000000002
 30
0.0
 11
427.8613320828828
 21
215.9300000000002
 31
0.0
  0
LINE
  5
B7
330
4A
100
AcDbEntity
  8
1
  6
Continuous
 62
     7
100
AcDbLine
 10
413.8613320828828
 20
235.7300000000002
 30
0.0
 11
413.8613320828828
 21
214.7700000000002
 31
0.0
  0
LINE
  5
B8
330
4A
100
AcDbEntity
  8
1
  6
Continuous
 62
     7
100
AcDbLine
 10
426.7013320828829
 20
235.7300000000002
 30
0.0
 11
415.8705110196628
 21
235.7300000000002
 31
0.0
  0
LINE
  5
B9
330
4A
100
AcDbEntity
  8
1
  6
Continuous
 62
     2
100
AcDbLine
 10
415.8705110196628
 20
234.5700000000002
 30
0.0
 11
427.8613320828828
 21
234.5700000000002
 31
0.0
  0
LINE
  5
BA
330
4A
100
AcDbEntity
  8
1
  6
Continuous
 62
     2
100
AcDbLine
 10
427.8613320828828
 20
215.9300000000002
 30
0.0
 11
415.8705110196628
 21
215.9300000000002
 31
0.0
  0
LINE
  5
BB
330
4A
100
AcDbEntity
  8
1
  6
Continuous
 62
     7
100
AcDbLine
 10
426.7013320828829
 20
214.7700000000002
 30
0.0
 11
415.8705110196628
 21
214.7700000000002
 31
0.0
  0
LINE
  5
BC
330
4A
100
AcDbEntity
  8
1
  6
Continuous
 62
     7
100
AcDbLine
 10
426.7013320828829
 20
235.7300000000002
 30
0.0
 11
427.8613320828828
 21
234.5700000000002
 31
0.0
  0
LINE
  5
BD
330
4A
100
AcDbEntity
  8
1
  6
Continuous
 62
     7
100
AcDbLine
 10
427.8613320828828
 20
215.9300000000002
 30
0.0
 11
426.7013320828829
 21
214.7700000000002
 31
0.0
  0
LINE
  5
BE
330
4A
100
AcDbEntity
  8
1
  6
Continuous
 62
     2
100
AcDbLine
 10
415.8705110196628
 20
215.9300000000002
 30
0.0
 11
413.8613320828828
 21
214.7700000000002
 31
0.0
  0
LINE
  5
BF
330
4A
100
AcDbEntity
  8
1
  6
Continuous
 62
     2
100
AcDbLine
 10
415.8705110196628
 20
234.5700000000002
 30
0.0
 11
413.8613320828828
 21
235.7300000000002
 31
0.0
  0
LINE
  5
C0
330
4A
100
AcDbEntity
  8
1
  6
Continuous
 62
     7
100
AcDbLine
 10
415.8705110196628
 20
234.5700000000002
 30
0.0
 11
415.8705110196628
 21
235.7300000000002
 31
0.0
  0
LINE
  5
C1
330
4A
100
AcDbEntity
  8
1
  6
Continuous
 62
     7
100
AcDbLine
 10
415.8705110196628
 20
235.7300000000002
 30
0.0
 11
413.8613320828828
 21
235.7300000000002
 31
0.0
  0
LINE
  5
C2
330
4A
100
AcDbEntity
  8
1
  6
Continuous
 62
     7
100
AcDbLine
 10
415.8705110196628
 20
215.9300000000002
 30
0.0
 11
415.8705110196628
 21
214.7700000000002
 31
0.0
  0
LINE
  5
C3
330
4A
100
AcDbEntity
  8
1
  6
Continuous
 62
     7
100
AcDbLine
 10
415.8705110196628
 20
214.7700000000002
 30
0.0
 11
413.8613320828828
 21
214.7700000000002
 31
0.0
  0
LINE
  5
C4
330
4A
100
AcDbEntity
  8
1
  6
Continuous
 62
     7
100
AcDbLine
 10
411.3613320828828
 20
202.7500000000002
 30
0.0
 11
411.3613320828828
 21
212.5000000000002
 31
0.0
  0
LINE
  5
C5
330
4A
100
AcDbEntity
  8
1
  6
Continuous
 62
     7
100
AcDbLine
 10
413.8613320828828
 20
202.2500000000002
 30
0.0
 11
413.8613320828828
 21
214.7700000000002
 31
0.0
  0
LINE
  5
C6
330
4A
100
AcDbEntity
  8
1
  6
Continuous
 62
     7
100
AcDbLine
 10
413.8613320828828
 20
235.7300000000002
 30
0.0
 11
413.8613320828828
 21
248.2500000000002
 31
0.0
  0
LINE
  5
C7
330
4A
100
AcDbEntity
  8
1
  6
Continuous
 62
     7
100
AcDbLine
 10
411.3613320828828
 20
247.7500000000002
 30
0.0
 11
411.3613320828828
 21
238.0000000000002
 31
0.0
  0
LINE
  5
C8
330
4A
100
AcDbEntity
  8
1
  6
Continuous
 62
     7
100
AcDbLine
 10
411.8613320828828
 20
248.2500000000002
 30
0.0
 11
413.8613320828828
 21
248.2500000000002
 31
0.0
  0
LINE
  5
C9
330
4A
100
AcDbEntity
  8
1
  6
Continuous
 62
     7
100
AcDbLine
 10
411.8613320828828
 20
202.2500000000002
 30
0.0
 11
413.8613320828828
 21
202.2500000000002
 31
0.0
  0
LINE
  5
CA
330
4A
100
AcDbEntity
  8
1
  6
Continuous
 62
     7
100
AcDbLine
 10
356.1763320828828
 20
249.2500000000002
 30
0.0
 11
364.3613320828821
 21
249.2500000000002
 31
0.0
  0
LINE
  5
CB
330
4A
100
AcDbEntity
  8
1
  6
Continuous
 62
     7
100
AcDbLine
 10
356.1763320828828
 20
249.2500000000002
 30
0.0
 11
355.3613320828828
 21
249.2500000000002
 31
0.0
  0
LINE
  5
CC
330
4A
100
AcDbEntity
  8
1
  6
Continuous
 62
     7
100
AcDbLine
 10
381.3613320828828
 20
249.2500000000002
 30
0.0
 11
381.3613320828828
 21
247.8383785918315
 31
0.0
  0
LINE
  5
CD
330
4A
100
AcDbEntity
  8
1
  6
Continuous
 62
     7
100
AcDbLine
 10
355.3613320828828
 20
249.2500000000002
 30
0.0
 11
355.3613320828828
 21
247.8383785918315
 31
0.0
  0
LINE
  5
CE
330
4A
100
AcDbEntity
  8
1
  6
Continuous
 62
     2
100
AcDbLine
 10
380.5463320828827
 20
249.2500000000002
 30
0.0
 11
381.3613320828828
 21
247.8383785918315
 31
0.0
  0
LINE
  5
CF
330
4A
100
AcDbEntity
  8
1
  6
Continuous
 62
     2
100
AcDbLine
 10
356.1763320828828
 20
249.2500000000002
 30
0.0
 11
355.3613320828828
 21
247.8383785918315
 31
0.0
  0
LINE
  5
D0
330
4A
100
AcDbEntity
  8
1
  6
Continuous
 62
     7
100
AcDbLine
 10
381.3613320828828
 20
247.8383785918315
 30
0.0
 11
381.3613320828828
 21
247.0000000000002
 31
0.0
  0
LINE
  5
D1
330
4A
100
AcDbEntity
  8
1
  6
Continuous
 62
     7
100
AcDbLine
 10
355.3613320828828
 20
247.8383785918315
 30
0.0
 11
355.3613320828828
 21
247.0000000000002
 31
0.0
  0
LINE
  5
D2
330
4A
100
AcDbEntity
  8
1
  6
Continuous
 62
     7
100
AcDbLine
 10
355.7613320828829
 20
245.8000000000002
 30
0.0
 11
355.7613320828829
 21
234.2771811768692
 31
0.0
  0
LINE
  5
D3
330
4A
100
AcDbEntity
  8
1
  6
Continuous
 62
     7
100
AcDbLine
 10
407.3613320828828
 20
234.0000000000002
 30
0.0
 11
393.9613320828829
 21
234.0000000000002
 31
0.0
  0
LINE
  5
D4
330
4A
100
AcDbEntity
  8
1
  6
Continuous
 62
     7
100
AcDbLine
 10
407.3613320828828
 20
216.5000000000002
 30
0.0
 11
384.2653410114518
 21
216.5000000000002
 31
0.0
  0
LINE
  5
D5
330
4A
100
AcDbEntity
  8
1
  6
Continuous
 62
     2
100
AcDbLine
 10
380.5463320828827
 20
250.7500000000004
 30
0.0
 11
380.5463320828827
 21
249.2500000000002
 31
0.0
  0
LINE
  5
D6
330
4A
100
AcDbEntity
  8
1
  6
Continuous
 62
     7
100
AcDbLine
 10
381.3613320828828
 20
250.7500000000004
 30
0.0
 11
381.3613320828828
 21
249.2500000000002
 31
0.0
  0
LINE
  5
D7
330
4A
100
AcDbEntity
  8
1
  6
Continuous
 62
     2
100
AcDbLine
 10
356.1763320828828
 20
250.7500000000004
 30
0.0
 11
356.1763320828828
 21
249.2500000000002
 31
0.0
  0
LINE
  5
D8
330
4A
100
AcDbEntity
  8
1
  6
Continuous
 62
     7
100
AcDbLine
 10
355.3613320828828
 20
250.7500000000004
 30
0.0
 11
355.3613320828828
 21
249.2500000000002
 31
0.0
  0
LINE
  5
D9
330
4A
100
AcDbEntity
  8
1
  6
Continuous
 62
     7
100
AcDbLine
 10
372.3613320828821
 20
249.2500000000002
 30
0.0
 11
381.3613320828828
 21
249.2500000000002
 31
0.0
  0
LINE
  5
DA
330
4A
100
AcDbEntity
  8
1
  6
Continuous
 62
     7
100
AcDbLine
 10
124.5994911478871
 20
244.4916215532896
 30
0.0
 11
124.5994911478871
 21
232.4186818872095
 31
0.0
  0
LINE
  5
DB
330
4A
100
AcDbEntity
  8
1
  6
Continuous
 62
     7
100
AcDbLine
 10
156.558607738869
 20
212.8312800652907
 30
0.0
 11
137.9675442413169
 21
211.7718660621858
 31
0.0
  0
LINE
  5
DC
330
4A
100
AcDbEntity
  8
1
  6
Continuous
 62
     2
100
AcDbLine
 10
125.014491147887
 20
250.7551113370705
 30
0.0
 11
125.014491147887
 21
249.2500000000005
 31
0.0
  0
LINE
  5
DD
330
4A
100
AcDbEntity
  8
1
  6
Continuous
 62
     2
100
AcDbLine
 10
149.3844911478869
 20
250.7551113370705
 30
0.0
 11
149.3844911478869
 21
249.2500000000005
 31
0.0
  0
LINE
  5
DE
330
4A
100
AcDbEntity
  8
1
  6
Continuous
 62
     7
100
AcDbLine
 10
150.199491147887
 20
250.7551113370705
 30
0.0
 11
150.199491147887
 21
249.2500000000005
 31
0.0
  0
LINE
  5
DF
330
4A
100
AcDbEntity
  8
1
  6
Continuous
 62
     7
100
AcDbLine
 10
124.199491147887
 20
250.7551113370705
 30
0.0
 11
124.199491147887
 21
249.2500000000005
 31
0.0
  0
LINE
  5
E0
330
4A
100
AcDbEntity
  8
1
  6
Continuous
 62
     7
100
AcDbLine
 10
149.3844911478869
 20
249.2500000000005
 30
0.0
 11
150.199491147887
 21
249.2500000000005
 31
0.0
  0
LINE
  5
E1
330
4A
100
AcDbEntity
  8
1
  6
Continuous
 62
     7
100
AcDbLine
 10
125.014491147887
 20
249.2500000000005
 30
0.0
 11
124.199491147887
 21
249.2500000000005
 31
0.0
  0
LINE
  5
E2
330
4A
100
AcDbEntity
  8
1
  6
Continuous
 62
     7
100
AcDbLine
 10
150.199491147887
 20
249.2500000000005
 30
0.0
 11
150.199491147887
 21
247.8383785918318
 31
0.0
  0
LINE
  5
E3
330
4A
100
AcDbEntity
  8
1
  6
Continuous
 62
     7
100
AcDbLine
 10
124.199491147887
 20
249.2500000000005
 30
0.0
 11
124.199491147887
 21
247.8383785918318
 31
0.0
  0
LINE
  5
E4
330
4A
100
AcDbEntity
  8
1
  6
Continuous
 62
     2
100
AcDbLine
 10
149.3844911478869
 20
249.2500000000005
 30
0.0
 11
150.199491147887
 21
247.8383785918318
 31
0.0
  0
LINE
  5
E5
330
4A
100
AcDbEntity
  8
1
  6
Continuous
 62
     2
100
AcDbLine
 10
125.014491147887
 20
249.2500000000005
 30
0.0
 11
124.199491147887
 21
247.8383785918318
 31
0.0
  0
LINE
  5
E6
330
4A
100
AcDbEntity
  8
1
  6
Continuous
 62
     7
100
AcDbLine
 10
150.199491147887
 20
247.8383785918318
 30
0.0
 11
150.199491147887
 21
247.0000000000005
 31
0.0
  0
LINE
  5
E7
330
4A
100
AcDbEntity
  8
1
  6
Continuous
 62
     7
100
AcDbLine
 10
124.199491147887
 20
247.8383785918318
 30
0.0
 11
124.199491147887
 21
247.0000000000005
 31
0.0
  0
LINE
  5
E8
330
4A
100
AcDbEntity
  8
1
  6
Continuous
 62
     7
100
AcDbLine
 10
124.5994911478871
 20
245.8000000000006
 30
0.0
 11
124.5994911478871
 21
244.4916215532896
 31
0.0
  0
LINE
  5
E9
330
4A
100
AcDbEntity
  8
1
  6
Continuous
 62
     7
100
AcDbLine
 10
159.0701627747754
 20
212.974401332934
 30
0.0
 11
156.558607738869
 21
212.8312800652907
 31
0.0
  0
LINE
  5
EA
330
4A
100
AcDbEntity
  8
1
  6
Continuous
 62
     7
100
AcDbLine
 10
159.1882448988609
 20
237.518869742937
 30
0.0
 11
157.3443485740028
 21
237.6239443981381
 31
0.0
  0
LINE
  5
EB
330
4A
100
AcDbEntity
  8
1
  6
Continuous
 62
     2
100
AcDbLine
 10
127.6994911478874
 20
608.1417786539523
 30
0.0
 11
127.6994911478874
 21
620.4097278463832
 31
0.0
  0
LINE
  5
EC
330
4A
100
AcDbEntity
  8
1
  6
Continuous
 62
     2
100
AcDbLine
 10
126.6994911478874
 20
606.4097278463832
 30
0.0
 11
127.6994911478874
 21
608.1417786539523
 31
0.0
  0
LINE
  5
ED
330
4A
100
AcDbEntity
  8
1
  6
Continuous
 62
     7
100
AcDbLine
 10
114.1994911478874
 20
606.4097278463832
 30
0.0
 11
160.1994911478872
 21
606.4097278463832
 31
0.0
  0
LINE
  5
EE
330
4A
100
AcDbEntity
  8
1
  6
Continuous
 62
     7
100
AcDbLine
 10
114.1994911478874
 20
606.4097278463832
 30
0.0
 11
114.1994911478874
 21
604.4097278463832
 31
0.0
  0
LINE
  5
EF
330
4A
100
AcDbEntity
  8
1
  6
Continuous
 62
     7
100
AcDbLine
 10
159.6994911478872
 20
603.9097278463832
 30
0.0
 11
114.6994911478874
 21
603.9097278463832
 31
0.0
  0
LINE
  5
F0
330
4A
100
AcDbEntity
  8
1
  6
Continuous
 62
     7
100
AcDbLine
 10
128.4494911478874
 20
580.2760337911106
 30
0.0
 11
128.4494911478874
 21
599.9097278463832
 31
0.0
  0
LINE
  5
F1
330
4A
100
AcDbEntity
  8
1
  6
Continuous
 62
     7
100
AcDbLine
 10
160.1994911478872
 20
604.4097278463832
 30
0.0
 11
160.1994911478872
 21
606.4097278463832
 31
0.0
  0
LINE
  5
F2
330
4A
100
AcDbEntity
  8
1
  6
Continuous
 62
     2
100
AcDbLine
 10
146.6994911478874
 20
608.1417786539523
 30
0.0
 11
147.6994911478874
 21
606.4097278463832
 31
0.0
  0
LINE
  5
F3
330
4A
100
AcDbEntity
  8
1
  6
Continuous
 62
     2
100
AcDbLine
 10
146.6994911478874
 20
620.4097278463832
 30
0.0
 11
146.6994911478874
 21
608.1417786539523
 31
0.0
  0
LINE
  5
F4
330
4A
100
AcDbEntity
  8
1
  6
Continuous
 62
     7
100
AcDbLine
 10
145.9494911478874
 20
586.0379106046764
 30
0.0
 11
145.9494911478874
 21
599.9097278463832
 31
0.0
  0
LINE
  5
F5
330
4A
100
AcDbEntity
  8
1
  6
Continuous
 62
     7
100
AcDbLine
 10
147.6994911478874
 20
619.4097278463832
 30
0.0
 11
147.6994911478874
 21
606.4097278463832
 31
0.0
  0
LINE
  5
F6
330
4A
100
AcDbEntity
  8
1
  6
Continuous
 62
     7
100
AcDbLine
 10
147.6994911478874
 20
619.4097278463832
 30
0.0
 11
146.6994911478874
 21
620.4097278463832
 31
0.0
  0
LINE
  5
F7
330
4A
100
AcDbEntity
  8
1
  6
Continuous
 62
     7
100
AcDbLine
 10
147.6994911478874
 20
608.1417786539523
 30
0.0
 11
126.6994911478874
 21
608.1417786539523
 31
0.0
  0
LINE
  5
F8
330
4A
100
AcDbEntity
  8
1
  6
Continuous
 62
     7
100
AcDbLine
 10
126.6994911478874
 20
619.4097278463832
 30
0.0
 11
147.6994911478874
 21
619.4097278463832
 31
0.0
  0
LINE
  5
F9
330
4A
100
AcDbEntity
  8
1
  6
Continuous
 62
     7
100
AcDbLine
 10
126.6994911478874
 20
606.4097278463832
 30
0.0
 11
126.6994911478874
 21
619.4097278463832
 31
0.0
  0
LINE
  5
FA
330
4A
100
AcDbEntity
  8
1
  6
Continuous
 62
     7
100
AcDbLine
 10
127.6994911478874
 20
620.4097278463832
 30
0.0
 11
126.6994911478874
 21
619.4097278463832
 31
0.0
  0
LINE
  5
FB
330
4A
100
AcDbEntity
  8
1
  6
Continuous
 62
     7
100
AcDbLine
 10
127.6994911478874
 20
620.4097278463832
 30
0.0
 11
146.6994911478874
 21
620.4097278463832
 31
0.0
  0
LINE
  5
FC
330
4A
100
AcDbEntity
  8
1
  6
Continuous
 62
     7
100
AcDbLine
 10
158.999491147888
 20
573.9331752206083
 30
0.0
 11
157.0997721725036
 21
574.0680326745189
 31
0.0
  0
LINE
  5
FD
330
4A
100
AcDbEntity
  8
1
  6
Continuous
 62
     7
100
AcDbLine
 10
156.3684862396066
 20
548.6995104141906
 30
0.0
 11
158.999491147888
 21
548.8862804721593
 31
0.0
  0
LINE
  5
FE
330
4A
100
AcDbEntity
  8
1
  6
Continuous
 62
     7
100
AcDbLine
 10
145.1994911478868
 20
547.9066445954429
 30
0.0
 11
156.3684862396066
 21
548.6995104141906
 31
0.0
  0
LINE
  5
FF
330
4A
100
AcDbEntity
  8
1
  6
Continuous
 62
     7
100
AcDbLine
 10
411.3613320828828
 20
212.5000000000002
 30
0.0
 11
411.3613320828828
 21
238.0000000000002
 31
0.0
  0
ARC
  5
100
330
4A
100
AcDbEntity
  8
1
  6
Continuous
 62
     7
100
AcDbCircle
 10
393.9613320828829
 20
247.0000000000002
 30
0.0
 40
13.00000000001238
100
AcDbArc
 50
185.8426577750614
 51
270.0
  0
ARC
  5
101
330
4A
100
AcDbEntity
  8
1
  6
Continuous
 62
     7
100
AcDbCircle
 10
353.7613320828829
 20
245.8000000000002
 30
0.0
 40
2.0
100
AcDbArc
 50
0.0
 51
36.86989764584533
  0
ARC
  5
102
330
4A
100
AcDbEntity
  8
1
  6
Continuous
 62
     7
100
AcDbCircle
 10
383.0184749400256
 20
245.8802332604236
 30
0.0
 40
2.000000000010337
100
AcDbArc
 50
145.9522676295666
 51
185.8426577750617
  0
ARC
  5
103
330
4A
100
AcDbEntity
  8
1
  6
Continuous
 62
     7
100
AcDbCircle
 10
384.2653410114518
 20
201.0000000000002
 30
0.0
 40
15.5
100
AcDbArc
 50
90.0
 51
102.5647403276535
  0
ARC
  5
104
330
4A
100
AcDbEntity
  8
1
  6
Continuous
 62
     7
100
AcDbCircle
 10
157.7994911478869
 20
245.6109867316579
 30
0.0
 40
8.000000000003041
100
AcDbArc
 50
178.1550270729741
 51
188.4575806093447
  0
ARC
  5
105
330
4A
100
AcDbEntity
  8
1
  6
Continuous
 62
     7
100
AcDbCircle
 10
157.7994911478869
 20
245.6109867316579
 30
0.0
 40
7.99999999999956
100
AcDbArc
 50
188.4575806093447
 51
260.87376869679
  0
ARC
  5
106
330
4A
100
AcDbEntity
  8
1
  6
Continuous
 62
     7
100
AcDbCircle
 10
137.199491147887
 20
225.2500000000005
 30
0.0
 40
23.0000000000001
100
AcDbArc
 50
32.80879508619612
 51
56.52255421993669
  0
ARC
  5
107
330
4A
100
AcDbEntity
  8
1
  6
Continuous
 62
     7
100
AcDbCircle
 10
137.199491147887
 20
225.2500000000005
 30
0.0
 40
22.99999999999993
100
AcDbArc
 50
123.2180009059104
 51
327.3201497509062
  0
ARC
  5
108
330
4A
100
AcDbEntity
  8
1
  6
Continuous
 62
     7
100
AcDbCircle
 10
109.0994911478871
 20
232.4186818872095
 30
0.0
 40
15.49999999999981
100
AcDbArc
 50
345.6883565795103
 51
0.0
  0
ARC
  5
109
330
4A
100
AcDbEntity
  8
1
  6
Continuous
 62
     7
100
AcDbCircle
 10
122.5994911478871
 20
245.8000000000006
 30
0.0
 40
2.0
100
AcDbArc
 50
0.0
 51
36.86989764584337
  0
ARC
  5
10A
330
4A
100
AcDbEntity
  8
1
  6
Continuous
 62
     7
100
AcDbCircle
 10
137.199491147887
 20
225.2500000000005
 30
0.0
 40
13.50000000000006
100
AcDbArc
 50
165.6883565795101
 51
273.2614796421445
  0
ARC
  5
10B
330
4A
100
AcDbEntity
  8
1
  6
Continuous
 62
     7
100
AcDbCircle
 10
157.7994911478869
 20
245.6109867316579
 30
0.0
 40
7.999999999999938
100
AcDbArc
 50
260.87376869679
 51
266.7385203578575
  0
ARC
  5
10C
330
4A
100
AcDbEntity
  8
1
  6
Continuous
 62
     7
100
AcDbCircle
 10
151.8026015637557
 20
245.8041584576106
 30
0.0
 40
1.999999999993053
100
AcDbArc
 50
143.2788714599995
 51
178.1550270729758
  0
ARC
  5
10D
330
4A
100
AcDbEntity
  8
1
  6
Continuous
 62
     7
100
AcDbCircle
 10
411.8613320828828
 20
247.7500000000002
 30
0.0
 40
0.5
100
AcDbArc
 50
90.0
 51
180.0
  0
ARC
  5
10E
330
4A
100
AcDbEntity
  8
1
  6
Continuous
 62
     7
100
AcDbCircle
 10
411.8613320828828
 20
202.7500000000002
 30
0.0
 40
0.5
100
AcDbArc
 50
180.0
 51
270.0
  0
ARC
  5
10F
330
4A
100
AcDbEntity
  8
1
  6
Continuous
 62
     7
100
AcDbCircle
 10
407.3613320828828
 20
212.5000000000002
 30
0.0
 40
4.0
100
AcDbArc
 50
0.0
 51
90.0
  0
ARC
  5
110
330
4A
100
AcDbEntity
  8
1
  6
Continuous
 62
     7
100
AcDbCircle
 10
407.3613320828828
 20
238.0000000000002
 30
0.0
 40
4.0
100
AcDbArc
 50
270.0
 51
0.0
  0
ARC
  5
111
330
4A
100
AcDbEntity
  8
1
  6
Continuous
 62
     7
100
AcDbCircle
 10
124.4494911478874
 20
599.9097278463832
 30
0.0
 40
3.999999999999986
100
AcDbArc
 50
0.0
 51
90.0
  0
ARC
  5
112
330
4A
100
AcDbEntity
  8
1
  6
Continuous
 62
     7
100
AcDbCircle
 10
149.9494911478872
 20
599.9097278463832
 30
0.0
 40
4.0
100
AcDbArc
 50
90.0
 51
180.0
  0
ARC
  5
113
330
4A
100
AcDbEntity
  8
1
  6
Continuous
 62
     7
100
AcDbCircle
 10
159.6994911478872
 20
604.4097278463832
 30
0.0
 40
0.5
100
AcDbArc
 50
270.0
 51
0.0
  0
ARC
  5
114
330
4A
100
AcDbEntity
  8
1
  6
Continuous
 62
     7
100
AcDbCircle
 10
114.6994911478874
 20
604.4097278463832
 30
0.0
 40
0.5
100
AcDbArc
 50
180.0
 51
270.0
  0
ARC
  5
115
330
4A
100
AcDbEntity
  8
1
  6
Continuous
 62
     7
100
AcDbCircle
 10
98.44949114788744
 20
580.2760337911106
 30
0.0
 40
29.99999999999992
100
AcDbArc
 50
344.8973630808141
 51
0.0
  0
ARC
  5
116
330
4A
100
AcDbEntity
  8
1
  6
Continuous
 62
     7
100
AcDbCircle
 10
157.9494911478872
 20
586.0379106046764
 30
0.0
 40
11.9999999999998
100
AcDbArc
 50
180.0
 51
265.9394926513536
  0
ENDBLK
  5
4C
330
4A
100
AcDbEntity
  8
0
100
AcDbBlockEnd
  0
BLOCK
  5
4E
330
4D
100
AcDbEntity
  8
0
100
AcDbBlockBegin
  2
61-5A-16
 70
     0
 10
425.0807204956668
 20
408.1789762881082
 30
0.0
  3
61-5A-16
  1

  0
LINE
  5
117
330
4D
100
AcDbEntity
  8
1
  6
Continuous
 62
     7
100
AcDbLine
 10
252.3307027953753
 20
359.2554324379997
 30
0.0
 11
259.5126100126571
 21
357.5293915403278
 31
0.0
  0
LINE
  5
118
330
4D
100
AcDbEntity
  8
1
  6
Continuous
 62
     7
100
AcDbLine
 10
245.1487955780935
 20
360.9814733356719
 30
0.0
 11
252.3307027953753
 21
359.2554324379997
 31
0.0
  0
LINE
  5
119
330
4D
100
AcDbEntity
  8
1
  6
Continuous
 62
     7
100
AcDbLine
 10
247.3813366328501
 20
372.8966894418369
 30
0.0
 11
245.7205805518644
 21
365.9864267126849
 31
0.0
  0
LINE
  5
11A
330
4D
100
AcDbEntity
  8
1
  6
Continuous
 62
     7
100
AcDbLine
 10
262.5624824305414
 20
367.5938420196953
 30
0.0
 11
261.2776051489901
 21
362.2475785365184
 31
0.0
  0
LINE
  5
11B
330
4D
100
AcDbEntity
  8
1
  6
Continuous
 62
     7
100
AcDbLine
 10
376.3613320828822
 20
356.7554324379997
 30
0.0
 11
376.3613320828822
 21
260.7551113370705
 31
0.0
  0
LINE
  5
11C
330
4D
100
AcDbEntity
  8
1
  6
Continuous
 62
     7
100
AcDbLine
 10
360.3613320828822
 20
356.7554324379997
 30
0.0
 11
360.3613320828822
 21
260.7551113370705
 31
0.0
  0
LINE
  5
11D
330
4D
100
AcDbEntity
  8
0
  6
Continuous
 62
     7
100
AcDbLine
 10
245.7205805518644
 20
365.9864267126849
 30
0.0
 11
261.2776051489901
 21
362.2475785365184
 31
0.0
  0
LINE
  5
11E
330
4D
100
AcDbEntity
  8
1
  6
Continuous
 62
     7
100
AcDbLine
 10
136.2957226033711
 20
360.6058912190532
 30
0.0
 11
135.683319242446
 21
360.9459760787923
 31
0.0
  0
LINE
  5
11F
330
4D
100
AcDbEntity
  8
1
  6
Continuous
 62
     7
100
AcDbLine
 10
136.2957226033711
 20
360.6058912190532
 30
0.0
 11
136.2957227169144
 21
360.9693239013629
 31
0.0
  0
LINE
  5
120
330
4D
100
AcDbEntity
  8
1
  6
Continuous
 62
     7
100
AcDbLine
 10
138.0393402496997
 20
360.6057237629505
 30
0.0
 11
138.0393403632968
 21
360.9693287714491
 31
0.0
  0
LINE
  5
121
330
4D
100
AcDbEntity
  8
1
  6
Continuous
 62
     7
100
AcDbLine
 10
140.0169672853886
 20
358.7612911954344
 30
0.0
 11
140.0169676761341
 21
360.0120001553971
 31
0.0
  0
LINE
  5
122
330
4D
100
AcDbEntity
  8
1
  6
Continuous
 62
     7
100
AcDbLine
 10
134.3820147016301
 20
358.7613022225218
 30
0.0
 11
134.3820150996216
 21
360.0352047247985
 31
0.0
  0
LINE
  5
123
330
4D
100
AcDbEntity
  8
1
  6
Continuous
 62
     7
100
AcDbLine
 10
136.3275350090189
 20
360.4874749927184
 30
0.0
 11
136.3275342897088
 21
358.1850872714267
 31
0.0
  0
LINE
  5
124
330
4D
100
AcDbEntity
  8
1
  6
Continuous
 62
     7
100
AcDbLine
 10
134.0582591282707
 20
360.8161543712276
 30
0.0
 11
134.1219454939634
 21
360.780787536024
 31
0.0
  0
LINE
  5
125
330
4D
100
AcDbEntity
  8
1
  6
Continuous
 62
     7
100
AcDbLine
 10
143.2148248419665
 20
359.3920581795203
 30
0.0
 11
141.5561501476127
 21
359.3920614253952
 31
0.0
  0
LINE
  5
126
330
4D
100
AcDbEntity
  8
1
  6
Continuous
 62
     7
100
AcDbLine
 10
133.9958786958528
 20
358.342625838628
 30
0.0
 11
134.1219447541067
 21
358.4126333588978
 31
0.0
  0
LINE
  5
127
330
4D
100
AcDbEntity
  8
1
  6
Continuous
 62
     7
100
AcDbLine
 10
132.8428322335374
 20
359.3920784765621
 30
0.0
 11
131.1834836411302
 21
359.3920817237557
 31
0.0
  0
LINE
  5
128
330
4D
100
AcDbEntity
  8
1
  6
Continuous
 62
     7
100
AcDbLine
 10
131.1834837689937
 20
359.8013506717671
 30
0.0
 11
132.842832361401
 21
359.8013474245735
 31
0.0
  0
LINE
  5
129
330
4D
100
AcDbEntity
  8
1
  6
Continuous
 62
     7
100
AcDbLine
 10
140.3407241426957
 20
360.8161420770161
 30
0.0
 11
140.2770377549069
 21
360.780775491071
 31
0.0
  0
LINE
  5
12A
330
4D
100
AcDbEntity
  8
1
  6
Continuous
 62
     7
100
AcDbLine
 10
138.6520392243559
 20
360.9459702692788
 30
0.0
 11
138.0393402496997
 21
360.6057237629505
 31
0.0
  0
LINE
  5
12B
330
4D
100
AcDbEntity
  8
1
  6
Continuous
 62
     7
100
AcDbLine
 10
141.5561502754762
 20
359.8013303734065
 30
0.0
 11
143.2154988678833
 21
359.8013271262129
 31
0.0
  0
LINE
  5
12C
330
4D
100
AcDbEntity
  8
1
  6
Continuous
 62
     7
100
AcDbLine
 10
135.6343185298038
 20
358.202561618442
 30
0.0
 11
136.3275344154368
 21
358.5875211058479
 31
0.0
  0
LINE
  5
12D
330
4D
100
AcDbEntity
  8
1
  6
Continuous
 62
     7
100
AcDbLine
 10
138.0711526553987
 20
360.487471580618
 30
0.0
 11
138.0711519360885
 21
358.1850838593264
 31
0.0
  0
LINE
  5
12E
330
4D
100
AcDbEntity
  8
1
  6
Continuous
 62
     7
100
AcDbLine
 10
138.0711520618678
 20
358.5876817377498
 30
0.0
 11
138.7646631080941
 21
358.2025554926438
 31
0.0
  0
LINE
  5
12F
330
4D
100
AcDbEntity
  8
1
  6
Continuous
 62
     7
100
AcDbLine
 10
140.2770370150502
 20
358.4126213139447
 30
0.0
 11
140.4031030295602
 21
358.3426133002756
 31
0.0
  0
LINE
  5
130
330
4D
100
AcDbEntity
  8
1
  6
Continuous
 62
     7
100
AcDbLine
 10
145.1994911478871
 20
449.4038773162091
 30
0.0
 11
145.199491147887
 21
543.0794250665605
 31
0.0
  0
LINE
  5
131
330
4D
100
AcDbEntity
  8
1
  6
Continuous
 62
     7
100
AcDbLine
 10
129.199491147887
 20
449.403877316209
 30
0.0
 11
129.199491147887
 21
543.0794250665605
 31
0.0
  0
LINE
  5
132
330
4D
100
AcDbEntity
  8
1
  6
Continuous
 62
     7
100
AcDbLine
 10
145.199491147887
 20
446.654357157867
 30
0.0
 11
145.1994911478871
 21
449.4038773162091
 31
0.0
  0
LINE
  5
133
330
4D
100
AcDbEntity
  8
1
  6
Continuous
 62
     7
100
AcDbLine
 10
129.199491147887
 20
446.654357157867
 30
0.0
 11
129.199491147887
 21
449.403877316209
 31
0.0
  0
LINE
  5
134
330
4D
100
AcDbEntity
  8
1
  6
Continuous
 62
     7
100
AcDbLine
 10
129.199491147887
 20
543.0794250665605
 30
0.0
 11
129.199491147887
 21
561.4097278463836
 31
0.0
  0
LINE
  5
135
330
4D
100
AcDbEntity
  8
1
  6
Continuous
 62
     7
100
AcDbLine
 10
145.199491147887
 20
543.0794250665605
 30
0.0
 11
145.199491147887
 21
561.4097278463836
 31
0.0
  0
LINE
  5
136
330
4D
100
AcDbEntity
  8
0
  6
Continuous
 62
     7
100
AcDbLine
 10
129.1994911478868
 20
364.2603858305681
 30
0.0
 11
129.1994911478868
 21
414.2554324379997
 31
0.0
  0
LINE
  5
137
330
4D
100
AcDbEntity
  8
0
  6
Continuous
 62
     7
100
AcDbLine
 10
145.1994911478869
 20
364.2603858305681
 30
0.0
 11
145.1994911478869
 21
414.2554324379997
 31
0.0
  0
LINE
  5
138
330
4D
100
AcDbEntity
  8
1
  6
Continuous
 62
     7
100
AcDbLine
 10
145.1994911478869
 20
359.7904938719124
 30
0.0
 11
145.1994911478869
 21
260.7551113370705
 31
0.0
  0
LINE
  5
139
330
4D
100
AcDbEntity
  8
1
  6
Continuous
 62
     7
100
AcDbLine
 10
129.1994911478869
 20
359.7904938719126
 30
0.0
 11
129.1994911478869
 21
260.7551113370705
 31
0.0
  0
ARC
  5
13A
330
4D
100
AcDbEntity
  8
0
  6
Continuous
 62
     7
100
AcDbCircle
 10
310.8613320828822
 20
356.7554324379997
 30
0.0
 40
65.5
100
AcDbArc
 50
0.0
 51
90.0
  0
ARC
  5
13B
330
4D
100
AcDbEntity
  8
1
  6
Continuous
 62
     7
100
AcDbCircle
 10
248.340794021039
 20
363.1519453894314
 30
0.0
 40
3.860026294718335
100
AcDbArc
 50
166.48629114006
 51
214.2146356436371
  0
ARC
  5
13C
330
4D
100
AcDbEntity
  8
1
  6
Continuous
 62
     7
100
AcDbCircle
 10
248.340794021039
 20
363.1519453894314
 30
0.0
 40
3.860026294718318
100
AcDbArc
 50
132.7505001400288
 51
166.48629114006
  0
ARC
  5
13D
330
4D
100
AcDbEntity
  8
1
  6
Continuous
 62
     7
100
AcDbCircle
 10
257.6555113651207
 20
360.9133223329467
 30
0.0
 40
3.860026294718168
100
AcDbArc
 50
298.7579466364775
 51
346.4862911400546
  0
ARC
  5
13E
330
4D
100
AcDbEntity
  8
1
  6
Continuous
 62
     7
100
AcDbCircle
 10
257.6555113651207
 20
360.9133223329467
 30
0.0
 40
3.860026294718277
100
AcDbArc
 50
346.4862911400546
 51
20.22208214008604
  0
ARC
  5
13F
330
4D
100
AcDbEntity
  8
0
  6
Continuous
 62
     7
100
AcDbCircle
 10
310.8613320828822
 20
356.7554324379997
 30
0.0
 40
65.50000000000011
100
AcDbArc
 50
90.0
 51
165.733558920604
  0
ARC
  5
140
330
4D
100
AcDbEntity
  8
0
  6
Continuous
 62
     7
100
AcDbCircle
 10
310.8613320828822
 20
356.7554324379997
 30
0.0
 40
49.5
100
AcDbArc
 50
0.0
 51
167.3521748430844
  0
ARC
  5
141
330
4D
100
AcDbEntity
  8
0
  6
Continuous
 62
     7
100
AcDbCircle
 10
141.6821961244395
 20
362.0254398512333
 30
0.0
 40
4.16729502344749
100
AcDbArc
 50
327.56746480378
 51
32.43253519623919
  0
ARC
  5
142
330
4D
100
AcDbEntity
  8
0
  6
Continuous
 62
     7
100
AcDbCircle
 10
132.7167861713341
 20
362.0254398512333
 30
0.0
 40
4.167295023447232
100
AcDbArc
 50
212.4325351962195
 51
229.2229172809165
  0
ARC
  5
143
330
4D
100
AcDbEntity
  8
0
  6
Continuous
 62
     7
100
AcDbCircle
 10
141.6821961244395
 20
362.0254398512333
 30
0.0
 40
4.167295023448307
100
AcDbArc
 50
310.7770827190843
 51
327.56746480378
  0
ARC
  5
144
330
4D
100
AcDbEntity
  8
0
  6
Continuous
 62
     7
100
AcDbCircle
 10
132.7167861713341
 20
362.0254398512333
 30
0.0
 40
4.167295023448303
100
AcDbArc
 50
147.5674648037602
 51
212.4325351962195
  0
ARC
  5
145
330
4D
100
AcDbEntity
  8
0
  6
Continuous
 62
     7
100
AcDbCircle
 10
137.1994911478869
 20
414.2554324379997
 30
0.0
 40
8.0
100
AcDbArc
 50
0.0
 51
180.0
  0
SPLINE
  5
146
330
4D
100
AcDbEntity
  8
1
  6
Continuous
 62
     7
100
AcDbSpline
210
0.0
220
0.0
230
1.0
 70
     8
 71
     3
 72
    41
 73
    37
 74
    35
 42
0.000000001
 43
0.0000000001
 44
0.00000001
 40
0.0
 40
0.0
 40
0.0
 40
0.0
 40
0.07059247342146
 40
0.141176216795493
 40
0.2147171992299584
 40
0.2882658685854664
 40
0.3575485530065591
 40
0.4268285969540123
 40
0.4899149230221056
 40
0.5529988271500806
 40
0.6081951004597427
 40
0.6633990998460394
 40
0.7093944340589021
 40
0.7553719758976342
 40
0.7913434126999168
 40
0.827345622468581
 40
0.8535700422827964
 40
0.879878903632648
 40
0.8993444636036866
 40
0.9182508728859752
 40
0.9371558495709058
 40
0.9566198068943855
 40
0.9829256012096748
 40
1.009146692448631
 40
1.042636389338578
 40
1.076089521319995
 40
1.116123827518934
 40
1.156175369953641
 40
1.219824048855995
 40
1.283476153675637
 40
1.406198523699664
 40
1.528961358112714
 40
1.612128980909509
 40
1.695269662290128
 40
1.765886544500021
 40
1.836516500549785
 40
1.836516500549785
 40
1.836516500549785
 40
1.836516500549785
 10
131.1834836411302
 20
359.3920817237557
 30
0.0
 10
131.159955149768
 20
359.3924126021976
 30
0.0
 10
131.1129010768925
 20
359.3930743256512
 30
0.0
 10
131.0413488226307
 20
359.3949541249681
 30
0.0
 10
130.9688778261843
 20
359.3986670198719
 30
0.0
 10
130.8969500977405
 20
359.4040640366806
 30
0.0
 10
130.8265679844664
 20
359.4108599075936
 30
0.0
 10
130.7598313793427
 20
359.4189404038956
 30
0.0
 10
130.6953759128284
 20
359.4284837957829
 30
0.0
 10
130.6358551892511
 20
359.4391345977091
 30
0.0
 10
130.5792842878476
 20
359.451180448992
 30
0.0
 10
130.5287383852791
 20
359.4640044392589
 30
0.0
 10
130.4817289359991
 20
359.4780976770616
 30
0.0
 10
130.4416245076338
 20
359.4926990854551
 30
0.0
 10
130.4056523215978
 20
359.5086574711747
 30
0.0
 10
130.3769797994812
 20
359.5245466434504
 30
0.0
 10
130.3526268624632
 20
359.541344661454
 30
0.0
 10
130.3357363105691
 20
359.5587637794275
 30
0.0
 10
130.3248766161118
 20
359.5775864315341
 30
0.0
 10
130.3204177861867
 20
359.5966927506597
 30
0.0
 10
130.3248698766442
 20
359.6158000380868
 30
0.0
 10
130.3357225729044
 20
359.6346245458034
 30
0.0
 10
130.3526076140249
 20
359.6520453676604
 30
0.0
 10
130.3762653488837
 20
359.6683697136967
 30
0.0
 10
130.4033968314455
 20
359.6835568061763
 30
0.0
 10
130.4358941697487
 20
359.6983126660238
 30
0.0
 10
130.4713226035084
 20
359.7116914242484
 30
0.0
 10
130.5170101769856
 20
359.7261688752626
 30
0.0
 10
130.5709673996608
 20
359.7404383885304
 30
0.0
 10
130.6524661220882
 20
359.7579573828755
 30
0.0
 10
130.7542347835128
 20
359.7745449221957
 30
0.0
 10
130.8631522790922
 20
359.7866055727579
 30
0.0
 10
130.9592125630666
 20
359.7942645191262
 30
0.0
 10
131.0380898570666
 20
359.7984269007654
 30
0.0
 10
131.1128648864856
 20
359.8003753864219
 30
0.0
 10
131.1599426889404
 20
359.801025559084
 30
0.0
 10
131.1834837689937
 20
359.8013506717671
 30
0.0
 11
131.1834836411302
 21
359.3920817237557
 31
0.0
 11
131.1129003035899
 21
359.3932179398541
 31
0.0
 11
131.0423448239114
 21
359.3952152262662
 31
0.0
 11
130.9688990858189
 21
359.3989568421248
 31
0.0
 11
130.8955550286627
 21
359.4044391837339
 31
0.0
 11
130.826596978479
 21
359.411138265237
 31
0.0
 11
130.7578241341329
 21
359.4195060836954
 31
0.0
 11
130.695425577968
 21
359.428796118048
 31
0.0
 11
130.6333370238574
 21
359.43995812602
 31
0.0
 11
130.5793666666908
 21
359.4515265807846
 31
0.0
 11
130.5258761756884
 21
359.4651738857504
 31
0.0
 11
130.4818602353309
 21
359.4785218359124
 31
0.0
 11
130.4387067331194
 21
359.4943871947874
 31
0.0
 11
130.4058952054458
 21
359.5091299193109
 31
0.0
 11
130.3744772955532
 21
359.5267104215182
 31
0.0
 11
130.3531798689613
 21
359.5420120496474
 31
0.0
 11
130.3351394419487
 21
359.5611614410552
 31
0.0
 11
130.3256719326961
 21
359.5781695068849
 31
0.0
 11
130.3218884330815
 21
359.5966934766027
 31
0.0
 11
130.3256654256572
 21
359.6152173121134
 31
0.0
 11
130.3351268941511
 21
359.6322269052407
 31
0.0
 11
130.3531609247725
 21
359.6513781079878
 31
0.0
 11
130.3744525812165
 21
359.6666820617211
 31
0.0
 11
130.4036178213414
 21
359.6831425773998
 31
0.0
 11
130.434020718806
 21
359.6970987901066
 31
0.0
 11
130.471433753855
 21
359.711346965096
 31
0.0
 11
130.509580040257
 21
359.7235529838109
 31
0.0
 11
130.5710791878737
 21
359.7399544832932
 31
0.0
 11
130.6332816695726
 21
359.7534615826554
 31
0.0
 11
130.7543566583004
 21
359.7735022228446
 31
0.0
 11
130.8763402811653
 21
359.7873119772555
 31
0.0
 11
130.9592470412646
 21
359.7938939710771
 31
0.0
 11
131.0422736618145
 21
359.7982475013047
 31
0.0
 11
131.1128626763075
 21
359.8002312157596
 31
0.0
 11
131.1834837689937
 21
359.8013506717671
 31
0.0
  0
SPLINE
  5
147
330
4D
100
AcDbEntity
  8
1
  6
Continuous
 62
     7
100
AcDbSpline
210
0.0
220
0.0
230
1.0
 70
     8
 71
     3
 72
    41
 73
    37
 74
    35
 42
0.000000001
 43
0.0000000001
 44
0.00000001
 40
0.0
 40
0.0
 40
0.0
 40
0.0
 40
0.0705924682697727
 40
0.141176206494145
 40
0.2147171737992058
 40
0.2882658280131155
 40
0.3575484877912122
 40
0.4268285071329432
 40
0.4899148000849597
 40
0.5529986709758619
 40
0.60819490375579
 40
0.6633988629767754
 40
0.7093941521980842
 40
0.7553716480459117
 40
0.7913430362220318
 40
0.8273451999077374
 40
0.8535695801588047
 40
0.8798783972804652
 40
0.8993439354458757
 40
0.9182503258281175
 40
0.9371553213960312
 40
0.9566193005082106
 40
0.982925139027137
 40
1.009146269850329
 40
1.042636010020144
 40
1.076089187605647
 40
1.116123535250419
 40
1.156175118265043
 40
1.219823844719872
 40
1.283475997522208
 40
1.406198422795289
 40
1.528961312113047
 40
1.612128952812993
 40
1.695269652172866
 40
1.765886539495997
 40
1.836516500635957
 40
1.836516500635957
 40
1.836516500635957
 40
1.836516500635957
 10
143.2154987400198
 20
359.3920581782016
 30
0.0
 10
143.23902723096
 20
359.3923889645206
 30
0.0
 10
143.286081302992
 20
359.3930505037395
 30
0.0
 10
143.357633556133
 20
359.3949300229847
 30
0.0
 10
143.4301045552928
 20
359.3986426341979
 30
0.0
 10
143.5020322865219
 20
359.404039369307
 30
0.0
 10
143.5724144048388
 20
359.4108349647197
 30
0.0
 10
143.6391510139648
 20
359.4189151996355
 30
0.0
 10
143.7036064871946
 20
359.4284583392246
 30
0.0
 10
143.7631272163389
 20
359.4391089078803
 30
0.0
 10
143.819698126085
 20
359.4511545377329
 30
0.0
 10
143.8702440357503
 20
359.4639783298063
 30
0.0
 10
143.9172534946508
 20
359.4780713834401
 30
0.0
 10
143.9573579309894
 20
359.4926726342111
 30
0.0
 10
143.9933301281797
 20
359.5086308794689
 30
0.0
 10
144.022002661249
 20
359.5245199400081
 30
0.0
 10
144.0463556121533
 20
359.5413178619553
 30
0.0
 10
144.0632461797958
 20
359.5587369184867
 30
0.0
 10
144.0741058788764
 20
359.5775595366583
 30
0.0
 10
144.0785647228155
 20
359.5966658441459
 30
0.0
 10
144.0741126463599
 20
359.615773143188
 30
0.0
 10
144.063259954728
 20
359.6345976848092
 30
0.0
 10
144.0463749293701
 20
359.6520185680964
 30
0.0
 10
144.0227172077603
 20
359.6683430076031
 30
0.0
 10
143.9955857355101
 20
359.6835302058873
 30
0.0
 10
143.9630884072556
 20
359.6982861926521
 30
0.0
 10
143.9276599807052
 20
359.7116650901613
 30
0.0
 10
143.8819724185173
 20
359.7261427196539
 30
0.0
 10
143.8280152048813
 20
359.740412444286
 30
0.0
 10
143.7465164994669
 20
359.7579317567577
 30
0.0
 10
143.6447478497125
 20
359.7745196946104
 30
0.0
 10
143.5358303585433
 20
359.7865807726117
 30
0.0
 10
143.4397700742437
 20
359.7942400955986
 30
0.0
 10
143.3608927828575
 20
359.7984027860028
 30
0.0
 10
143.2861177516704
 20
359.8003515643533
 30
0.0
 10
143.2390399483603
 20
359.8010019213527
 30
0.0
 10
143.2154988678833
 20
359.8013271262129
 30
0.0
 11
143.2154987400198
 21
359.3920581782016
 31
0.0
 11
143.2860820768555
 21
359.393194117967
 31
0.0
 11
143.3566375591964
 21
359.3951911283207
 31
0.0
 11
143.4300832967906
 21
359.3989324565823
 31
0.0
 11
143.5034273602086
 21
359.4044145112796
 31
0.0
 11
143.5723854118822
 21
359.4111133225797
 31
0.0
 11
143.6411582641525
 21
359.4194808721878
 31
0.0
 11
143.7035568232657
 21
359.4287706618512
 31
0.0
 11
143.7656453872071
 21
359.4399324272924
 31
0.0
 11
143.8196157483629
 21
359.4515006700656
 31
0.0
 11
143.8731062511318
 21
359.4651477664407
 31
0.0
 11
143.9171221970272
 21
359.4784955433047
 31
0.0
 11
143.9602757119541
 21
359.4943607343124
 31
0.0
 11
143.9930872448085
 21
359.5091033286597
 31
0.0
 11
144.0245051697171
 21
359.5266837096609
 31
0.0
 11
144.0458026076767
 21
359.5419852541633
 31
0.0
 11
144.0638430448478
 21
359.5611345752368
 31
0.0
 11
144.0733105628424
 21
359.5781426112439
 31
0.0
 11
144.0770940759167
 21
359.5966665589223
 31
0.0
 11
144.0733170967984
 21
359.6151904164485
 31
0.0
 11
144.0638556370502
 21
359.6322000393732
 31
0.0
 11
144.0458216166107
 21
359.6513513124255
 31
0.0
 11
144.0245299715136
 21
359.6666553497669
 31
0.0
 11
143.9953647452372
 21
359.6831159780374
 31
0.0
 11
143.9649618529295
 21
359.6970723112911
 31
0.0
 11
143.9275488289754
 21
359.711320631867
 31
0.0
 11
143.8894025480084
 21
359.723526800721
 31
0.0
 11
143.8279034150794
 21
359.7399285398096
 31
0.0
 11
143.765700937381
 21
359.753435883711
 31
0.0
 11
143.6446259708401
 21
359.773476996263
 31
0.0
 11
143.5226423469396
 21
359.787287229598
 31
0.0
 11
143.4397355946291
 21
359.7938695477373
 31
0.0
 11
143.3567089731234
 21
359.79822340308
 31
0.0
 11
143.286119961277
 21
359.8002073937137
 31
0.0
 11
143.2154988678833
 21
359.8013271262129
 31
0.0
  0
SPLINE
  5
148
330
4D
100
AcDbEntity
  8
1
  6
Continuous
 62
     7
100
AcDbSpline
210
0.0
220
0.0
230
1.0
 70
     8
 71
     3
 72
    43
 73
    39
 74
    37
 42
0.000000001
 43
0.0000000001
 44
0.00000001
 40
0.0
 40
0.0
 40
0.0
 40
0.0
 40
0.0360038464937586
 40
0.0719212026998397
 40
0.1178546028605955
 40
0.1639132040755805
 40
0.2191437671269329
 40
0.274309672065322
 40
0.3373819818503601
 40
0.4004807146998562
 40
0.4697665704488173
 40
0.5390435435222107
 40
0.6125860684553097
 40
0.6861317342189588
 40
0.7618464107708491
 40
0.8375601128509013
 40
0.9132735908582108
 40
0.988987765507749
 40
1.062531712856055
 40
1.136073657939042
 40
1.205350445702867
 40
1.274633154497226
 40
1.337726063683832
 40
1.400798175809767
 40
1.455964059739652
 40
1.511193055156819
 40
1.557266586253623
 40
1.603157141716718
 40
1.638900249796217
 40
1.675129185709854
 40
1.709726798117721
 40
1.743358898247356
 40
1.754719490678423
 40
1.766036573183935
 40
1.778129533168799
 40
1.790245226069339
 40
1.822845052147114
 40
1.856836744370012
 40
1.856836744370012
 40
1.856836744370012
 40
1.856836744370012
 10
135.6343185298106
 20
358.2025616184459
 30
0.0
 10
135.6237596358678
 20
358.1968576848507
 30
0.0
 10
135.6026672086296
 20
358.1854635283844
 30
0.0
 10
135.5672920255882
 20
358.1682984550725
 30
0.0
 10
135.52719962817
 20
358.1535756655792
 30
0.0
 10
135.480042731421
 20
358.1399505307455
 30
0.0
 10
135.429472868914
 20
358.1271614074205
 30
0.0
 10
135.3729411316429
 20
358.1149554830292
 30
0.0
 10
135.31342947975
 20
358.1042991304628
 30
0.0
 10
135.2489648310069
 20
358.0948056832836
 30
0.0
 10
135.1822269960442
 20
358.0867045158192
 30
0.0
 10
135.1118470591515
 20
358.0799001091248
 30
0.0
 10
135.0399137592325
 20
358.0746039226539
 30
0.0
 10
134.9657390976152
 20
358.0707813168183
 30
0.0
 10
134.8907777548106
 20
358.0684766319395
 30
0.0
 10
134.8150624089168
 20
358.0677132530328
 30
0.0
 10
134.7393472960245
 20
358.0684836310518
 30
0.0
 10
134.6643870202832
 20
358.0707975337241
 30
0.0
 10
134.5902139880124
 20
358.074633829175
 30
0.0
 10
134.5182821393479
 20
358.0799366982669
 30
0.0
 10
134.447902556688
 20
358.0867307267789
 30
0.0
 10
134.3811688034891
 20
358.0948441131728
 30
0.0
 10
134.3167169619417
 20
358.1044050878396
 30
0.0
 10
134.257207947884
 20
358.1150524282132
 30
0.0
 10
134.2006387028529
 20
358.1270786564694
 30
0.0
 10
134.1500724904559
 20
358.1399247685541
 30
0.0
 10
134.103077182973
 20
358.1540855721333
 30
0.0
 10
134.063045562155
 20
358.1686426321904
 30
0.0
 10
134.0270464452053
 20
358.1844745332365
 30
0.0
 10
133.995979949213
 20
358.2018167479716
 30
0.0
 10
133.967498823363
 20
358.2220395903355
 30
0.0
 10
133.9505672516279
 20
358.2434974328511
 30
0.0
 10
133.9443120268203
 20
358.2612981118058
 30
0.0
 10
133.9427477068871
 20
358.2729018767955
 30
0.0
 10
133.9444427242841
 20
358.2847579628743
 30
0.0
 10
133.9511104791654
 20
358.3026154404157
 30
0.0
 10
133.9685869022007
 20
358.3231846573407
 30
0.0
 10
133.9866555437931
 20
358.3360557692127
 30
0.0
 10
133.9958786958597
 20
358.3426258386319
 30
0.0
 11
135.6343185298106
 21
358.2025616184459
 31
0.0
 11
135.6025177033731
 21
358.185680154248
 31
0.0
 11
135.570089072048
 21
358.1702386430973
 31
0.0
 11
135.5270813963349
 21
358.1541073989345
 31
0.0
 11
135.4829196112253
 21
358.1410256752257
 31
0.0
 11
135.4293782836291
 21
358.1274705531209
 31
0.0
 11
135.3754587473006
 21
358.1158103360773
 31
0.0
 11
135.3133866902073
 21
358.1046221290026
 31
0.0
 11
135.250971624246
 21
358.0953587809727
 31
0.0
 11
135.1821937116236
 21
358.0869845031065
 31
0.0
 11
135.1132407203022
 21
358.0802924200647
 31
0.0
 11
135.0398981334606
 21
358.0748732025216
 31
0.0
 11
134.9664509192899
 21
358.0710690371054
 31
0.0
 11
134.8907721584865
 21
358.0687372136546
 31
0.0
 11
134.8150623550341
 21
358.0679688799191
 31
0.0
 11
134.7393528509963
 21
358.0687446013808
 31
0.0
 11
134.6636748924535
 21
358.0710861452127
 31
0.0
 11
134.5902300032105
 21
358.0749019583662
 31
0.0
 11
134.5168883629922
 21
358.0803261164582
 31
0.0
 11
134.4479352132259
 21
358.0870146480557
 31
0.0
 11
134.379162801071
 21
358.0954080418045
 31
0.0
 11
134.3167601547926
 21
358.1047152928384
 31
0.0
 11
134.2546829281959
 21
358.1158736645818
 31
0.0
 11
134.2007402738485
 21
358.1274263606338
 31
0.0
 11
134.1472310023145
 21
358.1411011471985
 31
0.0
 11
134.1031529406997
 21
358.1545136318907
 31
0.0
 11
134.0600718958217
 21
358.1703239653607
 31
0.0
 11
134.027441924398
 21
358.1849135072633
 31
0.0
 11
133.9958538940632
 21
358.202654198526
 31
0.0
 11
133.9682868006032
 21
358.2235599424246
 31
0.0
 11
133.9483847872167
 21
358.2506713420553
 31
0.0
 11
133.944683364956
 21
358.2614120369015
 31
0.0
 11
133.9432897896601
 21
358.2726429893706
 31
0.0
 11
133.9448624442197
 21
358.2846332530279
 31
0.0
 11
133.9490498128935
 21
358.2960023312302
 31
0.0
 11
133.969064502808
 21
358.3217348152873
 31
0.0
 11
133.9958786958597
 21
358.3426258386319
 31
0.0
  0
SPLINE
  5
149
330
4D
100
AcDbEntity
  8
1
  6
Continuous
 62
     7
100
AcDbSpline
210
0.0
220
0.0
230
1.0
 70
     8
 71
     3
 72
    27
 73
    23
 74
    21
 42
0.000000001
 43
0.0000000001
 44
0.00000001
 40
0.0
 40
0.0
 40
0.0
 40
0.0
 40
0.0192781740593763
 40
0.037976565673085
 40
0.0977709288556211
 40
0.1630952636861067
 40
0.2663049233411695
 40
0.3653219015485263
 40
0.4968159094508736
 40
0.6300493366077797
 40
0.7796495261885316
 40
0.9285470905542057
 40
1.077446066835236
 40
1.227041956547284
 40
1.360259270275822
 40
1.491760513785061
 40
1.590799960602856
 40
1.693976023641355
 40
1.75924598892953
 40
1.819063070210031
 40
1.837745893018648
 40
1.856998622763335
 40
1.856998622763335
 40
1.856998622763335
 40
1.856998622763335
 10
138.0712996366503
 20
358.1849887494743
 30
0.0
 10
138.0694796425594
 20
358.1788311117959
 30
0.0
 10
138.0658943735694
 20
358.1667010304354
 30
0.0
 10
138.0534917537832
 20
358.1362796876074
 30
0.0
 10
138.0140571783924
 20
358.1041263857808
 30
0.0
 10
137.9427985167136
 20
358.0780855743254
 30
0.0
 10
137.857810992584
 20
358.0504934581287
 30
0.0
 10
137.7495208923685
 20
358.0247203694326
 30
0.0
 10
137.6297050492794
 20
358.0054033955056
 30
0.0
 10
137.4922721906041
 20
357.9913511153867
 30
0.0
 10
137.3485978511158
 20
357.9824213828802
 30
0.0
 10
137.1994540422201
 20
357.9794078490818
 30
0.0
 10
137.0503119240411
 20
357.9824355801118
 30
0.0
 10
136.906644918473
 20
357.9913821412468
 30
0.0
 10
136.7692188005022
 20
358.0054597036909
 30
0.0
 10
136.6494017351863
 20
358.0247901584562
 30
0.0
 10
136.5411076444357
 20
358.0505445934165
 30
0.0
 10
136.4561466760196
 20
358.0781427795257
 30
0.0
 10
136.3849349758281
 20
358.1042746697668
 30
0.0
 10
136.3455407619007
 20
358.1363904072388
 30
0.0
 10
136.3330190266751
 20
358.1667508163561
 30
0.0
 10
136.3293807490759
 20
358.1788511169564
 30
0.0
 10
136.327534289679
 20
358.1849921618637
 30
0.0
 11
138.0712996366503
 21
358.1849887494743
 31
0.0
 11
138.0655221142926
 21
358.1665966730467
 31
0.0
 11
138.0580486055815
 21
358.1494567657886
 31
0.0
 11
138.0144907766601
 21
358.1084923796273
 31
0.0
 11
137.9544812726878
 21
358.0826829248643
 31
0.0
 11
137.8561187063131
 21
358.0514252995009
 31
0.0
 11
137.7598509479406
 21
358.0282546178444
 31
0.0
 11
137.6301274353725
 21
358.0067491749684
 31
0.0
 11
137.497632920942
 21
357.9927367018318
 31
0.0
 11
137.3483210929076
 21
357.9834526154763
 31
0.0
 11
137.1994545556743
 21
357.9804131616862
 31
0.0
 11
137.0505869100541
 21
357.983467459851
 31
0.0
 11
136.9012805636323
 21
357.9927703982253
 31
0.0
 11
136.7688043532317
 21
358.0068027179914
 31
0.0
 11
136.6390751288357
 21
358.028317946349
 31
0.0
 11
136.5427837782889
 21
358.0514866245836
 31
0.0
 11
136.4444640964614
 21
358.0827682471278
 31
0.0
 11
136.3845267728431
 21
358.1086078564057
 31
0.0
 11
136.3409204291667
 21
358.1495537906868
 31
0.0
 11
136.3333882004615
 21
358.166650963177
 31
0.0
 11
136.327534289679
 21
358.1849921618637
 31
0.0
  0
SPLINE
  5
14A
330
4D
100
AcDbEntity
  8
1
  6
Continuous
 62
     7
100
AcDbSpline
210
0.0
220
0.0
230
1.0
 70
     8
 71
     3
 72
    43
 73
    39
 74
    37
 42
0.000000001
 43
0.0000000001
 44
0.00000001
 40
0.0
 40
0.0
 40
0.0
 40
0.0
 40
0.0360038937970262
 40
0.0719212976093941
 40
0.11785474348319
 40
0.1639133898867434
 40
0.2191439931467375
 40
0.2743099385860527
 40
0.3373822816059988
 40
0.4004810475698459
 40
0.4697669279224821
 40
0.5390439256420263
 40
0.6125864657178567
 40
0.6861321466097053
 40
0.7618468282565263
 40
0.8375605354348923
 40
0.9132740083181434
 40
0.9889881778441647
 40
1.062532110034727
 40
1.136074039951676
 40
1.205350803053415
 40
1.274633487213436
 40
1.337726363249124
 40
1.400798442127701
 40
1.455964285544095
 40
1.511193240753574
 40
1.557266726776513
 40
1.603157236268028
 40
1.638900295784268
 40
1.675129185686763
 40
1.709726747111231
 40
1.743358790170103
 40
1.754719374199124
 40
1.766036448901352
 40
1.778129417435938
 40
1.79024512002416
 40
1.822845003875291
 40
1.856836744812258
 40
1.856836744812258
 40
1.856836744812258
 40
1.856836744812258
 10
138.7646631080871
 20
358.2025554926477
 30
0.0
 10
138.77522199774
 20
358.1968515179339
 30
0.0
 10
138.7963144165309
 20
358.1854572792632
 30
0.0
 10
138.8316895853152
 20
358.1682920694665
 30
0.0
 10
138.871781973908
 20
358.1535691228319
 30
0.0
 10
138.9189388624698
 20
358.1399438022818
 30
0.0
 10
138.9695087180678
 20
358.1271544805478
 30
0.0
 10
139.0260404464836
 20
358.1149483352837
 30
0.0
 10
139.0855520927766
 20
358.1042917495262
 30
0.0
 10
139.1500167349725
 20
358.0947980498655
 30
0.0
 10
139.2167545658499
 20
358.0866966209824
 30
0.0
 10
139.287134497671
 20
358.0798919388483
 30
0.0
 10
139.3590677952004
 20
358.0745954706985
 30
0.0
 10
139.433242453655
 20
358.0707725744944
 30
0.0
 10
139.5082037958782
 20
358.0684675961272
 30
0.0
 10
139.5839191404728
 20
358.0677039208169
 30
0.0
 10
139.659634254664
 20
358.0684740024273
 30
0.0
 10
139.7345945309937
 20
358.0707876116147
 30
0.0
 10
139.8087675664512
 20
358.0746236167282
 30
0.0
 10
139.880699417507
 20
358.0799262041411
 30
0.0
 10
139.9510790051815
 20
358.086719957131
 30
0.0
 10
140.0178127624839
 20
358.0948330821431
 30
0.0
 10
140.0822646107732
 20
358.1043938046394
 30
0.0
 10
140.1417736303747
 20
358.1150409117643
 30
0.0
 10
140.1983428837342
 20
358.1270669182522
 30
0.0
 10
140.2489091032647
 20
358.1399128321582
 30
0.0
 10
140.2959044203043
 20
358.1540734525654
 30
0.0
 10
140.3359360489441
 20
358.1686303550152
 30
0.0
 10
140.3719351777331
 20
358.1844621131289
 30
0.0
 10
140.4030016856278
 20
358.2018042078531
 30
0.0
 10
140.4314828251124
 20
358.2220269429081
 30
0.0
 10
140.4484144170333
 20
358.2434847248562
 30
0.0
 10
140.4546696478458
 20
358.2612853763848
 30
0.0
 10
140.4562339749634
 20
358.2728891376793
 30
0.0
 10
140.4545389649095
 20
358.2847452284926
 30
0.0
 10
140.4478712157376
 20
358.3026027344764
 30
0.0
 10
140.4303948121373
 20
358.3231720139219
 30
0.0
 10
140.4123261768637
 20
358.3360431960758
 30
0.0
 10
140.4031030295535
 20
358.3426133002794
 30
0.0
 11
138.7646631080871
 21
358.2025554926477
 31
0.0
 11
138.796463922274
 21
358.1856739044872
 31
0.0
 11
138.8288925456533
 21
358.1702322659166
 31
0.0
 11
138.8719002076656
 21
358.1541008550599
 31
0.0
 11
138.9160619882221
 21
358.1410189568799
 31
0.0
 11
138.9696033043736
 21
358.1274636257403
 31
0.0
 11
139.0235228363912
 21
358.1158031971494
 31
0.0
 11
139.0855948835676
 21
358.1046147476999
 31
0.0
 11
139.1480099466667
 21
358.0953511548248
 31
0.0
 11
139.216787851332
 21
358.0869766080497
 31
0.0
 11
139.2857408411966
 21
358.0802842548633
 31
0.0
 11
139.3590834220248
 21
358.0748647504462
 31
0.0
 11
139.4325306364455
 21
358.0710602973956
 31
0.0
 11
139.5082093932209
 21
358.0687281778032
 31
0.0
 11
139.5839191987637
 21
358.0679595477021
 31
0.0
 11
139.6596287007132
 21
358.0687349727959
 31
0.0
 11
139.7353066632921
 21
358.0710762204928
 31
0.0
 11
139.8087515522991
 21
358.0748917460359
 31
0.0
 11
139.8820931985267
 21
358.0803156172425
 31
0.0
 11
139.951046349724
 21
358.0870038786433
 31
0.0
 11
140.0198187698716
 21
358.0953970035562
 31
0.0
 11
140.0822214191195
 21
358.1047040099509
 31
0.0
 11
140.1442986555342
 21
358.1158621391421
 31
0.0
 11
140.1982413138713
 21
358.1274146231048
 31
0.0
 11
140.2517505971784
 21
358.1410892012116
 31
0.0
 11
140.2958286643112
 21
358.1545015129345
 31
0.0
 11
140.3389097219308
 21
358.1703116782488
 31
0.0
 11
140.371539698684
 21
358.1849010892557
 31
0.0
 11
140.4031277438907
 21
358.2026416600767
 31
0.0
 11
140.4306948520451
 21
358.2235473002245
 31
0.0
 11
140.4505968807398
 21
358.2506586178205
 31
0.0
 11
140.4542983097448
 21
358.2613993014555
 31
0.0
 11
140.4556918920252
 21
358.2726302451948
 31
0.0
 11
140.4541192449678
 21
358.2846205184591
 31
0.0
 11
140.4499318833877
 21
358.295989609598
 31
0.0
 11
140.429917206456
 21
358.3217221769446
 31
0.0
 11
140.4031030295535
 21
358.3426133002794
 31
0.0
  0
SPLINE
  5
14B
330
4D
100
AcDbEntity
  8
1
  6
Continuous
 62
     7
100
AcDbSpline
210
0.0
220
0.0
230
1.0
 70
    11
 71
     3
 72
    79
 73
    75
 74
    73
 42
0.000000001
 43
0.0000000001
 44
0.00000001
 40
0.0
 40
0.0
 40
0.0
 40
0.0
 40
0.1594749537467362
 40
0.3236673632178461
 40
0.5455864841772428
 40
0.7667940626092797
 40
1.070488722431659
 40
1.373922913620753
 40
1.761771304863935
 40
2.149770930199598
 40
2.615459265451302
 40
3.081079229679064
 40
3.613238618139294
 40
4.145428556051419
 40
4.729883896289445
 40
5.314332255211735
 40
5.934744138879982
 40
6.555160318849305
 40
7.193885338642044
 40
7.832609650958609
 40
8.471334006404406
 40
9.110059069340553
 40
9.73047537711467
 40
10.35088738870665
 40
10.9353359557038
 40
11.5197915037216
 40
12.05198172118304
 40
12.58414139020881
 40
13.04976169647939
 40
13.51545037067503
 40
13.90345037559441
 40
14.29129915479464
 40
14.59473375608031
 40
14.89842880437486
 40
15.11963671607183
 40
15.34155620937628
 40
15.50574880160747
 40
15.66522391579228
 40
15.82469887061953
 40
15.9888912789528
 40
16.21081039916505
 40
16.43201797715192
 40
16.73571263669876
 40
17.03914682776909
 40
17.42699521896637
 40
17.81499484431744
 40
18.28068317963359
 40
18.74630314395027
 40
19.27846253252438
 40
19.81065247055178
 40
20.39510781090977
 40
20.97955616993836
 40
21.59996805370007
 40
22.22038423373894
 40
22.8591092535757
 40
23.4978335659071
 40
24.13655792133811
 40
24.77528298423018
 40
25.39569929193486
 40
26.0161113034335
 40
26.60055987032426
 40
27.18501541822196
 40
27.71720563556808
 40
28.24936530447993
 40
28.71498561066161
 40
29.18067428479285
 40
29.56867428969686
 40
29.95652306894297
 40
30.25995767034749
 40
30.56365271891744
 40
30.78486063105944
 40
31.00678012511116
 40
31.17097271848015
 40
31.33044783158443
 40
31.33044783158443
 40
31.33044783158443
 40
31.33044783158443
 10
144.5222732685818
 20
359.2554181235274
 30
0.0
 10
144.5150838538212
 20
359.2022187836075
 30
0.0
 10
144.5004923671402
 20
359.0942464022078
 30
0.0
 10
144.4042203841094
 20
358.9354650100551
 30
0.0
 10
144.2634264483505
 20
358.7885220460882
 30
0.0
 10
144.0574802979647
 20
358.646818375154
 30
0.0
 10
143.8158116512359
 20
358.5127775872751
 30
0.0
 10
143.5123142899503
 20
358.3781492926136
 30
0.0
 10
143.174034365869
 20
358.2549681374784
 30
0.0
 10
142.7774762600108
 20
358.1360681582706
 30
0.0
 10
142.3510939717924
 20
358.0278638369587
 30
0.0
 10
141.8738787124341
 20
357.926232947543
 30
0.0
 10
141.3717696877246
 20
357.8364121207904
 30
0.0
 10
140.8280344669408
 20
357.7558711913024
 30
0.0
 10
140.2650786120462
 20
357.6874764238925
 30
0.0
 10
139.6713456493106
 20
357.630176960413
 30
0.0
 10
139.0645120938202
 20
357.5854780602727
 30
0.0
 10
138.4387820446588
 20
357.5531624318264
 30
0.0
 10
137.806414214655
 20
357.5336843947338
 30
0.0
 10
137.1676781572228
 20
357.5272205145297
 30
0.0
 10
136.5289421107536
 20
357.5336868957839
 30
0.0
 10
135.8965742855695
 20
357.5531674092579
 30
0.0
 10
135.2708442635093
 20
357.5854854876234
 30
0.0
 10
134.6640107269959
 20
357.6301867645406
 30
0.0
 10
134.0702778104888
 20
357.6874885525221
 30
0.0
 10
133.507321976
 20
357.7558855253866
 30
0.0
 10
132.9635868600688
 20
357.8364285835824
 30
0.0
 10
132.4614777131977
 20
357.9262513784207
 30
0.0
 10
131.9842630797953
 20
358.0278841359759
 30
0.0
 10
131.5578789502684
 20
358.1360901293232
 30
0.0
 10
131.1613269037315
 20
358.2549916621652
 30
0.0
 10
130.8230272051721
 20
358.3781741468698
 30
0.0
 10
130.5195888871538
 20
358.5128036262608
 30
0.0
 10
130.2777313021357
 20
358.6468453562139
 30
0.0
 10
130.0723129403425
 20
358.7885498371592
 30
0.0
 10
129.9298487271693
 20
358.9354933172497
 30
0.0
 10
129.8382653962899
 20
359.0942749986161
 30
0.0
 10
129.8006770093577
 20
359.2554468609729
 30
0.0
 10
129.8382655144906
 20
359.4166186252252
 30
0.0
 10
129.9298488843308
 20
359.5754000204302
 30
0.0
 10
130.0723132303632
 20
359.7223429822915
 30
0.0
 10
130.2777317092958
 20
359.8640466530092
 30
0.0
 10
130.5195893867183
 20
359.9980874404514
 30
0.0
 10
130.8230277988383
 20
360.1327157349921
 30
0.0
 10
131.1613275646584
 20
360.2558968900783
 30
0.0
 10
131.5578796923609
 20
360.3747968693494
 30
0.0
 10
131.9842638818048
 20
360.4830011908062
 30
0.0
 10
132.4614785855848
 20
360.584632080448
 30
0.0
 10
132.9635877792477
 20
360.6744529074894
 30
0.0
 10
133.5073229518935
 20
360.7549938373321
 30
0.0
 10
134.0702788209721
 20
360.8233886051451
 30
0.0
 10
134.6640117798211
 20
360.8806880690791
 30
0.0
 10
135.2708453364859
 20
360.9253869697085
 30
0.0
 10
135.8965753853809
 20
360.9577025986766
 30
0.0
 10
136.5289432154973
 20
360.977180636309
 30
0.0
 10
137.1676792729095
 20
360.9836445170641
 30
0.0
 10
137.8064153193988
 20
360.9771781363612
 30
0.0
 10
138.4387831444702
 20
360.9576976234269
 30
0.0
 10
139.064513166797
 20
360.9253795455836
 30
0.0
 10
139.6713467021358
 20
360.8806782691547
 30
0.0
 10
140.2650796225297
 20
360.8233764816281
 30
0.0
 10
140.8280354428342
 20
360.7549795091669
 30
0.0
 10
141.3717706069035
 20
360.6744364513261
 30
0.0
 10
141.8738795848211
 20
360.5846136567765
 30
0.0
 10
142.3510947738025
 20
360.4829808994466
 30
0.0
 10
142.7774770021007
 20
360.3747749062461
 30
0.0
 10
143.1740350268048
 20
360.2558733734615
 30
0.0
 10
143.5123148835839
 20
360.1326908887276
 30
0.0
 10
143.8158121509091
 20
359.9980614091583
 30
0.0
 10
144.0574807047643
 20
359.864019678953
 30
0.0
 10
144.2634267394433
 20
359.7223151972753
 30
0.0
 10
144.4042205376742
 20
359.5753717167127
 30
0.0
 10
144.5004924925366
 20
359.4165900338135
 30
0.0
 10
144.5150838955068
 20
359.3086175236381
 30
0.0
 10
144.5222732685818
 20
359.2554181235274
 30
0.0
 11
144.5222732685818
 21
359.2554181235274
 31
0.0
 11
144.4903822594843
 21
359.0991644042966
 31
0.0
 11
144.4105403578401
 21
358.9556916971036
 31
0.0
 11
144.2583786454949
 21
358.7941525092122
 31
0.0
 11
144.0787367608492
 21
358.6650727437798
 31
0.0
 11
143.8137186094696
 21
358.5167628463448
 31
0.0
 11
143.5369441620027
 21
358.3923915733923
 31
0.0
 11
143.1729225668658
 21
358.2585459428428
 31
0.0
 11
142.8016246552566
 21
358.1459334653197
 31
0.0
 11
142.3503968149811
 21
358.0307854658156
 31
0.0
 11
141.8951205517334
 21
357.9331869244624
 31
0.0
 11
141.3713558564103
 21
357.8390372629749
 31
0.0
 11
140.8449755199055
 21
357.7606161468092
 31
0.0
 11
140.2648180604487
 21
357.6898675277781
 31
0.0
 11
139.6830976851662
 21
357.6334646081142
 31
0.0
 11
139.0643729611186
 21
357.5877412949114
 31
0.0
 11
138.4447901175856
 21
357.5555957435387
 31
0.0
 11
137.8063693103221
 21
357.5358847350375
 31
0.0
 11
137.1676781659903
 21
357.5293755591293
 31
0.0
 11
136.5289870040271
 21
357.5358872352098
 31
0.0
 11
135.89056623078
 21
357.5556007419215
 31
0.0
 11
135.2709833852293
 21
357.5877487196333
 31
0.0
 11
134.6522587118562
 21
357.6334744530062
 31
0.0
 11
134.0705383486343
 21
357.689879651988
 31
0.0
 11
133.4903809565675
 21
357.7606305390787
 31
0.0
 11
132.9640006450725
 21
357.8390537194142
 31
0.0
 11
132.4402360325698
 21
357.9332054268075
 31
0.0
 11
131.9849598029606
 21
358.0308057564436
 31
0.0
 11
131.5337320619799
 21
358.1459555155558
 31
0.0
 11
131.1624341971051
 21
358.2585694549399
 31
0.0
 11
130.7984127092311
 21
358.3924165015342
 31
0.0
 11
130.5216383054699
 21
358.5167888725653
 31
0.0
 11
130.2566202807673
 21
358.6650997923988
 31
0.0
 11
130.076978492033
 21
358.7941802631989
 31
0.0
 11
129.9248168653664
 21
358.955720044341
 31
0.0
 11
129.8449750374459
 21
359.0991930030164
 31
0.0
 11
129.8130841419054
 21
359.2554469080666
 31
0.0
 11
129.844975151003
 21
359.4117006272974
 31
0.0
 11
129.9248170526472
 21
359.5551733344903
 31
0.0
 11
130.0769787649925
 21
359.7167125223819
 31
0.0
 11
130.2566206496382
 21
359.8457922878142
 31
0.0
 11
130.5216388010177
 21
359.9941021852491
 31
0.0
 11
130.7984132484844
 21
360.1184734582018
 31
0.0
 11
131.1624348436214
 21
360.2523190887513
 31
0.0
 11
131.5337327552307
 21
360.3649315662743
 31
0.0
 11
131.9849605955063
 21
360.4800795657784
 31
0.0
 11
132.4402368587539
 21
360.5776781071317
 31
0.0
 11
132.964001554077
 21
360.6718277686192
 31
0.0
 11
133.4903818905817
 21
360.7502488847848
 31
0.0
 11
134.0705393500385
 21
360.8209975038158
 31
0.0
 11
134.6522597253209
 21
360.8774004234797
 31
0.0
 11
135.2709844493687
 21
360.9231237366826
 31
0.0
 11
135.8905672929018
 21
360.9552692880553
 31
0.0
 11
136.5289881001652
 21
360.9749802965564
 31
0.0
 11
137.167679244497
 21
360.9814894724646
 31
0.0
 11
137.8063704064603
 21
360.9749777963841
 31
0.0
 11
138.4447911797074
 21
360.9552642896724
 31
0.0
 11
139.0643740252581
 21
360.9231163119607
 31
0.0
 11
139.6830986986311
 21
360.8773905785877
 31
0.0
 11
140.264819061853
 21
360.820985379606
 31
0.0
 11
140.8449764539197
 21
360.7502344925154
 31
0.0
 11
141.3713567654148
 21
360.67181131218
 31
0.0
 11
141.8951213779175
 21
360.5776596047866
 31
0.0
 11
142.3503976075266
 21
360.4800592751503
 31
0.0
 11
142.8016253485073
 21
360.364909516038
 31
0.0
 11
143.172923213382
 21
360.252295576654
 31
0.0
 11
143.5369447012561
 21
360.1184485300598
 31
0.0
 11
143.8137191050175
 21
359.9940761590289
 31
0.0
 11
144.0787371297201
 21
359.8457652391953
 31
0.0
 11
144.2583789184542
 21
359.7166847683951
 31
0.0
 11
144.4105405451207
 21
359.555144987253
 31
0.0
 11
144.4903823730413
 21
359.4116720285776
 31
0.0
 11
144.5222732685818
 21
359.2554181235274
 31
0.0
  0
SPLINE
  5
14C
330
4D
100
AcDbEntity
  8
1
  6
Continuous
 62
     7
100
AcDbSpline
210
0.0
220
0.0
230
1.0
 70
     8
 71
     3
 72
    41
 73
    37
 74
    35
 42
0.000000001
 43
0.0000000001
 44
0.00000001
 40
0.0
 40
0.0
 40
0.0
 40
0.0
 40
0.0644335182603278
 40
0.1293606659702222
 40
0.2822272778834152
 40
0.4323340912635631
 40
0.5818058239726713
 40
0.7349943354921873
 40
0.9423723853293954
 40
1.149370876732199
 40
1.433428811271244
 40
1.717128449886467
 40
2.079788755497757
 40
2.442650837754103
 40
3.375295991996293
 40
4.308671666071755
 40
5.435565185057724
 40
6.561964175868551
 40
7.159222107473775
 40
7.756561388718513
 40
8.934147350505805
 40
10.11139878333664
 40
11.15476974329211
 40
12.19957616522867
 40
12.99896099124911
 40
13.79583480129605
 40
14.07952549063984
 40
14.36356799232943
 40
14.57055887671818
 40
14.77795394283997
 40
14.93114720508196
 40
15.08061273819171
 40
15.2307175007663
 40
15.38358590711745
 40
15.44851313866414
 40
15.51294636543859
 40
15.51294636543859
 40
15.51294636543859
 40
15.51294636543859
 10
143.8869641701978
 20
359.9738593165768
 30
0.0
 10
143.9017945682303
 20
359.9583207804964
 30
0.0
 10
143.9315689778869
 20
359.9271246638256
 30
0.0
 10
143.9925005959767
 20
359.8553324121048
 30
0.0
 10
144.0546901421295
 20
359.7479937627655
 30
0.0
 10
144.088467872654
 20
359.5968552520598
 30
0.0
 10
144.0535158403877
 20
359.445897379422
 30
0.0
 10
143.9678472767
 20
359.2974190938459
 30
0.0
 10
143.8346558366419
 20
359.1601818518058
 30
0.0
 10
143.6426195453939
 20
359.0275563701465
 30
0.0
 10
143.4164263243103
 20
358.9021387454517
 30
0.0
 10
143.1326453968599
 20
358.7763111435414
 30
0.0
 10
142.8162465148928
 20
358.6612838918428
 30
0.0
 10
142.2866788821659
 20
358.502389124473
 30
0.0
 10
141.5614718715186
 20
358.3364923274063
 30
0.0
 10
140.5754171787365
 20
358.182142076465
 30
0.0
 10
139.5188814894492
 20
358.0683981822324
 30
0.0
 10
138.5701594037529
 20
358.0104199897598
 30
0.0
 10
137.796812497856
 20
357.9867194780683
 30
0.0
 10
137.0060818658993
 20
357.9786507436947
 30
0.0
 10
136.021910877322
 20
357.9975203333067
 30
0.0
 10
134.8909920593009
 20
358.0679278861631
 30
0.0
 10
133.8083182059718
 20
358.1839226864637
 30
0.0
 10
132.8574753289906
 20
358.3366174275093
 30
0.0
 10
131.9966906836721
 20
358.5237366502415
 30
0.0
 10
131.3988001093882
 20
358.7178118533631
 30
0.0
 10
130.9827391635279
 20
358.9025050588273
 30
0.0
 10
130.7563407312241
 20
359.027542141579
 30
0.0
 10
130.5642874389848
 20
359.16016136861
 30
0.0
 10
130.4311423488097
 20
359.2974480715952
 30
0.0
 10
130.3454731254413
 20
359.4459276136093
 30
0.0
 10
130.3105132817719
 20
359.5968833361274
 30
0.0
 10
130.3442924678716
 20
359.7480200309403
 30
0.0
 10
130.4064816773931
 20
359.8553584800766
 30
0.0
 10
130.4674137190001
 20
359.9271511180134
 30
0.0
 10
130.4971881894544
 20
359.9583470776243
 30
0.0
 10
130.5120185744851
 20
359.9738854901232
 30
0.0
 11
143.8869641701978
 21
359.9738593165768
 31
0.0
 11
143.9309973806525
 21
359.9268193768836
 31
0.0
 11
143.9726079204895
 21
359.8769786564001
 31
0.0
 11
144.0478769321633
 21
359.7439268772429
 31
0.0
 11
144.0770940736343
 21
359.5966909661441
 31
0.0
 11
144.0471024010689
 21
359.4502590773028
 31
0.0
 11
143.9726077453552
 21
359.3164036848282
 31
0.0
 11
143.8303862522486
 21
359.1654775366443
 31
0.0
 11
143.6623236998636
 21
359.0446331996627
 31
0.0
 11
143.4144671148354
 21
358.9058671258052
 31
0.0
 11
143.1556697608711
 21
358.7896371193175
 31
0.0
 11
142.8152471942943
 21
358.6645972325598
 31
0.0
 11
142.4680403519344
 21
358.5591633706589
 31
0.0
 11
141.5598006477999
 21
358.3472019994797
 31
0.0
 11
140.6382922273519
 21
358.1988363052816
 31
0.0
 11
139.5180006792423
 21
358.0770338075568
 31
0.0
 11
138.3937739541472
 21
358.007112765477
 31
0.0
 11
137.7967982569047
 21
357.9887538297513
 31
0.0
 11
137.1994907502275
 21
357.9825931250457
 31
0.0
 11
136.0221366425121
 21
358.00595947138
 31
0.0
 11
134.8472120787042
 21
358.0799405504992
 31
0.0
 11
133.8099761405412
 21
358.1929209338523
 31
0.0
 11
132.7786529917261
 21
358.3602320842664
 31
0.0
 11
131.9990299596836
 21
358.5368787017512
 31
0.0
 11
131.2433122438631
 21
358.7896604307124
 31
0.0
 11
130.9846415537212
 21
358.9061502635674
 31
0.0
 11
130.7366584642026
 21
359.0446584940087
 31
0.0
 11
130.5685752144748
 21
359.1654610073626
 31
0.0
 11
130.4263745885241
 21
359.3164301935686
 31
0.0
 11
130.3518835287244
 21
359.4502930239926
 31
0.0
 11
130.3218884353792
 21
359.5967178838246
 31
0.0
 11
130.351104812446
 21
359.7439518558161
 31
0.0
 11
130.4263747636587
 21
359.8770051651406
 31
0.0
 11
130.4679854173645
 21
359.9268458997716
 31
0.0
 11
130.5120185744851
 21
359.9738854901232
 31
0.0
  0
SPLINE
  5
14D
330
4D
100
AcDbEntity
  8
1
  6
Continuous
 62
     7
100
AcDbSpline
210
0.0
220
0.0
230
1.0
 70
     8
 71
     3
 72
    11
 73
     7
 74
     5
 42
0.000000001
 43
0.0000000001
 44
0.00000001
 40
0.0
 40
0.0
 40
0.0
 40
0.0
 40
0.3602330028229854
 40
0.7111323309258213
 40
1.044072902180208
 40
1.351911466696358
 40
1.351911466696358
 40
1.351911466696358
 40
1.351911466696358
 10
132.8428322335374
 20
359.3920784765621
 30
0.0
 10
132.9630012371358
 20
359.3884310013758
 30
0.0
 10
133.2002256519351
 20
359.3812305425877
 30
0.0
 10
133.5439213062011
 20
359.3216288591126
 30
0.0
 10
133.8638161940617
 20
359.2328913628756
 30
0.0
 10
134.0562784175717
 20
359.13936128764
 30
0.0
 10
134.1487397500406
 20
359.0944282260226
 30
0.0
 11
132.8428322335374
 21
359.3920784765621
 31
0.0
 11
133.2025364263517
 21
359.3725666854002
 31
0.0
 11
133.5486432561212
 21
359.3147704771652
 31
0.0
 11
133.8680692474183
 21
359.2208744649103
 31
0.0
 11
134.1487397500406
 21
359.0944282260226
 31
0.0
  0
SPLINE
  5
14E
330
4D
100
AcDbEntity
  8
1
  6
Continuous
 62
     7
100
AcDbSpline
210
0.0
220
0.0
230
1.0
 70
     8
 71
     3
 72
    15
 73
    11
 74
     9
 42
0.000000001
 43
0.0000000001
 44
0.00000001
 40
0.0
 40
0.0
 40
0.0
 40
0.0
 40
0.1265641859666672
 40
0.2391063583547792
 40
0.3400392656527592
 40
0.4345935996479391
 40
0.530011103485674
 40
0.6332378995751066
 40
0.7488707875300475
 40
0.8787132636803465
 40
0.8787132636803465
 40
0.8787132636803465
 40
0.8787132636803465
 10
134.1487397500406
 20
359.0944282260226
 30
0.0
 10
134.1839009710124
 20
359.0708802845692
 30
0.0
 10
134.2503279025598
 20
359.0263932615434
 30
0.0
 10
134.3267389743825
 20
358.9408631463726
 30
0.0
 10
134.3739328492675
 20
358.8480596989388
 30
0.0
 10
134.3874863665799
 20
358.7500130829947
 30
0.0
 10
134.3659917671766
 20
358.6526839541061
 30
0.0
 10
134.3116665782131
 20
358.5615693364529
 30
0.0
 10
134.2288840875165
 20
358.4782269594659
 30
0.0
 10
134.1589407807527
 20
358.4353256830261
 30
0.0
 10
134.1219447541067
 20
358.4126333588978
 30
0.0
 11
134.1487397500406
 21
359.0944282260226
 31
0.0
 11
134.2506660207956
 21
359.0193980348885
 31
0.0
 11
134.3251055320046
 21
358.9349912805645
 31
0.0
 11
134.3693537639339
 21
358.8442744348981
 31
0.0
 11
134.381803308101
 21
358.7505432701302
 31
0.0
 11
134.3620017326662
 21
358.6572030431497
 31
0.0
 11
134.3106685689206
 21
358.5676448046829
 31
0.0
 11
134.22966862334
 21
358.4851222378879
 31
0.0
 11
134.1219447541067
 21
358.4126333588978
 31
0.0
  0
SPLINE
  5
14F
330
4D
100
AcDbEntity
  8
1
  6
Continuous
 62
     7
100
AcDbSpline
210
0.0
220
0.0
230
1.0
 70
     8
 71
     3
 72
    15
 73
    11
 74
     9
 42
0.000000001
 43
0.0000000001
 44
0.00000001
 40
0.0
 40
0.0
 40
0.0
 40
0.0
 40
0.1298426739513503
 40
0.2454757520306001
 40
0.3487026945978072
 40
0.444120262144524
 40
0.5386745555498835
 40
0.6396073320464466
 40
0.7521493208118389
 40
0.8787133080445186
 40
0.8787133080445186
 40
0.8787133080445186
 40
0.8787133080445186
 10
140.2770370150502
 20
358.4126213139447
 30
0.0
 10
140.240041001315
 20
358.4353137841502
 30
0.0
 10
140.1700977149794
 20
358.4782153391995
 30
0.0
 10
140.0873152924555
 20
358.5615580261421
 30
0.0
 10
140.0329901682373
 20
358.6526728295859
 30
0.0
 10
140.011495615957
 20
358.7500020216917
 30
0.0
 10
140.0250491767568
 20
358.8480485987957
 30
0.0
 10
140.072243113338
 20
358.9408518899128
 30
0.0
 10
140.1486542544783
 20
359.0263817232568
 30
0.0
 10
140.2150812102943
 20
359.0708684831093
 30
0.0
 10
140.2502424451277
 20
359.0944162859393
 30
0.0
 11
140.2770370150502
 21
358.4126213139447
 31
0.0
 11
140.1693131911108
 21
358.4851106145463
 31
0.0
 11
140.0883132970936
 21
358.5676334983602
 31
0.0
 11
140.0369801893075
 21
358.6571919377354
 31
0.0
 11
140.0171786721953
 21
358.7505322422154
 31
0.0
 11
140.0296282749292
 21
358.8442633582582
 31
0.0
 11
140.0738765635418
 21
358.9349800307449
 31
0.0
 11
140.1483161274913
 21
359.019386493726
 31
0.0
 11
140.2502424451277
 21
359.0944162859393
 31
0.0
  0
SPLINE
  5
150
330
4D
100
AcDbEntity
  8
1
  6
Continuous
 62
     7
100
AcDbSpline
210
0.0
220
0.0
230
1.0
 70
     8
 71
     3
 72
    11
 73
     7
 74
     5
 42
0.000000001
 43
0.0000000001
 44
0.00000001
 40
0.0
 40
0.0
 40
0.0
 40
0.0
 40
0.3078381853416486
 40
0.6407784603114559
 40
0.9916776009221717
 40
1.351910539667779
 40
1.351910539667779
 40
1.351910539667779
 40
1.351910539667779
 10
140.2502424451277
 20
359.0944162859393
 30
0.0
 10
140.342703812656
 20
359.1393489875843
 30
0.0
 10
140.5351661433268
 20
359.2328783301336
 30
0.0
 10
140.8550610882139
 20
359.3216145643188
 30
0.0
 10
141.1987567912468
 20
359.3812148962328
 30
0.0
 10
141.4359811508428
 20
359.3884144221334
 30
0.0
 10
141.5561501476127
 20
359.3920614253952
 30
0.0
 11
140.2502424451277
 21
359.0944162859393
 31
0.0
 11
140.5309130267582
 21
359.2208614263337
 31
0.0
 11
140.8503390767247
 21
359.3147561884137
 31
0.0
 11
141.1964459426072
 21
359.3725510420497
 31
0.0
 11
141.5561501476127
 21
359.3920614253952
 31
0.0
  0
SPLINE
  5
151
330
4D
100
AcDbEntity
  8
1
  6
Continuous
 62
     7
100
AcDbSpline
210
0.0
220
0.0
230
1.0
 70
     8
 71
     3
 72
    11
 73
     7
 74
     5
 42
0.000000001
 43
0.0000000001
 44
0.00000001
 40
0.0
 40
0.0
 40
0.0
 40
0.0
 40
0.3078381853415683
 40
0.6407784603113756
 40
0.9916776009219885
 40
1.351910539667479
 40
1.351910539667479
 40
1.351910539667479
 40
1.351910539667479
 10
134.1487400638857
 20
360.0989925640293
 30
0.0
 10
134.0562786963575
 20
360.0540598623842
 30
0.0
 10
133.8638163656867
 20
359.9605305198348
 30
0.0
 10
133.5439214207997
 20
359.8717942856498
 30
0.0
 10
133.2002257177668
 20
359.8121939537358
 30
0.0
 10
132.9630013581709
 20
359.8049944278353
 30
0.0
 10
132.842832361401
 20
359.8013474245735
 30
0.0
 11
134.1487400638857
 21
360.0989925640293
 31
0.0
 11
133.8680694822554
 21
359.9725474236348
 31
0.0
 11
133.5486434322888
 21
359.8786526615548
 31
0.0
 11
133.2025365664064
 21
359.820857807919
 31
0.0
 11
132.842832361401
 21
359.8013474245735
 31
0.0
  0
SPLINE
  5
152
330
4D
100
AcDbEntity
  8
1
  6
Continuous
 62
     7
100
AcDbSpline
210
0.0
220
0.0
230
1.0
 70
     8
 71
     3
 72
    15
 73
    11
 74
     9
 42
0.000000001
 43
0.0000000001
 44
0.00000001
 40
0.0
 40
0.0
 40
0.0
 40
0.0
 40
0.129842673951295
 40
0.2454757520306252
 40
0.3487026945980789
 40
0.4441202621447283
 40
0.5386745555499075
 40
0.639607332046483
 40
0.7521493208120784
 40
0.8787133080448052
 40
0.8787133080448052
 40
0.8787133080448052
 40
0.8787133080448052
 10
134.1219454939634
 20
360.780787536024
 30
0.0
 10
134.1589415076986
 20
360.7580950658185
 30
0.0
 10
134.2288847940341
 20
360.7151935107692
 30
0.0
 10
134.3116672165583
 20
360.6318508238267
 30
0.0
 10
134.3659923407762
 20
360.5407360203825
 30
0.0
 10
134.3874868930566
 20
360.4434068282767
 30
0.0
 10
134.3739333322569
 20
360.345360251173
 30
0.0
 10
134.3267393956755
 20
360.2525569600556
 30
0.0
 10
134.2503282545354
 20
360.1670271267118
 30
0.0
 10
134.1839012987191
 20
360.1225403668594
 30
0.0
 10
134.1487400638857
 20
360.0989925640293
 30
0.0
 11
134.1219454939634
 21
360.780787536024
 31
0.0
 11
134.2296693179028
 21
360.7082982354225
 31
0.0
 11
134.31066921192
 21
360.6257753516085
 31
0.0
 11
134.3620023197062
 21
360.536216912233
 31
0.0
 11
134.3818038368183
 21
360.4428766077531
 31
0.0
 11
134.3693542340845
 21
360.3491454917105
 31
0.0
 11
134.3251059454718
 21
360.2584288192238
 31
0.0
 11
134.2506663815223
 21
360.1740223562425
 31
0.0
 11
134.1487400638857
 21
360.0989925640293
 31
0.0
  0
SPLINE
  5
153
330
4D
100
AcDbEntity
  8
1
  6
Continuous
 62
     7
100
AcDbSpline
210
0.0
220
0.0
230
1.0
 70
     8
 71
     3
 72
    11
 73
     7
 74
     5
 42
0.000000001
 43
0.0000000001
 44
0.00000001
 40
0.0
 40
0.0
 40
0.0
 40
0.0
 40
0.3602330028229601
 40
0.7111323309258334
 40
1.04407290218022
 40
1.35191146669637
 40
1.35191146669637
 40
1.35191146669637
 40
1.35191146669637
 10
141.5561502754762
 20
359.8013303734065
 30
0.0
 10
141.4359812718779
 20
359.8049778485929
 30
0.0
 10
141.1987568570785
 20
359.8121783073809
 30
0.0
 10
140.8550612028125
 20
359.8717799908561
 30
0.0
 10
140.535166314952
 20
359.9605174870932
 30
0.0
 10
140.3427040914419
 20
360.0540475623286
 30
0.0
 10
140.250242758973
 20
360.0989806239461
 30
0.0
 11
141.5561502754762
 21
359.8013303734065
 31
0.0
 11
141.196446082662
 21
359.8208421645685
 31
0.0
 11
140.8503392528924
 21
359.8786383728035
 31
0.0
 11
140.5309132615953
 21
359.9725343850585
 31
0.0
 11
140.250242758973
 21
360.0989806239461
 31
0.0
  0
SPLINE
  5
154
330
4D
100
AcDbEntity
  8
1
  6
Continuous
 62
     7
100
AcDbSpline
210
0.0
220
0.0
230
1.0
 70
     8
 71
     3
 72
    15
 73
    11
 74
     9
 42
0.000000001
 43
0.0000000001
 44
0.00000001
 40
0.0
 40
0.0
 40
0.0
 40
0.0
 40
0.1265641859666106
 40
0.2391063583548217
 40
0.3400392656527381
 40
0.4345935996479706
 40
0.530011103485644
 40
0.6332378995750624
 40
0.7488707875300034
 40
0.8787132636804129
 40
0.8787132636804129
 40
0.8787132636804129
 40
0.8787132636804129
 10
140.250242758973
 20
360.0989806239461
 30
0.0
 10
140.2150815380013
 20
360.1225285653995
 30
0.0
 10
140.1486546064538
 20
360.1670155884252
 30
0.0
 10
140.072243534631
 20
360.252545703596
 30
0.0
 10
140.0250496597461
 20
360.34534915103
 30
0.0
 10
140.0114961424337
 20
360.4433957669739
 30
0.0
 10
140.032990741837
 20
360.5407248958625
 30
0.0
 10
140.0873159308004
 20
360.6318395135158
 30
0.0
 10
140.1700984214971
 20
360.7151818905029
 30
0.0
 10
140.2400417282609
 20
360.7580831669426
 30
0.0
 10
140.2770377549069
 20
360.780775491071
 30
0.0
 11
140.250242758973
 21
360.0989806239461
 31
0.0
 11
140.148316488218
 21
360.1740108150802
 31
0.0
 11
140.0738769770089
 21
360.2584175694042
 31
0.0
 11
140.0296287450797
 21
360.3491344150705
 31
0.0
 11
140.0171792009126
 21
360.4428655798386
 31
0.0
 11
140.0369807763473
 21
360.5362058068189
 31
0.0
 11
140.088313940093
 21
360.6257640452857
 31
0.0
 11
140.1693138856735
 21
360.7082866120808
 31
0.0
 11
140.2770377549069
 21
360.780775491071
 31
0.0
  0
SPLINE
  5
155
330
4D
100
AcDbEntity
  8
0
  6
Continuous
 62
     7
100
AcDbSpline
210
0.0
220
0.0
230
1.0
 70
     8
 71
     3
 72
    45
 73
    41
 74
    39
 42
0.000000001
 43
0.0000000001
 44
0.00000001
 40
0.0
 40
0.0
 40
0.0
 40
0.0
 40
0.3391266335801312
 40
0.6789395622653592
 40
1.358291844816994
 40
2.037634648314428
 40
2.718656131636962
 40
3.399660024088477
 40
4.083227886832583
 40
4.76677250387189
 40
5.453449352744753
 40
6.140100382921307
 40
6.830069204744227
 40
7.52001284104507
 40
8.213059852962568
 40
8.90608522314359
 40
9.60163034726323
 40
10.29715970568776
 40
10.99432885453019
 40
11.69148971570576
 40
12.38921917765497
 40
13.08694863960413
 40
13.7841095007797
 40
14.4812786496222
 40
15.17680800804675
 40
15.87235313216643
 40
16.56537850234745
 40
17.25842551426497
 40
17.94836915056584
 40
18.63833797238881
 40
19.32498900256525
 40
20.01166585143813
 40
20.69521046847736
 40
21.37877833122148
 40
22.059782223673
 40
22.74080370699552
 40
23.42014651049306
 40
24.09949879304471
 40
24.43931172172994
 40
24.77843835531007
 40
24.77843835531007
 40
24.77843835531007
 40
24.77843835531007
 10
145.199491147887
 20
561.4097278463836
 30
0.0
 10
145.1980151172749
 20
561.5227810420572
 30
0.0
 10
145.1950600569648
 20
561.7491162203758
 30
0.0
 10
145.163459138044
 20
562.2009712505491
 30
0.0
 10
145.0880472242385
 20
562.7628660335631
 30
0.0
 10
144.9362530297971
 20
563.4265569785694
 30
0.0
 10
144.7262128525304
 20
564.0747295942025
 30
0.0
 10
144.4583038548613
 20
564.7027390060329
 30
0.0
 10
144.1356822459007
 20
565.3054219706638
 30
0.0
 10
143.7597068188936
 20
565.8785988621706
 30
0.0
 10
143.3344157966151
 20
566.4175077872535
 30
0.0
 10
142.8618567822957
 20
566.9184203898069
 30
0.0
 10
142.3468696424331
 20
567.3772353955876
 30
0.0
 10
141.7921506866103
 20
567.7906852706043
 30
0.0
 10
141.203129246211
 20
568.1555351819923
 30
0.0
 10
140.5831507816841
 20
568.4690102720025
 30
0.0
 10
139.9379700138778
 20
568.7288751098247
 30
0.0
 10
139.271584702721
 20
568.9329159449522
 30
0.0
 10
138.5897973662012
 20
569.0799451079547
 30
0.0
 10
137.8972346594209
 20
569.1684158369262
 30
0.0
 10
137.1994911478871
 20
569.1981563244576
 30
0.0
 10
136.5017476363531
 20
569.168415836926
 30
0.0
 10
135.809184929573
 20
569.0799451079547
 30
0.0
 10
135.127397593053
 20
568.9329159449527
 30
0.0
 10
134.4610122818962
 20
568.7288751098247
 30
0.0
 10
133.8158315140899
 20
568.4690102720025
 30
0.0
 10
133.195853049563
 20
568.1555351819921
 30
0.0
 10
132.6068316091636
 20
567.7906852706043
 30
0.0
 10
132.0521126533407
 20
567.3772353955876
 30
0.0
 10
131.5371255134783
 20
566.9184203898067
 30
0.0
 10
131.0645664991588
 20
566.4175077872536
 30
0.0
 10
130.6392754768804
 20
565.8785988621703
 30
0.0
 10
130.2633000498733
 20
565.305421970664
 30
0.0
 10
129.9406784409126
 20
564.7027390060329
 30
0.0
 10
129.6727694432435
 20
564.0747295942026
 30
0.0
 10
129.4627292659769
 20
563.4265569785694
 30
0.0
 10
129.3109350715355
 20
562.7628660335633
 30
0.0
 10
129.2355231577299
 20
562.2009712505492
 30
0.0
 10
129.203922238809
 20
561.7491162203758
 30
0.0
 10
129.200967178499
 20
561.5227810420572
 30
0.0
 10
129.199491147887
 20
561.4097278463836
 30
0.0
 11
145.199491147887
 21
561.4097278463836
 31
0.0
 11
145.191859388818
 21
561.7487686020959
 31
0.0
 11
145.1689641116109
 21
562.087809357808
 31
0.0
 11
145.0778495423169
 21
562.7610237817914
 31
0.0
 11
144.9267185639195
 21
563.4233424911014
 31
0.0
 11
144.7166504062537
 21
564.0711554504577
 31
0.0
 11
144.4496155426149
 21
564.6976206797202
 31
0.0
 11
144.1269482068028
 21
565.3002406376298
 31
0.0
 11
143.7521981860816
 21
565.8719010838083
 31
0.0
 11
143.3267658223019
 21
566.4109116578098
 31
0.0
 11
142.855708915408
 21
566.9105065216352
 31
0.0
 11
142.3405162901072
 21
567.3694548130247
 31
0.0
 11
141.7874294962895
 21
567.7819075012433
 31
0.0
 11
141.1982342316867
 21
568.1468226984302
 31
0.0
 11
140.5798412998537
 21
568.4596714571171
 31
0.0
 11
139.9346473631302
 21
568.7194940965071
 31
0.0
 11
139.2696337112312
 21
568.9232535906534
 31
0.0
 11
138.5881188256036
 21
569.0701626884033
 31
0.0
 11
137.8965911300228
 21
569.1586087897031
 31
0.0
 11
137.199491147887
 21
569.1882401449465
 31
0.0
 11
136.5023911657513
 21
569.1586087897031
 31
0.0
 11
135.8108634701705
 21
569.0701626884033
 31
0.0
 11
135.1293485845428
 21
568.9232535906535
 31
0.0
 11
134.4643349326438
 21
568.7194940965072
 31
0.0
 11
133.8191409959203
 21
568.4596714571171
 31
0.0
 11
133.2007480640873
 21
568.1468226984302
 31
0.0
 11
132.6115527994845
 21
567.7819075012433
 31
0.0
 11
132.0584660056667
 21
567.3694548130247
 31
0.0
 11
131.5432733803659
 21
566.910506521635
 31
0.0
 11
131.0722164734721
 21
566.4109116578098
 31
0.0
 11
130.6467841096924
 21
565.8719010838083
 31
0.0
 11
130.2720340889712
 21
565.3002406376299
 31
0.0
 11
129.949366753159
 21
564.6976206797203
 31
0.0
 11
129.6823318895202
 21
564.0711554504578
 31
0.0
 11
129.4722637318544
 21
563.4233424911015
 31
0.0
 11
129.3211327534571
 21
562.7610237817914
 31
0.0
 11
129.2300181841629
 21
562.087809357808
 31
0.0
 11
129.2071229069559
 21
561.7487686020959
 31
0.0
 11
129.199491147887
 21
561.4097278463836
 31
0.0
  0
SPLINE
  5
156
330
4D
100
AcDbEntity
  8
0
  6
Continuous
 62
     7
100
AcDbSpline
210
0.0
220
0.0
230
1.0
 70
     8
 71
     3
 72
    45
 73
    41
 74
    39
 42
0.000000001
 43
0.0000000001
 44
0.00000001
 40
0.0
 40
0.0
 40
0.0
 40
0.0
 40
0.3391266335801312
 40
0.678939562265416
 40
1.358291844817051
 40
2.037634648314651
 40
2.718656131637184
 40
3.399660024088544
 40
4.0832278868327
 40
4.766772503872054
 40
5.453449352744873
 40
6.140100382921344
 40
6.830069204744301
 40
7.520012841045043
 40
8.2130598529626
 40
8.906085223143698
 40
9.60163034726336
 40
10.29715970568784
 40
10.99432885453027
 40
11.69148971570582
 40
12.38921917765504
 40
13.0869486396042
 40
13.78410950077974
 40
14.48127864962228
 40
15.1768080080468
 40
15.87235313216644
 40
16.56537850234751
 40
17.25842551426512
 40
17.94836915056589
 40
18.63833797238883
 40
19.32498900256521
 40
20.0116658514381
 40
20.69521046847756
 40
21.37877833122163
 40
22.05978222367305
 40
22.74080370699551
 40
23.42014651049305
 40
24.09949879304476
 40
24.43931172172999
 40
24.77843835531018
 40
24.77843835531018
 40
24.77843835531018
 40
24.77843835531018
 10
145.199491147887
 20
446.654357157867
 30
0.0
 10
145.198015117275
 20
446.5413039621934
 30
0.0
 10
145.1950600569648
 20
446.3149687838747
 30
0.0
 10
145.163459138044
 20
445.8631137537016
 30
0.0
 10
145.0880472242386
 20
445.3012189706874
 30
0.0
 10
144.9362530297971
 20
444.6375280256811
 30
0.0
 10
144.7262128525305
 20
443.989355410048
 30
0.0
 10
144.4583038548612
 20
443.3613459982176
 30
0.0
 10
144.1356822459007
 20
442.7586630335868
 30
0.0
 10
143.7597068188936
 20
442.1854861420798
 30
0.0
 10
143.3344157966151
 20
441.6465772169971
 30
0.0
 10
142.8618567822957
 20
441.1456646144437
 30
0.0
 10
142.3468696424332
 20
440.686849608663
 30
0.0
 10
141.7921506866103
 20
440.2733997336465
 30
0.0
 10
141.203129246211
 20
439.9085498222585
 30
0.0
 10
140.5831507816841
 20
439.5950747322478
 30
0.0
 10
139.9379700138778
 20
439.3352098944258
 30
0.0
 10
139.271584702721
 20
439.1311690592982
 30
0.0
 10
138.5897973662011
 20
438.9841398962958
 30
0.0
 10
137.8972346594209
 20
438.8956691673246
 30
0.0
 10
137.1994911478871
 20
438.8659286797932
 30
0.0
 10
136.5017476363532
 20
438.8956691673246
 30
0.0
 10
135.8091849295728
 20
438.9841398962956
 30
0.0
 10
135.127397593053
 20
439.1311690592983
 30
0.0
 10
134.4610122818962
 20
439.3352098944258
 30
0.0
 10
133.8158315140899
 20
439.595074732248
 30
0.0
 10
133.195853049563
 20
439.9085498222584
 30
0.0
 10
132.6068316091637
 20
440.2733997336464
 30
0.0
 10
132.0521126533407
 20
440.686849608663
 30
0.0
 10
131.5371255134782
 20
441.1456646144436
 30
0.0
 10
131.0645664991589
 20
441.646577216997
 30
0.0
 10
130.6392754768803
 20
442.1854861420799
 30
0.0
 10
130.2633000498734
 20
442.7586630335868
 30
0.0
 10
129.9406784409126
 20
443.3613459982178
 30
0.0
 10
129.6727694432434
 20
443.9893554100478
 30
0.0
 10
129.4627292659768
 20
444.6375280256813
 30
0.0
 10
129.3109350715355
 20
445.3012189706872
 30
0.0
 10
129.2355231577298
 20
445.8631137537014
 30
0.0
 10
129.2039222388091
 20
446.3149687838748
 30
0.0
 10
129.200967178499
 20
446.5413039621931
 30
0.0
 10
129.199491147887
 20
446.654357157867
 30
0.0
 11
145.199491147887
 21
446.654357157867
 31
0.0
 11
145.191859388818
 21
446.3153164021547
 31
0.0
 11
145.1689641116109
 21
445.9762756464424
 31
0.0
 11
145.0778495423169
 21
445.3030612224592
 31
0.0
 11
144.9267185639195
 21
444.640742513149
 31
0.0
 11
144.7166504062537
 21
443.9929295537927
 31
0.0
 11
144.4496155426149
 21
443.3664643245303
 31
0.0
 11
144.1269482068028
 21
442.7638443666207
 31
0.0
 11
143.7521981860816
 21
442.1921839204422
 31
0.0
 11
143.3267658223019
 21
441.6531733464407
 31
0.0
 11
142.855708915408
 21
441.1535784826154
 31
0.0
 11
142.3405162901072
 21
440.6946301912259
 31
0.0
 11
141.7874294962895
 21
440.2821775030075
 31
0.0
 11
141.1982342316867
 21
439.9172623058204
 31
0.0
 11
140.5798412998537
 21
439.6044135471334
 31
0.0
 11
139.9346473631302
 21
439.3445909077433
 31
0.0
 11
139.2696337112312
 21
439.1408314135971
 31
0.0
 11
138.5881188256036
 21
438.9939223158473
 31
0.0
 11
137.8965911300228
 21
438.9054762145475
 31
0.0
 11
137.199491147887
 21
438.8758448593042
 31
0.0
 11
136.5023911657513
 21
438.9054762145475
 31
0.0
 11
135.8108634701705
 21
438.9939223158472
 31
0.0
 11
135.1293485845428
 21
439.1408314135971
 31
0.0
 11
134.4643349326438
 21
439.3445909077434
 31
0.0
 11
133.8191409959203
 21
439.6044135471334
 31
0.0
 11
133.2007480640873
 21
439.9172623058204
 31
0.0
 11
132.6115527994845
 21
440.2821775030075
 31
0.0
 11
132.0584660056667
 21
440.6946301912259
 31
0.0
 11
131.5432733803659
 21
441.1535784826154
 31
0.0
 11
131.0722164734721
 21
441.6531733464407
 31
0.0
 11
130.6467841096924
 21
442.1921839204422
 31
0.0
 11
130.2720340889712
 21
442.7638443666208
 31
0.0
 11
129.949366753159
 21
443.3664643245303
 31
0.0
 11
129.6823318895202
 21
443.9929295537928
 31
0.0
 11
129.4722637318544
 21
444.640742513149
 31
0.0
 11
129.3211327534571
 21
445.3030612224591
 31
0.0
 11
129.2300181841629
 21
445.9762756464424
 31
0.0
 11
129.2071229069559
 21
446.3153164021547
 31
0.0
 11
129.199491147887
 21
446.654357157867
 31
0.0
  0
SPLINE
  5
157
330
4D
100
AcDbEntity
  8
0
  6
Continuous
 62
     7
100
AcDbSpline
210
0.0
220
0.0
230
1.0
 70
     8
 71
     3
 72
    49
 73
    45
 74
    43
 42
0.000000001
 43
0.0000000001
 44
0.00000001
 40
0.0
 40
0.0
 40
0.0
 40
0.0
 40
0.5528824129067491
 40
1.106598023227995
 40
1.850109784256053
 40
2.593627270937333
 40
3.336783856646948
 40
4.079940442397021
 40
4.823457929246207
 40
5.566969690791773
 40
6.311519658357325
 40
7.056058942935945
 40
7.802186077487656
 40
8.548298975996854
 40
9.296355104201224
 40
10.04439525924942
 40
10.79449788282136
 40
11.54458475818181
 40
12.29660461707244
 40
13.04861080958396
 40
13.80218915333152
 40
14.55575746203375
 40
15.31035017081373
 40
16.06493757728039
 40
16.81988043225473
 40
17.57482328722966
 40
18.32941069369768
 40
19.08400340248004
 40
19.83757171118535
 40
20.59115005493654
 40
21.34315624745173
 40
22.09517610634536
 40
22.84526298170765
 40
23.59536560527922
 40
24.34340576032321
 40
25.09146188851791
 40
25.83757478700783
 40
26.58370192152585
 40
27.3282412060452
 40
28.07279117350604
 40
28.81630293484877
 40
29.55982042124034
 40
30.30297700549893
 40
31.04613358398691
 40
31.04613358398691
 40
31.04613358398691
 40
31.04613358398691
 10
145.1994911478863
 20
449.4038773162108
 30
0.0
 10
145.2675904856868
 20
449.2325527822958
 30
0.0
 10
145.4038917777804
 20
448.8896455236351
 30
0.0
 10
145.5834023337647
 20
448.2989823037109
 30
0.0
 10
145.7340566415207
 20
447.6348085770916
 30
0.0
 10
145.8323673621319
 20
446.8969117146689
 30
0.0
 10
145.8656324695706
 20
446.153421308469
 30
0.0
 10
145.8324093481708
 20
445.4099051016842
 30
0.0
 10
145.7338886074131
 20
444.6720856777912
 30
0.0
 10
145.5699448243068
 20
443.9455195623701
 30
0.0
 10
145.3427133707097
 20
443.2358387889061
 30
0.0
 10
145.0530294483994
 20
442.5483375557347
 30
0.0
 10
144.7040389228458
 20
441.8883709013326
 30
0.0
 10
144.2974480778571
 20
441.2608542348489
 30
0.0
 10
143.8373456404881
 20
440.6706417100395
 30
0.0
 10
143.3262446354275
 20
440.1221864886977
 30
0.0
 10
142.7690406154749
 20
439.6196288648408
 30
0.0
 10
142.1690005376759
 20
439.1668871554038
 30
0.0
 10
141.5316350451988
 20
438.767211522913
 30
0.0
 10
140.8609173091216
 20
438.4239085437317
 30
0.0
 10
140.1627435622606
 20
438.139217391976
 30
0.0
 10
139.4417377926904
 20
437.9157429658945
 30
0.0
 10
138.7039381117412
 20
437.7546572424495
 30
0.0
 10
137.9545404141812
 20
437.6577607702289
 30
0.0
 10
137.1994911468279
 20
437.6251651222038
 30
0.0
 10
136.4444418794768
 20
437.6577607702716
 30
0.0
 10
135.6950441819181
 20
437.7546572425347
 30
0.0
 10
134.9572445009858
 20
437.9157429660215
 30
0.0
 10
134.2362387313886
 20
438.1392173921487
 30
0.0
 10
133.5380649846789
 20
438.4239085439344
 30
0.0
 10
132.8673472481062
 20
438.7672115232036
 30
0.0
 10
132.2299817575655
 20
439.166887155568
 30
0.0
 10
131.6299416726717
 20
439.6196288656723
 30
0.0
 10
131.0727376793059
 20
440.1221864872373
 30
0.0
 10
130.5616365754681
 20
440.670641717297
 30
0.0
 10
130.1015345064582
 20
441.2608542097964
 30
0.0
 10
129.6949422904534
 20
441.8883709967225
 30
0.0
 10
129.3459568757148
 20
442.5483372023102
 30
0.0
 10
129.0562539188111
 20
443.2358401071526
 30
0.0
 10
128.8290934405718
 20
443.9455146473872
 30
0.0
 10
128.6648851258296
 20
444.6721039943943
 30
0.0
 10
128.5673511936832
 20
445.4098367541698
 30
0.0
 10
128.5304469337401
 20
446.1536762433257
 30
0.0
 10
128.5617779646297
 20
446.6484520240626
 30
0.0
 10
128.5774434852663
 20
446.8958399132671
 30
0.0
 11
145.1994911478863
 21
449.4038773162108
 31
0.0
 11
145.3965671897965
 21
448.8873117302795
 31
0.0
 11
145.5595027584119
 21
448.3581114096417
 31
0.0
 11
145.7229997478555
 21
447.632798736183
 31
0.0
 11
145.8215388105077
 21
446.8958399132671
 31
0.0
 11
145.8545528967838
 21
446.1534170005194
 31
0.0
 11
145.8215388105077
 21
445.4109940877719
 31
0.0
 11
145.7229997478555
 21
444.6740352648558
 31
0.0
 11
145.5595027584119
 21
443.9487225913973
 31
0.0
 11
145.3323550967814
 21
443.2396678725692
 31
0.0
 11
145.0434089638291
 21
442.5534835833237
 31
0.0
 11
144.6945361400355
 21
441.8939432479316
 31
0.0
 11
144.2889668235476
 21
441.2676861225232
 31
0.0
 11
143.828986524578
 21
440.6777657077322
 31
0.0
 11
143.3191314666087
 21
440.1303975558324
 31
0.0
 11
142.7620675768536
 21
439.6280692081244
 31
0.0
 11
142.1633975246337
 21
439.1761571708248
 31
0.0
 11
141.526240657364
 21
438.7767012972249
 31
0.0
 11
140.8568959901295
 21
438.4339316510795
 31
0.0
 11
140.1590699557256
 21
438.1494687428229
 31
0.0
 11
139.4393233257888
 21
437.9262424341674
 31
0.0
 11
138.7020783562733
 21
437.7653697784112
 31
0.0
 11
137.9537359588778
 21
437.6684893853464
 31
0.0
 11
137.199491147887
 21
437.6360320337603
 31
0.0
 11
136.4452463368962
 21
437.6684893853464
 31
0.0
 11
135.6969039395008
 21
437.7653697784112
 31
0.0
 11
134.9596589699853
 21
437.9262424341674
 31
0.0
 11
134.2399123400484
 21
438.1494687428229
 31
0.0
 11
133.5420863056444
 21
438.4339316510795
 31
0.0
 11
132.8727416384097
 21
438.776701297225
 31
0.0
 11
132.2355847711401
 21
439.1761571708248
 31
0.0
 11
131.6369147189202
 21
439.6280692081245
 31
0.0
 11
131.0798508291651
 21
440.1303975558324
 31
0.0
 11
130.5699957711959
 21
440.6777657077322
 31
0.0
 11
130.1100154722262
 21
441.2676861225233
 31
0.0
 11
129.7044461557383
 21
441.8939432479316
 31
0.0
 11
129.3555733319448
 21
442.5534835833237
 31
0.0
 11
129.0666271989925
 21
443.2396678725692
 31
0.0
 11
128.839479537362
 21
443.9487225913972
 31
0.0
 11
128.6759825479185
 21
444.6740352648559
 31
0.0
 11
128.5774434852663
 21
445.4109940877719
 31
0.0
 11
128.5444293989902
 21
446.1534170005195
 31
0.0
 11
128.5774434852663
 21
446.8958399132671
 31
0.0
  0
SPLINE
  5
158
330
4D
100
AcDbEntity
  8
0
  6
Continuous
 62
     7
100
AcDbSpline
210
0.0
220
0.0
230
1.0
 70
     8
 71
     3
 72
    11
 73
     7
 74
     5
 42
0.000000001
 43
0.0000000001
 44
0.00000001
 40
0.0
 40
0.0
 40
0.0
 40
0.0
 40
0.7435174867730991
 40
1.487029247632981
 40
2.040744858838117
 40
2.593627278853528
 40
2.593627278853528
 40
2.593627278853528
 40
2.593627278853528
 10
128.5774434852663
 20
446.8958399132671
 30
0.0
 10
128.6056265831142
 20
447.142249294202
 30
0.0
 10
128.6619925768328
 20
447.6350661563035
 30
0.0
 10
128.8161427981299
 20
448.2989328655781
 30
0.0
 10
128.9949676147701
 20
448.8896563111744
 30
0.0
 10
129.1313508612616
 20
449.2325563762237
 30
0.0
 10
129.199491147888
 20
449.4038773162114
 30
0.0
 11
128.5774434852663
 21
446.8958399132671
 31
0.0
 11
128.6759825479184
 21
447.6327987361831
 31
0.0
 11
128.839479537362
 21
448.3581114096417
 31
0.0
 11
129.0024151059775
 21
448.8873117302796
 31
0.0
 11
129.199491147888
 21
449.4038773162114
 31
0.0
  0
SPLINE
  5
159
330
4D
100
AcDbEntity
  8
0
  6
Continuous
 62
     7
100
AcDbSpline
210
0.0
220
0.0
230
1.0
 70
     8
 71
     3
 72
    45
 73
    41
 74
    39
 42
0.000000001
 43
0.0000000001
 44
0.00000001
 40
0.0
 40
0.0
 40
0.0
 40
0.0
 40
0.0785631457506936
 40
0.1612261771173376
 40
0.3632782326633179
 40
0.5602921457226009
 40
0.8405951616853445
 40
1.119126726198095
 40
1.490861758116326
 40
1.862492978285254
 40
2.324211674288285
 40
2.785712530738213
 40
3.326804569741431
 40
3.867846747564366
 40
4.474291013319186
 40
5.080697575243335
 40
5.73560642122108
 40
6.390498752024462
 40
7.075201538934698
 40
7.759896795078578
 40
8.45464603319361
 40
9.149395271202007
 40
9.834090527049142
 40
10.5187933135179
 40
11.17368564381767
 40
11.82859448926297
 40
12.43500105070217
 40
13.04144531600041
 40
13.58248749344817
 40
14.12357953210822
 40
14.58508038828891
 40
15.04679908403972
 40
15.4184303040148
 40
15.79016533574003
 40
16.06869690010269
 40
16.34899991586768
 40
16.54601382875445
 40
16.74806588435441
 40
16.90831626624262
 40
17.06856664749628
 40
17.06856664749628
 40
17.06856664749628
 40
17.06856664749628
 10
129.1994911478868
 20
364.2603858305681
 30
0.0
 10
129.2012574123631
 20
364.2866629140252
 30
0.0
 10
129.2048821007382
 20
364.3405883749338
 30
0.0
 10
129.2490244744125
 20
364.4545433448122
 30
0.0
 10
129.3343225211481
 20
364.5928903181749
 30
0.0
 10
129.5045717312187
 20
364.7453954463726
 30
0.0
 10
129.7199351330636
 20
364.8773546633025
 30
0.0
 10
129.996998163863
 20
365.0173728758281
 30
0.0
 10
130.3140203593874
 20
365.1431618700322
 30
0.0
 10
130.6953697355263
 20
365.2697735043976
 30
0.0
 10
131.1119782464233
 20
365.3833700169951
 30
0.0
 10
131.5875096957441
 20
365.4937981231744
 30
0.0
 10
132.0927662256667
 20
365.5917136698984
 30
0.0
 10
132.6482877346147
 20
365.6826949306308
 30
0.0
 10
133.227710011434
 20
365.7611014076869
 30
0.0
 10
133.846523756747
 20
365.8299952453606
 30
0.0
 10
134.4828435780715
 20
365.886113314629
 30
0.0
 10
135.1462103793471
 20
365.9309165377373
 30
0.0
 10
135.8202675179755
 20
365.9627417962946
 30
0.0
 10
136.5080818496972
 20
365.9821971960779
 30
0.0
 10
137.1994911507044
 20
365.9885569222129
 30
0.0
 10
137.8909004516139
 20
365.9821971953724
 30
0.0
 10
138.5787147830115
 20
365.9627417949137
 30
0.0
 10
139.2527719212865
 20
365.9309165359965
 30
0.0
 10
139.9161387217381
 20
365.8861133120229
 30
0.0
 10
140.552458543635
 20
365.8299952443792
 30
0.0
 10
141.1712722846221
 20
365.7611014002171
 30
0.0
 10
141.7506945745067
 20
365.682694945704
 30
0.0
 10
142.306216037794
 20
365.5917136093577
 30
0.0
 10
142.8114727240586
 20
365.4937983244159
 30
0.0
 10
143.2870036696382
 20
365.3833693771547
 30
0.0
 10
143.7036138759181
 20
365.2697756974616
 30
0.0
 10
144.0849580836397
 20
365.1431554286074
 30
0.0
 10
144.4019970924643
 20
365.0173945246941
 30
0.0
 10
144.6790119696485
 20
364.8772958622822
 30
0.0
 10
144.8945273784933
 20
364.7455906037009
 30
0.0
 10
145.0643619703608
 20
364.5923927733623
 30
0.0
 10
145.1647516396747
 20
364.4340249151754
 30
0.0
 10
145.2162363015144
 20
364.2594844113256
 30
0.0
 10
145.1808331531364
 20
364.1560380042702
 30
0.0
 10
145.1631315860141
 20
364.1043147991828
 30
0.0
 11
129.1994911478868
 21
364.2603858305681
 31
0.0
 11
129.2085810383564
 21
364.3384213462484
 31
0.0
 11
129.2358507097596
 21
364.4164568619287
 31
0.0
 11
129.3427371070325
 21
364.5879221086963
 31
0.0
 11
129.4864912444312
 21
364.7226411851952
 31
0.0
 11
129.7222402869621
 21
364.8742728745623
 31
0.0
 11
129.9707388394737
 21
365.0000834524451
 31
0.0
 11
130.3152090796875
 21
365.1398231644167
 31
0.0
 11
130.6677386254737
 21
365.2574355904339
 31
0.0
 11
131.1127422278203
 21
365.3805450846342
 31
0.0
 11
131.5622083227489
 21
365.4852507170017
 31
0.0
 11
132.0932348251988
 21
365.5891326094135
 31
0.0
 11
132.6271222419685
 21
365.6768301781099
 31
0.0
 11
133.2280104935479
 21
365.7587322869969
 31
0.0
 11
133.8306756148556
 21
365.8259905108064
 31
0.0
 11
134.4830209548992
 21
365.8838796489794
 31
0.0
 11
135.1364194110271
 21
365.9280884812202
 31
0.0
 11
135.8203505429666
 21
365.9605863480764
 31
0.0
 11
136.5047721830143
 21
365.9799412087534
 31
0.0
 11
137.1994911478869
 21
365.9864267282281
 31
0.0
 11
137.8942101127595
 21
365.9799412087534
 31
0.0
 11
138.5786317528071
 21
365.9605863480763
 31
0.0
 11
139.2625628847466
 21
365.9280884812202
 31
0.0
 11
139.9159613408745
 21
365.8838796489794
 31
0.0
 11
140.5683066809181
 21
365.8259905108064
 31
0.0
 11
141.1709718022258
 21
365.7587322869969
 31
0.0
 11
141.7718600538052
 21
365.6768301781099
 31
0.0
 11
142.3057474705748
 21
365.5891326094135
 31
0.0
 11
142.8367739730248
 21
365.4852507170017
 31
0.0
 11
143.2862400679534
 21
365.3805450846341
 31
0.0
 11
143.7312436703001
 21
365.2574355904339
 31
0.0
 11
144.0837732160863
 21
365.1398231644167
 31
0.0
 11
144.4282434563002
 21
365.0000834524451
 31
0.0
 11
144.6767420088117
 21
364.8742728745624
 31
0.0
 11
144.9124910513425
 21
364.7226411851954
 31
0.0
 11
145.0562451887412
 21
364.5879221086964
 31
0.0
 11
145.1631315860141
 21
364.4164568619287
 31
0.0
 11
145.1994911478869
 21
364.2603858305557
 31
0.0
 11
145.1631315860141
 21
364.1043147991828
 31
0.0
  0
ENDBLK
  5
4F
330
4D
100
AcDbEntity
  8
0
100
AcDbBlockEnd
  0
BLOCK
  5
51
330
50
100
AcDbEntity
  8
0
100
AcDbBlockBegin
  2
81-100X-M21
 70
     0
 10
144.5162958811255
 20
275.8314604582531
 30
0.0
  3
81-100X-M21
  1

  0
LINE
  5
15A
330
50
100
AcDbEntity
  8
1
  6
Continuous
 62
     7
100
AcDbLine
 10
158.9994911478872
 20
237.5140118758354
 30
0.0
 11
158.9994911478872
 21
212.9825971572964
 31
0.0
  0
LINE
  5
15B
330
50
100
AcDbEntity
  8
1
  6
Continuous
 62
     7
100
AcDbLine
 10
164.6670786318933
 20
240.7500000000005
 30
0.0
 11
159.199491147887
 21
240.7500000000002
 31
0.0
  0
LINE
  5
15C
330
50
100
AcDbEntity
  8
1
  6
Continuous
 62
     7
100
AcDbLine
 10
168.919191576647
 20
209.7500000000005
 30
0.0
 11
159.199491147887
 21
209.7500000000005
 31
0.0
  0
LINE
  5
15D
330
50
100
AcDbEntity
  8
1
  6
Continuous
 62
     7
100
AcDbLine
 10
158.9994911478872
 20
212.9825971572964
 30
0.0
 11
158.9994911478872
 21
210.7500000000005
 31
0.0
  0
LINE
  5
15E
330
50
100
AcDbEntity
  8
1
  6
Continuous
 62
     7
100
AcDbLine
 10
158.9994911478872
 20
240.5500000000002
 30
0.0
 11
158.9994911478872
 21
237.5140118758354
 31
0.0
  0
LINE
  5
15F
330
50
100
AcDbEntity
  8
1
  6
Continuous
 62
     7
100
AcDbLine
 10
171.4994911478872
 20
240.7500000000005
 30
0.0
 11
164.6670786318933
 21
240.7500000000005
 31
0.0
  0
LINE
  5
160
330
50
100
AcDbEntity
  8
1
  6
Continuous
 62
     7
100
AcDbLine
 10
171.4994911478872
 20
209.7500000000005
 30
0.0
 11
168.919191576647
 21
209.7500000000005
 31
0.0
  0
LINE
  5
161
330
50
100
AcDbEntity
  8
1
  6
Continuous
 62
     7
100
AcDbLine
 10
158.9994911478872
 20
210.7500000000005
 30
0.0
 11
158.9994911478872
 21
209.9500000000004
 31
0.0
  0
LINE
  5
162
330
50
100
AcDbEntity
  8
1
  6
Continuous
 62
     7
100
AcDbLine
 10
159.1994911478869
 20
576.7097278463839
 30
0.0
 11
159.1994911478869
 21
546.109727846384
 31
0.0
  0
LINE
  5
163
330
50
100
AcDbEntity
  8
1
  6
Continuous
 62
     7
100
AcDbLine
 10
171.6994911478869
 20
545.9097278463842
 30
0.0
 11
159.3994911478869
 21
545.9097278463842
 31
0.0
  0
LINE
  5
164
330
50
100
AcDbEntity
  8
1
  6
Continuous
 62
     7
100
AcDbLine
 10
171.6994911478869
 20
576.9097278463842
 30
0.0
 11
159.3994911478869
 21
576.9097278463839
 31
0.0
  0
LINE
  5
165
330
50
100
AcDbEntity
  8
1
  6
PHANTOM
 62
     5
100
AcDbLine
 10
337.3613320828821
 20
221.2500000000002
 30
0.0
 11
350.8613320828821
 21
221.2500000000002
 31
0.0
  0
LINE
  5
166
330
50
100
AcDbEntity
  8
1
  6
PHANTOM
 62
     5
100
AcDbLine
 10
337.3613320828821
 20
229.2500000000003
 30
0.0
 11
350.8613320828821
 21
229.2500000000003
 31
0.0
  0
LINE
  5
167
330
50
100
AcDbEntity
  8
1
  6
Continuous
 62
     7
100
AcDbLine
 10
364.3613320828821
 20
240.7500000000002
 30
0.0
 11
364.3613320828821
 21
240.2249791318721
 31
0.0
  0
LINE
  5
168
330
50
100
AcDbEntity
  8
1
  6
Continuous
 62
     7
100
AcDbLine
 10
372.3613320828821
 20
240.7500000000002
 30
0.0
 11
372.3613320828821
 21
240.2249791318721
 31
0.0
  0
LINE
  5
169
330
50
100
AcDbEntity
  8
1
  6
Continuous
 62
     7
100
AcDbLine
 10
364.3613320828821
 20
240.7500000000002
 30
0.0
 11
364.3613320828821
 21
240.7499999999978
 31
0.0
  0
LINE
  5
16A
330
50
100
AcDbEntity
  8
1
  6
Continuous
 62
     7
100
AcDbLine
 10
364.3613320828821
 20
256.2500000000001
 30
0.0
 11
364.3613320828821
 21
240.7500000000002
 31
0.0
  0
LINE
  5
16B
330
50
100
AcDbEntity
  8
1
  6
Continuous
 62
     7
100
AcDbLine
 10
372.3613320828821
 20
256.2500000000001
 30
0.0
 11
372.3613320828821
 21
240.7500000000002
 31
0.0
  0
LINE
  5
16C
330
50
100
AcDbEntity
  8
1
  6
Continuous
 62
     7
100
AcDbLine
 10
364.3613320828821
 20
209.2500000000001
 30
0.0
 11
364.3613320828821
 21
210.2750208681283
 31
0.0
  0
LINE
  5
16D
330
50
100
AcDbEntity
  8
1
  6
Continuous
 62
     7
100
AcDbLine
 10
372.3613320828821
 20
209.2500000000001
 30
0.0
 11
372.3613320828821
 21
210.2750208681283
 31
0.0
  0
ARC
  5
16E
330
50
100
AcDbEntity
  8
1
  6
Continuous
 62
     7
100
AcDbCircle
 10
171.4994911478872
 20
225.2500000000005
 30
0.0
 40
15.5
100
AcDbArc
 50
0.0
 51
9.36885182365527
  0
ARC
  5
16F
330
50
100
AcDbEntity
  8
1
  6
Continuous
 62
     7
100
AcDbCircle
 10
171.4994911478872
 20
225.2500000000005
 30
0.0
 40
15.5
100
AcDbArc
 50
270.0
 51
331.4977761969167
  0
ARC
  5
170
330
50
100
AcDbEntity
  8
1
  6
Continuous
 62
     7
100
AcDbCircle
 10
171.4994911478872
 20
225.2500000000005
 30
0.0
 40
15.49999999999974
100
AcDbArc
 50
331.4977761969167
 51
0.0
  0
ARC
  5
171
330
50
100
AcDbEntity
  8
1
  6
Continuous
 62
     7
100
AcDbCircle
 10
171.4994911478872
 20
225.2500000000005
 30
0.0
 40
15.49999999999993
100
AcDbArc
 50
9.36885182365527
 51
90.0
  0
ARC
  5
172
330
50
100
AcDbEntity
  8
1
  6
Continuous
 62
     7
100
AcDbCircle
 10
175.9994911478872
 20
212.2500000000003
 30
0.0
 40
7.0
100
AcDbArc
 50
270.0
 51
317.3771453921838
  0
ARC
  5
173
330
50
100
AcDbEntity
  8
1
  6
Continuous
 62
     7
100
AcDbCircle
 10
126.9994911478872
 20
232.7500000000003
 30
0.0
 40
59.99999999999998
100
AcDbArc
 50
336.5872805163927
 51
345.6245513557163
  0
ARC
  5
174
330
50
100
AcDbEntity
  8
1
  6
Continuous
 62
     7
100
AcDbCircle
 10
175.9994911478872
 20
212.2500000000003
 30
0.0
 40
7.000000000000278
100
AcDbArc
 50
222.6228546078135
 51
270.0
  0
ARC
  5
175
330
50
100
AcDbEntity
  8
1
  6
Continuous
 62
     7
100
AcDbCircle
 10
224.9994911478872
 20
232.7500000000003
 30
0.0
 40
60.00000000000032
100
AcDbArc
 50
156.5872805163922
 51
171.5155502586237
  0
ARC
  5
176
330
50
100
AcDbEntity
  8
1
  6
Continuous
 62
     7
100
AcDbCircle
 10
175.9994911478872
 20
253.2500000000002
 30
0.0
 40
7.000000000000028
100
AcDbArc
 50
90.0
 51
137.3771453921669
  0
ARC
  5
177
330
50
100
AcDbEntity
  8
1
  6
Continuous
 62
     7
100
AcDbCircle
 10
224.9994911478872
 20
232.7500000000003
 30
0.0
 40
59.99999999999984
100
AcDbArc
 50
203.1688797851183
 51
203.4127194836071
  0
ARC
  5
178
330
50
100
AcDbEntity
  8
1
  6
Continuous
 62
     7
100
AcDbCircle
 10
126.9994911478872
 20
232.7500000000003
 30
0.0
 40
60.0
100
AcDbArc
 50
0.0
 51
23.41271948360677
  0
ARC
  5
179
330
50
100
AcDbEntity
  8
1
  6
Continuous
 62
     7
100
AcDbCircle
 10
175.9994911478872
 20
253.2500000000002
 30
0.0
 40
6.999999999999859
100
AcDbArc
 50
42.622854607805
 51
90.0
  0
ARC
  5
17A
330
50
100
AcDbEntity
  8
1
  6
Continuous
 62
     7
100
AcDbCircle
 10
126.9994911478872
 20
232.7500000000003
 30
0.0
 40
59.99999999999979
100
AcDbArc
 50
355.2420766648555
 51
0.0
  0
ARC
  5
17B
330
50
100
AcDbEntity
  8
1
  6
Continuous
 62
     7
100
AcDbCircle
 10
176.1994911478878
 20
657.4097278463842
 30
0.0
 40
100.0
100
AcDbArc
 50
270.0
 51
274.333829366374
  0
ARC
  5
17C
330
50
100
AcDbEntity
  8
1
  6
Continuous
 62
     7
100
AcDbCircle
 10
183.4747720467653
 20
561.4097278463842
 30
0.0
 40
3.724719101121593
100
AcDbArc
 50
0.0
 51
85.66617063362416
  0
ARC
  5
17D
330
50
100
AcDbEntity
  8
1
  6
Continuous
 62
     7
100
AcDbCircle
 10
176.1994911478878
 20
465.4097278463839
 30
0.0
 40
100.0000000000002
100
AcDbArc
 50
85.666170633626
 51
90.0
  0
ARC
  5
17E
330
50
100
AcDbEntity
  8
1
  6
Continuous
 62
     7
100
AcDbCircle
 10
176.1994911478878
 20
657.4097278463842
 30
0.0
 40
100.0000000000001
100
AcDbArc
 50
265.6661706336254
 51
270.0
  0
ARC
  5
17F
330
50
100
AcDbEntity
  8
1
  6
Continuous
 62
     7
100
AcDbCircle
 10
168.9242102490093
 20
561.4097278463842
 30
0.0
 40
3.724719101123782
100
AcDbArc
 50
180.0
 51
265.6661706336243
  0
ARC
  5
180
330
50
100
AcDbEntity
  8
1
  6
Continuous
 62
     7
100
AcDbCircle
 10
176.1994911478878
 20
465.4097278463839
 30
0.0
 40
100.0000000000001
100
AcDbArc
 50
90.0
 51
94.33382936637459
  0
ARC
  5
181
330
50
100
AcDbEntity
  8
1
  6
Continuous
 62
     7
100
AcDbCircle
 10
168.9242102490093
 20
561.4097278463842
 30
0.0
 40
3.724719101123398
100
AcDbArc
 50
94.33382936637585
 51
180.0
  0
ARC
  5
182
330
50
100
AcDbEntity
  8
1
  6
Continuous
 62
     7
100
AcDbCircle
 10
183.4747720467653
 20
561.4097278463842
 30
0.0
 40
3.724719101123511
100
AcDbArc
 50
274.3338293663757
 51
0.0
  0
ARC
  5
183
330
50
100
AcDbEntity
  8
1
  6
Continuous
 62
     7
100
AcDbCircle
 10
171.6994911478869
 20
561.4097278463842
 30
0.0
 40
15.5
100
AcDbArc
 50
0.0
 51
90.0
  0
ARC
  5
184
330
50
100
AcDbEntity
  8
1
  6
Continuous
 62
     7
100
AcDbCircle
 10
171.6994911478869
 20
561.4097278463842
 30
0.0
 40
15.5
100
AcDbArc
 50
270.0
 51
0.0
  0
ARC
  5
185
330
50
100
AcDbEntity
  8
1
  6
PHANTOM
 62
     5
100
AcDbCircle
 10
384.3613320828823
 20
225.2500000000002
 30
0.0
 40
3.999999999999934
100
AcDbArc
 50
279.9999999999978
 51
80.00000000000212
  0
ARC
  5
186
330
50
100
AcDbEntity
  8
1
  6
PHANTOM
 62
     5
100
AcDbCircle
 10
337.3613320828821
 20
225.2500000000002
 30
0.0
 40
4.000000000000114
100
AcDbArc
 50
90.0
 51
270.0
  0
ARC
  5
187
330
50
100
AcDbEntity
  8
1
  6
Continuous
 62
     7
100
AcDbCircle
 10
368.3613320828821
 20
209.2500000000001
 30
0.0
 40
4.0
100
AcDbArc
 50
180.0
 51
0.0
  0
ARC
  5
188
330
50
100
AcDbEntity
  8
1
  6
Continuous
 62
     7
100
AcDbCircle
 10
368.3613320828821
 20
225.2500000000002
 30
0.0
 40
15.49999999999996
100
AcDbArc
 50
284.9552483166434
 51
75.04475168335662
  0
ARC
  5
189
330
50
100
AcDbEntity
  8
1
  6
Continuous
 62
     7
100
AcDbCircle
 10
368.3613320828821
 20
225.2500000000002
 30
0.0
 40
15.49999999999996
100
AcDbArc
 50
104.9552483166434
 51
255.0447516833566
  0
ARC
  5
18A
330
50
100
AcDbEntity
  8
1
  6
Continuous
 62
     7
100
AcDbCircle
 10
368.3613320828821
 20
256.2500000000001
 30
0.0
 40
4.0
100
AcDbArc
 50
0.0
 51
180.0
  0
SPLINE
  5
18B
330
50
100
AcDbEntity
  8
1
  6
Continuous
 62
     7
100
AcDbSpline
210
0.0
220
0.0
230
1.0
 70
     8
 71
     3
 72
    27
 73
    23
 74
    21
 42
0.000000001
 43
0.0000000001
 44
0.00000001
 40
0.0
 40
0.0
 40
0.0
 40
0.0
 40
0.3521433567560702
 40
0.7044480106677001
 40
1.400800675077332
 40
2.0971842255017
 40
2.769838294033633
 40
3.442561383172262
 40
4.077219721058772
 40
4.712002505240263
 40
5.296741623802376
 40
5.881694777238881
 40
6.408245068039242
 40
6.93516078666781
 40
7.400656982103003
 40
7.866768373608842
 40
8.276154744419314
 40
8.686465288213437
 40
9.055039980231028
 40
9.424428423782796
 40
9.778116410379626
 40
10.13180439006614
 40
10.13180439006614
 40
10.13180439006614
 40
10.13180439006614
 10
364.3613320828821
 20
209.7500000000002
 30
0.0
 10
364.3620631862802
 20
209.867383517652
 30
0.0
 10
364.3635257326906
 20
210.1022043197123
 30
0.0
 10
364.378971395538
 20
210.5689296607543
 30
0.0
 10
364.4163406395508
 20
211.1495873909471
 30
0.0
 10
364.4906072523085
 20
211.834269818624
 30
0.0
 10
364.5946830273489
 20
212.5070827808897
 30
0.0
 10
364.725721555759
 20
213.1542281794836
 30
0.0
 10
364.8858374180475
 20
213.7817739194516
 30
0.0
 10
365.0695345819378
 20
214.3722483908771
 30
0.0
 10
365.2811312140742
 20
214.9356365786508
 30
0.0
 10
365.5118889284763
 20
215.452294558872
 30
0.0
 10
365.7689953134749
 20
215.9346141270566
 30
0.0
 10
366.040269218615
 20
216.3628520716975
 30
0.0
 10
366.3358463056867
 20
216.7496434524546
 30
0.0
 10
366.6409716845168
 20
217.0775019864597
 30
0.0
 10
366.9673635669629
 20
217.3568481348158
 30
0.0
 10
367.300292881327
 20
217.5736892392197
 30
0.0
 10
367.6490382150723
 20
217.7355230525243
 30
0.0
 10
368.0020053155941
 20
217.8294291435028
 30
0.0
 10
368.3617996644244
 20
217.8674665685411
 30
0.0
 10
368.5962947852473
 20
217.8366309152521
 30
0.0
 10
368.7135423443182
 20
217.8212130835846
 30
0.0
 11
364.3613320828821
 21
209.7500000000002
 31
0.0
 11
364.3651009020314
 21
210.1021231786951
 31
0.0
 11
364.3764073594795
 21
210.4542463573903
 31
0.0
 11
364.421403437767
 21
211.1491437499002
 31
0.0
 11
364.4967795367781
 21
211.8414359519384
 31
0.0
 11
364.5997935513851
 21
212.5061551473133
 31
0.0
 11
364.7338698766198
 21
213.1653818864916
 31
0.0
 11
364.8911037995019
 21
213.7802547996256
 31
0.0
 11
365.080502846354
 21
214.3861237492218
 31
0.0
 11
365.2865953310034
 21
214.9333400907861
 31
0.0
 11
365.5262627770356
 21
215.4669407906767
 31
0.0
 11
365.774640676087
 21
215.9312290932309
 31
0.0
 11
366.0579702831286
 21
216.3754863477002
 31
0.0
 11
366.3415089727388
 21
216.7446645150977
 31
0.0
 11
366.660406458607
 21
217.0846118971295
 31
0.0
 11
366.9725140340406
 21
217.3495384184372
 31
0.0
 11
367.3170730776909
 21
217.5723248798785
 31
0.0
 11
367.6524028862659
 21
217.7252994614757
 31
0.0
 11
368.0091218214463
 21
217.8212130835847
 31
0.0
 11
368.3613320828822
 21
217.8535105281351
 31
0.0
 11
368.7135423443182
 21
217.8212130835846
 31
0.0
  0
SPLINE
  5
18C
330
50
100
AcDbEntity
  8
1
  6
Continuous
 62
     7
100
AcDbSpline
210
0.0
220
0.0
230
1.0
 70
     8
 71
     3
 72
    25
 73
    21
 74
    19
 42
0.000000001
 43
0.0000000001
 44
0.00000001
 40
0.0
 40
0.0
 40
0.0
 40
0.0
 40
0.3693884349422206
 40
0.7379631240430071
 40
1.148273668939834
 40
1.557660040225447
 40
2.023771432016682
 40
2.489267627625194
 40
3.0161833463909
 40
3.542733637288729
 40
4.127686790808803
 40
4.712425909433068
 40
5.34720869366711
 40
5.981867031589364
 40
6.654590120750245
 40
7.327244189277581
 40
8.023627739649672
 40
8.719980403846494
 40
9.072285057531813
 40
9.424428414581541
 40
9.424428414581541
 40
9.424428414581541
 40
9.424428414581541
 10
368.7135423443182
 20
217.8212130835846
 30
0.0
 10
368.8338396587411
 20
217.793478671186
 30
0.0
 10
369.0741692739006
 20
217.7380709310807
 30
0.0
 10
369.4222074312435
 20
217.5729208473574
 30
0.0
 10
369.7553461626324
 20
217.3570617967951
 30
0.0
 10
370.0816783955528
 20
217.0774359210006
 30
0.0
 10
370.386821820003
 20
216.7496620101161
 30
0.0
 10
370.6823937337863
 20
216.3628463689313
 30
0.0
 10
370.9536691964023
 20
215.9346157278533
 30
0.0
 10
371.2107751373337
 20
215.452294077231
 30
0.0
 10
371.4415329831098
 20
214.93563671315
 30
0.0
 10
371.6531295781353
 20
214.3722483514711
 30
0.0
 10
371.8368267527179
 20
213.7817739303291
 30
0.0
 10
371.9969426119653
 20
213.1542281762834
 30
0.0
 10
372.1279811411699
 20
212.5070827816342
 30
0.0
 10
372.2320569159135
 20
211.8342698182761
 30
0.0
 10
372.3063235286133
 20
211.149587390981
 30
0.0
 10
372.3436927724888
 20
210.568929660868
 30
0.0
 10
372.3591384345951
 20
210.1022043198435
 30
0.0
 10
372.3606009794834
 20
209.8673835177491
 30
0.0
 10
372.3613320828821
 20
209.7499999999988
 30
0.0
 11
368.7135423443182
 21
217.8212130835846
 31
0.0
 11
369.0702612794988
 21
217.7252994614757
 31
0.0
 11
369.4055910880736
 21
217.5723248798785
 31
0.0
 11
369.7501501317238
 21
217.3495384184371
 31
0.0
 11
370.0622577071574
 21
217.0846118971295
 31
0.0
 11
370.3811551930256
 21
216.7446645150977
 31
0.0
 11
370.6646938826358
 21
216.3754863477002
 31
0.0
 11
370.9480234896775
 21
215.9312290932309
 31
0.0
 11
371.1964013887289
 21
215.4669407906768
 31
0.0
 11
371.4360688347613
 21
214.9333400907861
 31
0.0
 11
371.6421613194105
 21
214.386123749222
 31
0.0
 11
371.8315603662625
 21
213.7802547996257
 31
0.0
 11
371.9887942891445
 21
213.1653818864916
 31
0.0
 11
372.1228706143791
 21
212.5061551473134
 31
0.0
 11
372.2258846289863
 21
211.8414359519384
 31
0.0
 11
372.3012607279974
 21
211.1491437499002
 31
0.0
 11
372.3462568062848
 21
210.4542463573902
 31
0.0
 11
372.3575632637327
 21
210.1021231786945
 31
0.0
 11
372.3613320828821
 21
209.7499999999988
 31
0.0
  0
SPLINE
  5
18D
330
50
100
AcDbEntity
  8
1
  6
Continuous
 62
     7
100
AcDbSpline
210
0.0
220
0.0
230
1.0
 70
     8
 71
     3
 72
    27
 73
    23
 74
    21
 42
0.000000001
 43
0.0000000001
 44
0.00000001
 40
0.0
 40
0.0
 40
0.0
 40
0.0
 40
0.5635691099582739
 40
1.127238557117177
 40
2.238983738624113
 40
3.35075215909605
 40
4.416730897015706
 40
5.482762972378803
 40
6.474560141235875
 40
7.466461889392054
 40
8.358933083414854
 40
9.251594011154099
 40
10.02462150576411
 40
10.79808402885567
 40
11.43923201099742
 40
12.08113212820465
 40
12.5913266308954
 40
13.10432938414682
 40
13.50843920731074
 40
13.91674533165413
 40
14.27825507390655
 40
14.63976480459892
 40
14.63976480459892
 40
14.63976480459892
 40
14.63976480459892
 10
364.3613320828821
 20
240.7499999999978
 30
0.0
 10
364.3620619557009
 20
240.5621421616659
 30
0.0
 10
364.3635218286473
 20
240.1863930389916
 30
0.0
 10
364.3789023485376
 20
239.4401939821659
 30
0.0
 10
364.4162094335159
 20
238.511771447185
 30
0.0
 10
364.4901422117276
 20
237.4176201606658
 30
0.0
 10
364.5940200433201
 20
236.3412184055148
 30
0.0
 10
364.7243281815611
 20
235.3079584319302
 30
0.0
 10
364.8841042176629
 20
234.303847245618
 30
0.0
 10
365.0663643804515
 20
233.3623744585587
 30
0.0
 10
365.2774243783334
 20
232.4608644386904
 30
0.0
 10
365.5054513749976
 20
231.6388500082363
 30
0.0
 10
365.7617273280574
 20
230.8669448949931
 30
0.0
 10
366.0279636668456
 20
230.1874764116329
 30
0.0
 10
366.3223077841767
 20
229.5678843737636
 30
0.0
 10
366.6190637809008
 20
229.0478628793188
 30
0.0
 10
366.9448395668146
 20
228.597266951037
 30
0.0
 10
367.2685920387618
 20
228.2464721051895
 30
0.0
 10
367.6224795491494
 20
227.9762181530426
 30
0.0
 10
367.9838720719512
 20
227.8194766857247
 30
0.0
 10
368.362469520121
 20
227.7485790977397
 30
0.0
 10
368.5998778333533
 20
227.8019078962684
 30
0.0
 10
368.718581988892
 20
227.8285722916413
 30
0.0
 11
364.3613320828821
 21
240.7499999999978
 31
0.0
 11
364.3650923214773
 21
240.1864434445008
 31
0.0
 11
364.3763730372631
 21
239.6228868890037
 31
0.0
 11
364.4212620693986
 21
238.5120483212909
 31
0.0
 11
364.4965906904096
 21
237.4028348073062
 31
0.0
 11
364.5991833073915
 21
236.3418044474254
 31
0.0
 11
364.7333204458084
 21
235.2842451754608
 31
0.0
 11
364.8895428461235
 21
234.3048289280483
 31
0.0
 11
365.0792610961965
 21
233.3312396596953
 31
0.0
 11
365.2832707189403
 21
232.462398531613
 31
0.0
 11
365.5237361297301
 21
231.6027358547831
 31
0.0
 11
365.7681085707313
 21
230.869350814502
 31
0.0
 11
366.0531281986029
 21
230.1503180711016
 31
0.0
 11
366.3293632479637
 21
229.571729329209
 31
0.0
 11
366.6516470444293
 21
229.0165996915451
 31
0.0
 11
366.9522216732281
 21
228.6043457373762
 31
0.0
 11
367.3048198845606
 21
228.2317248501368
 31
0.0
 11
367.6295702469965
 21
227.9912213144468
 31
0.0
 11
368.0040821768723
 21
227.8285722916414
 31
0.0
 11
368.3613320828821
 21
227.7732387966876
 31
0.0
 11
368.718581988892
 21
227.8285722916413
 31
0.0
  0
SPLINE
  5
18E
330
50
100
AcDbEntity
  8
1
  6
Continuous
 62
     7
100
AcDbSpline
210
0.0
220
0.0
230
1.0
 70
     8
 71
     3
 72
    25
 73
    21
 74
    19
 42
0.000000001
 43
0.0000000001
 44
0.00000001
 40
0.0
 40
0.0
 40
0.0
 40
0.0
 40
0.4083061153382376
 40
0.8124159427217779
 40
1.325418696420862
 40
1.835613199235326
 40
2.477513316534853
 40
3.118661298731375
 40
3.892123821874054
 40
4.665151316520413
 40
5.557812244293993
 40
6.450283438342392
 40
7.442185186521685
 40
8.433982355394727
 40
9.50001443076852
 40
10.56599316868608
 40
11.67776158913217
 40
12.78950677050845
 40
13.35317621738051
 40
13.91674532635767
 40
13.91674532635767
 40
13.91674532635767
 40
13.91674532635767
 10
368.718581988892
 20
227.8285722916413
 30
0.0
 10
368.8467302228054
 20
227.8766081999762
 30
0.0
 10
369.1017096740076
 20
227.9721863303342
 30
0.0
 10
369.4535417459765
 20
228.2478742938922
 30
0.0
 10
369.777978565633
 20
228.5968599160958
 30
0.0
 10
370.1035472689203
 20
229.0480033141222
 30
0.0
 10
370.400371850578
 20
229.5678434886969
 30
0.0
 10
370.6946954007024
 20
230.1874899004335
 30
0.0
 10
370.9609383066322
 20
230.8669410219064
 30
0.0
 10
371.2172123335182
 20
231.6388512272686
 30
0.0
 10
371.4452399210915
 20
232.4608640953873
 30
0.0
 10
371.6562997492997
 20
233.3623745637065
 30
0.0
 10
371.8385599622699
 20
234.3038472179979
 30
0.0
 10
371.9983359841794
 20
235.3079584417228
 30
0.0
 10
372.1286441264576
 20
236.3412184045884
 30
0.0
 10
372.2325219568203
 20
237.4176201627095
 30
0.0
 10
372.3064547355727
 20
238.5117714483428
 30
0.0
 10
372.3437618195898
 20
239.4401939833872
 30
0.0
 10
372.3591423410819
 20
240.1863930397141
 30
0.0
 10
372.360602210065
 20
240.5621421619939
 30
0.0
 10
372.3613320828821
 20
240.7500000000002
 30
0.0
 11
368.718581988892
 21
227.8285722916413
 31
0.0
 11
369.0930939187679
 21
227.9912213144468
 31
0.0
 11
369.4178442812038
 21
228.2317248501367
 31
0.0
 11
369.7704424925363
 21
228.6043457373761
 31
0.0
 11
370.0710171213352
 21
229.0165996915451
 31
0.0
 11
370.393300917801
 21
229.5717293292091
 31
0.0
 11
370.6695359671618
 21
230.1503180711017
 31
0.0
 11
370.9545555950334
 21
230.8693508145021
 31
0.0
 11
371.1989280360347
 21
231.6027358547832
 31
0.0
 11
371.4393934468244
 21
232.462398531613
 31
0.0
 11
371.6434030695682
 21
233.3312396596952
 31
0.0
 11
371.8331213196412
 21
234.3048289280482
 31
0.0
 11
371.9893437199562
 21
235.2842451754607
 31
0.0
 11
372.1234808583729
 21
236.3418044474254
 31
0.0
 11
372.226073475355
 21
237.4028348073062
 31
0.0
 11
372.3014020963661
 21
238.5120483212908
 31
0.0
 11
372.3462911285013
 21
239.6228868890036
 31
0.0
 11
372.3575718442869
 21
240.1864434445018
 31
0.0
 11
372.3613320828821
 21
240.7500000000002
 31
0.0
  0
ARC
  5
18F
330
50
100
AcDbEntity
  8
1
  6
Continuous
 62
     7
100
AcDbCircle
 10
168.919191576647
 20
208.7500000000005
 30
0.0
 40
1.000000000000448
100
AcDbArc
 50
23.16887978510632
 51
90.0
  0
ARC
  5
190
330
50
100
AcDbEntity
  8
1
  6
Continuous
 62
     7
100
AcDbCircle
 10
174.527837086369
 20
210.8956609275306
 30
0.0
 40
5.000000000000062
100
AcDbArc
 50
203.4127194836086
 51
222.6228546078158
  0
ARC
  5
191
330
50
100
AcDbEntity
  8
1
  6
Continuous
 62
     7
100
AcDbCircle
 10
177.4711452094049
 20
210.8956609275306
 30
0.0
 40
4.999999999999998
100
AcDbArc
 50
317.3771453921842
 51
336.5872805163913
  0
ARC
  5
192
330
50
100
AcDbEntity
  8
1
  6
Continuous
 62
     7
100
AcDbCircle
 10
159.199491147887
 20
209.9500000000004
 30
0.0
 40
0.1999999999997897
100
AcDbArc
 50
180.0
 51
270.0
  0
ARC
  5
193
330
50
100
AcDbEntity
  8
1
  6
Continuous
 62
     7
100
AcDbCircle
 10
159.199491147887
 20
240.5500000000002
 30
0.0
 40
0.1999999999999886
100
AcDbArc
 50
90.0
 51
180.0
  0
ARC
  5
194
330
50
100
AcDbEntity
  8
1
  6
Continuous
 62
     7
100
AcDbCircle
 10
164.6670786318933
 20
241.7500000000005
 30
0.0
 40
1.0
100
AcDbArc
 50
270.0
 51
351.5155502586177
  0
ARC
  5
195
330
50
100
AcDbEntity
  8
1
  6
Continuous
 62
     7
100
AcDbCircle
 10
174.5278370863695
 20
254.6043390724706
 30
0.0
 40
5.000000000000195
100
AcDbArc
 50
137.3771453921664
 51
156.5872805163915
  0
ARC
  5
196
330
50
100
AcDbEntity
  8
1
  6
Continuous
 62
     7
100
AcDbCircle
 10
177.4711452094049
 20
254.6043390724699
 30
0.0
 40
4.999999999999844
100
AcDbArc
 50
23.41271948360362
 51
42.62285460780008
  0
ARC
  5
197
330
50
100
AcDbEntity
  8
1
  6
Continuous
 62
     7
100
AcDbCircle
 10
159.3994911478869
 20
576.7097278463839
 30
0.0
 40
0.2000000000000455
100
AcDbArc
 50
90.0
 51
180.0
  0
ARC
  5
198
330
50
100
AcDbEntity
  8
1
  6
Continuous
 62
     7
100
AcDbCircle
 10
159.3994911478869
 20
546.109727846384
 30
0.0
 40
0.1999999999999886
100
AcDbArc
 50
180.0
 51
270.0
  0
ENDBLK
  5
52
330
50
100
AcDbEntity
  8
0
100
AcDbBlockEnd
  0
BLOCK
  5
54
330
53
100
AcDbEntity
  8
0
100
AcDbBlockBegin
  2
32-1-16
 70
     0
 10
382.0086703920271
 20
465.4528628318778
 30
0.0
  3
32-1-16
  1

  0
LINE
  5
199
330
53
100
AcDbEntity
  8
1
  6
Continuous
 62
     7
100
AcDbLine
 10
144.9942391024084
 20
260.7551113370705
 30
0.0
 11
127.4315419554561
 21
260.7551113370705
 31
0.0
  0
LINE
  5
19A
330
53
100
AcDbEntity
  8
1
  6
Continuous
 62
     7
100
AcDbLine
 10
137.199491147887
 20
250.7551113370705
 30
0.0
 11
150.4994911478872
 21
250.7551113370705
 31
0.0
  0
LINE
  5
19B
330
53
100
AcDbEntity
  8
1
  6
Continuous
 62
     7
100
AcDbLine
 10
150.4994911478872
 20
250.7551113370705
 30
0.0
 11
150.3864911478873
 21
250.7551113370705
 31
0.0
  0
LINE
  5
19C
330
53
100
AcDbEntity
  8
1
  6
Continuous
 62
     7
100
AcDbLine
 10
148.699491147887
 20
259.7551113370705
 30
0.0
 11
148.7575122096179
 21
259.7551113370705
 31
0.0
  0
LINE
  5
19D
330
53
100
AcDbEntity
  8
1
  6
Continuous
 62
     7
100
AcDbLine
 10
146.9674403403179
 20
260.7551113370705
 30
0.0
 11
144.9942391024084
 21
260.7551113370705
 31
0.0
  0
LINE
  5
19E
330
53
100
AcDbEntity
  8
1
  6
Continuous
 62
     7
100
AcDbLine
 10
123.8994911478873
 20
250.7551113370705
 30
0.0
 11
137.199491147887
 21
250.7551113370705
 31
0.0
  0
LINE
  5
19F
330
53
100
AcDbEntity
  8
1
  6
Continuous
 62
     7
100
AcDbLine
 10
124.0124911478871
 20
250.7551113370705
 30
0.0
 11
123.8994911478873
 21
250.7551113370705
 31
0.0
  0
LINE
  5
1A0
330
53
100
AcDbEntity
  8
1
  6
Continuous
 62
     7
100
AcDbLine
 10
125.6414700861566
 20
259.7551113370705
 30
0.0
 11
125.699491147887
 21
259.7551113370705
 31
0.0
  0
LINE
  5
1A1
330
53
100
AcDbEntity
  8
1
  6
Continuous
 62
     7
100
AcDbLine
 10
143.8515584957119
 20
575.4097278463839
 30
0.0
 11
130.5474238000617
 21
575.4097278463839
 31
0.0
  0
LINE
  5
1A2
330
53
100
AcDbEntity
  8
1
  6
Continuous
 62
     7
100
AcDbLine
 10
152.6498804747812
 20
562.6488685354827
 30
0.0
 11
145.9978131269563
 21
574.1705871572854
 31
0.0
  0
LINE
  5
1A3
330
53
100
AcDbEntity
  8
1
  6
Continuous
 62
     7
100
AcDbLine
 10
145.9978131269563
 20
548.6488685354827
 30
0.0
 11
152.6498804747812
 21
560.1705871572854
 31
0.0
  0
LINE
  5
1A4
330
53
100
AcDbEntity
  8
1
  6
Continuous
 62
     7
100
AcDbLine
 10
128.4011691688173
 20
574.1705871572854
 30
0.0
 11
121.7491018209925
 21
562.6488685354827
 31
0.0
  0
LINE
  5
1A5
330
53
100
AcDbEntity
  8
1
  6
Continuous
 62
     7
100
AcDbLine
 10
121.7491018209925
 20
560.1705871572854
 30
0.0
 11
128.4011691688173
 21
548.6488685354827
 31
0.0
  0
LINE
  5
1A6
330
53
100
AcDbEntity
  8
1
  6
Continuous
 62
     7
100
AcDbLine
 10
356.8033110211517
 20
259.7500000000002
 30
0.0
 11
356.8613320828821
 21
259.7500000000002
 31
0.0
  0
LINE
  5
1A7
330
53
100
AcDbEntity
  8
1
  6
Continuous
 62
     7
100
AcDbLine
 10
378.1292812753133
 20
260.7500000000002
 30
0.0
 11
358.5933828904509
 21
260.7500000000002
 31
0.0
  0
LINE
  5
1A8
330
53
100
AcDbEntity
  8
1
  6
Continuous
 62
     7
100
AcDbLine
 10
372.6292812753133
 20
250.7500000000003
 30
0.0
 11
372.3613320828821
 21
250.7500000000003
 31
0.0
  0
LINE
  5
1A9
330
53
100
AcDbEntity
  8
1
  6
Continuous
 62
     7
100
AcDbLine
 10
379.8613320828821
 20
259.7500000000002
 30
0.0
 11
379.9193531446127
 21
259.7500000000002
 31
0.0
  0
LINE
  5
1AA
330
53
100
AcDbEntity
  8
1
  6
Continuous
 62
     7
100
AcDbLine
 10
381.661332082882
 20
250.7500000000004
 30
0.0
 11
372.6292812753133
 21
250.7500000000003
 31
0.0
  0
LINE
  5
1AB
330
53
100
AcDbEntity
  8
1
  6
Continuous
 62
     7
100
AcDbLine
 10
354.3613320828821
 20
251.3217488211705
 30
0.0
 11
354.3613320828821
 21
258.4631772497134
 31
0.0
  0
LINE
  5
1AC
330
53
100
AcDbEntity
  8
1
  6
Continuous
 62
     7
100
AcDbLine
 10
382.3613320828821
 20
258.4631772497132
 30
0.0
 11
382.3613320828821
 21
251.3217488211705
 31
0.0
  0
LINE
  5
1AD
330
53
100
AcDbEntity
  8
1
  6
Continuous
 62
     7
100
AcDbLine
 10
364.3613320828821
 20
250.7500000000003
 30
0.0
 11
355.0613320828821
 21
250.7500000000004
 31
0.0
  0
ARC
  5
1AE
330
53
100
AcDbEntity
  8
1
  6
Continuous
 62
     7
100
AcDbCircle
 10
147.699491147887
 20
254.8975743725123
 30
0.0
 40
5.000000000000293
100
AcDbArc
 50
304.0557977425686
 51
74.66244233044313
  0
ARC
  5
1AF
330
53
100
AcDbEntity
  8
1
  6
Continuous
 62
     7
100
AcDbCircle
 10
126.699491147887
 20
254.8975743725123
 30
0.0
 40
5.000000000000123
100
AcDbArc
 50
105.3375576695562
 51
235.9442022574363
  0
ARC
  5
1B0
330
53
100
AcDbEntity
  8
1
  6
Continuous
 62
     7
100
AcDbCircle
 10
137.1994911478868
 20
561.4097278463839
 30
0.0
 40
15.4999999999999
100
AcDbArc
 50
55.41462091516129
 51
64.58537908483873
  0
ARC
  5
1B1
330
53
100
AcDbEntity
  8
1
  6
Continuous
 62
     7
100
AcDbCircle
 10
137.1994911478868
 20
561.4097278463839
 30
0.0
 40
15.5
100
AcDbArc
 50
0.0
 51
4.58537908484005
  0
ARC
  5
1B2
330
53
100
AcDbEntity
  8
1
  6
Continuous
 62
     7
100
AcDbCircle
 10
137.1994911478868
 20
561.4097278463839
 30
0.0
 40
15.4999999999998
100
AcDbArc
 50
301.0729509721538
 51
304.5853790848392
  0
ARC
  5
1B3
330
53
100
AcDbEntity
  8
1
  6
Continuous
 62
     7
100
AcDbCircle
 10
137.1994911478868
 20
561.4097278463839
 30
0.0
 40
15.49999999999977
100
AcDbArc
 50
355.4146209151608
 51
0.0
  0
ARC
  5
1B4
330
53
100
AcDbEntity
  8
1
  6
Continuous
 62
     7
100
AcDbCircle
 10
137.1994911478868
 20
561.4097278463839
 30
0.0
 40
15.50000000000002
100
AcDbArc
 50
115.4146209151612
 51
124.5853790848387
  0
ARC
  5
1B5
330
53
100
AcDbEntity
  8
1
  6
Continuous
 62
     7
100
AcDbCircle
 10
137.1994911478868
 20
561.4097278463839
 30
0.0
 40
15.49999999999966
100
AcDbArc
 50
175.4146209151599
 51
180.0
  0
ARC
  5
1B6
330
53
100
AcDbEntity
  8
1
  6
Continuous
 62
     7
100
AcDbCircle
 10
137.1994911478868
 20
561.4097278463839
 30
0.0
 40
15.49999999999972
100
AcDbArc
 50
235.4146209151608
 51
238.9270490278463
  0
ARC
  5
1B7
330
53
100
AcDbEntity
  8
1
  6
Continuous
 62
     7
100
AcDbCircle
 10
137.1994911478868
 20
561.4097278463839
 30
0.0
 40
15.49999999999989
100
AcDbArc
 50
180.0
 51
184.5853790848392
  0
ARC
  5
1B8
330
53
100
AcDbEntity
  8
1
  6
Continuous
 62
     7
100
AcDbCircle
 10
137.1994911478868
 20
561.4097278463839
 30
0.0
 40
10.76794919243103
100
AcDbArc
 50
317.9829399353528
 51
90.0
  0
ARC
  5
1B9
330
53
100
AcDbEntity
  8
1
  6
Continuous
 62
     7
100
AcDbCircle
 10
137.1994911478868
 20
561.4097278463839
 30
0.0
 40
10.76794919243139
100
AcDbArc
 50
90.0
 51
222.0170600646473
  0
ARC
  5
1BA
330
53
100
AcDbEntity
  8
1
  6
Continuous
 62
     7
100
AcDbCircle
 10
357.8613320828821
 20
254.892463035442
 30
0.0
 40
4.999999999999845
100
AcDbArc
 50
105.3375576695532
 51
134.427004000806
  0
ARC
  5
1BB
330
53
100
AcDbEntity
  8
1
  6
Continuous
 62
     7
100
AcDbCircle
 10
378.8613320828821
 20
254.8924630354418
 30
0.0
 40
4.999999999999996
100
AcDbArc
 50
45.57299599919425
 51
74.66244233044678
  0
ARC
  5
1BC
330
53
100
AcDbEntity
  8
1
  6
Continuous
 62
     7
100
AcDbCircle
 10
357.8613320828821
 20
254.892463035442
 30
0.0
 40
5.000000000000057
100
AcDbArc
 50
225.5729959991949
 51
235.9442022574321
  0
ARC
  5
1BD
330
53
100
AcDbEntity
  8
1
  6
Continuous
 62
     7
100
AcDbCircle
 10
378.8613320828821
 20
254.8924630354418
 30
0.0
 40
4.999999999999789
100
AcDbArc
 50
304.0557977425681
 51
314.4270040008067
  0
SPLINE
  5
1BE
330
53
100
AcDbEntity
  8
0
  6
Continuous
 62
     7
100
AcDbSpline
210
0.0
220
0.0
230
1.0
 70
    11
 71
     3
 72
    79
 73
    75
 74
    73
 42
0.000000001
 43
0.0000000001
 44
0.00000001
 40
0.0
 40
0.0
 40
0.0
 40
0.0
 40
0.2910229063172172
 40
0.5820342199790532
 40
0.8749339259795297
 40
1.167812540311833
 40
1.463561181730113
 40
1.759282799553841
 40
2.058487804326615
 40
2.357663878865601
 40
2.660503334662508
 40
2.963315618547976
 40
3.269530819653583
 40
3.575723462230665
 40
3.884662737575233
 40
4.193586021287346
 40
4.50428907895164
 40
4.814983875317492
 40
5.126294424223274
 40
5.43760497311812
 40
5.748299769451036
 40
6.059002827059854
 40
6.367926110694154
 40
6.676865385937337
 40
6.983058028390029
 40
7.28927322934604
 40
7.592085513057589
 40
7.894924968652759
 40
8.194101042962604
 40
8.493306047472748
 40
8.789027664996787
 40
9.084776306062192
 40
9.377654919956315
 40
9.670554625323073
 40
9.961565937614706
 40
10.25258885279213
 40
10.54295309049241
 40
10.83331732819157
 40
11.12434024336569
 40
11.41535155565225
 40
11.70825126101188
 40
12.0011298748967
 40
12.29687851595096
 40
12.5926001334624
 40
12.89180513795833
 40
13.19098121225249
 40
13.49382066783059
 40
13.7966329515239
 40
14.10284815246044
 40
14.4090407948927
 40
14.71798007011462
 40
15.02690335372704
 40
15.33760641131323
 40
15.64830120762289
 40
15.95961175649393
 40
16.27092230537546
 40
16.58161710171661
 40
16.89232015935575
 40
17.20124344304234
 40
17.51018271836084
 40
17.81637536091129
 40
18.12259056198939
 40
18.42540284584657
 40
18.72824230161341
 40
19.0274183761197
 40
19.32662338085472
 40
19.62234499863108
 40
19.9180936399818
 40
20.21097225419801
 40
20.50387195993862
 40
20.7948832726886
 40
21.08590618851605
 40
21.3762704276039
 40
21.66663465645614
 40
21.66663465645614
 40
21.66663465645614
 40
21.66663465645614
 10
125.3651789496554
 20
258.4546436239133
 30
0.0
 10
125.4615540053705
 20
258.4429679564756
 30
0.0
 10
125.6543002784384
 20
258.4196170918897
 30
0.0
 10
125.9382367857676
 20
258.350261100124
 30
0.0
 10
126.215501052393
 20
258.256818343009
 30
0.0
 10
126.4842534366856
 20
258.1369113572744
 30
0.0
 10
126.7418988205202
 20
257.992865852282
 30
0.0
 10
126.9871257680244
 20
257.8247992515937
 30
0.0
 10
127.21738912432
 20
257.6349645186527
 30
0.0
 10
127.4316213330594
 20
257.4238283901041
 30
0.0
 10
127.6275757620324
 20
257.1940487865755
 30
0.0
 10
127.8043331058561
 20
256.9463202544476
 30
0.0
 10
127.9601039400191
 20
256.6835880147019
 30
0.0
 10
128.0940723575808
 20
256.4068370031417
 30
0.0
 10
128.2049953890544
 20
256.1191050254536
 30
0.0
 10
128.2921721816121
 20
255.8217515791013
 30
0.0
 10
128.3549201918887
 20
255.5177055830237
 30
0.0
 10
128.3927205712843
 20
255.2087639873311
 30
0.0
 10
128.4053976449551
 20
254.8975743820857
 30
0.0
 10
128.3927205716498
 20
254.5863847768309
 30
0.0
 10
128.354920192619
 20
254.2774431811436
 30
0.0
 10
128.2921721827159
 20
253.9733971849851
 30
0.0
 10
128.2049953905081
 20
253.6760437388346
 30
0.0
 10
128.0940723594895
 20
253.3883117602592
 30
0.0
 10
127.9601039420129
 20
253.1115607518035
 30
0.0
 10
127.8043331093362
 20
252.8488285003119
 30
0.0
 10
127.6275757618478
 20
252.6011000112829
 30
0.0
 10
127.4316213483392
 20
252.3713202475877
 30
0.0
 10
127.2173890844653
 20
252.1601847095017
 30
0.0
 10
126.9871259346295
 20
251.9703477863923
 30
0.0
 10
126.7418982272355
 20
251.8022892683117
 30
0.0
 10
126.4842556657582
 20
251.6582137665289
 30
0.0
 10
126.2154928480712
 20
251.5384176960553
 30
0.0
 10
125.9382673625838
 20
251.444562699216
 30
0.0
 10
125.6541870092875
 20
251.3767357926242
 30
0.0
 10
125.365819528981
 20
251.336040830994
 30
0.0
 10
125.0751354955084
 20
251.3222750374188
 30
0.0
 10
124.7844514620356
 20
251.3360408309689
 30
0.0
 10
124.4960839817289
 20
251.3767357925739
 30
0.0
 10
124.2120036284319
 20
251.4445626991408
 30
0.0
 10
123.9347781429436
 20
251.5384176959548
 30
0.0
 10
123.6660153252555
 20
251.6582137664037
 30
0.0
 10
123.4083727637771
 20
251.8022892681618
 30
0.0
 10
123.1631450563813
 20
251.9703477862177
 30
0.0
 10
122.9328819065439
 20
252.1601847093028
 30
0.0
 10
122.7186496426679
 20
252.3713202473645
 30
0.0
 10
122.5226952291573
 20
252.6011000110356
 30
0.0
 10
122.3459378816667
 20
252.8488285000405
 30
0.0
 10
122.1901670489875
 20
253.1115607515081
 30
0.0
 10
122.0561986315081
 20
253.3883117599399
 30
0.0
 10
121.9452756004867
 20
253.6760437384915
 30
0.0
 10
121.8580988082759
 20
253.9733971846184
 30
0.0
 10
121.7953507983693
 20
254.277443180753
 30
0.0
 10
121.757550419335
 20
254.5863847764168
 30
0.0
 10
121.7448733460257
 20
254.8975743816466
 30
0.0
 10
121.7575504196912
 20
255.2087639868719
 30
0.0
 10
121.7953507990828
 20
255.5177055825251
 30
0.0
 10
121.8580988093473
 20
255.8217515786355
 30
0.0
 10
121.9452756019207
 20
256.1191050247507
 30
0.0
 10
122.0561986332998
 20
256.4068370032044
 30
0.0
 10
122.1901670511684
 20
256.6835880118161
 30
0.0
 10
122.3459378841401
 20
256.9463202623893
 30
0.0
 10
122.5226952322998
 20
257.1940487544231
 30
0.0
 10
122.7186496451127
 20
257.4238285065351
 30
0.0
 10
122.9328819133639
 20
257.634964086856
 30
0.0
 10
123.1631450488245
 20
257.8248008527751
 30
0.0
 10
123.4083728111603
 20
257.9928599503564
 30
0.0
 10
123.6660151706953
 20
258.1369333007673
 30
0.0
 10
123.9347787371099
 20
258.2567373253112
 30
0.0
 10
124.2120014419777
 20
258.3505627582578
 30
0.0
 10
124.4960921116349
 20
258.4184993226008
 30
0.0
 10
124.7844211733844
 20
258.4587858789115
 30
0.0
 10
125.075248283846
 20
258.4740726233055
 30
0.0
 10
125.2685353954131
 20
258.4611199552149
 30
0.0
 10
125.3651789496554
 20
258.4546436239133
 30
0.0
 11
125.3651789496554
 21
258.4546436239133
 31
0.0
 11
125.6533384459303
 21
258.4139196508269
 31
0.0
 11
125.9364206523127
 21
258.3464507807615
 31
0.0
 11
126.2138446948565
 21
258.2525032521228
 31
0.0
 11
126.4814064469739
 21
258.1333873783233
 31
0.0
 11
126.7395388156892
 21
257.9890442488661
 31
0.0
 11
126.9835514683003
 21
257.8219840784504
 31
0.0
 11
127.2144309738312
 21
257.6316730468498
 31
0.0
 11
127.4276062687824
 21
257.4217620724943
 31
0.0
 11
127.6241405927906
 21
257.1913580893678
 31
0.0
 11
127.8001141285901
 21
256.9449263666801
 31
0.0
 11
127.9563112690629
 21
256.6815441298421
 31
0.0
 11
128.0898069570272
 21
256.4059849970643
 31
0.0
 11
128.2009568825845
 21
256.1177330761669
 31
0.0
 11
128.2879335366108
 21
255.8213065981266
 31
0.0
 11
128.3507386109322
 21
255.5170174055837
 31
0.0
 11
128.3885139726038
 21
255.2086275896632
 31
0.0
 11
128.4011691688174
 21
254.8975743725123
 31
0.0
 11
128.3885139726038
 21
254.5865211553613
 31
0.0
 11
128.3507386109321
 21
254.2781313394406
 31
0.0
 11
128.2879335366105
 21
253.9738421468978
 31
0.0
 11
128.2009568825841
 21
253.6774156688574
 31
0.0
 11
128.089806957027
 21
253.3891637479601
 31
0.0
 11
127.9563112690628
 21
253.1136046151823
 31
0.0
 11
127.8001141285901
 21
252.8502223783444
 31
0.0
 11
127.6241405927906
 21
252.6037906556567
 31
0.0
 11
127.4276062687824
 21
252.3733866725302
 31
0.0
 11
127.2144309738312
 21
252.1634756981747
 31
0.0
 11
126.9835514683003
 21
251.973164666574
 31
0.0
 11
126.7395388156892
 21
251.8061044961582
 31
0.0
 11
126.4814064469739
 21
251.661761366701
 31
0.0
 11
126.2138446948565
 21
251.5426454929016
 31
0.0
 11
125.9364206523127
 21
251.4486979642628
 31
0.0
 11
125.6533384459303
 21
251.3812290941975
 31
0.0
 11
125.3651789496554
 21
251.340505121111
 31
0.0
 11
125.075135494905
 21
251.3268601582408
 31
0.0
 11
124.7850920401546
 21
251.340505121111
 31
0.0
 11
124.4969325438798
 21
251.3812290941975
 31
0.0
 11
124.2138503374972
 21
251.4486979642628
 31
0.0
 11
123.9364262949533
 21
251.5426454929015
 31
0.0
 11
123.668864542836
 21
251.661761366701
 31
0.0
 11
123.4107321741209
 21
251.8061044961582
 31
0.0
 11
123.1667195215097
 21
251.9731646665739
 31
0.0
 11
122.9358400159787
 21
252.1634756981747
 31
0.0
 11
122.7226647210274
 21
252.3733866725302
 31
0.0
 11
122.5261303970192
 21
252.6037906556567
 31
0.0
 11
122.3501568612196
 21
252.8502223783444
 31
0.0
 11
122.1939597207469
 21
253.1136046151822
 31
0.0
 11
122.0604640327827
 21
253.38916374796
 31
0.0
 11
121.9493141072256
 21
253.6774156688572
 31
0.0
 11
121.8623374531992
 21
253.9738421468977
 31
0.0
 11
121.7995323788777
 21
254.2781313394406
 31
0.0
 11
121.7617570172062
 21
254.5865211553613
 31
0.0
 11
121.7491018209927
 21
254.8975743725123
 31
0.0
 11
121.7617570172062
 21
255.2086275896632
 31
0.0
 11
121.7995323788777
 21
255.5170174055837
 31
0.0
 11
121.8623374531992
 21
255.8213065981266
 31
0.0
 11
121.9493141072256
 21
256.1177330761669
 31
0.0
 11
122.0604640327827
 21
256.4059849970643
 31
0.0
 11
122.1939597207469
 21
256.6815441298421
 31
0.0
 11
122.3501568612196
 21
256.9449263666799
 31
0.0
 11
122.5261303970192
 21
257.1913580893677
 31
0.0
 11
122.7226647210274
 21
257.4217620724942
 31
0.0
 11
122.9358400159787
 21
257.6316730468497
 31
0.0
 11
123.1667195215097
 21
257.8219840784504
 31
0.0
 11
123.4107321741209
 21
257.9890442488661
 31
0.0
 11
123.668864542836
 21
258.1333873783233
 31
0.0
 11
123.9364262949533
 21
258.2525032521228
 31
0.0
 11
124.2138503374972
 21
258.3464507807615
 31
0.0
 11
124.4969325438798
 21
258.4139196508269
 31
0.0
 11
124.7850920401546
 21
258.4546436239133
 31
0.0
 11
125.0751354949049
 21
258.4682885867835
 31
0.0
 11
125.3651789496554
 21
258.4546436239133
 31
0.0
  0
SPLINE
  5
1BF
330
53
100
AcDbEntity
  8
0
  6
Continuous
 62
     7
100
AcDbSpline
210
0.0
220
0.0
230
1.0
 70
    11
 71
     3
 72
    79
 73
    75
 74
    73
 42
0.000000001
 43
0.0000000001
 44
0.00000001
 40
0.0
 40
0.0
 40
0.0
 40
0.0
 40
0.3261189815590272
 40
0.6517242227864996
 40
1.00757073008564
 40
1.362786574479206
 40
1.759886311236973
 40
2.156516711364781
 40
2.599210004995472
 40
3.041603623772415
 40
3.528307203253353
 40
4.014826845818036
 40
4.539616311192653
 40
5.064295506276722
 40
5.618233629058214
 40
6.172109434340793
 40
6.744280965421798
 40
7.316424320423923
 40
7.8947870411721
 40
8.47314976192319
 40
9.045293116933614
 40
9.617464648027287
 40
10.17134045332473
 40
10.72527857612083
 40
11.24995777121506
 40
11.77474723659083
 40
12.26126687914174
 40
12.74797045858439
 40
13.19036407729356
 40
13.63305737080658
 40
14.02968777076464
 40
14.42678750725392
 40
14.78200335126232
 40
15.13784985787351
 40
15.46345509697312
 40
15.78957408501977
 40
16.10448971847127
 40
16.41940535192169
 40
16.74552433996516
 40
17.07112957906014
 40
17.42697608566518
 40
17.78219192966687
 40
18.17929166614848
 40
18.57592206609926
 40
19.01861535960466
 40
19.46100897830658
 40
19.94771255774207
 40
20.43423220028657
 40
20.95902166565627
 40
21.48370086074517
 40
22.03763898353656
 40
22.59151478883033
 40
23.16368631992131
 40
23.73582967493024
 40
24.31419239568137
 40
24.89255511643127
 40
25.46469847143706
 40
26.03687000252394
 40
26.59074580781471
 40
27.1446839306069
 40
27.66936312570376
 40
28.19415259109358
 40
28.68067223367422
 40
29.1673758131717
 40
29.60976943196308
 40
30.05246272560429
 40
30.44909312573285
 40
30.84619286246832
 40
31.20140870678681
 40
31.55725521382527
 40
31.8828604534772
 40
32.20897944233199
 40
32.52389507798049
 40
32.83881070538187
 40
32.83881070538187
 40
32.83881070538187
 40
32.83881070538187
 10
143.8252703047767
 20
254.583757885874
 30
0.0
 10
143.8027130312387
 20
254.4771681297606
 30
0.0
 10
143.7576340288655
 20
254.2641565277164
 30
0.0
 10
143.6231062562142
 20
253.9543380341557
 30
0.0
 10
143.4463621666226
 20
253.6565541870974
 30
0.0
 10
143.2174807536718
 20
253.3654081430563
 30
0.0
 10
142.9482628439542
 20
253.0920159256565
 30
0.0
 10
142.6309927280133
 20
252.8280561983358
 30
0.0
 10
142.2789403073269
 20
252.5850499971096
 30
0.0
 10
141.8830669395306
 20
252.3553957463944
 30
0.0
 10
141.4583585248706
 20
252.148844787246
 30
0.0
 10
140.9958411515203
 20
251.9598420320568
 30
0.0
 10
140.5106006497354
 20
251.7955282374297
 30
0.0
 10
139.9953591617052
 20
251.652512735626
 30
0.0
 10
139.4636939009459
 20
251.5353603000294
 30
0.0
 10
138.9112448513449
 20
251.4423864090604
 30
0.0
 10
138.3488540114082
 20
251.3760673501578
 30
0.0
 10
137.7758373611575
 20
251.3357210921777
 30
0.0
 10
137.1994911578819
 20
251.3224307604611
 30
0.0
 10
136.6231449545838
 20
251.3357210922938
 30
0.0
 10
136.0501283043998
 20
251.376067350398
 30
0.0
 10
135.4877374642226
 20
251.4423864093626
 30
0.0
 10
134.9352884154918
 20
251.5353603005654
 30
0.0
 10
134.403623151568
 20
251.6525127356936
 30
0.0
 10
133.888381674759
 20
251.7955282394278
 30
0.0
 10
133.4031411325894
 20
251.9598420272501
 30
0.0
 10
132.9406238995161
 20
252.1488448060549
 30
0.0
 10
132.515914985315
 20
252.3553956808966
 30
0.0
 10
132.1200433209575
 20
252.5850502186751
 30
0.0
 10
131.7679848861934
 20
252.8280554057131
 30
0.0
 10
131.4507350095092
 20
253.0920185451169
 30
0.0
 10
131.1814458803482
 20
253.3653987544103
 30
0.0
 10
130.9528038882302
 20
253.6565851646188
 30
0.0
 10
130.7752111629819
 20
253.9542259291074
 30
0.0
 10
130.6435980913453
 20
254.2645358469835
 30
0.0
 10
130.5661731152653
 20
254.5786944238918
 30
0.0
 10
130.5382129981484
 20
254.8975743721951
 30
0.0
 10
130.5661731152573
 20
255.2164543204981
 30
0.0
 10
130.6435980913295
 20
255.5306128974053
 30
0.0
 10
130.7752111629586
 20
255.8409228152796
 30
0.0
 10
130.9528038882
 20
256.1385635797656
 30
0.0
 10
131.1814458803115
 20
256.4297499899706
 30
0.0
 10
131.4507350094666
 20
256.7031301992597
 30
0.0
 10
131.7679848861455
 20
256.9670933386582
 30
0.0
 10
132.1200433209048
 20
257.2100985256903
 30
0.0
 10
132.5159149852583
 20
257.4397530634611
 30
0.0
 10
132.9406238994559
 20
257.6463039382941
 30
0.0
 10
133.4031411325265
 20
257.8353067170885
 30
0.0
 10
133.888381674694
 20
257.9996205048988
 30
0.0
 10
134.4036231515014
 20
258.1426360086185
 30
0.0
 10
134.9352884154243
 20
258.2597884437293
 30
0.0
 10
135.4877374641549
 20
258.3527623349123
 30
0.0
 10
136.050128304332
 20
258.4190813938534
 30
0.0
 10
136.6231449545177
 20
258.4594276519307
 30
0.0
 10
137.1994911578123
 20
258.4727179837309
 30
0.0
 10
137.7758373611054
 20
258.4594276519816
 30
0.0
 10
138.3488540112963
 20
258.4190813939488
 30
0.0
 10
138.9112448514571
 20
258.3527623350436
 30
0.0
 10
139.4636939002499
 20
258.2597884438666
 30
0.0
 10
139.9953591639503
 20
258.1426360087855
 30
0.0
 10
140.5106006415496
 20
257.9996205048961
 30
0.0
 10
140.9958411808675
 20
257.835306717495
 30
0.0
 10
141.4583584238298
 20
257.6463039369195
 30
0.0
 10
141.8830673027849
 20
257.4397530678683
 30
0.0
 10
142.2789390872795
 20
257.210098509625
 30
0.0
 10
142.6309970978078
 20
256.9670933938438
 30
0.0
 10
142.9482484020459
 20
256.7031300134082
 30
0.0
 10
143.2175325076131
 20
256.4297506506859
 30
0.0
 10
143.4461913874146
 20
256.1385613926722
 30
0.0
 10
143.6237242531859
 20
255.8409307199874
 30
0.0
 10
143.7555429159716
 20
255.5305861383185
 30
0.0
 10
143.832222776502
 20
255.2165531878049
 30
0.0
 10
143.8628746786307
 20
254.8972194007664
 30
0.0
 10
143.8378050923916
 20
254.6882450569273
 30
0.0
 10
143.8252703047767
 20
254.583757885874
 30
0.0
 11
143.8252703047767
 21
254.583757885874
 31
0.0
 11
143.747097642223
 21
254.2671467217146
 31
0.0
 11
143.6213913871465
 21
253.9667857568228
 31
0.0
 11
143.4398350037115
 21
253.6607399825202
 31
0.0
 11
143.2214729438165
 21
253.3805680590754
 31
0.0
 11
142.9437253944413
 21
253.0967644305084
 31
0.0
 11
142.6394258422618
 21
252.8423681711947
 31
0.0
 11
142.2757782169427
 21
252.5899047941367
 31
0.0
 11
141.8934452100635
 21
252.3673433739656
 31
0.0
 11
141.4561766492883
 21
252.1536225747502
 31
0.0
 11
141.0059812215893
 21
251.9691627160389
 31
0.0
 11
140.5091414999748
 21
251.8001826166225
 31
0.0
 11
140.0036548320555
 21
251.6595714992852
 31
0.0
 11
139.4627970250483
 21
251.53990414166
 31
0.0
 11
138.9166267169315
 21
251.4478367629728
 31
0.0
 11
138.3484267498922
 21
251.3805384833296
 31
0.0
 11
137.7776970718415
 21
251.3403432937148
 31
0.0
 11
137.199491147887
 21
251.3268768073762
 31
0.0
 11
136.6212852239325
 21
251.3403432937149
 31
0.0
 11
136.0505555458818
 21
251.3805384833297
 31
0.0
 11
135.4823555788425
 21
251.4478367629728
 31
0.0
 11
134.9361852707257
 21
251.53990414166
 31
0.0
 11
134.3953274637185
 21
251.6595714992852
 31
0.0
 11
133.8898407957991
 21
251.8001826166225
 31
0.0
 11
133.3930010741845
 21
251.9691627160388
 31
0.0
 11
132.9428056464853
 21
252.15362257475
 31
0.0
 11
132.5055370857103
 21
252.3673433739655
 31
0.0
 11
132.1232040788313
 21
252.5899047941367
 31
0.0
 11
131.7595564535122
 21
252.8423681711947
 31
0.0
 11
131.4552569013328
 21
253.0967644305084
 31
0.0
 11
131.1775093519577
 21
253.3805680590755
 31
0.0
 11
130.9591472920629
 21
253.6607399825202
 31
0.0
 11
130.7775909086278
 21
253.9667857568228
 31
0.0
 11
130.651884653551
 21
254.2671467217146
 31
0.0
 11
130.5737119909971
 21
254.583757885874
 31
0.0
 11
130.5474238000617
 21
254.8975743725123
 31
0.0
 11
130.5737119909971
 21
255.2113908591505
 31
0.0
 11
130.651884653551
 21
255.5280020233097
 31
0.0
 11
130.7775909086278
 21
255.8283629882015
 31
0.0
 11
130.9591472920629
 21
256.1344087625041
 31
0.0
 11
131.1775093519577
 21
256.4145806859487
 31
0.0
 11
131.4552569013328
 21
256.6983843145157
 31
0.0
 11
131.7595564535122
 21
256.9527805738296
 31
0.0
 11
132.1232040788313
 21
257.2052439508878
 31
0.0
 11
132.5055370857103
 21
257.4278053710589
 31
0.0
 11
132.9428056464853
 21
257.6415261702743
 31
0.0
 11
133.3930010741845
 21
257.8259860289857
 31
0.0
 11
133.8898407957991
 21
257.994966128402
 31
0.0
 11
134.3953274637185
 21
258.1355772457393
 31
0.0
 11
134.9361852707256
 21
258.2552446033644
 31
0.0
 11
135.4823555788425
 21
258.3473119820516
 31
0.0
 11
136.0505555458818
 21
258.4146102616947
 31
0.0
 11
136.6212852239325
 21
258.4548054513095
 31
0.0
 11
137.199491147887
 21
258.4682719376482
 31
0.0
 11
137.7776970718415
 21
258.4548054513095
 31
0.0
 11
138.3484267498922
 21
258.4146102616947
 31
0.0
 11
138.9166267169315
 21
258.3473119820516
 31
0.0
 11
139.4627970250483
 21
258.2552446033643
 31
0.0
 11
140.0036548320555
 21
258.1355772457391
 31
0.0
 11
140.5091414999749
 21
257.9949661284018
 31
0.0
 11
141.0059812215895
 21
257.8259860289855
 31
0.0
 11
141.4561766492887
 21
257.6415261702743
 31
0.0
 11
141.8934452100637
 21
257.4278053710589
 31
0.0
 11
142.2757782169427
 21
257.2052439508877
 31
0.0
 11
142.6394258422618
 21
256.9527805738296
 31
0.0
 11
142.9437253944413
 21
256.6983843145157
 31
0.0
 11
143.2214729438165
 21
256.4145806859488
 31
0.0
 11
143.4398350037115
 21
256.1344087625041
 31
0.0
 11
143.6213913871465
 21
255.8283629882015
 31
0.0
 11
143.747097642223
 21
255.5280020233098
 31
0.0
 11
143.8252703047767
 21
255.2113908591505
 31
0.0
 11
143.8515584957119
 21
254.8975743725123
 31
0.0
 11
143.8252703047767
 21
254.583757885874
 31
0.0
  0
SPLINE
  5
1C0
330
53
100
AcDbEntity
  8
0
  6
Continuous
 62
     7
100
AcDbSpline
210
0.0
220
0.0
230
1.0
 70
    11
 71
     3
 72
    79
 73
    75
 74
    73
 42
0.000000001
 43
0.0000000001
 44
0.00000001
 40
0.0
 40
0.0
 40
0.0
 40
0.0
 40
0.2910229063172391
 40
0.5820342199790345
 40
0.8749339259794753
 40
1.167812540311626
 40
1.463561181729806
 40
1.75928279955364
 40
2.058487804326523
 40
2.35766387886559
 40
2.660503334662593
 40
2.963315618548039
 40
3.269530819653519
 40
3.575723462230533
 40
3.884662737575049
 40
4.193586021287187
 40
4.504289078951532
 40
4.814983875317342
 40
5.126294424223119
 40
5.43760497311796
 40
5.748299769450886
 40
6.059002827059794
 40
6.367926110694167
 40
6.676865385937287
 40
6.983058028389882
 40
7.289273229345859
 40
7.592085513057433
 40
7.894924968652632
 40
8.194101042962489
 40
8.493306047472748
 40
8.789027664996864
 40
9.084776306062183
 40
9.37765491995624
 40
9.670554625323055
 40
9.961565937614846
 40
10.2525888527921
 40
10.54295309049232
 40
10.83331732819156
 40
11.12434024336579
 40
11.41535155565219
 40
11.70825126101171
 40
12.00112987489666
 40
12.29687851595105
 40
12.59260013346239
 40
12.89180513795819
 40
13.19098121225231
 40
13.49382066783044
 40
13.79663295152382
 40
14.10284815246045
 40
14.40904079489275
 40
14.71798007011463
 40
15.02690335372701
 40
15.33760641131318
 40
15.64830120762285
 40
15.95961175649401
 40
16.27092230537555
 40
16.58161710171673
 40
16.89232015935582
 40
17.20124344304234
 40
17.51018271836075
 40
17.81637536091123
 40
18.12259056198946
 40
18.42540284584679
 40
18.72824230161368
 40
19.02741837611989
 40
19.32662338085476
 40
19.62234499863104
 40
19.91809363998194
 40
20.21097225419822
 40
20.5038719599387
 40
20.79488327268855
 40
21.08590618851611
 40
21.37627042760413
 40
21.66663465645642
 40
21.66663465645642
 40
21.66663465645642
 40
21.66663465645642
 10
149.0338033461186
 20
258.4546436239133
 30
0.0
 10
148.9374282904035
 20
258.4429679564756
 30
0.0
 10
148.7446820173356
 20
258.4196170918896
 30
0.0
 10
148.4607455100064
 20
258.3502611001241
 30
0.0
 10
148.1834812433811
 20
258.2568183430091
 30
0.0
 10
147.9147288590885
 20
258.1369113572744
 30
0.0
 10
147.6570834752541
 20
257.9928658522819
 30
0.0
 10
147.4118565277498
 20
257.8247992515936
 30
0.0
 10
147.1815931714541
 20
257.6349645186527
 30
0.0
 10
146.9673609627146
 20
257.4238283901039
 30
0.0
 10
146.7714065337417
 20
257.1940487865754
 30
0.0
 10
146.5946491899178
 20
256.9463202544475
 30
0.0
 10
146.4388783557549
 20
256.6835880147019
 30
0.0
 10
146.3049099381934
 20
256.4068370031417
 30
0.0
 10
146.1939869067199
 20
256.1191050254536
 30
0.0
 10
146.1068101141621
 20
255.8217515791013
 30
0.0
 10
146.0440621038853
 20
255.5177055830238
 30
0.0
 10
146.0062617244899
 20
255.208763987331
 30
0.0
 10
145.9935846508193
 20
254.8975743820857
 30
0.0
 10
146.0062617241244
 20
254.5863847768309
 30
0.0
 10
146.0440621031551
 20
254.2774431811436
 30
0.0
 10
146.1068101130581
 20
253.973397184985
 30
0.0
 10
146.1939869052658
 20
253.6760437388343
 30
0.0
 10
146.3049099362843
 20
253.3883117602591
 30
0.0
 10
146.438878353761
 20
253.1115607518033
 30
0.0
 10
146.5946491864378
 20
252.8488285003118
 30
0.0
 10
146.7714065339263
 20
252.601100011283
 30
0.0
 10
146.9673609474347
 20
252.3713202475876
 30
0.0
 10
147.1815932113088
 20
252.1601847095018
 30
0.0
 10
147.4118563611446
 20
251.9703477863923
 30
0.0
 10
147.6570840685389
 20
251.8022892683118
 30
0.0
 10
147.914726630016
 20
251.6582137665289
 30
0.0
 10
148.183489447703
 20
251.5384176960553
 30
0.0
 10
148.4607149331904
 20
251.4445626992161
 30
0.0
 10
148.7447952864868
 20
251.3767357926243
 30
0.0
 10
149.0331627667932
 20
251.3360408309941
 30
0.0
 10
149.3238468002658
 20
251.3222750374189
 30
0.0
 10
149.6145308337385
 20
251.3360408309688
 30
0.0
 10
149.9028983140453
 20
251.3767357925739
 30
0.0
 10
150.1869786673424
 20
251.4445626991408
 30
0.0
 10
150.4642041528305
 20
251.5384176959549
 30
0.0
 10
150.7329669705187
 20
251.6582137664037
 30
0.0
 10
150.9906095319972
 20
251.8022892681616
 30
0.0
 10
151.2358372393928
 20
251.9703477862178
 30
0.0
 10
151.4661003892302
 20
252.1601847093029
 30
0.0
 10
151.6803326531061
 20
252.3713202473645
 30
0.0
 10
151.8762870666166
 20
252.6011000110356
 30
0.0
 10
152.0530444141076
 20
252.8488285000404
 30
0.0
 10
152.2088152467869
 20
253.1115607515081
 30
0.0
 10
152.3427836642662
 20
253.3883117599399
 30
0.0
 10
152.4537066952878
 20
253.6760437384915
 30
0.0
 10
152.5408834874986
 20
253.9733971846183
 30
0.0
 10
152.6036314974052
 20
254.2774431807528
 30
0.0
 10
152.6414318764394
 20
254.5863847764168
 30
0.0
 10
152.6541089497487
 20
254.8975743816465
 30
0.0
 10
152.641431876083
 20
255.2087639868719
 30
0.0
 10
152.6036314966913
 20
255.5177055825251
 30
0.0
 10
152.540883486427
 20
255.8217515786354
 30
0.0
 10
152.4537066938536
 20
256.1191050247506
 30
0.0
 10
152.3427836624746
 20
256.4068370032043
 30
0.0
 10
152.2088152446059
 20
256.683588011816
 30
0.0
 10
152.0530444116341
 20
256.9463202623894
 30
0.0
 10
151.8762870634742
 20
257.194048754423
 30
0.0
 10
151.6803326506613
 20
257.4238285065352
 30
0.0
 10
151.4661003824102
 20
257.634964086856
 30
0.0
 10
151.2358372469498
 20
257.8248008527751
 30
0.0
 10
150.9906094846139
 20
257.9928599503565
 30
0.0
 10
150.7329671250789
 20
258.1369333007673
 30
0.0
 10
150.4642035586642
 20
258.2567373253112
 30
0.0
 10
150.1869808537965
 20
258.3505627582578
 30
0.0
 10
149.9028901841394
 20
258.4184993226008
 30
0.0
 10
149.6145611223898
 20
258.4587858789115
 30
0.0
 10
149.323734011928
 20
258.4740726233056
 30
0.0
 10
149.1304469003609
 20
258.461119955215
 30
0.0
 10
149.0338033461186
 20
258.4546436239133
 30
0.0
 11
149.0338033461186
 21
258.4546436239133
 31
0.0
 11
148.7456438498437
 21
258.4139196508268
 31
0.0
 11
148.4625616434613
 21
258.3464507807615
 31
0.0
 11
148.1851376009176
 21
258.2525032521227
 31
0.0
 11
147.9175758488003
 21
258.1333873783233
 31
0.0
 11
147.6594434800851
 21
257.9890442488661
 31
0.0
 11
147.4154308274739
 21
257.8219840784504
 31
0.0
 11
147.1845513219429
 21
257.6316730468498
 31
0.0
 11
146.9713760269916
 21
257.4217620724942
 31
0.0
 11
146.7748417029833
 21
257.1913580893677
 31
0.0
 11
146.5988681671838
 21
256.94492636668
 31
0.0
 11
146.4426710267111
 21
256.6815441298421
 31
0.0
 11
146.3091753387469
 21
256.4059849970643
 31
0.0
 11
146.1980254131898
 21
256.1177330761669
 31
0.0
 11
146.1110487591634
 21
255.8213065981266
 31
0.0
 11
146.0482436848419
 21
255.5170174055837
 31
0.0
 11
146.0104683231704
 21
255.2086275896632
 31
0.0
 11
145.9978131269569
 21
254.8975743725123
 31
0.0
 11
146.0104683231704
 21
254.5865211553613
 31
0.0
 11
146.0482436848419
 21
254.2781313394406
 31
0.0
 11
146.1110487591634
 21
253.9738421468976
 31
0.0
 11
146.1980254131898
 21
253.6774156688572
 31
0.0
 11
146.3091753387469
 21
253.38916374796
 31
0.0
 11
146.4426710267111
 21
253.1136046151822
 31
0.0
 11
146.5988681671838
 21
252.8502223783444
 31
0.0
 11
146.7748417029833
 21
252.6037906556567
 31
0.0
 11
146.9713760269916
 21
252.3733866725302
 31
0.0
 11
147.1845513219429
 21
252.1634756981747
 31
0.0
 11
147.4154308274739
 21
251.973164666574
 31
0.0
 11
147.6594434800851
 21
251.8061044961583
 31
0.0
 11
147.9175758488003
 21
251.661761366701
 31
0.0
 11
148.1851376009176
 21
251.5426454929016
 31
0.0
 11
148.4625616434615
 21
251.4486979642628
 31
0.0
 11
148.745643849844
 21
251.3812290941975
 31
0.0
 11
149.0338033461188
 21
251.340505121111
 31
0.0
 11
149.3238468008691
 21
251.3268601582408
 31
0.0
 11
149.6138902556196
 21
251.340505121111
 31
0.0
 11
149.9020497518945
 21
251.3812290941975
 31
0.0
 11
150.1851319582769
 21
251.4486979642628
 31
0.0
 11
150.4625560008207
 21
251.5426454929016
 31
0.0
 11
150.7301177529381
 21
251.661761366701
 31
0.0
 11
150.9882501216534
 21
251.8061044961582
 31
0.0
 11
151.2322627742645
 21
251.9731646665739
 31
0.0
 11
151.4631422797954
 21
252.1634756981747
 31
0.0
 11
151.6763175747466
 21
252.3733866725302
 31
0.0
 11
151.8728518987549
 21
252.6037906556567
 31
0.0
 11
152.0488254345545
 21
252.8502223783444
 31
0.0
 11
152.2050225750275
 21
253.1136046151822
 31
0.0
 11
152.3385182629917
 21
253.38916374796
 31
0.0
 11
152.4496681885488
 21
253.6774156688572
 31
0.0
 11
152.5366448425752
 21
253.9738421468975
 31
0.0
 11
152.5994499168968
 21
254.2781313394405
 31
0.0
 11
152.6372252785682
 21
254.5865211553611
 31
0.0
 11
152.6498804747816
 21
254.8975743725123
 31
0.0
 11
152.637225278568
 21
255.2086275896632
 31
0.0
 11
152.5994499168964
 21
255.5170174055837
 31
0.0
 11
152.536644842575
 21
255.8213065981266
 31
0.0
 11
152.4496681885487
 21
256.1177330761669
 31
0.0
 11
152.3385182629917
 21
256.4059849970641
 31
0.0
 11
152.2050225750275
 21
256.6815441298419
 31
0.0
 11
152.0488254345546
 21
256.9449263666799
 31
0.0
 11
151.8728518987548
 21
257.1913580893677
 31
0.0
 11
151.6763175747466
 21
257.4217620724942
 31
0.0
 11
151.4631422797954
 21
257.6316730468497
 31
0.0
 11
151.2322627742645
 21
257.8219840784504
 31
0.0
 11
150.9882501216534
 21
257.9890442488661
 31
0.0
 11
150.7301177529381
 21
258.1333873783233
 31
0.0
 11
150.4625560008207
 21
258.2525032521228
 31
0.0
 11
150.1851319582769
 21
258.3464507807615
 31
0.0
 11
149.9020497518945
 21
258.4139196508268
 31
0.0
 11
149.6138902556196
 21
258.4546436239133
 31
0.0
 11
149.3238468008691
 21
258.4682885867836
 31
0.0
 11
149.0338033461186
 21
258.4546436239133
 31
0.0
  0
SPLINE
  5
1C1
330
53
100
AcDbEntity
  8
1
  6
Continuous
 62
     7
100
AcDbSpline
210
0.0
220
0.0
230
1.0
 70
     8
 71
     3
 72
    15
 73
    11
 74
     9
 42
0.000000001
 43
0.0000000001
 44
0.00000001
 40
0.0
 40
0.0
 40
0.0
 40
0.0
 40
0.2504855992493931
 40
0.5011526620021791
 40
0.9976070399907094
 40
1.49408946529896
 40
1.976925597528164
 40
2.459822395511229
 40
2.790779777841762
 40
3.121519215132166
 40
3.121519215132166
 40
3.121519215132166
 40
3.121519215132166
 10
361.3613320828766
 20
258.4631772497135
 30
0.0
 10
361.4448300402132
 20
258.4625236207788
 30
0.0
 10
361.6118864445227
 20
258.4612158748652
 30
0.0
 10
361.94418637004
 20
258.4473718071182
 30
0.0
 10
362.3575775521218
 20
258.4139697253374
 30
0.0
 10
362.8452270590426
 20
258.3473646096556
 30
0.0
 10
363.3239691041337
 20
258.254431383313
 30
0.0
 10
363.7429140325775
 20
258.1471849781462
 30
0.0
 10
364.1077179533452
 20
258.0348260264202
 30
0.0
 10
364.3143871963554
 20
257.9576543198002
 30
0.0
 10
364.4176877797496
 20
257.9190811687787
 30
0.0
 11
361.3613320828766
 21
258.4631772497135
 31
0.0
 11
361.6117949897691
 21
258.4598056586393
 31
0.0
 11
361.8622578966617
 21
258.4496908854161
 31
0.0
 11
362.3570774486441
 21
258.409434697009
 31
0.0
 11
362.8489741553377
 21
258.3421113792357
 31
0.0
 11
363.3229061828364
 21
258.2498120585695
 31
0.0
 11
363.7907520732373
 21
258.1301895640185
 31
0.0
 11
364.1067301700257
 21
258.0317485579448
 31
0.0
 11
364.4176877797496
 21
257.9190811687787
 31
0.0
  0
SPLINE
  5
1C2
330
53
100
AcDbEntity
  8
1
  6
Continuous
 62
     7
100
AcDbSpline
210
0.0
220
0.0
230
1.0
 70
     8
 71
     3
 72
    15
 73
    11
 74
     9
 42
0.000000001
 43
0.0000000001
 44
0.00000001
 40
0.0
 40
0.0
 40
0.0
 40
0.0
 40
0.3005600958933982
 40
0.6013520082050278
 40
1.084248806122794
 40
1.567084938335459
 40
2.063567363667069
 40
2.560021741706995
 40
2.81068880448647
 40
3.061174403760814
 40
3.061174403760814
 40
3.061174403760814
 40
3.061174403760814
 10
364.3613320828832
 20
251.8442292668793
 30
0.0
 10
364.2672127689825
 20
251.8098474580376
 30
0.0
 10
364.0789015438302
 20
251.7410573360205
 30
0.0
 10
363.7331737519348
 20
251.6352474691631
 30
0.0
 10
363.3239672518209
 20
251.5304942748496
 30
0.0
 10
362.8452275719038
 20
251.4375615754797
 30
0.0
 10
362.3575774102161
 20
251.3709563139073
 30
0.0
 10
361.9441863877877
 20
251.3375542677055
 30
0.0
 10
361.611886441416
 20
251.3237101953201
 30
0.0
 10
361.4448300391802
 20
251.3224024498725
 30
0.0
 10
361.3613320828803
 20
251.3217488211705
 30
0.0
 11
364.3613320828832
 21
251.8442292668793
 31
0.0
 11
364.0781152480391
 21
251.7436082157583
 31
0.0
 11
363.7907520732372
 21
251.6547365068654
 31
0.0
 11
363.3229061828364
 21
251.5351140123143
 31
0.0
 11
362.8489741553377
 21
251.4428146916481
 31
0.0
 11
362.3570774486441
 21
251.3754913738748
 31
0.0
 11
361.8622578966618
 21
251.3352351854678
 31
0.0
 11
361.6117949897711
 21
251.3251204122448
 31
0.0
 11
361.3613320828803
 21
251.3217488211705
 31
0.0
  0
SPLINE
  5
1C3
330
53
100
AcDbEntity
  8
1
  6
Continuous
 62
     7
100
AcDbSpline
210
0.0
220
0.0
230
1.0
 70
     8
 71
     3
 72
    15
 73
    11
 74
     9
 42
0.000000001
 43
0.0000000001
 44
0.00000001
 40
0.0
 40
0.0
 40
0.0
 40
0.0
 40
0.3005600958900776
 40
0.6013520081983469
 40
1.084248806116051
 40
1.56708493832866
 40
2.063567363660214
 40
2.560021741700253
 40
2.810688804479728
 40
3.061174403754073
 40
3.061174403754073
 40
3.061174403754073
 40
3.061174403754073
 10
372.3613320828873
 20
251.8442292668769
 30
0.0
 10
372.455451396787
 20
251.8098474580356
 30
0.0
 10
372.6437626219374
 20
251.7410573360196
 30
0.0
 10
372.9894904138304
 20
251.6352474691628
 30
0.0
 10
373.3986969139435
 20
251.5304942748497
 30
0.0
 10
373.8774365938603
 20
251.4375615754797
 30
0.0
 10
374.365086755548
 20
251.3709563139072
 30
0.0
 10
374.7784777779767
 20
251.3375542677056
 30
0.0
 10
375.1107777243481
 20
251.3237101953201
 30
0.0
 10
375.277834126584
 20
251.3224024498725
 30
0.0
 10
375.3613320828839
 20
251.3217488211705
 30
0.0
 11
372.3613320828873
 21
251.8442292668769
 31
0.0
 11
372.6445489177283
 21
251.7436082157572
 31
0.0
 11
372.9319120925271
 21
251.6547365068653
 31
0.0
 11
373.3997579829278
 21
251.5351140123143
 31
0.0
 11
373.8736900104265
 21
251.4428146916481
 31
0.0
 11
374.36558671712
 21
251.3754913738748
 31
0.0
 11
374.8604062691024
 21
251.3352351854678
 31
0.0
 11
375.1108691759931
 21
251.3251204122448
 31
0.0
 11
375.3613320828839
 21
251.3217488211705
 31
0.0
  0
SPLINE
  5
1C4
330
53
100
AcDbEntity
  8
1
  6
Continuous
 62
     7
100
AcDbSpline
210
0.0
220
0.0
230
1.0
 70
     8
 71
     3
 72
    45
 73
    41
 74
    39
 42
0.000000001
 43
0.0000000001
 44
0.00000001
 40
0.0
 40
0.0
 40
0.0
 40
0.0
 40
0.250485592391455
 40
0.5011526542645093
 40
0.9976070319515077
 40
1.494089457490847
 40
1.976925590205404
 40
2.459822388860318
 40
2.921035295681453
 40
3.382351332272612
 40
3.815601776448329
 40
4.249013692941959
 40
4.650432700713477
 40
5.052091376295879
 40
5.421199499126018
 40
5.790635502078773
 40
6.131267663831697
 40
6.472271412401827
 40
6.793085244011415
 40
7.114166556699168
 40
7.427928541505082
 40
7.741690526310992
 40
8.062771838998737
 40
8.383585670608218
 40
8.724589419178322
 40
9.065221580931365
 40
9.43465758388412
 40
9.803765706714342
 40
10.20542438229659
 40
10.60684339006828
 40
11.04025530656198
 40
11.47350575073765
 40
11.93482178732885
 40
12.39603469414984
 40
12.8789314928047
 40
13.36176762551931
 40
13.85825005105874
 40
14.35470442874562
 40
14.60537149061685
 40
14.85585708300655
 40
14.85585708300655
 40
14.85585708300655
 40
14.85585708300655
 10
375.3613320828769
 20
258.4631772497135
 30
0.0
 10
375.4448300177792
 20
258.4625235617958
 30
0.0
 10
375.6118863792373
 20
258.4612157012939
 30
0.0
 10
375.9441867035139
 20
258.4473728089822
 30
0.0
 10
376.3575748066429
 20
258.4139617127678
 30
0.0
 10
376.8452369369471
 20
258.3473935621435
 30
0.0
 10
377.3239333836451
 20
258.2543268074635
 30
0.0
 10
377.7851288882351
 20
258.136795096391
 30
0.0
 10
378.2314872769837
 20
257.9936122237806
 30
0.0
 10
378.6525917798982
 20
257.828647313574
 30
0.0
 10
379.0531464236836
 20
257.6394304148678
 30
0.0
 10
379.4218430131991
 20
257.4318631974579
 30
0.0
 10
379.7644593049432
 20
257.2019914411966
 30
0.0
 10
380.0700071483742
 20
256.9576081333562
 30
0.0
 10
380.3441596139759
 20
256.6935768839285
 30
0.0
 10
380.5774032788642
 20
256.4188195399774
 30
0.0
 10
380.7742823122582
 20
256.1281189884513
 30
0.0
 10
380.927381854414
 20
255.8301333340475
 30
0.0
 10
381.0399293248801
 20
255.5214327149588
 30
0.0
 10
381.1064808352156
 20
255.2088620781486
 30
0.0
 10
381.1299560918941
 20
254.8924630354418
 30
0.0
 10
381.1064808352155
 20
254.576063992735
 30
0.0
 10
381.0399293248805
 20
254.2634933559248
 30
0.0
 10
380.927381854414
 20
253.9547927368362
 30
0.0
 10
380.7742823122585
 20
253.6568070824324
 30
0.0
 10
380.577403278864
 20
253.3661065309064
 30
0.0
 10
380.3441596139761
 20
253.0913491869551
 30
0.0
 10
380.0700071483741
 20
252.8273179375277
 30
0.0
 10
379.7644593049431
 20
252.5829346296873
 30
0.0
 10
379.421843013199
 20
252.3530628734258
 30
0.0
 10
379.0531464236835
 20
252.1454956560162
 30
0.0
 10
378.6525917798981
 20
251.9562787573096
 30
0.0
 10
378.2314872769838
 20
251.7913138471033
 30
0.0
 10
377.7851288882349
 20
251.6481309744926
 30
0.0
 10
377.3239333836453
 20
251.5305992634202
 30
0.0
 10
376.845236936947
 20
251.4375325087402
 30
0.0
 10
376.357574806643
 20
251.3709643581161
 30
0.0
 10
375.9441867035143
 20
251.3375532619018
 30
0.0
 10
375.6118863792392
 20
251.3237103695903
 30
0.0
 10
375.4448300177822
 20
251.3224025090884
 30
0.0
 10
375.3613320828805
 20
251.3217488211705
 30
0.0
 11
375.3613320828769
 21
258.4631772497135
 31
0.0
 11
375.6117949897695
 21
258.4598056586393
 31
0.0
 11
375.862257896662
 21
258.4496908854161
 31
0.0
 11
376.3570774486442
 21
258.409434697009
 31
0.0
 11
376.8489741553377
 21
258.3421113792357
 31
0.0
 11
377.3229061828364
 21
258.2498120585695
 31
0.0
 11
377.7907520732372
 21
258.1301895640185
 31
0.0
 11
378.2298411617378
 21
257.9890580013483
 31
0.0
 11
378.659174513477
 21
257.8202819399013
 31
0.0
 11
379.0507421826707
 21
257.6348615849505
 31
0.0
 11
379.4280705453888
 21
257.4216265121353
 31
0.0
 11
379.7610976645695
 21
257.197505656542
 31
0.0
 11
380.0742590217912
 21
256.9459909327952
 31
0.0
 11
380.3395961508962
 21
256.6894036874148
 31
0.0
 11
380.5780894474515
 21
256.4072620420691
 31
0.0
 11
380.768325171557
 21
256.1247011828863
 31
0.0
 11
380.9237500381342
 21
255.8211774314906
 31
0.0
 11
381.0327048702786
 21
255.5194319106207
 31
0.0
 11
381.0997004119815
 21
255.2054178870075
 31
0.0
 11
381.1221913937835
 21
254.8924630354418
 31
0.0
 11
381.0997004119815
 21
254.5795081838761
 31
0.0
 11
381.0327048702788
 21
254.265494160263
 31
0.0
 11
380.9237500381345
 21
253.9637486393931
 31
0.0
 11
380.7683251715573
 21
253.6602248879975
 31
0.0
 11
380.5780894474516
 21
253.3776640288146
 31
0.0
 11
380.3395961508963
 21
253.0955223834689
 31
0.0
 11
380.0742590217912
 21
252.8389351380886
 31
0.0
 11
379.7610976645695
 21
252.5874204143419
 31
0.0
 11
379.4280705453887
 21
252.3632995587485
 31
0.0
 11
379.0507421826705
 21
252.1500644859333
 31
0.0
 11
378.6591745134768
 21
251.9646441309824
 31
0.0
 11
378.2298411617376
 21
251.7958680695355
 31
0.0
 11
377.7907520732372
 21
251.6547365068653
 31
0.0
 11
377.3229061828364
 21
251.5351140123143
 31
0.0
 11
376.8489741553377
 21
251.4428146916481
 31
0.0
 11
376.3570774486441
 21
251.3754913738748
 31
0.0
 11
375.862257896662
 21
251.3352351854678
 31
0.0
 11
375.6117949897713
 21
251.3251204122448
 31
0.0
 11
375.3613320828805
 21
251.3217488211705
 31
0.0
  0
SPLINE
  5
1C5
330
53
100
AcDbEntity
  8
1
  6
Continuous
 62
     7
100
AcDbSpline
210
0.0
220
0.0
230
1.0
 70
     8
 71
     3
 72
    15
 73
    11
 74
     9
 42
0.000000001
 43
0.0000000001
 44
0.00000001
 40
0.0
 40
0.0
 40
0.0
 40
0.0
 40
0.2504855992493931
 40
0.5011526620021791
 40
0.9976070399906527
 40
1.494089465298846
 40
1.976925597528051
 40
2.45982239551095
 40
2.790779777841538
 40
3.121519215132048
 40
3.121519215132048
 40
3.121519215132048
 40
3.121519215132048
 10
375.3613320828875
 20
258.4631772497135
 30
0.0
 10
375.2778341255508
 20
258.4625236207788
 30
0.0
 10
375.1107777212413
 20
258.4612158748652
 30
0.0
 10
374.7784777957241
 20
258.4473718071183
 30
0.0
 10
374.3650866136422
 20
258.4139697253374
 30
0.0
 10
373.8774371067216
 20
258.3473646096555
 30
0.0
 10
373.3986950616306
 20
258.254431383313
 30
0.0
 10
372.9797501331868
 20
258.1471849781462
 30
0.0
 10
372.6149462124191
 20
258.0348260264202
 30
0.0
 10
372.4082769694088
 20
257.9576543198002
 30
0.0
 10
372.3049763860146
 20
257.9190811687787
 30
0.0
 11
375.3613320828875
 21
258.4631772497135
 31
0.0
 11
375.1108691759949
 21
258.4598056586393
 31
0.0
 11
374.8604062691023
 21
258.4496908854161
 31
0.0
 11
374.36558671712
 21
258.409434697009
 31
0.0
 11
373.8736900104265
 21
258.3421113792357
 31
0.0
 11
373.3997579829277
 21
258.2498120585695
 31
0.0
 11
372.931912092527
 21
258.1301895640185
 31
0.0
 11
372.6159339957386
 21
258.0317485579448
 31
0.0
 11
372.3049763860146
 21
257.9190811687787
 31
0.0
  0
SPLINE
  5
1C6
330
53
100
AcDbEntity
  8
1
  6
Continuous
 62
     7
100
AcDbSpline
210
0.0
220
0.0
230
1.0
 70
     8
 71
     3
 72
    45
 73
    41
 74
    39
 42
0.000000001
 43
0.0000000001
 44
0.00000001
 40
0.0
 40
0.0
 40
0.0
 40
0.0
 40
0.2504855923915119
 40
0.5011526542646205
 40
0.997607031951671
 40
1.494089457491067
 40
1.976925590205757
 40
2.459822388860616
 40
2.921035295681589
 40
3.382351332272854
 40
3.815601776448468
 40
4.249013692942295
 40
4.650432700713766
 40
5.052091376296213
 40
5.421199499126271
 40
5.790635502079025
 40
6.131267663832045
 40
6.4722714124022
 40
6.793085244011788
 40
7.114166556699541
 40
7.427928541505419
 40
7.741690526311264
 40
8.062771838998934
 40
8.383585670608449
 40
8.72458941917863
 40
9.065221580931704
 40
9.43465758388451
 40
9.803765706714568
 40
10.20542438229693
 40
10.60684339006859
 40
11.04025530656243
 40
11.47350575073805
 40
11.93482178732919
 40
12.39603469415018
 40
12.87893149280515
 40
13.36176762551971
 40
13.85825005105909
 40
14.35470442874614
 40
14.60537149061748
 40
14.85585708300695
 40
14.85585708300695
 40
14.85585708300695
 40
14.85585708300695
 10
361.3613320828875
 20
258.4631772497135
 30
0.0
 10
361.2778341479853
 20
258.4625235617957
 30
0.0
 10
361.1107777865269
 20
258.461215701294
 30
0.0
 10
360.7784774622505
 20
258.4473728089821
 30
0.0
 10
360.3650893591213
 20
258.4139617127681
 30
0.0
 10
359.8774272288171
 20
258.3473935621436
 30
0.0
 10
359.3987307821189
 20
258.2543268074636
 30
0.0
 10
358.937535277529
 20
258.136795096391
 30
0.0
 10
358.4911768887804
 20
257.9936122237805
 30
0.0
 10
358.070072385866
 20
257.8286473135742
 30
0.0
 10
357.6695177420808
 20
257.6394304148676
 30
0.0
 10
357.300821152565
 20
257.4318631974581
 30
0.0
 10
356.958204860821
 20
257.2019914411965
 30
0.0
 10
356.65265701739
 20
256.9576081333562
 30
0.0
 10
356.3785045517882
 20
256.6935768839285
 30
0.0
 10
356.1452608869002
 20
256.4188195399774
 30
0.0
 10
355.9483818535059
 20
256.1281189884513
 30
0.0
 10
355.79528231135
 20
255.8301333340475
 30
0.0
 10
355.6827348408838
 20
255.5214327149588
 30
0.0
 10
355.6161833305484
 20
255.2088620781486
 30
0.0
 10
355.5927080738699
 20
254.8924630354418
 30
0.0
 10
355.6161833305483
 20
254.5760639927352
 30
0.0
 10
355.6827348408837
 20
254.263493355925
 30
0.0
 10
355.7952823113499
 20
253.9547927368364
 30
0.0
 10
355.9483818535056
 20
253.6568070824325
 30
0.0
 10
356.1452608869
 20
253.3661065309064
 30
0.0
 10
356.3785045517882
 20
253.0913491869554
 30
0.0
 10
356.65265701739
 20
252.8273179375277
 30
0.0
 10
356.9582048608211
 20
252.5829346296874
 30
0.0
 10
357.3008211525649
 20
252.3530628734257
 30
0.0
 10
357.6695177420809
 20
252.1454956560162
 30
0.0
 10
358.070072385866
 20
251.9562787573097
 30
0.0
 10
358.4911768887806
 20
251.7913138471033
 30
0.0
 10
358.9375352775292
 20
251.6481309744927
 30
0.0
 10
359.3987307821189
 20
251.5305992634202
 30
0.0
 10
359.8774272288171
 20
251.4375325087403
 30
0.0
 10
360.3650893591213
 20
251.370964358116
 30
0.0
 10
360.77847746225
 20
251.3375532619018
 30
0.0
 10
361.1107777865251
 20
251.3237103695902
 30
0.0
 10
361.2778341479821
 20
251.3224025090884
 30
0.0
 10
361.3613320828837
 20
251.3217488211705
 30
0.0
 11
361.3613320828875
 21
258.4631772497135
 31
0.0
 11
361.1108691759949
 21
258.4598056586393
 31
0.0
 11
360.8604062691023
 21
258.4496908854162
 31
0.0
 11
360.36558671712
 21
258.4094346970091
 31
0.0
 11
359.8736900104265
 21
258.3421113792358
 31
0.0
 11
359.3997579829277
 21
258.2498120585695
 31
0.0
 11
358.9319120925269
 21
258.1301895640185
 31
0.0
 11
358.4928230040265
 21
257.9890580013483
 31
0.0
 11
358.0634896522872
 21
257.8202819399013
 31
0.0
 11
357.6719219830936
 21
257.6348615849505
 31
0.0
 11
357.2945936203753
 21
257.4216265121353
 31
0.0
 11
356.9615665011946
 21
257.197505656542
 31
0.0
 11
356.6484051439728
 21
256.9459909327952
 31
0.0
 11
356.3830680148679
 21
256.6894036874148
 31
0.0
 11
356.1445747183127
 21
256.4072620420691
 31
0.0
 11
355.954338994207
 21
256.1247011828863
 31
0.0
 11
355.7989141276297
 21
255.8211774314906
 31
0.0
 11
355.6899592954853
 21
255.5194319106207
 31
0.0
 11
355.6229637537825
 21
255.2054178870075
 31
0.0
 11
355.6004727719805
 21
254.8924630354419
 31
0.0
 11
355.6229637537824
 21
254.5795081838762
 31
0.0
 11
355.6899592954853
 21
254.2654941602632
 31
0.0
 11
355.7989141276296
 21
253.9637486393933
 31
0.0
 11
355.9543389942069
 21
253.6602248879976
 31
0.0
 11
356.1445747183126
 21
253.3776640288147
 31
0.0
 11
356.3830680148679
 21
253.095522383469
 31
0.0
 11
356.6484051439728
 21
252.8389351380886
 31
0.0
 11
356.9615665011946
 21
252.5874204143419
 31
0.0
 11
357.2945936203754
 21
252.3632995587485
 31
0.0
 11
357.6719219830937
 21
252.1500644859333
 31
0.0
 11
358.0634896522873
 21
251.9646441309824
 31
0.0
 11
358.4928230040265
 21
251.7958680695355
 31
0.0
 11
358.9319120925269
 21
251.6547365068653
 31
0.0
 11
359.3997579829278
 21
251.5351140123143
 31
0.0
 11
359.8736900104265
 21
251.4428146916481
 31
0.0
 11
360.36558671712
 21
251.3754913738748
 31
0.0
 11
360.8604062691023
 21
251.3352351854678
 31
0.0
 11
361.1108691759931
 21
251.3251204122448
 31
0.0
 11
361.3613320828837
 21
251.3217488211705
 31
0.0
  0
ARC
  5
1C7
330
53
100
AcDbEntity
  8
1
  6
Continuous
 62
     7
100
AcDbCircle
 10
148.7575122096179
 20
258.7551113370705
 30
0.0
 40
1.000000000000086
100
AcDbArc
 50
74.66244233045437
 51
90.0
  0
ARC
  5
1C8
330
53
100
AcDbEntity
  8
1
  6
Continuous
 62
     7
100
AcDbCircle
 10
146.9674403403179
 20
259.7551113370705
 30
0.0
 40
1.0000000000005
100
AcDbArc
 50
29.99999999998345
 51
90.0
  0
ARC
  5
1C9
330
53
100
AcDbEntity
  8
1
  6
Continuous
 62
     7
100
AcDbCircle
 10
148.699491147887
 20
260.7551113370705
 30
0.0
 40
0.9999999999996882
100
AcDbArc
 50
210.0000000000103
 51
270.0
  0
ARC
  5
1CA
330
53
100
AcDbEntity
  8
1
  6
Continuous
 62
     7
100
AcDbCircle
 10
125.6414700861566
 20
258.7551113370705
 30
0.0
 40
1.0
100
AcDbArc
 50
90.0
 51
105.3375576695697
  0
ARC
  5
1CB
330
53
100
AcDbEntity
  8
1
  6
Continuous
 62
     7
100
AcDbCircle
 10
127.4315419554561
 20
259.7551113370705
 30
0.0
 40
1.0
100
AcDbArc
 50
90.0
 51
150.0000000000048
  0
ARC
  5
1CC
330
53
100
AcDbEntity
  8
1
  6
Continuous
 62
     7
100
AcDbCircle
 10
125.699491147887
 20
260.7551113370705
 30
0.0
 40
1.0
100
AcDbArc
 50
270.0
 51
330.0000000000015
  0
ARC
  5
1CD
330
53
100
AcDbEntity
  8
1
  6
Continuous
 62
     7
100
AcDbCircle
 10
356.8613320828821
 20
260.7500000000002
 30
0.0
 40
1.0
100
AcDbArc
 50
270.0
 51
330.0000000000027
  0
ARC
  5
1CE
330
53
100
AcDbEntity
  8
1
  6
Continuous
 62
     7
100
AcDbCircle
 10
356.8033110211517
 20
258.7500000000002
 30
0.0
 40
1.0
100
AcDbArc
 50
90.0
 51
105.3375576695575
  0
ARC
  5
1CF
330
53
100
AcDbEntity
  8
1
  6
Continuous
 62
     7
100
AcDbCircle
 10
358.5933828904509
 20
259.7500000000002
 30
0.0
 40
1.000000000000008
100
AcDbArc
 50
137.0585971351164
 51
149.9999999999962
  0
ARC
  5
1D0
330
53
100
AcDbEntity
  8
1
  6
Continuous
 62
     7
100
AcDbCircle
 10
358.5933828904509
 20
259.7500000000002
 30
0.0
 40
1.0
100
AcDbArc
 50
90.0
 51
137.0585971351164
  0
ARC
  5
1D1
330
53
100
AcDbEntity
  8
1
  6
Continuous
 62
     7
100
AcDbCircle
 10
379.9193531446127
 20
258.7500000000002
 30
0.0
 40
1.000000000000024
100
AcDbArc
 50
74.6624423304551
 51
90.0
  0
ARC
  5
1D2
330
53
100
AcDbEntity
  8
1
  6
Continuous
 62
     7
100
AcDbCircle
 10
378.1292812753133
 20
259.7500000000002
 30
0.0
 40
0.9999999999999665
100
AcDbArc
 50
42.94140286488582
 51
90.0
  0
ARC
  5
1D3
330
53
100
AcDbEntity
  8
1
  6
Continuous
 62
     7
100
AcDbCircle
 10
379.8613320828821
 20
260.7500000000002
 30
0.0
 40
0.9999999999998851
100
AcDbArc
 50
210.0000000000038
 51
270.0
  0
ARC
  5
1D4
330
53
100
AcDbEntity
  8
1
  6
Continuous
 62
     7
100
AcDbCircle
 10
378.1292812753133
 20
259.7500000000002
 30
0.0
 40
1.000000000000033
100
AcDbArc
 50
29.99999999999891
 51
42.94140286488582
  0
ENDBLK
  5
55
330
53
100
AcDbEntity
  8
0
100
AcDbBlockEnd
  0
BLOCK
  5
200
330
1F9
100
AcDbEntity
  8
0
100
AcDbBlockBegin
  2
*D6
 70
     1
 10
0.0
 20
0.0
 30
0.0
  3
*D6
  1

  0
LINE
  5
1FA
330
1F9
100
AcDbEntity
  8
0
  6
Continuous
 62
     2
100
AcDbLine
 10
413.8613320828828
 20
180.2500000000001
 30
0.0
 11
368.3613320828821
 21
180.2500000000001
 31
0.0
  0
LINE
  5
1FB
330
1F9
100
AcDbEntity
  8
0
  6
Continuous
 62
     2
100
AcDbLine
 10
413.8613320828828
 20
202.2500000000002
 30
0.0
 11
413.8613320828828
 21
177.7500000000001
 31
0.0
  0
LINE
  5
1FC
330
1F9
100
AcDbEntity
  8
0
  6
Continuous
 62
     2
100
AcDbLine
 10
368.3613320828821
 20
197.2539633022639
 30
0.0
 11
368.3613320828821
 21
177.7500000000001
 31
0.0
  0
SOLID
  5
1FD
330
1F9
100
AcDbEntity
  8
0
 62
     2
100
AcDbTrace
 10
405.1113320828828
 20
179.0980406461104
 30
0.0
 11
405.1113320828828
 21
181.4019593538898
 31
0.0
 12
413.8613320828828
 22
180.2500000000001
 32
0.0
 13
413.8613320828828
 23
180.2500000000001
 33
0.0
  0
SOLID
  5
1FE
330
1F9
100
AcDbEntity
  8
0
 62
     2
100
AcDbTrace
 10
377.1113320828821
 20
181.4019593538898
 30
0.0
 11
377.1113320828821
 21
179.0980406461104
 31
0.0
 12
368.3613320828821
 22
180.2500000000001
 32
0.0
 13
368.3613320828821
 23
180.2500000000001
 33
0.0
  0
MTEXT
  5
1FF
330
1F9
100
AcDbEntity
  8
0
 62
     7
100
AcDbMText
 10
384.5488320828826
 20
182.7500000000001
 30
0.0
 40
8.75
 41
0.0
 71
     7
 72
     1
  1
46
  7
CONVERTER_12
 11
0.9999999999970619
 21
2.424068405545306E-6
 31
0.0
 73
     1
 44
0.60024009603842
  0
ENDBLK
  5
201
330
1F9
100
AcDbEntity
  8
0
100
AcDbBlockEnd
  0
BLOCK
  5
20B
330
204
100
AcDbEntity
  8
0
100
AcDbBlockBegin
  2
*D7
 70
     1
 10
0.0
 20
0.0
 30
0.0
  3
*D7
  1

  0
LINE
  5
205
330
204
100
AcDbEntity
  8
1
  6
Continuous
 62
     2
100
AcDbLine
 10
427.8613320828828
 20
180.2500000000001
 30
0.0
 11
445.337029018767
 21
180.2500000000001
 31
0.0
  0
LINE
  5
206
330
204
100
AcDbEntity
  8
1
  6
Continuous
 62
     2
100
AcDbLine
 10
413.8613320828828
 20
180.2500000000001
 30
0.0
 11
427.8613320828828
 21
180.2500000000001
 31
0.0
  0
LINE
  5
207
330
204
100
AcDbEntity
  8
1
  6
Continuous
 62
     2
100
AcDbLine
 10
413.8613320828828
 20
214.7700000000002
 30
0.0
 11
413.8613320828828
 21
177.7500000000001
 31
0.0
  0
LINE
  5
208
330
204
100
AcDbEntity
  8
1
  6
Continuous
 62
     2
100
AcDbLine
 10
427.8613320828828
 20
215.9300000000002
 30
0.0
 11
427.8613320828828
 21
177.7500000000001
 31
0.0
  0
SOLID
  5
209
330
204
100
AcDbEntity
  8
1
 62
     2
100
AcDbTrace
 10
435.3613320828828
 20
181.2373937319056
 30
0.0
 11
435.3613320828828
 21
179.2626062680947
 31
0.0
 12
427.8613320828828
 22
180.2500000000001
 32
0.0
 13
427.8613320828828
 23
180.2500000000001
 33
0.0
  0
MTEXT
  5
20A
330
204
100
AcDbEntity
  8
1
 62
     7
100
AcDbMText
 10
434.837029018767
 20
182.7500000000001
 30
0.0
 40
8.75
 41
0.0
 71
     7
 72
     1
  1
14
  7
CONVERTER_12
 11
0.9999999999970619
 21
2.424068405545306E-6
 31
0.0
 73
     1
 44
0.60024009603842
  0
ENDBLK
  5
20C
330
204
100
AcDbEntity
  8
0
100
AcDbBlockEnd
  0
BLOCK
  5
20E
330
20D
100
AcDbEntity
  8
0
100
AcDbBlockBegin
  2
_NONE
 70
     0
 10
0.0
 20
0.0
 30
0.0
  3
_NONE
  1

  0
ENDBLK
  5
20F
330
20D
100
AcDbEntity
  8
0
100
AcDbBlockEnd
  0
BLOCK
  5
219
330
212
100
AcDbEntity
  8
0
100
AcDbBlockBegin
  2
*D9
 70
     1
 10
0.0
 20
0.0
 30
0.0
  3
*D9
  1

  0
LINE
  5
213
330
212
100
AcDbEntity
  8
0
  6
Continuous
 62
     2
100
AcDbLine
 10
452.8613320828828
 20
202.2500000000002
 30
0.0
 11
452.8613320828828
 21
248.2500000000002
 31
0.0
  0
LINE
  5
214
330
212
100
AcDbEntity
  8
0
  6
Continuous
 62
     2
100
AcDbLine
 10
413.8613320828828
 20
202.2500000000002
 30
0.0
 11
455.3613320828828
 21
202.2500000000002
 31
0.0
  0
LINE
  5
215
330
212
100
AcDbEntity
  8
0
  6
Continuous
 62
     2
100
AcDbLine
 10
413.8613320828828
 20
248.2500000000002
 30
0.0
 11
455.3613320828828
 21
248.2500000000002
 31
0.0
  0
SOLID
  5
216
330
212
100
AcDbEntity
  8
0
 62
     2
100
AcDbTrace
 10
451.7093727289931
 20
211.0000000000002
 30
0.0
 11
454.0132914367725
 21
211.0000000000002
 31
0.0
 12
452.8613320828828
 22
202.2500000000002
 32
0.0
 13
452.8613320828828
 23
202.2500000000002
 33
0.0
  0
SOLID
  5
217
330
212
100
AcDbEntity
  8
0
 62
     2
100
AcDbTrace
 10
454.0132914367725
 20
239.5000000000002
 30
0.0
 11
451.7093727289931
 21
239.5000000000002
 31
0.0
 12
452.8613320828828
 22
248.2500000000002
 32
0.0
 13
452.8613320828828
 23
248.2500000000002
 33
0.0
  0
MTEXT
  5
218
330
212
100
AcDbEntity
  8
0
 62
     7
100
AcDbMText
 10
450.3613320828828
 20
216.7625000000006
 30
0.0
 40
8.75
 41
0.0
 71
     7
 72
     1
  1
\C7;{\Fgdt;n}\C7;46
  7
CONVERTER_12
 11
0.0
 21
1.0
 31
0.0
 73
     1
 44
0.60024009603842
  0
ENDBLK
  5
21A
330
212
100
AcDbEntity
  8
0
100
AcDbBlockEnd
  0
BLOCK
  5
224
330
21D
100
AcDbEntity
  8
0
100
AcDbBlockBegin
  2
*D10
 70
     1
 10
0.0
 20
0.0
 30
0.0
  3
*D10
  1

  0
LINE
  5
21E
330
21D
100
AcDbEntity
  8
1
  6
Continuous
 62
     2
100
AcDbLine
 10
199.5876362702586
 20
225.25
 30
0.0
 11
199.5876362702586
 21
422.2554324379998
 31
0.0
  0
LINE
  5
21F
330
21D
100
AcDbEntity
  8
1
  6
Continuous
 62
     2
100
AcDbLine
 10
310.8613320828822
 20
422.2554324379998
 30
0.0
 11
197.0876362702586
 21
422.2554324379998
 31
0.0
  0
LINE
  5
220
330
21D
100
AcDbEntity
  8
1
  6
Continuous
 62
     2
100
AcDbLine
 10
330.363508533511
 20
225.25
 30
0.0
 11
197.0876362702586
 21
225.25
 31
0.0
  0
SOLID
  5
221
330
21D
100
AcDbEntity
  8
1
 62
     2
100
AcDbTrace
 10
198.4356769163689
 20
234.0
 30
0.0
 11
200.7395956241483
 21
234.0
 31
0.0
 12
199.5876362702586
 22
225.25
 32
0.0
 13
199.5876362702586
 23
225.25
 33
0.0
  0
SOLID
  5
222
330
21D
100
AcDbEntity
  8
1
 62
     2
100
AcDbTrace
 10
200.7395956241483
 20
413.5054324379998
 30
0.0
 11
198.4356769163689
 21
413.5054324379998
 31
0.0
 12
199.5876362702586
 22
422.2554324379998
 32
0.0
 13
199.5876362702586
 23
422.2554324379998
 33
0.0
  0
MTEXT
  5
223
330
21D
100
AcDbEntity
  8
1
 62
     7
100
AcDbMText
 10
197.0876362702586
 20
310.565216219
 30
0.0
 40
8.75
 41
0.0
 71
     7
 72
     1
  1
197
  7
CONVERTER_12
 11
0.0
 21
1.0
 31
0.0
 73
     1
 44
0.60024009603842
  0
ENDBLK
  5
225
330
21D
100
AcDbEntity
  8
0
100
AcDbBlockEnd
  0
BLOCK
  5
22F
330
228
100
AcDbEntity
  8
0
100
AcDbBlockBegin
  2
*D11
 70
     1
 10
0.0
 20
0.0
 30
0.0
  3
*D11
  1

  0
LINE
  5
229
330
228
100
AcDbEntity
  8
1
  6
Continuous
 62
     2
100
AcDbLine
 10
219.5876362702586
 20
225.25
 30
0.0
 11
219.5876362702586
 21
359.2554324379996
 31
0.0
  0
LINE
  5
22A
330
228
100
AcDbEntity
  8
1
  6
Continuous
 62
     2
100
AcDbLine
 10
252.3307027953753
 20
359.2554324379996
 30
0.0
 11
217.0876362702586
 21
359.2554324379996
 31
0.0
  0
LINE
  5
22B
330
228
100
AcDbEntity
  8
1
  6
Continuous
 62
     2
100
AcDbLine
 10
330.363508533511
 20
225.25
 30
0.0
 11
217.0876362702586
 21
225.25
 31
0.0
  0
SOLID
  5
22C
330
228
100
AcDbEntity
  8
1
 62
     2
100
AcDbTrace
 10
218.4356769163689
 20
234.0
 30
0.0
 11
220.7395956241483
 21
234.0
 31
0.0
 12
219.5876362702586
 22
225.25
 32
0.0
 13
219.5876362702586
 23
225.25
 33
0.0
  0
SOLID
  5
22D
330
228
100
AcDbEntity
  8
1
 62
     2
100
AcDbTrace
 10
220.7395956241483
 20
350.5054324379996
 30
0.0
 11
218.4356769163689
 21
350.5054324379996
 31
0.0
 12
219.5876362702586
 22
359.2554324379996
 32
0.0
 13
219.5876362702586
 23
359.2554324379996
 33
0.0
  0
MTEXT
  5
22E
330
228
100
AcDbEntity
  8
1
 62
     7
100
AcDbMText
 10
217.0876362702586
 20
283.0652162189999
 30
0.0
 40
8.75
 41
0.0
 71
     7
 72
     1
  1
134
  7
CONVERTER_12
 11
0.0
 21
1.0
 31
0.0
 73
     1
 44
0.60024009603842
  0
ENDBLK
  5
230
330
228
100
AcDbEntity
  8
0
100
AcDbBlockEnd
  0
BLOCK
  5
23A
330
233
100
AcDbEntity
  8
0
100
AcDbBlockBegin
  2
*D12
 70
     1
 10
0.0
 20
0.0
 30
0.0
  3
*D12
  1

  0
LINE
  5
234
330
233
100
AcDbEntity
  8
0
  6
Continuous
 62
     2
100
AcDbLine
 10
137.199491147887
 20
296.7185797334496
 30
0.0
 11
186.9994911478872
 21
296.7185797334496
 31
0.0
  0
LINE
  5
235
330
233
100
AcDbEntity
  8
0
  6
Continuous
 62
     2
100
AcDbLine
 10
137.199491147887
 20
284.7500000000005
 30
0.0
 11
137.199491147887
 21
299.2185797334496
 31
0.0
  0
LINE
  5
236
330
233
100
AcDbEntity
  8
0
  6
Continuous
 62
     2
100
AcDbLine
 10
186.9994911478872
 20
232.7500000000003
 30
0.0
 11
186.9994911478872
 21
299.2185797334496
 31
0.0
  0
SOLID
  5
237
330
233
100
AcDbEntity
  8
0
 62
     2
100
AcDbTrace
 10
145.949491147887
 20
297.8705390873393
 30
0.0
 11
145.949491147887
 21
295.5666203795599
 31
0.0
 12
137.199491147887
 22
296.7185797334496
 32
0.0
 13
137.199491147887
 23
296.7185797334496
 33
0.0
  0
SOLID
  5
238
330
233
100
AcDbEntity
  8
0
 62
     2
100
AcDbTrace
 10
178.2494911478872
 20
295.5666203795599
 30
0.0
 11
178.2494911478872
 21
297.8705390873393
 31
0.0
 12
186.9994911478872
 22
296.7185797334496
 32
0.0
 13
186.9994911478872
 23
296.7185797334496
 33
0.0
  0
MTEXT
  5
239
330
233
100
AcDbEntity
  8
0
 62
     7
100
AcDbMText
 10
156.2467564666864
 20
299.2185797334496
 30
0.0
 40
8.75
 41
0.0
 71
     7
 72
     1
  1
50
  7
CONVERTER_12
 11
0.9999999999970619
 21
2.424068405545306E-6
 31
0.0
 73
     1
 44
0.60024009603842
  0
ENDBLK
  5
23B
330
233
100
AcDbEntity
  8
0
100
AcDbBlockEnd
  0
BLOCK
  5
245
330
23E
100
AcDbEntity
  8
0
100
AcDbBlockBegin
  2
*D13
 70
     1
 10
0.0
 20
0.0
 30
0.0
  3
*D13
  1

  0
LINE
  5
23F
330
23E
100
AcDbEntity
  8
1
  6
Continuous
 62
     2
100
AcDbLine
 10
368.3613320828821
 20
180.2500000000001
 30
0.0
 11
252.3307027953753
 21
180.2500000000001
 31
0.0
  0
LINE
  5
240
330
23E
100
AcDbEntity
  8
1
  6
Continuous
 62
     2
100
AcDbLine
 10
368.3613320828821
 20
197.2539633022639
 30
0.0
 11
368.3613320828821
 21
177.7500000000001
 31
0.0
  0
LINE
  5
241
330
23E
100
AcDbEntity
  8
1
  6
Continuous
 62
     2
100
AcDbLine
 10
252.3307027953753
 20
359.2554324379997
 30
0.0
 11
252.3307027953753
 21
177.7500000000001
 31
0.0
  0
SOLID
  5
242
330
23E
100
AcDbEntity
  8
1
 62
     2
100
AcDbTrace
 10
359.6113320828821
 20
179.0980406461104
 30
0.0
 11
359.6113320828821
 21
181.4019593538898
 31
0.0
 12
368.3613320828821
 22
180.2500000000001
 32
0.0
 13
368.3613320828821
 23
180.2500000000001
 33
0.0
  0
SOLID
  5
243
330
23E
100
AcDbEntity
  8
1
 62
     2
100
AcDbTrace
 10
261.0807027953753
 20
181.4019593538898
 30
0.0
 11
261.0807027953753
 21
179.0980406461104
 31
0.0
 12
252.3307027953753
 22
180.2500000000001
 32
0.0
 13
252.3307027953753
 23
180.2500000000001
 33
0.0
  0
MTEXT
  5
244
330
23E
100
AcDbEntity
  8
1
 62
     7
100
AcDbMText
 10
302.4710174391287
 20
182.7500000000001
 30
0.0
 40
8.75
 41
0.0
 71
     7
 72
     1
  1
116
  7
CONVERTER_12
 11
0.9999999999970619
 21
2.424068405545306E-6
 31
0.0
 73
     1
 44
0.60024009603842
  0
ENDBLK
  5
246
330
23E
100
AcDbEntity
  8
0
100
AcDbBlockEnd
  0
BLOCK
  5
252
330
249
100
AcDbEntity
  8
0
100
AcDbBlockBegin
  2
*D14
 70
     1
 10
0.0
 20
0.0
 30
0.0
  3
*D14
  1

  0
LINE
  5
24A
330
249
100
AcDbEntity
  8
0
  6
Continuous
 62
     2
100
AcDbLine
 10
252.3307027953753
 20
355.7554324379997
 30
0.0
 11
252.3307027953753
 21
332.5866910030582
 31
0.0
  0
LINE
  5
24B
330
249
100
AcDbEntity
  8
0
  6
Continuous
 62
     2
100
AcDbLine
 10
251.4692623366725
 20
355.6710530319498
 30
0.0
 11
246.0988043407072
 21
333.3250407831389
 31
0.0
  0
LINE
  5
24C
330
249
100
AcDbEntity
  8
0
  6
Continuous
 62
     2
100
AcDbLine
 10
252.3307027953753
 20
332.5866910030582
 30
0.0
 11
252.3307027953753
 21
330.0866910030582
 31
0.0
  0
LINE
  5
24D
330
249
100
AcDbEntity
  8
0
  6
Continuous
 62
     2
100
AcDbLine
 10
246.0988043407072
 20
333.3250407831389
 30
0.0
 11
245.5146093131812
 21
330.894255689838
 31
0.0
  0
ARC
  5
24E
330
249
100
AcDbEntity
  8
0
  6
Continuous
 62
     2
100
AcDbCircle
 10
252.3307027953753
 20
359.2554324379997
 30
0.0
 40
26.66874143494151
100
AcDbArc
 50
198.6759500207905
 51
294.1697764813771
  0
SOLID
  5
24F
330
249
100
AcDbEntity
  8
0
 62
     2
100
AcDbTrace
 10
238.761042559434
 20
335.1641162092953
 30
0.0
 11
239.4870584746879
 21
337.0006037311759
 31
0.0
 12
246.0988043407072
 22
333.3250407831389
 32
0.0
 13
246.0988043407072
 23
333.3250407831389
 33
0.0
  0
SOLID
  5
250
330
249
100
AcDbEntity
  8
0
 62
     2
100
AcDbTrace
 10
259.6182943511415
 20
334.6154728292116
 30
0.0
 11
259.8950630655024
 21
332.6601762772851
 31
0.0
 12
252.3307027953753
 22
332.5866910030582
 32
0.0
 13
252.3307027953753
 23
332.5866910030582
 33
0.0
  0
MTEXT
  5
251
330
249
100
AcDbEntity
  8
0
 62
     7
100
AcDbMText
 10
229.7694977358529
 20
347.2463631542776
 30
0.0
 40
8.75
 41
0.0
 71
     7
 72
     1
  1
14{\Fgdt;~}
  7
CONVERTER_12
 11
0.7314226823895648
 21
-0.6819243797416645
 31
0.0
 73
     1
 44
0.60024009603842
  0
ENDBLK
  5
253
330
249
100
AcDbEntity
  8
0
100
AcDbBlockEnd
  0
ENDSEC
  0
SECTION
  2
ENTITIES
  0
INSERT
  5
56
330
1F
100
AcDbEntity
  8
1
100
AcDbBlockReference
  2
開示A4
 10
0.0
 20
0.0
 30
0.0
 41
2.5
 42
2.5
 43
2.5
  0
INSERT
  5
57
330
1F
100
AcDbEntity
  8
1
100
AcDbBlockReference
  2
A205-0
 10
1139.102031602708
 20
107.0
 30
0.0
 41
1.0
 42
1.0
 43
1.0
  0
INSERT
  5
58
330
1F
100
AcDbEntity
  8
1
100
AcDbBlockReference
  2
61-5A-16
 10
425.0807204956668
 20
408.1789762881081
 30
0.0
 41
1.0
 42
1.0
 43
1.0
  0
INSERT
  5
59
330
1F
100
AcDbEntity
  8
1
100
AcDbBlockReference
  2
81-100X-M21
 10
144.5162958811255
 20
275.831460458253
 30
0.0
 41
1.0
 42
1.0
 43
1.0
  0
INSERT
  5
5A
330
1F
100
AcDbEntity
  8
0
100
AcDbBlockReference
  2
32-1-16
 10
382.0086703920271
 20
465.4528628318777
 30
0.0
 41
1.0
 42
1.0
 43
1.0
  0
LINE
  5
1D5
330
1F
100
AcDbEntity
  8
1
  6
DASH_CENTER
 62
     2
100
AcDbLine
 10
175.9994911478867
 20
267.7500000000002
 30
0.0
 11
175.9994911478867
 21
197.7500000000003
 31
0.0
  0
LINE
  5
1D6
330
1F
100
AcDbEntity
  8
1
  6
Continuous
 62
     2
100
AcDbLine
 10
298.0
 20
232.4631748562329
 30
0.0
 11
325.0
 21
232.4631748562329
 31
0.0
  0
LINE
  5
1D7
330
1F
100
AcDbEntity
  8
1
  6
Continuous
 62
     2
100
AcDbLine
 10
328.0
 20
273.5023109292587
 30
0.0
 11
354.0
 21
273.5023109292587
 31
0.0
  0
LINE
  5
1D8
330
1F
100
AcDbEntity
  8
0
  6
DASH_CENTER
 62
     2
100
AcDbLine
 10
190.199491147887
 20
225.2500000000005
 30
0.0
 11
111.199491147887
 21
225.2500000000005
 31
0.0
  0
LINE
  5
1D9
330
1F
100
AcDbEntity
  8
1
  6
DASH_CENTER
 62
     2
100
AcDbLine
 10
137.199491147887
 20
284.7500000000005
 30
0.0
 11
137.199491147887
 21
199.2500000000005
 31
0.0
  0
LINE
  5
1DA
330
1F
100
AcDbEntity
  8
1
  6
DASH_CENTER
 62
     2
100
AcDbLine
 10
368.3613320828821
 20
356.7554324379998
 30
0.0
 11
368.3613320828821
 21
288.4924788500092
 31
0.0
  0
LINE
  5
1DB
330
1F
100
AcDbEntity
  8
1
  6
DASH_CENTER
 62
     2
100
AcDbLine
 10
368.3613320828821
 20
202.2539633022639
 30
0.0
 11
368.3613320828821
 21
288.4924788500092
 31
0.0
  0
LINE
  5
1DC
330
1F
100
AcDbEntity
  8
1
  6
DASH_CENTER
 62
     2
100
AcDbLine
 10
430.3613320828821
 20
225.2500000000006
 30
0.0
 11
330.363508533511
 21
225.25
 31
0.0
  0
LINE
  5
1DD
330
1F
100
AcDbEntity
  8
1
  6
DASH_CENTER
 62
     2
100
AcDbLine
 10
368.3613320828821
 20
202.2539633022639
 30
0.0
 11
368.3613320828821
 21
197.2539633022639
 31
0.0
  0
LINE
  5
1DE
330
1F
100
AcDbEntity
  8
0
  6
Continuous
 62
     2
100
AcDbLine
 10
252.3307027953753
 20
359.2554324379997
 30
0.0
 11
252.3307027953753
 21
355.7554324379997
 31
0.0
  0
LINE
  5
1DF
330
1F
100
AcDbEntity
  8
0
  6
DASH_CENTER
 62
     2
100
AcDbLine
 10
137.1994911478868
 20
431.6360320337603
 30
0.0
 11
137.1994911478868
 21
627.9097278463832
 31
0.0
  0
LINE
  5
1E0
330
1F
100
AcDbEntity
  8
0
  6
DASH_CENTER
 62
     2
100
AcDbLine
 10
114.1994911478869
 20
561.4097278463839
 30
0.0
 11
194.6994911478888
 21
561.4097278463842
 31
0.0
  0
LINE
  5
1E1
330
1F
100
AcDbEntity
  8
1
  6
DASH_CENTER
 62
     2
100
AcDbLine
 10
137.1994911478869
 20
429.7554324379998
 30
0.0
 11
137.1994911478869
 21
254.7551113370705
 31
0.0
  0
LINE
  5
1E2
330
1F
100
AcDbEntity
  8
1
  6
DASH_CENTER
 62
     2
100
AcDbLine
 10
254.7703728547166
 20
369.4066890105406
 30
0.0
 11
252.3307027953753
 21
359.2554324379997
 31
0.0
  0
LINE
  5
1E3
330
1F
100
AcDbEntity
  8
1
  6
DASH_CENTER
 62
     2
100
AcDbLine
 10
252.3307027953753
 20
359.2554324379997
 30
0.0
 11
251.4692623366725
 21
355.6710530319498
 31
0.0
  0
LINE
  5
1E4
330
1F
100
AcDbEntity
  8
1
  6
DASH_CENTER
 62
     2
100
AcDbLine
 10
125.54442939899
 20
446.6543571578671
 30
0.0
 11
148.8545528967838
 21
446.6543571578671
 31
0.0
  0
ARC
  5
1E5
330
1F
100
AcDbEntity
  8
0
  6
Continuous
 62
     2
100
AcDbCircle
 10
351.9501267460191
 20
246.4930701864656
 30
0.0
 40
26.48609953112986
100
AcDbArc
 50
127.2877760116109
 51
184.0396076270894
  0
ARC
  5
1E6
330
1F
100
AcDbEntity
  8
0
  6
DASH_CENTER
 62
     2
100
AcDbCircle
 10
310.8613320828822
 20
356.7554324379997
 30
0.0
 40
57.49999999999989
100
AcDbArc
 50
0.00000000000011
 51
90.0
  0
ARC
  5
1E7
330
1F
100
AcDbEntity
  8
0
  6
DASH_CENTER
 62
     2
100
AcDbCircle
 10
310.8613320828822
 20
356.7554324379997
 30
0.0
 40
57.50000000000011
100
AcDbArc
 50
90.0
 51
167.289683445431
  0
SOLID
  5
1E8
330
1F
100
AcDbEntity
  8
1
 62
     2
100
AcDbTrace
 10
424.6632954866773
 20
243.8837019600589
 30
0.0
 11
426.6585476158685
 21
242.7317426061692
 31
0.0
 12
421.2859215512729
 22
235.7300000000002
 32
0.0
 13
421.2859215512729
 23
235.7300000000002
 33
0.0
  0
LEADER
  5
1E9
330
1F
100
AcDbEntity
  8
1
  6
Continuous
 62
     2
100
AcDbLeader
  3
Standard
 71
     0
 76
     3
 10
421.2859215512729
 20
235.7300000000002
 30
0.0
 10
436.4952658177123
 20
262.0733570192795
 30
0.0
 10
475.2261671433065
 20
262.0733570192795
 30
0.0
  0
SOLID
  5
1EA
330
1F
100
AcDbEntity
  8
0
 62
     2
100
AcDbTrace
 10
324.7713064185106
 20
253.4200756169184
 30
0.0
 11
327.0729086527589
 21
253.3167868597411
 31
0.0
 12
325.529829534571
 22
244.6272289200053
 32
0.0
 13
325.529829534571
 23
244.6272289200053
 33
0.0
  0
LEADER
  5
1EB
330
1F
100
AcDbEntity
  8
0
  6
Continuous
 62
     2
100
AcDbLeader
  3
Standard
 71
     0
 76
     2
 10
325.529829534571
 20
244.6272289200053
 30
0.0
 10
325.6230901486472
 20
246.705372210633
 30
0.0
  0
SOLID
  5
1EC
330
1F
100
AcDbEntity
  8
0
 62
     2
100
AcDbTrace
 10
330.0583162108183
 20
260.9538755726246
 30
0.0
 11
328.5463049579224
 21
262.6922263379111
 31
0.0
 12
335.9043530717622
 22
267.5654838016033
 32
0.0
 13
335.9043530717622
 23
267.5654838016033
 33
0.0
  0
LEADER
  5
1ED
330
1F
100
AcDbEntity
  8
0
  6
Continuous
 62
     2
100
AcDbLeader
  3
Standard
 71
     0
 76
     2
 10
335.9043530717622
 20
267.5654838016033
 30
0.0
 10
334.7548899261612
 20
266.5656848855016
 30
0.0
  0
MTEXT
  5
1EE
330
1F
100
AcDbEntity
  8
1
 62
     7
100
AcDbMText
 10
340.737480153145
 20
281.0023109292587
 30
0.0
 40
12.5
 41
0.0
 71
     5
 72
     1
  1
止水
  7
CONVERTER_11
 73
     1
 44
0.54545454545455
  0
MTEXT
  5
1F0
330
1F
100
AcDbEntity
  8
1
 62
     7
100
AcDbMText
 10
234.375
 20
42.5
 30
0.0
 40
8.75
 41
0.0
 71
     5
 72
     1
  1
2,5
  7
CONVERTER_12
 73
     1
 44
0.7202881152461
  0
MTEXT
  5
1F1
330
1F
100
AcDbEntity
  8
1
 62
     7
100
AcDbMText
 10
213.125
 20
42.5
 30
0.0
 40
8.75
 41
0.0
 71
     5
 72
     1
  1
1
  7
CONVERTER_12
 73
     1
 44
0.7202881152461
  0
MTEXT
  5
1F2
330
1F
100
AcDbEntity
  8
1
 62
     7
100
AcDbMText
 10
312.1055422749482
 20
239.963174856233
 30
0.0
 40
12.5
 41
0.0
 71
     5
 72
     1
  1
吐水
  7
CONVERTER_11
 73
     1
 44
0.54545454545455
  0
MTEXT
  5
1F3
330
1F
100
AcDbEntity
  8
0
 62
     7
100
AcDbMText
 10
455.8607164805094
 20
269.5733570192795
 30
0.0
 40
8.75
 41
0.0
 71
     5
 72
     1
  1
PJ1/2
  7
CONVERTER_12
 73
     1
 44
0.7202881152461
  0
MTEXT
  5
1F4
330
1F
100
AcDbEntity
  8
0
 62
     7
100
AcDbMText
 10
142.5
 20
35.62499999999999
 30
0.0
 40
8.75
 41
0.0
 71
     5
 72
     1
  1
A265-13
  7
CONVERTER_12
 73
     1
 44
1.32052821128451
  0
MTEXT
  5
1F5
330
1F
100
AcDbEntity
  8
0
 62
     7
100
AcDbMText
 10
142.5
 20
51.87500000000004
 30
0.0
 40
8.75
 41
0.0
 71
     5
 72
     1
  1
ツル首自在水栓
  7
CONVERTER_11
 73
     1
 44
1.0
  0
MTEXT
  5
1F6
330
1F
100
AcDbEntity
  8
1
 62
     7
100
AcDbMText
 10
142.5
 20
61.87500000000004
 30
0.0
 40
8.75
 41
0.0
 71
     5
 72
     1
  1
ミニセラ横形
  7
CONVERTER_11
 73
     1
 44
0.54545454545455
  0
MTEXT
  5
1F7
330
1F
100
AcDbEntity
  8
0
 62
     7
100
AcDbMText
 10
85.0
 20
85.00000000000001
 30
0.0
 40
8.75
 41
0.0
 71
     4
 72
     1
  1
JIS
  7
CONVERTER_12
 73
     1
 44
1.32052821128451
  0
MTEXT
  5
1F8
330
1F
100
AcDbEntity
  8
1
 62
     7
100
AcDbMText
 10
300.28753968494
 20
266.267478000065
 30
0.0
 40
8.75
 41
0.0
 71
     5
 72
     1
  1
90°
  7
CONVERTER_11
 73
     1
 44
0.54545454545455
  0
DIMENSION
  5
203
330
1F
100
AcDbEntity
  8
0
100
AcDbDimension
  2
*D6
 10
413.8613320828828
 20
180.2500000000001
 30
0.0
 11
391.1113320828826
 21
187.1250000000001
 31
0.0
 70
    32
  1
46
 71
     5
 42
-1.0
 53
0.00013888888889
  3
ME10_DIM_10
100
AcDbAlignedDimension
 13
368.3613320828821
 23
197.2539633022639
 33
0.0
 14
413.8613320828827
 24
202.2500000000001
 34
0.0
100
AcDbRotatedDimension
  0
DIMENSION
  5
211
330
1F
100
AcDbEntity
  8
1
100
AcDbDimension
  2
*D7
 10
413.8613320828828
 20
180.2500000000001
 30
0.0
 11
440.087029018767
 21
187.1250000000001
 31
0.0
 70
    32
  1
<>
 71
     5
 42
-1.0
 53
0.00013888888889
  3
ME10_DIM_11
100
AcDbAlignedDimension
 13
427.8613320828827
 23
215.9300000000001
 33
0.0
 14
413.8613320828827
 24
214.7700000000002
 34
0.0
100
AcDbRotatedDimension
  0
DIMENSION
  5
21C
330
1F
100
AcDbEntity
  8
0
100
AcDbDimension
  2
*D9
 10
452.8613320828828
 20
202.2500000000002
 30
0.0
 11
445.9863320828828
 21
225.2500000000006
 31
0.0
 70
    32
  1
<>
 71
     5
 42
-1.0
 53
90.0
  3
ME10_DIM_12
100
AcDbAlignedDimension
 13
413.8613320828827
 23
248.2500000000001
 33
0.0
 14
413.8613320828827
 24
202.2500000000001
 34
0.0
 50
90.0
100
AcDbRotatedDimension
  0
DIMENSION
  5
227
330
1F
100
AcDbEntity
  8
1
100
AcDbDimension
  2
*D10
 10
199.5876362702586
 20
225.25
 30
0.0
 11
192.7126362702586
 21
319.752716219
 31
0.0
 70
    32
  1
197
 71
     5
 42
-1.0
 53
90.0
  3
ME10_DIM_13
100
AcDbAlignedDimension
 13
310.8613320828821
 23
422.2554324379997
 33
0.0
 14
330.363508533511
 24
225.25
 34
0.0
 50
90.0
100
AcDbRotatedDimension
  0
DIMENSION
  5
232
330
1F
100
AcDbEntity
  8
1
100
AcDbDimension
  2
*D11
 10
219.5876362702586
 20
225.25
 30
0.0
 11
212.7126362702586
 21
292.2527162189999
 31
0.0
 70
    32
  1
134
 71
     5
 42
-1.0
 53
90.0
  3
ME10_DIM_14
100
AcDbAlignedDimension
 13
252.3307027953753
 23
359.2554324379997
 33
0.0
 14
330.363508533511
 24
225.25
 34
0.0
 50
90.0
100
AcDbRotatedDimension
  0
DIMENSION
  5
23D
330
1F
100
AcDbEntity
  8
0
100
AcDbDimension
  2
*D12
 10
137.199491147887
 20
296.7185797334496
 30
0.0
 11
162.8092564666864
 21
303.5935797334496
 31
0.0
 70
    32
  1
50
 71
     5
 42
-1.0
 53
0.00013888888889
  3
ME10_DIM_15
100
AcDbAlignedDimension
 13
186.9994911478872
 23
232.7500000000003
 33
0.0
 14
137.199491147887
 24
284.7500000000005
 34
0.0
100
AcDbRotatedDimension
  0
DIMENSION
  5
248
330
1F
100
AcDbEntity
  8
1
100
AcDbDimension
  2
*D13
 10
368.3613320828821
 20
180.2500000000001
 30
0.0
 11
310.3460174391287
 21
187.1250000000001
 31
0.0
 70
    32
  1
116
 71
     5
 42
-1.0
 53
0.00013888888889
  3
ME10_DIM_16
100
AcDbAlignedDimension
 13
252.3307027953752
 23
359.2554324379996
 33
0.0
 14
368.3613320828821
 24
197.2539633022639
 34
0.0
100
AcDbRotatedDimension
  0
DIMENSION
  5
255
330
1F
100
AcDbEntity
  8
0
100
AcDbDimension
  2
*D14
 10
249.1929600260013
 20
332.7719217183649
 30
0.0
 11
238.8328679445859
 21
344.7778409831293
 31
0.0
 70
    37
  1
14
 71
     5
 42
-1.0
  3
ME10_DIM_17
100
AcDb3PointAngularDimension
 13
251.4692623366725
 23
355.6710530319498
 33
0.0
 14
252.3307027953753
 24
355.7554324379997
 34
0.0
 15
252.3307027953753
 25
359.2554324379997
 35
0.0
  0
ENDSEC
  0
SECTION
  2
OBJECTS
  0
DICTIONARY
  5
C
330
0
100
AcDbDictionary
281
     1
  3
ACAD_GROUP
350
D
  3
ACAD_LAYOUT
350
1A
  3
ACAD_MATERIAL
350
3B
  3
ACAD_MLEADERSTYLE
350
258
  3
ACAD_MLINESTYLE
350
17
  3
ACAD_PLOTSETTINGS
350
19
  3
ACAD_PLOTSTYLENAME
350
E
  3
ACAD_VISUALSTYLE
350
2A
  3
AcDbVariableDictionary
350
256
  0
DICTIONARY
  5
D
102
{ACAD_REACTORS
330
C
102
}
330
C
100
AcDbDictionary
281
     1
  0
DICTIONARY
  5
1A
102
{ACAD_REACTORS
330
C
102
}
330
C
100
AcDbDictionary
281
     1
  3
Layout1
350
1E
  3
Layout2
350
26
  3
Model
350
22
  0
DICTIONARY
  5
3B
102
{ACAD_REACTORS
330
C
102
}
330
C
100
AcDbDictionary
281
     1
  3
ByBlock
350
3D
  3
ByLayer
350
3C
  3
Global
350
3E
  0
DICTIONARY
  5
258
102
{ACAD_REACTORS
330
C
102
}
330
C
100
AcDbDictionary
281
     1
  0
DICTIONARY
  5
17
102
{ACAD_REACTORS
330
C
102
}
330
C
100
AcDbDictionary
281
     1
  3
Standard
350
18
  0
DICTIONARY
  5
19
102
{ACAD_REACTORS
330
C
102
}
330
C
100
AcDbDictionary
281
     1
  0
ACDBDICTIONARYWDFLT
  5
E
102
{ACAD_REACTORS
330
C
102
}
330
C
100
AcDbDictionary
281
     1
  3
Normal
350
F
100
AcDbDictionaryWithDefault
340
F
  0
DICTIONARY
  5
2A
102
{ACAD_REACTORS
330
C
102
}
330
C
100
AcDbDictionary
281
     1
  3
2dWireframe
350
2F
  3
3D Hidden
350
31
  3
3dWireframe
350
30
  3
Basic
350
32
  3
Brighten
350
36
  3
ColorChange
350
3A
  3
Conceptual
350
34
  3
Dim
350
35
  3
Facepattern
350
39
  3
Flat
350
2B
  3
FlatWithEdges
350
2C
  3
Gouraud
350
2D
  3
GouraudWithEdges
350
2E
  3
Linepattern
350
38
  3
Realistic
350
33
  3
Thicken
350
37
  0
DICTIONARY
  5
256
102
{ACAD_REACTORS
330
C
102
}
330
C
100
AcDbDictionary
281
     1
  3
DIMASSOC
350
259
  3
HIDETEXT
350
25A
  0
LAYOUT
  5
1E
102
{ACAD_REACTORS
330
1A
102
}
330
1A
100
AcDbPlotSettings
  1

  2
none_device
  4

  6

 40
0.0
 41
0.0
 42
0.0
 43
0.0
 44
0.0
 45
0.0
 46
0.0
 47
0.0
 48
0.0
 49
0.0
140
0.0
141
0.0
142
1.0
143
1.0
 70
   688
 72
     0
 73
     0
 74
     5
  7

 75
    16
147
1.0
148
0.0
149
0.0
100
AcDbLayout
  1
Layout1
 70
     1
 71
     1
 10
0.0
 20
0.0
 11
12.0
 21
9.0
 12
0.0
 22
0.0
 32
0.0
 14
1.00000000000000E+20
 24
1.00000000000000E+20
 34
1.00000000000000E+20
 15
-1.00000000000000E+20
 25
-1.00000000000000E+20
 35
-1.00000000000000E+20
146
0.0
 13
0.0
 23
0.0
 33
0.0
 16
1.0
 26
0.0
 36
0.0
 17
0.0
 27
1.0
 37
0.0
 76
     0
330
1B
  0
LAYOUT
  5
26
102
{ACAD_REACTORS
330
1A
102
}
330
1A
100
AcDbPlotSettings
  1

  2
none_device
  4

  6

 40
0.0
 41
0.0
 42
0.0
 43
0.0
 44
0.0
 45
0.0
 46
0.0
 47
0.0
 48
0.0
 49
0.0
140
0.0
141
0.0
142
1.0
143
1.0
 70
   688
 72
     0
 73
     0
 74
     5
  7

 75
    16
147
1.0
148
0.0
149
0.0
100
AcDbLayout
  1
Layout2
 70
     1
 71
     2
 10
0.0
 20
0.0
 11
0.0
 21
0.0
 12
0.0
 22
0.0
 32
0.0
 14
0.0
 24
0.0
 34
0.0
 15
0.0
 25
0.0
 35
0.0
146
0.0
 13
0.0
 23
0.0
 33
0.0
 16
1.0
 26
0.0
 36
0.0
 17
0.0
 27
1.0
 37
0.0
 76
     0
330
23
  0
LAYOUT
  5
22
102
{ACAD_REACTORS
330
1A
102
}
330
1A
100
AcDbPlotSettings
  1

  2
none_device
  4

  6

 40
0.0
 41
0.0
 42
0.0
 43
0.0
 44
0.0
 45
0.0
 46
0.0
 47
0.0
 48
0.0
 49
0.0
140
0.0
141
0.0
142
1.0
143
1.0
 70
  1712
 72
     0
 73
     0
 74
     0
  7

 75
     0
147
1.0
148
0.0
149
0.0
100
AcDbLayout
  1
Model
 70
     1
 71
     0
 10
0.0
 20
0.0
 11
12.0
 21
9.0
 12
0.0
 22
0.0
 32
0.0
 14
0.0
 24
0.0
 34
0.0
 15
525.0
 25
742.5
 35
0.0
146
0.0
 13
0.0
 23
0.0
 33
0.0
 16
1.0
 26
0.0
 36
0.0
 17
0.0
 27
1.0
 37
0.0
 76
     0
330
1F
331
29
  0
MATERIAL
  5
3D
102
{ACAD_REACTORS
330
3B
102
}
102
{ACAD_XDICTIONARY
360
27D
102
}
330
3B
100
AcDbMaterial
  1
ByBlock
  0
MATERIAL
  5
3C
102
{ACAD_REACTORS
330
3B
102
}
102
{ACAD_XDICTIONARY
360
27B
102
}
330
3B
100
AcDbMaterial
  1
ByLayer
  0
MATERIAL
  5
3E
102
{ACAD_REACTORS
330
3B
102
}
102
{ACAD_XDICTIONARY
360
27F
102
}
330
3B
100
AcDbMaterial
  1
Global
  0
MLINESTYLE
  5
18
102
{ACAD_REACTORS
330
17
102
}
330
17
100
AcDbMlineStyle
  2
Standard
 70
     0
  3

 62
   256
 51
90.0
 52
90.0
 71
     2
 49
0.5
 62
   256
  6
BYLAYER
 49
-0.5
 62
   256
  6
BYLAYER
  0
ACDBPLACEHOLDER
  5
F
102
{ACAD_REACTORS
330
E
102
}
330
E
  0
VISUALSTYLE
  5
2F
102
{ACAD_REACTORS
330
2A
102
}
102
{ACAD_XDICTIONARY
360
263
102
}
330
2A
100
AcDbVisualStyle
  2
2dWireframe
 70
     4
 71
     0
 72
     2
 73
     0
 90
        0
 40
-0.6
 41
-30.0
 62
     5
 63
     7
 74
     1
 91
        4
 64
     7
 65
   257
 75
     1
175
     1
 42
1.0
 92
        0
 66
   257
 43
1.0
 76
     1
 77
     6
 78
     2
 67
     7
 79
     5
170
     0
171
     0
290
     0
174
     0
 93
        1
 44
0.0
173
     0
291
     0
 45
0.0
1001
ACAD
1000
AcDbSavedByObjectVersion
1070
     0
  0
VISUALSTYLE
  5
31
102
{ACAD_REACTORS
330
2A
102
}
102
{ACAD_XDICTIONARY
360
267
102
}
330
2A
100
AcDbVisualStyle
  2
3D Hidden
 70
     6
 71
     1
 72
     2
 73
     2
 90
        0
 40
-0.6
 41
-30.0
 62
     5
 63
     7
 74
     2
 91
        2
 64
     7
 65
   257
 75
     2
175
     1
 42
40.0
 92
        0
 66
   257
 43
1.0
 76
     1
 77
     6
 78
     2
 67
     7
 79
     3
170
     0
171
     0
290
     0
174
     0
 93
        1
 44
0.0
173
     0
291
     0
 45
0.0
1001
ACAD
1000
AcDbSavedByObjectVersion
1070
     0
  0
VISUALSTYLE
  5
30
102
{ACAD_REACTORS
330
2A
102
}
102
{ACAD_XDICTIONARY
360
265
102
}
330
2A
100
AcDbVisualStyle
  2
3dWireframe
 70
     5
 71
     0
 72
     2
 73
     0
 90
        0
 40
-0.6
 41
-30.0
 62
     5
 63
     7
 74
     1
 91
        4
 64
     7
 65
   257
 75
     1
175
     1
 42
1.0
 92
        0
 66
   257
 43
1.0
 76
     1
 77
     6
 78
     2
 67
     7
 79
     5
170
     0
171
     0
290
     0
174
     0
 93
        1
 44
0.0
173
     0
291
     0
 45
0.0
1001
ACAD
1000
AcDbSavedByObjectVersion
1070
     0
  0
VISUALSTYLE
  5
32
102
{ACAD_REACTORS
330
2A
102
}
102
{ACAD_XDICTIONARY
360
269
102
}
330
2A
100
AcDbVisualStyle
  2
Basic
 70
     7
 71
     1
 72
     0
 73
     1
 90
        0
 40
-0.6
 41
-30.0
 62
     5
 63
     7
 74
     0
 91
        4
 64
     7
 65
   257
 75
     1
175
     1
 42
1.0
 92
        8
 66
     7
 43
1.0
 76
     1
 77
     6
 78
     2
 67
     7
 79
     5
170
     0
171
     0
290
     0
174
     0
 93
        1
 44
0.0
173
     0
291
     1
 45
0.0
1001
ACAD
1000
AcDbSavedByObjectVersion
1070
     0
  0
VISUALSTYLE
  5
36
102
{ACAD_REACTORS
330
2A
102
}
102
{ACAD_XDICTIONARY
360
271
102
}
330
2A
100
AcDbVisualStyle
  2
Brighten
 70
    12
 71
     2
 72
     2
 73
     0
 90
        0
 40
-0.6
 41
-30.0
 62
     5
 63
     7
 74
     1
 91
        4
 64
     7
 65
   257
 75
     1
175
     1
 42
1.0
 92
        8
 66
     7
 43
1.0
 76
     1
 77
     6
 78
     2
 67
     7
 79
     5
170
     0
171
     0
290
     0
174
     0
 93
        1
 44
50.0
173
     0
291
     1
 45
0.0
1001
ACAD
1000
AcDbSavedByObjectVersion
1070
     0
  0
VISUALSTYLE
  5
3A
102
{ACAD_REACTORS
330
2A
102
}
102
{ACAD_XDICTIONARY
360
279
102
}
330
2A
100
AcDbVisualStyle
  2
ColorChange
 70
    16
 71
     2
 72
     2
 73
     3
 90
        0
 40
-0.6
 41
-30.0
 62
     5
 63
     8
 74
     1
 91
        4
 64
     7
 65
   257
 75
     1
175
     1
 42
1.0
 92
        8
 66
     8
 43
1.0
 76
     1
 77
     6
 78
     2
 67
     7
 79
     5
170
     0
171
     0
290
     0
174
     0
 93
        1
 44
0.0
173
     0
291
     1
 45
0.0
1001
ACAD
1000
AcDbSavedByObjectVersion
1070
     0
  0
VISUALSTYLE
  5
34
102
{ACAD_REACTORS
330
2A
102
}
102
{ACAD_XDICTIONARY
360
26D
102
}
330
2A
100
AcDbVisualStyle
  2
Conceptual
 70
     9
 71
     3
 72
     2
 73
     0
 90
        0
 40
-0.6
 41
-30.0
 62
     5
 63
     7
 74
     2
 91
        2
 64
     7
 65
   257
 75
     1
175
     1
 42
40.0
 92
        8
 66
     7
 43
1.0
 76
     1
 77
     6
 78
     2
 67
     7
 79
     3
170
     0
171
     0
290
     0
174
     0
 93
        1
 44
0.0
173
     0
291
     0
 45
0.0
1001
ACAD
1000
AcDbSavedByObjectVersion
1070
     0
  0
VISUALSTYLE
  5
35
102
{ACAD_REACTORS
330
2A
102
}
102
{ACAD_XDICTIONARY
360
26F
102
}
330
2A
100
AcDbVisualStyle
  2
Dim
 70
    11
 71
     2
 72
     2
 73
     0
 90
        0
 40
-0.6
 41
-30.0
 62
     5
 63
     7
 74
     1
 91
        4
 64
     7
 65
   257
 75
     1
175
     1
 42
1.0
 92
        8
 66
     7
 43
1.0
 76
     1
 77
     6
 78
     2
 67
     7
 79
     5
170
     0
171
     0
290
     0
174
     0
 93
        1
 44
-50.0
173
     0
291
     1
 45
0.0
1001
ACAD
1000
AcDbSavedByObjectVersion
1070
     0
  0
VISUALSTYLE
  5
39
102
{ACAD_REACTORS
330
2A
102
}
102
{ACAD_XDICTIONARY
360
277
102
}
330
2A
100
AcDbVisualStyle
  2
Facepattern
 70
    15
 71
     2
 72
     2
 73
     0
 90
        0
 40
-0.6
 41
-30.0
 62
     5
 63
     7
 74
     1
 91
        4
 64
     7
 65
   257
 75
     1
175
     1
 42
1.0
 92
        8
 66
     7
 43
1.0
 76
     1
 77
     6
 78
     2
 67
     7
 79
     5
170
     0
171
     0
290
     0
174
     0
 93
        1
 44
0.0
173
     0
291
     1
 45
0.0
1001
ACAD
1000
AcDbSavedByObjectVersion
1070
     0
  0
VISUALSTYLE
  5
2B
102
{ACAD_REACTORS
330
2A
102
}
102
{ACAD_XDICTIONARY
360
25B
102
}
330
2A
100
AcDbVisualStyle
  2
Flat
 70
     0
 71
     2
 72
     1
 73
     1
 90
        2
 40
-0.6
 41
30.0
 62
     5
 63
     7
 74
     0
 91
        4
 64
     7
 65
   257
 75
     1
175
     1
 42
1.0
 92
        8
 66
     7
 43
1.0
 76
     1
 77
     6
 78
     2
 67
     7
 79
     5
170
     0
171
     0
290
     0
174
     0
 93
       13
 44
0.0
173
     0
291
     1
 45
0.0
1001
ACAD
1000
AcDbSavedByObjectVersion
1070
     0
  0
VISUALSTYLE
  5
2C
102
{ACAD_REACTORS
330
2A
102
}
102
{ACAD_XDICTIONARY
360
25D
102
}
330
2A
100
AcDbVisualStyle
  2
FlatWithEdges
 70
     1
 71
     2
 72
     1
 73
     1
 90
        2
 40
-0.6
 41
30.0
 62
     5
 63
     7
 74
     1
 91
        4
 64
     7
 65
   257
 75
     1
175
     1
 42
1.0
 92
        0
 66
   257
 43
1.0
 76
     1
 77
     6
 78
     2
 67
     7
 79
     5
170
     0
171
     0
290
     0
174
     0
 93
       13
 44
0.0
173
     0
291
     1
 45
0.0
1001
ACAD
1000
AcDbSavedByObjectVersion
1070
     0
  0
VISUALSTYLE
  5
2D
102
{ACAD_REACTORS
330
2A
102
}
102
{ACAD_XDICTIONARY
360
25F
102
}
330
2A
100
AcDbVisualStyle
  2
Gouraud
 70
     2
 71
     2
 72
     2
 73
     1
 90
        2
 40
-0.6
 41
30.0
 62
     5
 63
     7
 74
     0
 91
        4
 64
     7
 65
   257
 75
     1
175
     1
 42
1.0
 92
        0
 66
     7
 43
1.0
 76
     1
 77
     6
 78
     2
 67
     7
 79
     5
170
     0
171
     0
290
     0
174
     0
 93
       13
 44
0.0
173
     0
291
     1
 45
0.0
1001
ACAD
1000
AcDbSavedByObjectVersion
1070
     0
  0
VISUALSTYLE
  5
2E
102
{ACAD_REACTORS
330
2A
102
}
102
{ACAD_XDICTIONARY
360
261
102
}
330
2A
100
AcDbVisualStyle
  2
GouraudWithEdges
 70
     3
 71
     2
 72
     2
 73
     1
 90
        2
 40
-0.6
 41
30.0
 62
     5
 63
     7
 74
     1
 91
        4
 64
     7
 65
   257
 75
     1
175
     1
 42
1.0
 92
        0
 66
   257
 43
1.0
 76
     1
 77
     6
 78
     2
 67
     7
 79
     5
170
     0
171
     0
290
     0
174
     0
 93
       13
 44
0.0
173
     0
291
     1
 45
0.0
1001
ACAD
1000
AcDbSavedByObjectVersion
1070
     0
  0
VISUALSTYLE
  5
38
102
{ACAD_REACTORS
330
2A
102
}
102
{ACAD_XDICTIONARY
360
275
102
}
330
2A
100
AcDbVisualStyle
  2
Linepattern
 70
    14
 71
     2
 72
     2
 73
     0
 90
        0
 40
-0.6
 41
-30.0
 62
     5
 63
     7
 74
     1
 91
        4
 64
     7
 65
   257
 75
     7
175
     7
 42
1.0
 92
        8
 66
     7
 43
1.0
 76
     1
 77
     6
 78
     2
 67
     7
 79
     5
170
     0
171
     0
290
     0
174
     0
 93
        1
 44
0.0
173
     0
291
     1
 45
0.0
1001
ACAD
1000
AcDbSavedByObjectVersion
1070
     0
  0
VISUALSTYLE
  5
33
102
{ACAD_REACTORS
330
2A
102
}
102
{ACAD_XDICTIONARY
360
26B
102
}
330
2A
100
AcDbVisualStyle
  2
Realistic
 70
     8
 71
     2
 72
     2
 73
     0
 90
        0
 40
-0.6
 41
-30.0
 62
     5
 63
     7
 74
     1
 91
        0
 64
     7
 65
   257
 75
     1
175
     1
 42
1.0
 92
        8
 66
     8
 43
1.0
 76
     1
 77
     6
 78
     2
 67
     7
 79
     5
170
     0
171
     0
290
     0
174
     0
 93
       13
 44
0.0
173
     0
291
     0
 45
0.0
1001
ACAD
1000
AcDbSavedByObjectVersion
1070
     0
  0
VISUALSTYLE
  5
37
102
{ACAD_REACTORS
330
2A
102
}
102
{ACAD_XDICTIONARY
360
273
102
}
330
2A
100
AcDbVisualStyle
  2
Thicken
 70
    13
 71
     2
 72
     2
 73
     0
 90
        0
 40
-0.6
 41
-30.0
 62
     5
 63
     7
 74
     1
 91
        4
 64
     7
 65
   257
 75
     1
175
     1
 42
1.0
 92
       12
 66
     7
 43
1.0
 76
     1
 77
     6
 78
     2
 67
     7
 79
     5
170
     0
171
     0
290
     0
174
     0
 93
        1
 44
0.0
173
     0
291
     1
 45
0.0
1001
ACAD
1000
AcDbSavedByObjectVersion
1070
     0
  0
DICTIONARYVAR
  5
259
102
{ACAD_REACTORS
330
256
102
}
330
256
100
DictionaryVariables
280
     0
  1
2
  0
DICTIONARYVAR
  5
25A
102
{ACAD_REACTORS
330
256
102
}
330
256
100
DictionaryVariables
280
     0
  1
1
  0
DICTIONARY
  5
27D
330
3D
100
AcDbDictionary
280
     1
281
     1
  3
ACAD_XREC_ROUNDTRIP
360
27E
  0
DICTIONARY
  5
27B
330
3C
100
AcDbDictionary
280
     1
281
     1
  3
ACAD_XREC_ROUNDTRIP
360
27C
  0
DICTIONARY
  5
27F
330
3E
100
AcDbDictionary
280
     1
281
     1
  3
ACAD_XREC_ROUNDTRIP
360
280
  0
DICTIONARY
  5
263
330
2F
100
AcDbDictionary
280
     1
281
     1
  3
ACAD_XREC_ROUNDTRIP
360
264
  0
DICTIONARY
  5
267
330
31
100
AcDbDictionary
280
     1
281
     1
  3
ACAD_XREC_ROUNDTRIP
360
268
  0
DICTIONARY
  5
265
330
30
100
AcDbDictionary
280
     1
281
     1
  3
ACAD_XREC_ROUNDTRIP
360
266
  0
DICTIONARY
  5
269
330
32
100
AcDbDictionary
280
     1
281
     1
  3
ACAD_XREC_ROUNDTRIP
360
26A
  0
DICTIONARY
  5
271
330
36
100
AcDbDictionary
280
     1
281
     1
  3
ACAD_XREC_ROUNDTRIP
360
272
  0
DICTIONARY
  5
279
330
3A
100
AcDbDictionary
280
     1
281
     1
  3
ACAD_XREC_ROUNDTRIP
360
27A
  0
DICTIONARY
  5
26D
330
34
100
AcDbDictionary
280
     1
281
     1
  3
ACAD_XREC_ROUNDTRIP
360
26E
  0
DICTIONARY
  5
26F
330
35
100
AcDbDictionary
280
     1
281
     1
  3
ACAD_XREC_ROUNDTRIP
360
270
  0
DICTIONARY
  5
277
330
39
100
AcDbDictionary
280
     1
281
     1
  3
ACAD_XREC_ROUNDTRIP
360
278
  0
DICTIONARY
  5
25B
330
2B
100
AcDbDictionary
280
     1
281
     1
  3
ACAD_XREC_ROUNDTRIP
360
25C
  0
DICTIONARY
  5
25D
330
2C
100
AcDbDictionary
280
     1
281
     1
  3
ACAD_XREC_ROUNDTRIP
360
25E
  0
DICTIONARY
  5
25F
330
2D
100
AcDbDictionary
280
     1
281
     1
  3
ACAD_XREC_ROUNDTRIP
360
260
  0
DICTIONARY
  5
261
330
2E
100
AcDbDictionary
280
     1
281
     1
  3
ACAD_XREC_ROUNDTRIP
360
262
  0
DICTIONARY
  5
275
330
38
100
AcDbDictionary
280
     1
281
     1
  3
ACAD_XREC_ROUNDTRIP
360
276
  0
DICTIONARY
  5
26B
330
33
100
AcDbDictionary
280
     1
281
     1
  3
ACAD_XREC_ROUNDTRIP
360
26C
  0
DICTIONARY
  5
273
330
37
100
AcDbDictionary
280
     1
281
     1
  3
ACAD_XREC_ROUNDTRIP
360
274
  0
XRECORD
  5
27E
102
{ACAD_REACTORS
330
27D
102
}
330
27D
100
AcDbXrecord
280
     1
102
MATERIAL
148
0.0
149
0.0
149
0.0
 93
        0
 94
      127
282
     0
 72
     1
 77
     1
171
     1
175
     1
179
     1
273
     0
  0
XRECORD
  5
27C
102
{ACAD_REACTORS
330
27B
102
}
330
27B
100
AcDbXrecord
280
     1
102
MATERIAL
148
0.0
149
0.0
149
0.0
 93
        0
 94
      127
282
     0
 72
     1
 77
     1
171
     1
175
     1
179
     1
273
     0
  0
XRECORD
  5
280
102
{ACAD_REACTORS
330
27F
102
}
330
27F
100
AcDbXrecord
280
     1
102
MATERIAL
148
0.0
149
0.0
149
0.0
 93
        0
 94
      127
282
     0
 72
     1
 77
     1
171
     1
175
     1
179
     1
273
     0
  0
XRECORD
  5
264
102
{ACAD_REACTORS
330
263
102
}
330
263
100
AcDbXrecord
280
     1
102
RTVSPropertyOp0
 70
     1
102
RTVSPropertyOp1
 70
     1
102
RTVSPropertyOp2
 70
     1
102
RTVSPropertyOp3
 70
     1
102
RTVSPropertyOp4
 70
     1
102
RTVSPropertyOp5
 70
     1
102
RTVSPropertyOp6
 70
     1
102
RTVSPropertyOp7
 70
     1
102
RTVSPropertyOp8
 70
     1
102
RTVSPropertyOp9
 70
     1
102
RTVSPropertyOp10
 70
     1
102
RTVSPropertyOp11
 70
     1
102
RTVSPropertyOp12
 70
     1
102
RTVSPropertyOp13
 70
     1
102
RTVSPropertyOp14
 70
     1
102
RTVSPropertyOp15
 70
     1
102
RTVSPropertyOp16
 70
     1
102
RTVSPropertyOp17
 70
     1
102
RTVSPropertyOp18
 70
     1
102
RTVSPropertyOp19
 70
     1
102
RTVSPropertyOp20
 70
     1
102
RTVSPropertyOp21
 70
     1
102
RTVSPropertyOp22
 70
     1
102
RTVSPropertyOp23
 70
     1
102
RTVSPropertyOp24
 70
     1
102
RTVSPropertyOp25
 70
     1
102
RTVSPropertyOp26
 70
     1
102
RTVSPropertyOp27
 70
     1
102
RTVSPropertyOp28
 70
     1
102
RTVSPropertyOp29
 70
     1
102
RTVSPropertyOp30
 70
     1
102
RTVSPropertyOp31
 70
     1
102
RTVSPropertyOp32
 70
     1
  0
XRECORD
  5
268
102
{ACAD_REACTORS
330
267
102
}
330
267
100
AcDbXrecord
280
     1
102
RTVSPropertyOp0
 70
     1
102
RTVSPropertyOp1
 70
     1
102
RTVSPropertyOp2
 70
     1
102
RTVSPropertyOp3
 70
     1
102
RTVSPropertyOp4
 70
     1
102
RTVSPropertyOp5
 70
     1
102
RTVSPropertyOp6
 70
     1
102
RTVSPropertyOp7
 70
     1
102
RTVSPropertyOp8
 70
     1
102
RTVSPropertyOp9
 70
     1
102
RTVSPropertyOp10
 70
     1
102
RTVSPropertyOp11
 70
     1
102
RTVSPropertyOp12
 70
     1
102
RTVSPropertyOp13
 70
     1
102
RTVSPropertyOp14
 70
     1
102
RTVSPropertyOp15
 70
     1
102
RTVSPropertyOp16
 70
     1
102
RTVSPropertyOp17
 70
     1
102
RTVSPropertyOp18
 70
     1
102
RTVSPropertyOp19
 70
     1
102
RTVSPropertyOp20
 70
     1
102
RTVSPropertyOp21
 70
     1
102
RTVSPropertyOp22
 70
     1
102
RTVSPropertyOp23
 70
     1
102
RTVSPropertyOp24
 70
     1
102
RTVSPropertyOp25
 70
     1
102
RTVSPropertyOp26
 70
     1
102
RTVSPropertyOp27
 70
     1
102
RTVSPropertyOp28
 70
     1
102
RTVSPropertyOp29
 70
     1
102
RTVSPropertyOp30
 70
     1
102
RTVSPropertyOp31
 70
     1
102
RTVSPropertyOp32
 70
     1
  0
XRECORD
  5
266
102
{ACAD_REACTORS
330
265
102
}
330
265
100
AcDbXrecord
280
     1
102
RTVSPropertyOp0
 70
     1
102
RTVSPropertyOp1
 70
     1
102
RTVSPropertyOp2
 70
     1
102
RTVSPropertyOp3
 70
     1
102
RTVSPropertyOp4
 70
     1
102
RTVSPropertyOp5
 70
     1
102
RTVSPropertyOp6
 70
     1
102
RTVSPropertyOp7
 70
     1
102
RTVSPropertyOp8
 70
     1
102
RTVSPropertyOp9
 70
     1
102
RTVSPropertyOp10
 70
     1
102
RTVSPropertyOp11
 70
     1
102
RTVSPropertyOp12
 70
     1
102
RTVSPropertyOp13
 70
     1
102
RTVSPropertyOp14
 70
     1
102
RTVSPropertyOp15
 70
     1
102
RTVSPropertyOp16
 70
     1
102
RTVSPropertyOp17
 70
     1
102
RTVSPropertyOp18
 70
     1
102
RTVSPropertyOp19
 70
     1
102
RTVSPropertyOp20
 70
     1
102
RTVSPropertyOp21
 70
     1
102
RTVSPropertyOp22
 70
     1
102
RTVSPropertyOp23
 70
     1
102
RTVSPropertyOp24
 70
     1
102
RTVSPropertyOp25
 70
     1
102
RTVSPropertyOp26
 70
     1
102
RTVSPropertyOp27
 70
     1
102
RTVSPropertyOp28
 70
     1
102
RTVSPropertyOp29
 70
     1
102
RTVSPropertyOp30
 70
     1
102
RTVSPropertyOp31
 70
     1
102
RTVSPropertyOp32
 70
     1
  0
XRECORD
  5
26A
102
{ACAD_REACTORS
330
269
102
}
330
269
100
AcDbXrecord
280
     1
102
RTVSPropertyOp0
 70
     1
102
RTVSPropertyOp1
 70
     1
102
RTVSPropertyOp2
 70
     1
102
RTVSPropertyOp3
 70
     1
102
RTVSPropertyOp4
 70
     1
102
RTVSPropertyOp5
 70
     1
102
RTVSPropertyOp6
 70
     1
102
RTVSPropertyOp7
 70
     1
102
RTVSPropertyOp8
 70
     1
102
RTVSPropertyOp9
 70
     1
102
RTVSPropertyOp10
 70
     1
102
RTVSPropertyOp11
 70
     1
102
RTVSPropertyOp12
 70
     1
102
RTVSPropertyOp13
 70
     1
102
RTVSPropertyOp14
 70
     1
102
RTVSPropertyOp15
 70
     1
102
RTVSPropertyOp16
 70
     1
102
RTVSPropertyOp17
 70
     1
102
RTVSPropertyOp18
 70
     1
102
RTVSPropertyOp19
 70
     1
102
RTVSPropertyOp20
 70
     1
102
RTVSPropertyOp21
 70
     1
102
RTVSPropertyOp22
 70
     1
102
RTVSPropertyOp23
 70
     1
102
RTVSPropertyOp24
 70
     1
102
RTVSPropertyOp25
 70
     1
102
RTVSPropertyOp26
 70
     1
102
RTVSPropertyOp27
 70
     1
102
RTVSPropertyOp28
 70
     1
102
RTVSPropertyOp29
 70
     1
102
RTVSPropertyOp30
 70
     1
102
RTVSPropertyOp31
 70
     1
102
RTVSPropertyOp32
 70
     1
  0
XRECORD
  5
272
102
{ACAD_REACTORS
330
271
102
}
330
271
100
AcDbXrecord
280
     1
102
RTVSPropertyOp0
 70
     1
102
RTVSPropertyOp1
 70
     1
102
RTVSPropertyOp2
 70
     1
102
RTVSPropertyOp3
 70
     1
102
RTVSPropertyOp4
 70
     1
102
RTVSPropertyOp5
 70
     1
102
RTVSPropertyOp6
 70
     1
102
RTVSPropertyOp7
 70
     1
102
RTVSPropertyOp8
 70
     1
102
RTVSPropertyOp9
 70
     1
102
RTVSPropertyOp10
 70
     1
102
RTVSPropertyOp11
 70
     1
102
RTVSPropertyOp12
 70
     1
102
RTVSPropertyOp13
 70
     1
102
RTVSPropertyOp14
 70
     1
102
RTVSPropertyOp15
 70
     1
102
RTVSPropertyOp16
 70
     1
102
RTVSPropertyOp17
 70
     1
102
RTVSPropertyOp18
 70
     1
102
RTVSPropertyOp19
 70
     1
102
RTVSPropertyOp20
 70
     1
102
RTVSPropertyOp21
 70
     1
102
RTVSPropertyOp22
 70
     1
102
RTVSPropertyOp23
 70
     1
102
RTVSPropertyOp24
 70
     1
102
RTVSPropertyOp25
 70
     1
102
RTVSPropertyOp26
 70
     1
102
RTVSPropertyOp27
 70
     1
102
RTVSPropertyOp28
 70
     1
102
RTVSPropertyOp29
 70
     1
102
RTVSPropertyOp30
 70
     1
102
RTVSPropertyOp31
 70
     1
102
RTVSPropertyOp32
 70
     1
  0
XRECORD
  5
27A
102
{ACAD_REACTORS
330
279
102
}
330
279
100
AcDbXrecord
280
     1
102
RTVSPropertyOp0
 70
     1
102
RTVSPropertyOp1
 70
     1
102
RTVSPropertyOp2
 70
     1
102
RTVSPropertyOp3
 70
     1
102
RTVSPropertyOp4
 70
     1
102
RTVSPropertyOp5
 70
     1
102
RTVSPropertyOp6
 70
     1
102
RTVSPropertyOp7
 70
     1
102
RTVSPropertyOp8
 70
     1
102
RTVSPropertyOp9
 70
     1
102
RTVSPropertyOp10
 70
     1
102
RTVSPropertyOp11
 70
     1
102
RTVSPropertyOp12
 70
     1
102
RTVSPropertyOp13
 70
     1
102
RTVSPropertyOp14
 70
     1
102
RTVSPropertyOp15
 70
     1
102
RTVSPropertyOp16
 70
     1
102
RTVSPropertyOp17
 70
     1
102
RTVSPropertyOp18
 70
     1
102
RTVSPropertyOp19
 70
     1
102
RTVSPropertyOp20
 70
     1
102
RTVSPropertyOp21
 70
     1
102
RTVSPropertyOp22
 70
     1
102
RTVSPropertyOp23
 70
     1
102
RTVSPropertyOp24
 70
     1
102
RTVSPropertyOp25
 70
     1
102
RTVSPropertyOp26
 70
     1
102
RTVSPropertyOp27
 70
     1
102
RTVSPropertyOp28
 70
     1
102
RTVSPropertyOp29
 70
     1
102
RTVSPropertyOp30
 70
     1
102
RTVSPropertyOp31
 70
     1
102
RTVSPropertyOp32
 70
     1
  0
XRECORD
  5
26E
102
{ACAD_REACTORS
330
26D
102
}
330
26D
100
AcDbXrecord
280
     1
102
RTVSPropertyOp0
 70
     1
102
RTVSPropertyOp1
 70
     1
102
RTVSPropertyOp2
 70
     1
102
RTVSPropertyOp3
 70
     1
102
RTVSPropertyOp4
 70
     1
102
RTVSPropertyOp5
 70
     1
102
RTVSPropertyOp6
 70
     1
102
RTVSPropertyOp7
 70
     1
102
RTVSPropertyOp8
 70
     1
102
RTVSPropertyOp9
 70
     1
102
RTVSPropertyOp10
 70
     1
102
RTVSPropertyOp11
 70
     1
102
RTVSPropertyOp12
 70
     1
102
RTVSPropertyOp13
 70
     1
102
RTVSPropertyOp14
 70
     1
102
RTVSPropertyOp15
 70
     1
102
RTVSPropertyOp16
 70
     1
102
RTVSPropertyOp17
 70
     1
102
RTVSPropertyOp18
 70
     1
102
RTVSPropertyOp19
 70
     1
102
RTVSPropertyOp20
 70
     1
102
RTVSPropertyOp21
 70
     1
102
RTVSPropertyOp22
 70
     1
102
RTVSPropertyOp23
 70
     1
102
RTVSPropertyOp24
 70
     1
102
RTVSPropertyOp25
 70
     1
102
RTVSPropertyOp26
 70
     1
102
RTVSPropertyOp27
 70
     1
102
RTVSPropertyOp28
 70
     1
102
RTVSPropertyOp29
 70
     1
102
RTVSPropertyOp30
 70
     1
102
RTVSPropertyOp31
 70
     1
102
RTVSPropertyOp32
 70
     1
  0
XRECORD
  5
270
102
{ACAD_REACTORS
330
26F
102
}
330
26F
100
AcDbXrecord
280
     1
102
RTVSPropertyOp0
 70
     1
102
RTVSPropertyOp1
 70
     1
102
RTVSPropertyOp2
 70
     1
102
RTVSPropertyOp3
 70
     1
102
RTVSPropertyOp4
 70
     1
102
RTVSPropertyOp5
 70
     1
102
RTVSPropertyOp6
 70
     1
102
RTVSPropertyOp7
 70
     1
102
RTVSPropertyOp8
 70
     1
102
RTVSPropertyOp9
 70
     1
102
RTVSPropertyOp10
 70
     1
102
RTVSPropertyOp11
 70
     1
102
RTVSPropertyOp12
 70
     1
102
RTVSPropertyOp13
 70
     1
102
RTVSPropertyOp14
 70
     1
102
RTVSPropertyOp15
 70
     1
102
RTVSPropertyOp16
 70
     1
102
RTVSPropertyOp17
 70
     1
102
RTVSPropertyOp18
 70
     1
102
RTVSPropertyOp19
 70
     1
102
RTVSPropertyOp20
 70
     1
102
RTVSPropertyOp21
 70
     1
102
RTVSPropertyOp22
 70
     1
102
RTVSPropertyOp23
 70
     1
102
RTVSPropertyOp24
 70
     1
102
RTVSPropertyOp25
 70
     1
102
RTVSPropertyOp26
 70
     1
102
RTVSPropertyOp27
 70
     1
102
RTVSPropertyOp28
 70
     1
102
RTVSPropertyOp29
 70
     1
102
RTVSPropertyOp30
 70
     1
102
RTVSPropertyOp31
 70
     1
102
RTVSPropertyOp32
 70
     1
  0
XRECORD
  5
278
102
{ACAD_REACTORS
330
277
102
}
330
277
100
AcDbXrecord
280
     1
102
RTVSPropertyOp0
 70
     1
102
RTVSPropertyOp1
 70
     1
102
RTVSPropertyOp2
 70
     1
102
RTVSPropertyOp3
 70
     1
102
RTVSPropertyOp4
 70
     1
102
RTVSPropertyOp5
 70
     1
102
RTVSPropertyOp6
 70
     1
102
RTVSPropertyOp7
 70
     1
102
RTVSPropertyOp8
 70
     1
102
RTVSPropertyOp9
 70
     1
102
RTVSPropertyOp10
 70
     1
102
RTVSPropertyOp11
 70
     1
102
RTVSPropertyOp12
 70
     1
102
RTVSPropertyOp13
 70
     1
102
RTVSPropertyOp14
 70
     1
102
RTVSPropertyOp15
 70
     1
102
RTVSPropertyOp16
 70
     1
102
RTVSPropertyOp17
 70
     1
102
RTVSPropertyOp18
 70
     1
102
RTVSPropertyOp19
 70
     1
102
RTVSPropertyOp20
 70
     1
102
RTVSPropertyOp21
 70
     1
102
RTVSPropertyOp22
 70
     1
102
RTVSPropertyOp23
 70
     1
102
RTVSPropertyOp24
 70
     1
102
RTVSPropertyOp25
 70
     1
102
RTVSPropertyOp26
 70
     1
102
RTVSPropertyOp27
 70
     1
102
RTVSPropertyOp28
 70
     1
102
RTVSPropertyOp29
 70
     1
102
RTVSPropertyOp30
 70
     1
102
RTVSPropertyOp31
 70
     1
102
RTVSPropertyOp32
 70
     1
  0
XRECORD
  5
25C
102
{ACAD_REACTORS
330
25B
102
}
330
25B
100
AcDbXrecord
280
     1
102
RTVSPropertyOp0
 70
     1
102
RTVSPropertyOp1
 70
     1
102
RTVSPropertyOp2
 70
     1
102
RTVSPropertyOp3
 70
     1
102
RTVSPropertyOp4
 70
     1
102
RTVSPropertyOp5
 70
     1
102
RTVSPropertyOp6
 70
     1
102
RTVSPropertyOp7
 70
     1
102
RTVSPropertyOp8
 70
     1
102
RTVSPropertyOp9
 70
     1
102
RTVSPropertyOp10
 70
     1
102
RTVSPropertyOp11
 70
     1
102
RTVSPropertyOp12
 70
     1
102
RTVSPropertyOp13
 70
     1
102
RTVSPropertyOp14
 70
     1
102
RTVSPropertyOp15
 70
     1
102
RTVSPropertyOp16
 70
     1
102
RTVSPropertyOp17
 70
     1
102
RTVSPropertyOp18
 70
     1
102
RTVSPropertyOp19
 70
     1
102
RTVSPropertyOp20
 70
     1
102
RTVSPropertyOp21
 70
     1
102
RTVSPropertyOp22
 70
     1
102
RTVSPropertyOp23
 70
     1
102
RTVSPropertyOp24
 70
     1
102
RTVSPropertyOp25
 70
     1
102
RTVSPropertyOp26
 70
     1
102
RTVSPropertyOp27
 70
     1
102
RTVSPropertyOp28
 70
     1
102
RTVSPropertyOp29
 70
     1
102
RTVSPropertyOp30
 70
     1
102
RTVSPropertyOp31
 70
     1
102
RTVSPropertyOp32
 70
     1
  0
XRECORD
  5
25E
102
{ACAD_REACTORS
330
25D
102
}
330
25D
100
AcDbXrecord
280
     1
102
RTVSPropertyOp0
 70
     1
102
RTVSPropertyOp1
 70
     1
102
RTVSPropertyOp2
 70
     1
102
RTVSPropertyOp3
 70
     1
102
RTVSPropertyOp4
 70
     1
102
RTVSPropertyOp5
 70
     1
102
RTVSPropertyOp6
 70
     1
102
RTVSPropertyOp7
 70
     1
102
RTVSPropertyOp8
 70
     1
102
RTVSPropertyOp9
 70
     1
102
RTVSPropertyOp10
 70
     1
102
RTVSPropertyOp11
 70
     1
102
RTVSPropertyOp12
 70
     1
102
RTVSPropertyOp13
 70
     1
102
RTVSPropertyOp14
 70
     1
102
RTVSPropertyOp15
 70
     1
102
RTVSPropertyOp16
 70
     1
102
RTVSPropertyOp17
 70
     1
102
RTVSPropertyOp18
 70
     1
102
RTVSPropertyOp19
 70
     1
102
RTVSPropertyOp20
 70
     1
102
RTVSPropertyOp21
 70
     1
102
RTVSPropertyOp22
 70
     1
102
RTVSPropertyOp23
 70
     1
102
RTVSPropertyOp24
 70
     1
102
RTVSPropertyOp25
 70
     1
102
RTVSPropertyOp26
 70
     1
102
RTVSPropertyOp27
 70
     1
102
RTVSPropertyOp28
 70
     1
102
RTVSPropertyOp29
 70
     1
102
RTVSPropertyOp30
 70
     1
102
RTVSPropertyOp31
 70
     1
102
RTVSPropertyOp32
 70
     1
  0
XRECORD
  5
260
102
{ACAD_REACTORS
330
25F
102
}
330
25F
100
AcDbXrecord
280
     1
102
RTVSPropertyOp0
 70
     1
102
RTVSPropertyOp1
 70
     1
102
RTVSPropertyOp2
 70
     1
102
RTVSPropertyOp3
 70
     1
102
RTVSPropertyOp4
 70
     1
102
RTVSPropertyOp5
 70
     1
102
RTVSPropertyOp6
 70
     1
102
RTVSPropertyOp7
 70
     1
102
RTVSPropertyOp8
 70
     1
102
RTVSPropertyOp9
 70
     1
102
RTVSPropertyOp10
 70
     1
102
RTVSPropertyOp11
 70
     1
102
RTVSPropertyOp12
 70
     1
102
RTVSPropertyOp13
 70
     1
102
RTVSPropertyOp14
 70
     1
102
RTVSPropertyOp15
 70
     1
102
RTVSPropertyOp16
 70
     1
102
RTVSPropertyOp17
 70
     1
102
RTVSPropertyOp18
 70
     1
102
RTVSPropertyOp19
 70
     1
102
RTVSPropertyOp20
 70
     1
102
RTVSPropertyOp21
 70
     1
102
RTVSPropertyOp22
 70
     1
102
RTVSPropertyOp23
 70
     1
102
RTVSPropertyOp24
 70
     1
102
RTVSPropertyOp25
 70
     1
102
RTVSPropertyOp26
 70
     1
102
RTVSPropertyOp27
 70
     1
102
RTVSPropertyOp28
 70
     1
102
RTVSPropertyOp29
 70
     1
102
RTVSPropertyOp30
 70
     1
102
RTVSPropertyOp31
 70
     1
102
RTVSPropertyOp32
 70
     1
  0
XRECORD
  5
262
102
{ACAD_REACTORS
330
261
102
}
330
261
100
AcDbXrecord
280
     1
102
RTVSPropertyOp0
 70
     1
102
RTVSPropertyOp1
 70
     1
102
RTVSPropertyOp2
 70
     1
102
RTVSPropertyOp3
 70
     1
102
RTVSPropertyOp4
 70
     1
102
RTVSPropertyOp5
 70
     1
102
RTVSPropertyOp6
 70
     1
102
RTVSPropertyOp7
 70
     1
102
RTVSPropertyOp8
 70
     1
102
RTVSPropertyOp9
 70
     1
102
RTVSPropertyOp10
 70
     1
102
RTVSPropertyOp11
 70
     1
102
RTVSPropertyOp12
 70
     1
102
RTVSPropertyOp13
 70
     1
102
RTVSPropertyOp14
 70
     1
102
RTVSPropertyOp15
 70
     1
102
RTVSPropertyOp16
 70
     1
102
RTVSPropertyOp17
 70
     1
102
RTVSPropertyOp18
 70
     1
102
RTVSPropertyOp19
 70
     1
102
RTVSPropertyOp20
 70
     1
102
RTVSPropertyOp21
 70
     1
102
RTVSPropertyOp22
 70
     1
102
RTVSPropertyOp23
 70
     1
102
RTVSPropertyOp24
 70
     1
102
RTVSPropertyOp25
 70
     1
102
RTVSPropertyOp26
 70
     1
102
RTVSPropertyOp27
 70
     1
102
RTVSPropertyOp28
 70
     1
102
RTVSPropertyOp29
 70
     1
102
RTVSPropertyOp30
 70
     1
102
RTVSPropertyOp31
 70
     1
102
RTVSPropertyOp32
 70
     1
  0
XRECORD
  5
276
102
{ACAD_REACTORS
330
275
102
}
330
275
100
AcDbXrecord
280
     1
102
RTVSPropertyOp0
 70
     1
102
RTVSPropertyOp1
 70
     1
102
RTVSPropertyOp2
 70
     1
102
RTVSPropertyOp3
 70
     1
102
RTVSPropertyOp4
 70
     1
102
RTVSPropertyOp5
 70
     1
102
RTVSPropertyOp6
 70
     1
102
RTVSPropertyOp7
 70
     1
102
RTVSPropertyOp8
 70
     1
102
RTVSPropertyOp9
 70
     1
102
RTVSPropertyOp10
 70
     1
102
RTVSPropertyOp11
 70
     1
102
RTVSPropertyOp12
 70
     1
102
RTVSPropertyOp13
 70
     1
102
RTVSPropertyOp14
 70
     1
102
RTVSPropertyOp15
 70
     1
102
RTVSPropertyOp16
 70
     1
102
RTVSPropertyOp17
 70
     1
102
RTVSPropertyOp18
 70
     1
102
RTVSPropertyOp19
 70
     1
102
RTVSPropertyOp20
 70
     1
102
RTVSPropertyOp21
 70
     1
102
RTVSPropertyOp22
 70
     1
102
RTVSPropertyOp23
 70
     1
102
RTVSPropertyOp24
 70
     1
102
RTVSPropertyOp25
 70
     1
102
RTVSPropertyOp26
 70
     1
102
RTVSPropertyOp27
 70
     1
102
RTVSPropertyOp28
 70
     1
102
RTVSPropertyOp29
 70
     1
102
RTVSPropertyOp30
 70
     1
102
RTVSPropertyOp31
 70
     1
102
RTVSPropertyOp32
 70
     1
  0
XRECORD
  5
26C
102
{ACAD_REACTORS
330
26B
102
}
330
26B
100
AcDbXrecord
280
     1
102
RTVSPropertyOp0
 70
     1
102
RTVSPropertyOp1
 70
     1
102
RTVSPropertyOp2
 70
     1
102
RTVSPropertyOp3
 70
     1
102
RTVSPropertyOp4
 70
     1
102
RTVSPropertyOp5
 70
     1
102
RTVSPropertyOp6
 70
     1
102
RTVSPropertyOp7
 70
     1
102
RTVSPropertyOp8
 70
     1
102
RTVSPropertyOp9
 70
     1
102
RTVSPropertyOp10
 70
     1
102
RTVSPropertyOp11
 70
     1
102
RTVSPropertyOp12
 70
     1
102
RTVSPropertyOp13
 70
     1
102
RTVSPropertyOp14
 70
     1
102
RTVSPropertyOp15
 70
     1
102
RTVSPropertyOp16
 70
     1
102
RTVSPropertyOp17
 70
     1
102
RTVSPropertyOp18
 70
     1
102
RTVSPropertyOp19
 70
     1
102
RTVSPropertyOp20
 70
     1
102
RTVSPropertyOp21
 70
     1
102
RTVSPropertyOp22
 70
     1
102
RTVSPropertyOp23
 70
     1
102
RTVSPropertyOp24
 70
     1
102
RTVSPropertyOp25
 70
     1
102
RTVSPropertyOp26
 70
     1
102
RTVSPropertyOp27
 70
     1
102
RTVSPropertyOp28
 70
     1
102
RTVSPropertyOp29
 70
     1
102
RTVSPropertyOp30
 70
     1
102
RTVSPropertyOp31
 70
     1
102
RTVSPropertyOp32
 70
     1
  0
XRECORD
  5
274
102
{ACAD_REACTORS
330
273
102
}
330
273
100
AcDbXrecord
280
     1
102
RTVSPropertyOp0
 70
     1
102
RTVSPropertyOp1
 70
     1
102
RTVSPropertyOp2
 70
     1
102
RTVSPropertyOp3
 70
     1
102
RTVSPropertyOp4
 70
     1
102
RTVSPropertyOp5
 70
     1
102
RTVSPropertyOp6
 70
     1
102
RTVSPropertyOp7
 70
     1
102
RTVSPropertyOp8
 70
     1
102
RTVSPropertyOp9
 70
     1
102
RTVSPropertyOp10
 70
     1
102
RTVSPropertyOp11
 70
     1
102
RTVSPropertyOp12
 70
     1
102
RTVSPropertyOp13
 70
     1
102
RTVSPropertyOp14
 70
     1
102
RTVSPropertyOp15
 70
     1
102
RTVSPropertyOp16
 70
     1
102
RTVSPropertyOp17
 70
     1
102
RTVSPropertyOp18
 70
     1
102
RTVSPropertyOp19
 70
     1
102
RTVSPropertyOp20
 70
     1
102
RTVSPropertyOp21
 70
     1
102
RTVSPropertyOp22
 70
     1
102
RTVSPropertyOp23
 70
     1
102
RTVSPropertyOp24
 70
     1
102
RTVSPropertyOp25
 70
     1
102
RTVSPropertyOp26
 70
     1
102
RTVSPropertyOp27
 70
     1
102
RTVSPropertyOp28
 70
     1
102
RTVSPropertyOp29
 70
     1
102
RTVSPropertyOp30
 70
     1
102
RTVSPropertyOp31
 70
     1
102
RTVSPropertyOp32
 70
     1
  0
ENDSEC
  0
EOF
