  0
SECTION
  2
HEADER
  9
$ACADVER
  1
AC1015
  9
$ACADMAINTVER
 70
     6
  9
$DWGCODEPAGE
  3
ANSI_932
  9
$INSBASE
 10
0.0
 20
0.0
 30
0.0
  9
$EXTMIN
 10
0.0
 20
0.0
 30
0.0
  9
$EXTMAX
 10
525.0
 20
742.5
 30
0.0
  9
$LIMMIN
 10
0.0
 20
0.0
  9
$LIMMAX
 10
12.0
 20
9.0
  9
$ORTHOMODE
 70
     0
  9
$REGENMODE
 70
     1
  9
$FILLMODE
 70
     1
  9
$QTEXTMODE
 70
     0
  9
$MIRRTEXT
 70
     1
  9
$LTSCALE
 40
1.0
  9
$ATTMODE
 70
     1
  9
$TEXTSIZE
 40
0.2
  9
$TRACEWID
 40
0.05
  9
$TEXTSTYLE
  7
Standard
  9
$CLAYER
  8
0
  9
$CELTYPE
  6
ByLayer
  9
$CECOLOR
 62
   256
  9
$CELTSCALE
 40
1.0
  9
$DISPSILH
 70
     0
  9
$DIMSCALE
 40
1.0
  9
$DIMASZ
 40
0.18
  9
$DIMEXO
 40
0.0625
  9
$DIMDLI
 40
0.38
  9
$DIMRND
 40
0.0
  9
$DIMDLE
 40
0.0
  9
$DIMEXE
 40
0.18
  9
$DIMTP
 40
0.0
  9
$DIMTM
 40
0.0
  9
$DIMTXT
 40
0.18
  9
$DIMCEN
 40
0.09
  9
$DIMTSZ
 40
0.0
  9
$DIMTOL
 70
     0
  9
$DIMLIM
 70
     0
  9
$DIMTIH
 70
     1
  9
$DIMTOH
 70
     1
  9
$DIMSE1
 70
     0
  9
$DIMSE2
 70
     0
  9
$DIMTAD
 70
     0
  9
$DIMZIN
 70
     0
  9
$DIMBLK
  1

  9
$DIMASO
 70
     1
  9
$DIMSHO
 70
     1
  9
$DIMPOST
  1

  9
$DIMAPOST
  1

  9
$DIMALT
 70
     0
  9
$DIMALTD
 70
     2
  9
$DIMALTF
 40
25.4
  9
$DIMLFAC
 40
1.0
  9
$DIMTOFL
 70
     0
  9
$DIMTVP
 40
0.0
  9
$DIMTIX
 70
     0
  9
$DIMSOXD
 70
     0
  9
$DIMSAH
 70
     0
  9
$DIMBLK1
  1

  9
$DIMBLK2
  1

  9
$DIMSTYLE
  2
Standard
  9
$DIMCLRD
 70
     0
  9
$DIMCLRE
 70
     0
  9
$DIMCLRT
 70
     0
  9
$DIMTFAC
 40
1.0
  9
$DIMGAP
 40
0.09
  9
$DIMJUST
 70
     0
  9
$DIMSD1
 70
     0
  9
$DIMSD2
 70
     0
  9
$DIMTOLJ
 70
     1
  9
$DIMTZIN
 70
     0
  9
$DIMALTZ
 70
     0
  9
$DIMALTTZ
 70
     0
  9
$DIMUPT
 70
     0
  9
$DIMDEC
 70
     4
  9
$DIMTDEC
 70
     4
  9
$DIMALTU
 70
     2
  9
$DIMALTTD
 70
     2
  9
$DIMTXSTY
  7
Standard
  9
$DIMAUNIT
 70
     0
  9
$DIMADEC
 70
     0
  9
$DIMALTRND
 40
0.0
  9
$DIMAZIN
 70
     0
  9
$DIMDSEP
 70
    46
  9
$DIMATFIT
 70
     3
  9
$DIMFRAC
 70
     0
  9
$DIMLDRBLK
  1

  9
$DIMLUNIT
 70
     2
  9
$DIMLWD
 70
    -2
  9
$DIMLWE
 70
    -2
  9
$DIMTMOVE
 70
     0
  9
$LUNITS
 70
     2
  9
$LUPREC
 70
     4
  9
$SKETCHINC
 40
0.1
  9
$FILLETRAD
 40
0.5
  9
$AUNITS
 70
     0
  9
$AUPREC
 70
     0
  9
$MENU
  1
.
  9
$ELEVATION
 40
0.0
  9
$PELEVATION
 40
0.0
  9
$THICKNESS
 40
0.0
  9
$LIMCHECK
 70
     0
  9
$CHAMFERA
 40
0.5
  9
$CHAMFERB
 40
0.5
  9
$CHAMFERC
 40
1.0
  9
$CHAMFERD
 40
0.0
  9
$SKPOLY
 70
     0
  9
$TDCREATE
 40
2457186.569373692
  9
$TDUCREATE
 40
2457186.194373692
  9
$TDUPDATE
 40
2457186.569374595
  9
$TDUUPDATE
 40
2457186.194374595
  9
$TDINDWG
 40
0.0000000116
  9
$TDUSRTIMER
 40
0.0000000116
  9
$USRTIMER
 70
     1
  9
$ANGBASE
 50
0.0
  9
$ANGDIR
 70
     0
  9
$PDMODE
 70
     0
  9
$PDSIZE
 40
0.0
  9
$PLINEWID
 40
0.0
  9
$SPLFRAME
 70
     0
  9
$SPLINETYPE
 70
     6
  9
$SPLINESEGS
 70
     8
  9
$HANDSEED
  5
282
  9
$SURFTAB1
 70
     6
  9
$SURFTAB2
 70
     6
  9
$SURFTYPE
 70
     6
  9
$SURFU
 70
     6
  9
$SURFV
 70
     6
  9
$UCSBASE
  2

  9
$UCSNAME
  2

  9
$UCSORG
 10
0.0
 20
0.0
 30
0.0
  9
$UCSXDIR
 10
1.0
 20
0.0
 30
0.0
  9
$UCSYDIR
 10
0.0
 20
1.0
 30
0.0
  9
$UCSORTHOREF
  2

  9
$UCSORTHOVIEW
 70
     0
  9
$UCSORGTOP
 10
0.0
 20
0.0
 30
0.0
  9
$UCSORGBOTTOM
 10
0.0
 20
0.0
 30
0.0
  9
$UCSORGLEFT
 10
0.0
 20
0.0
 30
0.0
  9
$UCSORGRIGHT
 10
0.0
 20
0.0
 30
0.0
  9
$UCSORGFRONT
 10
0.0
 20
0.0
 30
0.0
  9
$UCSORGBACK
 10
0.0
 20
0.0
 30
0.0
  9
$PUCSBASE
  2

  9
$PUCSNAME
  2

  9
$PUCSORG
 10
0.0
 20
0.0
 30
0.0
  9
$PUCSXDIR
 10
1.0
 20
0.0
 30
0.0
  9
$PUCSYDIR
 10
0.0
 20
1.0
 30
0.0
  9
$PUCSORTHOREF
  2

  9
$PUCSORTHOVIEW
 70
     0
  9
$PUCSORGTOP
 10
0.0
 20
0.0
 30
0.0
  9
$PUCSORGBOTTOM
 10
0.0
 20
0.0
 30
0.0
  9
$PUCSORGLEFT
 10
0.0
 20
0.0
 30
0.0
  9
$PUCSORGRIGHT
 10
0.0
 20
0.0
 30
0.0
  9
$PUCSORGFRONT
 10
0.0
 20
0.0
 30
0.0
  9
$PUCSORGBACK
 10
0.0
 20
0.0
 30
0.0
  9
$USERI1
 70
     0
  9
$USERI2
 70
     0
  9
$USERI3
 70
     0
  9
$USERI4
 70
     0
  9
$USERI5
 70
     0
  9
$USERR1
 40
18.1
  9
$USERR2
 40
0.0
  9
$USERR3
 40
0.0
  9
$USERR4
 40
0.0
  9
$USERR5
 40
0.0
  9
$WORLDVIEW
 70
     1
  9
$SHADEDGE
 70
     3
  9
$SHADEDIF
 70
    70
  9
$TILEMODE
 70
     1
  9
$MAXACTVP
 70
    64
  9
$PINSBASE
 10
0.0
 20
0.0
 30
0.0
  9
$PLIMCHECK
 70
     0
  9
$PEXTMIN
 10
1.00000000000000E+20
 20
1.00000000000000E+20
 30
1.00000000000000E+20
  9
$PEXTMAX
 10
-1.00000000000000E+20
 20
-1.00000000000000E+20
 30
-1.00000000000000E+20
  9
$PLIMMIN
 10
0.0
 20
0.0
  9
$PLIMMAX
 10
12.0
 20
9.0
  9
$UNITMODE
 70
     0
  9
$VISRETAIN
 70
     1
  9
$PLINEGEN
 70
     0
  9
$PSLTSCALE
 70
     1
  9
$TREEDEPTH
 70
  3020
  9
$CMLSTYLE
  2
Standard
  9
$CMLJUST
 70
     0
  9
$CMLSCALE
 40
1.0
  9
$PROXYGRAPHICS
 70
     1
  9
$MEASUREMENT
 70
     1
  9
$CELWEIGHT
370
    -1
  9
$ENDCAPS
280
     0
  9
$JOINSTYLE
280
     0
  9
$LWDISPLAY
290
     0
  9
$INSUNITS
 70
     4
  9
$HYPERLINKBASE
  1

  9
$STYLESHEET
  1

  9
$XEDIT
290
     1
  9
$CEPSNTYPE
380
     0
  9
$PSTYLEMODE
290
     1
  9
$FINGERPRINTGUID
  2
{9EE8BB1B-1F1F-4462-BA08-25BE4D8A482A}
  9
$VERSIONGUID
  2
{FAEB1C32-E019-11D5-929B-00C0DF256EC4}
  9
$EXTNAMES
290
     1
  9
$PSVPSCALE
 40
0.0
  9
$OLESTARTUP
290
     0
  0
ENDSEC
  0
SECTION
  2
CLASSES
  0
CLASS
  1
ACDBDICTIONARYWDFLT
  2
AcDbDictionaryWithDefault
  3
ObjectDBX Classes
 90
        0
280
     0
281
     0
  0
CLASS
  1
VISUALSTYLE
  2
AcDbVisualStyle
  3
ObjectDBX Classes
 90
     4095
280
     0
281
     0
  0
CLASS
  1
MATERIAL
  2
AcDbMaterial
  3
ObjectDBX Classes
 90
     1153
280
     0
281
     0
  0
CLASS
  1
DICTIONARYVAR
  2
AcDbDictionaryVar
  3
ObjectDBX Classes
 90
        0
280
     0
281
     0
  0
CLASS
  1
ACDBPLACEHOLDER
  2
AcDbPlaceHolder
  3
ObjectDBX Classes
 90
        0
280
     0
281
     0
  0
CLASS
  1
LAYOUT
  2
AcDbLayout
  3
ObjectDBX Classes
 90
        0
280
     0
281
     0
  0
ENDSEC
  0
SECTION
  2
TABLES
  0
TABLE
  2
VPORT
  5
8
330
0
100
AcDbSymbolTable
 70
     1
  0
VPORT
  5
29
330
8
100
AcDbSymbolTableRecord
100
AcDbViewportTableRecord
  2
*Active
 70
     0
 10
0.0
 20
0.0
 11
1.0
 21
1.0
 12
262.5
 22
371.25
 13
0.0
 23
0.0
 14
0.5
 24
0.5
 15
0.5
 25
0.5
 16
0.0
 26
0.0
 36
1.0
 17
0.0
 27
0.0
 37
0.0
 40
816.7500000000001
 41
1.60267857142857
 42
50.0
 43
0.0
 44
0.0
 50
0.0
 51
0.0
 71
     0
 72
   100
 73
     1
 74
     3
 75
     0
 76
     0
 77
     0
 78
     0
281
     0
 65
     1
110
0.0
120
0.0
130
0.0
111
1.0
121
0.0
131
0.0
112
0.0
122
1.0
132
0.0
 79
     0
146
0.0
  0
ENDTAB
  0
TABLE
  2
LTYPE
  5
5
330
0
100
AcDbSymbolTable
 70
     8
  0
LTYPE
  5
14
330
5
100
AcDbSymbolTableRecord
100
AcDbLinetypeTableRecord
  2
ByBlock
 70
     0
  3

 72
    65
 73
     0
 40
0.0
  0
LTYPE
  5
15
330
5
100
AcDbSymbolTableRecord
100
AcDbLinetypeTableRecord
  2
ByLayer
 70
     0
  3

 72
    65
 73
     0
 40
0.0
  0
LTYPE
  5
16
330
5
100
AcDbSymbolTableRecord
100
AcDbLinetypeTableRecord
  2
Continuous
 70
     0
  3
Solid line
 72
    65
 73
     0
 40
0.0
  0
LTYPE
  5
3F
330
5
100
AcDbSymbolTableRecord
100
AcDbLinetypeTableRecord
  2
DASHED
 70
     0
  3
Dashed
 72
    65
 73
     2
 40
15.0
 49
7.0
 74
     0
 49
-8.0
 74
     0
  0
LTYPE
  5
40
330
5
100
AcDbSymbolTableRecord
100
AcDbLinetypeTableRecord
  2
DOTTED
 70
     0
  3
Dotted
 72
    65
 73
     2
 40
1.0
 49
0.0
 74
     0
 49
-1.0
 74
     0
  0
LTYPE
  5
41
330
5
100
AcDbSymbolTableRecord
100
AcDbLinetypeTableRecord
  2
DOT_CENTER
 70
     0
  3
Dot_Center
 72
    65
 73
     4
 40
14.0
 49
12.0
 74
     0
 49
-1.0
 74
     0
 49
0.0
 74
     0
 49
-1.0
 74
     0
  0
LTYPE
  5
42
330
5
100
AcDbSymbolTableRecord
100
AcDbLinetypeTableRecord
  2
LONG_DASHED
 70
     0
  3
Long_Dashed
 72
    65
 73
     2
 40
15.0
 49
10.0
 74
     0
 49
-5.0
 74
     0
  0
LTYPE
  5
43
330
5
100
AcDbSymbolTableRecord
100
AcDbLinetypeTableRecord
  2
DASH_CENTER
 70
     0
  3
Dash_Center
 72
    65
 73
     4
 40
14.0
 49
11.0
 74
     0
 49
-1.0
 74
     0
 49
1.0
 74
     0
 49
-1.0
 74
     0
  0
LTYPE
  5
44
330
5
100
AcDbSymbolTableRecord
100
AcDbLinetypeTableRecord
  2
PHANTOM
 70
     0
  3
Phantom
 72
    65
 73
     6
 40
13.0
 49
10.0
 74
     0
 49
-1.0
 74
     0
 49
0.0
 74
     0
 49
-1.0
 74
     0
 49
0.0
 74
     0
 49
-1.0
 74
     0
  0
LTYPE
  5
45
330
5
100
AcDbSymbolTableRecord
100
AcDbLinetypeTableRecord
  2
CENTER_DASH_DASH
 70
     0
  3
Center_Dash_Dash
 72
    65
 73
     6
 40
14.0
 49
9.0
 74
     0
 49
-1.0
 74
     0
 49
1.0
 74
     0
 49
-1.0
 74
     0
 49
1.0
 74
     0
 49
-1.0
 74
     0
  0
ENDTAB
  0
TABLE
  2
LAYER
  5
2
330
0
100
AcDbSymbolTable
 70
     2
  0
LAYER
  5
10
330
2
100
AcDbSymbolTableRecord
100
AcDbLayerTableRecord
  2
0
 70
     0
 62
     7
  6
Continuous
370
    -3
390
F
  0
LAYER
  5
46
330
2
100
AcDbSymbolTableRecord
100
AcDbLayerTableRecord
  2
1
 70
     0
 62
     7
  6
Continuous
370
    -3
390
F
  0
ENDTAB
  0
TABLE
  2
STYLE
  5
3
330
0
100
AcDbSymbolTable
 70
     3
  0
STYLE
  5
11
330
3
100
AcDbSymbolTableRecord
100
AcDbTextStyleTableRecord
  2
Standard
 70
     0
 40
0.0
 41
1.0
 50
0.0
 71
     0
 42
0.2
  3
txt
  4

  0
STYLE
  5
1C9
330
3
100
AcDbSymbolTableRecord
100
AcDbTextStyleTableRecord
  2
CONVERTER_11
 70
     0
 40
0.0
 41
0.89
 50
0.0
 71
     0
 42
0.2
  3
MS Mincho.ttf
  4

1001
ACAD
1000
MS Mincho
1071
    32785
  0
STYLE
  5
1EF
330
3
100
AcDbSymbolTableRecord
100
AcDbTextStyleTableRecord
  2
CONVERTER_12
 70
     0
 40
0.0
 41
0.9
 50
0.0
 71
     0
 42
0.2
  3
txt.shx
  4

  0
ENDTAB
  0
TABLE
  2
VIEW
  5
6
330
0
100
AcDbSymbolTable
 70
     0
  0
ENDTAB
  0
TABLE
  2
UCS
  5
7
330
0
100
AcDbSymbolTable
 70
     0
  0
ENDTAB
  0
TABLE
  2
APPID
  5
9
330
0
100
AcDbSymbolTable
 70
     1
  0
APPID
  5
12
330
9
100
AcDbSymbolTableRecord
100
AcDbRegAppTableRecord
  2
ACAD
 70
     0
  0
ENDTAB
  0
TABLE
  2
DIMSTYLE
  5
A
330
0
100
AcDbSymbolTable
 70
     9
100
AcDbDimStyleTable
  0
DIMSTYLE
105
27
330
A
100
AcDbSymbolTableRecord
100
AcDbDimStyleTableRecord
  2
Standard
 70
     0
178
     0
340
11
  0
DIMSTYLE
105
203
102
{ACAD_REACTORS
330
204
102
}
330
A
100
AcDbSymbolTableRecord
100
AcDbDimStyleTableRecord
  2
ME10_DIM_10
 70
     0
 41
8.75
 42
0.0
 44
2.5
 73
     0
 74
     0
 77
     1
 78
     8
140
8.75
147
2.5
172
     1
173
     1
174
     1
175
     1
176
     2
177
     2
271
     2
178
     7
271
     2
340
1EF
  0
DIMSTYLE
105
20E
102
{ACAD_REACTORS
330
20F
102
}
330
A
100
AcDbSymbolTableRecord
100
AcDbDimStyleTableRecord
  2
ME10_DIM_11
 70
     0
 41
8.75
 42
0.0
 44
2.5
 73
     0
 74
     0
 77
     1
 78
     8
140
8.75
147
2.5
172
     1
173
     1
174
     1
175
     1
176
     2
177
     2
271
     2
178
     7
271
     2
340
1EF
  0
DIMSTYLE
105
219
102
{ACAD_REACTORS
330
21A
102
}
330
A
100
AcDbSymbolTableRecord
100
AcDbDimStyleTableRecord
  2
ME10_DIM_12
 70
     0
 41
7.5
 42
0.0
 44
2.5
 73
     0
 74
     0
 77
     1
 78
     8
140
8.75
147
2.5
172
     1
173
     1
174
     1
175
     1
176
     2
177
     2
271
     2
178
     7
271
     2
340
1EF
  0
DIMSTYLE
105
227
102
{ACAD_REACTORS
330
228
102
}
330
A
100
AcDbSymbolTableRecord
100
AcDbDimStyleTableRecord
  2
ME10_DIM_13
 70
     0
 41
8.75
 42
0.0
 44
2.5
 73
     0
 74
     0
 77
     1
 78
     8
140
8.75
147
2.5
172
     1
173
     1
174
     1
175
     1
176
     2
177
     2
271
     2
178
     7
271
     2
340
1EF
343
224
  0
DIMSTYLE
105
232
102
{ACAD_REACTORS
330
233
102
}
330
A
100
AcDbSymbolTableRecord
100
AcDbDimStyleTableRecord
  2
ME10_DIM_14
 70
     0
  3
{\Fgdt;n}<>
 41
8.75
 42
0.0
 44
2.5
 73
     0
 74
     0
 77
     1
 78
     8
140
8.75
147
2.5
172
     1
173
     1
174
     1
175
     1
176
     2
177
     2
271
     2
178
     7
271
     2
340
1EF
  0
DIMSTYLE
105
23D
102
{ACAD_REACTORS
330
23E
102
}
330
A
100
AcDbSymbolTableRecord
100
AcDbDimStyleTableRecord
  2
ME10_DIM_15
 70
     0
 41
8.75
 42
0.0
 44
2.5
 73
     0
 74
     0
 77
     1
 78
     8
140
8.75
147
2.5
172
     1
173
     1
174
     1
175
     1
176
     2
177
     2
271
     2
178
     7
271
     2
340
1EF
  0
DIMSTYLE
105
248
102
{ACAD_REACTORS
330
249
102
}
330
A
100
AcDbSymbolTableRecord
100
AcDbDimStyleTableRecord
  2
ME10_DIM_16
 70
     0
 41
8.75
 42
0.0
 44
2.5
 73
     0
 74
     0
 77
     1
 78
     8
140
8.75
147
2.5
172
     1
173
     1
174
     1
175
     1
176
     2
177
     2
271
     2
178
     7
271
     2
340
1EF
  0
DIMSTYLE
105
255
102
{ACAD_REACTORS
330
256
102
}
330
A
100
AcDbSymbolTableRecord
100
AcDbDimStyleTableRecord
  2
ME10_DIM_17
 70
     0
 41
8.75
 42
0.0
 44
2.5
 73
     0
 74
     0
 77
     1
 78
     8
140
8.75
147
2.5
172
     1
173
     1
174
     1
175
     1
176
     2
177
     2
271
     2
178
     7
271
     2
340
1EF
  0
ENDTAB
  0
TABLE
  2
BLOCK_RECORD
  5
1
330
0
100
AcDbSymbolTable
 70
    17
  0
BLOCK_RECORD
  5
1F
330
1
100
AcDbSymbolTableRecord
100
AcDbBlockTableRecord
  2
*Model_Space
340
22
  0
BLOCK_RECORD
  5
1B
330
1
100
AcDbSymbolTableRecord
100
AcDbBlockTableRecord
  2
*Paper_Space
340
1E
  0
BLOCK_RECORD
  5
23
330
1
100
AcDbSymbolTableRecord
100
AcDbBlockTableRecord
  2
*Paper_Space0
340
26
  0
BLOCK_RECORD
  5
47
330
1
100
AcDbSymbolTableRecord
100
AcDbBlockTableRecord
  2
32-1-16
340
0
102
{BLKREFS
331
5C
102
}
  0
BLOCK_RECORD
  5
4A
330
1
100
AcDbSymbolTableRecord
100
AcDbBlockTableRecord
  2
81-100X-M21
340
0
102
{BLKREFS
331
5D
102
}
  0
BLOCK_RECORD
  5
4D
330
1
100
AcDbSymbolTableRecord
100
AcDbBlockTableRecord
  2
A205-0
340
0
102
{BLKREFS
331
5E
102
}
  0
BLOCK_RECORD
  5
50
330
1
100
AcDbSymbolTableRecord
100
AcDbBlockTableRecord
  2
61-6
340
0
102
{BLKREFS
331
5F
102
}
  0
BLOCK_RECORD
  5
53
330
1
100
AcDbSymbolTableRecord
100
AcDbBlockTableRecord
  2
30-111
340
0
102
{BLKREFS
331
60
102
}
  0
BLOCK_RECORD
  5
56
330
1
100
AcDbSymbolTableRecord
100
AcDbBlockTableRecord
  2
開示A4
340
0
102
{BLKREFS
331
61
102
}
  0
BLOCK_RECORD
  5
59
330
1
100
AcDbSymbolTableRecord
100
AcDbBlockTableRecord
  2
87-64
340
0
102
{BLKREFS
331
62
102
}
  0
BLOCK_RECORD
  5
1FA
330
1
100
AcDbSymbolTableRecord
100
AcDbBlockTableRecord
  2
*D8
340
0
  0
BLOCK_RECORD
  5
205
330
1
100
AcDbSymbolTableRecord
100
AcDbBlockTableRecord
  2
*D9
340
0
  0
BLOCK_RECORD
  5
210
330
1
100
AcDbSymbolTableRecord
100
AcDbBlockTableRecord
  2
*D10
340
0
  0
BLOCK_RECORD
  5
21B
330
1
100
AcDbSymbolTableRecord
100
AcDbBlockTableRecord
  2
*D11
340
0
  0
BLOCK_RECORD
  5
224
330
1
100
AcDbSymbolTableRecord
100
AcDbBlockTableRecord
  2
_NONE
340
0
  0
BLOCK_RECORD
  5
229
330
1
100
AcDbSymbolTableRecord
100
AcDbBlockTableRecord
  2
*D13
340
0
  0
BLOCK_RECORD
  5
234
330
1
100
AcDbSymbolTableRecord
100
AcDbBlockTableRecord
  2
*D14
340
0
  0
BLOCK_RECORD
  5
23F
330
1
100
AcDbSymbolTableRecord
100
AcDbBlockTableRecord
  2
*D15
340
0
  0
BLOCK_RECORD
  5
24A
330
1
100
AcDbSymbolTableRecord
100
AcDbBlockTableRecord
  2
*D16
340
0
  0
ENDTAB
  0
ENDSEC
  0
SECTION
  2
BLOCKS
  0
BLOCK
  5
20
330
1F
100
AcDbEntity
  8
0
100
AcDbBlockBegin
  2
*Model_Space
 70
     0
 10
0.0
 20
0.0
 30
0.0
  3
*Model_Space
  1

  0
ENDBLK
  5
21
330
1F
100
AcDbEntity
  8
0
100
AcDbBlockEnd
  0
BLOCK
  5
1C
330
1B
100
AcDbEntity
 67
     1
  8
0
100
AcDbBlockBegin
  2
*Paper_Space
 70
     0
 10
0.0
 20
0.0
 30
0.0
  3
*Paper_Space
  1

  0
ENDBLK
  5
1D
330
1B
100
AcDbEntity
 67
     1
  8
0
100
AcDbBlockEnd
  0
BLOCK
  5
24
330
23
100
AcDbEntity
  8
0
100
AcDbBlockBegin
  2
*Paper_Space0
 70
     0
 10
0.0
 20
0.0
 30
0.0
  3
*Paper_Space0
  1

  0
ENDBLK
  5
25
330
23
100
AcDbEntity
  8
0
100
AcDbBlockEnd
  0
BLOCK
  5
48
330
47
100
AcDbEntity
  8
0
100
AcDbBlockBegin
  2
32-1-16
 70
     0
 10
383.4866185693362
 20
339.5008396999623
 30
0.0
  3
32-1-16
  1

  0
LINE
  5
63
330
47
100
AcDbEntity
  8
1
  6
Continuous
 62
     7
100
AcDbLine
 10
121.6413194010962
 20
215.0000000000009
 30
0.0
 11
121.6993404628271
 21
215.0000000000009
 31
0.0
  0
LINE
  5
64
330
47
100
AcDbEntity
  8
1
  6
Continuous
 62
     7
100
AcDbLine
 10
120.0123404628272
 20
206.0000000000009
 30
0.0
 11
119.8993404628272
 21
206.0000000000009
 31
0.0
  0
LINE
  5
65
330
47
100
AcDbEntity
  8
1
  6
Continuous
 62
     7
100
AcDbLine
 10
119.8993404628272
 20
206.0000000000009
 30
0.0
 11
133.1993404628271
 21
206.0000000000009
 31
0.0
  0
LINE
  5
66
330
47
100
AcDbEntity
  8
1
  6
Continuous
 62
     7
100
AcDbLine
 10
139.8514078106522
 20
600.3417053823725
 30
0.0
 11
126.5472731150022
 21
600.3417053823725
 31
0.0
  0
LINE
  5
67
330
47
100
AcDbEntity
  8
1
  6
Continuous
 62
     7
100
AcDbLine
 10
148.6497297897212
 20
587.5808460714712
 30
0.0
 11
141.9976624418961
 21
599.102564693274
 31
0.0
  0
LINE
  5
68
330
47
100
AcDbEntity
  8
1
  6
Continuous
 62
     7
100
AcDbLine
 10
141.9976624418961
 20
573.5808460714712
 30
0.0
 11
148.6497297897212
 21
585.102564693274
 31
0.0
  0
LINE
  5
69
330
47
100
AcDbEntity
  8
1
  6
Continuous
 62
     7
100
AcDbLine
 10
142.967289655258
 20
216.0000000000009
 30
0.0
 11
133.1993404628271
 21
216.0000000000009
 31
0.0
  0
LINE
  5
6A
330
47
100
AcDbEntity
  8
1
  6
Continuous
 62
     7
100
AcDbLine
 10
144.6993404628271
 20
215.0000000000009
 30
0.0
 11
144.7573615245571
 21
215.0000000000009
 31
0.0
  0
LINE
  5
6B
330
47
100
AcDbEntity
  8
1
  6
Continuous
 62
     7
100
AcDbLine
 10
146.4993404628271
 20
206.0000000000009
 30
0.0
 11
146.3863404628272
 21
206.0000000000009
 31
0.0
  0
LINE
  5
6C
330
47
100
AcDbEntity
  8
1
  6
Continuous
 62
     7
100
AcDbLine
 10
133.1993404628271
 20
206.0000000000009
 30
0.0
 11
146.4993404628271
 21
206.0000000000009
 31
0.0
  0
LINE
  5
6D
330
47
100
AcDbEntity
  8
1
  6
Continuous
 62
     7
100
AcDbLine
 10
133.1993404628271
 20
216.0000000000009
 30
0.0
 11
123.4313912703962
 21
216.0000000000009
 31
0.0
  0
LINE
  5
6E
330
47
100
AcDbEntity
  8
1
  6
Continuous
 62
     7
100
AcDbLine
 10
124.4010184837572
 20
599.102564693274
 30
0.0
 11
117.7489511359321
 21
587.5808460714712
 31
0.0
  0
LINE
  5
6F
330
47
100
AcDbEntity
  8
1
  6
Continuous
 62
     7
100
AcDbLine
 10
117.7489511359321
 20
585.102564693274
 30
0.0
 11
124.4010184837572
 21
573.5808460714712
 31
0.0
  0
LINE
  5
70
330
47
100
AcDbEntity
  8
1
  6
Continuous
 62
     7
100
AcDbLine
 10
401.8396625421361
 20
206.0
 30
0.0
 11
392.5396625421362
 21
206.0
 31
0.0
  0
LINE
  5
71
330
47
100
AcDbEntity
  8
1
  6
Continuous
 62
     7
100
AcDbLine
 10
419.8396625421361
 20
213.713177249713
 30
0.0
 11
419.8396625421361
 21
206.5717488211702
 31
0.0
  0
LINE
  5
72
330
47
100
AcDbEntity
  8
1
  6
Continuous
 62
     7
100
AcDbLine
 10
391.8396625421361
 20
206.5717488211702
 30
0.0
 11
391.8396625421361
 21
213.7131772497131
 31
0.0
  0
LINE
  5
73
330
47
100
AcDbEntity
  8
1
  6
Continuous
 62
     7
100
AcDbLine
 10
415.6076117345671
 20
216.0
 30
0.0
 11
396.0717133497041
 21
216.0
 31
0.0
  0
LINE
  5
74
330
47
100
AcDbEntity
  8
1
  6
Continuous
 62
     7
100
AcDbLine
 10
419.1396625421361
 20
206.0
 30
0.0
 11
410.1076117345671
 21
206.0
 31
0.0
  0
LINE
  5
75
330
47
100
AcDbEntity
  8
1
  6
Continuous
 62
     7
100
AcDbLine
 10
394.281641480405
 20
215.0
 30
0.0
 11
394.3396625421361
 21
215.0
 31
0.0
  0
LINE
  5
76
330
47
100
AcDbEntity
  8
1
  6
Continuous
 62
     7
100
AcDbLine
 10
417.3396625421361
 20
215.0
 30
0.0
 11
417.3976836038661
 21
215.0
 31
0.0
  0
LINE
  5
77
330
47
100
AcDbEntity
  8
1
  6
Continuous
 62
     7
100
AcDbLine
 10
410.1076117345671
 20
206.0
 30
0.0
 11
409.8396625421361
 21
206.0
 31
0.0
  0
ARC
  5
78
330
47
100
AcDbEntity
  8
1
  6
Continuous
 62
     7
100
AcDbCircle
 10
122.6993404628271
 20
210.1424630354426
 30
0.0
 40
4.999999999999988
100
AcDbArc
 50
105.3375576695505
 51
235.9442022574337
  0
ARC
  5
79
330
47
100
AcDbEntity
  8
1
  6
Continuous
 62
     7
100
AcDbCircle
 10
133.1993404628271
 20
586.3417053823725
 30
0.0
 40
15.49999999999961
100
AcDbArc
 50
55.41462091516284
 51
64.58537908483883
  0
ARC
  5
7A
330
47
100
AcDbEntity
  8
1
  6
Continuous
 62
     7
100
AcDbCircle
 10
133.1993404628271
 20
586.3417053823725
 30
0.0
 40
15.5
100
AcDbArc
 50
0.0
 51
4.58537908483973
  0
ARC
  5
7B
330
47
100
AcDbEntity
  8
1
  6
Continuous
 62
     7
100
AcDbCircle
 10
133.1993404628271
 20
586.3417053823725
 30
0.0
 40
15.4999999999999
100
AcDbArc
 50
301.0729509721535
 51
304.5853790848374
  0
ARC
  5
7C
330
47
100
AcDbEntity
  8
1
  6
Continuous
 62
     7
100
AcDbCircle
 10
133.1993404628271
 20
586.3417053823725
 30
0.0
 40
15.49999999999943
100
AcDbArc
 50
355.4146209151606
 51
0.0
  0
ARC
  5
7D
330
47
100
AcDbEntity
  8
1
  6
Continuous
 62
     7
100
AcDbCircle
 10
143.6993404628271
 20
210.1424630354426
 30
0.0
 40
5.000000000000071
100
AcDbArc
 50
304.0557977425671
 51
74.66244233044682
  0
ARC
  5
7E
330
47
100
AcDbEntity
  8
1
  6
Continuous
 62
     7
100
AcDbCircle
 10
133.1993404628271
 20
586.3417053823725
 30
0.0
 40
15.49999999999995
100
AcDbArc
 50
115.4146209151606
 51
124.58537908484
  0
ARC
  5
7F
330
47
100
AcDbEntity
  8
1
  6
Continuous
 62
     7
100
AcDbCircle
 10
133.1993404628271
 20
586.3417053823725
 30
0.0
 40
15.50000000000036
100
AcDbArc
 50
175.4146209151605
 51
180.0
  0
ARC
  5
80
330
47
100
AcDbEntity
  8
1
  6
Continuous
 62
     7
100
AcDbCircle
 10
133.1993404628271
 20
586.3417053823725
 30
0.0
 40
15.50000000000004
100
AcDbArc
 50
235.4146209151598
 51
238.9270490278464
  0
ARC
  5
81
330
47
100
AcDbEntity
  8
1
  6
Continuous
 62
     7
100
AcDbCircle
 10
133.1993404628271
 20
586.3417053823725
 30
0.0
 40
15.50000000000001
100
AcDbArc
 50
180.0
 51
184.585379084839
  0
ARC
  5
82
330
47
100
AcDbEntity
  8
1
  6
Continuous
 62
     7
100
AcDbCircle
 10
133.1993404628271
 20
586.3417053823725
 30
0.0
 40
10.76794919243103
100
AcDbArc
 50
317.9829399353528
 51
90.0
  0
ARC
  5
83
330
47
100
AcDbEntity
  8
1
  6
Continuous
 62
     7
100
AcDbCircle
 10
133.1993404628271
 20
586.3417053823725
 30
0.0
 40
10.76794919243127
100
AcDbArc
 50
90.0
 51
222.0170600646472
  0
ARC
  5
84
330
47
100
AcDbEntity
  8
1
  6
Continuous
 62
     7
100
AcDbCircle
 10
416.3396625421361
 20
210.1424630354416
 30
0.0
 40
4.999999999999985
100
AcDbArc
 50
304.0557977425674
 51
314.4270040008058
  0
ARC
  5
85
330
47
100
AcDbEntity
  8
1
  6
Continuous
 62
     7
100
AcDbCircle
 10
395.3396625421361
 20
210.1424630354416
 30
0.0
 40
5.00000000000021
100
AcDbArc
 50
105.3375576695635
 51
134.4270040008051
  0
ARC
  5
86
330
47
100
AcDbEntity
  8
1
  6
Continuous
 62
     7
100
AcDbCircle
 10
395.3396625421361
 20
210.1424630354416
 30
0.0
 40
4.999999999999996
100
AcDbArc
 50
225.5729959991943
 51
235.9442022574331
  0
ARC
  5
87
330
47
100
AcDbEntity
  8
1
  6
Continuous
 62
     7
100
AcDbCircle
 10
416.3396625421361
 20
210.1424630354416
 30
0.0
 40
4.999999999999975
100
AcDbArc
 50
45.57299599919402
 51
74.66244233044965
  0
SPLINE
  5
88
330
47
100
AcDbEntity
  8
0
  6
Continuous
 62
     7
100
AcDbSpline
210
0.0
220
0.0
230
1.0
 70
    11
 71
     3
 72
    79
 73
    75
 74
    73
 42
0.000000001
 43
0.0000000001
 44
0.00000001
 40
0.0
 40
0.0
 40
0.0
 40
0.0
 40
0.2910229063173557
 40
0.5820342199791089
 40
0.8749339259794868
 40
1.167812540311574
 40
1.463561181729729
 40
1.759282799553525
 40
2.058487804326378
 40
2.357663878865365
 40
2.660503334662358
 40
2.963315618548066
 40
3.269530819653705
 40
3.575723462230707
 40
3.884662737575115
 40
4.193586021287165
 40
4.504289078951515
 40
4.814983875317367
 40
5.126294424223151
 40
5.437604973117884
 40
5.748299769450772
 40
6.059002827059572
 40
6.36792611069384
 40
6.67686538593692
 40
6.983058028389555
 40
7.289273229345716
 40
7.592085513057505
 40
7.894924968652778
 40
8.194101042962613
 40
8.49330604747283
 40
8.789027664996885
 40
9.084776306062166
 40
9.377654919956107
 40
9.670554625322698
 40
9.961565937614324
 40
10.25258885279189
 40
10.54295309049248
 40
10.83331732819192
 40
11.12434024336623
 40
11.41535155565261
 40
11.70825126101197
 40
12.00112987489674
 40
12.29687851595094
 40
12.59260013346234
 40
12.89180513795823
 40
13.19098121225241
 40
13.49382066783045
 40
13.79663295152376
 40
14.10284815246028
 40
14.40904079489275
 40
14.71798007011474
 40
15.02690335372707
 40
15.33760641131313
 40
15.64830120762274
 40
15.95961175649382
 40
16.27092230537533
 40
16.58161710171651
 40
16.89232015935566
 40
17.20124344304226
 40
17.51018271836072
 40
17.81637536091127
 40
18.12259056198938
 40
18.42540284584661
 40
18.72824230161346
 40
19.02741837611964
 40
19.32662338085461
 40
19.62234499863089
 40
19.91809363998162
 40
20.2109722541977
 40
20.50387195993808
 40
20.79488327268786
 40
21.08590618851552
 40
21.3762704276037
 40
21.66663465645622
 40
21.66663465645622
 40
21.66663465645622
 40
21.66663465645622
 10
145.0336526610585
 20
213.6995322868437
 30
0.0
 10
144.9372776053433
 20
213.687856619406
 30
0.0
 10
144.7445313322754
 20
213.66450575482
 30
0.0
 10
144.4605948249462
 20
213.5951497630545
 30
0.0
 10
144.183330558321
 20
213.5017070059394
 30
0.0
 10
143.9145781740284
 20
213.3818000202047
 30
0.0
 10
143.656932790194
 20
213.2377545152124
 30
0.0
 10
143.4117058426898
 20
213.069687914524
 30
0.0
 10
143.1814424863942
 20
212.879853181583
 30
0.0
 10
142.9672102776547
 20
212.6687170530342
 30
0.0
 10
142.7712558486817
 20
212.4389374495057
 30
0.0
 10
142.5944985048575
 20
212.191208917378
 30
0.0
 10
142.4387276706942
 20
211.9284766776323
 30
0.0
 10
142.3047592531328
 20
211.651725666072
 30
0.0
 10
142.1938362216595
 20
211.3639936883839
 30
0.0
 10
142.1066594291022
 20
211.0666402420315
 30
0.0
 10
142.0439114188255
 20
210.7625942459541
 30
0.0
 10
142.0061110394299
 20
210.4536526502613
 30
0.0
 10
141.993433965759
 20
210.1424630450161
 30
0.0
 10
142.0061110390644
 20
209.8312734397612
 30
0.0
 10
142.0439114180952
 20
209.522331844074
 30
0.0
 10
142.1066594279981
 20
209.2182858479155
 30
0.0
 10
142.1938362202055
 20
208.9209324017648
 30
0.0
 10
142.3047592512238
 20
208.6332004231896
 30
0.0
 10
142.4387276687003
 20
208.3564494147337
 30
0.0
 10
142.5944985013775
 20
208.0937171632422
 30
0.0
 10
142.7712558488663
 20
207.8459886742133
 30
0.0
 10
142.9672102623749
 20
207.6162089105181
 30
0.0
 10
143.1814425262489
 20
207.4050733724322
 30
0.0
 10
143.4117056760846
 20
207.2152364493227
 30
0.0
 10
143.6569333834788
 20
207.047177931242
 30
0.0
 10
143.9145759449558
 20
206.9031024294592
 30
0.0
 10
144.1833387626428
 20
206.7833063589857
 30
0.0
 10
144.46056424813
 20
206.6894513621465
 30
0.0
 10
144.7446446014263
 20
206.6216244555545
 30
0.0
 10
145.0330120817329
 20
206.5809294939245
 30
0.0
 10
145.3236961152058
 20
206.5671637003491
 30
0.0
 10
145.6143801486787
 20
206.5809294938992
 30
0.0
 10
145.9027476289857
 20
206.6216244555042
 30
0.0
 10
146.1868279822826
 20
206.6894513620711
 30
0.0
 10
146.4640534677707
 20
206.7833063588853
 30
0.0
 10
146.7328162854586
 20
206.903102429334
 30
0.0
 10
146.990458846937
 20
207.0471779310921
 30
0.0
 10
147.2356865543326
 20
207.2152364491482
 30
0.0
 10
147.4659497041701
 20
207.4050733722332
 30
0.0
 10
147.680181968046
 20
207.6162089102949
 30
0.0
 10
147.8761363815565
 20
207.845988673966
 30
0.0
 10
148.0528937290473
 20
208.0937171629708
 30
0.0
 10
148.2086645617264
 20
208.3564494144386
 30
0.0
 10
148.3426329792059
 20
208.6332004228705
 30
0.0
 10
148.4535560102276
 20
208.920932401422
 30
0.0
 10
148.5407328024382
 20
209.2182858475488
 30
0.0
 10
148.6034808123446
 20
209.5223318436834
 30
0.0
 10
148.6412811913791
 20
209.8312734393472
 30
0.0
 10
148.6539582646885
 20
210.1424630445768
 30
0.0
 10
148.6412811910229
 20
210.4536526498023
 30
0.0
 10
148.6034808116312
 20
210.7625942454555
 30
0.0
 10
148.5407328013669
 20
211.0666402415657
 30
0.0
 10
148.4535560087935
 20
211.3639936876812
 30
0.0
 10
148.3426329774142
 20
211.6517256661346
 30
0.0
 10
148.2086645595454
 20
211.9284766747463
 30
0.0
 10
148.0528937265738
 20
212.1912089253198
 30
0.0
 10
147.8761363784141
 20
212.4389374173534
 30
0.0
 10
147.6801819656012
 20
212.6687171694656
 30
0.0
 10
147.46594969735
 20
212.8798527497863
 30
0.0
 10
147.2356865618895
 20
213.0696895157054
 30
0.0
 10
146.9904587995538
 20
213.2377486132868
 30
0.0
 10
146.7328164400188
 20
213.3818219636976
 30
0.0
 10
146.4640528736044
 20
213.5016259882415
 30
0.0
 10
146.1868301687368
 20
213.595451421188
 30
0.0
 10
145.9027394990796
 20
213.6633879855311
 30
0.0
 10
145.61441043733
 20
213.7036745418418
 30
0.0
 10
145.3235833268681
 20
213.718961286236
 30
0.0
 10
145.1302962153008
 20
213.7060086181454
 30
0.0
 10
145.0336526610585
 20
213.6995322868437
 30
0.0
 11
145.0336526610585
 21
213.6995322868437
 31
0.0
 11
144.7454931647834
 21
213.6588083137572
 31
0.0
 11
144.4624109584011
 21
213.5913394436919
 31
0.0
 11
144.1849869158574
 21
213.497391915053
 31
0.0
 11
143.9174251637402
 21
213.3782760412537
 31
0.0
 11
143.6592927950251
 21
213.2339329117965
 31
0.0
 11
143.4152801424139
 21
213.0668727413808
 31
0.0
 11
143.184400636883
 21
212.87656170978
 31
0.0
 11
142.9712253419318
 21
212.6666507354246
 31
0.0
 11
142.7746910179234
 21
212.4362467522981
 31
0.0
 11
142.5987174821235
 21
212.1898150296103
 31
0.0
 11
142.4425203416505
 21
211.9264327927724
 31
0.0
 11
142.3090246536864
 21
211.6508736599946
 31
0.0
 11
142.1978747281295
 21
211.3626217390973
 31
0.0
 11
142.1108980741034
 21
211.0661952610569
 31
0.0
 11
142.048092999782
 21
210.761906068514
 31
0.0
 11
142.0103176381104
 21
210.4535162525935
 31
0.0
 11
141.9976624418968
 21
210.1424630354426
 31
0.0
 11
142.0103176381104
 21
209.8314098182917
 31
0.0
 11
142.0480929997821
 21
209.5230200023711
 31
0.0
 11
142.1108980741034
 21
209.2187308098282
 31
0.0
 11
142.1978747281295
 21
208.9223043317878
 31
0.0
 11
142.3090246536864
 21
208.6340524108905
 31
0.0
 11
142.4425203416505
 21
208.3584932781126
 31
0.0
 11
142.5987174821235
 21
208.0951110412748
 31
0.0
 11
142.7746910179234
 21
207.8486793185871
 31
0.0
 11
142.9712253419318
 21
207.6182753354606
 31
0.0
 11
143.184400636883
 21
207.4083643611051
 31
0.0
 11
143.4152801424139
 21
207.2180533295043
 31
0.0
 11
143.6592927950251
 21
207.0509931590886
 31
0.0
 11
143.9174251637402
 21
206.9066500296313
 31
0.0
 11
144.1849869158574
 21
206.7875341558319
 31
0.0
 11
144.462410958401
 21
206.6935866271932
 31
0.0
 11
144.7454931647834
 21
206.6261177571279
 31
0.0
 11
145.0336526610585
 21
206.5853937840414
 31
0.0
 11
145.3236961158092
 21
206.5717488211711
 31
0.0
 11
145.6137395705599
 21
206.5853937840413
 31
0.0
 11
145.9018990668348
 21
206.6261177571278
 31
0.0
 11
146.1849812732172
 21
206.6935866271932
 31
0.0
 11
146.4624053157609
 21
206.7875341558319
 31
0.0
 11
146.7299670678781
 21
206.9066500296314
 31
0.0
 11
146.9880994365931
 21
207.0509931590886
 31
0.0
 11
147.2321120892043
 21
207.2180533295043
 31
0.0
 11
147.4629915947353
 21
207.4083643611051
 31
0.0
 11
147.6761668896865
 21
207.6182753354606
 31
0.0
 11
147.8727012136947
 21
207.8486793185871
 31
0.0
 11
148.0486747494942
 21
208.0951110412748
 31
0.0
 11
148.204871889967
 21
208.3584932781126
 31
0.0
 11
148.3383675779313
 21
208.6340524108905
 31
0.0
 11
148.4495175034886
 21
208.9223043317878
 31
0.0
 11
148.5364941575149
 21
209.2187308098281
 31
0.0
 11
148.5992992318363
 21
209.523020002371
 31
0.0
 11
148.6370745935079
 21
209.8314098182915
 31
0.0
 11
148.6497297897215
 21
210.1424630354426
 31
0.0
 11
148.6370745935079
 21
210.4535162525935
 31
0.0
 11
148.5992992318363
 21
210.761906068514
 31
0.0
 11
148.5364941575149
 21
211.0661952610569
 31
0.0
 11
148.4495175034886
 21
211.3626217390973
 31
0.0
 11
148.3383675779313
 21
211.6508736599945
 31
0.0
 11
148.204871889967
 21
211.9264327927723
 31
0.0
 11
148.0486747494942
 21
212.1898150296102
 31
0.0
 11
147.8727012136947
 21
212.436246752298
 31
0.0
 11
147.6761668896865
 21
212.6666507354246
 31
0.0
 11
147.4629915947353
 21
212.87656170978
 31
0.0
 11
147.2321120892043
 21
213.0668727413808
 31
0.0
 11
146.9880994365932
 21
213.2339329117965
 31
0.0
 11
146.7299670678781
 21
213.3782760412537
 31
0.0
 11
146.4624053157609
 21
213.4973919150531
 31
0.0
 11
146.1849812732172
 21
213.5913394436918
 31
0.0
 11
145.9018990668348
 21
213.6588083137571
 31
0.0
 11
145.6137395705599
 21
213.6995322868436
 31
0.0
 11
145.3236961158092
 21
213.713177249714
 31
0.0
 11
145.0336526610585
 21
213.6995322868437
 31
0.0
  0
SPLINE
  5
89
330
47
100
AcDbEntity
  8
0
  6
Continuous
 62
     7
100
AcDbSpline
210
0.0
220
0.0
230
1.0
 70
    11
 71
     3
 72
    79
 73
    75
 74
    73
 42
0.000000001
 43
0.0000000001
 44
0.00000001
 40
0.0
 40
0.0
 40
0.0
 40
0.0
 40
0.3261189815590405
 40
0.6517242227864933
 40
1.007570730085634
 40
1.362786574479165
 40
1.759886311236933
 40
2.156516711364867
 40
2.599210004995638
 40
3.041603623772454
 40
3.528307203253225
 40
4.014826845817856
 40
4.539616311192472
 40
5.064295506276514
 40
5.618233629057991
 40
6.17210943434043
 40
6.744280965421326
 40
7.316424320423448
 40
7.89478704117168
 40
8.4731497619228
 40
9.045293116933225
 40
9.617464648026838
 40
10.17134045332416
 40
10.72527857612021
 40
11.24995777121444
 40
11.77474723659041
 40
12.2612668791415
 40
12.7479704585842
 40
13.1903640772934
 40
13.63305737080659
 40
14.02968777076471
 40
14.42678750725382
 40
14.78200335126214
 40
15.13784985787343
 40
15.46345509697304
 40
15.7895740850197
 40
16.10448971847116
 40
16.41940535192158
 40
16.74552433996508
 40
17.07112957906009
 40
17.42697608566519
 40
17.78219192966686
 40
18.17929166614836
 40
18.57592206609916
 40
19.01861535960465
 40
19.46100897830661
 40
19.9477125577422
 40
20.43423220028686
 40
20.95902166565674
 40
21.48370086074564
 40
22.03763898353699
 40
22.59151478883065
 40
23.16368631992157
 40
23.73582967493051
 40
24.31419239568166
 40
24.89255511643162
 40
25.4646984714374
 40
26.03687000252416
 40
26.59074580781478
 40
27.14468393060694
 40
27.66936312570375
 40
28.19415259109338
 40
28.6806722336739
 40
29.16737581317134
 40
29.6097694319628
 40
30.05246272560407
 40
30.44909312573267
 40
30.8461928624682
 40
31.20140870678667
 40
31.5572552138251
 40
31.88286045347704
 40
32.20897944233192
 40
32.52389507798043
 40
32.83881070538183
 40
32.83881070538183
 40
32.83881070538183
 40
32.83881070538183
 10
139.8251196197166
 20
209.8286465488043
 30
0.0
 10
139.8025623461785
 20
209.722056792691
 30
0.0
 10
139.7574833438052
 20
209.5090451906467
 30
0.0
 10
139.6229555711539
 20
209.1992266970862
 30
0.0
 10
139.4462114815623
 20
208.9014428500278
 30
0.0
 10
139.2173300686115
 20
208.6102968059866
 30
0.0
 10
138.9481121588939
 20
208.3369045885868
 30
0.0
 10
138.6308420429529
 20
208.0729448612662
 30
0.0
 10
138.2787896222665
 20
207.8299386600401
 30
0.0
 10
137.8829162544702
 20
207.6002844093247
 30
0.0
 10
137.4582078398104
 20
207.3937334501763
 30
0.0
 10
136.9956904664602
 20
207.2047306949871
 30
0.0
 10
136.5104499646753
 20
207.04041690036
 30
0.0
 10
135.9952084766451
 20
206.8974013985564
 30
0.0
 10
135.4635432158859
 20
206.7802489629597
 30
0.0
 10
134.911094166285
 20
206.6872750719907
 30
0.0
 10
134.3487033263483
 20
206.620956013088
 30
0.0
 10
133.7756866760977
 20
206.580609755108
 30
0.0
 10
133.1993404728221
 20
206.5673194233915
 30
0.0
 10
132.6229942695239
 20
206.5806097552241
 30
0.0
 10
132.04997761934
 20
206.6209560133285
 30
0.0
 10
131.4875867791628
 20
206.6872750722928
 30
0.0
 10
130.9351377304321
 20
206.7802489634957
 30
0.0
 10
130.4034724665083
 20
206.8974013986238
 30
0.0
 10
129.8882309896993
 20
207.0404169023582
 30
0.0
 10
129.4029904475296
 20
207.2047306901803
 30
0.0
 10
128.9404732144561
 20
207.3937334689853
 30
0.0
 10
128.515764300255
 20
207.600284343827
 30
0.0
 10
128.1198926358972
 20
207.8299388816054
 30
0.0
 10
127.7678342011332
 20
208.0729440686435
 30
0.0
 10
127.4505843244489
 20
208.3369072080472
 30
0.0
 10
127.181295195288
 20
208.6102874173407
 30
0.0
 10
126.9526532031702
 20
208.9014738275493
 30
0.0
 10
126.7750604779217
 20
209.1991145920377
 30
0.0
 10
126.643447406285
 20
209.5094245099139
 30
0.0
 10
126.566022430205
 20
209.8235830868222
 30
0.0
 10
126.5380623130882
 20
210.1424630351254
 30
0.0
 10
126.5660224301969
 20
210.4613429834285
 30
0.0
 10
126.6434474062692
 20
210.7755015603356
 30
0.0
 10
126.7750604778984
 20
211.08581147821
 30
0.0
 10
126.95265320314
 20
211.3834522426959
 30
0.0
 10
127.1812951952512
 20
211.674638652901
 30
0.0
 10
127.4505843244063
 20
211.9480188621901
 30
0.0
 10
127.7678342010852
 20
212.2119820015887
 30
0.0
 10
128.1198926358446
 20
212.4549871886205
 30
0.0
 10
128.5157643001982
 20
212.6846417263914
 30
0.0
 10
128.9404732143959
 20
212.8911926012244
 30
0.0
 10
129.4029904474667
 20
213.080195380019
 30
0.0
 10
129.8882309896342
 20
213.2445091678292
 30
0.0
 10
130.4034724664417
 20
213.3875246715489
 30
0.0
 10
130.9351377303646
 20
213.5046771066598
 30
0.0
 10
131.4875867790951
 20
213.5976509978428
 30
0.0
 10
132.0499776192721
 20
213.6639700567839
 30
0.0
 10
132.6229942694578
 20
213.704316314861
 30
0.0
 10
133.1993404727524
 20
213.7176066466613
 30
0.0
 10
133.7756866760456
 20
213.7043163149121
 30
0.0
 10
134.3487033262364
 20
213.6639700568791
 30
0.0
 10
134.9110941663973
 20
213.5976509979743
 30
0.0
 10
135.4635432151899
 20
213.5046771067971
 30
0.0
 10
135.9952084788902
 20
213.3875246717163
 30
0.0
 10
136.5104499564894
 20
213.2445091678266
 30
0.0
 10
136.9956904958071
 20
213.0801953804253
 30
0.0
 10
137.4582077387693
 20
212.8911925998499
 30
0.0
 10
137.8829166177242
 20
212.6846417307985
 30
0.0
 10
138.278788402219
 20
212.4549871725553
 30
0.0
 10
138.6308464127475
 20
212.2119820567743
 30
0.0
 10
138.9480977169856
 20
211.9480186763386
 30
0.0
 10
139.2173818225528
 20
211.6746393136162
 30
0.0
 10
139.4460407023542
 20
211.3834500556026
 30
0.0
 10
139.6235735681256
 20
211.0858193829178
 30
0.0
 10
139.7553922309113
 20
210.7754748012487
 30
0.0
 10
139.8320720914419
 20
210.4614418507354
 30
0.0
 10
139.8627239935707
 20
210.1421080636966
 30
0.0
 10
139.8376544073316
 20
209.9331337198576
 30
0.0
 10
139.8251196197166
 20
209.8286465488043
 30
0.0
 11
139.8251196197166
 21
209.8286465488043
 31
0.0
 11
139.7469469571627
 21
209.512035384645
 31
0.0
 11
139.6212407020861
 21
209.2116744197533
 31
0.0
 11
139.4396843186511
 21
208.9056286454506
 31
0.0
 11
139.2213222587562
 21
208.6254567220058
 31
0.0
 11
138.943574709381
 21
208.3416530934388
 31
0.0
 11
138.6392751572014
 21
208.087256834125
 31
0.0
 11
138.2756275318822
 21
207.834793457067
 31
0.0
 11
137.8932945250031
 21
207.6122320368959
 31
0.0
 11
137.4560259642281
 21
207.3985112376805
 31
0.0
 11
137.0058305365291
 21
207.2140513789692
 31
0.0
 11
136.5089908149147
 21
207.0450712795529
 31
0.0
 11
136.0035041469954
 21
206.9044601622155
 31
0.0
 11
135.4626463399883
 21
206.7847928045903
 31
0.0
 11
134.9164760318716
 21
206.692725425903
 31
0.0
 11
134.3482760648324
 21
206.6254271462599
 31
0.0
 11
133.7775463867817
 21
206.5852319566451
 31
0.0
 11
133.1993404628271
 21
206.5717654703065
 31
0.0
 11
132.6211345388726
 21
206.5852319566452
 31
0.0
 11
132.0504048608219
 21
206.6254271462601
 31
0.0
 11
131.4822048937827
 21
206.6927254259031
 31
0.0
 11
130.936034585666
 21
206.7847928045903
 31
0.0
 11
130.3951767786589
 21
206.9044601622155
 31
0.0
 11
129.8896901107395
 21
207.0450712795529
 31
0.0
 11
129.3928503891246
 21
207.2140513789691
 31
0.0
 11
128.9426549614253
 21
207.3985112376804
 31
0.0
 11
128.5053864006502
 21
207.6122320368959
 31
0.0
 11
128.1230533937711
 21
207.834793457067
 31
0.0
 11
127.7594057684519
 21
208.087256834125
 31
0.0
 11
127.4551062162724
 21
208.3416530934388
 31
0.0
 11
127.1773586668976
 21
208.6254567220059
 31
0.0
 11
126.9589966070028
 21
208.9056286454506
 31
0.0
 11
126.7774402235676
 21
209.2116744197533
 31
0.0
 11
126.6517339684907
 21
209.5120353846449
 31
0.0
 11
126.5735613059367
 21
209.8286465488043
 31
0.0
 11
126.5472731150014
 21
210.1424630354426
 31
0.0
 11
126.5735613059367
 21
210.4562795220808
 31
0.0
 11
126.6517339684907
 21
210.7728906862401
 31
0.0
 11
126.7774402235676
 21
211.0732516511318
 31
0.0
 11
126.9589966070028
 21
211.3792974254344
 31
0.0
 11
127.1773586668975
 21
211.6594693488792
 31
0.0
 11
127.4551062162724
 21
211.9432729774462
 31
0.0
 11
127.7594057684519
 21
212.19766923676
 31
0.0
 11
128.1230533937711
 21
212.4501326138181
 31
0.0
 11
128.5053864006502
 21
212.6726940339892
 31
0.0
 11
128.9426549614253
 21
212.8864148332047
 31
0.0
 11
129.3928503891246
 21
213.070874691916
 31
0.0
 11
129.8896901107394
 21
213.2398547913324
 31
0.0
 11
130.3951767786589
 21
213.3804659086697
 31
0.0
 11
130.9360345856659
 21
213.5001332662947
 31
0.0
 11
131.4822048937827
 21
213.592200644982
 31
0.0
 11
132.0504048608219
 21
213.6594989246251
 31
0.0
 11
132.6211345388726
 21
213.6996941142399
 31
0.0
 11
133.1993404628271
 21
213.7131606005786
 31
0.0
 11
133.7775463867817
 21
213.6996941142399
 31
0.0
 11
134.3482760648324
 21
213.6594989246252
 31
0.0
 11
134.9164760318716
 21
213.5922006449821
 31
0.0
 11
135.4626463399883
 21
213.5001332662949
 31
0.0
 11
136.0035041469954
 21
213.3804659086697
 31
0.0
 11
136.5089908149147
 21
213.2398547913322
 31
0.0
 11
137.0058305365291
 21
213.0708746919159
 31
0.0
 11
137.4560259642281
 21
212.8864148332047
 31
0.0
 11
137.8932945250031
 21
212.6726940339892
 31
0.0
 11
138.2756275318822
 21
212.4501326138181
 31
0.0
 11
138.6392751572014
 21
212.19766923676
 31
0.0
 11
138.943574709381
 21
211.9432729774462
 31
0.0
 11
139.2213222587562
 21
211.6594693488792
 31
0.0
 11
139.4396843186511
 21
211.3792974254344
 31
0.0
 11
139.6212407020861
 21
211.0732516511318
 31
0.0
 11
139.7469469571627
 21
210.7728906862401
 31
0.0
 11
139.8251196197166
 21
210.4562795220808
 31
0.0
 11
139.8514078106519
 21
210.1424630354426
 31
0.0
 11
139.8251196197166
 21
209.8286465488043
 31
0.0
  0
SPLINE
  5
8A
330
47
100
AcDbEntity
  8
0
  6
Continuous
 62
     7
100
AcDbSpline
210
0.0
220
0.0
230
1.0
 70
    11
 71
     3
 72
    79
 73
    75
 74
    73
 42
0.000000001
 43
0.0000000001
 44
0.00000001
 40
0.0
 40
0.0
 40
0.0
 40
0.0
 40
0.2910229063171165
 40
0.5820342199791047
 40
0.8749339259797921
 40
1.167812540311993
 40
1.463561181730152
 40
1.759282799553892
 40
2.058487804326713
 40
2.35766387886569
 40
2.660503334662588
 40
2.963315618548052
 40
3.269530819653564
 40
3.575723462230665
 40
3.884662737575236
 40
4.193586021287381
 40
4.504289078951709
 40
4.814983875317586
 40
5.12629442422334
 40
5.4376049731181
 40
5.748299769450938
 40
6.059002827059869
 40
6.367926110694256
 40
6.676865385937439
 40
6.983058028390055
 40
7.289273229345985
 40
7.592085513057469
 40
7.894924968652672
 40
8.194101042962517
 40
8.493306047472752
 40
8.789027664996834
 40
9.084776306062075
 40
9.377654919956068
 40
9.670554625323014
 40
9.961565937614855
 40
10.25258885279213
 40
10.5429530904923
 40
10.83331732819165
 40
11.124340243366
 40
11.41535155565242
 40
11.70825126101183
 40
12.0011298748966
 40
12.29687851595088
 40
12.59260013346224
 40
12.89180513795804
 40
13.19098121225219
 40
13.49382066783037
 40
13.79663295152387
 40
14.10284815246055
 40
14.40904079489291
 40
14.71798007011485
 40
15.02690335372728
 40
15.33760641131347
 40
15.64830120762299
 40
15.95961175649398
 40
16.27092230537545
 40
16.58161710171663
 40
16.8923201593558
 40
17.20124344304246
 40
17.5101827183609
 40
17.81637536091134
 40
18.12259056198961
 40
18.42540284584703
 40
18.72824230161394
 40
19.02741837612013
 40
19.32662338085505
 40
19.62234499863133
 40
19.91809363998204
 40
20.21097225419821
 40
20.50387195993857
 40
20.79488327268843
 40
21.08590618851609
 40
21.37627042760415
 40
21.66663465645626
 40
21.66663465645626
 40
21.66663465645626
 40
21.66663465645626
 10
121.3650282645954
 20
213.6995322868437
 30
0.0
 10
121.4614033203105
 20
213.687856619406
 30
0.0
 10
121.6541495933784
 20
213.66450575482
 30
0.0
 10
121.9380861007076
 20
213.5951497630543
 30
0.0
 10
122.2153503673332
 20
213.5017070059394
 30
0.0
 10
122.4841027516258
 20
213.3818000202048
 30
0.0
 10
122.7417481354601
 20
213.2377545152122
 30
0.0
 10
122.9869750829644
 20
213.0696879145239
 30
0.0
 10
123.2172384392601
 20
212.8798531815831
 30
0.0
 10
123.4314706479994
 20
212.6687170530343
 30
0.0
 10
123.6274250769725
 20
212.4389374495059
 30
0.0
 10
123.8041824207961
 20
212.191208917378
 30
0.0
 10
123.9599532549591
 20
211.9284766776321
 30
0.0
 10
124.0939216725208
 20
211.6517256660721
 30
0.0
 10
124.2048447039946
 20
211.363993688384
 30
0.0
 10
124.2920214965522
 20
211.0666402420315
 30
0.0
 10
124.3547695068289
 20
210.7625942459541
 30
0.0
 10
124.3925698862244
 20
210.4536526502613
 30
0.0
 10
124.4052469598952
 20
210.142463045016
 30
0.0
 10
124.3925698865899
 20
209.8312734397613
 30
0.0
 10
124.3547695075591
 20
209.522331844074
 30
0.0
 10
124.2920214976558
 20
209.2182858479156
 30
0.0
 10
124.2048447054478
 20
208.9209324017648
 30
0.0
 10
124.0939216744293
 20
208.6332004231896
 30
0.0
 10
123.9599532569528
 20
208.3564494147338
 30
0.0
 10
123.8041824242762
 20
208.0937171632422
 30
0.0
 10
123.6274250767878
 20
207.8459886742133
 30
0.0
 10
123.4314706632794
 20
207.6162089105181
 30
0.0
 10
123.2172383994053
 20
207.4050733724322
 30
0.0
 10
122.9869752495696
 20
207.2152364493226
 30
0.0
 10
122.7417475421755
 20
207.047177931242
 30
0.0
 10
122.4841049806984
 20
206.9031024294593
 30
0.0
 10
122.2153421630113
 20
206.7833063589855
 30
0.0
 10
121.9381166775239
 20
206.6894513621465
 30
0.0
 10
121.6540363242274
 20
206.6216244555546
 30
0.0
 10
121.365668843921
 20
206.5809294939244
 30
0.0
 10
121.0749848104484
 20
206.5671637003492
 30
0.0
 10
120.7843007769756
 20
206.5809294938992
 30
0.0
 10
120.4959332966687
 20
206.6216244555042
 30
0.0
 10
120.2118529433717
 20
206.6894513620711
 30
0.0
 10
119.9346274578836
 20
206.7833063588853
 30
0.0
 10
119.6658646401956
 20
206.9031024293341
 30
0.0
 10
119.4082220787173
 20
207.0471779310921
 30
0.0
 10
119.1629943713216
 20
207.2152364491481
 30
0.0
 10
118.9327312214842
 20
207.4050733722332
 30
0.0
 10
118.7184989576083
 20
207.6162089102949
 30
0.0
 10
118.5225445440977
 20
207.8459886739661
 30
0.0
 10
118.3457871966066
 20
208.0937171629708
 30
0.0
 10
118.1900163639271
 20
208.3564494144385
 30
0.0
 10
118.0560479464478
 20
208.6332004228705
 30
0.0
 10
117.9451249154266
 20
208.9209324014221
 30
0.0
 10
117.8579481232155
 20
209.2182858475489
 30
0.0
 10
117.7952001133088
 20
209.5223318436835
 30
0.0
 10
117.7573997342746
 20
209.8312734393472
 30
0.0
 10
117.7447226609656
 20
210.1424630445769
 30
0.0
 10
117.7573997346309
 20
210.4536526498023
 30
0.0
 10
117.7952001140222
 20
210.7625942454554
 30
0.0
 10
117.8579481242869
 20
211.0666402415658
 30
0.0
 10
117.9451249168606
 20
211.363993687681
 30
0.0
 10
118.0560479482395
 20
211.6517256661347
 30
0.0
 10
118.1900163661081
 20
211.9284766747465
 30
0.0
 10
118.3457871990801
 20
212.1912089253198
 30
0.0
 10
118.5225445472401
 20
212.4389374173533
 30
0.0
 10
118.7184989600532
 20
212.6687171694655
 30
0.0
 10
118.9327312283043
 20
212.8798527497864
 30
0.0
 10
119.1629943637647
 20
213.0696895157054
 30
0.0
 10
119.4082221261005
 20
213.2377486132869
 30
0.0
 10
119.6658644856354
 20
213.3818219636975
 30
0.0
 10
119.9346280520499
 20
213.5016259882415
 30
0.0
 10
120.2118507569176
 20
213.5954514211879
 30
0.0
 10
120.4959414265747
 20
213.6633879855312
 30
0.0
 10
120.7842704883244
 20
213.7036745418418
 30
0.0
 10
121.075097598786
 20
213.7189612862359
 30
0.0
 10
121.2683847103532
 20
213.7060086181454
 30
0.0
 10
121.3650282645954
 20
213.6995322868437
 30
0.0
 11
121.3650282645954
 21
213.6995322868437
 31
0.0
 11
121.6531877608702
 21
213.6588083137572
 31
0.0
 11
121.9362699672528
 21
213.5913394436919
 31
0.0
 11
122.2136940097968
 21
213.497391915053
 31
0.0
 11
122.4812557619141
 21
213.3782760412536
 31
0.0
 11
122.7393881306292
 21
213.2339329117964
 31
0.0
 11
122.9834007832403
 21
213.0668727413807
 31
0.0
 11
123.2142802887713
 21
212.87656170978
 31
0.0
 11
123.4274555837225
 21
212.6666507354246
 31
0.0
 11
123.6239899077307
 21
212.4362467522982
 31
0.0
 11
123.7999634435301
 21
212.1898150296103
 31
0.0
 11
123.9561605840028
 21
211.9264327927724
 31
0.0
 11
124.0896562719672
 21
211.6508736599946
 31
0.0
 11
124.2008061975246
 21
211.3626217390973
 31
0.0
 11
124.2877828515509
 21
211.0661952610569
 31
0.0
 11
124.3505879258723
 21
210.761906068514
 31
0.0
 11
124.3883632875439
 21
210.4535162525935
 31
0.0
 11
124.4010184837575
 21
210.1424630354426
 31
0.0
 11
124.3883632875439
 21
209.8314098182917
 31
0.0
 11
124.3505879258722
 21
209.5230200023711
 31
0.0
 11
124.2877828515504
 21
209.2187308098282
 31
0.0
 11
124.2008061975239
 21
208.9223043317878
 31
0.0
 11
124.0896562719668
 21
208.6340524108905
 31
0.0
 11
123.9561605840027
 21
208.3584932781126
 31
0.0
 11
123.7999634435301
 21
208.0951110412748
 31
0.0
 11
123.6239899077307
 21
207.8486793185871
 31
0.0
 11
123.4274555837225
 21
207.6182753354606
 31
0.0
 11
123.2142802887713
 21
207.4083643611051
 31
0.0
 11
122.9834007832403
 21
207.2180533295043
 31
0.0
 11
122.7393881306291
 21
207.0509931590885
 31
0.0
 11
122.4812557619141
 21
206.9066500296314
 31
0.0
 11
122.2136940097968
 21
206.7875341558319
 31
0.0
 11
121.9362699672528
 21
206.6935866271932
 31
0.0
 11
121.6531877608701
 21
206.6261177571279
 31
0.0
 11
121.3650282645954
 21
206.5853937840413
 31
0.0
 11
121.0749848098451
 21
206.5717488211711
 31
0.0
 11
120.7849413550945
 21
206.5853937840413
 31
0.0
 11
120.4967818588195
 21
206.6261177571278
 31
0.0
 11
120.2136996524371
 21
206.6935866271932
 31
0.0
 11
119.9362756098934
 21
206.7875341558319
 31
0.0
 11
119.6687138577762
 21
206.9066500296314
 31
0.0
 11
119.4105814890611
 21
207.0509931590886
 31
0.0
 11
119.1665688364499
 21
207.2180533295044
 31
0.0
 11
118.935689330919
 21
207.4083643611051
 31
0.0
 11
118.7225140359678
 21
207.6182753354606
 31
0.0
 11
118.5259797119594
 21
207.8486793185871
 31
0.0
 11
118.3500061761596
 21
208.0951110412748
 31
0.0
 11
118.1938090356866
 21
208.3584932781126
 31
0.0
 11
118.0603133477224
 21
208.6340524108905
 31
0.0
 11
117.9491634221654
 21
208.9223043317878
 31
0.0
 11
117.8621867681389
 21
209.2187308098282
 31
0.0
 11
117.7993816938172
 21
209.5230200023711
 31
0.0
 11
117.7616063321459
 21
209.8314098182917
 31
0.0
 11
117.7489511359325
 21
210.1424630354426
 31
0.0
 11
117.7616063321459
 21
210.4535162525935
 31
0.0
 11
117.7993816938172
 21
210.761906068514
 31
0.0
 11
117.8621867681389
 21
211.0661952610569
 31
0.0
 11
117.9491634221654
 21
211.3626217390973
 31
0.0
 11
118.0603133477224
 21
211.6508736599946
 31
0.0
 11
118.1938090356865
 21
211.9264327927724
 31
0.0
 11
118.3500061761596
 21
212.1898150296103
 31
0.0
 11
118.5259797119594
 21
212.4362467522981
 31
0.0
 11
118.7225140359678
 21
212.6666507354246
 31
0.0
 11
118.935689330919
 21
212.87656170978
 31
0.0
 11
119.1665688364499
 21
213.0668727413808
 31
0.0
 11
119.4105814890611
 21
213.2339329117964
 31
0.0
 11
119.6687138577762
 21
213.3782760412536
 31
0.0
 11
119.9362756098934
 21
213.4973919150531
 31
0.0
 11
120.2136996524371
 21
213.5913394436918
 31
0.0
 11
120.4967818588195
 21
213.6588083137572
 31
0.0
 11
120.7849413550945
 21
213.6995322868436
 31
0.0
 11
121.0749848098451
 21
213.7131772497139
 31
0.0
 11
121.3650282645954
 21
213.6995322868437
 31
0.0
  0
SPLINE
  5
8B
330
47
100
AcDbEntity
  8
1
  6
Continuous
 62
     7
100
AcDbSpline
210
0.0
220
0.0
230
1.0
 70
     8
 71
     3
 72
    45
 73
    41
 74
    39
 42
0.000000001
 43
0.0000000001
 44
0.00000001
 40
0.0
 40
0.0
 40
0.0
 40
0.0
 40
0.250485592391798
 40
0.5011526542650214
 40
0.997607031952013
 40
1.494089457491457
 40
1.97692559020607
 40
2.459822388861046
 40
2.921035295681892
 40
3.382351332272808
 40
3.815601776448165
 40
4.249013692942141
 40
4.650432700713973
 40
5.052091376296171
 40
5.421199499126066
 40
5.790635502078968
 40
6.131267663832106
 40
6.472271412402261
 40
6.793085244011703
 40
7.114166556699471
 40
7.42792854150541
 40
7.741690526311288
 40
8.06277183899904
 40
8.383585670608543
 40
8.724589419178672
 40
9.065221580931698
 40
9.434657583884453
 40
9.803765706714493
 40
10.2054243822969
 40
10.60684339006883
 40
11.04025530656287
 40
11.47350575073824
 40
11.9348217873291
 40
12.39603469415001
 40
12.87893149280504
 40
13.36176762551964
 40
13.85825005105908
 40
14.35470442874669
 40
14.60537149061769
 40
14.85585708300602
 40
14.85585708300602
 40
14.85585708300602
 40
14.85585708300602
 10
398.8396625421411
 20
213.7131772497132
 30
0.0
 10
398.7561646072388
 20
213.7125235617954
 30
0.0
 10
398.5891082457804
 20
213.7112157012934
 30
0.0
 10
398.2568079215039
 20
213.6973728089817
 30
0.0
 10
397.8434198183744
 20
213.6639617127675
 30
0.0
 10
397.3557576880705
 20
213.5973935621433
 30
0.0
 10
396.8770612413722
 20
213.5043268074633
 30
0.0
 10
396.4158657367823
 20
213.3867950963908
 30
0.0
 10
395.969507348034
 20
213.2436122237801
 30
0.0
 10
395.5484028451196
 20
213.0786473135738
 30
0.0
 10
395.1478482013346
 20
212.8894304148671
 30
0.0
 10
394.7791516118187
 20
212.6818631974577
 30
0.0
 10
394.4365353200745
 20
212.4519914411963
 30
0.0
 10
394.1309874766436
 20
212.207608133356
 30
0.0
 10
393.8568350110419
 20
211.9435768839281
 30
0.0
 10
393.6235913461538
 20
211.6688195399771
 30
0.0
 10
393.4267123127593
 20
211.3781189884511
 30
0.0
 10
393.2736127706034
 20
211.0801333340472
 30
0.0
 10
393.1610653001374
 20
210.7714327149586
 30
0.0
 10
393.094513789802
 20
210.4588620781484
 30
0.0
 10
393.0710385331236
 20
210.1424630354416
 30
0.0
 10
393.094513789802
 20
209.8260639927349
 30
0.0
 10
393.1610653001374
 20
209.5134933559247
 30
0.0
 10
393.2736127706033
 20
209.204792736836
 30
0.0
 10
393.426712312759
 20
208.9068070824321
 30
0.0
 10
393.6235913461533
 20
208.616106530906
 30
0.0
 10
393.8568350110413
 20
208.3413491869549
 30
0.0
 10
394.130987476643
 20
208.0773179375272
 30
0.0
 10
394.4365353200745
 20
207.832934629687
 30
0.0
 10
394.7791516118186
 20
207.6030628734255
 30
0.0
 10
395.1478482013346
 20
207.395495656016
 30
0.0
 10
395.5484028451196
 20
207.2062787573092
 30
0.0
 10
395.9695073480338
 20
207.0413138471031
 30
0.0
 10
396.4158657367823
 20
206.8981309744923
 30
0.0
 10
396.8770612413722
 20
206.7805992634198
 30
0.0
 10
397.3557576880705
 20
206.6875325087399
 30
0.0
 10
397.8434198183748
 20
206.6209643581157
 30
0.0
 10
398.2568079215035
 20
206.5875532619017
 30
0.0
 10
398.5891082457786
 20
206.5737103695899
 30
0.0
 10
398.7561646072348
 20
206.572402509088
 30
0.0
 10
398.8396625421361
 20
206.5717488211702
 30
0.0
 11
398.8396625421411
 21
213.7131772497132
 31
0.0
 11
398.5891996352482
 21
213.7098056586388
 31
0.0
 11
398.3387367283556
 21
213.6996908854157
 31
0.0
 11
397.8439171763733
 21
213.6594346970087
 31
0.0
 11
397.3520204696797
 21
213.5921113792354
 31
0.0
 11
396.878088442181
 21
213.4998120585692
 31
0.0
 11
396.4102425517801
 21
213.3801895640181
 31
0.0
 11
395.9711534632798
 21
213.2390580013479
 31
0.0
 11
395.5418201115409
 21
213.070281939901
 31
0.0
 11
395.1502524423476
 21
212.8848615849502
 31
0.0
 11
394.7729240796291
 21
212.6716265121349
 31
0.0
 11
394.439896960448
 21
212.4475056565417
 31
0.0
 11
394.1267356032265
 21
212.1959909327949
 31
0.0
 11
393.8613984741218
 21
211.9394036874146
 31
0.0
 11
393.6229051775663
 21
211.6572620420689
 31
0.0
 11
393.4326694534604
 21
211.374701182886
 31
0.0
 11
393.2772445868832
 21
211.0711774314904
 31
0.0
 11
393.1682897547389
 21
210.7694319106205
 31
0.0
 11
393.1012942130361
 21
210.4554178870073
 31
0.0
 11
393.0788032312341
 21
210.1424630354416
 31
0.0
 11
393.1012942130361
 21
209.8295081838759
 31
0.0
 11
393.1682897547389
 21
209.5154941602628
 31
0.0
 11
393.2772445868831
 21
209.2137486393929
 31
0.0
 11
393.4326694534603
 21
208.9102248879972
 31
0.0
 11
393.6229051775658
 21
208.6276640288143
 31
0.0
 11
393.8613984741211
 21
208.3455223834685
 31
0.0
 11
394.126735603226
 21
208.0889351380882
 31
0.0
 11
394.4398969604479
 21
207.8374204143416
 31
0.0
 11
394.772924079629
 21
207.6132995587482
 31
0.0
 11
395.1502524423476
 21
207.400064485933
 31
0.0
 11
395.5418201115409
 21
207.2146441309821
 31
0.0
 11
395.9711534632798
 21
207.0458680695352
 31
0.0
 11
396.4102425517801
 21
206.904736506865
 31
0.0
 11
396.878088442181
 21
206.7851140123139
 31
0.0
 11
397.3520204696798
 21
206.6928146916478
 31
0.0
 11
397.8439171763734
 21
206.6254913738745
 31
0.0
 11
398.3387367283563
 21
206.5852351854675
 31
0.0
 11
398.5891996352467
 21
206.5751204122445
 31
0.0
 11
398.8396625421361
 21
206.5717488211702
 31
0.0
  0
SPLINE
  5
8C
330
47
100
AcDbEntity
  8
1
  6
Continuous
 62
     7
100
AcDbSpline
210
0.0
220
0.0
230
1.0
 70
     8
 71
     3
 72
    17
 73
    13
 74
    11
 42
0.000000001
 43
0.0000000001
 44
0.00000001
 40
0.0
 40
0.0
 40
0.0
 40
0.0
 40
0.2504855999116473
 40
0.501152663488271
 40
0.997607043638094
 40
1.494089471277563
 40
1.976925605444787
 40
2.459822404315248
 40
2.921035309756949
 40
3.382351340801474
 40
3.393058314636415
 40
3.403764051490457
 40
3.403764051490457
 40
3.403764051490457
 40
3.403764051490457
 10
398.8396625421302
 20
213.7131772497132
 30
0.0
 10
398.9231604816521
 20
213.7125235680291
 30
0.0
 10
399.0902168503714
 20
213.7112157165934
 30
0.0
 10
399.4225171364216
 20
213.6973726997999
 30
0.0
 10
399.8359055643921
 20
213.6639625583551
 30
0.0
 10
400.3235663733648
 20
213.5973904913908
 30
0.0
 10
400.802267602193
 20
213.5043378876079
 30
0.0
 10
401.2634456411211
 20
213.3867544809305
 30
0.0
 10
401.7098664122959
 20
213.2437562555783
 30
0.0
 10
401.9995735751863
 20
213.12974416829
 30
0.0
 10
402.1473379303086
 20
213.0660459720962
 30
0.0
 10
402.1538859369113
 20
213.0632054416152
 30
0.0
 10
402.1571597482322
 20
213.0617852518537
 30
0.0
 11
398.8396625421302
 21
213.7131772497132
 31
0.0
 11
399.090125449023
 21
213.7098056586388
 31
0.0
 11
399.3405883559155
 21
213.6996908854157
 31
0.0
 11
399.8354079078978
 21
213.6594346970087
 31
0.0
 11
400.3273046145914
 21
213.5921113792354
 31
0.0
 11
400.8012366420902
 21
213.4998120585692
 31
0.0
 11
401.269082532491
 21
213.3801895640181
 31
0.0
 11
401.7081716209915
 21
213.239058001348
 31
0.0
 11
402.1375049727309
 21
213.0702819399011
 31
0.0
 11
402.1473366939524
 21
213.0660420607745
 31
0.0
 11
402.1571597482322
 21
213.0617852518537
 31
0.0
  0
SPLINE
  5
8D
330
47
100
AcDbEntity
  8
1
  6
Continuous
 62
     7
100
AcDbSpline
210
0.0
220
0.0
230
1.0
 70
     8
 71
     3
 72
    17
 73
    13
 74
    11
 42
0.000000001
 43
0.0000000001
 44
0.00000001
 40
0.0
 40
0.0
 40
0.0
 40
0.0
 40
0.2504855999117041
 40
0.5011526634884994
 40
0.9976070436383271
 40
1.494089471277788
 40
1.97692560544494
 40
2.459822404315463
 40
2.921035309757002
 40
3.38235134080124
 40
3.39305831464222
 40
3.403764051502516
 40
3.403764051502516
 40
3.403764051502516
 40
3.403764051502516
 10
412.8396625421411
 20
213.7131772497132
 30
0.0
 10
412.7561646026192
 20
213.7125235680291
 30
0.0
 10
412.5891082338997
 20
213.7112157165933
 30
0.0
 10
412.2568079478496
 20
213.6973726997998
 30
0.0
 10
411.8434195198789
 20
213.663962558355
 30
0.0
 10
411.3557587109065
 20
213.5973904913907
 30
0.0
 10
410.877057482078
 20
213.504337887608
 30
0.0
 10
410.4158794431503
 20
213.3867544809304
 30
0.0
 10
409.9694586719748
 20
213.2437562555789
 30
0.0
 10
409.6797515090848
 20
213.1297441682882
 30
0.0
 10
409.5319871539573
 20
213.0660459720938
 30
0.0
 10
409.5254391473509
 20
213.0632054416113
 30
0.0
 10
409.522165336028
 20
213.0617852518491
 30
0.0
 11
412.8396625421411
 21
213.7131772497132
 31
0.0
 11
412.5891996352482
 21
213.7098056586388
 31
0.0
 11
412.3387367283556
 21
213.6996908854157
 31
0.0
 11
411.8439171763733
 21
213.6594346970086
 31
0.0
 11
411.3520204696797
 21
213.5921113792353
 31
0.0
 11
410.878088442181
 21
213.4998120585693
 31
0.0
 11
410.4102425517801
 21
213.3801895640181
 31
0.0
 11
409.9711534632797
 21
213.239058001348
 31
0.0
 11
409.5418201115407
 21
213.0702819399011
 31
0.0
 11
409.5319883903136
 21
213.0660420607721
 31
0.0
 11
409.522165336028
 21
213.0617852518491
 31
0.0
  0
SPLINE
  5
8E
330
47
100
AcDbEntity
  8
1
  6
Continuous
 62
     7
100
AcDbSpline
210
0.0
220
0.0
230
1.0
 70
     8
 71
     3
 72
    45
 73
    41
 74
    39
 42
0.000000001
 43
0.0000000001
 44
0.00000001
 40
0.0
 40
0.0
 40
0.0
 40
0.0
 40
0.2504855923917411
 40
0.5011526542647942
 40
0.9976070319517856
 40
1.49408945749123
 40
1.976925590205842
 40
2.459822388860819
 40
2.921035295681935
 40
3.382351332273116
 40
3.815601776448781
 40
4.249013692942559
 40
4.650432700714109
 40
5.052091376296174
 40
5.421199499126029
 40
5.790635502078967
 40
6.131267663832073
 40
6.47227141240228
 40
6.793085244011741
 40
7.114166556699522
 40
7.427928541505456
 40
7.741690526311338
 40
8.062771838999078
 40
8.383585670608639
 40
8.724589419178768
 40
9.065221580931794
 40
9.434657583884476
 40
9.803765706714598
 40
10.20542438229683
 40
10.60684339006852
 40
11.04025530656236
 40
11.47350575073799
 40
11.93482178732928
 40
12.39603469415028
 40
12.8789314928052
 40
13.36176762551987
 40
13.8582500510593
 40
14.35470442874612
 40
14.60537149061735
 40
14.85585708300722
 40
14.85585708300722
 40
14.85585708300722
 40
14.85585708300722
 10
412.8396625421302
 20
213.7131772497132
 30
0.0
 10
412.9231604770326
 20
213.7125235617954
 30
0.0
 10
413.0902168384907
 20
213.7112157012934
 30
0.0
 10
413.4225171627675
 20
213.6973728089818
 30
0.0
 10
413.8359052658965
 20
213.6639617127675
 30
0.0
 10
414.3235673962007
 20
213.5973935621432
 30
0.0
 10
414.802263842899
 20
213.5043268074634
 30
0.0
 10
415.2634593474889
 20
213.3867950963907
 30
0.0
 10
415.7098177362375
 20
213.2436122237802
 30
0.0
 10
416.1309222391521
 20
213.0786473135738
 30
0.0
 10
416.5314768829372
 20
212.8894304148672
 30
0.0
 10
416.9001734724532
 20
212.6818631974577
 30
0.0
 10
417.2427897641969
 20
212.4519914411963
 30
0.0
 10
417.5483376076277
 20
212.2076081333559
 30
0.0
 10
417.8224900732292
 20
211.9435768839281
 30
0.0
 10
418.0557337381176
 20
211.6688195399772
 30
0.0
 10
418.252612771512
 20
211.378118988451
 30
0.0
 10
418.4057123136678
 20
211.0801333340472
 30
0.0
 10
418.518259784134
 20
210.7714327149586
 30
0.0
 10
418.5848112944694
 20
210.4588620781484
 30
0.0
 10
418.6082865511479
 20
210.1424630354416
 30
0.0
 10
418.5848112944693
 20
209.8260639927349
 30
0.0
 10
418.5182597841343
 20
209.5134933559247
 30
0.0
 10
418.4057123136677
 20
209.204792736836
 30
0.0
 10
418.2526127715121
 20
208.9068070824321
 30
0.0
 10
418.0557337381179
 20
208.6161065309061
 30
0.0
 10
417.8224900732301
 20
208.3413491869547
 30
0.0
 10
417.5483376076281
 20
208.0773179375273
 30
0.0
 10
417.2427897641971
 20
207.832934629687
 30
0.0
 10
416.9001734724532
 20
207.6030628734254
 30
0.0
 10
416.5314768829373
 20
207.3954956560159
 30
0.0
 10
416.1309222391521
 20
207.2062787573092
 30
0.0
 10
415.7098177362375
 20
207.0413138471031
 30
0.0
 10
415.2634593474889
 20
206.8981309744923
 30
0.0
 10
414.8022638428989
 20
206.7805992634198
 30
0.0
 10
414.3235673962008
 20
206.68753250874
 30
0.0
 10
413.8359052658967
 20
206.6209643581157
 30
0.0
 10
413.422517162768
 20
206.5875532619017
 30
0.0
 10
413.0902168384928
 20
206.5737103695898
 30
0.0
 10
412.9231604770358
 20
206.5724025090881
 30
0.0
 10
412.8396625421341
 20
206.5717488211702
 30
0.0
 11
412.8396625421302
 21
213.7131772497132
 31
0.0
 11
413.090125449023
 21
213.7098056586388
 31
0.0
 11
413.3405883559155
 21
213.6996908854157
 31
0.0
 11
413.8354079078978
 21
213.6594346970087
 31
0.0
 11
414.3273046145914
 21
213.5921113792354
 31
0.0
 11
414.8012366420901
 21
213.4998120585692
 31
0.0
 11
415.269082532491
 21
213.3801895640181
 31
0.0
 11
415.7081716209915
 21
213.2390580013479
 31
0.0
 11
416.1375049727308
 21
213.070281939901
 31
0.0
 11
416.5290726419244
 21
212.8848615849502
 31
0.0
 11
416.9064010046427
 21
212.6716265121349
 31
0.0
 11
417.2394281238235
 21
212.4475056565417
 31
0.0
 11
417.5525894810448
 21
212.1959909327949
 31
0.0
 11
417.8179266101495
 21
211.9394036874146
 31
0.0
 11
418.056419906705
 21
211.6572620420689
 31
0.0
 11
418.2466556308108
 21
211.374701182886
 31
0.0
 11
418.4020804973882
 21
211.0711774314904
 31
0.0
 11
418.5110353295325
 21
210.7694319106205
 31
0.0
 11
418.5780308712353
 21
210.4554178870073
 31
0.0
 11
418.6005218530373
 21
210.1424630354416
 31
0.0
 11
418.5780308712353
 21
209.8295081838759
 31
0.0
 11
418.5110353295325
 21
209.5154941602628
 31
0.0
 11
418.4020804973881
 21
209.2137486393929
 31
0.0
 11
418.2466556308109
 21
208.9102248879972
 31
0.0
 11
418.0564199067054
 21
208.6276640288143
 31
0.0
 11
417.8179266101503
 21
208.3455223834685
 31
0.0
 11
417.5525894810452
 21
208.0889351380882
 31
0.0
 11
417.2394281238236
 21
207.8374204143416
 31
0.0
 11
416.9064010046427
 21
207.6132995587482
 31
0.0
 11
416.5290726419244
 21
207.400064485933
 31
0.0
 11
416.1375049727308
 21
207.2146441309821
 31
0.0
 11
415.7081716209914
 21
207.0458680695352
 31
0.0
 11
415.269082532491
 21
206.904736506865
 31
0.0
 11
414.8012366420902
 21
206.7851140123139
 31
0.0
 11
414.3273046145914
 21
206.6928146916478
 31
0.0
 11
413.8354079078978
 21
206.6254913738745
 31
0.0
 11
413.3405883559157
 21
206.5852351854675
 31
0.0
 11
413.090125449025
 21
206.5751204122445
 31
0.0
 11
412.8396625421341
 21
206.5717488211702
 31
0.0
  0
SPLINE
  5
8F
330
47
100
AcDbEntity
  8
1
  6
Continuous
 62
     7
100
AcDbSpline
210
0.0
220
0.0
230
1.0
 70
     8
 71
     3
 72
    15
 73
    11
 74
     9
 42
0.000000001
 43
0.0000000001
 44
0.00000001
 40
0.0
 40
0.0
 40
0.0
 40
0.0
 40
0.3005600958898729
 40
0.6013520081980419
 40
1.084248806115629
 40
1.567084938328182
 40
2.063567363659957
 40
2.560021741700275
 40
2.810688804479526
 40
3.061174403752506
 40
3.061174403752506
 40
3.061174403752506
 40
3.061174403752506
 10
409.8396625421411
 20
207.0942292668766
 30
0.0
 10
409.9337818560407
 20
207.0598474580353
 30
0.0
 10
410.1220930811908
 20
206.9910573360191
 30
0.0
 10
410.467820873084
 20
206.8852474691625
 30
0.0
 10
410.8770273731968
 20
206.7804942748493
 30
0.0
 10
411.3557670531138
 20
206.6875615754794
 30
0.0
 10
411.8434172148015
 20
206.6209563139069
 30
0.0
 10
412.2568082372302
 20
206.5875542677054
 30
0.0
 10
412.5891081836014
 20
206.5737101953198
 30
0.0
 10
412.7561645858367
 20
206.5724024498721
 30
0.0
 10
412.8396625421361
 20
206.5717488211702
 30
0.0
 11
409.8396625421411
 21
207.0942292668766
 31
0.0
 11
410.1228793769819
 21
206.9936082157569
 31
0.0
 11
410.4102425517806
 21
206.904736506865
 31
0.0
 11
410.8780884421811
 21
206.7851140123139
 31
0.0
 11
411.3520204696798
 21
206.6928146916478
 31
0.0
 11
411.8439171763735
 21
206.6254913738745
 31
0.0
 11
412.3387367283562
 21
206.5852351854675
 31
0.0
 11
412.5891996352467
 21
206.5751204122445
 31
0.0
 11
412.8396625421361
 21
206.5717488211702
 31
0.0
  0
SPLINE
  5
90
330
47
100
AcDbEntity
  8
1
  6
Continuous
 62
     7
100
AcDbSpline
210
0.0
220
0.0
230
1.0
 70
     8
 71
     3
 72
    15
 73
    11
 74
     9
 42
0.000000001
 43
0.0000000001
 44
0.00000001
 40
0.0
 40
0.0
 40
0.0
 40
0.0
 40
0.3005600958931673
 40
0.6013520082045545
 40
1.084248806121942
 40
1.567084938334546
 40
2.063567363666209
 40
2.560021741705903
 40
2.810688804485382
 40
3.06117440375984
 40
3.06117440375984
 40
3.06117440375984
 40
3.06117440375984
 10
401.8396625421361
 20
207.0942292668785
 30
0.0
 10
401.7455432282354
 20
207.0598474580369
 30
0.0
 10
401.5572320030833
 20
206.9910573360202
 30
0.0
 10
401.2115042111881
 20
206.8852474691628
 30
0.0
 10
400.8022977110745
 20
206.7804942748492
 30
0.0
 10
400.3235580311574
 20
206.6875615754794
 30
0.0
 10
399.8359078694699
 20
206.620956313907
 30
0.0
 10
399.4225168470414
 20
206.5875542677053
 30
0.0
 10
399.0902169006699
 20
206.5737101953198
 30
0.0
 10
398.9231604984341
 20
206.5724024498721
 30
0.0
 10
398.8396625421341
 20
206.5717488211702
 30
0.0
 11
401.8396625421361
 21
207.0942292668785
 31
0.0
 11
401.5564457072921
 21
206.9936082157579
 31
0.0
 11
401.2690825324904
 21
206.904736506865
 31
0.0
 11
400.8012366420901
 21
206.7851140123139
 31
0.0
 11
400.3273046145914
 21
206.6928146916478
 31
0.0
 11
399.8354079078978
 21
206.6254913738745
 31
0.0
 11
399.3405883559157
 21
206.5852351854675
 31
0.0
 11
399.090125449025
 21
206.5751204122445
 31
0.0
 11
398.8396625421341
 21
206.5717488211702
 31
0.0
  0
ARC
  5
91
330
47
100
AcDbEntity
  8
1
  6
Continuous
 62
     7
100
AcDbCircle
 10
121.6993404628271
 20
216.0000000000009
 30
0.0
 40
1.0
100
AcDbArc
 50
270.0
 51
329.9999999999905
  0
ARC
  5
92
330
47
100
AcDbEntity
  8
1
  6
Continuous
 62
     7
100
AcDbCircle
 10
123.4313912703962
 20
215.0000000000009
 30
0.0
 40
1.0
100
AcDbArc
 50
90.0
 51
150.0000000000162
  0
ARC
  5
93
330
47
100
AcDbEntity
  8
1
  6
Continuous
 62
     7
100
AcDbCircle
 10
121.6413194010962
 20
214.0000000000009
 30
0.0
 40
1.0
100
AcDbArc
 50
90.0
 51
105.3375576695157
  0
ARC
  5
94
330
47
100
AcDbEntity
  8
1
  6
Continuous
 62
     7
100
AcDbCircle
 10
144.6993404628271
 20
216.0000000000009
 30
0.0
 40
1.0000000000005
100
AcDbArc
 50
209.9999999999834
 51
270.0
  0
ARC
  5
95
330
47
100
AcDbEntity
  8
1
  6
Continuous
 62
     7
100
AcDbCircle
 10
142.967289655258
 20
215.0000000000009
 30
0.0
 40
0.9999999999996882
100
AcDbArc
 50
30.00000000001031
 51
90.0
  0
ARC
  5
96
330
47
100
AcDbEntity
  8
1
  6
Continuous
 62
     7
100
AcDbCircle
 10
144.7573615245571
 20
214.0000000000009
 30
0.0
 40
1.000000000000216
100
AcDbArc
 50
74.66244233042097
 51
90.0
  0
ARC
  5
97
330
47
100
AcDbEntity
  8
1
  6
Continuous
 62
     7
100
AcDbCircle
 10
396.0717133497041
 20
215.0
 30
0.0
 40
0.9999999999993452
100
AcDbArc
 50
137.0585971350855
 51
149.9999999999848
  0
ARC
  5
98
330
47
100
AcDbEntity
  8
1
  6
Continuous
 62
     7
100
AcDbCircle
 10
394.3396625421361
 20
216.0
 30
0.0
 40
1.0
100
AcDbArc
 50
270.0
 51
329.9999999999897
  0
ARC
  5
99
330
47
100
AcDbEntity
  8
1
  6
Continuous
 62
     7
100
AcDbCircle
 10
396.0717133497041
 20
215.0
 30
0.0
 40
1.0
100
AcDbArc
 50
90.0
 51
137.0585971350855
  0
ARC
  5
9A
330
47
100
AcDbEntity
  8
1
  6
Continuous
 62
     7
100
AcDbCircle
 10
394.281641480405
 20
214.0
 30
0.0
 40
1.0
100
AcDbArc
 50
90.0
 51
105.3375576695709
  0
ARC
  5
9B
330
47
100
AcDbEntity
  8
1
  6
Continuous
 62
     7
100
AcDbCircle
 10
415.6076117345671
 20
215.0
 30
0.0
 40
0.9999999999995898
100
AcDbArc
 50
30.00000000001357
 51
42.94140286487455
  0
ARC
  5
9C
330
47
100
AcDbEntity
  8
1
  6
Continuous
 62
     7
100
AcDbCircle
 10
417.3396625421361
 20
216.0
 30
0.0
 40
1.000000000000525
100
AcDbArc
 50
209.9999999999826
 51
270.0
  0
ARC
  5
9D
330
47
100
AcDbEntity
  8
1
  6
Continuous
 62
     7
100
AcDbCircle
 10
415.6076117345671
 20
215.0
 30
0.0
 40
1.000000000000094
100
AcDbArc
 50
42.94140286487455
 51
90.0
  0
ARC
  5
9E
330
47
100
AcDbEntity
  8
1
  6
Continuous
 62
     7
100
AcDbCircle
 10
417.3976836038661
 20
214.0
 30
0.0
 40
1.000000000000074
100
AcDbArc
 50
74.66244233043224
 51
90.0
  0
ENDBLK
  5
49
330
47
100
AcDbEntity
  8
0
100
AcDbBlockEnd
  0
BLOCK
  5
4B
330
4A
100
AcDbEntity
  8
0
100
AcDbBlockBegin
  2
81-100X-M21
 70
     0
 10
181.9946263403791
 20
231.0814604582529
 30
0.0
  3
81-100X-M21
  1

  0
LINE
  5
9F
330
4A
100
AcDbEntity
  8
1
  6
Continuous
 62
     7
100
AcDbLine
 10
155.1993404628271
 20
601.6417053823726
 30
0.0
 11
155.1993404628271
 21
571.0417053823728
 31
0.0
  0
LINE
  5
A0
330
4A
100
AcDbEntity
  8
1
  6
Continuous
 62
     7
100
AcDbLine
 10
167.6993404628271
 20
570.8417053823729
 30
0.0
 11
155.3993404628272
 21
570.8417053823729
 31
0.0
  0
LINE
  5
A1
330
4A
100
AcDbEntity
  8
1
  6
Continuous
 62
     7
100
AcDbLine
 10
167.6993404628271
 20
601.8417053823729
 30
0.0
 11
155.3993404628272
 21
601.8417053823728
 31
0.0
  0
LINE
  5
A2
330
4A
100
AcDbEntity
  8
1
  6
Continuous
 62
     7
100
AcDbLine
 10
160.6669279468332
 20
195.9999999999999
 30
0.0
 11
155.1993404628271
 21
195.9999999999997
 31
0.0
  0
LINE
  5
A3
330
4A
100
AcDbEntity
  8
1
  6
Continuous
 62
     7
100
AcDbLine
 10
164.9190408915871
 20
164.9999999999999
 30
0.0
 11
155.1993404628271
 21
164.9999999999999
 31
0.0
  0
LINE
  5
A4
330
4A
100
AcDbEntity
  8
1
  6
Continuous
 62
     7
100
AcDbLine
 10
167.4993404628271
 20
195.9999999999999
 30
0.0
 11
160.6669279468332
 21
195.9999999999999
 31
0.0
  0
LINE
  5
A5
330
4A
100
AcDbEntity
  8
1
  6
Continuous
 62
     7
100
AcDbLine
 10
167.4993404628271
 20
164.9999999999999
 30
0.0
 11
164.9190408915871
 21
164.9999999999999
 31
0.0
  0
LINE
  5
A6
330
4A
100
AcDbEntity
  8
1
  6
Continuous
 62
     7
100
AcDbLine
 10
154.9993404628271
 20
195.7999999999996
 30
0.0
 11
154.9993404628271
 21
192.7640118758347
 31
0.0
  0
LINE
  5
A7
330
4A
100
AcDbEntity
  8
1
  6
Continuous
 62
     7
100
AcDbLine
 10
154.9993404628271
 20
165.9999999999999
 30
0.0
 11
154.9993404628271
 21
165.1999999999998
 31
0.0
  0
LINE
  5
A8
330
4A
100
AcDbEntity
  8
1
  6
Continuous
 62
     7
100
AcDbLine
 10
154.9993404628271
 20
193.9742701006334
 30
0.0
 11
154.9993404628271
 21
165.9999999999999
 31
0.0
  0
LINE
  5
A9
330
4A
100
AcDbEntity
  8
1
  6
PHANTOM
 62
     4
100
AcDbLine
 10
171.9993404628271
 20
217.6061262098823
 30
0.0
 11
171.9993404628271
 21
157.7501533629444
 31
0.0
  0
LINE
  5
AA
330
4A
100
AcDbEntity
  8
1
  6
PHANTOM
 62
     5
100
AcDbLine
 10
374.8396625421361
 20
176.5
 30
0.0
 11
388.3396625421361
 21
176.5
 31
0.0
  0
LINE
  5
AB
330
4A
100
AcDbEntity
  8
1
  6
PHANTOM
 62
     5
100
AcDbLine
 10
374.8396625421361
 20
184.5000000000001
 30
0.0
 11
388.3396625421361
 21
184.5000000000001
 31
0.0
  0
LINE
  5
AC
330
4A
100
AcDbEntity
  8
1
  6
Continuous
 62
     7
100
AcDbLine
 10
401.8396625421361
 20
196.0
 30
0.0
 11
401.8396625421361
 21
195.4749791318719
 31
0.0
  0
LINE
  5
AD
330
4A
100
AcDbEntity
  8
1
  6
Continuous
 62
     7
100
AcDbLine
 10
409.8396625421361
 20
196.0
 30
0.0
 11
409.8396625421361
 21
195.4749791318719
 31
0.0
  0
LINE
  5
AE
330
4A
100
AcDbEntity
  8
1
  6
Continuous
 62
     7
100
AcDbLine
 10
401.8396625421361
 20
196.0
 30
0.0
 11
401.8396625421361
 21
195.9999999999976
 31
0.0
  0
LINE
  5
AF
330
4A
100
AcDbEntity
  8
1
  6
Continuous
 62
     7
100
AcDbLine
 10
401.8396625421361
 20
211.4999999999999
 30
0.0
 11
401.8396625421361
 21
196.0
 31
0.0
  0
LINE
  5
B0
330
4A
100
AcDbEntity
  8
1
  6
Continuous
 62
     7
100
AcDbLine
 10
409.8396625421361
 20
211.4999999999999
 30
0.0
 11
409.8396625421361
 21
196.0
 31
0.0
  0
LINE
  5
B1
330
4A
100
AcDbEntity
  8
1
  6
Continuous
 62
     7
100
AcDbLine
 10
401.8396625421361
 20
164.4999999999999
 30
0.0
 11
401.8396625421361
 21
165.5250208681281
 31
0.0
  0
LINE
  5
B2
330
4A
100
AcDbEntity
  8
1
  6
Continuous
 62
     7
100
AcDbLine
 10
409.8396625421361
 20
164.4999999999999
 30
0.0
 11
409.8396625421361
 21
165.525020868128
 31
0.0
  0
ARC
  5
B3
330
4A
100
AcDbEntity
  8
1
  6
Continuous
 62
     7
100
AcDbCircle
 10
172.1993404628271
 20
682.3417053823729
 30
0.0
 40
100.0000000000001
100
AcDbArc
 50
270.0
 51
274.3338293663747
  0
ARC
  5
B4
330
4A
100
AcDbEntity
  8
1
  6
Continuous
 62
     7
100
AcDbCircle
 10
179.4746213617051
 20
586.3417053823729
 30
0.0
 40
3.72471910112202
100
AcDbArc
 50
0.0
 51
85.66617063361328
  0
ARC
  5
B5
330
4A
100
AcDbEntity
  8
1
  6
Continuous
 62
     7
100
AcDbCircle
 10
172.1993404628271
 20
490.3417053823725
 30
0.0
 40
100.0000000000004
100
AcDbArc
 50
85.66617063362531
 51
90.0
  0
ARC
  5
B6
330
4A
100
AcDbEntity
  8
1
  6
Continuous
 62
     7
100
AcDbCircle
 10
172.1993404628271
 20
682.3417053823729
 30
0.0
 40
100.0
100
AcDbArc
 50
265.6661706336258
 51
270.0
  0
ARC
  5
B7
330
4A
100
AcDbEntity
  8
1
  6
Continuous
 62
     7
100
AcDbCircle
 10
164.9240595639491
 20
586.3417053823729
 30
0.0
 40
3.724719101124009
100
AcDbArc
 50
180.0
 51
265.6661706336274
  0
ARC
  5
B8
330
4A
100
AcDbEntity
  8
1
  6
Continuous
 62
     7
100
AcDbCircle
 10
172.1993404628271
 20
490.3417053823725
 30
0.0
 40
100.0000000000002
100
AcDbArc
 50
90.0
 51
94.33382936637419
  0
ARC
  5
B9
330
4A
100
AcDbEntity
  8
1
  6
Continuous
 62
     7
100
AcDbCircle
 10
164.9240595639491
 20
586.3417053823729
 30
0.0
 40
3.724719101123383
100
AcDbArc
 50
94.33382936637278
 51
180.0
  0
ARC
  5
BA
330
4A
100
AcDbEntity
  8
1
  6
Continuous
 62
     7
100
AcDbCircle
 10
179.4746213617051
 20
586.3417053823729
 30
0.0
 40
3.724719101123565
100
AcDbArc
 50
274.3338293663866
 51
0.0
  0
ARC
  5
BB
330
4A
100
AcDbEntity
  8
1
  6
Continuous
 62
     7
100
AcDbCircle
 10
167.6993404628271
 20
586.3417053823729
 30
0.0
 40
15.5
100
AcDbArc
 50
0.0
 51
90.0
  0
ARC
  5
BC
330
4A
100
AcDbEntity
  8
1
  6
Continuous
 62
     7
100
AcDbCircle
 10
167.6993404628271
 20
586.3417053823729
 30
0.0
 40
15.5
100
AcDbArc
 50
270.0
 51
0.0
  0
ARC
  5
BD
330
4A
100
AcDbEntity
  8
1
  6
Continuous
 62
     7
100
AcDbCircle
 10
167.4993404628271
 20
180.4999999999999
 30
0.0
 40
15.5
100
AcDbArc
 50
0.0
 51
9.36885182365535
  0
ARC
  5
BE
330
4A
100
AcDbEntity
  8
1
  6
Continuous
 62
     7
100
AcDbCircle
 10
167.4993404628271
 20
180.4999999999999
 30
0.0
 40
15.5
100
AcDbArc
 50
270.0
 51
331.4977761969169
  0
ARC
  5
BF
330
4A
100
AcDbEntity
  8
1
  6
Continuous
 62
     7
100
AcDbCircle
 10
167.4993404628271
 20
180.4999999999999
 30
0.0
 40
15.49999999999996
100
AcDbArc
 50
331.4977761969169
 51
0.0
  0
ARC
  5
C0
330
4A
100
AcDbEntity
  8
1
  6
Continuous
 62
     7
100
AcDbCircle
 10
167.4993404628271
 20
180.4999999999999
 30
0.0
 40
15.49999999999944
100
AcDbArc
 50
9.36885182365535
 51
90.0
  0
ARC
  5
C1
330
4A
100
AcDbEntity
  8
1
  6
Continuous
 62
     7
100
AcDbCircle
 10
171.9993404628271
 20
167.4999999999997
 30
0.0
 40
7.0
100
AcDbArc
 50
270.0
 51
317.3771453921823
  0
ARC
  5
C2
330
4A
100
AcDbEntity
  8
1
  6
Continuous
 62
     7
100
AcDbCircle
 10
122.9993404628271
 20
187.9999999999997
 30
0.0
 40
59.99999999999959
100
AcDbArc
 50
336.5872805163925
 51
345.6245513557163
  0
ARC
  5
C3
330
4A
100
AcDbEntity
  8
1
  6
Continuous
 62
     7
100
AcDbCircle
 10
171.9993404628271
 20
167.4999999999997
 30
0.0
 40
7.000000000000463
100
AcDbArc
 50
222.6228546078128
 51
270.0
  0
ARC
  5
C4
330
4A
100
AcDbEntity
  8
1
  6
Continuous
 62
     7
100
AcDbCircle
 10
220.9993404628271
 20
187.9999999999997
 30
0.0
 40
59.99999999999982
100
AcDbArc
 50
156.5872805163921
 51
171.5155502586236
  0
ARC
  5
C5
330
4A
100
AcDbEntity
  8
1
  6
Continuous
 62
     7
100
AcDbCircle
 10
171.9993404628271
 20
208.4999999999997
 30
0.0
 40
7.0
100
AcDbArc
 50
90.0
 51
137.3771453921656
  0
ARC
  5
C6
330
4A
100
AcDbEntity
  8
1
  6
Continuous
 62
     7
100
AcDbCircle
 10
220.9993404628271
 20
187.9999999999997
 30
0.0
 40
60.0000000000001
100
AcDbArc
 50
203.1688797851183
 51
203.4127194836071
  0
ARC
  5
C7
330
4A
100
AcDbEntity
  8
1
  6
Continuous
 62
     7
100
AcDbCircle
 10
122.9993404628271
 20
187.9999999999997
 30
0.0
 40
59.99999999999999
100
AcDbArc
 50
0.0
 51
23.41271948360686
  0
ARC
  5
C8
330
4A
100
AcDbEntity
  8
1
  6
Continuous
 62
     7
100
AcDbCircle
 10
171.9993404628271
 20
208.4999999999997
 30
0.0
 40
6.999999999999877
100
AcDbArc
 50
42.62285460780517
 51
90.0
  0
ARC
  5
C9
330
4A
100
AcDbEntity
  8
1
  6
Continuous
 62
     7
100
AcDbCircle
 10
122.9993404628271
 20
187.9999999999997
 30
0.0
 40
59.9999999999993
100
AcDbArc
 50
355.2420766648554
 51
0.0
  0
ARC
  5
CA
330
4A
100
AcDbEntity
  8
1
  6
PHANTOM
 62
     5
100
AcDbCircle
 10
421.8396625421361
 20
180.5
 30
0.0
 40
4.000000000000023
100
AcDbArc
 50
280.0000000000051
 51
79.99999999999491
  0
ARC
  5
CB
330
4A
100
AcDbEntity
  8
1
  6
PHANTOM
 62
     5
100
AcDbCircle
 10
374.8396625421361
 20
180.5
 30
0.0
 40
4.000000000000114
100
AcDbArc
 50
90.0
 51
270.0
  0
ARC
  5
CC
330
4A
100
AcDbEntity
  8
1
  6
Continuous
 62
     7
100
AcDbCircle
 10
405.8396625421361
 20
164.4999999999999
 30
0.0
 40
4.0
100
AcDbArc
 50
180.0
 51
0.0
  0
ARC
  5
CD
330
4A
100
AcDbEntity
  8
1
  6
Continuous
 62
     7
100
AcDbCircle
 10
405.8396625421361
 20
180.5
 30
0.0
 40
15.50000000000007
100
AcDbArc
 50
284.9552483166432
 51
75.04475168335662
  0
ARC
  5
CE
330
4A
100
AcDbEntity
  8
1
  6
Continuous
 62
     7
100
AcDbCircle
 10
405.8396625421361
 20
180.5
 30
0.0
 40
15.49999999999996
100
AcDbArc
 50
104.9552483166434
 51
255.0447516833566
  0
ARC
  5
CF
330
4A
100
AcDbEntity
  8
1
  6
Continuous
 62
     7
100
AcDbCircle
 10
405.8396625421361
 20
211.4999999999999
 30
0.0
 40
4.0
100
AcDbArc
 50
0.0
 51
180.0
  0
SPLINE
  5
D0
330
4A
100
AcDbEntity
  8
1
  6
Continuous
 62
     7
100
AcDbSpline
210
0.0
220
0.0
230
1.0
 70
     8
 71
     3
 72
    27
 73
    23
 74
    21
 42
0.000000001
 43
0.0000000001
 44
0.00000001
 40
0.0
 40
0.0
 40
0.0
 40
0.0
 40
0.3521433567560412
 40
0.7044480106676638
 40
1.400800675077237
 40
2.097184225501624
 40
2.769838294033685
 40
3.442561383172321
 40
4.07721972105883
 40
4.712002505240252
 40
5.296741623802238
 40
5.881694777238694
 40
6.40824506803903
 40
6.935160786667562
 40
7.400656982102847
 40
7.866768373608799
 40
8.276154744419339
 40
8.6864652882137
 40
9.055039980231355
 40
9.424428423783132
 40
9.7781164103799
 40
10.13180439006648
 40
10.13180439006648
 40
10.13180439006648
 40
10.13180439006648
 10
401.8396625421361
 20
165.0
 30
0.0
 10
401.8403936455343
 20
165.1173835176519
 30
0.0
 10
401.8418561919445
 20
165.352204319712
 30
0.0
 10
401.8573018547916
 20
165.8189296607541
 30
0.0
 10
401.894671098804
 20
166.3995873909469
 30
0.0
 10
401.9689377115618
 20
167.0842698186237
 30
0.0
 10
402.0730134866025
 20
167.7570827808895
 30
0.0
 10
402.2040520150131
 20
168.4042281794833
 30
0.0
 10
402.3641678773015
 20
169.0317739194514
 30
0.0
 10
402.5478650411916
 20
169.6222483908768
 30
0.0
 10
402.7594616733276
 20
170.1856365786506
 30
0.0
 10
402.9902193877296
 20
170.7022945588718
 30
0.0
 10
403.2473257727282
 20
171.1846141270562
 30
0.0
 10
403.5185996778682
 20
171.6128520716973
 30
0.0
 10
403.81417676494
 20
171.9996434524543
 30
0.0
 10
404.1193021437705
 20
172.3275019864595
 30
0.0
 10
404.4456940262166
 20
172.6068481348155
 30
0.0
 10
404.778623340581
 20
172.8236892392195
 30
0.0
 10
405.127368674326
 20
172.985523052524
 30
0.0
 10
405.4803357748481
 20
173.0794291435026
 30
0.0
 10
405.8401301236784
 20
173.1174665685408
 30
0.0
 10
406.0746252445013
 20
173.0866309152518
 30
0.0
 10
406.1918728035722
 20
173.0712130835843
 30
0.0
 11
401.8396625421361
 21
165.0
 31
0.0
 11
401.8434313612854
 21
165.3521231786949
 31
0.0
 11
401.8547378187332
 21
165.7042463573901
 31
0.0
 11
401.8997338970203
 21
166.3991437499
 31
0.0
 11
401.9751099960316
 21
167.0914359519382
 31
0.0
 11
402.0781240106389
 21
167.7561551473132
 31
0.0
 11
402.2122003358737
 21
168.4153818864914
 31
0.0
 11
402.3694342587559
 21
169.0302547996254
 31
0.0
 11
402.5588333056077
 21
169.6361237492216
 31
0.0
 11
402.7649257902568
 21
170.1833400907858
 31
0.0
 11
403.004593236289
 21
170.7169407906765
 31
0.0
 11
403.2529711353403
 21
171.1812290932306
 31
0.0
 11
403.5363007423819
 21
171.6254863477
 31
0.0
 11
403.8198394319921
 21
171.9946645150974
 31
0.0
 11
404.1387369178606
 21
172.3346118971292
 31
0.0
 11
404.4508444932943
 21
172.5995384184369
 31
0.0
 11
404.7954035369448
 21
172.8223248798782
 31
0.0
 11
405.1307333455198
 21
172.9752994614755
 31
0.0
 11
405.4874522807003
 21
173.0712130835845
 31
0.0
 11
405.8396625421361
 21
173.1035105281349
 31
0.0
 11
406.1918728035722
 21
173.0712130835843
 31
0.0
  0
SPLINE
  5
D1
330
4A
100
AcDbEntity
  8
1
  6
Continuous
 62
     7
100
AcDbSpline
210
0.0
220
0.0
230
1.0
 70
     8
 71
     3
 72
    25
 73
    21
 74
    19
 42
0.000000001
 43
0.0000000001
 44
0.00000001
 40
0.0
 40
0.0
 40
0.0
 40
0.0
 40
0.3693884349419166
 40
0.7379631240428183
 40
1.148273668939756
 40
1.557660040225301
 40
2.023771432016318
 40
2.489267627624897
 40
3.016183346390597
 40
3.542733637288348
 40
4.127686790808369
 40
4.712425909432674
 40
5.347208693666738
 40
5.981867031588937
 40
6.654590120749783
 40
7.327244189277192
 40
8.02362773964932
 40
8.719980403846177
 40
9.07228505753153
 40
9.424428414581259
 40
9.424428414581259
 40
9.424428414581259
 40
9.424428414581259
 10
406.1918728035722
 20
173.0712130835843
 30
0.0
 10
406.312170117995
 20
173.0434786711858
 30
0.0
 10
406.5524997331543
 20
172.9880709310804
 30
0.0
 10
406.9005378904973
 20
172.8229208473571
 30
0.0
 10
407.2336766218864
 20
172.6070617967949
 30
0.0
 10
407.5600088548066
 20
172.3274359210003
 30
0.0
 10
407.8651522792566
 20
171.9996620101158
 30
0.0
 10
408.1607241930399
 20
171.6128463689311
 30
0.0
 10
408.4319996556558
 20
171.184615727853
 30
0.0
 10
408.6891055965871
 20
170.7022940772307
 30
0.0
 10
408.9198634423633
 20
170.1856367131498
 30
0.0
 10
409.1314600373886
 20
169.6222483514708
 30
0.0
 10
409.3151572119717
 20
169.0317739303289
 30
0.0
 10
409.4752730712186
 20
168.4042281762831
 30
0.0
 10
409.6063116004233
 20
167.7570827816339
 30
0.0
 10
409.7103873751667
 20
167.0842698182758
 30
0.0
 10
409.7846539878672
 20
166.3995873909808
 30
0.0
 10
409.8220232317426
 20
165.8189296608677
 30
0.0
 10
409.8374688938492
 20
165.3522043198432
 30
0.0
 10
409.8389314387374
 20
165.1173835177487
 30
0.0
 10
409.8396625421361
 20
164.9999999999985
 30
0.0
 11
406.1918728035722
 21
173.0712130835843
 31
0.0
 11
406.5485917387525
 21
172.9752994614755
 31
0.0
 11
406.8839215473274
 21
172.8223248798782
 31
0.0
 11
407.2284805909778
 21
172.5995384184369
 31
0.0
 11
407.5405881664112
 21
172.3346118971292
 31
0.0
 11
407.8594856522791
 21
171.9946645150975
 31
0.0
 11
408.1430243418894
 21
171.6254863477
 31
0.0
 11
408.426353948931
 21
171.1812290932306
 31
0.0
 11
408.6747318479823
 21
170.7169407906765
 31
0.0
 11
408.9143992940147
 21
170.1833400907859
 31
0.0
 11
409.1204917786641
 21
169.6361237492217
 31
0.0
 11
409.3098908255162
 21
169.0302547996255
 31
0.0
 11
409.467124748398
 21
168.4153818864914
 31
0.0
 11
409.6012010736324
 21
167.7561551473132
 31
0.0
 11
409.7042150882397
 21
167.0914359519382
 31
0.0
 11
409.7795911872511
 21
166.3991437498999
 31
0.0
 11
409.8245872655386
 21
165.7042463573899
 31
0.0
 11
409.8358937229867
 21
165.3521231786942
 31
0.0
 11
409.8396625421361
 21
164.9999999999985
 31
0.0
  0
SPLINE
  5
D2
330
4A
100
AcDbEntity
  8
1
  6
Continuous
 62
     7
100
AcDbSpline
210
0.0
220
0.0
230
1.0
 70
     8
 71
     3
 72
    27
 73
    23
 74
    21
 42
0.000000001
 43
0.0000000001
 44
0.00000001
 40
0.0
 40
0.0
 40
0.0
 40
0.0
 40
0.5635691099583873
 40
1.127238557117259
 40
2.238983738624094
 40
3.350752159096043
 40
4.416730897015675
 40
5.482762972378842
 40
6.47456014123597
 40
7.466461889392182
 40
8.358933083414954
 40
9.251594011154095
 40
10.02462150576398
 40
10.7980840288557
 40
11.43923201099757
 40
12.08113212820485
 40
12.59132663089555
 40
13.10432938414693
 40
13.50843920731085
 40
13.91674533165437
 40
14.27825507390678
 40
14.63976480459927
 40
14.63976480459927
 40
14.63976480459927
 40
14.63976480459927
 10
401.8396625421361
 20
195.9999999999976
 30
0.0
 10
401.840392414955
 20
195.8121421616657
 30
0.0
 10
401.8418522879014
 20
195.4363930389913
 30
0.0
 10
401.8572328077913
 20
194.6901939821656
 30
0.0
 10
401.8945398927692
 20
193.7617714471846
 30
0.0
 10
401.9684726709807
 20
192.6676201606656
 30
0.0
 10
402.0723505025734
 20
191.5912184055145
 30
0.0
 10
402.2026586408145
 20
190.55795843193
 30
0.0
 10
402.3624346769163
 20
189.5538472456177
 30
0.0
 10
402.5446948397053
 20
188.6123744585586
 30
0.0
 10
402.7557548375871
 20
187.7108644386901
 30
0.0
 10
402.983781834251
 20
186.8888500082361
 30
0.0
 10
403.2400577873105
 20
186.1169448949928
 30
0.0
 10
403.5062941260991
 20
185.4374764116327
 30
0.0
 10
403.8006382434305
 20
184.8178843737634
 30
0.0
 10
404.0973942401548
 20
184.2978628793187
 30
0.0
 10
404.4231700260683
 20
183.8472669510367
 30
0.0
 10
404.7469224980155
 20
183.4964721051893
 30
0.0
 10
405.1008100084031
 20
183.2262181530422
 30
0.0
 10
405.4622025312051
 20
183.0694766857245
 30
0.0
 10
405.8407999793749
 20
182.9985790977395
 30
0.0
 10
406.0782082926073
 20
183.0519078962683
 30
0.0
 10
406.196912448146
 20
183.0785722916411
 30
0.0
 11
401.8396625421361
 21
195.9999999999976
 31
0.0
 11
401.8434227807313
 21
195.4364434445005
 31
0.0
 11
401.8547034965169
 21
194.8728868890034
 31
0.0
 11
401.899592528652
 21
193.7620483212907
 31
0.0
 11
401.9749211496628
 21
192.652834807306
 31
0.0
 11
402.0775137666448
 21
191.5918044474252
 31
0.0
 11
402.2116509050618
 21
190.5342451754605
 31
0.0
 11
402.367873305377
 21
189.554828928048
 31
0.0
 11
402.5575915554502
 21
188.581239659695
 31
0.0
 11
402.761601178194
 21
187.7123985316128
 31
0.0
 11
403.0020665889835
 21
186.8527358547829
 31
0.0
 11
403.2464390299845
 21
186.1193508145018
 31
0.0
 11
403.5314586578564
 21
185.4003180711014
 31
0.0
 11
403.8076937072175
 21
184.8217293292088
 31
0.0
 11
404.1299775036832
 21
184.2665996915449
 31
0.0
 11
404.4305521324819
 21
183.854345737376
 31
0.0
 11
404.7831503438143
 21
183.4817248501366
 31
0.0
 11
405.1079007062502
 21
183.2412213144466
 31
0.0
 11
405.4824126361262
 21
183.0785722916411
 31
0.0
 11
405.839662542136
 21
183.0232387966874
 31
0.0
 11
406.196912448146
 21
183.0785722916411
 31
0.0
  0
SPLINE
  5
D3
330
4A
100
AcDbEntity
  8
1
  6
Continuous
 62
     7
100
AcDbSpline
210
0.0
220
0.0
230
1.0
 70
     8
 71
     3
 72
    25
 73
    21
 74
    19
 42
0.000000001
 43
0.0000000001
 44
0.00000001
 40
0.0
 40
0.0
 40
0.0
 40
0.0
 40
0.4083061153375598
 40
0.8124159427208716
 40
1.325418696419977
 40
1.835613199234585
 40
2.477513316534307
 40
3.118661298730781
 40
3.892123821873386
 40
4.665151316519736
 40
5.557812244293365
 40
6.450283438341778
 40
7.442185186521082
 40
8.43398235539416
 40
9.50001443076796
 40
10.56599316868552
 40
11.6777615891316
 40
12.78950677050786
 40
13.35317621737996
 40
13.91674532635712
 40
13.91674532635712
 40
13.91674532635712
 40
13.91674532635712
 10
406.196912448146
 20
183.0785722916411
 30
0.0
 10
406.3250606820591
 20
183.1266081999761
 30
0.0
 10
406.5800401332608
 20
183.222186330334
 30
0.0
 10
406.9318722052296
 20
183.4978742938921
 30
0.0
 10
407.2563090248858
 20
183.8468599160955
 30
0.0
 10
407.5818777281736
 20
184.2980033141221
 30
0.0
 10
407.8787023098315
 20
184.8178434886966
 30
0.0
 10
408.1730258599558
 20
185.4374899004334
 30
0.0
 10
408.4392687658857
 20
186.1169410219062
 30
0.0
 10
408.6955427927717
 20
186.8888512272684
 30
0.0
 10
408.9235703803454
 20
187.7108640953871
 30
0.0
 10
409.1346302085535
 20
188.6123745637062
 30
0.0
 10
409.3168904215239
 20
189.5538472179977
 30
0.0
 10
409.4766664434333
 20
190.5579584417225
 30
0.0
 10
409.6069745857115
 20
191.5912184045882
 30
0.0
 10
409.7108524160736
 20
192.6676201627092
 30
0.0
 10
409.7847851948259
 20
193.7617714483425
 30
0.0
 10
409.8220922788433
 20
194.690193983387
 30
0.0
 10
409.8374728003357
 20
195.4363930397138
 30
0.0
 10
409.838932669319
 20
195.8121421619937
 30
0.0
 10
409.8396625421361
 20
196.0
 30
0.0
 11
406.196912448146
 21
183.0785722916411
 31
0.0
 11
406.5714243780212
 21
183.2412213144466
 31
0.0
 11
406.8961747404568
 21
183.4817248501365
 31
0.0
 11
407.2487729517893
 21
183.854345737376
 31
0.0
 11
407.5493475805885
 21
184.2665996915449
 31
0.0
 11
407.8716313770545
 21
184.8217293292089
 31
0.0
 11
408.1478664264152
 21
185.4003180711015
 31
0.0
 11
408.4328860542868
 21
186.1193508145019
 31
0.0
 11
408.6772584952881
 21
186.8527358547829
 31
0.0
 11
408.9177239060782
 21
187.7123985316128
 31
0.0
 11
409.121733528822
 21
188.5812396596949
 31
0.0
 11
409.3114517788951
 21
189.5548289280479
 31
0.0
 11
409.4676741792101
 21
190.5342451754605
 31
0.0
 11
409.6018113176267
 21
191.5918044474252
 31
0.0
 11
409.7044039346084
 21
192.652834807306
 31
0.0
 11
409.7797325556194
 21
193.7620483212906
 31
0.0
 11
409.824621587755
 21
194.8728868890034
 31
0.0
 11
409.8359023035408
 21
195.4364434445016
 31
0.0
 11
409.8396625421361
 21
196.0
 31
0.0
  0
ARC
  5
D4
330
4A
100
AcDbEntity
  8
1
  6
Continuous
 62
     7
100
AcDbCircle
 10
155.3993404628272
 20
601.6417053823726
 30
0.0
 40
0.2000000000001592
100
AcDbArc
 50
90.0
 51
180.0
  0
ARC
  5
D5
330
4A
100
AcDbEntity
  8
1
  6
Continuous
 62
     7
100
AcDbCircle
 10
155.3993404628272
 20
571.0417053823728
 30
0.0
 40
0.2000000000001023
100
AcDbArc
 50
180.0
 51
270.0
  0
ARC
  5
D6
330
4A
100
AcDbEntity
  8
1
  6
Continuous
 62
     7
100
AcDbCircle
 10
164.9190408915871
 20
163.9999999999999
 30
0.0
 40
1.000000000000004
100
AcDbArc
 50
23.1688797851172
 51
90.0
  0
ARC
  5
D7
330
4A
100
AcDbEntity
  8
1
  6
Continuous
 62
     7
100
AcDbCircle
 10
170.5276864013091
 20
166.14566092753
 30
0.0
 40
5.00000000000023
100
AcDbArc
 50
203.4127194836081
 51
222.6228546078134
  0
ARC
  5
D8
330
4A
100
AcDbEntity
  8
1
  6
Continuous
 62
     7
100
AcDbCircle
 10
173.4709945243441
 20
166.14566092753
 30
0.0
 40
5.000000000000432
100
AcDbArc
 50
317.3771453921875
 51
336.5872805163925
  0
ARC
  5
D9
330
4A
100
AcDbEntity
  8
1
  6
Continuous
 62
     7
100
AcDbCircle
 10
155.1993404628271
 20
165.1999999999998
 30
0.0
 40
0.2000000000000171
100
AcDbArc
 50
180.0
 51
270.0
  0
ARC
  5
DA
330
4A
100
AcDbEntity
  8
1
  6
Continuous
 62
     7
100
AcDbCircle
 10
155.1993404628271
 20
195.7999999999996
 30
0.0
 40
0.2000000000000739
100
AcDbArc
 50
90.0
 51
180.0
  0
ARC
  5
DB
330
4A
100
AcDbEntity
  8
1
  6
Continuous
 62
     7
100
AcDbCircle
 10
160.6669279468332
 20
196.9999999999999
 30
0.0
 40
1.0
100
AcDbArc
 50
270.0
 51
351.5155502586214
  0
ARC
  5
DC
330
4A
100
AcDbEntity
  8
1
  6
Continuous
 62
     7
100
AcDbCircle
 10
170.5276864013091
 20
209.85433907247
 30
0.0
 40
4.999999999999615
100
AcDbArc
 50
137.3771453921616
 51
156.5872805163891
  0
ARC
  5
DD
330
4A
100
AcDbEntity
  8
1
  6
Continuous
 62
     7
100
AcDbCircle
 10
173.4709945243452
 20
209.8543390724692
 30
0.0
 40
4.999999999999114
100
AcDbArc
 50
23.41271948360725
 51
42.62285460780508
  0
ENDBLK
  5
4C
330
4A
100
AcDbEntity
  8
0
100
AcDbBlockEnd
  0
BLOCK
  5
4E
330
4D
100
AcDbEntity
  8
0
100
AcDbBlockBegin
  2
A205-0
 70
     0
 10
608.8061451965551
 20
-10.16602420536304
 30
0.0
  3
A205-0
  1

  0
LINE
  5
DE
330
4D
100
AcDbEntity
  8
1
  6
Continuous
 62
     7
100
AcDbLine
 10
464.339662542137
 20
191.0000000000002
 30
0.0
 11
464.339662542137
 21
170.0000000000002
 31
0.0
  0
LINE
  5
DF
330
4D
100
AcDbEntity
  8
1
  6
Continuous
 62
     7
100
AcDbLine
 10
465.339662542137
 20
190.0000000000002
 30
0.0
 11
464.339662542137
 21
191.0000000000002
 31
0.0
  0
LINE
  5
E0
330
4D
100
AcDbEntity
  8
1
  6
Continuous
 62
     7
100
AcDbLine
 10
465.339662542137
 20
190.0000000000002
 30
0.0
 11
465.339662542137
 21
171.0000000000002
 31
0.0
  0
LINE
  5
E1
330
4D
100
AcDbEntity
  8
1
  6
Continuous
 62
     7
100
AcDbLine
 10
451.339662542137
 20
191.0000000000002
 30
0.0
 11
464.339662542137
 21
191.0000000000002
 31
0.0
  0
LINE
  5
E2
330
4D
100
AcDbEntity
  8
1
  6
Continuous
 62
     7
100
AcDbLine
 10
453.0717133497061
 20
170.0000000000002
 30
0.0
 11
453.0717133497061
 21
191.0000000000002
 31
0.0
  0
LINE
  5
E3
330
4D
100
AcDbEntity
  8
1
  6
Continuous
 62
     7
100
AcDbLine
 10
464.339662542137
 20
170.0000000000002
 30
0.0
 11
465.339662542137
 21
171.0000000000002
 31
0.0
  0
LINE
  5
E4
330
4D
100
AcDbEntity
  8
1
  6
Continuous
 62
     7
100
AcDbLine
 10
464.339662542137
 20
170.0000000000002
 30
0.0
 11
451.339662542137
 21
170.0000000000002
 31
0.0
  0
LINE
  5
E5
330
4D
100
AcDbEntity
  8
1
  6
Continuous
 62
     2
100
AcDbLine
 10
465.339662542137
 20
171.0000000000002
 30
0.0
 11
453.0717133497061
 21
171.0000000000002
 31
0.0
  0
LINE
  5
E6
330
4D
100
AcDbEntity
  8
1
  6
Continuous
 62
     2
100
AcDbLine
 10
453.0717133497061
 20
171.0000000000002
 30
0.0
 11
451.339662542137
 21
170.0000000000002
 31
0.0
  0
LINE
  5
E7
330
4D
100
AcDbEntity
  8
1
  6
Continuous
 62
     2
100
AcDbLine
 10
451.339662542137
 20
191.0000000000002
 30
0.0
 11
453.0717133497061
 21
190.0000000000002
 31
0.0
  0
LINE
  5
E8
330
4D
100
AcDbEntity
  8
1
  6
Continuous
 62
     2
100
AcDbLine
 10
453.0717133497061
 20
190.0000000000002
 30
0.0
 11
465.339662542137
 21
190.0000000000002
 31
0.0
  0
LINE
  5
E9
330
4D
100
AcDbEntity
  8
1
  6
Continuous
 62
     2
100
AcDbLine
 10
123.6993404628271
 20
633.073756189941
 30
0.0
 11
123.6993404628271
 21
645.341705382372
 31
0.0
  0
LINE
  5
EA
330
4D
100
AcDbEntity
  8
1
  6
Continuous
 62
     2
100
AcDbLine
 10
122.6993404628271
 20
631.341705382372
 30
0.0
 11
123.6993404628271
 21
633.073756189941
 31
0.0
  0
LINE
  5
EB
330
4D
100
AcDbEntity
  8
1
  6
Continuous
 62
     7
100
AcDbLine
 10
110.1993404628271
 20
631.341705382372
 30
0.0
 11
156.1993404628271
 21
631.341705382372
 31
0.0
  0
LINE
  5
EC
330
4D
100
AcDbEntity
  8
1
  6
Continuous
 62
     7
100
AcDbLine
 10
110.1993404628271
 20
631.341705382372
 30
0.0
 11
110.1993404628271
 21
629.341705382372
 31
0.0
  0
LINE
  5
ED
330
4D
100
AcDbEntity
  8
1
  6
Continuous
 62
     7
100
AcDbLine
 10
155.6993404628271
 20
628.841705382372
 30
0.0
 11
110.6993404628271
 21
628.841705382372
 31
0.0
  0
LINE
  5
EE
330
4D
100
AcDbEntity
  8
1
  6
Continuous
 62
     7
100
AcDbLine
 10
124.4493404628271
 20
605.2080113270994
 30
0.0
 11
124.4493404628271
 21
624.841705382372
 31
0.0
  0
LINE
  5
EF
330
4D
100
AcDbEntity
  8
1
  6
Continuous
 62
     7
100
AcDbLine
 10
156.1993404628271
 20
629.341705382372
 30
0.0
 11
156.1993404628271
 21
631.341705382372
 31
0.0
  0
LINE
  5
F0
330
4D
100
AcDbEntity
  8
1
  6
Continuous
 62
     2
100
AcDbLine
 10
142.6993404628271
 20
633.073756189941
 30
0.0
 11
143.6993404628271
 21
631.341705382372
 31
0.0
  0
LINE
  5
F1
330
4D
100
AcDbEntity
  8
1
  6
Continuous
 62
     2
100
AcDbLine
 10
142.6993404628271
 20
645.341705382372
 30
0.0
 11
142.6993404628271
 21
633.073756189941
 31
0.0
  0
LINE
  5
F2
330
4D
100
AcDbEntity
  8
1
  6
Continuous
 62
     7
100
AcDbLine
 10
141.9493404628271
 20
610.9698881406651
 30
0.0
 11
141.9493404628271
 21
624.841705382372
 31
0.0
  0
LINE
  5
F3
330
4D
100
AcDbEntity
  8
1
  6
Continuous
 62
     7
100
AcDbLine
 10
143.6993404628271
 20
644.341705382372
 30
0.0
 11
143.6993404628271
 21
631.341705382372
 31
0.0
  0
LINE
  5
F4
330
4D
100
AcDbEntity
  8
1
  6
Continuous
 62
     7
100
AcDbLine
 10
143.6993404628271
 20
644.341705382372
 30
0.0
 11
142.6993404628271
 21
645.341705382372
 31
0.0
  0
LINE
  5
F5
330
4D
100
AcDbEntity
  8
1
  6
Continuous
 62
     7
100
AcDbLine
 10
143.6993404628271
 20
633.073756189941
 30
0.0
 11
122.6993404628271
 21
633.073756189941
 31
0.0
  0
LINE
  5
F6
330
4D
100
AcDbEntity
  8
1
  6
Continuous
 62
     7
100
AcDbLine
 10
122.6993404628271
 20
644.341705382372
 30
0.0
 11
143.6993404628271
 21
644.341705382372
 31
0.0
  0
LINE
  5
F7
330
4D
100
AcDbEntity
  8
1
  6
Continuous
 62
     7
100
AcDbLine
 10
122.6993404628271
 20
631.341705382372
 30
0.0
 11
122.6993404628271
 21
644.341705382372
 31
0.0
  0
LINE
  5
F8
330
4D
100
AcDbEntity
  8
1
  6
Continuous
 62
     7
100
AcDbLine
 10
123.6993404628271
 20
645.341705382372
 30
0.0
 11
122.6993404628271
 21
644.341705382372
 31
0.0
  0
LINE
  5
F9
330
4D
100
AcDbEntity
  8
1
  6
Continuous
 62
     7
100
AcDbLine
 10
123.6993404628271
 20
645.341705382372
 30
0.0
 11
142.6993404628271
 21
645.341705382372
 31
0.0
  0
LINE
  5
FA
330
4D
100
AcDbEntity
  8
1
  6
Continuous
 62
     7
100
AcDbLine
 10
154.9993404628282
 20
598.865152756597
 30
0.0
 11
153.0996214874432
 21
599.0000102105076
 31
0.0
  0
LINE
  5
FB
330
4D
100
AcDbEntity
  8
1
  6
Continuous
 62
     7
100
AcDbLine
 10
152.3683355545462
 20
573.6314879501793
 30
0.0
 11
154.9993404628282
 21
573.8182580081481
 31
0.0
  0
LINE
  5
FC
330
4D
100
AcDbEntity
  8
1
  6
Continuous
 62
     7
100
AcDbLine
 10
141.1993404628271
 20
572.8386221314316
 30
0.0
 11
152.3683355545462
 21
573.6314879501793
 31
0.0
  0
LINE
  5
FD
330
4D
100
AcDbEntity
  8
1
  6
Continuous
 62
     7
100
AcDbLine
 10
154.9993404628271
 20
192.7796258982767
 30
0.0
 11
153.3441978889431
 21
192.8739443981375
 31
0.0
  0
LINE
  5
FE
330
4D
100
AcDbEntity
  8
1
  6
Continuous
 62
     7
100
AcDbLine
 10
120.5993404628272
 20
201.05
 30
0.0
 11
120.5993404628272
 21
199.741621553289
 31
0.0
  0
LINE
  5
FF
330
4D
100
AcDbEntity
  8
1
  6
Continuous
 62
     7
100
AcDbLine
 10
120.1993404628271
 20
205.9999999999997
 30
0.0
 11
120.1993404628271
 21
202.2499999999998
 31
0.0
  0
LINE
  5
100
330
4D
100
AcDbEntity
  8
1
  6
Continuous
 62
     7
100
AcDbLine
 10
154.9993404628271
 20
168.2203741017232
 30
0.0
 11
152.5584570538091
 21
168.0812800652901
 31
0.0
  0
LINE
  5
101
330
4D
100
AcDbEntity
  8
1
  6
Continuous
 62
     7
100
AcDbLine
 10
120.5993404628272
 20
199.741621553289
 30
0.0
 11
120.5993404628272
 21
187.6686818872089
 31
0.0
  0
LINE
  5
102
330
4D
100
AcDbEntity
  8
1
  6
Continuous
 62
     7
100
AcDbLine
 10
152.5584570538091
 20
168.0812800652901
 30
0.0
 11
133.9673935562561
 21
167.0218660621851
 31
0.0
  0
LINE
  5
103
330
4D
100
AcDbEntity
  8
1
  6
Continuous
 62
     7
100
AcDbLine
 10
146.1993404628271
 20
205.9999999999997
 30
0.0
 11
146.1993404628271
 21
202.2499999999998
 31
0.0
  0
LINE
  5
104
330
4D
100
AcDbEntity
  8
1
  6
Continuous
 62
     7
100
AcDbLine
 10
451.339662542137
 20
157.5
 30
0.0
 11
451.339662542137
 21
190.98
 31
0.0
  0
LINE
  5
105
330
4D
100
AcDbEntity
  8
1
  6
Continuous
 62
     7
100
AcDbLine
 10
444.839662542137
 20
189.25
 30
0.0
 11
431.439662542136
 21
189.25
 31
0.0
  0
LINE
  5
106
330
4D
100
AcDbEntity
  8
1
  6
Continuous
 62
     7
100
AcDbLine
 10
444.839662542137
 20
171.75
 30
0.0
 11
421.7436714707052
 21
171.75
 31
0.0
  0
LINE
  5
107
330
4D
100
AcDbEntity
  8
1
  6
Continuous
 62
     7
100
AcDbLine
 10
465.339662542137
 20
189.8199999999999
 30
0.0
 11
465.339662542137
 21
174.0
 31
0.0
  0
LINE
  5
108
330
4D
100
AcDbEntity
  8
1
  6
Continuous
 62
     7
100
AcDbLine
 10
465.339662542137
 20
174.0
 30
0.0
 11
465.339662542137
 21
171.18
 31
0.0
  0
LINE
  5
109
330
4D
100
AcDbEntity
  8
1
  6
Continuous
 62
     7
100
AcDbLine
 10
448.839662542137
 20
158.0
 30
0.0
 11
448.839662542137
 21
167.75
 31
0.0
  0
LINE
  5
10A
330
4D
100
AcDbEntity
  8
1
  6
Continuous
 62
     7
100
AcDbLine
 10
451.339662542137
 20
190.98
 30
0.0
 11
451.339662542137
 21
203.5
 31
0.0
  0
LINE
  5
10B
330
4D
100
AcDbEntity
  8
1
  6
Continuous
 62
     7
100
AcDbLine
 10
448.839662542137
 20
203.0
 30
0.0
 11
448.839662542137
 21
193.25
 31
0.0
  0
LINE
  5
10C
330
4D
100
AcDbEntity
  8
1
  6
Continuous
 62
     7
100
AcDbLine
 10
449.339662542137
 20
203.5
 30
0.0
 11
451.339662542137
 21
203.5
 31
0.0
  0
LINE
  5
10D
330
4D
100
AcDbEntity
  8
1
  6
Continuous
 62
     7
100
AcDbLine
 10
449.339662542137
 20
157.5
 30
0.0
 11
451.339662542137
 21
157.5
 31
0.0
  0
LINE
  5
10E
330
4D
100
AcDbEntity
  8
1
  6
Continuous
 62
     7
100
AcDbLine
 10
393.6546625421362
 20
204.5
 30
0.0
 11
401.8396625421361
 21
204.5
 31
0.0
  0
LINE
  5
10F
330
4D
100
AcDbEntity
  8
1
  6
Continuous
 62
     7
100
AcDbLine
 10
393.6546625421362
 20
204.5
 30
0.0
 11
392.839662542137
 21
204.5
 31
0.0
  0
LINE
  5
110
330
4D
100
AcDbEntity
  8
1
  6
Continuous
 62
     7
100
AcDbLine
 10
418.839662542137
 20
204.5
 30
0.0
 11
418.839662542137
 21
203.0883785918313
 31
0.0
  0
LINE
  5
111
330
4D
100
AcDbEntity
  8
1
  6
Continuous
 62
     7
100
AcDbLine
 10
392.839662542137
 20
204.5
 30
0.0
 11
392.839662542137
 21
203.0883785918313
 31
0.0
  0
LINE
  5
112
330
4D
100
AcDbEntity
  8
1
  6
Continuous
 62
     2
100
AcDbLine
 10
418.0246625421361
 20
204.5
 30
0.0
 11
418.839662542137
 21
203.0883785918313
 31
0.0
  0
LINE
  5
113
330
4D
100
AcDbEntity
  8
1
  6
Continuous
 62
     2
100
AcDbLine
 10
393.6546625421362
 20
204.5
 30
0.0
 11
392.839662542137
 21
203.0883785918313
 31
0.0
  0
LINE
  5
114
330
4D
100
AcDbEntity
  8
1
  6
Continuous
 62
     7
100
AcDbLine
 10
418.839662542137
 20
203.0883785918313
 30
0.0
 11
418.839662542137
 21
202.25
 31
0.0
  0
LINE
  5
115
330
4D
100
AcDbEntity
  8
1
  6
Continuous
 62
     7
100
AcDbLine
 10
392.839662542137
 20
203.0883785918313
 30
0.0
 11
392.839662542137
 21
202.25
 31
0.0
  0
LINE
  5
116
330
4D
100
AcDbEntity
  8
1
  6
Continuous
 62
     7
100
AcDbLine
 10
393.2396625421362
 20
201.05
 30
0.0
 11
393.2396625421362
 21
189.527181176869
 31
0.0
  0
LINE
  5
117
330
4D
100
AcDbEntity
  8
1
  6
Continuous
 62
     2
100
AcDbLine
 10
418.0246625421361
 20
206.0
 30
0.0
 11
418.0246625421361
 21
204.5
 31
0.0
  0
LINE
  5
118
330
4D
100
AcDbEntity
  8
1
  6
Continuous
 62
     7
100
AcDbLine
 10
418.839662542137
 20
206.0
 30
0.0
 11
418.839662542137
 21
204.5
 31
0.0
  0
LINE
  5
119
330
4D
100
AcDbEntity
  8
1
  6
Continuous
 62
     2
100
AcDbLine
 10
393.6546625421362
 20
206.0
 30
0.0
 11
393.6546625421362
 21
204.5
 31
0.0
  0
LINE
  5
11A
330
4D
100
AcDbEntity
  8
1
  6
Continuous
 62
     7
100
AcDbLine
 10
392.839662542137
 20
206.0
 30
0.0
 11
392.839662542137
 21
204.5
 31
0.0
  0
LINE
  5
11B
330
4D
100
AcDbEntity
  8
1
  6
Continuous
 62
     7
100
AcDbLine
 10
409.8396625421361
 20
204.5
 30
0.0
 11
418.839662542137
 21
204.5
 31
0.0
  0
LINE
  5
11C
330
4D
100
AcDbEntity
  8
1
  6
Continuous
 62
     7
100
AcDbLine
 10
448.839662542137
 20
167.75
 30
0.0
 11
448.839662542137
 21
192.75
 31
0.0
  0
ARC
  5
11D
330
4D
100
AcDbEntity
  8
1
  6
Continuous
 62
     7
100
AcDbCircle
 10
153.7993404628273
 20
200.8609867316573
 30
0.0
 40
8.000000000003036
100
AcDbArc
 50
178.1550270729749
 51
188.4575806093442
  0
ARC
  5
11E
330
4D
100
AcDbEntity
  8
1
  6
Continuous
 62
     7
100
AcDbCircle
 10
153.7993404628273
 20
200.8609867316573
 30
0.0
 40
8.000000000000066
100
AcDbArc
 50
188.4575806093442
 51
260.8737686967814
  0
ARC
  5
11F
330
4D
100
AcDbEntity
  8
1
  6
Continuous
 62
     7
100
AcDbCircle
 10
133.1993404628271
 20
180.4999999999999
 30
0.0
 40
22.99999999999933
100
AcDbArc
 50
32.80879508619745
 51
56.52255421993721
  0
ARC
  5
120
330
4D
100
AcDbEntity
  8
1
  6
Continuous
 62
     7
100
AcDbCircle
 10
133.1993404628271
 20
180.4999999999999
 30
0.0
 40
22.99999999999996
100
AcDbArc
 50
123.2180009059104
 51
327.3201497509062
  0
ARC
  5
121
330
4D
100
AcDbEntity
  8
1
  6
Continuous
 62
     7
100
AcDbCircle
 10
105.0993404628272
 20
187.6686818872089
 30
0.0
 40
15.49999999999961
100
AcDbArc
 50
345.68835657951
 51
0.0
  0
ARC
  5
122
330
4D
100
AcDbEntity
  8
1
  6
Continuous
 62
     7
100
AcDbCircle
 10
118.5993404628272
 20
201.05
 30
0.0
 40
2.0
100
AcDbArc
 50
0.0
 51
36.86989764584101
  0
ARC
  5
123
330
4D
100
AcDbEntity
  8
1
  6
Continuous
 62
     7
100
AcDbCircle
 10
133.1993404628271
 20
180.4999999999999
 30
0.0
 40
13.50000000000028
100
AcDbArc
 50
165.6883565795104
 51
273.2614796421407
  0
ARC
  5
124
330
4D
100
AcDbEntity
  8
1
  6
Continuous
 62
     7
100
AcDbCircle
 10
153.7993404628273
 20
200.8609867316573
 30
0.0
 40
8.000000000000131
100
AcDbArc
 50
260.8737686967814
 51
266.7385203578568
  0
ARC
  5
125
330
4D
100
AcDbEntity
  8
1
  6
Continuous
 62
     7
100
AcDbCircle
 10
147.8024508786952
 20
201.0541584576099
 30
0.0
 40
1.999999999992552
100
AcDbArc
 50
143.2788714599888
 51
178.1550270729749
  0
ARC
  5
126
330
4D
100
AcDbEntity
  8
1
  6
Continuous
 62
     7
100
AcDbCircle
 10
431.439662542136
 20
202.25
 30
0.0
 40
13.00000000001165
100
AcDbArc
 50
185.8426577750617
 51
270.0
  0
ARC
  5
127
330
4D
100
AcDbEntity
  8
1
  6
Continuous
 62
     7
100
AcDbCircle
 10
391.2396625421362
 20
201.05
 30
0.0
 40
2.0
100
AcDbArc
 50
0.0
 51
36.86989764583067
  0
ARC
  5
128
330
4D
100
AcDbEntity
  8
1
  6
Continuous
 62
     7
100
AcDbCircle
 10
420.4968053992792
 20
201.1302332604233
 30
0.0
 40
2.000000000009929
100
AcDbArc
 50
145.9522676295549
 51
185.8426577750591
  0
ARC
  5
129
330
4D
100
AcDbEntity
  8
1
  6
Continuous
 62
     7
100
AcDbCircle
 10
421.7436714707052
 20
156.25
 30
0.0
 40
15.5
100
AcDbArc
 50
90.0
 51
102.5647403276519
  0
ARC
  5
12A
330
4D
100
AcDbEntity
  8
1
  6
Continuous
 62
     7
100
AcDbCircle
 10
120.4493404628271
 20
624.841705382372
 30
0.0
 40
4.0
100
AcDbArc
 50
0.0
 51
90.0
  0
ARC
  5
12B
330
4D
100
AcDbEntity
  8
1
  6
Continuous
 62
     7
100
AcDbCircle
 10
145.9493404628271
 20
624.841705382372
 30
0.0
 40
4.0
100
AcDbArc
 50
90.0
 51
180.0
  0
ARC
  5
12C
330
4D
100
AcDbEntity
  8
1
  6
Continuous
 62
     7
100
AcDbCircle
 10
155.6993404628271
 20
629.341705382372
 30
0.0
 40
0.5
100
AcDbArc
 50
270.0
 51
0.0
  0
ARC
  5
12D
330
4D
100
AcDbEntity
  8
1
  6
Continuous
 62
     7
100
AcDbCircle
 10
110.6993404628271
 20
629.341705382372
 30
0.0
 40
0.5
100
AcDbArc
 50
180.0
 51
270.0
  0
ARC
  5
12E
330
4D
100
AcDbEntity
  8
1
  6
Continuous
 62
     7
100
AcDbCircle
 10
94.44934046282711
 20
605.2080113270994
 30
0.0
 40
30.00000000000054
100
AcDbArc
 50
344.8973630808144
 51
0.0
  0
ARC
  5
12F
330
4D
100
AcDbEntity
  8
1
  6
Continuous
 62
     7
100
AcDbCircle
 10
153.9493404628271
 20
610.9698881406651
 30
0.0
 40
12.0
100
AcDbArc
 50
180.0
 51
265.939492651352
  0
ARC
  5
130
330
4D
100
AcDbEntity
  8
1
  6
Continuous
 62
     7
100
AcDbCircle
 10
449.339662542137
 20
203.0
 30
0.0
 40
0.5
100
AcDbArc
 50
90.0
 51
180.0
  0
ARC
  5
131
330
4D
100
AcDbEntity
  8
1
  6
Continuous
 62
     7
100
AcDbCircle
 10
449.339662542137
 20
158.0
 30
0.0
 40
0.5
100
AcDbArc
 50
180.0
 51
270.0
  0
ARC
  5
132
330
4D
100
AcDbEntity
  8
1
  6
Continuous
 62
     7
100
AcDbCircle
 10
444.839662542137
 20
167.75
 30
0.0
 40
4.0
100
AcDbArc
 50
0.0
 51
90.0
  0
ARC
  5
133
330
4D
100
AcDbEntity
  8
1
  6
Continuous
 62
     7
100
AcDbCircle
 10
444.839662542137
 20
193.25
 30
0.0
 40
4.0
100
AcDbArc
 50
270.0
 51
0.0
  0
ENDBLK
  5
4F
330
4D
100
AcDbEntity
  8
0
100
AcDbBlockEnd
  0
BLOCK
  5
51
330
50
100
AcDbEntity
  8
0
100
AcDbBlockBegin
  2
61-6
 70
     0
 10
1119.047606737575
 20
872.7755885062804
 30
0.0
  3
61-6
  1

  0
LINE
  5
134
330
50
100
AcDbEntity
  8
1
  6
Continuous
 62
     7
100
AcDbLine
 10
141.1997227447718
 20
215.9999999999999
 30
0.0
 11
141.1997227447718
 21
299.1809899192305
 31
0.0
  0
LINE
  5
135
330
50
100
AcDbEntity
  8
1
  6
Continuous
 62
     7
100
AcDbLine
 10
125.1997227447718
 20
322.7481256797462
 30
0.0
 11
125.1997227447718
 21
369.4994200781533
 31
0.0
  0
LINE
  5
136
330
50
100
AcDbEntity
  8
1
  6
Continuous
 62
     7
100
AcDbLine
 10
141.1997227447718
 20
322.7477850494975
 30
0.0
 11
141.1997227447718
 21
369.4994200781533
 31
0.0
  0
LINE
  5
137
330
50
100
AcDbEntity
  8
1
  6
Continuous
 62
     7
100
AcDbLine
 10
125.1997227447718
 20
215.9999999999999
 30
0.0
 11
125.1997227447719
 21
299.1807228882958
 31
0.0
  0
LINE
  5
138
330
50
100
AcDbEntity
  8
1
  6
Continuous
 62
     7
100
AcDbLine
 10
413.8396625421361
 20
216.0
 30
0.0
 11
413.8396625421361
 21
311.9998023600981
 31
0.0
  0
LINE
  5
139
330
50
100
AcDbEntity
  8
1
  6
Continuous
 62
     7
100
AcDbLine
 10
397.8396625421361
 20
216.0
 30
0.0
 11
397.8396625421361
 21
311.9998023600981
 31
0.0
  0
LINE
  5
13A
330
50
100
AcDbEntity
  8
1
  6
Continuous
 62
     7
100
AcDbLine
 10
300.1735952193933
 20
323.4138270079162
 30
0.0
 11
299.3534751368954
 21
319.9530004962196
 31
0.0
  0
LINE
  5
13B
330
50
100
AcDbEntity
  8
1
  6
Continuous
 62
     7
100
AcDbLine
 10
283.7846452952009
 20
323.6423822005654
 30
0.0
 11
284.6047653776985
 21
327.103208712261
 31
0.0
  0
LINE
  5
13C
330
50
100
AcDbEntity
  8
1
  6
Continuous
 62
     7
100
AcDbLine
 10
282.8115934300951
 20
323.8729685570868
 30
0.0
 11
283.7846452952009
 21
323.6423822005654
 31
0.0
  0
LINE
  5
13D
330
50
100
AcDbEntity
  8
1
  6
Continuous
 62
     7
100
AcDbLine
 10
280.0584374520576
 20
320.9284597422595
 30
0.0
 11
279.8101144893294
 21
319.8805611342228
 31
0.0
  0
LINE
  5
13E
330
50
100
AcDbEntity
  8
1
  6
Continuous
 62
     7
100
AcDbLine
 10
300.3265270020015
 20
319.722414139698
 30
0.0
 11
299.3534751368954
 21
319.9530004962196
 31
0.0
  0
LINE
  5
13F
330
50
100
AcDbEntity
  8
1
  6
Continuous
 62
     7
100
AcDbLine
 10
301.2172555216672
 20
314.8076612907796
 30
0.0
 11
301.4655784843877
 21
315.8555598987839
 31
0.0
  0
LINE
  5
140
330
50
100
AcDbEntity
  8
1
  6
Continuous
 62
     7
100
AcDbLine
 10
280.0584374520576
 20
320.9284597422595
 30
0.0
 11
301.4655784843877
 21
315.8555598987839
 31
0.0
  0
LINE
  5
141
330
50
100
AcDbEntity
  8
1
  6
Continuous
 62
     7
100
AcDbLine
 10
283.7846452952009
 20
323.6423822005654
 30
0.0
 11
299.3534751368954
 21
319.9530004962196
 31
0.0
  0
LINE
  5
142
330
50
100
AcDbEntity
  8
1
  6
Continuous
 62
     7
100
AcDbLine
 10
144.1993404628271
 20
318.3920098205218
 30
0.0
 11
144.1993404628271
 21
318.1565009393276
 31
0.0
  0
LINE
  5
143
330
50
100
AcDbEntity
  8
1
  6
Continuous
 62
     7
100
AcDbLine
 10
122.1993404628271
 20
318.3920098205218
 30
0.0
 11
122.1993404628272
 21
318.1565009393275
 31
0.0
  0
LINE
  5
144
330
50
100
AcDbEntity
  8
1
  6
Continuous
 62
     7
100
AcDbLine
 10
125.1993404628272
 20
586.3417053823724
 30
0.0
 11
125.1993404628272
 21
468.0592449157218
 31
0.0
  0
LINE
  5
145
330
50
100
AcDbEntity
  8
1
  6
Continuous
 62
     7
100
AcDbLine
 10
141.199340462827
 20
468.0592449157217
 30
0.0
 11
141.1993404628271
 21
586.3417053823724
 31
0.0
  0
ARC
  5
146
330
50
100
AcDbEntity
  8
1
  6
Continuous
 62
     7
100
AcDbCircle
 10
348.339662542136
 20
311.9998023600981
 30
0.0
 40
65.50000000000011
100
AcDbArc
 50
0.0
 51
90.0
  0
ARC
  5
147
330
50
100
AcDbEntity
  8
1
  6
Continuous
 62
     7
100
AcDbCircle
 10
133.1993404628271
 20
369.4994200781533
 30
0.0
 40
8.000382281944695
100
AcDbArc
 50
0.0
 51
180.0
  0
ARC
  5
148
330
50
100
AcDbEntity
  8
1
  6
Continuous
 62
     7
100
AcDbCircle
 10
348.339662542136
 20
311.9998023600981
 30
0.0
 40
49.50000000000011
100
AcDbArc
 50
0.0
 51
166.6684045456321
  0
ARC
  5
149
330
50
100
AcDbEntity
  8
1
  6
Continuous
 62
     7
100
AcDbCircle
 10
348.339662542136
 20
311.9998023600981
 30
0.0
 40
65.49999999999977
100
AcDbArc
 50
90.0
 51
166.6684045456326
  0
ARC
  5
14A
330
50
100
AcDbEntity
  8
1
  6
Continuous
 62
     7
100
AcDbCircle
 10
278.0926911267245
 20
325.5258330558419
 30
0.0
 40
5.000000000000293
100
AcDbArc
 50
303.552529947333
 51
340.6964481464861
  0
ARC
  5
14B
330
50
100
AcDbEntity
  8
1
  6
Continuous
 62
     7
100
AcDbCircle
 10
278.0926911267245
 20
325.5258330558419
 30
0.0
 40
4.999999999999977
100
AcDbArc
 50
293.150598350889
 51
303.552529947333
  0
ARC
  5
14C
330
50
100
AcDbEntity
  8
1
  6
Continuous
 62
     7
100
AcDbCircle
 10
305.2853352219493
 20
319.0819291377046
 30
0.0
 40
5.000000000000033
100
AcDbArc
 50
172.6403609447724
 51
209.7842791439273
  0
ARC
  5
14D
330
50
100
AcDbEntity
  8
1
  6
Continuous
 62
     7
100
AcDbCircle
 10
305.2853352219493
 20
319.0819291377046
 30
0.0
 40
4.999999999999908
100
AcDbArc
 50
209.7842791439273
 51
220.1862107403733
  0
ARC
  5
14E
330
50
100
AcDbEntity
  8
1
  6
Continuous
 62
     7
100
AcDbCircle
 10
147.9021752438132
 20
323.1120066460712
 30
0.0
 40
5.852328531525539
100
AcDbArc
 50
192.9781754198175
 51
220.49151171061
  0
ARC
  5
14F
330
50
100
AcDbEntity
  8
1
  6
Continuous
 62
     7
100
AcDbCircle
 10
118.4965056818409
 20
323.1120066460712
 30
0.0
 40
5.852328531525915
100
AcDbArc
 50
319.50848828939
 51
347.0218245800359
  0
ARC
  5
150
330
50
100
AcDbEntity
  8
1
  6
Continuous
 62
     7
100
AcDbCircle
 10
133.1993404628271
 20
586.3417053823724
 30
0.0
 40
8.0
100
AcDbArc
 50
0.0
 51
180.0
  0
SPLINE
  5
151
330
50
100
AcDbEntity
  8
1
  6
Continuous
 62
     7
100
AcDbSpline
210
0.0
220
0.0
230
1.0
 70
     8
 71
     3
 72
    45
 73
    41
 74
    39
 42
0.000000001
 43
0.0000000001
 44
0.00000001
 40
0.0
 40
0.0
 40
0.0
 40
0.0
 40
0.115088306324834
 40
0.2353624801796925
 40
0.5233826901029037
 40
0.8052242018102489
 40
1.197927030526033
 40
1.588101444546047
 40
2.103891556550646
 40
2.619457992320037
 40
3.257204235311753
 40
3.894640064176971
 40
4.640389739648201
 40
5.386056224452999
 40
6.220869615229184
 40
7.055625889148729
 40
7.956555868834553
 40
8.857459837714837
 40
9.799055447812584
 40
10.74063937139322
 40
11.69595017259012
 40
12.65126097378704
 40
13.59284489736765
 40
14.5344405074654
 40
15.43534447634566
 40
16.33627445603148
 40
17.17103072995105
 40
18.00584412072724
 40
18.75151060553204
 40
19.49726028100332
 40
20.13469610986852
 40
20.77244235286018
 40
21.28800878862956
 40
21.80379890063422
 40
22.19397331465425
 40
22.58667614337006
 40
22.86851765507742
 40
23.15653786500062
 40
23.27681203885554
 40
23.39190034518026
 40
23.39190034518026
 40
23.39190034518026
 40
23.39190034518026
 10
144.1993404628271
 20
318.3920098205218
 30
0.0
 10
144.1969530086419
 20
318.4304863056445
 30
0.0
 10
144.1920705364172
 20
318.5091730240171
 30
0.0
 10
144.1329491020604
 20
318.6747958866829
 30
0.0
 10
144.016716726236
 20
318.876508644305
 30
0.0
 10
143.7832389594101
 20
319.1007983836393
 30
0.0
 10
143.4866264748852
 20
319.2974241520629
 30
0.0
 10
143.1053522300067
 20
319.5033029746679
 30
0.0
 10
142.6685451388555
 20
319.6885910693158
 30
0.0
 10
142.1440344219667
 20
319.874745976443
 30
0.0
 10
141.5707116069354
 20
320.0420079592228
 30
0.0
 10
140.9167796386017
 20
320.2043152471427
 30
0.0
 10
140.221746504013
 20
320.3482980738402
 30
0.0
 10
139.4578529504676
 20
320.4820166059771
 30
0.0
 10
138.6609555149408
 20
320.5972882506559
 30
0.0
 10
137.810045947837
 20
320.6985395021211
 30
0.0
 10
136.9349777313761
 20
320.7810279662173
 30
0.0
 10
136.0228064492834
 20
320.8468729631626
 30
0.0
 10
135.0958882477915
 20
320.8936505396634
 30
0.0
 10
134.1500935094876
 20
320.9222425284623
 30
0.0
 10
133.1993404628271
 20
320.9315908596262
 30
0.0
 10
132.2485874161666
 20
320.9222425284621
 30
0.0
 10
131.3027926778627
 20
320.8936505396636
 30
0.0
 10
130.3758744763708
 20
320.8468729631628
 30
0.0
 10
129.4637031942782
 20
320.7810279662174
 30
0.0
 10
128.5886349778173
 20
320.6985395021211
 30
0.0
 10
127.7377254107134
 20
320.5972882506561
 30
0.0
 10
126.9408279751866
 20
320.4820166059772
 30
0.0
 10
126.1769344216413
 20
320.3482980738401
 30
0.0
 10
125.4819012870524
 20
320.2043152471429
 30
0.0
 10
124.8279693187188
 20
320.0420079592228
 30
0.0
 10
124.2546465036875
 20
319.874745976443
 30
0.0
 10
123.7301357867987
 20
319.688591069316
 30
0.0
 10
123.2933286956476
 20
319.5033029746679
 30
0.0
 10
122.9120544507689
 20
319.2974241520629
 30
0.0
 10
122.6154419662441
 20
319.1007983836392
 30
0.0
 10
122.3819641994182
 20
318.8765086443051
 30
0.0
 10
122.2657318235939
 20
318.6747958866829
 30
0.0
 10
122.2066103892369
 20
318.5091730240171
 30
0.0
 10
122.2017279170123
 20
318.4304863056444
 30
0.0
 10
122.1993404628271
 20
318.3920098205218
 30
0.0
 11
144.1993404628271
 21
318.3920098205218
 31
0.0
 11
144.1869885472433
 21
318.5064333688439
 31
0.0
 11
144.1499328004921
 21
318.6208569171658
 31
0.0
 11
144.0048836501255
 21
318.8696869490672
 31
0.0
 11
143.805886944452
 21
319.069273893447
 31
0.0
 11
143.4829661473694
 21
319.2927412732716
 31
0.0
 11
143.139931071255
 21
319.4786525679295
 31
0.0
 11
142.6666790572581
 21
319.6837670976485
 31
0.0
 11
142.1810667100195
 21
319.8569415686615
 31
0.0
 11
141.5695210092038
 21
320.0378617875092
 31
0.0
 11
140.9509749340405
 21
320.1918916163879
 31
0.0
 11
140.2210107963896
 21
320.3445184008881
 31
0.0
 11
139.4865772842189
 21
320.4734599453266
 31
0.0
 11
138.6604846431765
 21
320.5938108683862
 31
0.0
 11
137.8316040650511
 21
320.6926795835089
 31
0.0
 11
136.9346991919855
 21
320.7777470593298
 31
0.0
 11
136.0361415582361
 21
320.8427250428716
 31
0.0
 11
135.0957578658832
 21
320.8904827880663
 31
0.0
 11
134.1546037115374
 21
320.9189281907633
 31
0.0
 11
133.1993404628271
 21
320.9284597422593
 31
0.0
 11
132.2440772141168
 21
320.9189281907633
 31
0.0
 11
131.302923059771
 21
320.8904827880664
 31
0.0
 11
130.3625393674182
 21
320.8427250428718
 31
0.0
 11
129.4639817336687
 21
320.77774705933
 31
0.0
 11
128.5670768606032
 21
320.6926795835091
 31
0.0
 11
127.7381962824777
 21
320.5938108683863
 31
0.0
 11
126.9121036414353
 21
320.4734599453267
 31
0.0
 11
126.1776701292646
 21
320.3445184008881
 31
0.0
 11
125.4477059916137
 21
320.1918916163879
 31
0.0
 11
124.8291599164505
 21
320.0378617875092
 31
0.0
 11
124.2176142156348
 21
319.8569415686615
 31
0.0
 11
123.7320018683961
 21
319.6837670976486
 31
0.0
 11
123.2587498543992
 21
319.4786525679295
 31
0.0
 11
122.9157147782848
 21
319.2927412732716
 31
0.0
 11
122.5927939812022
 21
319.069273893447
 31
0.0
 11
122.3937972755287
 21
318.8696869490672
 31
0.0
 11
122.2487481251621
 21
318.6208569171657
 31
0.0
 11
122.2116923784108
 21
318.5064333688438
 31
0.0
 11
122.1993404628271
 21
318.3920098205218
 31
0.0
  0
SPLINE
  5
152
330
50
100
AcDbEntity
  8
1
  6
Continuous
 62
     7
100
AcDbSpline
210
0.0
220
0.0
230
1.0
 70
     8
 71
     3
 72
    43
 73
    39
 74
    37
 42
0.000000001
 43
0.0000000001
 44
0.00000001
 40
0.0
 40
0.0
 40
0.0
 40
0.0
 40
0.2356529007037012
 40
0.4662505000170781
 40
0.7875528144574986
 40
1.106786426064505
 40
1.528796517917994
 40
1.950623601948208
 40
2.472415982846628
 40
2.993954388544025
 40
3.604113214224107
 40
4.214203974794729
 40
4.897233112980307
 40
5.580215519149847
 40
6.31734004817865
 40
7.054443295569151
 40
7.824839703881953
 40
8.595226550420673
 40
9.376844478575567
 40
10.15846240667768
 40
10.92884925306364
 40
11.69924566113252
 40
12.4363489082161
 40
13.17347343688086
 40
13.85645584267584
 40
14.53948498046458
 40
15.14957574067157
 40
15.75973456598812
 40
16.28127297138035
 40
16.8030653519848
 40
17.2248924357921
 40
17.64690252745083
 40
17.96613613896051
 40
18.28743845345396
 40
18.51803605405615
 40
18.75368895321823
 40
18.85209509562734
 40
18.94625825519252
 40
18.94625825519252
 40
18.94625825519252
 40
18.94625825519252
 10
142.1589160118257
 20
321.9849298820104
 30
0.0
 10
142.1231232231924
 20
322.0555040932491
 30
0.0
 10
142.0523054964958
 20
322.1951385423181
 30
0.0
 10
141.8579785440305
 20
322.3772104410724
 30
0.0
 10
141.6164846743767
 20
322.5386042250638
 30
0.0
 10
141.3041594123
 20
322.7068877296468
 30
0.0
 10
140.9469011303536
 20
322.8585434408478
 30
0.0
 10
140.5177163954091
 20
323.0108347437467
 30
0.0
 10
140.0486470328488
 20
323.1476910960946
 30
0.0
 10
139.5136079502994
 20
323.2804862966335
 30
0.0
 10
138.9449456674067
 20
323.3982909465564
 30
0.0
 10
138.3199415067377
 20
323.5076968683597
 30
0.0
 10
137.6679346162723
 20
323.6020100767022
 30
0.0
 10
136.9717358503284
 20
323.6848519968833
 30
0.0
 10
136.2557709540851
 20
323.7523425617924
 30
0.0
 10
135.5094489935502
 20
323.8062157398052
 30
0.0
 10
134.7510613747293
 20
323.8444883023673
 30
0.0
 10
133.977229315956
 20
323.8678817473662
 30
0.0
 10
133.1993404597344
 20
323.8755303817024
 30
0.0
 10
132.4214516035078
 20
323.8678817468828
 30
0.0
 10
131.6476195450788
 20
323.8444883013337
 30
0.0
 10
130.8892319258667
 20
323.8062157386278
 30
0.0
 10
130.1429099679782
 20
323.7523425592411
 30
0.0
 10
129.4269450637684
 20
323.6848519976753
 30
0.0
 10
128.7307463271919
 20
323.6020100646492
 30
0.0
 10
128.0787393346042
 20
323.5076969008254
 30
0.0
 10
127.4537355181588
 20
323.3982908290864
 30
0.0
 10
126.8850720444708
 20
323.2804866981596
 30
0.0
 10
126.3500367976986
 20
323.1476898262275
 30
0.0
 10
125.8809544945196
 20
323.0108391130356
 30
0.0
 10
125.4518093625272
 20
322.8585305526381
 30
0.0
 10
125.0944217425023
 20
322.7069312024308
 30
0.0
 10
124.7824700875483
 20
322.5384848929664
 30
0.0
 10
124.539787145735
 20
322.3776092641402
 30
0.0
 10
124.3487598816726
 20
322.1940994772919
 30
0.0
 10
124.2536606658584
 20
322.0290617662873
 30
0.0
 10
124.2052885817886
 20
321.8935521514701
 30
0.0
 10
124.201293834429
 20
321.8291721088797
 30
0.0
 10
124.1993404628271
 20
321.7976913483767
 30
0.0
 11
142.1589160118257
 21
321.9849298820104
 31
0.0
 11
142.0402394342531
 21
322.1885180899296
 31
0.0
 11
141.8774239477929
 21
322.3518164989678
 31
0.0
 11
141.6132160229072
 21
322.534653446097
 31
0.0
 11
141.3325509606318
 21
322.6867626871806
 31
0.0
 11
140.9453447673616
 21
322.8545836660415
 31
0.0
 11
140.5480255741663
 21
322.9962718695975
 31
0.0
 11
140.0476700007716
 21
323.1442975032003
 31
0.0
 11
139.5415868483653
 21
323.2703219086466
 31
0.0
 11
138.9443434630145
 21
323.3951983686921
 31
0.0
 11
138.3434433166931
 21
323.50069599596
 31
0.0
 11
137.6675493376584
 21
323.5991649330088
 31
0.0
 11
136.9893743191922
 21
323.6800575181093
 31
0.0
 11
136.2555430594112
 21
323.7496581801446
 31
0.0
 11
135.520359540889
 21
323.8028219848607
 31
0.0
 11
134.7509547016912
 21
323.8418965036562
 31
0.0
 11
133.9809194844992
 21
323.8651700149537
 31
0.0
 11
133.1993404628271
 21
323.8729685570868
 31
0.0
 11
132.4177614411551
 21
323.8651700149536
 31
0.0
 11
131.6477262239631
 21
323.8418965036561
 31
0.0
 11
130.8783213847653
 21
323.8028219848605
 31
0.0
 11
130.143137866243
 21
323.7496581801446
 31
0.0
 11
129.4093066064621
 21
323.6800575181093
 31
0.0
 11
128.7311315879958
 21
323.5991649330086
 31
0.0
 11
128.0552376089611
 21
323.50069599596
 31
0.0
 11
127.4543374626396
 21
323.3951983686921
 31
0.0
 11
126.8570940772889
 21
323.2703219086466
 31
0.0
 11
126.3510109248826
 21
323.1442975032003
 31
0.0
 11
125.8506553514879
 21
322.9962718695976
 31
0.0
 11
125.4533361582926
 21
322.8545836660417
 31
0.0
 11
125.0661299650225
 21
322.6867626871808
 31
0.0
 11
124.7854649027471
 21
322.5346534460971
 31
0.0
 11
124.5212569778614
 21
322.3518164989678
 31
0.0
 11
124.3584414914012
 21
322.1885180899296
 31
0.0
 11
124.2397649138285
 21
321.9849298820104
 31
0.0
 11
124.2094465755757
 21
321.8913106151936
 31
0.0
 11
124.1993404628271
 21
321.7976913483767
 31
0.0
  0
SPLINE
  5
153
330
50
100
AcDbEntity
  8
1
  6
Continuous
 62
     7
100
AcDbSpline
210
0.0
220
0.0
230
1.0
 70
     8
 71
     3
 72
     9
 73
     5
 74
     3
 42
0.000000001
 43
0.0000000001
 44
0.00000001
 40
0.0
 40
0.0
 40
0.0
 40
0.0
 40
0.0941631586031092
 40
0.1925692994107528
 40
0.1925692994107528
 40
0.1925692994107528
 40
0.1925692994107528
 10
142.1993404628271
 20
321.7976913484072
 30
0.0
 10
142.1975124623127
 20
321.8292267408332
 30
0.0
 10
142.1937740721834
 20
321.8937185041201
 30
0.0
 10
142.1707048043041
 20
321.9540827452607
 30
0.0
 10
142.1589160118257
 20
321.9849298820104
 30
0.0
 11
142.1993404628271
 21
321.7976913484072
 31
0.0
 11
142.1892343500752
 21
321.8913106152089
 31
0.0
 11
142.1589160118257
 21
321.9849298820104
 31
0.0
  0
SPLINE
  5
154
330
50
100
AcDbEntity
  8
1
  6
Continuous
 62
     7
100
AcDbSpline
210
0.0
220
0.0
230
1.0
 70
     8
 71
     3
 72
    49
 73
    45
 74
    43
 42
0.000000001
 43
0.0000000001
 44
0.00000001
 40
0.0
 40
0.0
 40
0.0
 40
0.0
 40
0.7648273189940906
 40
1.529644281676723
 40
2.296298845274276
 40
3.062934174901131
 40
3.832376443662007
 40
4.601793281645276
 40
5.374639557092735
 40
6.147457568744455
 40
6.923908642835755
 40
7.70033212776853
 40
8.48015430526411
 40
9.25995276092657
 40
10.04251104562975
 40
10.82505204074241
 40
11.60938920175501
 40
12.39371727111549
 40
13.17866819053557
 40
13.96361910995531
 40
14.74794717931499
 40
15.53228434032629
 40
16.31482533543804
 40
17.09738362014098
 40
17.87718207580534
 40
18.65700425330584
 40
19.43342773824901
 40
20.20987881235866
 40
20.98269682404188
 40
21.75554309954058
 40
22.52495993760891
 40
23.29440220651266
 40
24.06103753640188
 40
24.82769210055492
 40
25.59250906489153
 40
26.35733639090599
 40
27.12152450175754
 40
27.88571261261302
 40
28.6505399386307
 40
29.41535690296087
 40
30.18201146702717
 40
30.94864679604839
 40
31.12246858628416
 40
31.29605164487572
 40
31.29605164487572
 40
31.29605164487572
 40
31.29605164487572
 10
124.2336825448599
 20
471.3076869899198
 30
0.0
 10
124.2630642018844
 20
471.0542689785949
 30
0.0
 10
124.3218271289494
 20
470.5474363889341
 30
0.0
 10
124.4962486468844
 20
469.8005498090218
 30
0.0
 10
124.7315573367874
 20
469.0707199326122
 30
0.0
 10
125.033208899582
 20
468.3637068968493
 30
0.0
 10
125.3960839090301
 20
467.6851654413984
 30
0.0
 10
125.8190642251176
 20
467.0398605876736
 30
0.0
 10
126.2975107154296
 20
466.4331200827859
 30
0.0
 10
126.8291310932529
 20
465.8691683220784
 30
0.0
 10
127.4084944957812
 20
465.352599258427
 30
0.0
 10
128.0325469362647
 20
464.887113942758
 30
0.0
 10
128.6952035005123
 20
464.476335360514
 30
0.0
 10
129.3926776406818
 20
464.1234049558062
 30
0.0
 10
130.1185167058854
 20
463.8308260105041
 30
0.0
 10
130.8682037834866
 20
463.6011025438186
 30
0.0
 10
131.6352266061963
 20
463.4355634125463
 30
0.0
 10
132.4143678255669
 20
463.3359569060601
 30
0.0
 10
133.1993404610034
 20
463.3024715376818
 30
0.0
 10
133.9843130964558
 20
463.335956905992
 30
0.0
 10
134.7634543157942
 20
463.4355634124148
 30
0.0
 10
135.5304771386641
 20
463.6011025436057
 30
0.0
 10
136.2801642157396
 20
463.8308260102725
 30
0.0
 10
137.0060032830037
 20
464.1234049553237
 30
0.0
 10
137.7034774156479
 20
464.4763353606439
 30
0.0
 10
138.3661340081053
 20
464.887113940287
 30
0.0
 10
138.9901863439904
 20
465.3525992653043
 30
0.0
 10
139.5695501362549
 20
465.8691682938374
 30
0.0
 10
140.1011690664789
 20
466.433120184726
 30
0.0
 10
140.5796209467919
 20
467.0398602046728
 30
0.0
 10
141.0025812329938
 20
467.6851668603455
 30
0.0
 10
141.3655308383072
 20
468.3637016049174
 30
0.0
 10
141.6669049739728
 20
469.0707395992061
 30
0.0
 10
141.9032474482274
 20
469.8004764732112
 30
0.0
 10
142.0738196153659
 20
470.5477093576519
 30
0.0
 10
142.1762946415163
 20
471.3064567373903
 30
0.0
 10
142.2108588797853
 20
472.0711030881711
 30
0.0
 10
142.1762933155209
 20
472.8357492987802
 30
0.0
 10
142.0738249217758
 20
473.594497099264
 30
0.0
 10
141.9032275249861
 20
474.3417284391109
 30
0.0
 10
141.6669795448784
 20
475.0714710824719
 30
0.0
 10
141.4432963808898
 20
475.5956119357479
 30
0.0
 10
141.2797097946281
 20
475.9290066930206
 30
0.0
 10
141.2261179673023
 20
476.0316665459362
 30
0.0
 10
141.1993404628289
 20
476.0829611968428
 30
0.0
 11
124.2336825448599
 21
471.3076869899198
 31
0.0
 11
124.3361840387035
 21
470.5497593663308
 31
0.0
 11
124.5062057997355
 21
469.8040800854445
 31
0.0
 11
124.7425244555232
 21
469.0747566222934
 31
0.0
 11
125.0429417173528
 21
468.3694345695559
 31
0.0
 11
125.4059282922912
 21
467.6909935980284
 31
0.0
 11
125.8275309073526
 21
467.0473683142336
 31
0.0
 11
126.3061234630029
 21
466.4405400588773
 31
0.0
 11
126.8360774010305
 21
465.8780487229212
 31
0.0
 11
127.4156486035642
 21
465.3613539465209
 31
0.0
 11
128.0378905654772
 21
464.8969743936898
 31
0.0
 11
128.7007168199084
 21
464.4861411121228
 31
0.0
 11
129.3964294746306
 21
464.1339060573639
 31
0.0
 11
130.1222598125575
 21
463.8413863318939
 31
0.0
 11
130.8704183529561
 21
463.6119757659961
 31
0.0
 11
131.6371178023776
 21
463.4465770456653
 31
0.0
 11
132.4150988100013
 21
463.3469975676174
 31
0.0
 11
133.1993404628272
 21
463.3136362703312
 31
0.0
 11
133.9835821156531
 21
463.3469975676176
 31
0.0
 11
134.7615631232768
 21
463.4465770456654
 31
0.0
 11
135.5282625726982
 21
463.6119757659962
 31
0.0
 11
136.2764211130968
 21
463.8413863318939
 31
0.0
 11
137.0022514510237
 21
464.133906057364
 31
0.0
 11
137.6979641057459
 21
464.4861411121229
 31
0.0
 11
138.3607903601772
 21
464.8969743936898
 31
0.0
 11
138.9830323220903
 21
465.3613539465208
 31
0.0
 11
139.5626035246239
 21
465.8780487229212
 31
0.0
 11
140.0925574626513
 21
466.4405400588773
 31
0.0
 11
140.5711500183016
 21
467.0473683142336
 31
0.0
 11
140.9927526333631
 21
467.6909935980283
 31
0.0
 11
141.3557392083016
 21
468.3694345695558
 31
0.0
 11
141.6561564701311
 21
469.0747566222932
 31
0.0
 11
141.8924751259187
 21
469.8040800854444
 31
0.0
 11
142.0624968869506
 21
470.5497593663309
 31
0.0
 11
142.1649983807943
 21
471.3076869899198
 31
0.0
 11
142.1993404628271
 21
472.071103056284
 31
0.0
 11
142.1649983807943
 21
472.8345191226482
 31
0.0
 11
142.0624968869506
 21
473.5924467462371
 31
0.0
 11
141.8924751259187
 21
474.3381260271236
 31
0.0
 11
141.6561564701311
 21
475.0674494902748
 31
0.0
 11
141.3557392083014
 21
475.7727715430123
 31
0.0
 11
141.2790292095406
 21
475.9287510011503
 31
0.0
 11
141.1993404628289
 21
476.0829611968428
 31
0.0
  0
SPLINE
  5
155
330
50
100
AcDbEntity
  8
1
  6
Continuous
 62
     7
100
AcDbSpline
210
0.0
220
0.0
230
1.0
 70
     8
 71
     3
 72
    51
 73
    47
 74
    45
 42
0.000000001
 43
0.0000000001
 44
0.00000001
 40
0.0
 40
0.0
 40
0.0
 40
0.0
 40
0.9347889462284003
 40
1.869565234566763
 40
2.806587479267475
 40
3.74358621566445
 40
4.684015655393678
 40
5.624414013033268
 40
6.569003905333994
 40
7.513559252984294
 40
8.462555010274942
 40
9.411517047476604
 40
10.36463304225014
 40
11.31772004366781
 40
12.27418016946487
 40
13.23061916353702
 40
14.18925347148393
 40
15.14787666740889
 40
16.10726112451535
 40
17.06664558161909
 40
18.02526877753604
 40
18.9839030854693
 40
19.94034207952316
 40
20.89680220529747
 40
21.84988920668903
 40
22.8030052014334
 40
23.75196723860541
 40
24.70096299586705
 40
25.64551834349372
 40
26.59010823578073
 40
27.53050659342758
 40
28.47093603320298
 40
29.40793476973495
 40
30.34495701480738
 40
31.27973330454522
 40
32.21452225855192
 40
33.14852994957933
 40
34.08253764060927
 40
35.0173265946201
 40
35.9521028843623
 40
36.88912512942808
 40
37.82612386592665
 40
38.76655330558854
 40
39.70695166286935
 40
40.49453205217571
 40
41.28124606779078
 40
41.28124606779078
 40
41.28124606779078
 40
41.28124606779078
 10
122.2413141186448
 20
470.3309867273466
 30
0.0
 10
122.2772250328163
 20
470.0212536021316
 30
0.0
 10
122.3490463845277
 20
469.4017915471403
 30
0.0
 10
122.5622282415518
 20
468.4889301713707
 30
0.0
 10
122.8498277512943
 20
467.5969158776253
 30
0.0
 10
123.218512994985
 20
466.7327888337769
 30
0.0
 10
123.6620268955176
 20
465.903460388129
 30
0.0
 10
124.1790028375079
 20
465.1147544557351
 30
0.0
 10
124.7637707701898
 20
464.3731827274888
 30
0.0
 10
125.4135290098213
 20
463.6839083532506
 30
0.0
 10
126.1216398351939
 20
463.052546164308
 30
0.0
 10
126.8843705958396
 20
462.483619667349
 30
0.0
 10
127.6942841744142
 20
461.9815569556897
 30
0.0
 10
128.5467525680009
 20
461.5501975721328
 30
0.0
 10
129.4338892032928
 20
461.1926010834064
 30
0.0
 10
130.3501734092906
 20
460.9118279574349
 30
0.0
 10
131.287645748197
 20
460.709502352525
 30
0.0
 10
132.2399294607987
 20
460.5877610667987
 30
0.0
 10
133.1993404597022
 20
460.5468345054273
 30
0.0
 10
134.1587514586245
 20
460.5877610666755
 30
0.0
 10
135.1110351711848
 20
460.7095023522834
 30
0.0
 10
136.0485075102835
 20
460.9118279570537
 30
0.0
 10
136.9647917156334
 20
461.1926010829603
 30
0.0
 10
137.8519283534365
 20
461.5501975713381
 30
0.0
 10
138.7043967378156
 20
461.9815569555992
 30
0.0
 10
139.5143103508562
 20
462.483619664033
 30
0.0
 10
140.2770409836413
 20
463.0525461723693
 30
0.0
 10
140.9851522853404
 20
463.6839083183353
 30
0.0
 10
141.6349087556406
 20
464.3731828516255
 30
0.0
 10
142.2196832761152
 20
465.1147539870939
 30
0.0
 10
142.7366347368794
 20
465.9034621218002
 30
0.0
 10
143.180239810796
 20
466.7327823650956
 30
0.0
 10
143.5485859740036
 20
467.5969399138462
 30
0.0
 10
143.837449008018
 20
468.4888405368868
 30
0.0
 10
144.0459260644512
 20
469.4021251761069
 30
0.0
 10
144.1711734558689
 20
470.3294830745884
 30
0.0
 10
144.2134181244614
 20
471.264050874191
 30
0.0
 10
144.1711732331792
 20
472.1986183247579
 30
0.0
 10
144.0459269535137
 20
473.1259772711106
 30
0.0
 10
143.8374456662775
 20
474.0392580641283
 30
0.0
 10
143.5485984764344
 20
474.931173055546
 30
0.0
 10
143.1801930739034
 20
475.7952768938318
 30
0.0
 10
142.7368098581093
 20
476.6247982871079
 30
0.0
 10
142.2478018701829
 20
477.3689670614203
 30
0.0
 10
141.7355338847367
 20
478.0338377881143
 30
0.0
 10
141.3780060203046
 20
478.4182879990692
 30
0.0
 10
141.1993404628342
 20
478.6104073151033
 30
0.0
 11
122.2413141186448
 21
470.3309867273466
 31
0.0
 11
122.3665937222316
 21
469.4046307429602
 31
0.0
 11
122.5743980968262
 21
468.4932449552101
 31
0.0
 11
122.8632320094556
 21
467.6018496113587
 31
0.0
 11
123.2304086628029
 21
466.7397893246795
 31
0.0
 11
123.674058921061
 21
465.9105836928125
 31
0.0
 11
124.189351006136
 21
465.1239305681744
 31
0.0
 11
124.7742974630418
 21
464.3822515894055
 31
0.0
 11
125.4220189428533
 21
463.6947621787925
 31
0.0
 11
126.13038374595
 21
463.0632463409698
 31
0.0
 11
126.8909016993993
 21
462.4956713319542
 31
0.0
 11
127.7010226770375
 21
461.9935417655945
 31
0.0
 11
128.5513381439203
 21
461.5630322542226
 31
0.0
 11
129.4384641124976
 21
461.2055081453149
 31
0.0
 11
130.3528801063181
 21
460.9251174536621
 31
0.0
 11
131.2899572111665
 21
460.7229634621465
 31
0.0
 11
132.240822887151
 21
460.6012552111992
 31
0.0
 11
133.199340462827
 21
460.5604802922938
 31
0.0
 11
134.1578580385032
 21
460.6012552111992
 31
0.0
 11
135.1087237144878
 21
460.7229634621465
 31
0.0
 11
136.0458008193362
 21
460.925117453662
 31
0.0
 11
136.9602168131566
 21
461.2055081453148
 31
0.0
 11
137.847342781734
 21
461.5630322542227
 31
0.0
 11
138.6976582486167
 21
461.9935417655948
 31
0.0
 11
139.5077792262549
 21
462.4956713319544
 31
0.0
 11
140.2682971797041
 21
463.0632463409701
 31
0.0
 11
140.9766619828009
 21
463.6947621787925
 31
0.0
 11
141.6243834626124
 21
464.3822515894054
 31
0.0
 11
142.2093299195183
 21
465.1239305681743
 31
0.0
 11
142.7246220045934
 21
465.9105836928125
 31
0.0
 11
143.1682722628515
 21
466.7397893246795
 31
0.0
 11
143.5354489161987
 21
467.6018496113585
 31
0.0
 11
143.8242828288281
 21
468.49324495521
 31
0.0
 11
144.0320872034227
 21
469.4046307429601
 31
0.0
 11
144.1573668070095
 21
470.3309867273466
 31
0.0
 11
144.1993404628273
 21
471.2640508084584
 31
0.0
 11
144.1573668070095
 21
472.1971148895702
 31
0.0
 11
144.0320872034227
 21
473.1234708739566
 31
0.0
 11
143.8242828288281
 21
474.0348566617067
 31
0.0
 11
143.5354489161987
 21
474.9262520055582
 31
0.0
 11
143.1682722628514
 21
475.7883122922374
 31
0.0
 11
142.7246220045934
 21
476.6175179241044
 31
0.0
 11
142.2093299195183
 21
477.4041710487425
 31
0.0
 11
141.7261401691108
 21
478.0261119920665
 31
0.0
 11
141.1993404628342
 21
478.6104073151033
 31
0.0
  0
SPLINE
  5
156
330
50
100
AcDbEntity
  8
1
  6
Continuous
 62
     7
100
AcDbSpline
210
0.0
220
0.0
230
1.0
 70
     8
 71
     3
 72
    43
 73
    39
 74
    37
 42
0.000000001
 43
0.0000000001
 44
0.00000001
 40
0.0
 40
0.0
 40
0.0
 40
0.0
 40
0.9347889484196276
 40
1.869565236320265
 40
2.806587480664302
 40
3.743586216824118
 40
4.684015656386059
 40
5.624414013899516
 40
6.569003906101489
 40
7.513559253672266
 40
8.462555010898042
 40
9.411517048046745
 40
10.36463304277724
 40
11.31772004416056
 40
12.27418016993076
 40
13.23061916398278
 40
14.18925347191547
 40
15.14787666783167
 40
16.10726112493416
 40
17.06664558203817
 40
18.02526877795901
 40
18.98390308589965
 40
19.9403420799633
 40
20.89680220574943
 40
21.84988920715372
 40
22.80300520191139
 40
23.75196723909531
 40
24.700962996367
 40
25.64551834399862
 40
26.59010823628293
 40
27.53050659391311
 40
28.47093603365115
 40
29.40793477010515
 40
30.34495701502459
 40
31.27973330442008
 40
32.21452225744932
 40
32.74423293524652
 40
33.27289397305993
 40
33.27289397305993
 40
33.27289397305993
 40
33.27289397305993
 10
122.2413141186448
 20
470.0826637646221
 30
0.0
 10
122.2772250329004
 20
469.7729306386811
 30
0.0
 10
122.3490463874448
 20
469.1534685834576
 30
0.0
 10
122.5622282445782
 20
468.2406072073438
 30
0.0
 10
122.849827754501
 20
467.3485929139865
 30
0.0
 10
123.2185129981353
 20
466.4844658704048
 30
0.0
 10
123.6620268986473
 20
465.6551374249426
 30
0.0
 10
124.1790028406094
 20
464.8664314926884
 30
0.0
 10
124.7637707732708
 20
464.1248597645547
 30
0.0
 10
125.4135290128859
 20
463.4355853904127
 30
0.0
 10
126.121639838246
 20
462.804223201555
 30
0.0
 10
126.8843705988823
 20
462.2352967046732
 30
0.0
 10
127.69428417745
 20
461.7332339930854
 30
0.0
 10
128.5467525710319
 20
461.3018746095958
 30
0.0
 10
129.4338892063204
 20
460.9442781209339
 30
0.0
 10
130.3501734123161
 20
460.6635049950248
 30
0.0
 10
131.2876457512209
 20
460.4611793901761
 30
0.0
 10
132.2399294638213
 20
460.33943810451
 30
0.0
 10
133.1993404627233
 20
460.2985115431981
 30
0.0
 10
134.1587514616425
 20
460.3394381045058
 30
0.0
 10
135.1110351742017
 20
460.4611793901721
 30
0.0
 10
136.0485075132852
 20
460.6635049950027
 30
0.0
 10
136.9647917186626
 20
460.9442781209653
 30
0.0
 10
137.8519283563214
 20
461.3018746094158
 30
0.0
 10
138.704396741178
 20
461.7332339936867
 30
0.0
 10
139.5143103523592
 20
462.2352967023653
 30
0.0
 10
140.2770409919445
 20
462.8042232100722
 30
0.0
 10
140.9851522681794
 20
463.4355853586583
 30
0.0
 10
141.6349088328941
 20
464.1248598824792
 30
0.0
 10
142.2196830015998
 20
464.8664310534552
 30
0.0
 10
142.7366357692799
 20
465.6551390564276
 30
0.0
 10
143.18023597553
 20
466.4844597904946
 30
0.0
 10
143.5486002413521
 20
467.3486155140891
 30
0.0
 10
143.8373958182442
 20
468.2405229380995
 30
0.0
 10
144.0461240535339
 20
469.1537822527756
 30
0.0
 10
144.1525081784748
 20
469.9474887523445
 30
0.0
 10
144.1971166311284
 20
470.6107586909382
 30
0.0
 10
144.1981040244061
 20
470.9636291013773
 30
0.0
 10
144.1985972253074
 20
471.1398893271045
 30
0.0
 11
122.2413141186448
 21
470.0826637646221
 31
0.0
 11
122.3665937222316
 21
469.1563077802353
 31
0.0
 11
122.5743980968262
 21
468.2449219924848
 31
0.0
 11
122.8632320094555
 21
467.353526648633
 31
0.0
 11
123.2304086628028
 21
466.4914663619536
 31
0.0
 11
123.6740589210608
 21
465.6622607300864
 31
0.0
 11
124.1893510061359
 21
464.875607605448
 31
0.0
 11
124.7742974630417
 21
464.1339286266788
 31
0.0
 11
125.4220189428532
 21
463.4464392160655
 31
0.0
 11
126.13038374595
 21
462.8149233782427
 31
0.0
 11
126.8909016993992
 21
462.2473483692269
 31
0.0
 11
127.7010226770374
 21
461.745218802867
 31
0.0
 11
128.5513381439201
 21
461.3147092914948
 31
0.0
 11
129.4384641124974
 21
460.9571851825868
 31
0.0
 11
130.352880106318
 21
460.6767944909339
 31
0.0
 11
131.2899572111664
 21
460.4746404994183
 31
0.0
 11
132.240822887151
 21
460.3529322484711
 31
0.0
 11
133.199340462827
 21
460.3121573295658
 31
0.0
 11
134.1578580385031
 21
460.3529322484711
 31
0.0
 11
135.1087237144877
 21
460.4746404994184
 31
0.0
 11
136.0458008193361
 21
460.676794490934
 31
0.0
 11
136.9602168131566
 21
460.9571851825868
 31
0.0
 11
137.847342781734
 21
461.3147092914948
 31
0.0
 11
138.6976582486168
 21
461.745218802867
 31
0.0
 11
139.5077792262549
 21
462.2473483692268
 31
0.0
 11
140.2682971797041
 21
462.8149233782427
 31
0.0
 11
140.976661982801
 21
463.4464392160655
 31
0.0
 11
141.6243834626126
 21
464.1339286266788
 31
0.0
 11
142.2093299195183
 21
464.875607605448
 31
0.0
 11
142.7246220045932
 21
465.6622607300864
 31
0.0
 11
143.1682722628514
 21
466.4914663619536
 31
0.0
 11
143.5354489161988
 21
467.353526648633
 31
0.0
 11
143.8242828288281
 21
468.2449219924848
 31
0.0
 11
144.0320872034226
 21
469.1563077802352
 31
0.0
 11
144.1573668070093
 21
470.082663764622
 31
0.0
 11
144.1914539261851
 21
470.6112765458632
 31
0.0
 11
144.1985972253074
 21
471.1398893271045
 31
0.0
  0
SPLINE
  5
157
330
50
100
AcDbEntity
  8
1
  6
Continuous
 62
     7
100
AcDbSpline
210
0.0
220
0.0
230
1.0
 70
     8
 71
     3
 72
     9
 73
     5
 74
     3
 42
0.000000001
 43
0.0000000001
 44
0.00000001
 40
0.0
 40
0.0
 40
0.0
 40
0.0
 40
0.5286610435263811
 40
1.058371722966888
 40
1.058371722966888
 40
1.058371722966888
 40
1.058371722966888
 10
122.2000837003466
 20
471.1398893270998
 30
0.0
 10
122.2002273316312
 20
470.9635978649731
 30
0.0
 10
122.2005148993565
 20
470.6106649214105
 30
0.0
 10
122.2277053835368
 20
470.2587804765365
 30
0.0
 10
122.2413141186448
 20
470.0826637646221
 30
0.0
 11
122.2000837003466
 21
471.1398893270998
 31
0.0
 11
122.2072269994691
 21
470.611276545861
 31
0.0
 11
122.2413141186448
 21
470.0826637646221
 31
0.0
  0
SPLINE
  5
158
330
50
100
AcDbEntity
  8
1
  6
Continuous
 62
     7
100
AcDbSpline
210
0.0
220
0.0
230
1.0
 70
     8
 71
     3
 72
    17
 73
    13
 74
    11
 42
0.000000001
 43
0.0000000001
 44
0.00000001
 40
0.0
 40
0.0
 40
0.0
 40
0.0
 40
0.786714023102089
 40
1.574294413023297
 40
2.514692769989709
 40
3.455122209157468
 40
4.3921209451159
 40
5.329143189613797
 40
6.263919478751292
 40
7.198708432102186
 40
8.132716122385396
 40
9.066723812994866
 40
9.066723812994866
 40
9.066723812994866
 40
9.066723812994866
 10
125.1993404628109
 20
478.610407315094
 30
0.0
 10
125.0206748801894
 20
478.4182879951217
 30
0.0
 10
124.6631469707675
 20
478.033837774491
 30
0.0
 10
124.1508793597555
 20
477.3689670789235
 30
0.0
 10
123.6618696754294
 20
476.6247981512875
 30
0.0
 10
123.2184930142864
 20
475.7952773477983
 30
0.0
 10
122.8500632748398
 20
474.9311713203331
 30
0.0
 10
122.561306764903
 20
474.0392644872084
 30
0.0
 10
122.3524878306962
 20
473.1259533187213
 30
0.0
 10
122.2285007036939
 20
472.1987076509645
 30
0.0
 10
122.1815602765635
 20
471.2637177733238
 30
0.0
 10
122.221396166415
 20
470.6418970758229
 30
0.0
 10
122.2413141186448
 20
470.3309867273466
 30
0.0
 11
125.1993404628109
 21
478.610407315094
 31
0.0
 11
124.6725407565394
 21
478.0261119920616
 31
0.0
 11
124.1893510061361
 21
477.4041710487423
 31
0.0
 11
123.674058921061
 21
476.6175179241043
 31
0.0
 11
123.2304086628029
 21
475.7883122922374
 31
0.0
 11
122.8632320094556
 21
474.9262520055584
 31
0.0
 11
122.5743980968263
 21
474.0348566617068
 31
0.0
 11
122.3665937222318
 21
473.1234708739567
 31
0.0
 11
122.241314118645
 21
472.1971148895702
 31
0.0
 11
122.199340462827
 21
471.2640508084584
 31
0.0
 11
122.2413141186448
 21
470.3309867273466
 31
0.0
  0
SPLINE
  5
159
330
50
100
AcDbEntity
  8
1
  6
Continuous
 62
     7
100
AcDbSpline
210
0.0
220
0.0
230
1.0
 70
     8
 71
     3
 72
    15
 73
    11
 74
     9
 42
0.000000001
 43
0.0000000001
 44
0.00000001
 40
0.0
 40
0.0
 40
0.0
 40
0.0
 40
0.1735830653773685
 40
0.3474048565143145
 40
1.114040184818871
 40
1.880694748269347
 40
2.645511712183636
 40
3.410339037877602
 40
4.174527148477583
 40
4.938715259566153
 40
4.938715259566153
 40
4.938715259566153
 40
4.938715259566153
 10
125.1993404628374
 20
476.0829611968655
 30
0.0
 10
125.1725629280678
 20
476.0316665413223
 30
0.0
 10
125.1189710446497
 20
475.9290066789786
 30
0.0
 10
124.9553853990567
 20
475.595612003055
 30
0.0
 10
124.7316849862334
 20
475.071469597898
 30
0.0
 10
124.495512095947
 20
474.3417337102599
 30
0.0
 10
124.3246382048421
 20
473.5944774962924
 30
0.0
 10
124.2232000826968
 20
472.8358223832446
 30
0.0
 10
124.184792730607
 20
472.0708305508349
 30
0.0
 10
124.2173859352307
 20
471.5620681767283
 30
0.0
 10
124.2336825448599
 20
471.3076869899198
 30
0.0
 11
125.1993404628374
 21
476.0829611968655
 31
0.0
 11
125.1196517161194
 21
475.9287510011618
 31
0.0
 11
125.0429417173528
 21
475.7727715430121
 31
0.0
 11
124.7425244555233
 21
475.0674494902747
 31
0.0
 11
124.5062057997357
 21
474.3381260271236
 31
0.0
 11
124.3361840387038
 21
473.5924467462372
 31
0.0
 11
124.23368254486
 21
472.8345191226483
 31
0.0
 11
124.1993404628271
 21
472.071103056284
 31
0.0
 11
124.2336825448599
 21
471.3076869899198
 31
0.0
  0
ENDBLK
  5
52
330
50
100
AcDbEntity
  8
0
100
AcDbBlockEnd
  0
BLOCK
  5
54
330
53
100
AcDbEntity
  8
0
100
AcDbBlockBegin
  2
30-111
 70
     0
 10
657.3878695721462
 20
1034.587132839675
 30
0.0
  3
30-111
  1

  0
LINE
  5
15A
330
53
100
AcDbEntity
  8
1
  6
Continuous
 62
     7
100
AcDbLine
 10
121.4493404628273
 20
467.5565502159621
 30
0.0
 11
121.4493404628273
 21
470.9692282924816
 31
0.0
  0
LINE
  5
15B
330
53
100
AcDbEntity
  8
1
  6
Continuous
 62
     7
100
AcDbLine
 10
144.9493404628272
 20
467.5565502159621
 30
0.0
 11
144.9493404628272
 21
470.9692282924816
 31
0.0
  0
LINE
  5
15C
330
53
100
AcDbEntity
  8
1
  6
Continuous
 62
     7
100
AcDbLine
 10
279.2749359635208
 20
320.0073836303096
 30
0.0
 11
301.7524340474423
 21
314.6808387947015
 31
0.0
  0
LINE
  5
15D
330
53
100
AcDbEntity
  8
1
  6
Continuous
 62
     7
100
AcDbLine
 10
275.6215302426758
 20
305.4577229250252
 30
0.0
 11
279.0342083191953
 21
319.8588905285927
 31
0.0
  0
LINE
  5
15E
330
53
100
AcDbEntity
  8
1
  6
Continuous
 62
     7
100
AcDbLine
 10
286.5937169446272
 20
300.8022295056843
 30
0.0
 11
276.2307145812492
 21
303.2579742026391
 31
0.0
  0
LINE
  5
15F
330
53
100
AcDbEntity
  8
1
  6
Continuous
 62
     7
100
AcDbLine
 10
296.9567193080053
 20
298.3464848087294
 30
0.0
 11
286.5937169446272
 21
300.8022295056843
 31
0.0
  0
LINE
  5
160
330
53
100
AcDbEntity
  8
1
  6
Continuous
 62
     7
100
AcDbLine
 10
279.2749359635208
 20
320.0073836303096
 30
0.0
 11
279.0342083191953
 21
319.8588905285927
 31
0.0
  0
LINE
  5
161
330
53
100
AcDbEntity
  8
1
  6
Continuous
 62
     7
100
AcDbLine
 10
301.9009271491843
 20
314.4401111503352
 30
0.0
 11
298.488249072665
 21
300.0389435467677
 31
0.0
  0
LINE
  5
162
330
53
100
AcDbEntity
  8
1
  6
Continuous
 62
     7
100
AcDbLine
 10
301.9009271491843
 20
314.4401111503352
 30
0.0
 11
301.7524340474423
 21
314.6808387947015
 31
0.0
  0
LINE
  5
163
330
53
100
AcDbEntity
  8
1
  6
Continuous
 62
     7
100
AcDbLine
 10
144.9493404628274
 20
302.7483332358962
 30
0.0
 11
143.8493404628273
 21
300.8022295056841
 31
0.0
  0
LINE
  5
164
330
53
100
AcDbEntity
  8
1
  6
Continuous
 62
     7
100
AcDbLine
 10
121.4493404628271
 20
302.7483332358962
 30
0.0
 11
122.5493404628272
 21
300.8022295056845
 31
0.0
  0
LINE
  5
165
330
53
100
AcDbEntity
  8
1
  6
Continuous
 62
     7
100
AcDbLine
 10
144.9493404628274
 20
317.1495008394638
 30
0.0
 11
144.9493404628274
 21
302.7483332358962
 31
0.0
  0
LINE
  5
166
330
53
100
AcDbEntity
  8
1
  6
Continuous
 62
     7
100
AcDbLine
 10
121.4493404628271
 20
302.7483332358962
 30
0.0
 11
121.4493404628271
 21
317.1495008394638
 31
0.0
  0
LINE
  5
167
330
53
100
AcDbEntity
  8
1
  6
Continuous
 62
     7
100
AcDbLine
 10
298.488249072665
 20
300.0389435467677
 30
0.0
 11
275.6215302426758
 21
305.4577229250252
 31
0.0
  0
LINE
  5
168
330
53
100
AcDbEntity
  8
1
  6
Continuous
 62
     7
100
AcDbLine
 10
301.9009271491843
 20
314.4401111503352
 30
0.0
 11
279.0342083191953
 21
319.8588905285927
 31
0.0
  0
ARC
  5
169
330
53
100
AcDbEntity
  8
1
  6
Continuous
 62
     7
100
AcDbCircle
 10
291.3064842771276
 20
308.6171875849212
 30
0.0
 40
15.9999999999999
100
AcDbArc
 50
191.3888482176693
 51
199.5695483595356
  0
ARC
  5
16A
330
53
100
AcDbEntity
  8
1
  6
Continuous
 62
     7
100
AcDbCircle
 10
285.8890290470328
 20
309.9009745113155
 30
0.0
 40
15.99999999999981
100
AcDbArc
 50
313.7672607317271
 51
321.9479608735923
  0
SPLINE
  5
16B
330
53
100
AcDbEntity
  8
1
  6
Continuous
 62
     7
100
AcDbSpline
210
0.0
220
0.0
230
1.0
 70
     8
 71
     3
 72
    19
 73
    15
 74
    13
 42
0.000000001
 43
0.0000000001
 44
0.00000001
 40
0.0
 40
0.0
 40
0.0
 40
0.0
 40
0.1147578643297098
 40
0.2296041510177794
 40
1.22138726369234
 40
2.213206649999043
 40
3.200624925208747
 40
4.188075836706703
 40
5.171924509824702
 40
6.155797866893595
 40
7.137312970842839
 40
8.118841372232088
 40
9.09954944744502
 40
10.08025752304123
 40
10.08025752304123
 40
10.08025752304123
 40
10.08025752304123
 10
125.1993404628508
 20
479.1215235149508
 30
0.0
 10
125.1714671836689
 20
479.0953246316167
 30
0.0
 10
125.1156991584367
 20
479.0429066679591
 30
0.0
 10
124.8225331254157
 20
478.7604044198002
 30
0.0
 10
124.3419397016601
 20
478.2507502569193
 30
0.0
 10
123.7279952896589
 20
477.4721090420801
 30
0.0
 10
123.185176177783
 20
476.6439630854827
 30
0.0
 10
122.7194025951124
 20
475.7731780498091
 30
0.0
 10
122.3326122710262
 20
474.8658101650773
 30
0.0
 10
122.0294016443901
 20
473.9293231182285
 30
0.0
 10
121.8101461180346
 20
472.9703423470779
 30
0.0
 10
121.6799584704266
 20
471.9967354766972
 30
0.0
 10
121.6306713277135
 20
471.0149958204685
 30
0.0
 10
121.672498971988
 20
470.3620841257271
 30
0.0
 10
121.6934128014361
 20
470.0356282786219
 30
0.0
 11
125.1993404628508
 21
479.1215235149508
 31
0.0
 11
125.1158847034093
 21
479.0427548420778
 31
0.0
 11
125.0331528668548
 21
478.9630986249419
 31
0.0
 11
124.3530453130528
 21
478.2412347437979
 31
0.0
 11
123.7388515333017
 21
477.4624718160903
 31
0.0
 11
123.1977948439728
 21
476.63648603522
 31
0.0
 11
122.7319620728018
 21
475.7658201217594
 31
0.0
 11
122.3464265867871
 21
474.8606568207459
 31
0.0
 11
122.0431509785264
 21
473.9246917097016
 31
0.0
 11
121.8249563852021
 21
472.9677366325636
 31
0.0
 11
121.6934128014361
 21
471.9950628489576
 31
0.0
 11
121.6493404628273
 21
471.0153455637898
 31
0.0
 11
121.6934128014361
 21
470.0356282786219
 31
0.0
  0
SPLINE
  5
16C
330
53
100
AcDbEntity
  8
1
  6
Continuous
 62
     7
100
AcDbSpline
210
0.0
220
0.0
230
1.0
 70
     8
 71
     3
 72
    19
 73
    15
 74
    13
 42
0.000000001
 43
0.0000000001
 44
0.00000001
 40
0.0
 40
0.0
 40
0.0
 40
0.0
 40
0.2107521095643142
 40
0.421767374324357
 40
1.430724221646677
 40
2.439717969634608
 40
3.44423439670694
 40
4.448784025184203
 40
5.449669038830747
 40
6.450579163822538
 40
7.449090200064904
 40
8.447614763845907
 40
8.947089032126229
 40
9.445556116276807
 40
9.445556116276807
 40
9.445556116276807
 40
9.445556116276807
 10
125.1993404628272
 20
479.3431521762892
 30
0.0
 10
125.1474940541663
 20
479.2957448625038
 30
0.0
 10
125.0437365086931
 20
479.2008710292903
 30
0.0
 10
124.699113009735
 20
478.8711841820128
 30
0.0
 10
124.188539326195
 20
478.3299577422978
 30
0.0
 10
123.5639959870511
 20
477.5377874323395
 30
0.0
 10
123.0117693787138
 20
476.6953139186621
 30
0.0
 10
122.5379305693542
 20
475.8094457680151
 30
0.0
 10
122.1444500984091
 20
474.8863716057759
 30
0.0
 10
121.8359589177522
 20
473.9336500500032
 30
0.0
 10
121.6130196068736
 20
472.9581308191877
 30
0.0
 10
121.5022603123968
 20
472.1322342849516
 30
0.0
 10
121.4558484950136
 20
471.4680794927679
 30
0.0
 10
121.4515083419371
 20
471.1354001058055
 30
0.0
 10
121.4493404628274
 20
470.969228292467
 30
0.0
 11
125.1993404628272
 21
479.3431521762892
 31
0.0
 11
125.0443418086307
 21
479.2003520745815
 31
0.0
 11
124.8917470210372
 21
479.0546047832614
 31
0.0
 11
124.1998627130567
 21
478.3202410946521
 31
0.0
 11
123.57503354318
 21
477.5279930946035
 31
0.0
 11
123.0246079068498
 21
476.6877045296491
 31
0.0
 11
122.5507087673468
 21
475.8019621501547
 31
0.0
 11
122.1584973421804
 21
474.8811250257476
 31
0.0
 11
121.8499702082355
 21
473.9289527266334
 31
0.0
 11
121.627997353555
 21
472.9554269988093
 31
0.0
 11
121.4941759588146
 21
471.9659103791238
 31
0.0
 11
121.4605493368239
 21
471.4675693357955
 31
0.0
 11
121.4493404628274
 21
470.969228292467
 31
0.0
  0
SPLINE
  5
16D
330
53
100
AcDbEntity
  8
1
  6
Continuous
 62
     7
100
AcDbSpline
210
0.0
220
0.0
230
1.0
 70
     8
 71
     3
 72
     9
 73
     5
 74
     3
 42
0.000000001
 43
0.0000000001
 44
0.00000001
 40
0.0
 40
0.0
 40
0.0
 40
0.0
 40
0.498467084252961
 40
0.9979413527927304
 40
0.9979413527927304
 40
0.9979413527927304
 40
0.9979413527927304
 10
121.4493404628274
 20
470.969228292467
 30
0.0
 10
121.4512161388806
 20
470.8030309543584
 30
0.0
 10
121.454971300889
 20
470.4703004665764
 30
0.0
 10
121.4810989429673
 20
470.1385758913803
 30
0.0
 10
121.4941759588145
 20
469.9725462058394
 30
0.0
 11
121.4493404628274
 21
470.969228292467
 31
0.0
 11
121.4605493368245
 21
470.4708872491532
 31
0.0
 11
121.4941759588145
 21
469.9725462058394
 31
0.0
  0
SPLINE
  5
16E
330
53
100
AcDbEntity
  8
1
  6
Continuous
 62
     7
100
AcDbSpline
210
0.0
220
0.0
230
1.0
 70
     8
 71
     3
 72
    19
 73
    15
 74
    13
 42
0.000000001
 43
0.0000000001
 44
0.00000001
 40
0.0
 40
0.0
 40
0.0
 40
0.0
 40
0.498467084145018
 40
0.9979413524198775
 40
1.996465916200863
 40
2.994976952443248
 40
3.995887077435033
 40
4.996772091081676
 40
6.001321719558812
 40
7.00583814663104
 40
8.01483189461891
 40
9.02378874194134
 40
9.23480400670458
 40
9.445556116272522
 40
9.445556116272522
 40
9.445556116272522
 40
9.445556116272522
 10
144.9493404628272
 20
470.969228292478
 30
0.0
 10
144.9471725837174
 20
471.1354001058146
 30
0.0
 10
144.9428324306405
 20
471.4680794927734
 30
0.0
 10
144.8964206132574
 20
472.1322342849534
 30
0.0
 10
144.7856613187811
 20
472.9581308191878
 30
0.0
 10
144.5627220079023
 20
473.9336500500033
 30
0.0
 10
144.2542308272452
 20
474.8863716057756
 30
0.0
 10
143.8607503563002
 20
475.8094457680152
 30
0.0
 10
143.3869115469406
 20
476.6953139186622
 30
0.0
 10
142.8346849386034
 20
477.5377874323394
 30
0.0
 10
142.2101415994595
 20
478.3299577422974
 30
0.0
 10
141.6995679159188
 20
478.8711841820138
 30
0.0
 10
141.3549444169589
 20
479.2008710292924
 30
0.0
 10
141.251186871484
 20
479.2957448625073
 30
0.0
 10
141.1993404628221
 20
479.3431521762936
 30
0.0
 11
144.9493404628272
 21
470.969228292478
 31
0.0
 11
144.9381315888303
 21
471.4675693358009
 31
0.0
 11
144.9045049668399
 21
471.9659103791238
 31
0.0
 11
144.7706835720996
 21
472.9554269988093
 31
0.0
 11
144.548710717419
 21
473.9289527266334
 31
0.0
 11
144.2401835834739
 21
474.8811250257475
 31
0.0
 11
143.8479721583076
 21
475.8019621501548
 31
0.0
 11
143.3740730188047
 21
476.687704529649
 31
0.0
 11
142.8236473824745
 21
477.5279930946034
 31
0.0
 11
142.1988182125978
 21
478.3202410946519
 31
0.0
 11
141.5069339046173
 21
479.0546047832613
 31
0.0
 11
141.3543391170214
 21
479.2003520745836
 31
0.0
 11
141.1993404628221
 21
479.3431521762936
 31
0.0
  0
SPLINE
  5
16F
330
53
100
AcDbEntity
  8
1
  6
Continuous
 62
     7
100
AcDbSpline
210
0.0
220
0.0
230
1.0
 70
     8
 71
     3
 72
    43
 73
    39
 74
    37
 42
0.000000001
 43
0.0000000001
 44
0.00000001
 40
0.0
 40
0.0
 40
0.0
 40
0.0
 40
0.9985245589742952
 40
1.997035593914837
 40
2.997945718613788
 40
3.998830732274554
 40
5.003380360923245
 40
6.007896788288107
 40
7.01689053679494
 40
8.025847385353291
 40
9.039547398769372
 40
10.05321139301155
 40
11.07131256921571
 40
12.08938277525338
 40
13.11105609143148
 40
14.1327068350922
 40
15.15670257312546
 40
16.18068644150507
 40
17.20548347524285
 40
18.23028050898236
 40
19.25426437736732
 40
20.27826011541004
 40
21.29991085908451
 40
22.32158417528114
 40
23.33965438134294
 40
24.35775555757824
 40
25.37141955186054
 40
26.38511956532831
 40
27.39407641395425
 40
28.40307016255189
 40
29.40758659004366
 40
30.41213621888084
 40
31.41302123285093
 40
32.41393135814359
 40
33.41244239459037
 40
34.41096695806803
 40
34.91044122495618
 40
35.4089083034939
 40
35.4089083034939
 40
35.4089083034939
 40
35.4089083034939
 10
121.4941759588145
 20
469.9725462058394
 30
0.0
 10
121.5325353445133
 20
469.6416949120764
 30
0.0
 10
121.6092536088074
 20
468.9799968073303
 30
0.0
 10
121.8369705931023
 20
468.0048948827213
 30
0.0
 10
122.1441791604989
 20
467.0520614329303
 30
0.0
 10
122.538002034461
 20
466.1290166363603
 30
0.0
 10
123.0117555191291
 20
465.2431430696048
 30
0.0
 10
123.5639798208027
 20
464.4006617328732
 30
0.0
 10
124.1886182943519
 20
463.6085282959992
 30
0.0
 10
124.882678232145
 20
462.8722579417995
 30
0.0
 10
125.6390693410722
 20
462.1978483309729
 30
0.0
 10
126.4538044717702
 20
461.5901313911208
 30
0.0
 10
127.318939430712
 20
461.0538371310153
 30
0.0
 10
128.2295306693272
 20
460.5930668804697
 30
0.0
 10
129.1771538934011
 20
460.2110888130357
 30
0.0
 10
130.1559120225479
 20
459.9111720649061
 30
0.0
 10
131.1573029300294
 20
459.695051532455
 30
0.0
 10
132.1745150775945
 20
459.5650097045857
 30
0.0
 10
133.1993404628
 20
459.5212926959127
 30
0.0
 10
134.2241658480239
 20
459.5650097045839
 30
0.0
 10
135.241377995545
 20
459.695051532457
 30
0.0
 10
136.2427689032183
 20
459.9111720648922
 30
0.0
 10
137.2215270317021
 20
460.2110888130812
 30
0.0
 10
138.169150258319
 20
460.5930668802969
 30
0.0
 10
139.0797414875738
 20
461.0538371316657
 30
0.0
 10
139.9448764815032
 20
461.5901313887239
 30
0.0
 10
140.7596114823383
 20
462.1978483399329
 30
0.0
 10
141.5160030749603
 20
462.8722579085277
 30
0.0
 10
142.2100612159309
 20
463.6085284197154
 30
0.0
 10
142.8347063794619
 20
464.4006612722472
 30
0.0
 10
143.3869058199286
 20
465.2431447807535
 30
0.0
 10
143.8607518927627
 20
466.1290102598044
 30
0.0
 10
144.2542304240208
 20
467.0520851359684
 30
0.0
 10
144.5627221234092
 20
468.0048065011954
 30
0.0
 10
144.7856612941425
 20
468.9803257835667
 30
0.0
 10
144.8964206212417
 20
469.8062223050737
 30
0.0
 10
144.942832432327
 20
470.4703770965936
 30
0.0
 10
144.9471725835249
 20
470.8030564810903
 30
0.0
 10
144.9493404628272
 20
470.969228292478
 30
0.0
 11
121.4941759588145
 21
469.9725462058394
 31
0.0
 11
121.6279973535548
 21
468.9830295861538
 31
0.0
 11
121.8499702082354
 21
468.0095038583297
 31
0.0
 11
122.1584973421805
 21
467.0573315592156
 31
0.0
 11
122.5507087673468
 21
466.1364944348084
 31
0.0
 11
123.0246079068498
 21
465.2507520553141
 31
0.0
 11
123.5750335431799
 21
464.4104634903597
 31
0.0
 11
124.1998627130566
 21
463.6182154903111
 31
0.0
 11
124.8917470210371
 21
462.8838518017017
 31
0.0
 11
125.648409424345
 21
462.2092780658458
 31
0.0
 11
126.4607808746203
 21
461.6030047607608
 31
0.0
 11
127.326137373461
 21
461.0666390876039
 31
0.0
 11
128.234428894904
 21
460.6067766550019
 31
0.0
 11
129.1820407249753
 21
460.2248759023049
 31
0.0
 11
130.1588032638289
 21
459.9253676634938
 31
0.0
 11
131.1597719894623
 21
459.7094304452841
 31
0.0
 11
132.1754694160823
 21
459.5794239044995
 31
0.0
 11
133.1993404628273
 21
459.5358688774869
 31
0.0
 11
134.2232115095722
 21
459.5794239044995
 31
0.0
 11
135.238908936192
 21
459.7094304452841
 31
0.0
 11
136.2398776618256
 21
459.9253676634937
 31
0.0
 11
137.2166402006793
 21
460.2248759023047
 31
0.0
 11
138.1642520307506
 21
460.6067766550018
 31
0.0
 11
139.0725435521934
 21
461.0666390876038
 31
0.0
 11
139.9379000510341
 21
461.6030047607607
 31
0.0
 11
140.7502715013093
 21
462.2092780658458
 31
0.0
 11
141.5069339046172
 21
462.8838518017017
 31
0.0
 11
142.1988182125977
 21
463.6182154903112
 31
0.0
 11
142.8236473824745
 21
464.4104634903597
 31
0.0
 11
143.3740730188048
 21
465.250752055314
 31
0.0
 11
143.8479721583077
 21
466.1364944348084
 31
0.0
 11
144.240183583474
 21
467.0573315592157
 31
0.0
 11
144.548710717419
 21
468.0095038583298
 31
0.0
 11
144.7706835720996
 21
468.9830295861538
 31
0.0
 11
144.9045049668399
 21
469.9725462058393
 31
0.0
 11
144.9381315888303
 21
470.4708872491586
 31
0.0
 11
144.9493404628272
 21
470.969228292478
 31
0.0
  0
SPLINE
  5
170
330
53
100
AcDbEntity
  8
1
  6
Continuous
 62
     7
100
AcDbSpline
210
0.0
220
0.0
230
1.0
 70
     8
 71
     3
 72
    45
 73
    41
 74
    39
 42
0.000000001
 43
0.0000000001
 44
0.00000001
 40
0.0
 40
0.0
 40
0.0
 40
0.0
 40
0.4984670783261981
 40
0.9979413452599744
 40
1.996465908799506
 40
2.99497694527664
 40
3.995887070588294
 40
4.996772084572848
 40
6.001321713421933
 40
7.005838140924427
 40
8.014831889532028
 40
9.023788738167545
 40
10.03748875164482
 40
11.05115274593663
 40
12.06925392218185
 40
13.0873241282539
 40
14.10899744446136
 40
15.13064818814742
 40
16.15464392620279
 40
17.17862779460158
 40
18.20342482835636
 40
19.22822186211124
 40
20.25220573051011
 40
21.27620146856537
 40
22.2978522122513
 40
23.31952552845877
 40
24.33759573453094
 40
25.35569691077622
 40
26.36936090506803
 40
27.38306091854528
 40
28.39201776718083
 40
29.4010115157884
 40
30.40552794329085
 40
31.41007757213989
 40
32.41096258612438
 40
33.41187271143625
 40
34.41038374791338
 40
35.40890831145291
 40
35.90838257838349
 40
36.40684965671282
 40
36.40684965671282
 40
36.40684965671282
 40
36.40684965671282
 10
144.9493404628272
 20
467.5565502159621
 30
0.0
 10
144.9471725835258
 20
467.3903784046448
 30
0.0
 10
144.9428324325449
 20
467.0576990201993
 30
0.0
 10
144.8964206214527
 20
466.3935442287095
 30
0.0
 10
144.7856612943539
 20
465.5676477071588
 30
0.0
 10
144.5627221235975
 20
464.5921284247532
 30
0.0
 10
144.2542304241967
 20
463.6394070595087
 30
0.0
 10
143.8607518929268
 20
462.716332183333
 30
0.0
 10
143.3869058200827
 20
461.8304667042736
 30
0.0
 10
142.8347063796067
 20
460.9879831957604
 30
0.0
 10
142.2100612160667
 20
460.1958503432225
 30
0.0
 10
141.516003075087
 20
459.4595798320303
 30
0.0
 10
140.7596114824561
 20
458.7851702634313
 30
0.0
 10
139.9448764816116
 20
458.1774533122187
 30
0.0
 10
139.0797414876727
 20
457.6411590551568
 30
0.0
 10
138.1691502584077
 20
457.1803888037853
 30
0.0
 10
137.2215270317801
 20
456.7984107365673
 30
0.0
 10
136.2427689032845
 20
456.4984939883763
 30
0.0
 10
135.2413779955989
 20
456.2823734559394
 30
0.0
 10
134.224165848063
 20
456.1523316280652
 30
0.0
 10
133.1993404628272
 20
456.1086146193933
 30
0.0
 10
132.1745150775914
 20
456.1523316280652
 30
0.0
 10
131.1573029300556
 20
456.2823734559394
 30
0.0
 10
130.1559120223699
 20
456.4984939883763
 30
0.0
 10
129.1771538938745
 20
456.7984107365676
 30
0.0
 10
128.2295306672468
 20
457.1803888037853
 30
0.0
 10
127.3189394379817
 20
457.641159055157
 30
0.0
 10
126.4538044440428
 20
458.1774533122187
 30
0.0
 10
125.6390694431983
 20
458.7851702634313
 30
0.0
 10
124.8826778505672
 20
459.4595798320302
 30
0.0
 10
124.1886197095875
 20
460.1958503432224
 30
0.0
 10
123.5639745460478
 20
460.9879831957606
 30
0.0
 10
123.0117751055718
 20
461.8304667042735
 30
0.0
 10
122.5379290327277
 20
462.7163321833329
 30
0.0
 10
122.1444505014576
 20
463.6394070595086
 30
0.0
 10
121.8359588020569
 20
464.5921284247532
 30
0.0
 10
121.6130196313006
 20
465.5676477071588
 30
0.0
 10
121.5022603042016
 20
466.3935442287084
 30
0.0
 10
121.45584849311
 20
467.0576990201984
 30
0.0
 10
121.4515083421287
 20
467.3903784046439
 30
0.0
 10
121.4493404628273
 20
467.5565502159621
 30
0.0
 11
144.9493404628272
 21
467.5565502159621
 31
0.0
 11
144.9381315888303
 21
467.0582091726409
 31
0.0
 11
144.9045049668399
 21
466.5598681293199
 31
0.0
 11
144.7706835720996
 21
465.5703515096343
 31
0.0
 11
144.548710717419
 21
464.5968257818103
 31
0.0
 11
144.240183583474
 21
463.6446534826962
 31
0.0
 11
143.8479721583077
 21
462.7238163582889
 31
0.0
 11
143.3740730188048
 21
461.8380739787946
 31
0.0
 11
142.8236473824745
 21
460.9977854138402
 31
0.0
 11
142.1988182125977
 21
460.2055374137917
 31
0.0
 11
141.5069339046172
 21
459.4711737251822
 31
0.0
 11
140.7502715013093
 21
458.7965999893262
 31
0.0
 11
139.9379000510341
 21
458.1903266842413
 31
0.0
 11
139.0725435521934
 21
457.6539610110843
 31
0.0
 11
138.1642520307505
 21
457.1940985784823
 31
0.0
 11
137.2166402006793
 21
456.8121978257852
 31
0.0
 11
136.2398776618256
 21
456.5126895869744
 31
0.0
 11
135.238908936192
 21
456.2967523687646
 31
0.0
 11
134.2232115095722
 21
456.1667458279801
 31
0.0
 11
133.1993404628273
 21
456.1231908009674
 31
0.0
 11
132.1754694160823
 21
456.1667458279801
 31
0.0
 11
131.1597719894623
 21
456.2967523687646
 31
0.0
 11
130.1588032638289
 21
456.5126895869744
 31
0.0
 11
129.1820407249753
 21
456.8121978257853
 31
0.0
 11
128.234428894904
 21
457.1940985784823
 31
0.0
 11
127.326137373461
 21
457.6539610110843
 31
0.0
 11
126.4607808746203
 21
458.1903266842413
 31
0.0
 11
125.648409424345
 21
458.7965999893262
 31
0.0
 11
124.8917470210371
 21
459.4711737251822
 31
0.0
 11
124.1998627130566
 21
460.2055374137916
 31
0.0
 11
123.5750335431799
 21
460.9977854138402
 31
0.0
 11
123.0246079068497
 21
461.8380739787946
 31
0.0
 11
122.5507087673468
 21
462.7238163582888
 31
0.0
 11
122.1584973421804
 21
463.6446534826961
 31
0.0
 11
121.8499702082354
 21
464.5968257818104
 31
0.0
 11
121.6279973535548
 21
465.5703515096343
 31
0.0
 11
121.4941759588145
 21
466.5598681293199
 31
0.0
 11
121.4605493368244
 21
467.0582091726378
 31
0.0
 11
121.4493404628273
 21
467.5565502159621
 31
0.0
  0
SPLINE
  5
171
330
53
100
AcDbEntity
  8
1
  6
Continuous
 62
     7
100
AcDbSpline
210
0.0
220
0.0
230
1.0
 70
     8
 71
     3
 72
    53
 73
    49
 74
    47
 42
0.000000001
 43
0.0000000001
 44
0.00000001
 40
0.0
 40
0.0
 40
0.0
 40
0.0
 40
0.9815283938240366
 40
1.96304349671249
 40
2.946916853703069
 40
3.930765526952064
 40
4.918216438690958
 40
5.905634714231696
 40
6.897454101164302
 40
7.889237216212559
 40
8.885682761382256
 40
9.882092900458108
 40
10.88286469498418
 40
11.88360604648677
 40
12.88788917858791
 40
13.89215012237785
 40
14.89871614573653
 40
15.90527050147268
 40
16.91262418144984
 40
17.91997786142449
 40
18.92653221715361
 40
19.93309824050073
 40
20.93735918427516
 40
21.94164231635681
 40
22.9423836678376
 40
23.9431554623401
 40
24.93956560139273
 40
25.9360111465409
 40
26.9277942615739
 40
27.9196136485019
 40
28.90703192405959
 40
29.89448283585458
 40
30.87833150924677
 40
31.86220486660939
 40
32.8437199708745
 40
33.82524837262657
 40
34.80595644825642
 40
35.78666452389658
 40
36.76819292567745
 40
37.7497080299917
 40
38.73358138742051
 40
39.71743006089633
 40
40.70488097278738
 40
41.6922992484502
 40
42.68411863546393
 40
43.67590174994316
 40
43.79074803608598
 40
43.90550589296693
 40
43.90550589296693
 40
43.90550589296693
 40
43.90550589296693
 10
121.6934128014361
 20
470.0356282786219
 30
0.0
 10
121.731119261327
 20
469.7104084970521
 30
0.0
 10
121.806531679942
 20
469.0599733390756
 30
0.0
 10
122.0303726302728
 20
468.101468894433
 30
0.0
 10
122.332352115492
 20
467.1648538859366
 30
0.0
 10
122.7194716214396
 20
466.2575204898803
 30
0.0
 10
123.1851612170277
 20
465.38672562194
 30
0.0
 10
123.7279859561474
 20
464.5585843929218
 30
0.0
 10
124.3419922854866
 20
463.7799340782601
 30
0.0
 10
125.024238437121
 20
463.0561959853082
 30
0.0
 10
125.7677548037813
 20
462.3932656869184
 30
0.0
 10
126.5686221024769
 20
461.7958928651111
 30
0.0
 10
127.419031359997
 20
461.2687270178697
 30
0.0
 10
128.3141231732793
 20
460.8157996651358
 30
0.0
 10
129.2456166403516
 20
460.4403233519745
 30
0.0
 10
130.2077150566649
 20
460.1455115697066
 30
0.0
 10
131.1920610125319
 20
459.9330696845536
 30
0.0
 10
132.1919589107793
 20
459.8052413345443
 30
0.0
 10
133.1993404596434
 20
459.7622684451078
 30
0.0
 10
134.2067220085275
 20
459.8052413344226
 30
0.0
 10
135.2066199067317
 20
459.9330696843155
 30
0.0
 10
136.1909658628016
 20
460.14551156933
 30
0.0
 10
137.1530642784359
 20
460.4403233515384
 30
0.0
 10
138.0845577481464
 20
460.8157996643417
 30
0.0
 10
138.9796495517627
 20
461.2687270178239
 30
0.0
 10
139.8300588454742
 20
461.7958928616889
 30
0.0
 10
140.6309260099183
 20
462.3932656954517
 30
0.0
 10
141.3744428767239
 20
463.0561959487285
 30
0.0
 10
142.0566871705589
 20
463.7799342086945
 30
0.0
 10
142.6707004170892
 20
464.5585839009598
 30
0.0
 10
143.2134994508857
 20
465.3867274423895
 30
0.0
 10
143.6792847786423
 20
466.2575136979785
 30
0.0
 10
144.0660482496071
 20
467.1648791237877
 30
0.0
 10
144.3693544369702
 20
468.1013747795081
 30
0.0
 10
144.5882553402487
 20
469.0603236451379
 30
0.0
 10
144.7197651237035
 20
470.0340494594084
 30
0.0
 10
144.7641219421513
 20
471.0153455713821
 30
0.0
 10
144.7197651184789
 20
471.996641684394
 30
0.0
 10
144.5882553591165
 20
472.9703674955142
 30
0.0
 10
144.3693543625563
 20
473.9293163726157
 30
0.0
 10
144.0660485229557
 20
474.8658119853324
 30
0.0
 10
143.6792837501704
 20
475.7731775716779
 30
0.0
 10
143.213503296299
 20
476.6439632257473
 30
0.0
 10
142.6706860308996
 20
477.4721090166229
 30
0.0
 10
142.0567411139372
 20
478.2507502772287
 30
0.0
 10
141.5761478038687
 20
478.7604044307325
 30
0.0
 10
141.2829817671088
 20
479.0429066755103
 30
0.0
 10
141.2272137401383
 20
479.0953246333054
 30
0.0
 10
141.1993404628219
 20
479.1215235149339
 30
0.0
 11
121.6934128014361
 21
470.0356282786219
 31
0.0
 11
121.8249563852022
 21
469.0629544950157
 31
0.0
 11
122.0431509785264
 21
468.1059994178777
 31
0.0
 11
122.3464265867871
 21
467.1700343068334
 31
0.0
 11
122.7319620728018
 21
466.26487100582
 31
0.0
 11
123.1977948439728
 21
465.3942050923594
 31
0.0
 11
123.7388515333017
 21
464.5682193114891
 31
0.0
 11
124.3530453130528
 21
463.7894563837814
 31
0.0
 11
125.0331528668549
 21
463.0675925026375
 31
0.0
 11
125.7769359101065
 21
462.4045008729235
 31
0.0
 11
126.575479761228
 21
461.8085471134568
 31
0.0
 11
127.426106787748
 21
461.281311068779
 31
0.0
 11
128.3189380279749
 21
460.8292760818381
 31
0.0
 11
129.2504202949812
 21
460.4538757674847
 31
0.0
 11
130.2105570884927
 21
460.1594655412491
 31
0.0
 11
131.1944880485835
 21
459.9472038501577
 31
0.0
 11
132.1928970083673
 21
459.819410186663
 31
0.0
 11
133.1993404628273
 21
459.7765965218123
 31
0.0
 11
134.2057839172872
 21
459.819410186663
 31
0.0
 11
135.204192877071
 21
459.9472038501577
 31
0.0
 11
136.1881238371618
 21
460.1594655412491
 31
0.0
 11
137.1482606306733
 21
460.4538757674847
 31
0.0
 11
138.0797428976794
 21
460.8292760818381
 31
0.0
 11
138.9725741379062
 21
461.281311068779
 31
0.0
 11
139.8232011644263
 21
461.8085471134568
 31
0.0
 11
140.621745015548
 21
462.4045008729234
 31
0.0
 11
141.3655280587996
 21
463.0675925026374
 31
0.0
 11
142.0456356126016
 21
463.7894563837814
 31
0.0
 11
142.6598293923527
 21
464.5682193114891
 31
0.0
 11
143.2008860816816
 21
465.3942050923594
 31
0.0
 11
143.6667188528526
 21
466.2648710058199
 31
0.0
 11
144.0522543388673
 21
467.1700343068334
 31
0.0
 11
144.3555299471282
 21
468.1059994178777
 31
0.0
 11
144.5737245404525
 21
469.0629544950157
 31
0.0
 11
144.7052681242185
 21
470.0356282786219
 31
0.0
 11
144.7493404628273
 21
471.0153455637897
 31
0.0
 11
144.7052681242185
 21
471.9950628489574
 31
0.0
 11
144.5737245404524
 21
472.9677366325635
 31
0.0
 11
144.3555299471281
 21
473.9246917097015
 31
0.0
 11
144.0522543388672
 21
474.8606568207459
 31
0.0
 11
143.6667188528526
 21
475.7658201217594
 31
0.0
 11
143.2008860816817
 21
476.6364860352199
 31
0.0
 11
142.6598293923528
 21
477.4624718160902
 31
0.0
 11
142.0456356126017
 21
478.2412347437979
 31
0.0
 11
141.3655280587997
 21
478.9630986249419
 31
0.0
 11
141.2827962222543
 21
479.0427548420692
 31
0.0
 11
141.1993404628219
 21
479.1215235149339
 31
0.0
  0
SPLINE
  5
172
330
53
100
AcDbEntity
  8
1
  6
Continuous
 62
     7
100
AcDbSpline
210
0.0
220
0.0
230
1.0
 70
    11
 71
     3
 72
    79
 73
    75
 74
    73
 42
0.000000001
 43
0.0000000001
 44
0.00000001
 40
0.0
 40
0.0
 40
0.0
 40
0.0
 40
0.2710008308282505
 40
0.5361880718705991
 40
0.9056857331532102
 40
1.272804385956403
 40
1.758115990836005
 40
2.243217136718141
 40
2.843278373829724
 40
3.443047539468669
 40
4.144730187943527
 40
4.846334561554668
 40
5.63181806931723
 40
6.41724783528742
 40
7.264941042495527
 40
8.112609775869858
 40
8.99856564431793
 40
9.884510516798777
 40
10.78337113320267
 40
11.68223174962662
 40
12.56817662216663
 40
13.45413249071249
 40
14.30180122421591
 40
15.14949443158619
 40
15.93492419773405
 40
16.7204077056961
 40
17.42201207949898
 40
18.12369472816843
 40
18.72346389396566
 40
19.32352513120618
 40
19.80862627715069
 40
20.2939378820051
 40
20.6610565346751
 40
21.03055419545009
 40
21.29574143517513
 40
21.56674226814941
 40
21.7870277765347
 40
22.00731328492034
 40
22.27831411789608
 40
22.54350135762271
 40
22.91299901839951
 40
23.28011767107086
 40
23.76542927592644
 40
24.25053042187155
 40
24.85059165911186
 40
25.45036082490799
 40
26.15204347357528
 40
26.85364784737532
 40
27.63913135533387
 40
28.42456112147864
 40
29.27225432884696
 40
30.11992306235136
 40
31.00587893090306
 40
31.89182380345615
 40
32.79068441990334
 40
33.68954503634352
 40
34.57548990887637
 40
35.46144577739594
 40
36.30911451085993
 40
37.15680771818097
 40
37.94223748427896
 40
38.72772099219294
 40
39.42932536596041
 40
40.13100801461101
 40
40.73077718041599
 40
41.33083841770513
 40
41.81593956374063
 40
42.30125116877471
 40
42.66836982169151
 40
43.03786748293426
 40
43.30305472323312
 40
43.5740555570586
 40
43.79434106639683
 40
44.01462657488197
 40
44.01462657488197
 40
44.01462657488197
 40
44.01462657488197
 10
143.5028523441756
 20
301.0175538193447
 30
0.0
 10
143.4616906380039
 20
301.0987141607775
 30
0.0
 10
143.3802502506973
 20
301.25929377496
 30
0.0
 10
143.1567742575485
 20
301.4686764587972
 30
0.0
 10
142.8790563068277
 20
301.6542793103684
 30
0.0
 10
142.5198822559752
 20
301.847805340356
 30
0.0
 10
142.109035232255
 20
302.0222094077795
 30
0.0
 10
141.6154727877556
 20
302.1973444056042
 30
0.0
 10
141.07604302155
 20
302.3547292102686
 30
0.0
 10
140.4607480774691
 20
302.5074436903096
 30
0.0
 10
139.8067864530506
 20
302.6429190371497
 30
0.0
 10
139.088031669282
 20
302.7687358466484
 30
0.0
 10
138.3382237462884
 20
302.8771960357089
 30
0.0
 10
137.5375951665535
 20
302.972464243427
 30
0.0
 10
136.7142355369819
 20
303.0500783926584
 30
0.0
 10
135.8559652834832
 20
303.1120325470392
 30
0.0
 10
134.9838195229209
 20
303.1560459937446
 30
0.0
 10
134.0939126563687
 20
303.1829484553437
 30
0.0
 10
133.1993404726856
 20
303.1917443847643
 30
0.0
 10
132.3047682889047
 20
303.182948454743
 30
0.0
 10
131.4148614225614
 20
303.1560459924056
 30
0.0
 10
130.5427156610366
 20
303.1120325455476
 30
0.0
 10
129.6844454106555
 20
303.0500783889866
 30
0.0
 10
128.8610857694177
 20
302.9724642449854
 30
0.0
 10
128.0604572296821
 20
302.8771960167256
 30
0.0
 10
127.3106491645205
 20
302.7687358981394
 30
0.0
 10
126.5918948569584
 20
302.6429188503858
 30
0.0
 10
125.9379315821882
 20
302.5074443272343
 30
0.0
 10
125.3226419516228
 20
302.3547271936509
 30
0.0
 10
124.7831942569981
 20
302.1973513410595
 30
0.0
 10
124.2896866780556
 20
302.0221889468418
 30
0.0
 10
123.8786604690208
 20
301.8478743529311
 30
0.0
 10
123.5200040136
 20
301.6540898697579
 30
0.0
 10
123.2406387223899
 20
301.4693095934852
 30
0.0
 10
123.0217341182136
 20
301.2576442559242
 30
0.0
 10
122.8917692702517
 20
301.038615588457
 30
0.0
 10
122.8303160293934
 20
300.8022295056393
 30
0.0
 10
122.8917692702526
 20
300.565843422821
 30
0.0
 10
123.0217341182148
 20
300.3468147553532
 30
0.0
 10
123.2406387223912
 20
300.1351494177896
 30
0.0
 10
123.5200040136014
 20
299.9503691415144
 30
0.0
 10
123.8786604690222
 20
299.7565846583381
 30
0.0
 10
124.2896866780569
 20
299.5822700644244
 30
0.0
 10
124.783194256999
 20
299.407107670204
 30
0.0
 10
125.3226419516232
 20
299.2497318176115
 30
0.0
 10
125.9379315821878
 20
299.0970146840298
 30
0.0
 10
126.5918948569573
 20
298.9615401608841
 30
0.0
 10
127.3106491645185
 20
298.835723113142
 30
0.0
 10
128.0604572296798
 20
298.7272629945754
 30
0.0
 10
128.8610857694163
 20
298.6319947663453
 30
0.0
 10
129.6844454106567
 20
298.5543806223868
 30
0.0
 10
130.542715661044
 20
298.4924264658841
 30
0.0
 10
131.4148614225783
 20
298.4484130191025
 30
0.0
 10
132.3047682889431
 20
298.4215105568593
 30
0.0
 10
133.1993404727329
 20
298.4127146269653
 30
0.0
 10
134.093912656514
 20
298.4215105564904
 30
0.0
 10
134.9838195228861
 20
298.4484130183816
 30
0.0
 10
135.8559652843489
 20
298.4924264647925
 30
0.0
 10
136.714235534926
 20
298.5543806210782
 30
0.0
 10
137.5375951754038
 20
298.6319947643798
 30
0.0
 10
138.338223717708
 20
298.7272629936499
 30
0.0
 10
139.0880317737073
 20
298.835723107448
 30
0.0
 10
139.8067861119464
 20
298.9615401703604
 30
0.0
 10
140.4607492804214
 20
299.097014640342
 30
0.0
 10
141.0760392532792
 20
299.2497319448145
 30
0.0
 10
141.615485793091
 20
299.4071072208198
 30
0.0
 10
142.1089969062289
 20
299.5822713799207
 30
0.0
 10
142.520011573197
 20
299.7565802107346
 30
0.0
 10
142.8787013693714
 20
299.9503813424748
 30
0.0
 10
143.1579605480069
 20
300.1351086337288
 30
0.0
 10
143.3771596160196
 20
300.3469210080832
 30
0.0
 10
143.5061540080158
 20
300.5654650947027
 30
0.0
 10
143.5706106305691
 20
300.8033508696074
 30
0.0
 10
143.5254384349017
 20
300.9461528351598
 30
0.0
 10
143.5028523441756
 20
301.0175538193447
 30
0.0
 11
143.5028523441756
 21
301.0175538193447
 31
0.0
 11
143.366374279967
 21
301.2516802584519
 31
0.0
 11
143.1791364705378
 21
301.4394734288456
 31
0.0
 11
142.8752973569192
 21
301.6497359180443
 31
0.0
 11
142.5525325353025
 21
301.8246615452906
 31
0.0
 11
142.1072454130418
 21
302.0176556709807
 31
0.0
 11
141.6503283408672
 21
302.1805971050702
 31
0.0
 11
141.0749194314633
 21
302.3508265837133
 31
0.0
 11
140.4929238061961
 21
302.4957546499766
 31
0.0
 11
139.8060939130428
 21
302.6393625790291
 31
0.0
 11
139.1150587447732
 21
302.7606848503872
 31
0.0
 11
138.3377806688833
 21
302.8739241279932
 31
0.0
 11
137.557879397647
 21
302.9669506008588
 31
0.0
 11
136.7139734488989
 21
303.0469913621993
 31
0.0
 11
135.8685124025983
 21
303.1081297376228
 31
0.0
 11
134.9836968375208
 21
303.1530654342377
 31
0.0
 11
134.0981563377501
 21
303.17982997223
 31
0.0
 11
133.1993404628272
 21
303.1887982956832
 31
0.0
 11
132.3005245879044
 21
303.17982997223
 31
0.0
 11
131.4149840881337
 21
303.1530654342377
 31
0.0
 11
130.5301685230562
 21
303.1081297376229
 31
0.0
 11
129.6847074767557
 21
303.0469913621994
 31
0.0
 11
128.8408015280076
 21
302.9669506008589
 31
0.0
 11
128.0609002567714
 21
302.8739241279933
 31
0.0
 11
127.2836221808814
 21
302.7606848503872
 31
0.0
 11
126.5925870126117
 21
302.6393625790292
 31
0.0
 11
125.9057571194584
 21
302.4957546499766
 31
0.0
 11
125.3237614941912
 21
302.3508265837133
 31
0.0
 11
124.7483525847874
 21
302.1805971050702
 31
0.0
 11
124.2914355126129
 21
302.0176556709808
 31
0.0
 11
123.8461483903521
 21
301.8246615452906
 31
0.0
 11
123.5233835687353
 21
301.6497359180443
 31
0.0
 11
123.2195444551166
 21
301.4394734288456
 31
0.0
 11
123.0323066456874
 21
301.2516802584519
 31
0.0
 11
122.8958285814788
 21
301.0175538193447
 31
0.0
 11
122.8493404628272
 21
300.802229505684
 31
0.0
 11
122.8958285814788
 21
300.5869051920235
 31
0.0
 11
123.0323066456875
 21
300.3527787529163
 31
0.0
 11
123.2195444551167
 21
300.1649855825225
 31
0.0
 11
123.5233835687352
 21
299.9547230933238
 31
0.0
 11
123.846148390352
 21
299.7797974660775
 31
0.0
 11
124.2914355126128
 21
299.5868033403874
 31
0.0
 11
124.7483525847873
 21
299.4238619062979
 31
0.0
 11
125.3237614941911
 21
299.2536324276547
 31
0.0
 11
125.9057571194582
 21
299.1087043613916
 31
0.0
 11
126.5925870126116
 21
298.9650964323391
 31
0.0
 11
127.2836221808812
 21
298.843774160981
 31
0.0
 11
128.0609002567712
 21
298.730534883375
 31
0.0
 11
128.8408015280074
 21
298.6375084105093
 31
0.0
 11
129.6847074767555
 21
298.5574676491688
 31
0.0
 11
130.5301685230561
 21
298.4963292737453
 31
0.0
 11
131.4149840881337
 21
298.4513935771304
 31
0.0
 11
132.3005245879045
 21
298.4246290391383
 31
0.0
 11
133.1993404628273
 21
298.4156607156851
 31
0.0
 11
134.09815633775
 21
298.4246290391383
 31
0.0
 11
134.9836968375207
 21
298.4513935771305
 31
0.0
 11
135.8685124025982
 21
298.4963292737453
 31
0.0
 11
136.7139734488989
 21
298.5574676491688
 31
0.0
 11
137.5578793976469
 21
298.6375084105094
 31
0.0
 11
138.3377806688831
 21
298.730534883375
 31
0.0
 11
139.1150587447731
 21
298.843774160981
 31
0.0
 11
139.8060939130428
 21
298.9650964323391
 31
0.0
 11
140.4929238061962
 21
299.1087043613916
 31
0.0
 11
141.0749194314634
 21
299.2536324276548
 31
0.0
 11
141.6503283408672
 21
299.4238619062979
 31
0.0
 11
142.1072454130417
 21
299.5868033403874
 31
0.0
 11
142.5525325353024
 21
299.7797974660776
 31
0.0
 11
142.8752973569192
 21
299.9547230933239
 31
0.0
 11
143.1791364705379
 21
300.1649855825224
 31
0.0
 11
143.366374279967
 21
300.3527787529162
 31
0.0
 11
143.5028523441756
 21
300.5869051920234
 31
0.0
 11
143.5493404628271
 21
300.8022295056841
 31
0.0
 11
143.5028523441756
 21
301.0175538193447
 31
0.0
  0
SPLINE
  5
173
330
53
100
AcDbEntity
  8
1
  6
Continuous
 62
     7
100
AcDbSpline
210
0.0
220
0.0
230
1.0
 70
     8
 71
     3
 72
    43
 73
    39
 74
    37
 42
0.000000001
 43
0.0000000001
 44
0.00000001
 40
0.0
 40
0.0
 40
0.0
 40
0.0
 40
0.2788559320553741
 40
0.551729757995541
 40
0.9319374966196943
 40
1.309697270247127
 40
1.809075878815894
 40
2.308237928140187
 40
2.925692245407889
 40
3.542846025360035
 40
4.264867302273979
 40
4.986808035476878
 40
5.795059182175345
 40
6.603255029322792
 40
7.475519055177451
 40
8.347757897764435
 40
9.259393647441758
 40
10.17101808236081
 40
11.09593263053248
 40
12.02084717865135
 40
12.93247161341755
 40
13.84410736285095
 40
14.71634620513092
 40
15.58861023062159
 40
16.39680607739444
 40
17.20505722369602
 40
17.9269979565353
 40
18.64901923308575
 40
19.26617301273283
 40
19.88362732970655
 40
20.3827893788079
 40
20.88216798718184
 40
21.25992776071189
 40
21.64013549938911
 40
21.91300932661816
 40
22.19186525713173
 40
22.30831252552039
 40
22.41973893099532
 40
22.41973893099532
 40
22.41973893099532
 40
22.41973893099532
 10
143.8015048624757
 20
301.0237951037985
 30
0.0
 10
143.7591500626605
 20
301.1073079202981
 30
0.0
 10
143.6753490838832
 20
301.2725420169465
 30
0.0
 10
143.4453955245331
 20
301.4879937642491
 30
0.0
 10
143.159627778461
 20
301.6789764083883
 30
0.0
 10
142.7900428852036
 20
301.8781118887911
 30
0.0
 10
142.3672872516227
 20
302.0575711469492
 30
0.0
 10
141.8594186487202
 20
302.2377825219815
 30
0.0
 10
141.304353236461
 20
302.3997292055266
 30
0.0
 10
140.6712236555653
 20
302.5568701927708
 30
0.0
 10
139.9983066209348
 20
302.6962723617934
 30
0.0
 10
139.2587183642824
 20
302.8257360358815
 30
0.0
 10
138.4871768773769
 20
302.937339999051
 30
0.0
 10
137.6633416711651
 20
303.0353696045744
 30
0.0
 10
136.8161165441018
 20
303.1152334397058
 30
0.0
 10
135.932968890963
 20
303.1789833670242
 30
0.0
 10
135.0355435421827
 20
303.224272566073
 30
0.0
 10
134.1198422727874
 20
303.2519548093522
 30
0.0
 10
133.1993404597363
 20
303.2610056933584
 30
0.0
 10
132.2788386466692
 20
303.2519548088716
 30
0.0
 10
131.3631373776512
 20
303.2242725650287
 30
0.0
 10
130.4657120283609
 20
303.1789833658875
 30
0.0
 10
129.5825643782928
 20
303.1152334370105
 30
0.0
 10
128.7353392417333
 20
303.0353696058891
 30
0.0
 10
127.9115040701978
 20
302.9373399852074
 30
0.0
 10
127.1399624623735
 20
302.8257360747471
 30
0.0
 10
126.4003746129789
 20
302.6962722232554
 30
0.0
 10
125.7274561691737
 20
302.5568706683911
 30
0.0
 10
125.0943311272175
 20
302.3997277033402
 30
0.0
 10
124.5392504018409
 20
302.2377876928015
 30
0.0
 10
124.031428662375
 20
302.0575558964103
 30
0.0
 10
123.6085199787208
 20
301.8781633320882
 30
0.0
 10
123.2393771871201
 20
301.678835199327
 30
0.0
 10
122.9522023725993
 20
301.488465705368
 30
0.0
 10
122.7261534437846
 20
301.2713124577463
 30
0.0
 10
122.6136193709556
 20
301.0760178332918
 30
0.0
 10
122.5563790729446
 20
300.9156647890395
 30
0.0
 10
122.5516519525591
 20
300.8394817389756
 30
0.0
 10
122.5493404628271
 20
300.8022295057173
 30
0.0
 11
143.8015048624757
 21
301.0237951037985
 31
0.0
 11
143.661070912348
 21
301.2647078165031
 31
0.0
 11
143.4684059200368
 21
301.4579442671981
 31
0.0
 11
143.1557598755888
 21
301.6743013213011
 31
0.0
 11
142.8236395518962
 21
301.8542972565834
 31
0.0
 11
142.3654455565265
 21
302.0528854149023
 31
0.0
 11
141.8952845112454
 21
302.2205497891103
 31
0.0
 11
141.3031970827282
 21
302.3957134555401
 31
0.0
 11
140.7043320190476
 21
302.5448423353182
 31
0.0
 11
139.9975940130493
 21
302.6926128130389
 31
0.0
 11
139.2865288399022
 21
302.8174516719726
 31
0.0
 11
138.4867209647111
 21
302.9339732474803
 31
0.0
 11
137.684213859526
 21
303.0296961398492
 31
0.0
 11
136.8158468687853
 21
303.1120569232576
 31
0.0
 11
135.9458797052005
 21
303.1749674255049
 31
0.0
 11
135.0354173121497
 21
303.2212056060797
 31
0.0
 11
134.1242089718058
 21
303.248745927782
 31
0.0
 11
133.1993404628272
 21
303.2579742026397
 31
0.0
 11
132.2744719538487
 21
303.248745927782
 31
0.0
 11
131.3632636135049
 21
303.2212056060798
 31
0.0
 11
130.452801220454
 21
303.174967425505
 31
0.0
 11
129.5828340568693
 21
303.1120569232578
 31
0.0
 11
128.7144670661285
 21
303.0296961398494
 31
0.0
 11
127.9119599609434
 21
302.9339732474805
 31
0.0
 11
127.1121520857524
 21
302.8174516719729
 31
0.0
 11
126.4010869126053
 21
302.6926128130392
 31
0.0
 11
125.694348906607
 21
302.5448423353185
 31
0.0
 11
125.0954838429262
 21
302.3957134555404
 31
0.0
 11
124.5033964144091
 21
302.2205497891106
 31
0.0
 11
124.0332353691281
 21
302.0528854149026
 31
0.0
 11
123.5750413737585
 21
301.8542972565838
 31
0.0
 11
123.2429210500659
 21
301.6743013213014
 31
0.0
 11
122.9302750056177
 21
301.4579442671985
 31
0.0
 11
122.7376100133065
 21
301.2647078165035
 31
0.0
 11
122.5971760631789
 21
301.023795103799
 31
0.0
 11
122.5612993629187
 21
300.9130123047581
 31
0.0
 11
122.5493404628271
 21
300.8022295057173
 31
0.0
  0
SPLINE
  5
174
330
53
100
AcDbEntity
  8
1
  6
Continuous
 62
     7
100
AcDbSpline
210
0.0
220
0.0
230
1.0
 70
     8
 71
     3
 72
     9
 73
     5
 74
     3
 42
0.000000001
 43
0.0000000001
 44
0.00000001
 40
0.0
 40
0.0
 40
0.0
 40
0.0
 40
0.1392317405953384
 40
0.2747728134967962
 40
0.2747728134967962
 40
0.2747728134967962
 40
0.2747728134967962
 10
143.3037694606771
 20
301.2138628436318
 30
0.0
 10
143.2841457310176
 20
301.256053051266
 30
0.0
 10
143.2454184277343
 20
301.3393151053978
 30
0.0
 10
143.1915613840194
 20
301.4136818545256
 30
0.0
 10
143.1649945498471
 20
301.4503657876688
 30
0.0
 11
143.3037694606771
 21
301.2138628436318
 31
0.0
 11
143.2410135359827
 21
301.3381494948974
 31
0.0
 11
143.1649945498471
 21
301.4503657876688
 31
0.0
  0
SPLINE
  5
175
330
53
100
AcDbEntity
  8
1
  6
Continuous
 62
     7
100
AcDbSpline
210
0.0
220
0.0
230
1.0
 70
     8
 71
     3
 72
    47
 73
    43
 74
    41
 42
0.000000001
 43
0.0000000001
 44
0.00000001
 40
0.0
 40
0.0
 40
0.0
 40
0.0
 40
0.1355410640405723
 40
0.2747728089789166
 40
0.4912569587902209
 40
0.7077411077521008
 40
0.97384818500452
 40
1.234276939211985
 40
1.596879547124572
 40
1.957147096534318
 40
2.43323899491075
 40
2.909121703555205
 40
3.497685787548568
 40
4.085963104826226
 40
4.774146320279571
 40
5.462252280783388
 40
6.232589890671261
 40
7.002874619313308
 40
7.834201981973459
 40
8.66550523221501
 40
9.534345598946402
 40
10.40317513733377
 40
11.28466751405482
 40
12.16615989095211
 40
13.03498942977894
 40
13.90382979705237
 40
14.73513304779102
 40
15.56646041087651
 40
16.33674513984236
 40
17.10708274999528
 40
17.7951887106965
 40
18.48337192631957
 40
19.07164924372675
 40
19.66021332784176
 40
20.13609603658228
 40
20.6121879350597
 40
20.972455484553
 40
21.33505809258061
 40
21.5954868468634
 40
21.86159392402401
 40
22.07807807258053
 40
22.29456221914019
 40
22.29456221914019
 40
22.29456221914019
 40
22.29456221914019
 10
123.2336863757848
 20
301.4503657876405
 30
0.0
 10
123.2074105854379
 20
301.4135226897399
 30
0.0
 10
123.1541435329163
 20
301.3388332857676
 30
0.0
 10
123.0795438750938
 20
301.1929034434955
 30
0.0
 10
123.0308340463812
 20
301.0020482131828
 30
0.0
 10
123.0908462740169
 20
300.7700450940688
 30
0.0
 10
123.2183274349542
 20
300.5546950417319
 30
0.0
 10
123.4329645181725
 20
300.3466660116272
 30
0.0
 10
123.7069504400289
 20
300.164946386772
 30
0.0
 10
124.0586839548708
 20
299.9744680181407
 30
0.0
 10
124.4617974005099
 20
299.8031112304555
 30
0.0
 10
124.9457735423685
 20
299.6309351980428
 30
0.0
 10
125.4748134294405
 20
299.4762342647869
 30
0.0
 10
126.0782159095914
 20
299.326122257078
 30
0.0
 10
126.719552517018
 20
299.1929563580883
 30
0.0
 10
127.4244195835201
 20
299.0692857540033
 30
0.0
 10
128.1597451181318
 20
298.9626748006671
 30
0.0
 10
128.9449039550177
 20
298.869032000394
 30
0.0
 10
129.7523576420656
 20
298.7927416162635
 30
0.0
 10
130.5940443906333
 20
298.7318445300675
 30
0.0
 10
131.4493401550538
 20
298.6885818546302
 30
0.0
 10
132.3220524643731
 20
298.662138426321
 30
0.0
 10
133.1993404608533
 20
298.6534925127021
 30
0.0
 10
134.0766284574837
 20
298.6621384254623
 30
0.0
 10
134.949340767227
 20
298.6885818531329
 30
0.0
 10
135.8046365321019
 20
298.7318445281567
 30
0.0
 10
136.6463232813879
 20
298.7927416142858
 30
0.0
 10
137.4537769680868
 20
298.869031997924
 30
0.0
 10
138.2389358079996
 20
298.9626747996473
 30
0.0
 10
138.974261333373
 20
299.0692857477864
 30
0.0
 10
139.6791284319591
 20
299.1929563693006
 30
0.0
 10
140.3204649291402
 20
299.3261222078954
 30
0.0
 10
140.9238677649993
 20
299.4762344100285
 30
0.0
 10
141.4529064524597
 20
299.6309346871151
 30
0.0
 10
141.9368862665386
 20
299.8031127276675
 30
0.0
 10
142.3399877179953
 20
299.9744629557185
 30
0.0
 10
142.6917558904896
 20
300.1649602778962
 30
0.0
 10
142.9656314772764
 20
300.3466195616803
 30
0.0
 10
143.1805749280789
 20
300.5548161395171
 30
0.0
 10
143.3070460722906
 20
300.7696138267345
 30
0.0
 10
143.3701863452964
 20
301.0033276289174
 30
0.0
 10
143.3259084174968
 20
301.143684437911
 30
0.0
 10
143.3037694606771
 20
301.2138628436318
 30
0.0
 11
123.2336863757848
 21
301.4503657876405
 31
0.0
 11
123.1576673896624
 21
301.3381494948819
 31
0.0
 11
123.0949114649774
 21
301.2138628436325
 31
0.0
 11
123.0493404628272
 21
301.0022295056846
 31
0.0
 11
123.0949114649773
 21
300.7905961677368
 31
0.0
 11
123.2286926477587
 21
300.5605623200022
 31
0.0
 11
123.412353870929
 21
300.3759229667349
 31
0.0
 11
123.7102794667423
 21
300.1692324004148
 31
0.0
 11
124.0268513055167
 21
299.9972586297904
 31
0.0
 11
124.4635202472295
 21
299.8075648483962
 31
0.0
 11
124.9116375909612
 21
299.6473924463946
 31
0.0
 11
125.4759160971772
 21
299.4800680667237
 31
0.0
 11
126.0466833591377
 21
299.337607776235
 31
0.0
 11
126.7202344308496
 21
299.1964515104422
 31
0.0
 11
127.3979277593822
 21
299.0771973077651
 31
0.0
 11
128.1601815719027
 21
298.9658907140205
 31
0.0
 11
128.9250196500894
 21
298.8744506981482
 31
0.0
 11
129.7526158447909
 21
298.7957759168505
 31
0.0
 11
130.5817440794442
 21
298.7356804693893
 31
0.0
 11
131.4494610197919
 21
298.6915115652887
 31
0.0
 11
132.3178921676375
 21
298.6652036687134
 31
0.0
 11
133.1993404628273
 21
298.6563883600112
 31
0.0
 11
134.080788758017
 21
298.6652036687134
 31
0.0
 11
134.9492199058624
 21
298.6915115652886
 31
0.0
 11
135.8169368462102
 21
298.7356804693892
 31
0.0
 11
136.6460650808636
 21
298.7957759168503
 31
0.0
 11
137.473661275565
 21
298.8744506981479
 31
0.0
 11
138.2384993537517
 21
298.9658907140202
 31
0.0
 11
139.0007531662721
 21
299.0771973077648
 31
0.0
 11
139.6784464948048
 21
299.1964515104419
 31
0.0
 11
140.3519975665166
 21
299.3376077762347
 31
0.0
 11
140.9227648284772
 21
299.4800680667233
 31
0.0
 11
141.4870433346933
 21
299.6473924463942
 31
0.0
 11
141.935160678425
 21
299.8075648483957
 31
0.0
 11
142.3718296201377
 21
299.9972586297899
 31
0.0
 11
142.6884014589121
 21
300.1692324004144
 31
0.0
 11
142.9863270547256
 21
300.3759229667345
 31
0.0
 11
143.169988277896
 21
300.5605623200017
 31
0.0
 11
143.3037694606772
 21
300.7905961677362
 31
0.0
 11
143.3493404628273
 21
301.0022295056839
 31
0.0
 11
143.3037694606771
 21
301.2138628436318
 31
0.0
  0
SPLINE
  5
176
330
53
100
AcDbEntity
  8
1
  6
Continuous
 62
     7
100
AcDbSpline
210
0.0
220
0.0
230
1.0
 70
     8
 71
     3
 72
     9
 73
     5
 74
     3
 42
0.000000001
 43
0.0000000001
 44
0.00000001
 40
0.0
 40
0.0
 40
0.0
 40
0.0
 40
0.1114264044798398
 40
0.2278736712323753
 40
0.2278736712323753
 40
0.2278736712323753
 40
0.2278736712323753
 10
143.8493404628273
 20
300.8022295058154
 30
0.0
 10
143.8471773288756
 20
300.8395463868965
 30
0.0
 10
143.8427535707937
 20
300.9158616407728
 30
0.0
 10
143.8154549335915
 20
300.9872926586045
 30
0.0
 10
143.8015048624757
 20
301.0237951037985
 30
0.0
 11
143.8493404628273
 21
300.8022295058154
 31
0.0
 11
143.8373815627253
 21
300.913012304807
 31
0.0
 11
143.8015048624757
 21
301.0237951037985
 31
0.0
  0
SPLINE
  5
177
330
53
100
AcDbEntity
  8
1
  6
Continuous
 62
     7
100
AcDbSpline
210
0.0
220
0.0
230
1.0
 70
     8
 71
     3
 72
    45
 73
    41
 74
    39
 42
0.000000001
 43
0.0000000001
 44
0.00000001
 40
0.0
 40
0.0
 40
0.0
 40
0.0
 40
0.1229352363022905
 40
0.2514099219693134
 40
0.5590678734158909
 40
0.8601258517719359
 40
1.279603873298584
 40
1.696381088236988
 40
2.247338707839361
 40
2.798057400560429
 40
3.479286341901773
 40
4.160183704519231
 40
4.956779948733191
 40
5.753287330188972
 40
6.645019815743719
 40
7.53669129010786
 40
8.499048313805442
 40
9.461377553229465
 40
10.46717286394733
 40
11.47295569133731
 40
12.49340131981471
 40
13.51384694829188
 40
14.51962977568163
 40
15.52542508639972
 40
16.487754325824
 40
17.45011134952157
 40
18.34178282388552
 40
19.23351530944016
 40
20.0300226908959
 40
20.82661893510993
 40
21.50751629772752
 40
22.18874523906891
 40
22.73946393179012
 40
23.29042155139242
 40
23.70719876633077
 40
24.12667678785752
 40
24.4277347662135
 40
24.73539271765996
 40
24.86386740332698
 40
24.98680263962928
 40
24.98680263962928
 40
24.98680263962928
 40
24.98680263962928
 10
144.9493404628274
 20
302.7483332358962
 30
0.0
 10
144.946790227674
 20
302.789433117732
 30
0.0
 10
144.94157485862
 20
302.8734848395089
 30
0.0
 10
144.878422417928
 20
303.0504001701082
 30
0.0
 10
144.7542651070939
 20
303.2658660702078
 30
0.0
 10
144.504868401745
 20
303.5054482917118
 30
0.0
 10
144.1880323387163
 20
303.7154803624685
 30
0.0
 10
143.7807621226347
 20
303.9353963774811
 30
0.0
 10
143.314172729834
 20
304.1333177512721
 30
0.0
 10
142.753899918639
 20
304.3321650383962
 30
0.0
 10
142.1414869116998
 20
304.5108312472428
 30
0.0
 10
141.4429686728279
 20
304.6842049411258
 30
0.0
 10
140.7005469154585
 20
304.8380047787037
 30
0.0
 10
139.8845697105727
 20
304.9808404834558
 30
0.0
 10
139.0333383590292
 20
305.1039715584239
 30
0.0
 10
138.1244122305804
 20
305.212126304278
 30
0.0
 10
137.1896802721423
 20
305.3002389818086
 30
0.0
 10
136.2153154936045
 20
305.3705734103407
 30
0.0
 10
135.2251983238953
 20
305.4205403670391
 30
0.0
 10
134.2149175807779
 20
305.4510818096081
 30
0.0
 10
133.1993404628272
 20
305.4610675269836
 30
0.0
 10
132.1837633448766
 20
305.4510818096081
 30
0.0
 10
131.1734826017592
 20
305.4205403670391
 30
0.0
 10
130.18336543205
 20
305.3705734103406
 30
0.0
 10
129.209000653512
 20
305.3002389818086
 30
0.0
 10
128.2742686950739
 20
305.2121263042779
 30
0.0
 10
127.3653425666252
 20
305.1039715584238
 30
0.0
 10
126.5141112150818
 20
304.9808404834558
 30
0.0
 10
125.698134010196
 20
304.8380047787039
 30
0.0
 10
124.9557122528265
 20
304.6842049411259
 30
0.0
 10
124.2571940139546
 20
304.5108312472428
 30
0.0
 10
123.6447810070153
 20
304.3321650383965
 30
0.0
 10
123.0845081958203
 20
304.133317751272
 30
0.0
 10
122.6179188030194
 20
303.9353963774811
 30
0.0
 10
122.210648586938
 20
303.7154803624687
 30
0.0
 10
121.8938125239093
 20
303.5054482917118
 30
0.0
 10
121.6444158185604
 20
303.2658660702078
 30
0.0
 10
121.5202585077266
 20
303.050400170108
 30
0.0
 10
121.4571060670346
 20
302.873484839509
 30
0.0
 10
121.4518906979806
 20
302.7894331177321
 30
0.0
 10
121.4493404628271
 20
302.7483332358962
 30
0.0
 11
144.9493404628274
 21
302.7483332358962
 31
0.0
 11
144.936146371178
 21
302.8705583897931
 31
0.0
 11
144.8965640962424
 21
302.9927835436751
 31
0.0
 11
144.741625231078
 21
303.2585792595697
 31
0.0
 11
144.5290605681993
 21
303.4717744047027
 31
0.0
 11
144.1841224440428
 21
303.710478196788
 31
0.0
 11
143.8176986127388
 21
303.9090652615362
 31
0.0
 11
143.3121794159694
 21
304.1281648728269
 31
0.0
 11
142.7934571359646
 21
304.3131466941361
 31
0.0
 11
142.140215137366
 21
304.5064023824507
 31
0.0
 11
141.4794954661689
 21
304.6709342451167
 31
0.0
 11
140.6997610464054
 21
304.8339674012873
 31
0.0
 11
139.9152525220413
 21
304.971700414665
 31
0.0
 11
139.032835382746
 21
305.1002570824786
 31
0.0
 11
138.1474402197483
 21
305.2058668463598
 31
0.0
 11
137.189382741701
 21
305.2967343773502
 31
0.0
 11
136.2295598147414
 21
305.3661426779518
 31
0.0
 11
135.2250590524555
 21
305.417156633046
 31
0.0
 11
134.2197352966769
 21
305.4475414950178
 31
0.0
 11
133.1993404628271
 21
305.457722925025
 31
0.0
 11
132.1789456289776
 21
305.4475414950178
 31
0.0
 11
131.1736218731993
 21
305.417156633046
 31
0.0
 11
130.1691211109131
 21
305.3661426779518
 31
0.0
 11
129.2092981839533
 21
305.2967343773502
 31
0.0
 11
128.251240705906
 21
305.2058668463596
 31
0.0
 11
127.3658455429084
 21
305.1002570824785
 31
0.0
 11
126.4834284036132
 21
304.971700414665
 31
0.0
 11
125.6989198792492
 21
304.8339674012874
 31
0.0
 11
124.9191854594856
 21
304.6709342451168
 31
0.0
 11
124.2584657882884
 21
304.5064023824508
 31
0.0
 11
123.6052237896897
 21
304.3131466941362
 31
0.0
 11
123.0865015096848
 21
304.1281648728269
 31
0.0
 11
122.5809823129155
 21
303.9090652615363
 31
0.0
 11
122.2145584816115
 21
303.7104781967881
 31
0.0
 11
121.869620357455
 21
303.4717744047027
 31
0.0
 11
121.6570556945764
 21
303.2585792595697
 31
0.0
 11
121.5021168294122
 21
302.9927835436751
 31
0.0
 11
121.4625345544766
 21
302.8705583897931
 31
0.0
 11
121.4493404628271
 21
302.7483332358962
 31
0.0
  0
SPLINE
  5
178
330
53
100
AcDbEntity
  8
1
  6
Continuous
 62
     7
100
AcDbSpline
210
0.0
220
0.0
230
1.0
 70
     8
 71
     3
 72
    45
 73
    41
 74
    39
 42
0.000000001
 43
0.0000000001
 44
0.00000001
 40
0.0
 40
0.0
 40
0.0
 40
0.0
 40
0.1114264056882091
 40
0.2278736740437826
 40
0.5067296045893126
 40
0.7796034318607203
 40
1.159811170598357
 40
1.537570944189808
 40
2.036949552648647
 40
2.536111601840486
 40
3.153565918935668
 40
3.770719698716493
 40
4.492740975441095
 40
5.21468170847545
 40
6.02293285502172
 40
6.83112870206731
 40
7.703392727881044
 40
8.575631570507507
 40
9.487267320315793
 40
10.39889175545211
 40
11.32380630391821
 40
12.24872085238436
 40
13.16034528752067
 40
14.07198103732893
 40
14.94421987995539
 40
15.816483905769
 40
16.62467975281452
 40
17.43293089936076
 40
18.15487163239513
 40
18.87689290911981
 40
19.4940466889007
 40
20.11150100599582
 40
20.61066305518758
 40
21.11004166364648
 40
21.48780143723797
 40
21.86800917597551
 40
22.14088300324697
 40
22.41973893379259
 40
22.53618620219828
 40
22.64761260793422
 40
22.64761260793422
 40
22.64761260793422
 40
22.64761260793422
 10
122.5493404628271
 20
300.8022295057173
 30
0.0
 10
122.5516519525594
 20
300.7649772723873
 30
0.0
 10
122.5563790729277
 20
300.6887942222592
 30
0.0
 10
122.6136193709954
 20
300.5284411779505
 30
0.0
 10
122.7261534438184
 20
300.333146553481
 30
0.0
 10
122.9522023726667
 20
300.115993305826
 30
0.0
 10
123.2393771872235
 20
299.9256238118247
 30
0.0
 10
123.608519978874
 20
299.7262956790098
 30
0.0
 10
124.0314286625886
 20
299.5469031146287
 30
0.0
 10
124.5392504021344
 20
299.3666713181667
 30
0.0
 10
125.0943311276088
 20
299.2047313075516
 30
0.0
 10
125.7274561696911
 20
299.047588342414
 30
0.0
 10
126.4003746136491
 20
298.9081867874611
 30
0.0
 10
127.1399624632355
 20
298.7787229358776
 30
0.0
 10
127.9115040712879
 20
298.6671190253341
 30
0.0
 10
128.7353392430975
 20
298.5690894045833
 30
0.0
 10
129.5825643799691
 20
298.4892255734234
 30
0.0
 10
130.4657120303873
 20
298.4254756445517
 30
0.0
 10
131.3631373800445
 20
298.3801864454766
 30
0.0
 10
132.2788386494354
 20
298.3525042017702
 30
0.0
 10
133.1993404628273
 20
298.3434533175047
 30
0.0
 10
134.119842276219
 20
298.3525042017704
 30
0.0
 10
135.03554354561
 20
298.3801864454764
 30
0.0
 10
135.9329688952671
 20
298.4254756445515
 30
0.0
 10
136.8161165456853
 20
298.4892255734234
 30
0.0
 10
137.6633416825568
 20
298.5690894045831
 30
0.0
 10
138.4871768543663
 20
298.6671190253337
 30
0.0
 10
139.2587184624188
 20
298.7787229358773
 30
0.0
 10
139.9983063120052
 20
298.9081867874609
 30
0.0
 10
140.6712247559632
 20
299.0475883424137
 30
0.0
 10
141.3043497980456
 20
299.2047313075514
 30
0.0
 10
141.8594305235198
 20
299.3666713181664
 30
0.0
 10
142.3672522630657
 20
299.5469031146283
 30
0.0
 10
142.7901609467802
 20
299.7262956790095
 30
0.0
 10
143.1593037384309
 20
299.9256238118243
 30
0.0
 10
143.4464785529876
 20
300.1159933058255
 30
0.0
 10
143.6725274818357
 20
300.3331465534809
 30
0.0
 10
143.7850615546679
 20
300.5284411779642
 30
0.0
 10
143.8423018527423
 20
300.6887942223068
 30
0.0
 10
143.8470289731002
 20
300.764977272469
 30
0.0
 10
143.8493404628273
 20
300.8022295058154
 30
0.0
 11
122.5493404628271
 21
300.8022295057173
 31
0.0
 11
122.5612993629115
 21
300.6914467066437
 31
0.0
 11
122.5971760631787
 21
300.5806639075701
 31
0.0
 11
122.7376100133062
 21
300.3397511948655
 31
0.0
 11
122.9302750056174
 21
300.1465147441705
 31
0.0
 11
123.2429210500657
 21
299.9301576900676
 31
0.0
 11
123.5750413737584
 21
299.7501617547852
 31
0.0
 11
124.033235369128
 21
299.5515735964663
 31
0.0
 11
124.503396414409
 21
299.3839092222584
 31
0.0
 11
125.095483842926
 21
299.2087455558284
 31
0.0
 11
125.6943489066067
 21
299.0596166760503
 31
0.0
 11
126.4010869126051
 21
298.9118461983297
 31
0.0
 11
127.1121520857522
 21
298.7870073393959
 31
0.0
 11
127.9119599609433
 21
298.6704857638884
 31
0.0
 11
128.7144670661285
 21
298.5747628715194
 31
0.0
 11
129.5828340568694
 21
298.492402088111
 31
0.0
 11
130.452801220454
 21
298.4294915858637
 31
0.0
 11
131.3632636135047
 21
298.3832534052889
 31
0.0
 11
132.2744719538486
 21
298.3557130835866
 31
0.0
 11
133.1993404628272
 21
298.3464848087287
 31
0.0
 11
134.1242089718059
 21
298.3557130835866
 31
0.0
 11
135.0354173121497
 21
298.3832534052888
 31
0.0
 11
135.9458797052004
 21
298.4294915858636
 31
0.0
 11
136.8158468687851
 21
298.4924020881109
 31
0.0
 11
137.6842138595258
 21
298.5747628715192
 31
0.0
 11
138.4867209647109
 21
298.6704857638881
 31
0.0
 11
139.286528839902
 21
298.7870073393957
 31
0.0
 11
139.9975940130491
 21
298.9118461983294
 31
0.0
 11
140.7043320190476
 21
299.05961667605
 31
0.0
 11
141.3031970827283
 21
299.2087455558282
 31
0.0
 11
141.8952845112453
 21
299.383909222258
 31
0.0
 11
142.3654455565263
 21
299.551573596466
 31
0.0
 11
142.823639551896
 21
299.7501617547848
 31
0.0
 11
143.1557598755886
 21
299.9301576900672
 31
0.0
 11
143.4684059200368
 21
300.1465147441701
 31
0.0
 11
143.6610709123481
 21
300.3397511948651
 31
0.0
 11
143.8015048624758
 21
300.5806639075697
 31
0.0
 11
143.8373815627536
 21
300.6914467066925
 31
0.0
 11
143.8493404628273
 21
300.8022295058154
 31
0.0
  0
SPLINE
  5
179
330
53
100
AcDbEntity
  8
1
  6
Continuous
 62
     7
100
AcDbSpline
210
0.0
220
0.0
230
1.0
 70
     8
 71
     3
 72
    12
 73
     8
 74
     6
 42
0.000000001
 43
0.0000000001
 44
0.00000001
 40
0.0
 40
0.0
 40
0.0
 40
0.0
 40
0.2071035065753673
 40
0.408347163407915
 40
0.6096208954931261
 40
0.6191778156322317
 40
0.6287309175363566
 40
0.6287309175363566
 40
0.6287309175363566
 40
0.6287309175363566
 10
144.8965640962422
 20
317.3939511472427
 30
0.0
 10
144.8663812951533
 20
317.4562134027359
 30
0.0
 10
144.8068696839541
 20
317.57897624283
 30
0.0
 10
144.6812210422099
 20
317.7405127085462
 30
0.0
 10
144.5796849651516
 20
317.8339424282758
 30
0.0
 10
144.5214995917931
 20
317.8787850916062
 30
0.0
 10
144.5164478207167
 20
317.8826654074219
 30
0.0
 10
144.5139224355085
 20
317.8846051720221
 30
0.0
 11
144.8965640962422
 21
317.3939511472427
 31
0.0
 11
144.7996743858786
 21
317.5769927990348
 31
0.0
 11
144.6771732098642
 21
317.7366564193773
 31
0.0
 11
144.5290605681991
 21
317.8729420082702
 31
0.0
 11
144.5214969965246
 21
317.8787838494413
 31
0.0
 11
144.5139224355085
 21
317.8846051720221
 31
0.0
  0
SPLINE
  5
17A
330
53
100
AcDbEntity
  8
1
  6
Continuous
 62
     7
100
AcDbSpline
210
0.0
220
0.0
230
1.0
 70
     8
 71
     3
 72
    14
 73
    10
 74
     8
 42
0.000000001
 43
0.0000000001
 44
0.00000001
 40
0.0
 40
0.0
 40
0.0
 40
0.0
 40
0.009553104161157
 40
0.0191100246311613
 40
0.220383766474133
 40
0.4216274231210601
 40
0.6287309266805968
 40
0.7572056046156217
 40
0.8801408394268644
 40
0.8801408394268644
 40
0.8801408394268644
 40
0.8801408394268644
 10
121.8847584902483
 20
317.8846051721007
 30
0.0
 10
121.8822330666123
 20
317.8826654257593
 30
0.0
 10
121.8771812191181
 20
317.8787851469335
 30
0.0
 10
121.819000207307
 20
317.8339403215206
 30
0.0
 10
121.7170402079213
 20
317.7407203375585
 30
0.0
 10
121.5933065898305
 20
317.5782364095111
 30
0.0
 10
121.508763346867
 20
317.4199706790725
 30
0.0
 10
121.4571319041783
 20
317.2746102677004
 30
0.0
 10
121.4518991734248
 20
317.1905868725033
 30
0.0
 10
121.4493404628271
 20
317.1495008394638
 30
0.0
 11
121.8847584902483
 21
317.8846051721007
 31
0.0
 11
121.8771839291808
 21
317.8787838494807
 31
0.0
 11
121.8696203574551
 21
317.8729420082702
 31
0.0
 11
121.72150771579
 21
317.7366564193773
 31
0.0
 11
121.5990065397758
 21
317.5769927990348
 31
0.0
 11
121.5021168294122
 21
317.3939511472425
 31
0.0
 11
121.4625345544734
 21
317.2717259933532
 31
0.0
 11
121.4493404628271
 21
317.1495008394638
 31
0.0
  0
SPLINE
  5
17B
330
53
100
AcDbEntity
  8
1
  6
Continuous
 62
     7
100
AcDbSpline
210
0.0
220
0.0
230
1.0
 70
     8
 71
     3
 72
    37
 73
    33
 74
    31
 42
0.000000001
 43
0.0000000001
 44
0.00000001
 40
0.0
 40
0.0
 40
0.0
 40
0.0
 40
0.409822845814959
 40
0.8171721531744929
 40
1.368129772532255
 40
1.918848465118163
 40
2.600077406315415
 40
3.280974768782175
 40
4.077571012796748
 40
4.874078394018825
 40
5.765810879264024
 40
6.657482353263272
 40
7.619839376502688
 40
8.582168615403923
 40
9.587963925514805
 40
10.59374675225114
 40
11.61419238003966
 40
12.63463800782795
 40
13.64042083456403
 40
14.64621614467514
 40
15.60854538357666
 40
16.57090240681605
 40
17.4625738808151
 40
18.35430636606021
 40
19.15081374728226
 40
19.9474099912969
 40
20.62830735376375
 40
21.30953629496099
 40
21.86025498754691
 40
22.4112126069047
 40
22.81856191420047
 40
23.22838475995028
 40
23.22838475995028
 40
23.22838475995028
 40
23.22838475995028
 10
144.5139224355085
 20
317.8846051720221
 30
0.0
 10
144.4030496040261
 20
317.96468847641
 30
0.0
 10
144.1819731363846
 20
318.124371743907
 30
0.0
 10
143.7770211812336
 20
318.3366364319278
 30
0.0
 10
143.314424884402
 20
318.5348308846851
 30
0.0
 10
142.7538143581471
 20
318.7332154089798
 30
0.0
 10
142.1415117059715
 20
318.9120328337627
 30
0.0
 10
141.4429607602041
 20
319.0853617097637
 30
0.0
 10
140.700549160691
 20
319.2391754658851
 30
0.0
 10
139.8845690240111
 20
319.3820071526668
 30
0.0
 10
139.0333385470392
 20
319.5051394253421
 30
0.0
 10
138.1244121719811
 20
319.6132938324623
 30
0.0
 10
137.1896802851205
 20
319.7014066071748
 30
0.0
 10
136.215315487365
 20
319.7717410083793
 30
0.0
 10
135.2251983237478
 20
319.8217079724174
 30
0.0
 10
134.2149175798016
 20
319.8522494127372
 30
0.0
 10
133.1993404628272
 20
319.862235130772
 30
0.0
 10
132.183763345853
 20
319.8522494127373
 30
0.0
 10
131.1734826019068
 20
319.8217079724175
 30
0.0
 10
130.1833654382895
 20
319.7717410083792
 30
0.0
 10
129.2090006405338
 20
319.7014066071748
 30
0.0
 10
128.2742687536733
 20
319.6132938324623
 30
0.0
 10
127.3653423786153
 20
319.505139425342
 30
0.0
 10
126.5141119016434
 20
319.3820071526667
 30
0.0
 10
125.6981317649635
 20
319.2391754658854
 30
0.0
 10
124.9557201654504
 20
319.0853617097636
 30
0.0
 10
124.257169219683
 20
318.9120328337627
 30
0.0
 10
123.6448665675074
 20
318.73321540898
 30
0.0
 10
123.0842560412524
 20
318.5348308846852
 30
0.0
 10
122.6216597444404
 20
318.336636431936
 30
0.0
 10
122.2167077893265
 20
318.1243717439382
 30
0.0
 10
121.9956313217153
 20
317.9646884764725
 30
0.0
 10
121.8847584902483
 20
317.8846051721007
 30
0.0
 11
144.5139224355085
 21
317.8846051720221
 31
0.0
 11
144.1760729569669
 21
318.1165803716129
 31
0.0
 11
143.817698612739
 21
318.3102328651038
 31
0.0
 11
143.3121794159696
 21
318.5293324763945
 31
0.0
 11
142.7934571359647
 21
318.7143142977037
 31
0.0
 11
142.1402151373661
 21
318.9075699860183
 31
0.0
 11
141.4794954661689
 21
319.0721018486843
 31
0.0
 11
140.6997610464054
 21
319.2351350048549
 31
0.0
 11
139.9152525220413
 21
319.3728680182326
 31
0.0
 11
139.032835382746
 21
319.5014246860462
 31
0.0
 11
138.1474402197483
 21
319.6070344499273
 31
0.0
 11
137.189382741701
 21
319.6979019809177
 31
0.0
 11
136.2295598147415
 21
319.7673102815193
 31
0.0
 11
135.2250590524555
 21
319.8183242366135
 31
0.0
 11
134.2197352966769
 21
319.8487090985853
 31
0.0
 11
133.1993404628271
 21
319.8588905285926
 31
0.0
 11
132.1789456289776
 21
319.8487090985854
 31
0.0
 11
131.1736218731993
 21
319.8183242366136
 31
0.0
 11
130.1691211109131
 21
319.7673102815193
 31
0.0
 11
129.2092981839533
 21
319.6979019809177
 31
0.0
 11
128.251240705906
 21
319.6070344499273
 31
0.0
 11
127.3658455429085
 21
319.5014246860462
 31
0.0
 11
126.4834284036133
 21
319.3728680182326
 31
0.0
 11
125.6989198792492
 21
319.235135004855
 31
0.0
 11
124.9191854594856
 21
319.0721018486843
 31
0.0
 11
124.2584657882884
 21
318.9075699860183
 31
0.0
 11
123.6052237896897
 21
318.7143142977038
 31
0.0
 11
123.0865015096848
 21
318.5293324763945
 31
0.0
 11
122.5809823129154
 21
318.3102328651038
 31
0.0
 11
122.222607968742
 21
318.1165803716462
 31
0.0
 11
121.8847584902483
 21
317.8846051721007
 31
0.0
  0
SPLINE
  5
17C
330
53
100
AcDbEntity
  8
1
  6
Continuous
 62
     7
100
AcDbSpline
210
0.0
220
0.0
230
1.0
 70
     8
 71
     3
 72
     9
 73
     5
 74
     3
 42
0.000000001
 43
0.0000000001
 44
0.00000001
 40
0.0
 40
0.0
 40
0.0
 40
0.0
 40
0.1229352351370338
 40
0.2514099192623618
 40
0.2514099192623618
 40
0.2514099192623618
 40
0.2514099192623618
 10
144.9493404628274
 20
317.1495008395233
 30
0.0
 10
144.946953906592
 20
317.1906720463998
 30
0.0
 10
144.9420732365578
 20
317.2748696273873
 30
0.0
 10
144.9119550197911
 20
317.3536784963946
 30
0.0
 10
144.8965640962422
 20
317.3939511472427
 30
0.0
 11
144.9493404628274
 21
317.1495008395233
 31
0.0
 11
144.9361463711746
 21
317.271725993383
 31
0.0
 11
144.8965640962422
 21
317.3939511472427
 31
0.0
  0
SPLINE
  5
17D
330
53
100
AcDbEntity
  8
1
  6
Continuous
 62
     7
100
AcDbSpline
210
0.0
220
0.0
230
1.0
 70
     8
 71
     3
 72
    41
 73
    37
 74
    35
 42
0.000000001
 43
0.0000000001
 44
0.00000001
 40
0.0
 40
0.0
 40
0.0
 40
0.0
 40
0.1229245082605274
 40
0.246720292134041
 40
0.6590582619508792
 40
1.068741396568912
 40
1.610321014100511
 40
2.151665771597674
 40
2.821299326660454
 40
3.4906069468749
 40
4.273644105982993
 40
5.056593914856541
 40
5.933147974932417
 40
6.809642062254524
 40
7.755618540544861
 40
8.701567707425912
 40
9.690243097505185
 40
10.67890621669496
 40
11.68198255734797
 40
12.68505889800109
 40
13.67372201719097
 40
14.66239740727016
 40
15.60834657415113
 40
16.5543230524415
 40
17.43081713976365
 40
18.30737119983946
 40
19.09032100871289
 40
19.87335816782092
 40
20.54266578803533
 40
21.21229934309819
 40
21.75364410059544
 40
22.29522371812696
 40
22.70490685274501
 40
23.11724482256194
 40
23.24104060644452
 40
23.36396511471402
 40
23.36396511471402
 40
23.36396511471402
 40
23.36396511471402
 10
144.5139224355712
 20
317.8846051719846
 30
0.0
 10
144.4866493790346
 20
317.9152632737067
 30
0.0
 10
144.4319099680423
 20
317.9767967883288
 30
0.0
 10
144.2626640444015
 20
318.1176138440256
 30
0.0
 10
144.0016696897738
 20
318.2957368252436
 30
0.0
 10
143.6004054628468
 20
318.5106263488647
 30
0.0
 10
143.1420786807218
 20
318.7056230903385
 30
0.0
 10
142.5912442425083
 20
318.9009497179466
 30
0.0
 10
141.9892873706601
 20
319.0766192481811
 30
0.0
 10
141.3026492948979
 20
319.2470287265341
 30
0.0
 10
140.5728674568611
 20
319.3982147856082
 30
0.0
 10
139.7707783733424
 20
319.5386180631127
 30
0.0
 10
138.9340363204265
 20
319.659653641879
 30
0.0
 10
138.0405812034408
 20
319.7659673561434
 30
0.0
 10
137.1217595971911
 20
319.8525802718123
 30
0.0
 10
136.1639797456895
 20
319.9217175103926
 30
0.0
 10
135.1907156362269
 20
319.9708339677318
 30
0.0
 10
134.1976311611412
 20
320.0008555552154
 30
0.0
 10
133.1993404628272
 20
320.0106713030987
 30
0.0
 10
132.2010497645132
 20
320.0008555552154
 30
0.0
 10
131.2079652894275
 20
319.9708339677319
 30
0.0
 10
130.2347011799649
 20
319.9217175103925
 30
0.0
 10
129.2769213284633
 20
319.8525802718124
 30
0.0
 10
128.3580997222136
 20
319.7659673561434
 30
0.0
 10
127.4646446052279
 20
319.659653641879
 30
0.0
 10
126.627902552312
 20
319.5386180631127
 30
0.0
 10
125.8258134687935
 20
319.398214785608
 30
0.0
 10
125.0960316307567
 20
319.2470287265341
 30
0.0
 10
124.4093935549945
 20
319.076619248181
 30
0.0
 10
123.8074366831463
 20
318.9009497179465
 30
0.0
 10
123.2566022449327
 20
318.7056230903386
 30
0.0
 10
122.7982754628077
 20
318.5106263488648
 30
0.0
 10
122.3970112358807
 20
318.2957368252437
 30
0.0
 10
122.1360168812503
 20
318.117613844024
 30
0.0
 10
121.9667709576055
 20
317.9767967883229
 30
0.0
 10
121.9120315466098
 20
317.9152632736953
 30
0.0
 10
121.8847584900716
 20
317.8846051719708
 30
0.0
 11
144.5139224355712
 21
317.8846051719846
 31
0.0
 11
144.4299638925567
 21
317.9743904580263
 31
0.0
 11
144.3362142685337
 21
318.0552384890564
 31
0.0
 11
143.9971474315971
 21
318.2898792378722
 31
0.0
 11
143.6369606016769
 21
318.485086097263
 31
0.0
 11
143.1400459869801
 21
318.7004563534679
 31
0.0
 11
142.6301530223796
 21
318.8822895480315
 31
0.0
 11
141.9880300365231
 21
319.0722557778217
 31
0.0
 11
141.3385566576017
 21
319.2339870981444
 31
0.0
 11
140.5720943130683
 21
319.3942452218697
 31
0.0
 11
139.800939125289
 21
319.5296338435301
 31
0.0
 11
138.9335418521943
 21
319.6560023127425
 31
0.0
 11
138.0632172451626
 21
319.7598144636215
 31
0.0
 11
137.1214671284437
 21
319.8491353132334
 31
0.0
 11
136.1779816130066
 21
319.9173621959524
 31
0.0
 11
135.190578736036
 21
319.9675078284067
 31
0.0
 11
134.202366873973
 21
319.9973755012386
 31
0.0
 11
133.1993404628273
 21
320.0073836303096
 31
0.0
 11
132.1963140516814
 21
319.9973755012386
 31
0.0
 11
131.2081021896183
 21
319.9675078284067
 31
0.0
 11
130.2206993126477
 21
319.9173621959524
 31
0.0
 11
129.2772137972107
 21
319.8491353132335
 31
0.0
 11
128.3354636804918
 21
319.7598144636215
 31
0.0
 11
127.4651390734601
 21
319.6560023127425
 31
0.0
 11
126.5977418003654
 21
319.5296338435301
 31
0.0
 11
125.8265866125862
 21
319.3942452218696
 31
0.0
 11
125.0601242680529
 21
319.2339870981444
 31
0.0
 11
124.4106508891316
 21
319.0722557778217
 31
0.0
 11
123.768527903275
 21
318.8822895480315
 31
0.0
 11
123.2586349386743
 21
318.700456353468
 31
0.0
 11
122.7617203239776
 21
318.4850860972631
 31
0.0
 11
122.4015334940575
 21
318.2898792378723
 31
0.0
 11
122.0624666571207
 21
318.0552384890564
 31
0.0
 11
121.9687170330913
 21
317.9743904580199
 31
0.0
 11
121.8847584900716
 21
317.8846051719708
 31
0.0
  0
ENDBLK
  5
55
330
53
100
AcDbEntity
  8
0
100
AcDbBlockEnd
  0
BLOCK
  5
57
330
56
100
AcDbEntity
  8
0
100
AcDbBlockBegin
  2
開示A4
 70
     0
 10
0.0
 20
0.0
 30
0.0
  3
開示A4
  1

  0
POINT
  5
17E
330
56
100
AcDbEntity
  8
1
 62
     4
100
AcDbPoint
 10
93.75
 20
17.0
 30
0.0
  0
POINT
  5
17F
330
56
100
AcDbEntity
  8
1
 62
     4
100
AcDbPoint
 10
85.25
 20
17.0
 30
0.0
  0
POINT
  5
180
330
56
100
AcDbEntity
  8
1
 62
     4
100
AcDbPoint
 10
106.5
 20
19.00000000000001
 30
0.0
  0
POINT
  5
181
330
56
100
AcDbEntity
  8
1
 62
     4
100
AcDbPoint
 10
106.5
 20
12.5
 30
0.0
  0
POINT
  5
182
330
56
100
AcDbEntity
  8
1
 62
     4
100
AcDbPoint
 10
112.25
 20
12.5
 30
0.0
  0
POINT
  5
183
330
56
100
AcDbEntity
  8
1
 62
     4
100
AcDbPoint
 10
100.75
 20
12.5
 30
0.0
  0
POINT
  5
184
330
56
100
AcDbEntity
  8
1
 62
     4
100
AcDbPoint
 10
123.5
 20
19.00000000000001
 30
0.0
  0
POINT
  5
185
330
56
100
AcDbEntity
  8
1
 62
     4
100
AcDbPoint
 10
123.5
 20
12.5
 30
0.0
  0
POINT
  5
186
330
56
100
AcDbEntity
  8
1
 62
     4
100
AcDbPoint
 10
129.25
 20
12.5
 30
0.0
  0
POINT
  5
187
330
56
100
AcDbEntity
  8
1
 62
     4
100
AcDbPoint
 10
117.75
 20
12.5
 30
0.0
  0
POINT
  5
188
330
56
100
AcDbEntity
  8
1
 62
     4
100
AcDbPoint
 10
140.5
 20
19.00000000000001
 30
0.0
  0
POINT
  5
189
330
56
100
AcDbEntity
  8
1
 62
     4
100
AcDbPoint
 10
140.5
 20
12.5
 30
0.0
  0
POINT
  5
18A
330
56
100
AcDbEntity
  8
1
 62
     4
100
AcDbPoint
 10
146.25
 20
12.5
 30
0.0
  0
POINT
  5
18B
330
56
100
AcDbEntity
  8
1
 62
     4
100
AcDbPoint
 10
134.75
 20
12.5
 30
0.0
  0
POINT
  5
18C
330
56
100
AcDbEntity
  8
1
 62
     4
100
AcDbPoint
 10
151.75
 20
12.5
 30
0.0
  0
POINT
  5
18D
330
56
100
AcDbEntity
  8
1
 62
     4
100
AcDbPoint
 10
163.25
 20
12.5
 30
0.0
  0
POINT
  5
18E
330
56
100
AcDbEntity
  8
1
 62
     4
100
AcDbPoint
 10
157.5
 20
12.5
 30
0.0
  0
POINT
  5
18F
330
56
100
AcDbEntity
  8
1
 62
     4
100
AcDbPoint
 10
57.0
 20
14.25
 30
0.0
  0
POINT
  5
190
330
56
100
AcDbEntity
  8
1
 62
     4
100
AcDbPoint
 10
57.0
 20
22.75000000000001
 30
0.0
  0
POINT
  5
191
330
56
100
AcDbEntity
  8
1
 62
     4
100
AcDbPoint
 10
47.5
 20
282.0000000000003
 30
0.0
  0
POINT
  5
192
330
56
100
AcDbEntity
  8
1
 62
     4
100
AcDbPoint
 10
157.5
 20
19.00000000000001
 30
0.0
  0
POINT
  5
193
330
56
100
AcDbEntity
  8
1
 62
     4
100
AcDbPoint
 10
57.0
 20
16.25
 30
0.0
  0
POINT
  5
194
330
56
100
AcDbEntity
  8
1
 62
     4
100
AcDbPoint
 10
57.0
 20
24.75000000000001
 30
0.0
  0
POINT
  5
195
330
56
100
AcDbEntity
  8
1
 62
     4
100
AcDbPoint
 10
57.0
 20
20.75000000000001
 30
0.0
  0
POINT
  5
196
330
56
100
AcDbEntity
  8
1
 62
     4
100
AcDbPoint
 10
57.0
 20
12.25
 30
0.0
  0
POINT
  5
197
330
56
100
AcDbEntity
  8
1
 62
     4
100
AcDbPoint
 10
34.0
 20
34.00000000000001
 30
0.0
  0
LINE
  5
198
330
56
100
AcDbEntity
  8
1
  6
Continuous
 62
     7
100
AcDbLine
 10
105.0
 20
10.0
 30
0.0
 11
200.0
 21
10.0
 31
0.0
  0
LINE
  5
199
330
56
100
AcDbEntity
  8
1
  6
Continuous
 62
     2
100
AcDbLine
 10
105.0
 20
10.0
 30
0.0
 11
105.0
 21
5.0
 31
0.0
  0
LINE
  5
19A
330
56
100
AcDbEntity
  8
1
  6
Continuous
 62
     7
100
AcDbLine
 10
200.0
 20
148.5
 30
0.0
 11
200.0
 21
287.0000000000003
 31
0.0
  0
LINE
  5
19B
330
56
100
AcDbEntity
  8
1
  6
Continuous
 62
     2
100
AcDbLine
 10
200.0
 20
148.5
 30
0.0
 11
205.0
 21
148.5
 31
0.0
  0
LINE
  5
19C
330
56
100
AcDbEntity
  8
1
  6
Continuous
 62
     7
100
AcDbLine
 10
25.0
 20
148.5
 30
0.0
 11
25.0
 21
287.0000000000003
 31
0.0
  0
LINE
  5
19D
330
56
100
AcDbEntity
  8
1
  6
Continuous
 62
     2
100
AcDbLine
 10
25.0
 20
148.5
 30
0.0
 11
20.0
 21
148.5
 31
0.0
  0
LINE
  5
19E
330
56
100
AcDbEntity
  8
1
  6
Continuous
 62
     7
100
AcDbLine
 10
105.0
 20
287.0000000000003
 30
0.0
 11
25.0
 21
287.0000000000003
 31
0.0
  0
LINE
  5
19F
330
56
100
AcDbEntity
  8
1
  6
Continuous
 62
     2
100
AcDbLine
 10
105.0
 20
287.0000000000003
 30
0.0
 11
105.0
 21
292.0000000000003
 31
0.0
  0
LINE
  5
1A0
330
56
100
AcDbEntity
  8
1
  6
Continuous
 62
     2
100
AcDbLine
 10
166.0
 20
20.00000000000001
 30
0.0
 11
200.0
 21
20.00000000000001
 31
0.0
  0
LINE
  5
1A1
330
56
100
AcDbEntity
  8
1
  6
Continuous
 62
     2
100
AcDbLine
 10
98.0
 20
27.00000000000001
 30
0.0
 11
98.0
 21
9.99999999999999
 31
0.0
  0
LINE
  5
1A2
330
56
100
AcDbEntity
  8
1
  6
Continuous
 62
     2
100
AcDbLine
 10
115.0
 20
27.00000000000001
 30
0.0
 11
115.0
 21
9.99999999999999
 31
0.0
  0
LINE
  5
1A3
330
56
100
AcDbEntity
  8
1
  6
Continuous
 62
     2
100
AcDbLine
 10
149.0
 20
27.00000000000001
 30
0.0
 11
149.0
 21
10.0
 31
0.0
  0
LINE
  5
1A4
330
56
100
AcDbEntity
  8
1
  6
Continuous
 62
     2
100
AcDbLine
 10
132.0
 20
27.00000000000001
 30
0.0
 11
132.0
 21
9.99999999999999
 31
0.0
  0
LINE
  5
1A5
330
56
100
AcDbEntity
  8
1
  6
Continuous
 62
     2
100
AcDbLine
 10
166.0
 20
27.00000000000001
 30
0.0
 11
166.0
 21
10.0
 31
0.0
  0
LINE
  5
1A6
330
56
100
AcDbEntity
  8
1
  6
Continuous
 62
     2
100
AcDbLine
 10
55.0
 20
277.0000000000003
 30
0.0
 11
25.0
 21
277.0000000000003
 31
0.0
  0
LINE
  5
1A7
330
56
100
AcDbEntity
  8
1
  6
Continuous
 62
     7
100
AcDbLine
 10
25.0
 20
10.0
 30
0.0
 11
25.0
 21
148.5
 31
0.0
  0
LINE
  5
1A8
330
56
100
AcDbEntity
  8
1
  6
Continuous
 62
     2
100
AcDbLine
 10
40.0
 20
287.0000000000003
 30
0.0
 11
40.0
 21
277.0000000000003
 31
0.0
  0
LINE
  5
1A9
330
56
100
AcDbEntity
  8
1
  6
Continuous
 62
     2
100
AcDbLine
 10
55.0
 20
287.0000000000003
 30
0.0
 11
55.0
 21
277.0000000000003
 31
0.0
  0
LINE
  5
1AA
330
56
100
AcDbEntity
  8
1
  6
Continuous
 62
     2
100
AcDbLine
 10
33.0
 20
41.00000000000001
 30
0.0
 11
33.0
 21
27.0
 31
0.0
  0
LINE
  5
1AB
330
56
100
AcDbEntity
  8
1
  6
Continuous
 62
     7
100
AcDbLine
 10
200.0
 20
27.00000000000001
 30
0.0
 11
25.0
 21
27.00000000000001
 31
0.0
  0
LINE
  5
1AC
330
56
100
AcDbEntity
  8
1
  6
Continuous
 62
     7
100
AcDbLine
 10
25.0
 20
41.0
 30
0.0
 11
200.0
 21
41.0
 31
0.0
  0
LINE
  5
1AD
330
56
100
AcDbEntity
  8
1
  6
PHANTOM
 62
     4
100
AcDbLine
 10
0.0
 20
0.0
 30
0.0
 11
210.0
 21
0.0
 31
0.0
  0
LINE
  5
1AE
330
56
100
AcDbEntity
  8
1
  6
PHANTOM
 62
     4
100
AcDbLine
 10
210.0
 20
0.0
 30
0.0
 11
210.0
 21
297.0
 31
0.0
  0
LINE
  5
1AF
330
56
100
AcDbEntity
  8
1
  6
PHANTOM
 62
     4
100
AcDbLine
 10
210.0
 20
297.0
 30
0.0
 11
0.0
 21
297.0
 31
0.0
  0
LINE
  5
1B0
330
56
100
AcDbEntity
  8
1
  6
PHANTOM
 62
     4
100
AcDbLine
 10
0.0
 20
297.0
 30
0.0
 11
0.0
 21
0.0
 31
0.0
  0
LINE
  5
1B1
330
56
100
AcDbEntity
  8
1
  6
Continuous
 62
     7
100
AcDbLine
 10
25.0
 20
10.0
 30
0.0
 11
105.0
 21
10.0
 31
0.0
  0
LINE
  5
1B2
330
56
100
AcDbEntity
  8
1
  6
Continuous
 62
     7
100
AcDbLine
 10
200.0
 20
10.0
 30
0.0
 11
200.0
 21
148.5
 31
0.0
  0
LINE
  5
1B3
330
56
100
AcDbEntity
  8
1
  6
Continuous
 62
     7
100
AcDbLine
 10
200.0
 20
287.0000000000003
 30
0.0
 11
105.0
 21
287.0000000000003
 31
0.0
  0
LINE
  5
1B4
330
56
100
AcDbEntity
  8
1
  6
Continuous
 62
     2
100
AcDbLine
 10
25.0
 20
18.50000000000001
 30
0.0
 11
81.0
 21
18.50000000000001
 31
0.0
  0
LINE
  5
1B5
330
56
100
AcDbEntity
  8
1
  6
Continuous
 62
     2
100
AcDbLine
 10
33.0
 20
27.0
 30
0.0
 11
33.0
 21
10.0
 31
0.0
  0
LINE
  5
1B6
330
56
100
AcDbEntity
  8
1
  6
Continuous
 62
     7
100
AcDbLine
 10
191.0
 20
24.70000000000001
 30
0.0
 11
191.0
 21
22.30000000000001
 31
0.0
  0
LINE
  5
1B7
330
56
100
AcDbEntity
  8
1
  6
Continuous
 62
     7
100
AcDbLine
 10
191.0
 20
24.70000000000001
 30
0.0
 11
196.0
 21
25.50000000000001
 31
0.0
  0
LINE
  5
1B8
330
56
100
AcDbEntity
  8
1
  6
Continuous
 62
     7
100
AcDbLine
 10
196.0
 20
25.50000000000001
 30
0.0
 11
196.0
 21
21.50000000000001
 31
0.0
  0
LINE
  5
1B9
330
56
100
AcDbEntity
  8
1
  6
Continuous
 62
     7
100
AcDbLine
 10
196.0
 20
21.50000000000001
 30
0.0
 11
191.0
 21
22.30000000000001
 31
0.0
  0
LINE
  5
1BA
330
56
100
AcDbEntity
  8
1
  6
DOT_CENTER
 62
     2
100
AcDbLine
 10
184.0
 20
23.50000000000001
 30
0.0
 11
197.0
 21
23.50000000000001
 31
0.0
  0
LINE
  5
1BB
330
56
100
AcDbEntity
  8
1
  6
DOT_CENTER
 62
     2
100
AcDbLine
 10
187.0
 20
26.50000000000001
 30
0.0
 11
187.0
 21
20.50000000000001
 31
0.0
  0
LINE
  5
1BC
330
56
100
AcDbEntity
  8
1
  6
Continuous
 62
     2
100
AcDbLine
 10
81.0
 20
27.00000000000001
 30
0.0
 11
81.0
 21
10.0
 31
0.0
  0
CIRCLE
  5
1BD
330
56
100
AcDbEntity
  8
1
  6
Continuous
 62
     7
100
AcDbCircle
 10
103.5
 20
12.5
 30
0.0
 40
0.2999999999999972
  0
CIRCLE
  5
1BE
330
56
100
AcDbEntity
  8
1
  6
Continuous
 62
     7
100
AcDbCircle
 10
109.5
 20
12.5
 30
0.0
 40
0.2999999999999972
  0
CIRCLE
  5
1BF
330
56
100
AcDbEntity
  8
1
  6
Continuous
 62
     7
100
AcDbCircle
 10
120.5
 20
12.5
 30
0.0
 40
0.2999999999999972
  0
CIRCLE
  5
1C0
330
56
100
AcDbEntity
  8
1
  6
Continuous
 62
     7
100
AcDbCircle
 10
126.5
 20
12.5
 30
0.0
 40
0.2999999999999972
  0
CIRCLE
  5
1C1
330
56
100
AcDbEntity
  8
1
  6
Continuous
 62
     7
100
AcDbCircle
 10
137.5
 20
12.5
 30
0.0
 40
0.3000000000000114
  0
CIRCLE
  5
1C2
330
56
100
AcDbEntity
  8
1
  6
Continuous
 62
     7
100
AcDbCircle
 10
143.5
 20
12.5
 30
0.0
 40
0.3000000000000114
  0
CIRCLE
  5
1C3
330
56
100
AcDbEntity
  8
1
  6
Continuous
 62
     7
100
AcDbCircle
 10
160.5
 20
12.5
 30
0.0
 40
0.3000000000000114
  0
CIRCLE
  5
1C4
330
56
100
AcDbEntity
  8
1
  6
Continuous
 62
     7
100
AcDbCircle
 10
154.5
 20
12.5
 30
0.0
 40
0.3000000000000114
  0
CIRCLE
  5
1C5
330
56
100
AcDbEntity
  8
1
  6
Continuous
 62
     7
100
AcDbCircle
 10
187.0
 20
23.50000000000001
 30
0.0
 40
1.200000000000102
  0
CIRCLE
  5
1C6
330
56
100
AcDbEntity
  8
1
  6
Continuous
 62
     7
100
AcDbCircle
 10
187.0
 20
23.50000000000001
 30
0.0
 40
2.0
  0
CIRCLE
  5
1C7
330
56
100
AcDbEntity
  8
1
  6
DOT_CENTER
 62
     7
100
AcDbCircle
 10
89.5
 20
16.0
 30
0.0
 40
0.1000000000000227
  0
CIRCLE
  5
1C8
330
56
100
AcDbEntity
  8
1
  6
DOT_CENTER
 62
     7
100
AcDbCircle
 10
89.5
 20
18.0
 30
0.0
 40
0.1000000000000227
  0
MTEXT
  5
1CA
330
56
100
AcDbEntity
  8
1
 62
     7
100
AcDbMText
 10
188.5
 20
15.0
 30
0.0
 40
3.0
 41
0.0
 71
     5
 72
     1
  1
三栄水栓製作所
  7
CONVERTER_11
 73
     1
 44
1.0
  0
MTEXT
  5
1CB
330
56
100
AcDbEntity
  8
1
 62
     7
100
AcDbMText
 10
171.5
 20
15.0
 30
0.0
 40
2.5
 41
0.0
 71
     5
 72
     1
  1
株式会社
  7
CONVERTER_11
 73
     1
 44
1.0
  0
MTEXT
  5
1CC
330
56
100
AcDbEntity
  8
1
 62
     2
100
AcDbMText
 10
32.5
 20
282.0000000000003
 30
0.0
 40
5.0
 41
0.0
 71
     5
 72
     1
  1
図番
  7
CONVERTER_11
 73
     1
 44
0.45454545454545
  0
MTEXT
  5
1CD
330
56
100
AcDbEntity
  8
1
 62
     2
100
AcDbMText
 10
29.0
 20
34.00000000000001
 30
0.0
 40
3.5
 41
0.0
 71
     5
 72
     1
  1
備考
  7
CONVERTER_11
 73
     1
 44
0.45454545454545
  0
MTEXT
  5
1CE
330
56
100
AcDbEntity
  8
1
 62
     2
100
AcDbMText
 10
29.0
 20
22.75
 30
0.0
 40
3.5
 41
0.0
 71
     5
 72
     1
  1
品名
  7
CONVERTER_11
 73
     1
 44
0.72727272727273
  0
MTEXT
  5
1CF
330
56
100
AcDbEntity
  8
1
 62
     2
100
AcDbMText
 10
29.0
 20
14.25
 30
0.0
 40
3.5
 41
0.0
 71
     5
 72
     1
  1
品番
  7
CONVERTER_11
 73
     1
 44
0.72727272727273
  0
MTEXT
  5
1D0
330
56
100
AcDbEntity
  8
1
 62
     2
100
AcDbMText
 10
101.5
 20
25.00000000000001
 30
0.0
 40
3.0
 41
0.0
 71
     5
 72
     1
  1
承認
  7
CONVERTER_11
 73
     1
 44
0.59090909090909
  0
MTEXT
  5
1D1
330
56
100
AcDbEntity
  8
1
 62
     2
100
AcDbMText
 10
175.0
 20
23.50000000000001
 30
0.0
 40
3.5
 41
0.0
 71
     5
 72
     1
  1
第三角法
  7
CONVERTER_11
 73
     1
 44
0.54545454545455
  0
MTEXT
  5
1D2
330
56
100
AcDbEntity
  8
1
 62
     2
100
AcDbMText
 10
118.5
 20
25.00000000000001
 30
0.0
 40
3.0
 41
0.0
 71
     5
 72
     1
  1
検図
  7
CONVERTER_11
 73
     1
 44
0.59090909090909
  0
MTEXT
  5
1D3
330
56
100
AcDbEntity
  8
1
 62
     2
100
AcDbMText
 10
152.5
 20
25.00000000000001
 30
0.0
 40
3.0
 41
0.0
 71
     5
 72
     1
  1
設計
  7
CONVERTER_11
 73
     1
 44
0.59090909090909
  0
MTEXT
  5
1D4
330
56
100
AcDbEntity
  8
1
 62
     2
100
AcDbMText
 10
135.5
 20
25.00000000000001
 30
0.0
 40
3.0
 41
0.0
 71
     5
 72
     1
  1
製図
  7
CONVERTER_11
 73
     1
 44
0.59090909090909
  0
MTEXT
  5
1D5
330
56
100
AcDbEntity
  8
1
 62
     2
100
AcDbMText
 10
89.5
 20
24.00000000000001
 30
0.0
 40
3.5
 41
0.0
 71
     5
 72
     1
  1
尺度
  7
CONVERTER_11
 73
     1
 44
0.54545454545455
  0
MTEXT
  5
1D6
330
56
100
AcDbEntity
  8
1
 62
   250
100
AcDbMText
 10
25.0
 20
5.0
 30
0.0
 40
3.5
 41
0.0
 71
     4
 72
     1
  1
備考欄の文字列 原点位置=4
  7
CONVERTER_11
 73
     1
 44
0.54545454545455
  0
ENDBLK
  5
58
330
56
100
AcDbEntity
  8
0
100
AcDbBlockEnd
  0
BLOCK
  5
5A
330
59
100
AcDbEntity
  8
0
100
AcDbBlockBegin
  2
87-64
 70
     0
 10
651.4730161286166
 20
381.1498596690295
 30
0.0
  3
87-64
  1

  0
SPLINE
  5
1D7
330
59
100
AcDbEntity
  8
1
  6
Continuous
 62
     7
100
AcDbSpline
210
0.0
220
0.0
230
1.0
 70
     8
 71
     3
 72
    37
 73
    33
 74
    31
 42
0.000000001
 43
0.0000000001
 44
0.00000001
 40
0.0
 40
0.0
 40
0.0
 40
0.0
 40
0.2078779628973384
 40
0.4159829044394928
 40
0.8874044236690868
 40
1.358260122239173
 40
1.92546186549
 40
2.492341861529474
 40
3.146433338976605
 40
3.80038243086888
 40
4.526859154178471
 40
5.253257669570879
 40
6.033824702911315
 40
6.81435171804968
 40
7.628297551218637
 40
8.442225952610398
 40
9.267444612566832
 40
10.09266327252332
 40
10.90659167391517
 40
11.72053750708424
 40
12.5010645222227
 40
13.28163155556313
 40
14.00803007095551
 40
14.73450679426503
 40
15.38845588615722
 40
16.0425473636043
 40
16.60942735964374
 40
17.17662910289454
 40
17.64748480146466
 40
18.11890632069432
 40
18.32701126224238
 40
18.53488922514595
 40
18.53488922514595
 40
18.53488922514595
 40
18.53488922514595
 10
124.2767748677753
 20
302.0118534768689
 30
0.0
 10
124.3300151885871
 20
301.9674422804832
 30
0.0
 10
124.436553953456
 20
301.878571384666
 30
0.0
 10
124.6811054908542
 20
301.7116136753854
 30
0.0
 10
125.0123968057078
 20
301.5175964473661
 30
0.0
 10
125.4663996592777
 20
301.2996348699411
 30
0.0
 10
125.9638251447571
 20
301.1017501141557
 30
0.0
 10
126.5289732629785
 20
300.9115651908396
 30
0.0
 10
127.1308298046209
 20
300.7422518554856
 30
0.0
 10
127.7908225722056
 20
300.5855881003839
 30
0.0
 10
128.4801141609814
 20
300.4502825044694
 30
0.0
 10
129.2152147931934
 20
300.3316829895036
 30
0.0
 10
129.9716843789218
 20
300.2349544724126
 30
0.0
 10
130.7597079344994
 20
300.1578351181146
 30
0.0
 10
131.5607444370384
 20
300.1030045630599
 30
0.0
 10
132.3778570543572
 20
300.0695214796074
 30
0.0
 10
133.1993404628271
 20
300.0585583905446
 30
0.0
 10
134.0208238712972
 20
300.0695214796073
 30
0.0
 10
134.8379364886159
 20
300.1030045630599
 30
0.0
 10
135.6389729911551
 20
300.1578351181145
 30
0.0
 10
136.4269965467327
 20
300.2349544724127
 30
0.0
 10
137.1834661324612
 20
300.3316829895035
 30
0.0
 10
137.9185667646731
 20
300.4502825044695
 30
0.0
 10
138.6078583534488
 20
300.5855881003839
 30
0.0
 10
139.2678511210335
 20
300.7422518554854
 30
0.0
 10
139.8697076626758
 20
300.9115651908396
 30
0.0
 10
140.4348557808972
 20
301.1017501141558
 30
0.0
 10
140.9322812663765
 20
301.299634869941
 30
0.0
 10
141.3862841199464
 20
301.5175964473663
 30
0.0
 10
141.7175754348019
 20
301.7116136753865
 30
0.0
 10
141.9621269722031
 20
301.8785713846695
 30
0.0
 10
142.0686657370751
 20
301.9674422804895
 30
0.0
 10
142.1219060578883
 20
302.0118534768768
 30
0.0
 11
124.2767748677753
 21
302.0118534768689
 31
0.0
 11
124.4385181418797
 21
301.8812687912756
 31
0.0
 11
124.6093309975745
 21
301.7623964424797
 31
0.0
 11
125.0155749459194
 21
301.5232226503019
 31
0.0
 11
125.4393796336133
 21
301.3180527812747
 31
0.0
 11
125.9656590835936
 21
301.1065161236133
 31
0.0
 11
126.5027146683445
 21
300.9250657769413
 31
0.0
 11
127.1319856166802
 21
300.7465896333181
 31
0.0
 11
127.7681538924712
 21
300.59513224957
 31
0.0
 11
128.4808526787199
 21
300.4543172329232
 31
0.0
 11
129.1979339856257
 21
300.3383465392332
 31
0.0
 11
129.9721252432154
 21
300.2387835467686
 31
0.0
 11
130.7489281634132
 21
300.1626281542918
 31
0.0
 11
131.5609512501058
 21
300.106714602936
 31
0.0
 11
132.374197331872
 21
300.0733941542169
 31
0.0
 11
133.1993404628271
 21
300.0622295056842
 31
0.0
 11
134.0244835937823
 21
300.0733941542169
 31
0.0
 11
134.8377296755485
 21
300.106714602936
 31
0.0
 11
135.6497527622413
 21
300.1626281542918
 31
0.0
 11
136.4265556824392
 21
300.2387835467686
 31
0.0
 11
137.2007469400289
 21
300.3383465392332
 31
0.0
 11
137.9178282469346
 21
300.4543172329232
 31
0.0
 11
138.6305270331832
 21
300.59513224957
 31
0.0
 11
139.2666953089742
 21
300.746589633318
 31
0.0
 11
139.8959662573098
 21
300.9250657769413
 31
0.0
 11
140.4330218420608
 21
301.1065161236133
 31
0.0
 11
140.959301292041
 21
301.3180527812747
 31
0.0
 11
141.3831059797348
 21
301.523222650302
 31
0.0
 11
141.7893499280798
 21
301.7623964424798
 31
0.0
 11
141.9601627837793
 21
301.8812687912792
 31
0.0
 11
142.1219060578883
 21
302.0118534768768
 31
0.0
  0
ENDBLK
  5
5B
330
59
100
AcDbEntity
  8
0
100
AcDbBlockEnd
  0
BLOCK
  5
201
330
1FA
100
AcDbEntity
  8
0
100
AcDbBlockBegin
  2
*D8
 70
     1
 10
0.0
 20
0.0
 30
0.0
  3
*D8
  1

  0
LINE
  5
1FB
330
1FA
100
AcDbEntity
  8
1
  6
Continuous
 62
     2
100
AcDbLine
 10
250.6215302426759
 20
300.8022295056843
 30
0.0
 11
250.6215302426759
 21
180.4999999999998
 31
0.0
  0
LINE
  5
1FC
330
1FA
100
AcDbEntity
  8
1
  6
Continuous
 62
     2
100
AcDbLine
 10
367.8418389927641
 20
180.4999999999998
 30
0.0
 11
248.1215302426759
 21
180.4999999999998
 31
0.0
  0
LINE
  5
1FD
330
1FA
100
AcDbEntity
  8
1
  6
Continuous
 62
     2
100
AcDbLine
 10
286.5937169446272
 20
300.8022295056843
 30
0.0
 11
248.1215302426759
 21
300.8022295056843
 31
0.0
  0
SOLID
  5
1FE
330
1FA
100
AcDbEntity
  8
1
 62
     2
100
AcDbTrace
 10
251.7734895965656
 20
292.0522295056843
 30
0.0
 11
249.4695708887862
 21
292.0522295056843
 31
0.0
 12
250.6215302426759
 22
300.8022295056843
 32
0.0
 13
250.6215302426759
 23
300.8022295056843
 33
0.0
  0
SOLID
  5
1FF
330
1FA
100
AcDbEntity
  8
1
 62
     2
100
AcDbTrace
 10
249.4695708887862
 20
189.2499999999998
 30
0.0
 11
251.7734895965656
 21
189.2499999999998
 31
0.0
 12
250.6215302426759
 22
180.4999999999998
 32
0.0
 13
250.6215302426759
 23
180.4999999999998
 33
0.0
  0
MTEXT
  5
200
330
1FA
100
AcDbEntity
  8
1
 62
     7
100
AcDbMText
 10
248.1215302426759
 20
232.100160437703
 30
0.0
 40
8.75
 41
0.0
 71
     7
 72
     1
  1
120
  7
CONVERTER_12
 11
0.0
 21
1.0
 31
0.0
 73
     1
 44
0.60024009603842
  0
ENDBLK
  5
202
330
1FA
100
AcDbEntity
  8
0
100
AcDbBlockEnd
  0
BLOCK
  5
20C
330
205
100
AcDbEntity
  8
0
100
AcDbBlockBegin
  2
*D9
 70
     1
 10
0.0
 20
0.0
 30
0.0
  3
*D9
  1

  0
LINE
  5
206
330
205
100
AcDbEntity
  8
1
  6
Continuous
 62
     2
100
AcDbLine
 10
286.5937169446272
 20
132.5
 30
0.0
 11
405.8396625421361
 21
132.5
 31
0.0
  0
LINE
  5
207
330
205
100
AcDbEntity
  8
1
  6
Continuous
 62
     2
100
AcDbLine
 10
405.8396625421361
 20
152.5039633022637
 30
0.0
 11
405.8396625421361
 21
130.0
 31
0.0
  0
LINE
  5
208
330
205
100
AcDbEntity
  8
1
  6
Continuous
 62
     2
100
AcDbLine
 10
286.5937169446272
 20
300.8022295056843
 30
0.0
 11
286.5937169446272
 21
130.0
 31
0.0
  0
SOLID
  5
209
330
205
100
AcDbEntity
  8
1
 62
     2
100
AcDbTrace
 10
295.3437169446272
 20
133.6519593538897
 30
0.0
 11
295.3437169446272
 21
131.3480406461103
 31
0.0
 12
286.5937169446272
 22
132.5
 32
0.0
 13
286.5937169446272
 23
132.5
 33
0.0
  0
SOLID
  5
20A
330
205
100
AcDbEntity
  8
1
 62
     2
100
AcDbTrace
 10
397.0896625421361
 20
131.3480406461103
 30
0.0
 11
397.0896625421361
 21
133.6519593538897
 31
0.0
 12
405.8396625421361
 22
132.5
 32
0.0
 13
405.8396625421361
 23
132.5
 33
0.0
  0
MTEXT
  5
20B
330
205
100
AcDbEntity
  8
1
 62
     7
100
AcDbMText
 10
338.6954956460001
 20
135.0
 30
0.0
 40
8.75
 41
0.0
 71
     7
 72
     1
  1
119
  7
CONVERTER_12
 11
0.9999999999970619
 21
2.424068405545306E-6
 31
0.0
 73
     1
 44
0.60024009603842
  0
ENDBLK
  5
20D
330
205
100
AcDbEntity
  8
0
100
AcDbBlockEnd
  0
BLOCK
  5
217
330
210
100
AcDbEntity
  8
0
100
AcDbBlockBegin
  2
*D10
 70
     1
 10
0.0
 20
0.0
 30
0.0
  3
*D10
  1

  0
LINE
  5
211
330
210
100
AcDbEntity
  8
0
  6
Continuous
 62
     2
100
AcDbLine
 10
451.339662542137
 20
132.5
 30
0.0
 11
405.8396625421361
 21
132.5
 31
0.0
  0
LINE
  5
212
330
210
100
AcDbEntity
  8
0
  6
Continuous
 62
     2
100
AcDbLine
 10
451.339662542137
 20
157.5
 30
0.0
 11
451.339662542137
 21
130.0
 31
0.0
  0
LINE
  5
213
330
210
100
AcDbEntity
  8
0
  6
Continuous
 62
     2
100
AcDbLine
 10
405.8396625421361
 20
152.5039633022637
 30
0.0
 11
405.8396625421361
 21
130.0
 31
0.0
  0
SOLID
  5
214
330
210
100
AcDbEntity
  8
0
 62
     2
100
AcDbTrace
 10
443.839662542137
 20
131.5126062680945
 30
0.0
 11
443.839662542137
 21
133.4873937319055
 31
0.0
 12
451.339662542137
 22
132.5
 32
0.0
 13
451.339662542137
 23
132.5
 33
0.0
  0
SOLID
  5
215
330
210
100
AcDbEntity
  8
0
 62
     2
100
AcDbTrace
 10
413.3396625421361
 20
133.4873937319055
 30
0.0
 11
413.3396625421361
 21
131.5126062680945
 31
0.0
 12
405.8396625421361
 22
132.5
 32
0.0
 13
405.8396625421361
 23
132.5
 33
0.0
  0
MTEXT
  5
216
330
210
100
AcDbEntity
  8
0
 62
     7
100
AcDbMText
 10
420.6914413607091
 20
135.0
 30
0.0
 40
8.75
 41
0.0
 71
     7
 72
     1
  1
46
  7
CONVERTER_12
 11
0.9999999999970619
 21
2.424068405545306E-6
 31
0.0
 73
     1
 44
0.60024009603842
  0
ENDBLK
  5
218
330
210
100
AcDbEntity
  8
0
100
AcDbBlockEnd
  0
BLOCK
  5
222
330
21B
100
AcDbEntity
  8
0
100
AcDbBlockBegin
  2
*D11
 70
     1
 10
0.0
 20
0.0
 30
0.0
  3
*D11
  1

  0
LINE
  5
21C
330
21B
100
AcDbEntity
  8
0
  6
Continuous
 62
     2
100
AcDbLine
 10
465.339662542137
 20
132.5
 30
0.0
 11
451.339662542137
 21
132.5
 31
0.0
  0
LINE
  5
21D
330
21B
100
AcDbEntity
  8
0
  6
Continuous
 62
     2
100
AcDbLine
 10
485.492823164449
 20
132.5
 30
0.0
 11
465.339662542137
 21
132.5
 31
0.0
  0
LINE
  5
21E
330
21B
100
AcDbEntity
  8
0
  6
Continuous
 62
     2
100
AcDbLine
 10
465.339662542137
 20
171.18
 30
0.0
 11
465.339662542137
 21
130.0
 31
0.0
  0
LINE
  5
21F
330
21B
100
AcDbEntity
  8
0
  6
Continuous
 62
     2
100
AcDbLine
 10
451.339662542137
 20
157.5
 30
0.0
 11
451.339662542137
 21
130.0
 31
0.0
  0
SOLID
  5
220
330
21B
100
AcDbEntity
  8
0
 62
     2
100
AcDbTrace
 10
474.089662542137
 20
133.6519593538897
 30
0.0
 11
474.089662542137
 21
131.3480406461103
 31
0.0
 12
465.339662542137
 22
132.5
 32
0.0
 13
465.339662542137
 23
132.5
 33
0.0
  0
MTEXT
  5
221
330
21B
100
AcDbEntity
  8
0
 62
     7
100
AcDbMText
 10
474.992823164449
 20
135.0
 30
0.0
 40
8.75
 41
0.0
 71
     7
 72
     1
  1
14
  7
CONVERTER_12
 11
0.9999999999970619
 21
2.424068405545306E-6
 31
0.0
 73
     1
 44
0.60024009603842
  0
ENDBLK
  5
223
330
21B
100
AcDbEntity
  8
0
100
AcDbBlockEnd
  0
BLOCK
  5
225
330
224
100
AcDbEntity
  8
0
100
AcDbBlockBegin
  2
_NONE
 70
     0
 10
0.0
 20
0.0
 30
0.0
  3
_NONE
  1

  0
ENDBLK
  5
226
330
224
100
AcDbEntity
  8
0
100
AcDbBlockEnd
  0
BLOCK
  5
230
330
229
100
AcDbEntity
  8
0
100
AcDbBlockBegin
  2
*D13
 70
     1
 10
0.0
 20
0.0
 30
0.0
  3
*D13
  1

  0
LINE
  5
22A
330
229
100
AcDbEntity
  8
0
  6
Continuous
 62
     2
100
AcDbLine
 10
490.3396625421371
 20
157.5
 30
0.0
 11
490.3396625421371
 21
203.5
 31
0.0
  0
LINE
  5
22B
330
229
100
AcDbEntity
  8
0
  6
Continuous
 62
     2
100
AcDbLine
 10
451.339662542137
 20
203.5
 30
0.0
 11
492.8396625421371
 21
203.5
 31
0.0
  0
LINE
  5
22C
330
229
100
AcDbEntity
  8
0
  6
Continuous
 62
     2
100
AcDbLine
 10
451.339662542137
 20
157.5
 30
0.0
 11
492.8396625421371
 21
157.5
 31
0.0
  0
SOLID
  5
22D
330
229
100
AcDbEntity
  8
0
 62
     2
100
AcDbTrace
 10
489.1877031882474
 20
166.25
 30
0.0
 11
491.4916218960268
 21
166.25
 31
0.0
 12
490.3396625421371
 22
157.5
 32
0.0
 13
490.3396625421371
 23
157.5
 33
0.0
  0
SOLID
  5
22E
330
229
100
AcDbEntity
  8
0
 62
     2
100
AcDbTrace
 10
491.4916218960268
 20
194.75
 30
0.0
 11
489.1877031882474
 21
194.75
 31
0.0
 12
490.3396625421371
 22
203.5
 32
0.0
 13
490.3396625421371
 23
203.5
 33
0.0
  0
MTEXT
  5
22F
330
229
100
AcDbEntity
  8
0
 62
     7
100
AcDbMText
 10
487.8396625421371
 20
172.0125000000004
 30
0.0
 40
8.75
 41
0.0
 71
     7
 72
     1
  1
\C7;{\Fgdt;n}\C7;46
  7
CONVERTER_12
 11
0.0
 21
1.0
 31
0.0
 73
     1
 44
0.60024009603842
  0
ENDBLK
  5
231
330
229
100
AcDbEntity
  8
0
100
AcDbBlockEnd
  0
BLOCK
  5
23B
330
234
100
AcDbEntity
  8
0
100
AcDbBlockBegin
  2
*D14
 70
     1
 10
0.0
 20
0.0
 30
0.0
  3
*D14
  1

  0
LINE
  5
235
330
234
100
AcDbEntity
  8
1
  6
Continuous
 62
     2
100
AcDbLine
 10
182.9993404628271
 20
402.4999999999997
 30
0.0
 11
133.1993404628271
 21
402.4999999999997
 31
0.0
  0
LINE
  5
236
330
234
100
AcDbEntity
  8
1
  6
Continuous
 62
     2
100
AcDbLine
 10
133.1993404628271
 20
384.9999999999997
 30
0.0
 11
133.1993404628271
 21
404.9999999999997
 31
0.0
  0
LINE
  5
237
330
234
100
AcDbEntity
  8
1
  6
Continuous
 62
     2
100
AcDbLine
 10
182.9993404628271
 20
180.4999999999999
 30
0.0
 11
182.9993404628271
 21
404.9999999999997
 31
0.0
  0
SOLID
  5
238
330
234
100
AcDbEntity
  8
1
 62
     2
100
AcDbTrace
 10
174.2493404628271
 20
401.34804064611
 30
0.0
 11
174.2493404628271
 21
403.6519593538894
 31
0.0
 12
182.9993404628271
 22
402.4999999999997
 32
0.0
 13
182.9993404628271
 23
402.4999999999997
 33
0.0
  0
SOLID
  5
239
330
234
100
AcDbEntity
  8
1
 62
     2
100
AcDbTrace
 10
141.9493404628271
 20
403.6519593538894
 30
0.0
 11
141.9493404628271
 21
401.34804064611
 31
0.0
 12
133.1993404628271
 22
402.4999999999997
 32
0.0
 13
133.1993404628271
 23
402.4999999999997
 33
0.0
  0
MTEXT
  5
23A
330
234
100
AcDbEntity
  8
1
 62
     7
100
AcDbMText
 10
151.5368404628271
 20
404.9999999999997
 30
0.0
 40
8.75
 41
0.0
 71
     7
 72
     1
  1
50
  7
CONVERTER_12
 11
0.9999999999970619
 21
2.424068405545306E-6
 31
0.0
 73
     1
 44
0.60024009603842
  0
ENDBLK
  5
23C
330
234
100
AcDbEntity
  8
0
100
AcDbBlockEnd
  0
BLOCK
  5
246
330
23F
100
AcDbEntity
  8
0
100
AcDbBlockBegin
  2
*D15
 70
     1
 10
0.0
 20
0.0
 30
0.0
  3
*D15
  1

  0
LINE
  5
240
330
23F
100
AcDbEntity
  8
1
  6
Continuous
 62
     2
100
AcDbLine
 10
230.6215302426759
 20
377.4998023600979
 30
0.0
 11
230.6215302426759
 21
180.4999999999998
 31
0.0
  0
LINE
  5
241
330
23F
100
AcDbEntity
  8
1
  6
Continuous
 62
     2
100
AcDbLine
 10
367.8418389927641
 20
180.4999999999998
 30
0.0
 11
228.1215302426759
 21
180.4999999999998
 31
0.0
  0
LINE
  5
242
330
23F
100
AcDbEntity
  8
1
  6
Continuous
 62
     2
100
AcDbLine
 10
348.339662542136
 20
377.4998023600979
 30
0.0
 11
228.1215302426759
 21
377.4998023600979
 31
0.0
  0
SOLID
  5
243
330
23F
100
AcDbEntity
  8
1
 62
     2
100
AcDbTrace
 10
231.7734895965656
 20
368.7498023600979
 30
0.0
 11
229.4695708887862
 21
368.7498023600979
 31
0.0
 12
230.6215302426759
 22
377.4998023600979
 32
0.0
 13
230.6215302426759
 23
377.4998023600979
 33
0.0
  0
SOLID
  5
244
330
23F
100
AcDbEntity
  8
1
 62
     2
100
AcDbTrace
 10
229.4695708887862
 20
189.2499999999998
 30
0.0
 11
231.7734895965656
 21
189.2499999999998
 31
0.0
 12
230.6215302426759
 22
180.4999999999998
 32
0.0
 13
230.6215302426759
 23
180.4999999999998
 33
0.0
  0
MTEXT
  5
245
330
23F
100
AcDbEntity
  8
1
 62
     7
100
AcDbMText
 10
228.1215302426759
 20
277.491324170951
 30
0.0
 40
8.75
 41
0.0
 71
     7
 72
     1
  1
197
  7
CONVERTER_12
 11
0.0
 21
1.0
 31
0.0
 73
     1
 44
0.60024009603842
  0
ENDBLK
  5
247
330
23F
100
AcDbEntity
  8
0
100
AcDbBlockEnd
  0
BLOCK
  5
253
330
24A
100
AcDbEntity
  8
0
100
AcDbBlockBegin
  2
*D16
 70
     1
 10
0.0
 20
0.0
 30
0.0
  3
*D16
  1

  0
LINE
  5
24B
330
24A
100
AcDbEntity
  8
1
  6
Continuous
 62
     2
100
AcDbLine
 10
286.5937169446273
 20
293.50434051739
 30
0.0
 11
286.5937169446273
 21
272.4455953703508
 31
0.0
  0
LINE
  5
24C
330
24A
100
AcDbEntity
  8
1
  6
Continuous
 62
     2
100
AcDbLine
 10
284.8643192707154
 20
293.50434051739
 30
0.0
 11
280.0550639961451
 21
273.209753772172
 31
0.0
  0
LINE
  5
24D
330
24A
100
AcDbEntity
  8
1
  6
Continuous
 62
     2
100
AcDbLine
 10
286.5937169446273
 20
272.4455953703508
 30
0.0
 11
286.5937169446273
 21
269.9455953703508
 31
0.0
  0
LINE
  5
24E
330
24A
100
AcDbEntity
  8
1
  6
Continuous
 62
     2
100
AcDbLine
 10
280.0550639961451
 20
273.209753772172
 30
0.0
 11
279.4785981048411
 21
270.7771241094072
 31
0.0
  0
ARC
  5
24F
330
24A
100
AcDbEntity
  8
1
  6
Continuous
 62
     2
100
AcDbCircle
 10
286.5937169446273
 20
300.8022295056843
 30
0.0
 40
28.35663413533345
100
AcDbArc
 50
230.1487865077428
 51
330.7719012502296
  0
SOLID
  5
250
330
24A
100
AcDbEntity
  8
1
 62
     2
100
AcDbTrace
 10
271.5173249731484
 20
275.4450440728297
 30
0.0
 11
272.3867770768597
 21
277.5786078640973
 31
0.0
 12
280.0550639961451
 22
273.209753772172
 32
0.0
 13
280.0550639961451
 23
273.209753772172
 33
0.0
  0
SOLID
  5
251
330
24A
100
AcDbEntity
  8
1
 62
     2
100
AcDbTrace
 10
295.0627559808367
 20
274.9285146513936
 30
0.0
 11
295.4168072709384
 21
272.6519626322135
 31
0.0
 12
286.5937169446273
 22
272.4455953703508
 32
0.0
 13
286.5937169446273
 23
272.4455953703508
 33
0.0
  0
MTEXT
  5
252
330
24A
100
AcDbEntity
  8
1
 62
     7
100
AcDbMText
 10
294.5499118981382
 20
274.8337457817505
 30
0.0
 40
8.75
 41
0.0
 71
     7
 72
     1
  1
14{\Fgdt;~}
  7
CONVERTER_12
 11
0.8205936319026984
 21
0.5715121094786519
 31
0.0
 73
     1
 44
0.60024009603842
  0
ENDBLK
  5
254
330
24A
100
AcDbEntity
  8
0
100
AcDbBlockEnd
  0
ENDSEC
  0
SECTION
  2
ENTITIES
  0
INSERT
  5
5C
330
1F
100
AcDbEntity
  8
0
100
AcDbBlockReference
  2
32-1-16
 10
383.4866185693361
 20
339.5008396999622
 30
0.0
 41
1.0
 42
1.0
 43
1.0
  0
INSERT
  5
5D
330
1F
100
AcDbEntity
  8
1
100
AcDbBlockReference
  2
81-100X-M21
 10
181.9946263403791
 20
231.0814604582529
 30
0.0
 41
1.0
 42
1.0
 43
1.0
  0
INSERT
  5
5E
330
1F
100
AcDbEntity
  8
1
100
AcDbBlockReference
  2
A205-0
 10
608.806145196555
 20
-10.16602420536304
 30
0.0
 41
1.0
 42
1.0
 43
1.0
  0
INSERT
  5
5F
330
1F
100
AcDbEntity
  8
1
100
AcDbBlockReference
  2
61-6
 10
1119.047606737575
 20
872.7755885062803
 30
0.0
 41
1.0
 42
1.0
 43
1.0
  0
INSERT
  5
60
330
1F
100
AcDbEntity
  8
1
100
AcDbBlockReference
  2
30-111
 10
657.3878695721461
 20
1034.587132839675
 30
0.0
 41
1.0
 42
1.0
 43
1.0
  0
INSERT
  5
61
330
1F
100
AcDbEntity
  8
1
100
AcDbBlockReference
  2
開示A4
 10
0.0
 20
0.0
 30
0.0
 41
2.5
 42
2.5
 43
2.5
  0
INSERT
  5
62
330
1F
100
AcDbEntity
  8
0
100
AcDbBlockReference
  2
87-64
 10
651.4730161286165
 20
381.1498596690295
 30
0.0
 41
1.0
 42
1.0
 43
1.0
  0
LINE
  5
1D8
330
1F
100
AcDbEntity
  8
1
  6
DASH_CENTER
 62
     2
100
AcDbLine
 10
286.5937169446272
 20
300.8022295056843
 30
0.0
 11
284.8643192707153
 21
293.50434051739
 31
0.0
  0
LINE
  5
1D9
330
1F
100
AcDbEntity
  8
1
  6
Continuous
 62
     2
100
AcDbLine
 10
286.5937169446272
 20
300.8022295056843
 30
0.0
 11
286.5937169446272
 21
293.50434051739
 31
0.0
  0
LINE
  5
1DA
330
1F
100
AcDbEntity
  8
1
  6
DASH_CENTER
 62
     2
100
AcDbLine
 10
110.1993404628268
 20
586.3417053823729
 30
0.0
 11
190.6993404628285
 21
586.3417053823729
 31
0.0
  0
LINE
  5
1DB
330
1F
100
AcDbEntity
  8
0
  6
DASH_CENTER
 62
     2
100
AcDbLine
 10
186.1993404628271
 20
180.4999999999999
 30
0.0
 11
182.9993404628271
 21
180.4999999999999
 31
0.0
  0
LINE
  5
1DC
330
1F
100
AcDbEntity
  8
1
  6
DASH_CENTER
 62
     2
100
AcDbLine
 10
133.1993404628271
 20
384.9999999999997
 30
0.0
 11
133.1993404628271
 21
154.4999999999999
 31
0.0
  0
LINE
  5
1DD
330
1F
100
AcDbEntity
  8
1
  6
DASH_CENTER
 62
     2
100
AcDbLine
 10
472.839662542137
 20
180.5000000000004
 30
0.0
 11
367.8418389927641
 21
180.4999999999998
 31
0.0
  0
LINE
  5
1DE
330
1F
100
AcDbEntity
  8
1
  6
DASH_CENTER
 62
     2
100
AcDbLine
 10
133.1993404628271
 20
453.1231908009676
 30
0.0
 11
133.1993404628271
 21
654.5911992709343
 31
0.0
  0
LINE
  5
1DF
330
1F
100
AcDbEntity
  8
1
  6
DASH_CENTER
 62
     2
100
AcDbLine
 10
405.8396625421361
 20
152.5039633022637
 30
0.0
 11
405.8396625421361
 21
221.5000000000003
 31
0.0
  0
LINE
  5
1E0
330
1F
100
AcDbEntity
  8
0
  6
DASH_CENTER
 62
     2
100
AcDbLine
 10
182.9993404628271
 20
180.4999999999999
 30
0.0
 11
107.1993404628271
 21
180.4999999999999
 31
0.0
  0
LINE
  5
1E1
330
1F
100
AcDbEntity
  8
1
  6
Continuous
 62
     2
100
AcDbLine
 10
360.803394733361
 20
228.1916450150374
 30
0.0
 11
386.063262042382
 21
228.1916450150374
 31
0.0
  0
LINE
  5
1E2
330
1F
100
AcDbEntity
  8
1
  6
Continuous
 62
     2
100
AcDbLine
 10
329.665445094567
 20
183.1525089420118
 30
0.0
 11
356.672850393521
 21
183.1525089420118
 31
0.0
  0
LINE
  5
1E3
330
1F
100
AcDbEntity
  8
0
  6
DASH_CENTER
 62
     2
100
AcDbLine
 10
405.8400448240809
 20
311.9998023600981
 30
0.0
 11
405.8400448240809
 21
221.5000000000003
 31
0.0
  0
LINE
  5
1E4
330
1F
100
AcDbEntity
  8
1
  6
DASH_CENTER
 62
     2
100
AcDbLine
 10
292.3408326738177
 20
325.0544956138264
 30
0.0
 11
286.5937169446272
 21
300.8022295056843
 31
0.0
  0
LINE
  5
1E5
330
1F
100
AcDbEntity
  8
1
  6
DASH_CENTER
 62
     2
100
AcDbLine
 10
171.9993404628271
 20
152.9999999999999
 30
0.0
 11
171.9993404628271
 21
222.9999999999997
 31
0.0
  0
ARC
  5
1E6
330
1F
100
AcDbEntity
  8
1
  6
DASH_CENTER
 62
     2
100
AcDbCircle
 10
348.339662542136
 20
311.9998023600981
 30
0.0
 40
57.50038228194489
100
AcDbArc
 50
0.0
 51
90.0
  0
ARC
  5
1E7
330
1F
100
AcDbEntity
  8
0
  6
Continuous
 62
     2
100
AcDbCircle
 10
385.5706120733331
 20
197.1824042722444
 30
0.0
 40
26.48609953112984
100
AcDbArc
 50
127.287776011611
 51
184.0396076270895
  0
ARC
  5
1E8
330
1F
100
AcDbEntity
  8
1
  6
DASH_CENTER
 62
     2
100
AcDbCircle
 10
348.339662542136
 20
311.9998023600981
 30
0.0
 40
57.50038228194489
100
AcDbArc
 50
90.0
 51
166.8773314638243
  0
SOLID
  5
1E9
330
1F
100
AcDbEntity
  8
1
 62
     2
100
AcDbTrace
 10
461.2170364775413
 20
199.1537019600588
 30
0.0
 11
463.2122886067326
 21
198.0017426061691
 31
0.0
 12
457.839662542137
 22
191.0000000000001
 32
0.0
 13
457.839662542137
 23
191.0000000000001
 33
0.0
  0
LEADER
  5
1EA
330
1F
100
AcDbEntity
  8
1
  6
Continuous
 62
     2
100
AcDbLeader
  3
Standard
 71
     0
 76
     3
 10
457.839662542137
 20
191.0000000000001
 30
0.0
 10
472.2734192718776
 20
216.0
 30
0.0
 10
440.7591822793467
 20
216.0
 30
0.0
  0
SOLID
  5
1EB
330
1F
100
AcDbEntity
  8
0
 62
     2
100
AcDbTrace
 10
358.3917917458247
 20
204.1094097026972
 30
0.0
 11
360.693393980073
 21
204.0061209455199
 31
0.0
 12
359.150314861885
 22
195.3165630057841
 32
0.0
 13
359.150314861885
 23
195.3165630057841
 33
0.0
  0
LEADER
  5
1EC
330
1F
100
AcDbEntity
  8
0
  6
Continuous
 62
     2
100
AcDbLeader
  3
Standard
 71
     0
 76
     2
 10
359.150314861885
 20
195.3165630057841
 30
0.0
 10
359.2435754759612
 20
197.3947062964119
 30
0.0
  0
SOLID
  5
1ED
330
1F
100
AcDbEntity
  8
0
 62
     2
100
AcDbTrace
 10
363.6788015381325
 20
211.6432096584033
 30
0.0
 11
362.1667902852365
 21
213.3815604236897
 31
0.0
 12
369.5248383990762
 22
218.2548178873821
 32
0.0
 13
369.5248383990762
 23
218.2548178873821
 33
0.0
  0
LEADER
  5
1EE
330
1F
100
AcDbEntity
  8
0
  6
Continuous
 62
     2
100
AcDbLeader
  3
Standard
 71
     0
 76
     2
 10
369.5248383990762
 20
218.2548178873821
 30
0.0
 10
368.3753752534752
 20
217.2550189712804
 30
0.0
  0
MTEXT
  5
1F0
330
1F
100
AcDbEntity
  8
0
 62
     7
100
AcDbMText
 10
457.0305377681432
 20
223.5
 30
0.0
 40
8.75
 41
0.0
 71
     5
 72
     1
  1
PJ1/2
  7
CONVERTER_12
 73
     1
 44
0.7202881152461
  0
MTEXT
  5
1F1
330
1F
100
AcDbEntity
  8
0
 62
     7
100
AcDbMText
 10
85.0
 20
85.00000000000001
 30
0.0
 40
8.75
 41
0.0
 71
     4
 72
     1
  1
JIS
  7
CONVERTER_12
 73
     1
 44
1.32052821128451
  0
MTEXT
  5
1F2
330
1F
100
AcDbEntity
  8
0
 62
     7
100
AcDbMText
 10
142.5
 20
61.87500000000003
 30
0.0
 40
8.75
 41
0.0
 71
     5
 72
     1
  1
ミニセラ泡沫横形
  7
CONVERTER_11
 73
     1
 44
1.0
  0
MTEXT
  5
1F3
330
1F
100
AcDbEntity
  8
0
 62
     7
100
AcDbMText
 10
142.5
 20
35.625
 30
0.0
 40
8.75
 41
0.0
 71
     5
 72
     1
  1
A265H-13
  7
CONVERTER_12
 73
     1
 44
1.32052821128451
  0
MTEXT
  5
1F4
330
1F
100
AcDbEntity
  8
1
 62
     7
100
AcDbMText
 10
373.357965480459
 20
236.9416450150374
 30
0.0
 40
12.5
 41
0.0
 71
     5
 72
     1
  1
止水
  7
CONVERTER_11
 73
     1
 44
0.54545454545455
  0
MTEXT
  5
1F5
330
1F
100
AcDbEntity
  8
1
 62
     7
100
AcDbMText
 10
343.7260276022622
 20
191.9025089420118
 30
0.0
 40
12.5
 41
0.0
 71
     5
 72
     1
  1
吐水
  7
CONVERTER_11
 73
     1
 44
0.54545454545455
  0
MTEXT
  5
1F6
330
1F
100
AcDbEntity
  8
0
 62
     7
100
AcDbMText
 10
142.5
 20
51.87500000000003
 30
0.0
 40
8.75
 41
0.0
 71
     5
 72
     1
  1
ツル首自在水栓
  7
CONVERTER_11
 73
     1
 44
1.0
  0
MTEXT
  5
1F7
330
1F
100
AcDbEntity
  8
1
 62
     7
100
AcDbMText
 10
213.125
 20
42.5
 30
0.0
 40
8.75
 41
0.0
 71
     5
 72
     1
  1
1
  7
CONVERTER_12
 73
     1
 44
0.7202881152461
  0
MTEXT
  5
1F8
330
1F
100
AcDbEntity
  8
1
 62
     7
100
AcDbMText
 10
234.375
 20
42.5
 30
0.0
 40
8.75
 41
0.0
 71
     5
 72
     1
  1
2,5
  7
CONVERTER_12
 73
     1
 44
0.7202881152461
  0
MTEXT
  5
1F9
330
1F
100
AcDbEntity
  8
1
 62
     7
100
AcDbMText
 10
326.915830053427
 20
219.589772732583
 30
0.0
 40
8.75
 41
0.0
 71
     5
 72
     1
  1
90°
  7
CONVERTER_11
 73
     1
 44
0.54545454545455
  0
DIMENSION
  5
204
330
1F
100
AcDbEntity
  8
1
100
AcDbDimension
  2
*D8
 10
250.6215302426759
 20
300.8022295056843
 30
0.0
 11
243.7465302426759
 21
241.287660437703
 31
0.0
 70
    32
  1
120
 71
     5
 42
-1.0
 53
90.0
  3
ME10_DIM_10
100
AcDbAlignedDimension
 13
367.8418389927641
 23
180.4999999999998
 33
0.0
 14
286.5937169446271
 24
300.8022295056842
 34
0.0
 50
90.0
100
AcDbRotatedDimension
  0
DIMENSION
  5
20F
330
1F
100
AcDbEntity
  8
1
100
AcDbDimension
  2
*D9
 10
286.5937169446272
 20
132.5
 30
0.0
 11
346.5704956460001
 21
139.375
 31
0.0
 70
    32
  1
119
 71
     5
 42
-1.0
 53
0.00013888888889
  3
ME10_DIM_11
100
AcDbAlignedDimension
 13
405.8396625421361
 23
152.5039633022637
 33
0.0
 14
286.5937169446271
 24
300.8022295056842
 34
0.0
100
AcDbRotatedDimension
  0
DIMENSION
  5
21A
330
1F
100
AcDbEntity
  8
0
100
AcDbDimension
  2
*D10
 10
451.339662542137
 20
132.5
 30
0.0
 11
427.2539413607091
 21
139.375
 31
0.0
 70
    32
  1
46
 71
     5
 42
-1.0
 53
0.00013888888889
  3
ME10_DIM_12
100
AcDbAlignedDimension
 13
405.8396625421361
 23
152.5039633022637
 33
0.0
 14
451.3396625421369
 24
157.4999999999999
 34
0.0
100
AcDbRotatedDimension
  0
DIMENSION
  5
228
330
1F
100
AcDbEntity
  8
0
100
AcDbDimension
  2
*D11
 10
465.339662542137
 20
132.5
 30
0.0
 11
480.242823164449
 21
139.375
 31
0.0
 70
    32
  1
<>
 71
     5
 42
-1.0
 53
0.00013888888889
  3
ME10_DIM_13
100
AcDbAlignedDimension
 13
451.3396625421369
 23
157.4999999999999
 33
0.0
 14
465.3396625421369
 24
171.1799999999999
 34
0.0
100
AcDbRotatedDimension
  0
DIMENSION
  5
233
330
1F
100
AcDbEntity
  8
0
100
AcDbDimension
  2
*D13
 10
490.3396625421371
 20
157.5
 30
0.0
 11
483.4646625421371
 21
180.5000000000004
 31
0.0
 70
    32
  1
<>
 71
     5
 42
-1.0
 53
90.0
  3
ME10_DIM_14
100
AcDbAlignedDimension
 13
451.3396625421369
 23
203.4999999999999
 33
0.0
 14
451.3396625421369
 24
157.4999999999999
 34
0.0
 50
90.0
100
AcDbRotatedDimension
  0
DIMENSION
  5
23E
330
1F
100
AcDbEntity
  8
1
100
AcDbDimension
  2
*D14
 10
182.9993404628271
 20
402.4999999999997
 30
0.0
 11
158.0993404628271
 21
409.3749999999997
 31
0.0
 70
    32
  1
50
 71
     5
 42
-1.0
 53
0.00013888888889
  3
ME10_DIM_15
100
AcDbAlignedDimension
 13
133.1993404628271
 23
384.9999999999997
 33
0.0
 14
182.9993404628271
 24
180.4999999999999
 34
0.0
100
AcDbRotatedDimension
  0
DIMENSION
  5
249
330
1F
100
AcDbEntity
  8
1
100
AcDbDimension
  2
*D15
 10
230.6215302426759
 20
377.4998023600979
 30
0.0
 11
223.7465302426759
 21
286.678824170951
 31
0.0
 70
    32
  1
<>
 71
     5
 42
-1.0
 53
90.0
  3
ME10_DIM_16
100
AcDbAlignedDimension
 13
367.8418389927641
 23
180.4999999999998
 33
0.0
 14
348.339662542136
 24
377.4998023600978
 34
0.0
 50
90.0
100
AcDbRotatedDimension
  0
DIMENSION
  5
256
330
1F
100
AcDbEntity
  8
1
100
AcDbDimension
  2
*D16
 10
283.3021397981907
 20
272.637282863196
 30
0.0
 11
298.8707309843603
 21
283.174537331366
 31
0.0
 70
    37
  1
14
 71
     5
 42
-1.0
  3
ME10_DIM_17
100
AcDb3PointAngularDimension
 13
284.8643192707153
 23
293.50434051739
 33
0.0
 14
286.5937169446272
 24
293.50434051739
 34
0.0
 15
286.5937169446273
 25
300.8022295056843
 35
0.0
  0
ENDSEC
  0
SECTION
  2
OBJECTS
  0
DICTIONARY
  5
C
330
0
100
AcDbDictionary
281
     1
  3
ACAD_GROUP
350
D
  3
ACAD_LAYOUT
350
1A
  3
ACAD_MATERIAL
350
3B
  3
ACAD_MLEADERSTYLE
350
259
  3
ACAD_MLINESTYLE
350
17
  3
ACAD_PLOTSETTINGS
350
19
  3
ACAD_PLOTSTYLENAME
350
E
  3
ACAD_VISUALSTYLE
350
2A
  3
AcDbVariableDictionary
350
257
  0
DICTIONARY
  5
D
102
{ACAD_REACTORS
330
C
102
}
330
C
100
AcDbDictionary
281
     1
  0
DICTIONARY
  5
1A
102
{ACAD_REACTORS
330
C
102
}
330
C
100
AcDbDictionary
281
     1
  3
Layout1
350
1E
  3
Layout2
350
26
  3
Model
350
22
  0
DICTIONARY
  5
3B
102
{ACAD_REACTORS
330
C
102
}
330
C
100
AcDbDictionary
281
     1
  3
ByBlock
350
3D
  3
ByLayer
350
3C
  3
Global
350
3E
  0
DICTIONARY
  5
259
102
{ACAD_REACTORS
330
C
102
}
330
C
100
AcDbDictionary
281
     1
  0
DICTIONARY
  5
17
102
{ACAD_REACTORS
330
C
102
}
330
C
100
AcDbDictionary
281
     1
  3
Standard
350
18
  0
DICTIONARY
  5
19
102
{ACAD_REACTORS
330
C
102
}
330
C
100
AcDbDictionary
281
     1
  0
ACDBDICTIONARYWDFLT
  5
E
102
{ACAD_REACTORS
330
C
102
}
330
C
100
AcDbDictionary
281
     1
  3
Normal
350
F
100
AcDbDictionaryWithDefault
340
F
  0
DICTIONARY
  5
2A
102
{ACAD_REACTORS
330
C
102
}
330
C
100
AcDbDictionary
281
     1
  3
2dWireframe
350
2F
  3
3D Hidden
350
31
  3
3dWireframe
350
30
  3
Basic
350
32
  3
Brighten
350
36
  3
ColorChange
350
3A
  3
Conceptual
350
34
  3
Dim
350
35
  3
Facepattern
350
39
  3
Flat
350
2B
  3
FlatWithEdges
350
2C
  3
Gouraud
350
2D
  3
GouraudWithEdges
350
2E
  3
Linepattern
350
38
  3
Realistic
350
33
  3
Thicken
350
37
  0
DICTIONARY
  5
257
102
{ACAD_REACTORS
330
C
102
}
330
C
100
AcDbDictionary
281
     1
  3
DIMASSOC
350
25A
  3
HIDETEXT
350
25B
  0
LAYOUT
  5
1E
102
{ACAD_REACTORS
330
1A
102
}
330
1A
100
AcDbPlotSettings
  1

  2
none_device
  4

  6

 40
0.0
 41
0.0
 42
0.0
 43
0.0
 44
0.0
 45
0.0
 46
0.0
 47
0.0
 48
0.0
 49
0.0
140
0.0
141
0.0
142
1.0
143
1.0
 70
   688
 72
     0
 73
     0
 74
     5
  7

 75
    16
147
1.0
148
0.0
149
0.0
100
AcDbLayout
  1
Layout1
 70
     1
 71
     1
 10
0.0
 20
0.0
 11
12.0
 21
9.0
 12
0.0
 22
0.0
 32
0.0
 14
1.00000000000000E+20
 24
1.00000000000000E+20
 34
1.00000000000000E+20
 15
-1.00000000000000E+20
 25
-1.00000000000000E+20
 35
-1.00000000000000E+20
146
0.0
 13
0.0
 23
0.0
 33
0.0
 16
1.0
 26
0.0
 36
0.0
 17
0.0
 27
1.0
 37
0.0
 76
     0
330
1B
  0
LAYOUT
  5
26
102
{ACAD_REACTORS
330
1A
102
}
330
1A
100
AcDbPlotSettings
  1

  2
none_device
  4

  6

 40
0.0
 41
0.0
 42
0.0
 43
0.0
 44
0.0
 45
0.0
 46
0.0
 47
0.0
 48
0.0
 49
0.0
140
0.0
141
0.0
142
1.0
143
1.0
 70
   688
 72
     0
 73
     0
 74
     5
  7

 75
    16
147
1.0
148
0.0
149
0.0
100
AcDbLayout
  1
Layout2
 70
     1
 71
     2
 10
0.0
 20
0.0
 11
0.0
 21
0.0
 12
0.0
 22
0.0
 32
0.0
 14
0.0
 24
0.0
 34
0.0
 15
0.0
 25
0.0
 35
0.0
146
0.0
 13
0.0
 23
0.0
 33
0.0
 16
1.0
 26
0.0
 36
0.0
 17
0.0
 27
1.0
 37
0.0
 76
     0
330
23
  0
LAYOUT
  5
22
102
{ACAD_REACTORS
330
1A
102
}
330
1A
100
AcDbPlotSettings
  1

  2
none_device
  4

  6

 40
0.0
 41
0.0
 42
0.0
 43
0.0
 44
0.0
 45
0.0
 46
0.0
 47
0.0
 48
0.0
 49
0.0
140
0.0
141
0.0
142
1.0
143
1.0
 70
  1712
 72
     0
 73
     0
 74
     0
  7

 75
     0
147
1.0
148
0.0
149
0.0
100
AcDbLayout
  1
Model
 70
     1
 71
     0
 10
0.0
 20
0.0
 11
12.0
 21
9.0
 12
0.0
 22
0.0
 32
0.0
 14
0.0
 24
0.0
 34
0.0
 15
525.0
 25
742.5
 35
0.0
146
0.0
 13
0.0
 23
0.0
 33
0.0
 16
1.0
 26
0.0
 36
0.0
 17
0.0
 27
1.0
 37
0.0
 76
     0
330
1F
331
29
  0
MATERIAL
  5
3D
102
{ACAD_REACTORS
330
3B
102
}
102
{ACAD_XDICTIONARY
360
27E
102
}
330
3B
100
AcDbMaterial
  1
ByBlock
  0
MATERIAL
  5
3C
102
{ACAD_REACTORS
330
3B
102
}
102
{ACAD_XDICTIONARY
360
27C
102
}
330
3B
100
AcDbMaterial
  1
ByLayer
  0
MATERIAL
  5
3E
102
{ACAD_REACTORS
330
3B
102
}
102
{ACAD_XDICTIONARY
360
280
102
}
330
3B
100
AcDbMaterial
  1
Global
  0
MLINESTYLE
  5
18
102
{ACAD_REACTORS
330
17
102
}
330
17
100
AcDbMlineStyle
  2
Standard
 70
     0
  3

 62
   256
 51
90.0
 52
90.0
 71
     2
 49
0.5
 62
   256
  6
BYLAYER
 49
-0.5
 62
   256
  6
BYLAYER
  0
ACDBPLACEHOLDER
  5
F
102
{ACAD_REACTORS
330
E
102
}
330
E
  0
VISUALSTYLE
  5
2F
102
{ACAD_REACTORS
330
2A
102
}
102
{ACAD_XDICTIONARY
360
264
102
}
330
2A
100
AcDbVisualStyle
  2
2dWireframe
 70
     4
 71
     0
 72
     2
 73
     0
 90
        0
 40
-0.6
 41
-30.0
 62
     5
 63
     7
 74
     1
 91
        4
 64
     7
 65
   257
 75
     1
175
     1
 42
1.0
 92
        0
 66
   257
 43
1.0
 76
     1
 77
     6
 78
     2
 67
     7
 79
     5
170
     0
171
     0
290
     0
174
     0
 93
        1
 44
0.0
173
     0
291
     0
 45
0.0
1001
ACAD
1000
AcDbSavedByObjectVersion
1070
     0
  0
VISUALSTYLE
  5
31
102
{ACAD_REACTORS
330
2A
102
}
102
{ACAD_XDICTIONARY
360
268
102
}
330
2A
100
AcDbVisualStyle
  2
3D Hidden
 70
     6
 71
     1
 72
     2
 73
     2
 90
        0
 40
-0.6
 41
-30.0
 62
     5
 63
     7
 74
     2
 91
        2
 64
     7
 65
   257
 75
     2
175
     1
 42
40.0
 92
        0
 66
   257
 43
1.0
 76
     1
 77
     6
 78
     2
 67
     7
 79
     3
170
     0
171
     0
290
     0
174
     0
 93
        1
 44
0.0
173
     0
291
     0
 45
0.0
1001
ACAD
1000
AcDbSavedByObjectVersion
1070
     0
  0
VISUALSTYLE
  5
30
102
{ACAD_REACTORS
330
2A
102
}
102
{ACAD_XDICTIONARY
360
266
102
}
330
2A
100
AcDbVisualStyle
  2
3dWireframe
 70
     5
 71
     0
 72
     2
 73
     0
 90
        0
 40
-0.6
 41
-30.0
 62
     5
 63
     7
 74
     1
 91
        4
 64
     7
 65
   257
 75
     1
175
     1
 42
1.0
 92
        0
 66
   257
 43
1.0
 76
     1
 77
     6
 78
     2
 67
     7
 79
     5
170
     0
171
     0
290
     0
174
     0
 93
        1
 44
0.0
173
     0
291
     0
 45
0.0
1001
ACAD
1000
AcDbSavedByObjectVersion
1070
     0
  0
VISUALSTYLE
  5
32
102
{ACAD_REACTORS
330
2A
102
}
102
{ACAD_XDICTIONARY
360
26A
102
}
330
2A
100
AcDbVisualStyle
  2
Basic
 70
     7
 71
     1
 72
     0
 73
     1
 90
        0
 40
-0.6
 41
-30.0
 62
     5
 63
     7
 74
     0
 91
        4
 64
     7
 65
   257
 75
     1
175
     1
 42
1.0
 92
        8
 66
     7
 43
1.0
 76
     1
 77
     6
 78
     2
 67
     7
 79
     5
170
     0
171
     0
290
     0
174
     0
 93
        1
 44
0.0
173
     0
291
     1
 45
0.0
1001
ACAD
1000
AcDbSavedByObjectVersion
1070
     0
  0
VISUALSTYLE
  5
36
102
{ACAD_REACTORS
330
2A
102
}
102
{ACAD_XDICTIONARY
360
272
102
}
330
2A
100
AcDbVisualStyle
  2
Brighten
 70
    12
 71
     2
 72
     2
 73
     0
 90
        0
 40
-0.6
 41
-30.0
 62
     5
 63
     7
 74
     1
 91
        4
 64
     7
 65
   257
 75
     1
175
     1
 42
1.0
 92
        8
 66
     7
 43
1.0
 76
     1
 77
     6
 78
     2
 67
     7
 79
     5
170
     0
171
     0
290
     0
174
     0
 93
        1
 44
50.0
173
     0
291
     1
 45
0.0
1001
ACAD
1000
AcDbSavedByObjectVersion
1070
     0
  0
VISUALSTYLE
  5
3A
102
{ACAD_REACTORS
330
2A
102
}
102
{ACAD_XDICTIONARY
360
27A
102
}
330
2A
100
AcDbVisualStyle
  2
ColorChange
 70
    16
 71
     2
 72
     2
 73
     3
 90
        0
 40
-0.6
 41
-30.0
 62
     5
 63
     8
 74
     1
 91
        4
 64
     7
 65
   257
 75
     1
175
     1
 42
1.0
 92
        8
 66
     8
 43
1.0
 76
     1
 77
     6
 78
     2
 67
     7
 79
     5
170
     0
171
     0
290
     0
174
     0
 93
        1
 44
0.0
173
     0
291
     1
 45
0.0
1001
ACAD
1000
AcDbSavedByObjectVersion
1070
     0
  0
VISUALSTYLE
  5
34
102
{ACAD_REACTORS
330
2A
102
}
102
{ACAD_XDICTIONARY
360
26E
102
}
330
2A
100
AcDbVisualStyle
  2
Conceptual
 70
     9
 71
     3
 72
     2
 73
     0
 90
        0
 40
-0.6
 41
-30.0
 62
     5
 63
     7
 74
     2
 91
        2
 64
     7
 65
   257
 75
     1
175
     1
 42
40.0
 92
        8
 66
     7
 43
1.0
 76
     1
 77
     6
 78
     2
 67
     7
 79
     3
170
     0
171
     0
290
     0
174
     0
 93
        1
 44
0.0
173
     0
291
     0
 45
0.0
1001
ACAD
1000
AcDbSavedByObjectVersion
1070
     0
  0
VISUALSTYLE
  5
35
102
{ACAD_REACTORS
330
2A
102
}
102
{ACAD_XDICTIONARY
360
270
102
}
330
2A
100
AcDbVisualStyle
  2
Dim
 70
    11
 71
     2
 72
     2
 73
     0
 90
        0
 40
-0.6
 41
-30.0
 62
     5
 63
     7
 74
     1
 91
        4
 64
     7
 65
   257
 75
     1
175
     1
 42
1.0
 92
        8
 66
     7
 43
1.0
 76
     1
 77
     6
 78
     2
 67
     7
 79
     5
170
     0
171
     0
290
     0
174
     0
 93
        1
 44
-50.0
173
     0
291
     1
 45
0.0
1001
ACAD
1000
AcDbSavedByObjectVersion
1070
     0
  0
VISUALSTYLE
  5
39
102
{ACAD_REACTORS
330
2A
102
}
102
{ACAD_XDICTIONARY
360
278
102
}
330
2A
100
AcDbVisualStyle
  2
Facepattern
 70
    15
 71
     2
 72
     2
 73
     0
 90
        0
 40
-0.6
 41
-30.0
 62
     5
 63
     7
 74
     1
 91
        4
 64
     7
 65
   257
 75
     1
175
     1
 42
1.0
 92
        8
 66
     7
 43
1.0
 76
     1
 77
     6
 78
     2
 67
     7
 79
     5
170
     0
171
     0
290
     0
174
     0
 93
        1
 44
0.0
173
     0
291
     1
 45
0.0
1001
ACAD
1000
AcDbSavedByObjectVersion
1070
     0
  0
VISUALSTYLE
  5
2B
102
{ACAD_REACTORS
330
2A
102
}
102
{ACAD_XDICTIONARY
360
25C
102
}
330
2A
100
AcDbVisualStyle
  2
Flat
 70
     0
 71
     2
 72
     1
 73
     1
 90
        2
 40
-0.6
 41
30.0
 62
     5
 63
     7
 74
     0
 91
        4
 64
     7
 65
   257
 75
     1
175
     1
 42
1.0
 92
        8
 66
     7
 43
1.0
 76
     1
 77
     6
 78
     2
 67
     7
 79
     5
170
     0
171
     0
290
     0
174
     0
 93
       13
 44
0.0
173
     0
291
     1
 45
0.0
1001
ACAD
1000
AcDbSavedByObjectVersion
1070
     0
  0
VISUALSTYLE
  5
2C
102
{ACAD_REACTORS
330
2A
102
}
102
{ACAD_XDICTIONARY
360
25E
102
}
330
2A
100
AcDbVisualStyle
  2
FlatWithEdges
 70
     1
 71
     2
 72
     1
 73
     1
 90
        2
 40
-0.6
 41
30.0
 62
     5
 63
     7
 74
     1
 91
        4
 64
     7
 65
   257
 75
     1
175
     1
 42
1.0
 92
        0
 66
   257
 43
1.0
 76
     1
 77
     6
 78
     2
 67
     7
 79
     5
170
     0
171
     0
290
     0
174
     0
 93
       13
 44
0.0
173
     0
291
     1
 45
0.0
1001
ACAD
1000
AcDbSavedByObjectVersion
1070
     0
  0
VISUALSTYLE
  5
2D
102
{ACAD_REACTORS
330
2A
102
}
102
{ACAD_XDICTIONARY
360
260
102
}
330
2A
100
AcDbVisualStyle
  2
Gouraud
 70
     2
 71
     2
 72
     2
 73
     1
 90
        2
 40
-0.6
 41
30.0
 62
     5
 63
     7
 74
     0
 91
        4
 64
     7
 65
   257
 75
     1
175
     1
 42
1.0
 92
        0
 66
     7
 43
1.0
 76
     1
 77
     6
 78
     2
 67
     7
 79
     5
170
     0
171
     0
290
     0
174
     0
 93
       13
 44
0.0
173
     0
291
     1
 45
0.0
1001
ACAD
1000
AcDbSavedByObjectVersion
1070
     0
  0
VISUALSTYLE
  5
2E
102
{ACAD_REACTORS
330
2A
102
}
102
{ACAD_XDICTIONARY
360
262
102
}
330
2A
100
AcDbVisualStyle
  2
GouraudWithEdges
 70
     3
 71
     2
 72
     2
 73
     1
 90
        2
 40
-0.6
 41
30.0
 62
     5
 63
     7
 74
     1
 91
        4
 64
     7
 65
   257
 75
     1
175
     1
 42
1.0
 92
        0
 66
   257
 43
1.0
 76
     1
 77
     6
 78
     2
 67
     7
 79
     5
170
     0
171
     0
290
     0
174
     0
 93
       13
 44
0.0
173
     0
291
     1
 45
0.0
1001
ACAD
1000
AcDbSavedByObjectVersion
1070
     0
  0
VISUALSTYLE
  5
38
102
{ACAD_REACTORS
330
2A
102
}
102
{ACAD_XDICTIONARY
360
276
102
}
330
2A
100
AcDbVisualStyle
  2
Linepattern
 70
    14
 71
     2
 72
     2
 73
     0
 90
        0
 40
-0.6
 41
-30.0
 62
     5
 63
     7
 74
     1
 91
        4
 64
     7
 65
   257
 75
     7
175
     7
 42
1.0
 92
        8
 66
     7
 43
1.0
 76
     1
 77
     6
 78
     2
 67
     7
 79
     5
170
     0
171
     0
290
     0
174
     0
 93
        1
 44
0.0
173
     0
291
     1
 45
0.0
1001
ACAD
1000
AcDbSavedByObjectVersion
1070
     0
  0
VISUALSTYLE
  5
33
102
{ACAD_REACTORS
330
2A
102
}
102
{ACAD_XDICTIONARY
360
26C
102
}
330
2A
100
AcDbVisualStyle
  2
Realistic
 70
     8
 71
     2
 72
     2
 73
     0
 90
        0
 40
-0.6
 41
-30.0
 62
     5
 63
     7
 74
     1
 91
        0
 64
     7
 65
   257
 75
     1
175
     1
 42
1.0
 92
        8
 66
     8
 43
1.0
 76
     1
 77
     6
 78
     2
 67
     7
 79
     5
170
     0
171
     0
290
     0
174
     0
 93
       13
 44
0.0
173
     0
291
     0
 45
0.0
1001
ACAD
1000
AcDbSavedByObjectVersion
1070
     0
  0
VISUALSTYLE
  5
37
102
{ACAD_REACTORS
330
2A
102
}
102
{ACAD_XDICTIONARY
360
274
102
}
330
2A
100
AcDbVisualStyle
  2
Thicken
 70
    13
 71
     2
 72
     2
 73
     0
 90
        0
 40
-0.6
 41
-30.0
 62
     5
 63
     7
 74
     1
 91
        4
 64
     7
 65
   257
 75
     1
175
     1
 42
1.0
 92
       12
 66
     7
 43
1.0
 76
     1
 77
     6
 78
     2
 67
     7
 79
     5
170
     0
171
     0
290
     0
174
     0
 93
        1
 44
0.0
173
     0
291
     1
 45
0.0
1001
ACAD
1000
AcDbSavedByObjectVersion
1070
     0
  0
DICTIONARYVAR
  5
25A
102
{ACAD_REACTORS
330
257
102
}
330
257
100
DictionaryVariables
280
     0
  1
2
  0
DICTIONARYVAR
  5
25B
102
{ACAD_REACTORS
330
257
102
}
330
257
100
DictionaryVariables
280
     0
  1
1
  0
DICTIONARY
  5
27E
330
3D
100
AcDbDictionary
280
     1
281
     1
  3
ACAD_XREC_ROUNDTRIP
360
27F
  0
DICTIONARY
  5
27C
330
3C
100
AcDbDictionary
280
     1
281
     1
  3
ACAD_XREC_ROUNDTRIP
360
27D
  0
DICTIONARY
  5
280
330
3E
100
AcDbDictionary
280
     1
281
     1
  3
ACAD_XREC_ROUNDTRIP
360
281
  0
DICTIONARY
  5
264
330
2F
100
AcDbDictionary
280
     1
281
     1
  3
ACAD_XREC_ROUNDTRIP
360
265
  0
DICTIONARY
  5
268
330
31
100
AcDbDictionary
280
     1
281
     1
  3
ACAD_XREC_ROUNDTRIP
360
269
  0
DICTIONARY
  5
266
330
30
100
AcDbDictionary
280
     1
281
     1
  3
ACAD_XREC_ROUNDTRIP
360
267
  0
DICTIONARY
  5
26A
330
32
100
AcDbDictionary
280
     1
281
     1
  3
ACAD_XREC_ROUNDTRIP
360
26B
  0
DICTIONARY
  5
272
330
36
100
AcDbDictionary
280
     1
281
     1
  3
ACAD_XREC_ROUNDTRIP
360
273
  0
DICTIONARY
  5
27A
330
3A
100
AcDbDictionary
280
     1
281
     1
  3
ACAD_XREC_ROUNDTRIP
360
27B
  0
DICTIONARY
  5
26E
330
34
100
AcDbDictionary
280
     1
281
     1
  3
ACAD_XREC_ROUNDTRIP
360
26F
  0
DICTIONARY
  5
270
330
35
100
AcDbDictionary
280
     1
281
     1
  3
ACAD_XREC_ROUNDTRIP
360
271
  0
DICTIONARY
  5
278
330
39
100
AcDbDictionary
280
     1
281
     1
  3
ACAD_XREC_ROUNDTRIP
360
279
  0
DICTIONARY
  5
25C
330
2B
100
AcDbDictionary
280
     1
281
     1
  3
ACAD_XREC_ROUNDTRIP
360
25D
  0
DICTIONARY
  5
25E
330
2C
100
AcDbDictionary
280
     1
281
     1
  3
ACAD_XREC_ROUNDTRIP
360
25F
  0
DICTIONARY
  5
260
330
2D
100
AcDbDictionary
280
     1
281
     1
  3
ACAD_XREC_ROUNDTRIP
360
261
  0
DICTIONARY
  5
262
330
2E
100
AcDbDictionary
280
     1
281
     1
  3
ACAD_XREC_ROUNDTRIP
360
263
  0
DICTIONARY
  5
276
330
38
100
AcDbDictionary
280
     1
281
     1
  3
ACAD_XREC_ROUNDTRIP
360
277
  0
DICTIONARY
  5
26C
330
33
100
AcDbDictionary
280
     1
281
     1
  3
ACAD_XREC_ROUNDTRIP
360
26D
  0
DICTIONARY
  5
274
330
37
100
AcDbDictionary
280
     1
281
     1
  3
ACAD_XREC_ROUNDTRIP
360
275
  0
XRECORD
  5
27F
102
{ACAD_REACTORS
330
27E
102
}
330
27E
100
AcDbXrecord
280
     1
102
MATERIAL
148
0.0
149
0.0
149
0.0
 93
        0
 94
      127
282
     0
 72
     1
 77
     1
171
     1
175
     1
179
     1
273
     0
  0
XRECORD
  5
27D
102
{ACAD_REACTORS
330
27C
102
}
330
27C
100
AcDbXrecord
280
     1
102
MATERIAL
148
0.0
149
0.0
149
0.0
 93
        0
 94
      127
282
     0
 72
     1
 77
     1
171
     1
175
     1
179
     1
273
     0
  0
XRECORD
  5
281
102
{ACAD_REACTORS
330
280
102
}
330
280
100
AcDbXrecord
280
     1
102
MATERIAL
148
0.0
149
0.0
149
0.0
 93
        0
 94
      127
282
     0
 72
     1
 77
     1
171
     1
175
     1
179
     1
273
     0
  0
XRECORD
  5
265
102
{ACAD_REACTORS
330
264
102
}
330
264
100
AcDbXrecord
280
     1
102
RTVSPropertyOp0
 70
     1
102
RTVSPropertyOp1
 70
     1
102
RTVSPropertyOp2
 70
     1
102
RTVSPropertyOp3
 70
     1
102
RTVSPropertyOp4
 70
     1
102
RTVSPropertyOp5
 70
     1
102
RTVSPropertyOp6
 70
     1
102
RTVSPropertyOp7
 70
     1
102
RTVSPropertyOp8
 70
     1
102
RTVSPropertyOp9
 70
     1
102
RTVSPropertyOp10
 70
     1
102
RTVSPropertyOp11
 70
     1
102
RTVSPropertyOp12
 70
     1
102
RTVSPropertyOp13
 70
     1
102
RTVSPropertyOp14
 70
     1
102
RTVSPropertyOp15
 70
     1
102
RTVSPropertyOp16
 70
     1
102
RTVSPropertyOp17
 70
     1
102
RTVSPropertyOp18
 70
     1
102
RTVSPropertyOp19
 70
     1
102
RTVSPropertyOp20
 70
     1
102
RTVSPropertyOp21
 70
     1
102
RTVSPropertyOp22
 70
     1
102
RTVSPropertyOp23
 70
     1
102
RTVSPropertyOp24
 70
     1
102
RTVSPropertyOp25
 70
     1
102
RTVSPropertyOp26
 70
     1
102
RTVSPropertyOp27
 70
     1
102
RTVSPropertyOp28
 70
     1
102
RTVSPropertyOp29
 70
     1
102
RTVSPropertyOp30
 70
     1
102
RTVSPropertyOp31
 70
     1
102
RTVSPropertyOp32
 70
     1
  0
XRECORD
  5
269
102
{ACAD_REACTORS
330
268
102
}
330
268
100
AcDbXrecord
280
     1
102
RTVSPropertyOp0
 70
     1
102
RTVSPropertyOp1
 70
     1
102
RTVSPropertyOp2
 70
     1
102
RTVSPropertyOp3
 70
     1
102
RTVSPropertyOp4
 70
     1
102
RTVSPropertyOp5
 70
     1
102
RTVSPropertyOp6
 70
     1
102
RTVSPropertyOp7
 70
     1
102
RTVSPropertyOp8
 70
     1
102
RTVSPropertyOp9
 70
     1
102
RTVSPropertyOp10
 70
     1
102
RTVSPropertyOp11
 70
     1
102
RTVSPropertyOp12
 70
     1
102
RTVSPropertyOp13
 70
     1
102
RTVSPropertyOp14
 70
     1
102
RTVSPropertyOp15
 70
     1
102
RTVSPropertyOp16
 70
     1
102
RTVSPropertyOp17
 70
     1
102
RTVSPropertyOp18
 70
     1
102
RTVSPropertyOp19
 70
     1
102
RTVSPropertyOp20
 70
     1
102
RTVSPropertyOp21
 70
     1
102
RTVSPropertyOp22
 70
     1
102
RTVSPropertyOp23
 70
     1
102
RTVSPropertyOp24
 70
     1
102
RTVSPropertyOp25
 70
     1
102
RTVSPropertyOp26
 70
     1
102
RTVSPropertyOp27
 70
     1
102
RTVSPropertyOp28
 70
     1
102
RTVSPropertyOp29
 70
     1
102
RTVSPropertyOp30
 70
     1
102
RTVSPropertyOp31
 70
     1
102
RTVSPropertyOp32
 70
     1
  0
XRECORD
  5
267
102
{ACAD_REACTORS
330
266
102
}
330
266
100
AcDbXrecord
280
     1
102
RTVSPropertyOp0
 70
     1
102
RTVSPropertyOp1
 70
     1
102
RTVSPropertyOp2
 70
     1
102
RTVSPropertyOp3
 70
     1
102
RTVSPropertyOp4
 70
     1
102
RTVSPropertyOp5
 70
     1
102
RTVSPropertyOp6
 70
     1
102
RTVSPropertyOp7
 70
     1
102
RTVSPropertyOp8
 70
     1
102
RTVSPropertyOp9
 70
     1
102
RTVSPropertyOp10
 70
     1
102
RTVSPropertyOp11
 70
     1
102
RTVSPropertyOp12
 70
     1
102
RTVSPropertyOp13
 70
     1
102
RTVSPropertyOp14
 70
     1
102
RTVSPropertyOp15
 70
     1
102
RTVSPropertyOp16
 70
     1
102
RTVSPropertyOp17
 70
     1
102
RTVSPropertyOp18
 70
     1
102
RTVSPropertyOp19
 70
     1
102
RTVSPropertyOp20
 70
     1
102
RTVSPropertyOp21
 70
     1
102
RTVSPropertyOp22
 70
     1
102
RTVSPropertyOp23
 70
     1
102
RTVSPropertyOp24
 70
     1
102
RTVSPropertyOp25
 70
     1
102
RTVSPropertyOp26
 70
     1
102
RTVSPropertyOp27
 70
     1
102
RTVSPropertyOp28
 70
     1
102
RTVSPropertyOp29
 70
     1
102
RTVSPropertyOp30
 70
     1
102
RTVSPropertyOp31
 70
     1
102
RTVSPropertyOp32
 70
     1
  0
XRECORD
  5
26B
102
{ACAD_REACTORS
330
26A
102
}
330
26A
100
AcDbXrecord
280
     1
102
RTVSPropertyOp0
 70
     1
102
RTVSPropertyOp1
 70
     1
102
RTVSPropertyOp2
 70
     1
102
RTVSPropertyOp3
 70
     1
102
RTVSPropertyOp4
 70
     1
102
RTVSPropertyOp5
 70
     1
102
RTVSPropertyOp6
 70
     1
102
RTVSPropertyOp7
 70
     1
102
RTVSPropertyOp8
 70
     1
102
RTVSPropertyOp9
 70
     1
102
RTVSPropertyOp10
 70
     1
102
RTVSPropertyOp11
 70
     1
102
RTVSPropertyOp12
 70
     1
102
RTVSPropertyOp13
 70
     1
102
RTVSPropertyOp14
 70
     1
102
RTVSPropertyOp15
 70
     1
102
RTVSPropertyOp16
 70
     1
102
RTVSPropertyOp17
 70
     1
102
RTVSPropertyOp18
 70
     1
102
RTVSPropertyOp19
 70
     1
102
RTVSPropertyOp20
 70
     1
102
RTVSPropertyOp21
 70
     1
102
RTVSPropertyOp22
 70
     1
102
RTVSPropertyOp23
 70
     1
102
RTVSPropertyOp24
 70
     1
102
RTVSPropertyOp25
 70
     1
102
RTVSPropertyOp26
 70
     1
102
RTVSPropertyOp27
 70
     1
102
RTVSPropertyOp28
 70
     1
102
RTVSPropertyOp29
 70
     1
102
RTVSPropertyOp30
 70
     1
102
RTVSPropertyOp31
 70
     1
102
RTVSPropertyOp32
 70
     1
  0
XRECORD
  5
273
102
{ACAD_REACTORS
330
272
102
}
330
272
100
AcDbXrecord
280
     1
102
RTVSPropertyOp0
 70
     1
102
RTVSPropertyOp1
 70
     1
102
RTVSPropertyOp2
 70
     1
102
RTVSPropertyOp3
 70
     1
102
RTVSPropertyOp4
 70
     1
102
RTVSPropertyOp5
 70
     1
102
RTVSPropertyOp6
 70
     1
102
RTVSPropertyOp7
 70
     1
102
RTVSPropertyOp8
 70
     1
102
RTVSPropertyOp9
 70
     1
102
RTVSPropertyOp10
 70
     1
102
RTVSPropertyOp11
 70
     1
102
RTVSPropertyOp12
 70
     1
102
RTVSPropertyOp13
 70
     1
102
RTVSPropertyOp14
 70
     1
102
RTVSPropertyOp15
 70
     1
102
RTVSPropertyOp16
 70
     1
102
RTVSPropertyOp17
 70
     1
102
RTVSPropertyOp18
 70
     1
102
RTVSPropertyOp19
 70
     1
102
RTVSPropertyOp20
 70
     1
102
RTVSPropertyOp21
 70
     1
102
RTVSPropertyOp22
 70
     1
102
RTVSPropertyOp23
 70
     1
102
RTVSPropertyOp24
 70
     1
102
RTVSPropertyOp25
 70
     1
102
RTVSPropertyOp26
 70
     1
102
RTVSPropertyOp27
 70
     1
102
RTVSPropertyOp28
 70
     1
102
RTVSPropertyOp29
 70
     1
102
RTVSPropertyOp30
 70
     1
102
RTVSPropertyOp31
 70
     1
102
RTVSPropertyOp32
 70
     1
  0
XRECORD
  5
27B
102
{ACAD_REACTORS
330
27A
102
}
330
27A
100
AcDbXrecord
280
     1
102
RTVSPropertyOp0
 70
     1
102
RTVSPropertyOp1
 70
     1
102
RTVSPropertyOp2
 70
     1
102
RTVSPropertyOp3
 70
     1
102
RTVSPropertyOp4
 70
     1
102
RTVSPropertyOp5
 70
     1
102
RTVSPropertyOp6
 70
     1
102
RTVSPropertyOp7
 70
     1
102
RTVSPropertyOp8
 70
     1
102
RTVSPropertyOp9
 70
     1
102
RTVSPropertyOp10
 70
     1
102
RTVSPropertyOp11
 70
     1
102
RTVSPropertyOp12
 70
     1
102
RTVSPropertyOp13
 70
     1
102
RTVSPropertyOp14
 70
     1
102
RTVSPropertyOp15
 70
     1
102
RTVSPropertyOp16
 70
     1
102
RTVSPropertyOp17
 70
     1
102
RTVSPropertyOp18
 70
     1
102
RTVSPropertyOp19
 70
     1
102
RTVSPropertyOp20
 70
     1
102
RTVSPropertyOp21
 70
     1
102
RTVSPropertyOp22
 70
     1
102
RTVSPropertyOp23
 70
     1
102
RTVSPropertyOp24
 70
     1
102
RTVSPropertyOp25
 70
     1
102
RTVSPropertyOp26
 70
     1
102
RTVSPropertyOp27
 70
     1
102
RTVSPropertyOp28
 70
     1
102
RTVSPropertyOp29
 70
     1
102
RTVSPropertyOp30
 70
     1
102
RTVSPropertyOp31
 70
     1
102
RTVSPropertyOp32
 70
     1
  0
XRECORD
  5
26F
102
{ACAD_REACTORS
330
26E
102
}
330
26E
100
AcDbXrecord
280
     1
102
RTVSPropertyOp0
 70
     1
102
RTVSPropertyOp1
 70
     1
102
RTVSPropertyOp2
 70
     1
102
RTVSPropertyOp3
 70
     1
102
RTVSPropertyOp4
 70
     1
102
RTVSPropertyOp5
 70
     1
102
RTVSPropertyOp6
 70
     1
102
RTVSPropertyOp7
 70
     1
102
RTVSPropertyOp8
 70
     1
102
RTVSPropertyOp9
 70
     1
102
RTVSPropertyOp10
 70
     1
102
RTVSPropertyOp11
 70
     1
102
RTVSPropertyOp12
 70
     1
102
RTVSPropertyOp13
 70
     1
102
RTVSPropertyOp14
 70
     1
102
RTVSPropertyOp15
 70
     1
102
RTVSPropertyOp16
 70
     1
102
RTVSPropertyOp17
 70
     1
102
RTVSPropertyOp18
 70
     1
102
RTVSPropertyOp19
 70
     1
102
RTVSPropertyOp20
 70
     1
102
RTVSPropertyOp21
 70
     1
102
RTVSPropertyOp22
 70
     1
102
RTVSPropertyOp23
 70
     1
102
RTVSPropertyOp24
 70
     1
102
RTVSPropertyOp25
 70
     1
102
RTVSPropertyOp26
 70
     1
102
RTVSPropertyOp27
 70
     1
102
RTVSPropertyOp28
 70
     1
102
RTVSPropertyOp29
 70
     1
102
RTVSPropertyOp30
 70
     1
102
RTVSPropertyOp31
 70
     1
102
RTVSPropertyOp32
 70
     1
  0
XRECORD
  5
271
102
{ACAD_REACTORS
330
270
102
}
330
270
100
AcDbXrecord
280
     1
102
RTVSPropertyOp0
 70
     1
102
RTVSPropertyOp1
 70
     1
102
RTVSPropertyOp2
 70
     1
102
RTVSPropertyOp3
 70
     1
102
RTVSPropertyOp4
 70
     1
102
RTVSPropertyOp5
 70
     1
102
RTVSPropertyOp6
 70
     1
102
RTVSPropertyOp7
 70
     1
102
RTVSPropertyOp8
 70
     1
102
RTVSPropertyOp9
 70
     1
102
RTVSPropertyOp10
 70
     1
102
RTVSPropertyOp11
 70
     1
102
RTVSPropertyOp12
 70
     1
102
RTVSPropertyOp13
 70
     1
102
RTVSPropertyOp14
 70
     1
102
RTVSPropertyOp15
 70
     1
102
RTVSPropertyOp16
 70
     1
102
RTVSPropertyOp17
 70
     1
102
RTVSPropertyOp18
 70
     1
102
RTVSPropertyOp19
 70
     1
102
RTVSPropertyOp20
 70
     1
102
RTVSPropertyOp21
 70
     1
102
RTVSPropertyOp22
 70
     1
102
RTVSPropertyOp23
 70
     1
102
RTVSPropertyOp24
 70
     1
102
RTVSPropertyOp25
 70
     1
102
RTVSPropertyOp26
 70
     1
102
RTVSPropertyOp27
 70
     1
102
RTVSPropertyOp28
 70
     1
102
RTVSPropertyOp29
 70
     1
102
RTVSPropertyOp30
 70
     1
102
RTVSPropertyOp31
 70
     1
102
RTVSPropertyOp32
 70
     1
  0
XRECORD
  5
279
102
{ACAD_REACTORS
330
278
102
}
330
278
100
AcDbXrecord
280
     1
102
RTVSPropertyOp0
 70
     1
102
RTVSPropertyOp1
 70
     1
102
RTVSPropertyOp2
 70
     1
102
RTVSPropertyOp3
 70
     1
102
RTVSPropertyOp4
 70
     1
102
RTVSPropertyOp5
 70
     1
102
RTVSPropertyOp6
 70
     1
102
RTVSPropertyOp7
 70
     1
102
RTVSPropertyOp8
 70
     1
102
RTVSPropertyOp9
 70
     1
102
RTVSPropertyOp10
 70
     1
102
RTVSPropertyOp11
 70
     1
102
RTVSPropertyOp12
 70
     1
102
RTVSPropertyOp13
 70
     1
102
RTVSPropertyOp14
 70
     1
102
RTVSPropertyOp15
 70
     1
102
RTVSPropertyOp16
 70
     1
102
RTVSPropertyOp17
 70
     1
102
RTVSPropertyOp18
 70
     1
102
RTVSPropertyOp19
 70
     1
102
RTVSPropertyOp20
 70
     1
102
RTVSPropertyOp21
 70
     1
102
RTVSPropertyOp22
 70
     1
102
RTVSPropertyOp23
 70
     1
102
RTVSPropertyOp24
 70
     1
102
RTVSPropertyOp25
 70
     1
102
RTVSPropertyOp26
 70
     1
102
RTVSPropertyOp27
 70
     1
102
RTVSPropertyOp28
 70
     1
102
RTVSPropertyOp29
 70
     1
102
RTVSPropertyOp30
 70
     1
102
RTVSPropertyOp31
 70
     1
102
RTVSPropertyOp32
 70
     1
  0
XRECORD
  5
25D
102
{ACAD_REACTORS
330
25C
102
}
330
25C
100
AcDbXrecord
280
     1
102
RTVSPropertyOp0
 70
     1
102
RTVSPropertyOp1
 70
     1
102
RTVSPropertyOp2
 70
     1
102
RTVSPropertyOp3
 70
     1
102
RTVSPropertyOp4
 70
     1
102
RTVSPropertyOp5
 70
     1
102
RTVSPropertyOp6
 70
     1
102
RTVSPropertyOp7
 70
     1
102
RTVSPropertyOp8
 70
     1
102
RTVSPropertyOp9
 70
     1
102
RTVSPropertyOp10
 70
     1
102
RTVSPropertyOp11
 70
     1
102
RTVSPropertyOp12
 70
     1
102
RTVSPropertyOp13
 70
     1
102
RTVSPropertyOp14
 70
     1
102
RTVSPropertyOp15
 70
     1
102
RTVSPropertyOp16
 70
     1
102
RTVSPropertyOp17
 70
     1
102
RTVSPropertyOp18
 70
     1
102
RTVSPropertyOp19
 70
     1
102
RTVSPropertyOp20
 70
     1
102
RTVSPropertyOp21
 70
     1
102
RTVSPropertyOp22
 70
     1
102
RTVSPropertyOp23
 70
     1
102
RTVSPropertyOp24
 70
     1
102
RTVSPropertyOp25
 70
     1
102
RTVSPropertyOp26
 70
     1
102
RTVSPropertyOp27
 70
     1
102
RTVSPropertyOp28
 70
     1
102
RTVSPropertyOp29
 70
     1
102
RTVSPropertyOp30
 70
     1
102
RTVSPropertyOp31
 70
     1
102
RTVSPropertyOp32
 70
     1
  0
XRECORD
  5
25F
102
{ACAD_REACTORS
330
25E
102
}
330
25E
100
AcDbXrecord
280
     1
102
RTVSPropertyOp0
 70
     1
102
RTVSPropertyOp1
 70
     1
102
RTVSPropertyOp2
 70
     1
102
RTVSPropertyOp3
 70
     1
102
RTVSPropertyOp4
 70
     1
102
RTVSPropertyOp5
 70
     1
102
RTVSPropertyOp6
 70
     1
102
RTVSPropertyOp7
 70
     1
102
RTVSPropertyOp8
 70
     1
102
RTVSPropertyOp9
 70
     1
102
RTVSPropertyOp10
 70
     1
102
RTVSPropertyOp11
 70
     1
102
RTVSPropertyOp12
 70
     1
102
RTVSPropertyOp13
 70
     1
102
RTVSPropertyOp14
 70
     1
102
RTVSPropertyOp15
 70
     1
102
RTVSPropertyOp16
 70
     1
102
RTVSPropertyOp17
 70
     1
102
RTVSPropertyOp18
 70
     1
102
RTVSPropertyOp19
 70
     1
102
RTVSPropertyOp20
 70
     1
102
RTVSPropertyOp21
 70
     1
102
RTVSPropertyOp22
 70
     1
102
RTVSPropertyOp23
 70
     1
102
RTVSPropertyOp24
 70
     1
102
RTVSPropertyOp25
 70
     1
102
RTVSPropertyOp26
 70
     1
102
RTVSPropertyOp27
 70
     1
102
RTVSPropertyOp28
 70
     1
102
RTVSPropertyOp29
 70
     1
102
RTVSPropertyOp30
 70
     1
102
RTVSPropertyOp31
 70
     1
102
RTVSPropertyOp32
 70
     1
  0
XRECORD
  5
261
102
{ACAD_REACTORS
330
260
102
}
330
260
100
AcDbXrecord
280
     1
102
RTVSPropertyOp0
 70
     1
102
RTVSPropertyOp1
 70
     1
102
RTVSPropertyOp2
 70
     1
102
RTVSPropertyOp3
 70
     1
102
RTVSPropertyOp4
 70
     1
102
RTVSPropertyOp5
 70
     1
102
RTVSPropertyOp6
 70
     1
102
RTVSPropertyOp7
 70
     1
102
RTVSPropertyOp8
 70
     1
102
RTVSPropertyOp9
 70
     1
102
RTVSPropertyOp10
 70
     1
102
RTVSPropertyOp11
 70
     1
102
RTVSPropertyOp12
 70
     1
102
RTVSPropertyOp13
 70
     1
102
RTVSPropertyOp14
 70
     1
102
RTVSPropertyOp15
 70
     1
102
RTVSPropertyOp16
 70
     1
102
RTVSPropertyOp17
 70
     1
102
RTVSPropertyOp18
 70
     1
102
RTVSPropertyOp19
 70
     1
102
RTVSPropertyOp20
 70
     1
102
RTVSPropertyOp21
 70
     1
102
RTVSPropertyOp22
 70
     1
102
RTVSPropertyOp23
 70
     1
102
RTVSPropertyOp24
 70
     1
102
RTVSPropertyOp25
 70
     1
102
RTVSPropertyOp26
 70
     1
102
RTVSPropertyOp27
 70
     1
102
RTVSPropertyOp28
 70
     1
102
RTVSPropertyOp29
 70
     1
102
RTVSPropertyOp30
 70
     1
102
RTVSPropertyOp31
 70
     1
102
RTVSPropertyOp32
 70
     1
  0
XRECORD
  5
263
102
{ACAD_REACTORS
330
262
102
}
330
262
100
AcDbXrecord
280
     1
102
RTVSPropertyOp0
 70
     1
102
RTVSPropertyOp1
 70
     1
102
RTVSPropertyOp2
 70
     1
102
RTVSPropertyOp3
 70
     1
102
RTVSPropertyOp4
 70
     1
102
RTVSPropertyOp5
 70
     1
102
RTVSPropertyOp6
 70
     1
102
RTVSPropertyOp7
 70
     1
102
RTVSPropertyOp8
 70
     1
102
RTVSPropertyOp9
 70
     1
102
RTVSPropertyOp10
 70
     1
102
RTVSPropertyOp11
 70
     1
102
RTVSPropertyOp12
 70
     1
102
RTVSPropertyOp13
 70
     1
102
RTVSPropertyOp14
 70
     1
102
RTVSPropertyOp15
 70
     1
102
RTVSPropertyOp16
 70
     1
102
RTVSPropertyOp17
 70
     1
102
RTVSPropertyOp18
 70
     1
102
RTVSPropertyOp19
 70
     1
102
RTVSPropertyOp20
 70
     1
102
RTVSPropertyOp21
 70
     1
102
RTVSPropertyOp22
 70
     1
102
RTVSPropertyOp23
 70
     1
102
RTVSPropertyOp24
 70
     1
102
RTVSPropertyOp25
 70
     1
102
RTVSPropertyOp26
 70
     1
102
RTVSPropertyOp27
 70
     1
102
RTVSPropertyOp28
 70
     1
102
RTVSPropertyOp29
 70
     1
102
RTVSPropertyOp30
 70
     1
102
RTVSPropertyOp31
 70
     1
102
RTVSPropertyOp32
 70
     1
  0
XRECORD
  5
277
102
{ACAD_REACTORS
330
276
102
}
330
276
100
AcDbXrecord
280
     1
102
RTVSPropertyOp0
 70
     1
102
RTVSPropertyOp1
 70
     1
102
RTVSPropertyOp2
 70
     1
102
RTVSPropertyOp3
 70
     1
102
RTVSPropertyOp4
 70
     1
102
RTVSPropertyOp5
 70
     1
102
RTVSPropertyOp6
 70
     1
102
RTVSPropertyOp7
 70
     1
102
RTVSPropertyOp8
 70
     1
102
RTVSPropertyOp9
 70
     1
102
RTVSPropertyOp10
 70
     1
102
RTVSPropertyOp11
 70
     1
102
RTVSPropertyOp12
 70
     1
102
RTVSPropertyOp13
 70
     1
102
RTVSPropertyOp14
 70
     1
102
RTVSPropertyOp15
 70
     1
102
RTVSPropertyOp16
 70
     1
102
RTVSPropertyOp17
 70
     1
102
RTVSPropertyOp18
 70
     1
102
RTVSPropertyOp19
 70
     1
102
RTVSPropertyOp20
 70
     1
102
RTVSPropertyOp21
 70
     1
102
RTVSPropertyOp22
 70
     1
102
RTVSPropertyOp23
 70
     1
102
RTVSPropertyOp24
 70
     1
102
RTVSPropertyOp25
 70
     1
102
RTVSPropertyOp26
 70
     1
102
RTVSPropertyOp27
 70
     1
102
RTVSPropertyOp28
 70
     1
102
RTVSPropertyOp29
 70
     1
102
RTVSPropertyOp30
 70
     1
102
RTVSPropertyOp31
 70
     1
102
RTVSPropertyOp32
 70
     1
  0
XRECORD
  5
26D
102
{ACAD_REACTORS
330
26C
102
}
330
26C
100
AcDbXrecord
280
     1
102
RTVSPropertyOp0
 70
     1
102
RTVSPropertyOp1
 70
     1
102
RTVSPropertyOp2
 70
     1
102
RTVSPropertyOp3
 70
     1
102
RTVSPropertyOp4
 70
     1
102
RTVSPropertyOp5
 70
     1
102
RTVSPropertyOp6
 70
     1
102
RTVSPropertyOp7
 70
     1
102
RTVSPropertyOp8
 70
     1
102
RTVSPropertyOp9
 70
     1
102
RTVSPropertyOp10
 70
     1
102
RTVSPropertyOp11
 70
     1
102
RTVSPropertyOp12
 70
     1
102
RTVSPropertyOp13
 70
     1
102
RTVSPropertyOp14
 70
     1
102
RTVSPropertyOp15
 70
     1
102
RTVSPropertyOp16
 70
     1
102
RTVSPropertyOp17
 70
     1
102
RTVSPropertyOp18
 70
     1
102
RTVSPropertyOp19
 70
     1
102
RTVSPropertyOp20
 70
     1
102
RTVSPropertyOp21
 70
     1
102
RTVSPropertyOp22
 70
     1
102
RTVSPropertyOp23
 70
     1
102
RTVSPropertyOp24
 70
     1
102
RTVSPropertyOp25
 70
     1
102
RTVSPropertyOp26
 70
     1
102
RTVSPropertyOp27
 70
     1
102
RTVSPropertyOp28
 70
     1
102
RTVSPropertyOp29
 70
     1
102
RTVSPropertyOp30
 70
     1
102
RTVSPropertyOp31
 70
     1
102
RTVSPropertyOp32
 70
     1
  0
XRECORD
  5
275
102
{ACAD_REACTORS
330
274
102
}
330
274
100
AcDbXrecord
280
     1
102
RTVSPropertyOp0
 70
     1
102
RTVSPropertyOp1
 70
     1
102
RTVSPropertyOp2
 70
     1
102
RTVSPropertyOp3
 70
     1
102
RTVSPropertyOp4
 70
     1
102
RTVSPropertyOp5
 70
     1
102
RTVSPropertyOp6
 70
     1
102
RTVSPropertyOp7
 70
     1
102
RTVSPropertyOp8
 70
     1
102
RTVSPropertyOp9
 70
     1
102
RTVSPropertyOp10
 70
     1
102
RTVSPropertyOp11
 70
     1
102
RTVSPropertyOp12
 70
     1
102
RTVSPropertyOp13
 70
     1
102
RTVSPropertyOp14
 70
     1
102
RTVSPropertyOp15
 70
     1
102
RTVSPropertyOp16
 70
     1
102
RTVSPropertyOp17
 70
     1
102
RTVSPropertyOp18
 70
     1
102
RTVSPropertyOp19
 70
     1
102
RTVSPropertyOp20
 70
     1
102
RTVSPropertyOp21
 70
     1
102
RTVSPropertyOp22
 70
     1
102
RTVSPropertyOp23
 70
     1
102
RTVSPropertyOp24
 70
     1
102
RTVSPropertyOp25
 70
     1
102
RTVSPropertyOp26
 70
     1
102
RTVSPropertyOp27
 70
     1
102
RTVSPropertyOp28
 70
     1
102
RTVSPropertyOp29
 70
     1
102
RTVSPropertyOp30
 70
     1
102
RTVSPropertyOp31
 70
     1
102
RTVSPropertyOp32
 70
     1
  0
ENDSEC
  0
EOF
