  0
SECTION
  2
HEADER
  9
$ACADVER
  1
AC1015
  9
$ACADMAINTVER
 70
     6
  9
$DWGCODEPAGE
  3
ANSI_932
  9
$INSBASE
 10
0.0
 20
0.0
 30
0.0
  9
$EXTMIN
 10
0.0
 20
0.0
 30
0.0
  9
$EXTMAX
 10
525.0
 20
742.5
 30
0.0
  9
$LIMMIN
 10
0.0
 20
0.0
  9
$LIMMAX
 10
12.0
 20
9.0
  9
$ORTHOMODE
 70
     0
  9
$REGENMODE
 70
     1
  9
$FILLMODE
 70
     1
  9
$QTEXTMODE
 70
     0
  9
$MIRRTEXT
 70
     1
  9
$LTSCALE
 40
1.0
  9
$ATTMODE
 70
     1
  9
$TEXTSIZE
 40
0.2
  9
$TRACEWID
 40
0.05
  9
$TEXTSTYLE
  7
Standard
  9
$CLAYER
  8
0
  9
$CELTYPE
  6
ByLayer
  9
$CECOLOR
 62
   256
  9
$CELTSCALE
 40
1.0
  9
$DISPSILH
 70
     0
  9
$DIMSCALE
 40
1.0
  9
$DIMASZ
 40
0.18
  9
$DIMEXO
 40
0.0625
  9
$DIMDLI
 40
0.38
  9
$DIMRND
 40
0.0
  9
$DIMDLE
 40
0.0
  9
$DIMEXE
 40
0.18
  9
$DIMTP
 40
0.0
  9
$DIMTM
 40
0.0
  9
$DIMTXT
 40
0.18
  9
$DIMCEN
 40
0.09
  9
$DIMTSZ
 40
0.0
  9
$DIMTOL
 70
     0
  9
$DIMLIM
 70
     0
  9
$DIMTIH
 70
     1
  9
$DIMTOH
 70
     1
  9
$DIMSE1
 70
     0
  9
$DIMSE2
 70
     0
  9
$DIMTAD
 70
     0
  9
$DIMZIN
 70
     0
  9
$DIMBLK
  1

  9
$DIMASO
 70
     1
  9
$DIMSHO
 70
     1
  9
$DIMPOST
  1

  9
$DIMAPOST
  1

  9
$DIMALT
 70
     0
  9
$DIMALTD
 70
     2
  9
$DIMALTF
 40
25.4
  9
$DIMLFAC
 40
1.0
  9
$DIMTOFL
 70
     0
  9
$DIMTVP
 40
0.0
  9
$DIMTIX
 70
     0
  9
$DIMSOXD
 70
     0
  9
$DIMSAH
 70
     0
  9
$DIMBLK1
  1

  9
$DIMBLK2
  1

  9
$DIMSTYLE
  2
Standard
  9
$DIMCLRD
 70
     0
  9
$DIMCLRE
 70
     0
  9
$DIMCLRT
 70
     0
  9
$DIMTFAC
 40
1.0
  9
$DIMGAP
 40
0.09
  9
$DIMJUST
 70
     0
  9
$DIMSD1
 70
     0
  9
$DIMSD2
 70
     0
  9
$DIMTOLJ
 70
     1
  9
$DIMTZIN
 70
     0
  9
$DIMALTZ
 70
     0
  9
$DIMALTTZ
 70
     0
  9
$DIMUPT
 70
     0
  9
$DIMDEC
 70
     4
  9
$DIMTDEC
 70
     4
  9
$DIMALTU
 70
     2
  9
$DIMALTTD
 70
     2
  9
$DIMTXSTY
  7
Standard
  9
$DIMAUNIT
 70
     0
  9
$DIMADEC
 70
     0
  9
$DIMALTRND
 40
0.0
  9
$DIMAZIN
 70
     0
  9
$DIMDSEP
 70
    46
  9
$DIMATFIT
 70
     3
  9
$DIMFRAC
 70
     0
  9
$DIMLDRBLK
  1

  9
$DIMLUNIT
 70
     2
  9
$DIMLWD
 70
    -2
  9
$DIMLWE
 70
    -2
  9
$DIMTMOVE
 70
     0
  9
$LUNITS
 70
     2
  9
$LUPREC
 70
     4
  9
$SKETCHINC
 40
0.1
  9
$FILLETRAD
 40
0.5
  9
$AUNITS
 70
     0
  9
$AUPREC
 70
     0
  9
$MENU
  1
.
  9
$ELEVATION
 40
0.0
  9
$PELEVATION
 40
0.0
  9
$THICKNESS
 40
0.0
  9
$LIMCHECK
 70
     0
  9
$CHAMFERA
 40
0.5
  9
$CHAMFERB
 40
0.5
  9
$CHAMFERC
 40
1.0
  9
$CHAMFERD
 40
0.0
  9
$SKPOLY
 70
     0
  9
$TDCREATE
 40
2457186.575546354
  9
$TDUCREATE
 40
2457186.200546354
  9
$TDUPDATE
 40
2457186.575547627
  9
$TDUUPDATE
 40
2457186.200547627
  9
$TDINDWG
 40
0.0000000116
  9
$TDUSRTIMER
 40
0.0000000116
  9
$USRTIMER
 70
     1
  9
$ANGBASE
 50
0.0
  9
$ANGDIR
 70
     0
  9
$PDMODE
 70
     0
  9
$PDSIZE
 40
0.0
  9
$PLINEWID
 40
0.0
  9
$SPLFRAME
 70
     0
  9
$SPLINETYPE
 70
     6
  9
$SPLINESEGS
 70
     8
  9
$HANDSEED
  5
2F1
  9
$SURFTAB1
 70
     6
  9
$SURFTAB2
 70
     6
  9
$SURFTYPE
 70
     6
  9
$SURFU
 70
     6
  9
$SURFV
 70
     6
  9
$UCSBASE
  2

  9
$UCSNAME
  2

  9
$UCSORG
 10
0.0
 20
0.0
 30
0.0
  9
$UCSXDIR
 10
1.0
 20
0.0
 30
0.0
  9
$UCSYDIR
 10
0.0
 20
1.0
 30
0.0
  9
$UCSORTHOREF
  2

  9
$UCSORTHOVIEW
 70
     0
  9
$UCSORGTOP
 10
0.0
 20
0.0
 30
0.0
  9
$UCSORGBOTTOM
 10
0.0
 20
0.0
 30
0.0
  9
$UCSORGLEFT
 10
0.0
 20
0.0
 30
0.0
  9
$UCSORGRIGHT
 10
0.0
 20
0.0
 30
0.0
  9
$UCSORGFRONT
 10
0.0
 20
0.0
 30
0.0
  9
$UCSORGBACK
 10
0.0
 20
0.0
 30
0.0
  9
$PUCSBASE
  2

  9
$PUCSNAME
  2

  9
$PUCSORG
 10
0.0
 20
0.0
 30
0.0
  9
$PUCSXDIR
 10
1.0
 20
0.0
 30
0.0
  9
$PUCSYDIR
 10
0.0
 20
1.0
 30
0.0
  9
$PUCSORTHOREF
  2

  9
$PUCSORTHOVIEW
 70
     0
  9
$PUCSORGTOP
 10
0.0
 20
0.0
 30
0.0
  9
$PUCSORGBOTTOM
 10
0.0
 20
0.0
 30
0.0
  9
$PUCSORGLEFT
 10
0.0
 20
0.0
 30
0.0
  9
$PUCSORGRIGHT
 10
0.0
 20
0.0
 30
0.0
  9
$PUCSORGFRONT
 10
0.0
 20
0.0
 30
0.0
  9
$PUCSORGBACK
 10
0.0
 20
0.0
 30
0.0
  9
$USERI1
 70
     0
  9
$USERI2
 70
     0
  9
$USERI3
 70
     0
  9
$USERI4
 70
     0
  9
$USERI5
 70
     0
  9
$USERR1
 40
18.1
  9
$USERR2
 40
0.0
  9
$USERR3
 40
0.0
  9
$USERR4
 40
0.0
  9
$USERR5
 40
0.0
  9
$WORLDVIEW
 70
     1
  9
$SHADEDGE
 70
     3
  9
$SHADEDIF
 70
    70
  9
$TILEMODE
 70
     1
  9
$MAXACTVP
 70
    64
  9
$PINSBASE
 10
0.0
 20
0.0
 30
0.0
  9
$PLIMCHECK
 70
     0
  9
$PEXTMIN
 10
1.00000000000000E+20
 20
1.00000000000000E+20
 30
1.00000000000000E+20
  9
$PEXTMAX
 10
-1.00000000000000E+20
 20
-1.00000000000000E+20
 30
-1.00000000000000E+20
  9
$PLIMMIN
 10
0.0
 20
0.0
  9
$PLIMMAX
 10
12.0
 20
9.0
  9
$UNITMODE
 70
     0
  9
$VISRETAIN
 70
     1
  9
$PLINEGEN
 70
     0
  9
$PSLTSCALE
 70
     1
  9
$TREEDEPTH
 70
  3020
  9
$CMLSTYLE
  2
Standard
  9
$CMLJUST
 70
     0
  9
$CMLSCALE
 40
1.0
  9
$PROXYGRAPHICS
 70
     1
  9
$MEASUREMENT
 70
     1
  9
$CELWEIGHT
370
    -1
  9
$ENDCAPS
280
     0
  9
$JOINSTYLE
280
     0
  9
$LWDISPLAY
290
     0
  9
$INSUNITS
 70
     4
  9
$HYPERLINKBASE
  1

  9
$STYLESHEET
  1

  9
$XEDIT
290
     1
  9
$CEPSNTYPE
380
     0
  9
$PSTYLEMODE
290
     1
  9
$FINGERPRINTGUID
  2
{9FAD9573-3479-4D0A-AC01-0BDC331BB133}
  9
$VERSIONGUID
  2
{FAEB1C32-E019-11D5-929B-00C0DF256EC4}
  9
$EXTNAMES
290
     1
  9
$PSVPSCALE
 40
0.0
  9
$OLESTARTUP
290
     0
  0
ENDSEC
  0
SECTION
  2
CLASSES
  0
CLASS
  1
ACDBDICTIONARYWDFLT
  2
AcDbDictionaryWithDefault
  3
ObjectDBX Classes
 90
        0
280
     0
281
     0
  0
CLASS
  1
VISUALSTYLE
  2
AcDbVisualStyle
  3
ObjectDBX Classes
 90
     4095
280
     0
281
     0
  0
CLASS
  1
MATERIAL
  2
AcDbMaterial
  3
ObjectDBX Classes
 90
     1153
280
     0
281
     0
  0
CLASS
  1
DICTIONARYVAR
  2
AcDbDictionaryVar
  3
ObjectDBX Classes
 90
        0
280
     0
281
     0
  0
CLASS
  1
ACDBPLACEHOLDER
  2
AcDbPlaceHolder
  3
ObjectDBX Classes
 90
        0
280
     0
281
     0
  0
CLASS
  1
LAYOUT
  2
AcDbLayout
  3
ObjectDBX Classes
 90
        0
280
     0
281
     0
  0
ENDSEC
  0
SECTION
  2
TABLES
  0
TABLE
  2
VPORT
  5
8
330
0
100
AcDbSymbolTable
 70
     1
  0
VPORT
  5
29
330
8
100
AcDbSymbolTableRecord
100
AcDbViewportTableRecord
  2
*Active
 70
     0
 10
0.0
 20
0.0
 11
1.0
 21
1.0
 12
262.5
 22
371.25
 13
0.0
 23
0.0
 14
0.5
 24
0.5
 15
0.5
 25
0.5
 16
0.0
 26
0.0
 36
1.0
 17
0.0
 27
0.0
 37
0.0
 40
816.7500000000001
 41
1.60267857142857
 42
50.0
 43
0.0
 44
0.0
 50
0.0
 51
0.0
 71
     0
 72
   100
 73
     1
 74
     3
 75
     0
 76
     0
 77
     0
 78
     0
281
     0
 65
     1
110
0.0
120
0.0
130
0.0
111
1.0
121
0.0
131
0.0
112
0.0
122
1.0
132
0.0
 79
     0
146
0.0
  0
ENDTAB
  0
TABLE
  2
LTYPE
  5
5
330
0
100
AcDbSymbolTable
 70
     8
  0
LTYPE
  5
14
330
5
100
AcDbSymbolTableRecord
100
AcDbLinetypeTableRecord
  2
ByBlock
 70
     0
  3

 72
    65
 73
     0
 40
0.0
  0
LTYPE
  5
15
330
5
100
AcDbSymbolTableRecord
100
AcDbLinetypeTableRecord
  2
ByLayer
 70
     0
  3

 72
    65
 73
     0
 40
0.0
  0
LTYPE
  5
16
330
5
100
AcDbSymbolTableRecord
100
AcDbLinetypeTableRecord
  2
Continuous
 70
     0
  3
Solid line
 72
    65
 73
     0
 40
0.0
  0
LTYPE
  5
3F
330
5
100
AcDbSymbolTableRecord
100
AcDbLinetypeTableRecord
  2
DASHED
 70
     0
  3
Dashed
 72
    65
 73
     2
 40
15.0
 49
7.0
 74
     0
 49
-8.0
 74
     0
  0
LTYPE
  5
40
330
5
100
AcDbSymbolTableRecord
100
AcDbLinetypeTableRecord
  2
DOTTED
 70
     0
  3
Dotted
 72
    65
 73
     2
 40
1.0
 49
0.0
 74
     0
 49
-1.0
 74
     0
  0
LTYPE
  5
41
330
5
100
AcDbSymbolTableRecord
100
AcDbLinetypeTableRecord
  2
DOT_CENTER
 70
     0
  3
Dot_Center
 72
    65
 73
     4
 40
14.0
 49
12.0
 74
     0
 49
-1.0
 74
     0
 49
0.0
 74
     0
 49
-1.0
 74
     0
  0
LTYPE
  5
42
330
5
100
AcDbSymbolTableRecord
100
AcDbLinetypeTableRecord
  2
LONG_DASHED
 70
     0
  3
Long_Dashed
 72
    65
 73
     2
 40
15.0
 49
10.0
 74
     0
 49
-5.0
 74
     0
  0
LTYPE
  5
43
330
5
100
AcDbSymbolTableRecord
100
AcDbLinetypeTableRecord
  2
DASH_CENTER
 70
     0
  3
Dash_Center
 72
    65
 73
     4
 40
14.0
 49
11.0
 74
     0
 49
-1.0
 74
     0
 49
1.0
 74
     0
 49
-1.0
 74
     0
  0
LTYPE
  5
44
330
5
100
AcDbSymbolTableRecord
100
AcDbLinetypeTableRecord
  2
PHANTOM
 70
     0
  3
Phantom
 72
    65
 73
     6
 40
13.0
 49
10.0
 74
     0
 49
-1.0
 74
     0
 49
0.0
 74
     0
 49
-1.0
 74
     0
 49
0.0
 74
     0
 49
-1.0
 74
     0
  0
LTYPE
  5
45
330
5
100
AcDbSymbolTableRecord
100
AcDbLinetypeTableRecord
  2
CENTER_DASH_DASH
 70
     0
  3
Center_Dash_Dash
 72
    65
 73
     6
 40
14.0
 49
9.0
 74
     0
 49
-1.0
 74
     0
 49
1.0
 74
     0
 49
-1.0
 74
     0
 49
1.0
 74
     0
 49
-1.0
 74
     0
  0
ENDTAB
  0
TABLE
  2
LAYER
  5
2
330
0
100
AcDbSymbolTable
 70
     2
  0
LAYER
  5
10
330
2
100
AcDbSymbolTableRecord
100
AcDbLayerTableRecord
  2
0
 70
     0
 62
     7
  6
Continuous
370
    -3
390
F
  0
LAYER
  5
46
330
2
100
AcDbSymbolTableRecord
100
AcDbLayerTableRecord
  2
1
 70
     0
 62
     7
  6
Continuous
370
    -3
390
F
  0
ENDTAB
  0
TABLE
  2
STYLE
  5
3
330
0
100
AcDbSymbolTable
 70
     3
  0
STYLE
  5
11
330
3
100
AcDbSymbolTableRecord
100
AcDbTextStyleTableRecord
  2
Standard
 70
     0
 40
0.0
 41
1.0
 50
0.0
 71
     0
 42
0.2
  3
txt
  4

  0
STYLE
  5
1EB
330
3
100
AcDbSymbolTableRecord
100
AcDbTextStyleTableRecord
  2
CONVERTER_11
 70
     0
 40
0.0
 41
0.89
 50
0.0
 71
     0
 42
0.2
  3
MS Mincho.ttf
  4

1001
ACAD
1000
MS Mincho
1071
    32785
  0
STYLE
  5
265
330
3
100
AcDbSymbolTableRecord
100
AcDbTextStyleTableRecord
  2
CONVERTER_12
 70
     0
 40
0.0
 41
0.9
 50
0.0
 71
     0
 42
0.2
  3
txt.shx
  4

  0
ENDTAB
  0
TABLE
  2
VIEW
  5
6
330
0
100
AcDbSymbolTable
 70
     0
  0
ENDTAB
  0
TABLE
  2
UCS
  5
7
330
0
100
AcDbSymbolTable
 70
     0
  0
ENDTAB
  0
TABLE
  2
APPID
  5
9
330
0
100
AcDbSymbolTable
 70
     1
  0
APPID
  5
12
330
9
100
AcDbSymbolTableRecord
100
AcDbRegAppTableRecord
  2
ACAD
 70
     0
  0
ENDTAB
  0
TABLE
  2
DIMSTYLE
  5
A
330
0
100
AcDbSymbolTable
 70
     9
100
AcDbDimStyleTable
  0
DIMSTYLE
105
27
330
A
100
AcDbSymbolTableRecord
100
AcDbDimStyleTableRecord
  2
Standard
 70
     0
178
     0
340
11
  0
DIMSTYLE
105
275
102
{ACAD_REACTORS
330
276
102
}
330
A
100
AcDbSymbolTableRecord
100
AcDbDimStyleTableRecord
  2
ME10_DIM_10
 70
     0
 41
8.75
 42
0.0
 44
2.5
 73
     0
 74
     0
 77
     1
 78
     8
140
8.75
147
2.5
172
     1
173
     1
174
     1
175
     1
176
     2
177
     2
271
     2
178
     7
271
     2
340
265
  0
DIMSTYLE
105
280
102
{ACAD_REACTORS
330
281
102
}
330
A
100
AcDbSymbolTableRecord
100
AcDbDimStyleTableRecord
  2
ME10_DIM_11
 70
     0
 41
8.75
 42
0.0
 44
2.5
 73
     0
 74
     0
 77
     1
 78
     8
140
8.75
147
2.5
172
     1
173
     1
174
     1
175
     1
176
     2
177
     2
271
     2
178
     7
271
     2
340
265
  0
DIMSTYLE
105
28B
102
{ACAD_REACTORS
330
28C
102
}
330
A
100
AcDbSymbolTableRecord
100
AcDbDimStyleTableRecord
  2
ME10_DIM_12
 70
     0
 41
8.75
 42
0.0
 44
2.5
 73
     0
 74
     0
 77
     1
 78
     8
140
8.75
147
2.5
172
     1
173
     1
174
     1
175
     1
176
     2
177
     2
271
     2
178
     7
271
     2
340
265
  0
DIMSTYLE
105
296
102
{ACAD_REACTORS
330
297
102
}
330
A
100
AcDbSymbolTableRecord
100
AcDbDimStyleTableRecord
  2
ME10_DIM_13
 70
     0
 41
8.75
 42
0.0
 44
2.5
 73
     0
 74
     0
 77
     1
 78
     8
140
8.75
147
2.5
172
     1
173
     1
174
     1
175
     1
176
     2
177
     2
271
     2
178
     7
271
     2
340
265
  0
DIMSTYLE
105
2A1
102
{ACAD_REACTORS
330
2A2
102
}
330
A
100
AcDbSymbolTableRecord
100
AcDbDimStyleTableRecord
  2
ME10_DIM_14
 70
     0
 41
8.75
 42
0.0
 44
2.5
 73
     0
 74
     0
 77
     1
 78
     8
140
8.75
147
2.5
172
     1
173
     1
174
     1
175
     1
176
     2
177
     2
271
     2
178
     7
271
     2
340
265
  0
DIMSTYLE
105
2AE
102
{ACAD_REACTORS
330
2AF
102
}
330
A
100
AcDbSymbolTableRecord
100
AcDbDimStyleTableRecord
  2
ME10_DIM_15
 70
     0
 41
8.75
 42
0.0
 44
2.5
 73
     0
 74
     0
 77
     1
 78
     8
140
8.75
147
2.5
172
     1
173
     1
174
     1
175
     1
176
     2
177
     2
271
     2
178
     7
271
     2
340
265
  0
DIMSTYLE
105
2B9
102
{ACAD_REACTORS
330
2BA
102
}
330
A
100
AcDbSymbolTableRecord
100
AcDbDimStyleTableRecord
  2
ME10_DIM_16
 70
     0
  3
{\Fgdt;n}<>
 41
8.75
 42
0.0
 44
2.5
 73
     0
 74
     0
 77
     1
 78
     8
140
8.75
147
2.5
172
     1
173
     1
174
     1
175
     1
176
     2
177
     2
271
     2
178
     7
271
     2
340
265
  0
DIMSTYLE
105
2C4
102
{ACAD_REACTORS
330
2C5
102
}
330
A
100
AcDbSymbolTableRecord
100
AcDbDimStyleTableRecord
  2
ME10_DIM_17
 70
     0
 41
8.75
 42
0.0
 44
2.5
 73
     0
 74
     0
 77
     1
 78
     8
140
8.75
147
2.5
172
     1
173
     1
174
     1
175
     1
176
     2
177
     2
271
     2
178
     7
271
     2
340
265
  0
ENDTAB
  0
TABLE
  2
BLOCK_RECORD
  5
1
330
0
100
AcDbSymbolTable
 70
    18
  0
BLOCK_RECORD
  5
1F
330
1
100
AcDbSymbolTableRecord
100
AcDbBlockTableRecord
  2
*Model_Space
340
22
  0
BLOCK_RECORD
  5
1B
330
1
100
AcDbSymbolTableRecord
100
AcDbBlockTableRecord
  2
*Paper_Space
340
1E
  0
BLOCK_RECORD
  5
23
330
1
100
AcDbSymbolTableRecord
100
AcDbBlockTableRecord
  2
*Paper_Space0
340
26
  0
BLOCK_RECORD
  5
47
330
1
100
AcDbSymbolTableRecord
100
AcDbBlockTableRecord
  2
37-119
340
0
102
{BLKREFS
331
64
102
}
  0
BLOCK_RECORD
  5
4A
330
1
100
AcDbSymbolTableRecord
100
AcDbBlockTableRecord
  2
A90-0A-13-M1
340
0
102
{BLKREFS
331
65
102
}
  0
BLOCK_RECORD
  5
4D
330
1
100
AcDbSymbolTableRecord
100
AcDbBlockTableRecord
  2
27-4A-M1
340
0
102
{BLKREFS
331
66
102
}
  0
BLOCK_RECORD
  5
50
330
1
100
AcDbSymbolTableRecord
100
AcDbBlockTableRecord
  2
42-29
340
0
102
{BLKREFS
331
67
102
}
  0
BLOCK_RECORD
  5
53
330
1
100
AcDbSymbolTableRecord
100
AcDbBlockTableRecord
  2
開示A4
340
0
102
{BLKREFS
331
68
102
}
  0
BLOCK_RECORD
  5
56
330
1
100
AcDbSymbolTableRecord
100
AcDbBlockTableRecord
  2
36-27
340
0
102
{BLKREFS
331
69
102
}
  0
BLOCK_RECORD
  5
59
330
1
100
AcDbSymbolTableRecord
100
AcDbBlockTableRecord
  2
32-1-16
340
0
102
{BLKREFS
331
60
102
}
  0
BLOCK_RECORD
  5
5C
330
1
100
AcDbSymbolTableRecord
100
AcDbBlockTableRecord
  2
60-1-16-170
340
0
102
{BLKREFS
331
61
102
}
  0
BLOCK_RECORD
  5
5F
330
1
100
AcDbSymbolTableRecord
100
AcDbBlockTableRecord
  2
61-1X-16-170
340
0
102
{BLKREFS
331
6A
102
}
  0
BLOCK_RECORD
  5
26C
330
1
100
AcDbSymbolTableRecord
100
AcDbBlockTableRecord
  2
*D10
340
0
  0
BLOCK_RECORD
  5
277
330
1
100
AcDbSymbolTableRecord
100
AcDbBlockTableRecord
  2
*D11
340
0
  0
BLOCK_RECORD
  5
282
330
1
100
AcDbSymbolTableRecord
100
AcDbBlockTableRecord
  2
*D12
340
0
  0
BLOCK_RECORD
  5
28D
330
1
100
AcDbSymbolTableRecord
100
AcDbBlockTableRecord
  2
*D13
340
0
  0
BLOCK_RECORD
  5
298
330
1
100
AcDbSymbolTableRecord
100
AcDbBlockTableRecord
  2
*D14
340
0
  0
BLOCK_RECORD
  5
2A3
330
1
100
AcDbSymbolTableRecord
100
AcDbBlockTableRecord
  2
*D15
340
0
  0
BLOCK_RECORD
  5
2B0
330
1
100
AcDbSymbolTableRecord
100
AcDbBlockTableRecord
  2
*D16
340
0
  0
BLOCK_RECORD
  5
2BB
330
1
100
AcDbSymbolTableRecord
100
AcDbBlockTableRecord
  2
*D17
340
0
  0
ENDTAB
  0
ENDSEC
  0
SECTION
  2
BLOCKS
  0
BLOCK
  5
20
330
1F
100
AcDbEntity
  8
0
100
AcDbBlockBegin
  2
*Model_Space
 70
     0
 10
0.0
 20
0.0
 30
0.0
  3
*Model_Space
  1

  0
ENDBLK
  5
21
330
1F
100
AcDbEntity
  8
0
100
AcDbBlockEnd
  0
BLOCK
  5
1C
330
1B
100
AcDbEntity
 67
     1
  8
0
100
AcDbBlockBegin
  2
*Paper_Space
 70
     0
 10
0.0
 20
0.0
 30
0.0
  3
*Paper_Space
  1

  0
ENDBLK
  5
1D
330
1B
100
AcDbEntity
 67
     1
  8
0
100
AcDbBlockEnd
  0
BLOCK
  5
24
330
23
100
AcDbEntity
  8
0
100
AcDbBlockBegin
  2
*Paper_Space0
 70
     0
 10
0.0
 20
0.0
 30
0.0
  3
*Paper_Space0
  1

  0
ENDBLK
  5
25
330
23
100
AcDbEntity
  8
0
100
AcDbBlockEnd
  0
BLOCK
  5
48
330
47
100
AcDbEntity
  8
0
100
AcDbBlockBegin
  2
37-119
 70
     0
 10
1398.1006207669
 20
750.364045326715
 30
0.0
  3
37-119
  1

  0
LINE
  5
6B
330
47
100
AcDbEntity
  8
1
  6
Continuous
 62
     7
100
AcDbLine
 10
106.4592901941679
 20
263.7382890032487
 30
0.0
 11
106.4592901941679
 21
270.8093568151146
 31
0.0
  0
LINE
  5
6C
330
47
100
AcDbEntity
  8
1
  6
Continuous
 62
     7
100
AcDbLine
 10
132.4592901941679
 20
270.8093568151147
 30
0.0
 11
132.4592901941679
 21
263.7382890032484
 31
0.0
  0
LINE
  5
6D
330
47
100
AcDbEntity
  8
1
  6
Continuous
 62
     7
100
AcDbLine
 10
127.9592901941684
 20
276.5519975022338
 30
0.0
 11
127.9592901941684
 21
281.2382890032491
 31
0.0
  0
LINE
  5
6E
330
47
100
AcDbEntity
  8
1
  6
Continuous
 62
     7
100
AcDbLine
 10
128.8379698506084
 20
274.4306771586741
 30
0.0
 11
132.4592901941679
 21
270.8093568151147
 31
0.0
  0
LINE
  5
6F
330
47
100
AcDbEntity
  8
1
  6
Continuous
 62
     7
100
AcDbLine
 10
126.9592901941679
 20
263.7382890032491
 30
0.0
 11
124.359290194168
 21
263.7382890032492
 31
0.0
  0
LINE
  5
70
330
47
100
AcDbEntity
  8
1
  6
Continuous
 62
     7
100
AcDbLine
 10
132.4592901941679
 20
263.7382890032484
 30
0.0
 11
126.9592901941679
 21
263.7382890032491
 31
0.0
  0
LINE
  5
71
330
47
100
AcDbEntity
  8
1
  6
Continuous
 62
     7
100
AcDbLine
 10
124.359290194168
 20
263.7382890032492
 30
0.0
 11
119.4592901941682
 21
263.738289003249
 31
0.0
  0
LINE
  5
72
330
47
100
AcDbEntity
  8
1
  6
Continuous
 62
     7
100
AcDbLine
 10
126.9592901941684
 20
282.2382890032491
 30
0.0
 11
119.4592901941679
 21
282.2382890032492
 31
0.0
  0
LINE
  5
73
330
47
100
AcDbEntity
  8
1
  6
Continuous
 62
     7
100
AcDbLine
 10
119.4592901941679
 20
282.2382890032492
 30
0.0
 11
111.9592901941679
 21
282.2382890032492
 31
0.0
  0
LINE
  5
74
330
47
100
AcDbEntity
  8
1
  6
Continuous
 62
     7
100
AcDbLine
 10
119.4592901941682
 20
263.738289003249
 30
0.0
 11
114.5592901941678
 21
263.7382890032492
 31
0.0
  0
LINE
  5
75
330
47
100
AcDbEntity
  8
1
  6
PHANTOM
 62
     4
100
AcDbLine
 10
119.4592901941679
 20
263.7383876793361
 30
0.0
 11
119.4592901941679
 21
282.7790195673352
 31
0.0
  0
LINE
  5
76
330
47
100
AcDbEntity
  8
1
  6
PHANTOM
 62
     4
100
AcDbLine
 10
119.4592901941679
 20
263.7383876793361
 30
0.0
 11
119.4592901941679
 21
261.3123844148179
 31
0.0
  0
LINE
  5
77
330
47
100
AcDbEntity
  8
1
  6
Continuous
 62
     7
100
AcDbLine
 10
111.9592901941679
 20
263.7382890032492
 30
0.0
 11
106.4592901941679
 21
263.7382890032487
 31
0.0
  0
LINE
  5
78
330
47
100
AcDbEntity
  8
1
  6
Continuous
 62
     7
100
AcDbLine
 10
114.5592901941678
 20
263.7382890032492
 30
0.0
 11
111.9592901941679
 21
263.7382890032492
 31
0.0
  0
LINE
  5
79
330
47
100
AcDbEntity
  8
1
  6
Continuous
 62
     7
100
AcDbLine
 10
106.4592901941679
 20
270.8093568151146
 30
0.0
 11
110.0806105377275
 21
274.4306771586745
 31
0.0
  0
LINE
  5
7A
330
47
100
AcDbEntity
  8
1
  6
Continuous
 62
     7
100
AcDbLine
 10
110.9592901941679
 20
281.2382890032491
 30
0.0
 11
110.9592901941679
 21
276.551997502234
 31
0.0
  0
LINE
  5
7B
330
47
100
AcDbEntity
  8
1
  6
PHANTOM
 62
     4
100
AcDbLine
 10
401.4756451594627
 20
260.738289003249
 30
0.0
 11
401.4756451594627
 21
285.238289003249
 31
0.0
  0
LINE
  5
7C
330
47
100
AcDbEntity
  8
1
  6
Continuous
 62
     7
100
AcDbLine
 10
409.9756451594627
 20
276.5519975022337
 30
0.0
 11
409.9756451594627
 21
281.238289003249
 31
0.0
  0
LINE
  5
7D
330
47
100
AcDbEntity
  8
1
  6
Continuous
 62
     7
100
AcDbLine
 10
410.8543248159029
 20
274.430677158674
 30
0.0
 11
414.5111790653954
 21
270.7738229091817
 31
0.0
  0
LINE
  5
7E
330
47
100
AcDbEntity
  8
1
  6
Continuous
 62
     7
100
AcDbLine
 10
408.9756451594627
 20
282.238289003249
 30
0.0
 11
393.9756451594627
 21
282.238289003249
 31
0.0
  0
LINE
  5
7F
330
47
100
AcDbEntity
  8
1
  6
Continuous
 62
     7
100
AcDbLine
 10
414.5463593737342
 20
263.738289003249
 30
0.0
 11
388.4049309451913
 21
263.738289003249
 31
0.0
  0
LINE
  5
80
330
47
100
AcDbEntity
  8
1
  6
Continuous
 62
     7
100
AcDbLine
 10
388.4401112535301
 20
270.7738229091817
 30
0.0
 11
392.0969655030225
 21
274.430677158674
 31
0.0
  0
LINE
  5
81
330
47
100
AcDbEntity
  8
1
  6
Continuous
 62
     7
100
AcDbLine
 10
392.9756451594627
 20
281.238289003249
 30
0.0
 11
392.9756451594627
 21
276.5519975022337
 31
0.0
  0
LINE
  5
82
330
47
100
AcDbEntity
  8
1
  6
PHANTOM
 62
     4
100
AcDbLine
 10
103.8929801391226
 20
559.564801230722
 30
0.0
 11
134.9559869371658
 21
559.564801230722
 31
0.0
  0
LINE
  5
83
330
47
100
AcDbEntity
  8
1
  6
PHANTOM
 62
     4
100
AcDbLine
 10
119.4592901941679
 20
541.5658926602423
 30
0.0
 11
119.4592901941679
 21
577.2697869281128
 31
0.0
  0
LINE
  5
84
330
47
100
AcDbEntity
  8
1
  6
Continuous
 62
     7
100
AcDbLine
 10
131.5214390594897
 20
551.5177791261906
 30
0.0
 11
120.3971413288462
 21
545.095162836858
 31
0.0
  0
LINE
  5
85
330
47
100
AcDbEntity
  8
1
  6
Continuous
 62
     7
100
AcDbLine
 10
132.4592901941679
 20
565.9874175200546
 30
0.0
 11
132.4592901941679
 21
553.1421849413896
 31
0.0
  0
LINE
  5
86
330
47
100
AcDbEntity
  8
1
  6
Continuous
 62
     7
100
AcDbLine
 10
120.3971413288462
 20
574.034439624586
 30
0.0
 11
131.5214390594897
 21
567.6118233352536
 31
0.0
  0
LINE
  5
87
330
47
100
AcDbEntity
  8
1
  6
Continuous
 62
     7
100
AcDbLine
 10
107.3971413288462
 20
567.6118233352536
 30
0.0
 11
118.5214390594897
 21
574.034439624586
 31
0.0
  0
LINE
  5
88
330
47
100
AcDbEntity
  8
1
  6
Continuous
 62
     7
100
AcDbLine
 10
106.4592901941679
 20
553.1421849413896
 30
0.0
 11
106.4592901941679
 21
565.9874175200546
 31
0.0
  0
LINE
  5
89
330
47
100
AcDbEntity
  8
1
  6
Continuous
 62
     7
100
AcDbLine
 10
118.5214390594897
 20
545.095162836858
 30
0.0
 11
107.3971413288462
 21
551.5177791261906
 31
0.0
  0
ARC
  5
8A
330
47
100
AcDbEntity
  8
1
  6
Continuous
 62
     7
100
AcDbCircle
 10
410.9756451594627
 20
267.238289003249
 30
0.0
 40
5.000000000000057
100
AcDbArc
 50
315.572995999195
 51
45.0
  0
ARC
  5
8B
330
47
100
AcDbEntity
  8
1
  6
Continuous
 62
     7
100
AcDbCircle
 10
119.4592901941679
 20
559.564801230722
 30
0.0
 40
14.50000000000001
100
AcDbArc
 50
86.2915552747292
 51
90.0
  0
ARC
  5
8C
330
47
100
AcDbEntity
  8
1
  6
Continuous
 62
     7
100
AcDbCircle
 10
119.4592901941679
 20
559.564801230722
 30
0.0
 40
14.5
100
AcDbArc
 50
266.2915552747295
 51
270.0
  0
ARC
  5
8D
330
47
100
AcDbEntity
  8
1
  6
Continuous
 62
     7
100
AcDbCircle
 10
391.9756451594627
 20
267.238289003249
 30
0.0
 40
4.999999999999879
100
AcDbArc
 50
134.9999999999991
 51
224.427004000806
  0
ARC
  5
8E
330
47
100
AcDbEntity
  8
1
  6
Continuous
 62
     7
100
AcDbCircle
 10
119.4592901941679
 20
559.564801230722
 30
0.0
 40
14.5
100
AcDbArc
 50
270.0
 51
273.7084447252708
  0
ARC
  5
8F
330
47
100
AcDbEntity
  8
1
  6
Continuous
 62
     7
100
AcDbCircle
 10
119.4592901941679
 20
559.564801230722
 30
0.0
 40
14.50000000000001
100
AcDbArc
 50
326.2915552747296
 51
333.7084447252712
  0
ARC
  5
90
330
47
100
AcDbEntity
  8
1
  6
Continuous
 62
     7
100
AcDbCircle
 10
119.4592901941679
 20
559.564801230722
 30
0.0
 40
14.50000000000001
100
AcDbArc
 50
26.29155527472955
 51
33.70844472527116
  0
ARC
  5
91
330
47
100
AcDbEntity
  8
1
  6
Continuous
 62
     7
100
AcDbCircle
 10
119.4592901941679
 20
559.564801230722
 30
0.0
 40
14.5
100
AcDbArc
 50
90.0
 51
93.70844472527048
  0
ARC
  5
92
330
47
100
AcDbEntity
  8
1
  6
Continuous
 62
     7
100
AcDbCircle
 10
119.4592901941679
 20
559.564801230722
 30
0.0
 40
14.50000000000007
100
AcDbArc
 50
146.2915552747286
 51
153.7084447252705
  0
ARC
  5
93
330
47
100
AcDbEntity
  8
1
  6
Continuous
 62
     7
100
AcDbCircle
 10
119.4592901941679
 20
559.564801230722
 30
0.0
 40
14.49999999999992
100
AcDbArc
 50
206.2915552747287
 51
213.7084447252706
  0
SPLINE
  5
94
330
47
100
AcDbEntity
  8
1
  6
Continuous
 62
     7
100
AcDbSpline
210
0.0
220
0.0
230
1.0
 70
     8
 71
     3
 72
    29
 73
    25
 74
    23
 42
0.000000001
 43
0.0000000001
 44
0.00000001
 40
0.0
 40
0.0
 40
0.0
 40
0.0
 40
0.6069077071333823
 40
1.21222261892203
 40
1.842666699980925
 40
2.474631891987659
 40
3.102420163134947
 40
3.729333881624406
 40
4.271042929453165
 40
4.812985317241337
 40
5.340107969104078
 40
5.866248914948768
 40
6.26387482444041
 40
6.661485222726776
 40
7.280966483141193
 40
7.902596723210182
 40
8.549168899022748
 40
9.195896755584908
 40
9.722415956711941
 40
10.24911839923908
 40
11.07897535377089
 40
11.90732205839665
 40
12.67331707894452
 40
13.44191268485657
 40
13.44191268485657
 40
13.44191268485657
 40
13.44191268485657
 10
401.4756451594627
 20
270.738289003249
 30
0.0
 10
401.6777049870084
 20
270.728413629885
 30
0.0
 10
402.0812943466855
 20
270.7086887886723
 30
0.0
 10
402.6929998947692
 20
270.6448984404507
 30
0.0
 10
403.3024169559114
 20
270.5107151427104
 30
0.0
 10
403.9008231308898
 20
270.310259523184
 30
0.0
 10
404.4753856623634
 20
270.0516984069537
 30
0.0
 10
404.9902834597321
 20
269.7427690178493
 30
0.0
 10
405.4393023334882
 20
269.3889520939049
 30
0.0
 10
405.8132439357861
 20
269.000927426388
 30
0.0
 10
406.1202098370929
 20
268.5639970233128
 30
0.0
 10
406.3275184945322
 20
268.1237830568766
 30
0.0
 10
406.4434210827525
 20
267.6970739368239
 30
0.0
 10
406.4941242876301
 20
267.2261584950219
 30
0.0
 10
406.433667964389
 20
266.6771839027812
 30
0.0
 10
406.2207207327596
 20
266.0794378374592
 30
0.0
 10
405.8734837956072
 20
265.5378355923189
 30
0.0
 10
405.452126070027
 20
265.0972276249287
 30
0.0
 10
405.004712580047
 20
264.747353701959
 30
0.0
 10
404.4688761945017
 20
264.4184433196175
 30
0.0
 10
403.8039851451159
 20
264.1147046992156
 30
0.0
 10
403.0243240844791
 20
263.8899348334994
 30
0.0
 10
402.2419184683749
 20
263.7855480341086
 30
0.0
 10
401.7313580022011
 20
263.7541255436027
 30
0.0
 10
401.4756451594627
 20
263.7383876793359
 30
0.0
 11
401.4756451594627
 21
270.738289003249
 31
0.0
 11
402.0815311812208
 21
270.7030881374866
 31
0.0
 11
402.6829740007023
 21
270.6347311454024
 31
0.0
 11
403.2988652124434
 21
270.500054659578
 31
0.0
 11
403.8983266739921
 21
270.299989767633
 31
0.0
 11
404.4700254473122
 21
270.0406085293827
 31
0.0
 11
405.0065906643252
 21
269.7163885746047
 31
0.0
 11
405.4310232031044
 21
269.3797794346236
 31
0.0
 11
405.8057721783849
 21
268.988289003249
 31
0.0
 11
406.1073280643449
 21
268.5559438420304
 31
0.0
 11
406.3293483781787
 21
268.0789414564142
 31
0.0
 11
406.4331090953216
 21
267.6950924262845
 31
0.0
 11
406.4748671931424
 21
267.2996808804702
 31
0.0
 11
406.4102735815209
 21
266.6835764262603
 31
0.0
 11
406.2026554113696
 21
266.0976422559836
 31
0.0
 11
405.8572828105146
 21
265.5510406220696
 31
0.0
 11
405.4130086839117
 21
265.0810646419892
 31
0.0
 11
404.9991382651372
 21
264.755589994418
 31
0.0
 11
404.551099417913
 21
264.4786844962383
 31
0.0
 11
403.7963387112754
 21
264.1337224080608
 31
0.0
 11
403.0001824008872
 21
263.9050449183146
 31
0.0
 11
402.2421732702877
 21
263.7947247893001
 31
0.0
 11
401.4756451594627
 21
263.7383876793359
 31
0.0
  0
SPLINE
  5
95
330
47
100
AcDbEntity
  8
1
  6
Continuous
 62
     7
100
AcDbSpline
210
0.0
220
0.0
230
1.0
 70
    11
 71
     3
 72
    79
 73
    75
 74
    73
 42
0.000000001
 43
0.0000000001
 44
0.00000001
 40
0.0
 40
0.0
 40
0.0
 40
0.0
 40
0.2803981055170753
 40
0.5607977780794985
 40
0.8427454767816389
 40
1.124697465943046
 40
1.409536444712051
 40
1.694381494092266
 40
1.983071303433877
 40
2.271767836809278
 40
2.564776135645592
 40
2.857790848031846
 40
3.155055692063468
 40
3.452325972452682
 40
3.753284820909569
 40
4.054247736388428
 40
4.357919800455387
 40
4.661594361771557
 40
4.966700742338168
 40
5.271807963175736
 40
5.576915184002954
 40
5.882021564538558
 40
6.185696125802716
 40
6.489368189796127
 40
6.790331105179854
 40
7.091289953518815
 40
7.388560233767637
 40
7.68582507763384
 40
7.978839789830643
 40
8.271848088449186
 40
8.560544621579803
 40
8.849234430642637
 40
9.134079479707443
 40
9.418918458106392
 40
9.700870446812992
 40
9.982818144856267
 40
10.26321781600905
 40
10.54361593035261
 40
10.82401404469618
 40
11.1044137158489
 40
11.38636141389214
 40
11.66831340259861
 40
11.95315238099756
 40
12.23799743006237
 40
12.52668723912512
 40
12.81538377225582
 40
13.1083920708744
 40
13.40140678307116
 40
13.69867162693736
 40
13.99594190718619
 40
14.29690075552512
 40
14.59786367090887
 40
14.90153573490233
 40
15.2052102961665
 40
15.51031667670203
 40
15.8154238975293
 40
16.12053111836686
 40
16.42563749893346
 40
16.72931206024971
 40
17.03298412431664
 40
17.33394703979543
 40
17.63490588825239
 40
17.93217616864154
 40
18.22944101267322
 40
18.52245572505947
 40
18.81546402389579
 40
19.10416055727119
 40
19.3928503666128
 40
19.67769541599302
 40
19.96253439476202
 40
20.24448638392336
 40
20.5264340826254
 40
20.80683375518771
 40
21.08723186070485
 40
21.08723186070485
 40
21.08723186070485
 40
21.08723186070485
 10
412.7339754086603
 20
270.738289003249
 30
0.0
 10
412.8274759487024
 20
270.7357076174429
 30
0.0
 10
413.0144775515045
 20
270.7305448367382
 30
0.0
 10
413.2929619626977
 20
270.6890724881748
 30
0.0
 10
413.5669041598503
 20
270.6231723283332
 30
0.0
 10
413.8348323256191
 20
270.5309402193758
 30
0.0
 10
414.0938781134896
 20
270.4138580302468
 30
0.0
 10
414.3430374079066
 20
270.2723817488479
 30
0.0
 10
414.5793474283208
 20
270.1080994030117
 30
0.0
 10
414.8021224224585
 20
269.921639254933
 30
0.0
 10
415.0085784549645
 20
269.7152147801199
 30
0.0
 10
415.1981911988045
 20
269.4894970857964
 30
0.0
 10
415.3685903749231
 20
269.2472062875516
 30
0.0
 10
415.5193031827185
 20
268.9891487948076
 30
0.0
 10
415.6485263194278
 20
268.718321591415
 30
0.0
 10
415.7558059927931
 20
268.4358047380018
 30
0.0
 10
415.8399604965263
 20
268.1446167674867
 30
0.0
 10
415.9006037705338
 20
267.8462379946454
 30
0.0
 10
415.9371375329806
 20
267.5434770228345
 30
0.0
 10
415.9493565638926
 20
267.238289012652
 30
0.0
 10
415.9371375333306
 20
266.9331010024671
 30
0.0
 10
415.900603771235
 20
266.6303400306407
 30
0.0
 10
415.8399604975806
 20
266.3319612577978
 30
0.0
 10
415.7558059942038
 20
266.0407732871938
 30
0.0
 10
415.6485263211992
 20
265.7582564339777
 30
0.0
 10
415.5193031848555
 20
265.4874292296817
 30
0.0
 10
415.368590377432
 20
265.2293717400551
 30
0.0
 10
415.1981912016931
 20
264.9870809299985
 30
0.0
 10
415.008578458242
 20
264.7613632788368
 30
0.0
 10
414.8021224261351
 20
264.5549386438429
 30
0.0
 10
414.5793474324116
 20
264.3684790846947
 30
0.0
 10
414.3430374124297
 20
264.204194557009
 30
0.0
 10
414.0938781184751
 20
264.0627263139609
 30
0.0
 10
413.8348323311148
 20
263.945614310377
 30
0.0
 10
413.566904165981
 20
263.853492391918
 30
0.0
 10
413.2929619697811
 20
263.7871826263604
 30
0.0
 10
413.0144775567446
 20
263.7472309612708
 30
0.0
 10
412.7339754086602
 20
263.7338180516498
 30
0.0
 10
412.4534732605762
 20
263.7472309612707
 30
0.0
 10
412.1749888475395
 20
263.7871826263604
 30
0.0
 10
411.9010466513397
 20
263.8534923919181
 30
0.0
 10
411.6331184862058
 20
263.9456143103769
 30
0.0
 10
411.3740726988457
 20
264.062726313961
 30
0.0
 10
411.1249134048911
 20
264.2041945570089
 30
0.0
 10
410.8886033849095
 20
264.3684790846947
 30
0.0
 10
410.6658283911855
 20
264.5549386438429
 30
0.0
 10
410.4593723590789
 20
264.7613632788368
 30
0.0
 10
410.2697596156277
 20
264.9870809299986
 30
0.0
 10
410.0993604398888
 20
265.2293717400551
 30
0.0
 10
409.9486476324652
 20
265.4874292296817
 30
0.0
 10
409.8194244961217
 20
265.7582564339777
 30
0.0
 10
409.7121448231172
 20
266.0407732871938
 30
0.0
 10
409.6279903197398
 20
266.3319612577977
 30
0.0
 10
409.5673470460857
 20
266.6303400306407
 30
0.0
 10
409.53081328399
 20
266.9331010024671
 30
0.0
 10
409.5185942534283
 20
267.2382890126519
 30
0.0
 10
409.5308132843401
 20
267.5434770228344
 30
0.0
 10
409.5673470467866
 20
267.8462379946455
 30
0.0
 10
409.6279903207945
 20
268.1446167674868
 30
0.0
 10
409.7121448245278
 20
268.4358047380018
 30
0.0
 10
409.8194244978928
 20
268.7183215914148
 30
0.0
 10
409.948647634602
 20
268.9891487948076
 30
0.0
 10
410.099360442398
 20
269.2472062875513
 30
0.0
 10
410.2697596185163
 20
269.4894970857965
 30
0.0
 10
410.4593723623562
 20
269.7152147801198
 30
0.0
 10
410.6658283948623
 20
269.921639254933
 30
0.0
 10
410.888603389
 20
270.1080994030116
 30
0.0
 10
411.1249134094142
 20
270.272381748848
 30
0.0
 10
411.3740727038311
 20
270.4138580302468
 30
0.0
 10
411.6331184917015
 20
270.5309402193759
 30
0.0
 10
411.9010466574705
 20
270.6231723283331
 30
0.0
 10
412.1749888546229
 20
270.6890724881749
 30
0.0
 10
412.4534732658159
 20
270.7305448367381
 30
0.0
 10
412.6404748686181
 20
270.7357076174429
 30
0.0
 10
412.7339754086603
 20
270.738289003249
 30
0.0
 11
412.7339754086603
 21
270.738289003249
 31
0.0
 11
413.0140554075299
 21
270.7249362179508
 31
0.0
 11
413.2916132159086
 21
270.6851161387916
 31
0.0
 11
413.5656646202876
 21
270.6188565560677
 31
0.0
 11
413.832307480562
 21
270.5272131759996
 31
0.0
 11
414.091895905098
 21
270.4099651757144
 31
0.0
 11
414.3396294809935
 21
270.2693779164945
 31
0.0
 11
414.5767299656025
 21
270.1046807211425
 31
0.0
 11
414.7981644949374
 21
269.9194445541654
 31
0.0
 11
415.0054478842471
 21
269.7123516772501
 31
0.0
 11
415.1939801680247
 21
269.4880456371518
 31
0.0
 11
415.3650687145982
 21
269.2449508064511
 31
0.0
 11
415.5150498413212
 21
268.988289003249
 31
0.0
 11
415.6447266211956
 21
268.7167007832779
 31
0.0
 11
415.751617975273
 21
268.4353595048888
 31
0.0
 11
415.8359840366032
 21
268.1436420213433
 31
0.0
 11
415.8964965668389
 21
267.8460576250832
 31
0.0
 11
415.9330755154019
 21
267.5431518905489
 31
0.0
 11
415.9452835533267
 21
267.238289003249
 31
0.0
 11
415.9330755154019
 21
266.933426115949
 31
0.0
 11
415.8964965668389
 21
266.6305203814147
 31
0.0
 11
415.8359840366032
 21
266.3329359851546
 31
0.0
 11
415.751617975273
 21
266.0412185016091
 31
0.0
 11
415.6447266211956
 21
265.7598772232201
 31
0.0
 11
415.5150498413212
 21
265.488289003249
 31
0.0
 11
415.3650687145982
 21
265.2316272000468
 31
0.0
 11
415.1939801680247
 21
264.988532369346
 31
0.0
 11
415.0054478842471
 21
264.7642263292477
 31
0.0
 11
414.7981644949374
 21
264.5571334523326
 31
0.0
 11
414.5767299656026
 21
264.3718972853555
 31
0.0
 11
414.3396294809935
 21
264.2072000900034
 31
0.0
 11
414.091895905098
 21
264.0666128307835
 31
0.0
 11
413.832307480562
 21
263.9493648304982
 31
0.0
 11
413.5656646202875
 21
263.8577214504301
 31
0.0
 11
413.2916132159086
 21
263.7914618677062
 31
0.0
 11
413.01405540753
 21
263.7516417885471
 31
0.0
 11
412.7339754086603
 21
263.738289003249
 31
0.0
 11
412.4538954097906
 21
263.7516417885471
 31
0.0
 11
412.176337601412
 21
263.7914618677062
 31
0.0
 11
411.9022861970332
 21
263.8577214504301
 31
0.0
 11
411.6356433367588
 21
263.9493648304982
 31
0.0
 11
411.3760549122228
 21
264.0666128307835
 31
0.0
 11
411.1283213363273
 21
264.2072000900034
 31
0.0
 11
410.8912208517183
 21
264.3718972853555
 31
0.0
 11
410.6697863223834
 21
264.5571334523326
 31
0.0
 11
410.4625029330737
 21
264.7642263292478
 31
0.0
 11
410.2739706492961
 21
264.988532369346
 31
0.0
 11
410.1028821027226
 21
265.2316272000468
 31
0.0
 11
409.9529009759996
 21
265.488289003249
 31
0.0
 11
409.8232241961252
 21
265.7598772232201
 31
0.0
 11
409.7163328420478
 21
266.0412185016091
 31
0.0
 11
409.6319667807174
 21
266.3329359851546
 31
0.0
 11
409.5714542504817
 21
266.6305203814147
 31
0.0
 11
409.5348753019188
 21
266.933426115949
 31
0.0
 11
409.5226672639941
 21
267.238289003249
 31
0.0
 11
409.5348753019188
 21
267.5431518905489
 31
0.0
 11
409.5714542504817
 21
267.8460576250832
 31
0.0
 11
409.6319667807175
 21
268.1436420213434
 31
0.0
 11
409.7163328420478
 21
268.4353595048888
 31
0.0
 11
409.8232241961252
 21
268.7167007832778
 31
0.0
 11
409.9529009759996
 21
268.988289003249
 31
0.0
 11
410.1028821027226
 21
269.244950806451
 31
0.0
 11
410.2739706492961
 21
269.4880456371518
 31
0.0
 11
410.4625029330737
 21
269.7123516772501
 31
0.0
 11
410.6697863223834
 21
269.9194445541654
 31
0.0
 11
410.8912208517183
 21
270.1046807211425
 31
0.0
 11
411.1283213363273
 21
270.2693779164945
 31
0.0
 11
411.3760549122228
 21
270.4099651757144
 31
0.0
 11
411.6356433367588
 21
270.5272131759996
 31
0.0
 11
411.9022861970332
 21
270.6188565560677
 31
0.0
 11
412.176337601412
 21
270.6851161387916
 31
0.0
 11
412.4538954097906
 21
270.7249362179508
 31
0.0
 11
412.7339754086603
 21
270.738289003249
 31
0.0
  0
SPLINE
  5
96
330
47
100
AcDbEntity
  8
1
  6
Continuous
 62
     7
100
AcDbSpline
210
0.0
220
0.0
230
1.0
 70
    11
 71
     3
 72
    79
 73
    75
 74
    73
 42
0.000000001
 43
0.0000000001
 44
0.00000001
 40
0.0
 40
0.0
 40
0.0
 40
0.0
 40
0.2803981055170753
 40
0.5607977780794422
 40
0.8427454767815827
 40
1.124697465943097
 40
1.409536444712102
 40
1.694381494092366
 40
1.983071303433931
 40
2.271767836809376
 40
2.56477613564569
 40
2.857790848031907
 40
3.155055692063609
 40
3.452325972452774
 40
3.753284820909661
 40
4.054247736388499
 40
4.357919800455403
 40
4.661594361771639
 40
4.966700742338244
 40
5.271807963175812
 40
5.576915184003028
 40
5.882021564538632
 40
6.18569612580279
 40
6.489368189796217
 40
6.790331105179944
 40
7.09128995351888
 40
7.388560233767625
 40
7.68582507763394
 40
7.978839789830663
 40
8.271848088449245
 40
8.560544621579949
 40
8.84923443064269
 40
9.134079479707497
 40
9.418918458106496
 40
9.700870446813097
 40
9.982818144856484
 40
10.26321781600926
 40
10.54361593035277
 40
10.82401404469628
 40
11.10441371584895
 40
11.38636141389213
 40
11.66831340259866
 40
11.95315238099766
 40
12.23799743006246
 40
12.52668723912522
 40
12.81538377225591
 40
13.10839207087458
 40
13.4014067830713
 40
13.69867162693754
 40
13.99594190718636
 40
14.29690075552524
 40
14.59786367090897
 40
14.90153573490243
 40
15.20521029616662
 40
15.51031667670215
 40
15.81542389752942
 40
16.12053111836698
 40
16.42563749893356
 40
16.72931206024981
 40
17.03298412431678
 40
17.33394703979564
 40
17.63490588825245
 40
17.93217616864167
 40
18.22944101267332
 40
18.52245572505958
 40
18.81546402389593
 40
19.10416055727133
 40
19.39285036661294
 40
19.67769541599311
 40
19.96253439476222
 40
20.24448638392361
 40
20.5264340826256
 40
20.80683375518791
 40
21.08723186070493
 40
21.08723186070493
 40
21.08723186070493
 40
21.08723186070493
 10
390.2173149102652
 20
270.738289003249
 30
0.0
 10
390.1238143702229
 20
270.7357076174429
 30
0.0
 10
389.936812767421
 20
270.7305448367382
 30
0.0
 10
389.6583283562279
 20
270.6890724881749
 30
0.0
 10
389.3843861590752
 20
270.6231723283332
 30
0.0
 10
389.1164579933063
 20
270.5309402193759
 30
0.0
 10
388.8574122054358
 20
270.4138580302469
 30
0.0
 10
388.6082529110188
 20
270.272381748848
 30
0.0
 10
388.3719428906047
 20
270.1080994030117
 30
0.0
 10
388.1491678964667
 20
269.9216392549329
 30
0.0
 10
387.9427118639609
 20
269.7152147801199
 30
0.0
 10
387.7530991201209
 20
269.4894970857964
 30
0.0
 10
387.5826999440025
 20
269.2472062875515
 30
0.0
 10
387.4319871362067
 20
268.9891487948076
 30
0.0
 10
387.3027639994974
 20
268.7183215914151
 30
0.0
 10
387.1954843261325
 20
268.4358047380017
 30
0.0
 10
387.1113298223991
 20
268.1446167674868
 30
0.0
 10
387.0506865483915
 20
267.8462379946454
 30
0.0
 10
387.014152785945
 20
267.5434770228345
 30
0.0
 10
387.001933755033
 20
267.2382890126519
 30
0.0
 10
387.0141527855946
 20
266.9331010024672
 30
0.0
 10
387.0506865476904
 20
266.6303400306407
 30
0.0
 10
387.1113298213447
 20
266.3319612577977
 30
0.0
 10
387.1954843247217
 20
266.0407732871938
 30
0.0
 10
387.3027639977262
 20
265.7582564339777
 30
0.0
 10
387.4319871340699
 20
265.4874292296817
 30
0.0
 10
387.5826999414932
 20
265.229371740055
 30
0.0
 10
387.7530991172323
 20
264.9870809299986
 30
0.0
 10
387.9427118606834
 20
264.7613632788369
 30
0.0
 10
388.1491678927902
 20
264.5549386438428
 30
0.0
 10
388.371942886514
 20
264.3684790846949
 30
0.0
 10
388.6082529064957
 20
264.2041945570089
 30
0.0
 10
388.8574122004501
 20
264.0627263139609
 30
0.0
 10
389.1164579878106
 20
263.945614310377
 30
0.0
 10
389.3843861529445
 20
263.8534923919179
 30
0.0
 10
389.6583283491444
 20
263.7871826263605
 30
0.0
 10
389.9368127621811
 20
263.7472309612708
 30
0.0
 10
390.2173149102653
 20
263.7338180516499
 30
0.0
 10
390.4978170583494
 20
263.7472309612707
 30
0.0
 10
390.7763014713859
 20
263.7871826263604
 30
0.0
 10
391.0502436675857
 20
263.8534923919182
 30
0.0
 10
391.3181718327194
 20
263.945614310377
 30
0.0
 10
391.5772176200799
 20
264.062726313961
 30
0.0
 10
391.8263769140343
 20
264.204194557009
 30
0.0
 10
392.0626869340161
 20
264.3684790846947
 30
0.0
 10
392.2854619277399
 20
264.5549386438429
 30
0.0
 10
392.4919179598465
 20
264.7613632788367
 30
0.0
 10
392.6815307032979
 20
264.9870809299987
 30
0.0
 10
392.8519298790368
 20
265.2293717400549
 30
0.0
 10
393.0026426864603
 20
265.4874292296817
 30
0.0
 10
393.1318658228038
 20
265.7582564339777
 30
0.0
 10
393.2391454958083
 20
266.0407732871938
 30
0.0
 10
393.3232999991854
 20
266.3319612577977
 30
0.0
 10
393.38394327284
 20
266.6303400306406
 30
0.0
 10
393.4204770349355
 20
266.9331010024673
 30
0.0
 10
393.432696065497
 20
267.2382890126519
 30
0.0
 10
393.4204770345852
 20
267.5434770228345
 30
0.0
 10
393.3839432721388
 20
267.8462379946454
 30
0.0
 10
393.3232999981311
 20
268.1446167674868
 30
0.0
 10
393.2391454943976
 20
268.4358047380018
 30
0.0
 10
393.1318658210323
 20
268.7183215914149
 30
0.0
 10
393.0026426843235
 20
268.9891487948077
 30
0.0
 10
392.8519298765277
 20
269.2472062875515
 30
0.0
 10
392.6815307004092
 20
269.4894970857964
 30
0.0
 10
392.4919179565692
 20
269.7152147801199
 30
0.0
 10
392.2854619240632
 20
269.921639254933
 30
0.0
 10
392.0626869299253
 20
270.1080994030117
 30
0.0
 10
391.8263769095114
 20
270.272381748848
 30
0.0
 10
391.5772176150942
 20
270.4138580302469
 30
0.0
 10
391.3181718272238
 20
270.5309402193758
 30
0.0
 10
391.0502436614549
 20
270.6231723283331
 30
0.0
 10
390.7763014643025
 20
270.6890724881748
 30
0.0
 10
390.4978170531094
 20
270.7305448367383
 30
0.0
 10
390.3108154503072
 20
270.7357076174428
 30
0.0
 10
390.2173149102652
 20
270.738289003249
 30
0.0
 11
390.2173149102652
 21
270.738289003249
 31
0.0
 11
389.9372349113956
 21
270.7249362179508
 31
0.0
 11
389.6596771030169
 21
270.6851161387916
 31
0.0
 11
389.385625698638
 21
270.6188565560677
 31
0.0
 11
389.1189828383634
 21
270.5272131759996
 31
0.0
 11
388.8593944138274
 21
270.4099651757144
 31
0.0
 11
388.6116608379319
 21
270.2693779164945
 31
0.0
 11
388.3745603533229
 21
270.1046807211425
 31
0.0
 11
388.153125823988
 21
269.9194445541654
 31
0.0
 11
387.9458424346782
 21
269.7123516772501
 31
0.0
 11
387.7573101509007
 21
269.4880456371518
 31
0.0
 11
387.5862216043271
 21
269.2449508064511
 31
0.0
 11
387.4362404776042
 21
268.988289003249
 31
0.0
 11
387.3065636977298
 21
268.7167007832779
 31
0.0
 11
387.1996723436524
 21
268.4353595048888
 31
0.0
 11
387.1153062823223
 21
268.1436420213434
 31
0.0
 11
387.0547937520865
 21
267.8460576250832
 31
0.0
 11
387.0182148035235
 21
267.5431518905489
 31
0.0
 11
387.0060067655987
 21
267.238289003249
 31
0.0
 11
387.0182148035234
 21
266.933426115949
 31
0.0
 11
387.0547937520865
 21
266.6305203814147
 31
0.0
 11
387.1153062823222
 21
266.3329359851546
 31
0.0
 11
387.1996723436524
 21
266.0412185016091
 31
0.0
 11
387.3065636977298
 21
265.7598772232201
 31
0.0
 11
387.4362404776042
 21
265.488289003249
 31
0.0
 11
387.5862216043271
 21
265.2316272000469
 31
0.0
 11
387.7573101509007
 21
264.988532369346
 31
0.0
 11
387.9458424346782
 21
264.7642263292478
 31
0.0
 11
388.153125823988
 21
264.5571334523326
 31
0.0
 11
388.3745603533229
 21
264.3718972853555
 31
0.0
 11
388.6116608379319
 21
264.2072000900034
 31
0.0
 11
388.8593944138274
 21
264.0666128307835
 31
0.0
 11
389.1189828383634
 21
263.9493648304982
 31
0.0
 11
389.3856256986379
 21
263.8577214504301
 31
0.0
 11
389.6596771030169
 21
263.7914618677062
 31
0.0
 11
389.9372349113956
 21
263.7516417885471
 31
0.0
 11
390.2173149102652
 21
263.738289003249
 31
0.0
 11
390.4973949091348
 21
263.7516417885471
 31
0.0
 11
390.7749527175134
 21
263.7914618677062
 31
0.0
 11
391.0490041218922
 21
263.8577214504301
 31
0.0
 11
391.3156469821666
 21
263.9493648304982
 31
0.0
 11
391.5752354067026
 21
264.0666128307835
 31
0.0
 11
391.8229689825981
 21
264.2072000900034
 31
0.0
 11
392.0600694672071
 21
264.3718972853555
 31
0.0
 11
392.281503996542
 21
264.5571334523326
 31
0.0
 11
392.4887873858519
 21
264.7642263292478
 31
0.0
 11
392.6773196696294
 21
264.988532369346
 31
0.0
 11
392.848408216203
 21
265.2316272000468
 31
0.0
 11
392.9983893429259
 21
265.488289003249
 31
0.0
 11
393.1280661228002
 21
265.7598772232201
 31
0.0
 11
393.2349574768776
 21
266.0412185016091
 31
0.0
 11
393.3193235382079
 21
266.3329359851546
 31
0.0
 11
393.3798360684438
 21
266.6305203814147
 31
0.0
 11
393.4164150170067
 21
266.933426115949
 31
0.0
 11
393.4286230549313
 21
267.238289003249
 31
0.0
 11
393.4164150170066
 21
267.5431518905489
 31
0.0
 11
393.3798360684438
 21
267.8460576250832
 31
0.0
 11
393.319323538208
 21
268.1436420213434
 31
0.0
 11
393.2349574768776
 21
268.4353595048888
 31
0.0
 11
393.1280661228001
 21
268.7167007832779
 31
0.0
 11
392.9983893429259
 21
268.988289003249
 31
0.0
 11
392.848408216203
 21
269.2449508064511
 31
0.0
 11
392.6773196696294
 21
269.4880456371518
 31
0.0
 11
392.4887873858518
 21
269.7123516772501
 31
0.0
 11
392.281503996542
 21
269.9194445541654
 31
0.0
 11
392.0600694672071
 21
270.1046807211425
 31
0.0
 11
391.8229689825981
 21
270.2693779164945
 31
0.0
 11
391.5752354067027
 21
270.4099651757144
 31
0.0
 11
391.3156469821666
 21
270.5272131759996
 31
0.0
 11
391.0490041218922
 21
270.6188565560677
 31
0.0
 11
390.7749527175134
 21
270.6851161387916
 31
0.0
 11
390.4973949091348
 21
270.7249362179508
 31
0.0
 11
390.2173149102652
 21
270.738289003249
 31
0.0
  0
SPLINE
  5
97
330
47
100
AcDbEntity
  8
1
  6
Continuous
 62
     7
100
AcDbSpline
210
0.0
220
0.0
230
1.0
 70
     8
 71
     3
 72
    29
 73
    25
 74
    23
 42
0.000000001
 43
0.0000000001
 44
0.00000001
 40
0.0
 40
0.0
 40
0.0
 40
0.0
 40
0.6069077071334391
 40
1.212222618922031
 40
1.842666699980981
 40
2.474631891987607
 40
3.102420163134866
 40
3.729333881624441
 40
4.271042929453111
 40
4.812985317241323
 40
5.34010796910411
 40
5.866248914948725
 40
6.263874824440367
 40
6.661485222726727
 40
7.280966483141133
 40
7.902596723210122
 40
8.549168899022657
 40
9.195896755584817
 40
9.72241595671194
 40
10.24911839923908
 40
11.07897535377086
 40
11.90732205839664
 40
12.67331707894446
 40
13.4419126848565
 40
13.4419126848565
 40
13.4419126848565
 40
13.4419126848565
 10
401.4756451594627
 20
270.738289003249
 30
0.0
 10
401.273585331917
 20
270.728413629885
 30
0.0
 10
400.86999597224
 20
270.7086887886722
 30
0.0
 10
400.2582904241559
 20
270.6448984404508
 30
0.0
 10
399.6488733630141
 20
270.5107151427104
 30
0.0
 10
399.0504671880356
 20
270.310259523184
 30
0.0
 10
398.4759046565622
 20
270.0516984069536
 30
0.0
 10
397.9610068591933
 20
269.7427690178495
 30
0.0
 10
397.5119879854376
 20
269.3889520939048
 30
0.0
 10
397.1380463831393
 20
269.000927426388
 30
0.0
 10
396.8310804818324
 20
268.5639970233129
 30
0.0
 10
396.6237718243932
 20
268.1237830568766
 30
0.0
 10
396.507869236173
 20
267.6970739368239
 30
0.0
 10
396.4571660312955
 20
267.2261584950218
 30
0.0
 10
396.5176223545365
 20
266.6771839027811
 30
0.0
 10
396.7305695861658
 20
266.0794378374592
 30
0.0
 10
397.0778065233182
 20
265.5378355923189
 30
0.0
 10
397.4991642488983
 20
265.0972276249287
 30
0.0
 10
397.9465777388787
 20
264.7473537019591
 30
0.0
 10
398.4824141244237
 20
264.4184433196176
 30
0.0
 10
399.1473051738097
 20
264.1147046992157
 30
0.0
 10
399.9269662344462
 20
263.8899348334993
 30
0.0
 10
400.7093718505506
 20
263.7855480341087
 30
0.0
 10
401.2199323167243
 20
263.7541255436027
 30
0.0
 10
401.4756451594627
 20
263.7383876793359
 30
0.0
 11
401.4756451594627
 21
270.738289003249
 31
0.0
 11
400.8697591377045
 21
270.7030881374866
 31
0.0
 11
400.2683163182231
 21
270.6347311454024
 31
0.0
 11
399.652425106482
 21
270.500054659578
 31
0.0
 11
399.0529636449334
 21
270.299989767633
 31
0.0
 11
398.4812648716133
 21
270.0406085293827
 31
0.0
 11
397.9446996546002
 21
269.7163885746047
 31
0.0
 11
397.5202671158211
 21
269.3797794346236
 31
0.0
 11
397.1455181405405
 21
268.988289003249
 31
0.0
 11
396.8439622545805
 21
268.5559438420304
 31
0.0
 11
396.6219419407468
 21
268.0789414564142
 31
0.0
 11
396.5181812236038
 21
267.6950924262845
 31
0.0
 11
396.4764231257831
 21
267.2996808804702
 31
0.0
 11
396.5410167374045
 21
266.6835764262603
 31
0.0
 11
396.7486349075558
 21
266.0976422559836
 31
0.0
 11
397.0940075084108
 21
265.5510406220696
 31
0.0
 11
397.5382816350137
 21
265.0810646419892
 31
0.0
 11
397.9521520537883
 21
264.755589994418
 31
0.0
 11
398.4001909010125
 21
264.4786844962383
 31
0.0
 11
399.1549516076501
 21
264.1337224080609
 31
0.0
 11
399.9511079180383
 21
263.9050449183146
 31
0.0
 11
400.7091170486378
 21
263.7947247893001
 31
0.0
 11
401.4756451594627
 21
263.7383876793359
 31
0.0
  0
SPLINE
  5
98
330
47
100
AcDbEntity
  8
1
  6
Continuous
 62
     7
100
AcDbSpline
210
0.0
220
0.0
230
1.0
 70
    11
 71
     3
 72
    79
 73
    75
 74
    73
 42
0.000000001
 43
0.0000000001
 44
0.00000001
 40
0.0
 40
0.0
 40
0.0
 40
0.0
 40
0.3102615582252343
 40
0.6205595420820604
 40
0.9422162975287482
 40
1.26394487275374
 40
1.606039020844923
 40
1.948193468906909
 40
2.316051885190541
 40
2.683951048240075
 40
3.079084664080435
 40
3.474244780173656
 40
3.894897959207499
 40
4.315568207494172
 40
4.757452126736345
 40
5.199346674241545
 40
5.656354161987139
 40
6.113367478658355
 40
6.578223037733279
 40
7.043080455842677
 40
7.50793787395022
 40
7.972793433018597
 40
8.429806749677564
 40
8.886814237403698
 40
9.32870878488034
 40
9.770592704081311
 40
10.1912629523128
 40
10.61191613126958
 40
11.0070762472633
 40
11.40220986296874
 40
11.77010902584989
 40
12.13796744190982
 40
12.48012188969629
 40
12.82221603741911
 40
13.14394461216134
 40
13.46560136682469
 40
13.77589934864141
 40
14.08616091447268
 40
14.39642248030361
 40
14.70672046212009
 40
15.02837721678341
 40
15.35010579152571
 40
15.69219993924857
 40
16.03435438703495
 40
16.40221280309496
 40
16.77011196597618
 40
17.16524558168167
 40
17.56040569767546
 40
17.98105887663219
 40
18.40172912486363
 40
18.84361304406483
 40
19.28550759154173
 40
19.74251507926755
 40
20.19952839592632
 40
20.66438395499448
 40
21.12924137310176
 40
21.59409879121137
 40
22.05895435028657
 40
22.5159676669576
 40
22.97297515470301
 40
23.4148697022084
 40
23.85675362145084
 40
24.27742386973742
 40
24.69807704877121
 40
25.09323716486447
 40
25.48837078070483
 40
25.85626994375427
 40
26.22412836003774
 40
26.56628280809988
 40
26.90837695619132
 40
27.23010553141626
 40
27.5517622868629
 40
27.86206027071967
 40
28.17232182894479
 40
28.17232182894479
 40
28.17232182894479
 40
28.17232182894479
 10
120.3971413288465
 20
267.2736461103841
 30
0.0
 10
120.4011745205625
 20
267.3771362923062
 30
0.0
 10
120.4092413692332
 20
267.584128806651
 30
0.0
 10
120.4732253470424
 20
267.8929776746735
 30
0.0
 10
120.5746461433398
 20
268.1949445884077
 30
0.0
 10
120.7170686434374
 20
268.4918542445224
 30
0.0
 10
120.8961712161975
 20
268.7761723528827
 30
0.0
 10
121.1141414840579
 20
269.0516733991793
 30
0.0
 10
121.364423638093
 20
269.3102794198477
 30
0.0
 10
121.6508857998649
 20
269.5560373094605
 30
0.0
 10
121.964716552152
 20
269.781682569655
 30
0.0
 10
122.3106307171832
 20
269.9904542375427
 30
0.0
 10
122.6787495093337
 20
270.1766750058143
 30
0.0
 10
123.0734434442504
 20
270.3423595361609
 30
0.0
 10
123.4849966442224
 20
270.4836673090106
 30
0.0
 10
123.9164223438169
 20
270.6014467975849
 30
0.0
 10
124.3591963725276
 20
270.6935650992235
 30
0.0
 10
124.8142543711216
 20
270.7600510266166
 30
0.0
 10
125.2750214732025
 20
270.8001085835267
 30
0.0
 10
125.7399436486333
 20
270.813450540822
 30
0.0
 10
126.2048658240603
 20
270.8001085836054
 30
0.0
 10
126.6656329261531
 20
270.7600510267779
 30
0.0
 10
127.1206909247054
 20
270.6935650994762
 30
0.0
 10
127.5634649535703
 20
270.6014467979412
 30
0.0
 10
127.994890652612
 20
270.4836673094883
 30
0.0
 10
128.4064438546107
 20
270.3423595367804
 30
0.0
 10
128.8011377823331
 20
270.1766750066031
 30
0.0
 10
129.1692566005553
 20
269.9904542385296
 30
0.0
 10
129.5151706739784
 20
269.781682570877
 30
0.0
 10
129.8290017559163
 20
269.5560373109543
 30
0.0
 10
130.1154627683891
 20
269.3102794216628
 30
0.0
 10
130.3657490474621
 20
269.0516734013639
 30
0.0
 10
130.5837049454691
 20
268.7761723555074
 30
0.0
 10
130.7628592592083
 20
268.4918542476684
 30
0.0
 10
130.905099610596
 20
268.1949445922558
 30
0.0
 10
131.0071832626359
 20
267.8929776797465
 30
0.0
 10
131.068776502564
 20
267.5841288106001
 30
0.0
 10
131.0897303060255
 20
267.2736461103839
 30
0.0
 10
131.068776502564
 20
266.9631634101681
 30
0.0
 10
131.007183262636
 20
266.6543145410217
 30
0.0
 10
130.9050996105959
 20
266.3523476285125
 30
0.0
 10
130.7628592592083
 20
266.0554379731002
 30
0.0
 10
130.5837049454694
 20
265.7711198652605
 30
0.0
 10
130.3657490474627
 20
265.4956188194041
 30
0.0
 10
130.1154627683894
 20
265.2370127991052
 30
0.0
 10
129.8290017559162
 20
264.9912549098141
 30
0.0
 10
129.5151706739784
 20
264.7656096498914
 30
0.0
 10
129.1692566005554
 20
264.5568379822386
 30
0.0
 10
128.8011377823332
 20
264.3706172141649
 30
0.0
 10
128.4064438546106
 20
264.2049326839879
 30
0.0
 10
127.9948906526118
 20
264.0636249112801
 30
0.0
 10
127.56346495357
 20
263.9458454228271
 30
0.0
 10
127.1206909247052
 20
263.8537271212921
 30
0.0
 10
126.6656329261531
 20
263.7872411939906
 30
0.0
 10
126.2048658240606
 20
263.7471836371629
 30
0.0
 10
125.7399436486337
 20
263.7338416799462
 30
0.0
 10
125.2750214732028
 20
263.7471836372414
 30
0.0
 10
124.8142543711217
 20
263.7872411941515
 30
0.0
 10
124.3591963725278
 20
263.8537271215447
 30
0.0
 10
123.9164223438172
 20
263.9458454231834
 30
0.0
 10
123.4849966442226
 20
264.0636249117578
 30
0.0
 10
123.0734434442505
 20
264.2049326846076
 30
0.0
 10
122.6787495093337
 20
264.3706172149541
 30
0.0
 10
122.3106307171832
 20
264.5568379832253
 30
0.0
 10
121.964716552152
 20
264.765609651113
 30
0.0
 10
121.6508857998648
 20
264.9912549113078
 30
0.0
 10
121.3644236380933
 20
265.2370128009206
 30
0.0
 10
121.1141414840582
 20
265.4956188215891
 30
0.0
 10
120.8961712161977
 20
265.7711198678857
 30
0.0
 10
120.7170686434374
 20
266.0554379762459
 30
0.0
 10
120.5746461433397
 20
266.3523476323609
 30
0.0
 10
120.4732253470424
 20
266.6543145460948
 30
0.0
 10
120.4092413692332
 20
266.9631634141173
 30
0.0
 10
120.4011745205625
 20
267.170155928462
 30
0.0
 10
120.3971413288465
 20
267.2736461103841
 30
0.0
 11
120.3971413288465
 21
267.2736461103841
 31
0.0
 11
120.4177584220472
 21
267.5832219085208
 31
0.0
 11
120.478310501445
 21
267.88755442944
 31
0.0
 11
120.5807773900768
 21
268.1924537647034
 31
0.0
 11
120.7193517350057
 21
268.4828094548741
 31
0.0
 11
120.901143779363
 21
268.7726025855656
 31
0.0
 11
121.1129411136191
 21
269.0413246639521
 31
0.0
 11
121.3682976238931
 21
269.306113007721
 31
0.0
 11
121.6471196231825
 21
269.5461298546682
 31
0.0
 11
121.9676115508074
 21
269.7772477869934
 31
0.0
 11
122.3056565199892
 21
269.9818867767465
 31
0.0
 11
122.6808202438333
 21
270.1721531093378
 31
0.0
 11
123.0685424936661
 21
270.3353551766136
 31
0.0
 11
123.4863788181274
 21
270.4791404471955
 31
0.0
 11
123.912597639942
 21
270.5957950958025
 31
0.0
 11
124.3599876060321
 21
270.6890584975019
 31
0.0
 11
124.8121757703099
 21
270.7552931991581
 31
0.0
 11
125.275278983522
 21
270.7956181879248
 31
0.0
 11
125.7399436584861
 21
270.8090032175199
 31
0.0
 11
126.2046083334505
 21
270.795618187925
 31
0.0
 11
126.6677115466629
 21
270.7552931991583
 31
0.0
 11
127.1198997109407
 21
270.6890584975021
 31
0.0
 11
127.5672896770308
 21
270.5957950958025
 31
0.0
 11
127.9935084988451
 21
270.4791404471954
 31
0.0
 11
128.4113448233062
 21
270.3353551766134
 31
0.0
 11
128.7990670731392
 21
270.1721531093377
 31
0.0
 11
129.1742307969836
 21
269.9818867767466
 31
0.0
 11
129.5122757661654
 21
269.7772477869935
 31
0.0
 11
129.8327676937903
 21
269.5461298546682
 31
0.0
 11
130.1115896930794
 21
269.3061130077209
 31
0.0
 11
130.3669462033532
 21
269.0413246639519
 31
0.0
 11
130.5787435376094
 21
268.7726025855654
 31
0.0
 11
130.7605355819666
 21
268.4828094548741
 31
0.0
 11
130.8991099268954
 21
268.1924537647034
 31
0.0
 11
131.0015768155273
 21
267.88755442944
 31
0.0
 11
131.0621288949255
 21
267.5832219085207
 31
0.0
 11
131.0827459881263
 21
267.2736461103839
 31
0.0
 11
131.0621288949254
 21
266.9640703122474
 31
0.0
 11
131.0015768155273
 21
266.6597377913283
 31
0.0
 11
130.8991099268954
 21
266.354838456065
 31
0.0
 11
130.7605355819666
 21
266.0644827658942
 31
0.0
 11
130.5787435376097
 21
265.7746896352026
 31
0.0
 11
130.3669462033537
 21
265.5059675568161
 31
0.0
 11
130.1115896930797
 21
265.2411792130472
 31
0.0
 11
129.8327676937903
 21
265.0011623661001
 31
0.0
 11
129.5122757661654
 21
264.7700444337748
 31
0.0
 11
129.1742307969836
 21
264.5654054440215
 31
0.0
 11
128.7990670731393
 21
264.3751391114304
 31
0.0
 11
128.4113448233062
 21
264.2119370441549
 31
0.0
 11
127.9935084988448
 21
264.0681517735729
 31
0.0
 11
127.5672896770303
 21
263.9514971249658
 31
0.0
 11
127.1198997109405
 21
263.8582337232663
 31
0.0
 11
126.6677115466629
 21
263.7919990216101
 31
0.0
 11
126.2046083334507
 21
263.7516740328433
 31
0.0
 11
125.7399436584866
 21
263.7382890032484
 31
0.0
 11
125.2752789835223
 21
263.7516740328433
 31
0.0
 11
124.8121757703099
 21
263.79199902161
 31
0.0
 11
124.3599876060323
 21
263.8582337232663
 31
0.0
 11
123.9125976399424
 21
263.9514971249657
 31
0.0
 11
123.4863788181276
 21
264.0681517735729
 31
0.0
 11
123.0685424936661
 21
264.2119370441549
 31
0.0
 11
122.6808202438334
 21
264.3751391114305
 31
0.0
 11
122.3056565199892
 21
264.5654054440217
 31
0.0
 11
121.9676115508074
 21
264.7700444337748
 31
0.0
 11
121.6471196231825
 21
265.0011623661
 31
0.0
 11
121.3682976238933
 21
265.2411792130473
 31
0.0
 11
121.1129411136195
 21
265.5059675568162
 31
0.0
 11
120.9011437793632
 21
265.7746896352028
 31
0.0
 11
120.7193517350057
 21
266.0644827658944
 31
0.0
 11
120.5807773900768
 21
266.3548384560651
 31
0.0
 11
120.478310501445
 21
266.6597377913284
 31
0.0
 11
120.4177584220472
 21
266.9640703122475
 31
0.0
 11
120.3971413288465
 21
267.2736461103841
 31
0.0
  0
SPLINE
  5
99
330
47
100
AcDbEntity
  8
1
  6
Continuous
 62
     7
100
AcDbSpline
210
0.0
220
0.0
230
1.0
 70
    11
 71
     3
 72
    79
 73
    75
 74
    73
 42
0.000000001
 43
0.0000000001
 44
0.00000001
 40
0.0
 40
0.0
 40
0.0
 40
0.0
 40
0.3102615582250207
 40
0.6205595420816068
 40
0.9422162975284205
 40
1.26394487275343
 40
1.606039020844623
 40
1.948193468906687
 40
2.316051885190202
 40
2.683951048239706
 40
3.07908466408002
 40
3.474244780173273
 40
3.894897959207102
 40
4.31556820749374
 40
4.757452126735945
 40
5.199346674241133
 40
5.656354161986489
 40
6.113367478657567
 40
6.578223037732731
 40
7.04308045584238
 40
7.507937873949864
 40
7.972793433018194
 40
8.429806749677168
 40
8.886814237403277
 40
9.328708784879916
 40
9.770592704080839
 40
10.19126295231207
 40
10.61191613126864
 40
11.00707624726263
 40
11.40220986296835
 40
11.77010902584952
 40
12.13796744190948
 40
12.48012188969568
 40
12.82221603741834
 40
13.14394461216086
 40
13.46560136682438
 40
13.77589934864089
 40
14.08616091447189
 40
14.39642248030303
 40
14.70672046211981
 40
15.02837721678319
 40
15.35010579152547
 40
15.69219993924825
 40
16.0343543870346
 40
16.40221280309449
 40
16.77011196597556
 40
17.16524558168132
 40
17.56040569767543
 40
17.98105887663209
 40
18.40172912486341
 40
18.84361304406455
 40
19.28550759154137
 40
19.7425150792673
 40
20.1995283959261
 40
20.66438395499424
 40
21.12924137310153
 40
21.59409879121117
 40
22.05895435028635
 40
22.51596766695758
 40
22.97297515470322
 40
23.41486970220841
 40
23.85675362145059
 40
24.27742386973718
 40
24.69807704877094
 40
25.09323716486429
 40
25.48837078070463
 40
25.85626994375403
 40
26.22412836003754
 40
26.56628280809965
 40
26.90837695619094
 40
27.23010553141572
 40
27.55176228686228
 40
27.86206027071945
 40
28.17232182894491
 40
28.17232182894491
 40
28.17232182894491
 40
28.17232182894491
 10
118.5214390594898
 20
267.2736461103845
 30
0.0
 10
118.5174058677738
 20
267.3771362923067
 30
0.0
 10
118.509339019103
 20
267.5841288066512
 30
0.0
 10
118.4453550412934
 20
267.8929776746735
 30
0.0
 10
118.3439342449961
 20
268.1949445884076
 30
0.0
 10
118.2015117448984
 20
268.4918542445225
 30
0.0
 10
118.0224091721381
 20
268.7761723528825
 30
0.0
 10
117.8044389042775
 20
269.051673399179
 30
0.0
 10
117.5541567502425
 20
269.3102794198476
 30
0.0
 10
117.2676945884712
 20
269.5560373094607
 30
0.0
 10
116.9538638361839
 20
269.7816825696552
 30
0.0
 10
116.6079496711527
 20
269.9904542375429
 30
0.0
 10
116.2398308790023
 20
270.1766750058143
 30
0.0
 10
115.8451369440855
 20
270.342359536161
 30
0.0
 10
115.4335837441135
 20
270.4836673090107
 30
0.0
 10
115.0021580445191
 20
270.6014467975849
 30
0.0
 10
114.5593840158085
 20
270.6935650992235
 30
0.0
 10
114.1043260172147
 20
270.7600510266168
 30
0.0
 10
113.6435589151335
 20
270.8001085835268
 30
0.0
 10
113.1786367397025
 20
270.8134505408219
 30
0.0
 10
112.7137145642756
 20
270.8001085836053
 30
0.0
 10
112.2529474621828
 20
270.7600510267778
 30
0.0
 10
111.7978894636305
 20
270.6935650994764
 30
0.0
 10
111.3551154347656
 20
270.6014467979413
 30
0.0
 10
110.9236897357239
 20
270.4836673094885
 30
0.0
 10
110.5121365337252
 20
270.3423595367807
 30
0.0
 10
110.117442606003
 20
270.1766750066035
 30
0.0
 10
109.7493237877808
 20
269.99045423853
 30
0.0
 10
109.4034097143577
 20
269.7816825708773
 30
0.0
 10
109.0895786324196
 20
269.5560373109544
 30
0.0
 10
108.8031176199468
 20
269.310279421663
 30
0.0
 10
108.5528313408738
 20
269.0516734013641
 30
0.0
 10
108.3348754428667
 20
268.7761723555079
 30
0.0
 10
108.1557211291275
 20
268.4918542476687
 30
0.0
 10
108.0134807777399
 20
268.1949445922563
 30
0.0
 10
107.9113971256998
 20
267.8929776797468
 30
0.0
 10
107.849803885772
 20
267.5841288106003
 30
0.0
 10
107.8288500823104
 20
267.2736461103846
 30
0.0
 10
107.8498038857716
 20
266.9631634101684
 30
0.0
 10
107.9113971256993
 20
266.6543145410218
 30
0.0
 10
108.0134807777397
 20
266.3523476285126
 30
0.0
 10
108.1557211291277
 20
266.0554379731003
 30
0.0
 10
108.3348754428666
 20
265.771119865261
 30
0.0
 10
108.5528313408733
 20
265.4956188194044
 30
0.0
 10
108.8031176199461
 20
265.2370127991054
 30
0.0
 10
109.0895786324192
 20
264.9912549098142
 30
0.0
 10
109.4034097143576
 20
264.7656096498916
 30
0.0
 10
109.7493237877808
 20
264.5568379822392
 30
0.0
 10
110.117442606003
 20
264.3706172141654
 30
0.0
 10
110.5121365337252
 20
264.2049326839879
 30
0.0
 10
110.9236897357241
 20
264.0636249112801
 30
0.0
 10
111.3551154347659
 20
263.9458454228275
 30
0.0
 10
111.7978894636306
 20
263.8537271212921
 30
0.0
 10
112.2529474621828
 20
263.7872411939904
 30
0.0
 10
112.7137145642753
 20
263.747183637163
 30
0.0
 10
113.1786367397022
 20
263.7338416799464
 30
0.0
 10
113.6435589151331
 20
263.7471836372414
 30
0.0
 10
114.1043260172143
 20
263.7872411941516
 30
0.0
 10
114.5593840158083
 20
263.8537271215448
 30
0.0
 10
115.0021580445189
 20
263.9458454231836
 30
0.0
 10
115.4335837441135
 20
264.063624911758
 30
0.0
 10
115.8451369440855
 20
264.2049326846076
 30
0.0
 10
116.2398308790023
 20
264.3706172149541
 30
0.0
 10
116.6079496711527
 20
264.5568379832254
 30
0.0
 10
116.9538638361839
 20
264.7656096511132
 30
0.0
 10
117.2676945884711
 20
264.9912549113078
 30
0.0
 10
117.5541567502427
 20
265.2370128009208
 30
0.0
 10
117.8044389042775
 20
265.4956188215895
 30
0.0
 10
118.0224091721381
 20
265.7711198678857
 30
0.0
 10
118.2015117448984
 20
266.055437976246
 30
0.0
 10
118.343934244996
 20
266.3523476323606
 30
0.0
 10
118.4453550412935
 20
266.6543145460947
 30
0.0
 10
118.5093390191031
 20
266.9631634141174
 30
0.0
 10
118.5174058677738
 20
267.1701559284622
 30
0.0
 10
118.5214390594898
 20
267.2736461103845
 30
0.0
 11
118.5214390594898
 21
267.2736461103845
 31
0.0
 11
118.5008219662889
 21
267.583221908521
 31
0.0
 11
118.4402698868909
 21
267.8875544294399
 31
0.0
 11
118.3378029982591
 21
268.1924537647034
 31
0.0
 11
118.1992286533301
 21
268.4828094548741
 31
0.0
 11
118.0174366089726
 21
268.7726025855654
 31
0.0
 11
117.8056392747163
 21
269.0413246639519
 31
0.0
 11
117.5502827644425
 21
269.3061130077209
 31
0.0
 11
117.2714607651534
 21
269.5461298546684
 31
0.0
 11
116.9509688375285
 21
269.7772477869935
 31
0.0
 11
116.6129238683467
 21
269.9818867767466
 31
0.0
 11
116.2377601445026
 21
270.1721531093378
 31
0.0
 11
115.8500378946698
 21
270.3353551766136
 31
0.0
 11
115.4322015702085
 21
270.4791404471956
 31
0.0
 11
115.0059827483939
 21
270.5957950958026
 31
0.0
 11
114.558592782304
 21
270.689058497502
 31
0.0
 11
114.1064046180264
 21
270.7552931991583
 31
0.0
 11
113.643301404814
 21
270.7956181879249
 31
0.0
 11
113.1786367298497
 21
270.8090032175198
 31
0.0
 11
112.7139720548854
 21
270.7956181879249
 31
0.0
 11
112.250868841673
 21
270.7552931991583
 31
0.0
 11
111.7986806773952
 21
270.6890584975021
 31
0.0
 11
111.3512907113051
 21
270.5957950958026
 31
0.0
 11
110.9250718894908
 21
270.4791404471956
 31
0.0
 11
110.5072355650297
 21
270.3353551766137
 31
0.0
 11
110.1195133151969
 21
270.1721531093381
 31
0.0
 11
109.7443495913527
 21
269.9818867767471
 31
0.0
 11
109.4063046221707
 21
269.7772477869938
 31
0.0
 11
109.0858126945456
 21
269.5461298546684
 31
0.0
 11
108.8069906952564
 21
269.306113007721
 31
0.0
 11
108.5516341849826
 21
269.0413246639521
 31
0.0
 11
108.3398368507265
 21
268.7726025855659
 31
0.0
 11
108.1580448063693
 21
268.4828094548747
 31
0.0
 11
108.0194704614404
 21
268.1924537647038
 31
0.0
 11
107.9170035728085
 21
267.8875544294402
 31
0.0
 11
107.8564514934105
 21
267.5832219085211
 31
0.0
 11
107.8358344002096
 21
267.2736461103845
 31
0.0
 11
107.8564514934101
 21
266.9640703122478
 31
0.0
 11
107.9170035728081
 21
266.6597377913284
 31
0.0
 11
108.0194704614402
 21
266.354838456065
 31
0.0
 11
108.1580448063693
 21
266.0644827658944
 31
0.0
 11
108.3398368507264
 21
265.774689635203
 31
0.0
 11
108.5516341849822
 21
265.5059675568164
 31
0.0
 11
108.8069906952559
 21
265.2411792130474
 31
0.0
 11
109.0858126945451
 21
265.0011623661003
 31
0.0
 11
109.4063046221705
 21
264.7700444337752
 31
0.0
 11
109.7443495913527
 21
264.565405444022
 31
0.0
 11
110.1195133151969
 21
264.3751391114308
 31
0.0
 11
110.5072355650297
 21
264.211937044155
 31
0.0
 11
110.925071889491
 21
264.068151773573
 31
0.0
 11
111.3512907113055
 21
263.951497124966
 31
0.0
 11
111.7986806773954
 21
263.8582337232664
 31
0.0
 11
112.250868841673
 21
263.7919990216101
 31
0.0
 11
112.7139720548852
 21
263.7516740328434
 31
0.0
 11
113.1786367298493
 21
263.7382890032485
 31
0.0
 11
113.6433014048136
 21
263.7516740328434
 31
0.0
 11
114.106404618026
 21
263.7919990216101
 31
0.0
 11
114.5585927823038
 21
263.8582337232664
 31
0.0
 11
115.0059827483939
 21
263.951497124966
 31
0.0
 11
115.4322015702085
 21
264.068151773573
 31
0.0
 11
115.8500378946698
 21
264.211937044155
 31
0.0
 11
116.2377601445026
 21
264.3751391114305
 31
0.0
 11
116.6129238683467
 21
264.5654054440217
 31
0.0
 11
116.9509688375286
 21
264.7700444337748
 31
0.0
 11
117.2714607651534
 21
265.0011623661001
 31
0.0
 11
117.5502827644425
 21
265.2411792130474
 31
0.0
 11
117.8056392747163
 21
265.5059675568164
 31
0.0
 11
118.0174366089726
 21
265.7746896352029
 31
0.0
 11
118.1992286533301
 21
266.0644827658944
 31
0.0
 11
118.337802998259
 21
266.3548384560649
 31
0.0
 11
118.4402698868909
 21
266.6597377913281
 31
0.0
 11
118.5008219662891
 21
266.9640703122476
 31
0.0
 11
118.5214390594898
 21
267.2736461103845
 31
0.0
  0
ARC
  5
9A
330
47
100
AcDbEntity
  8
1
  6
Continuous
 62
     7
100
AcDbCircle
 10
130.9592901941684
 20
276.5519975022337
 30
0.0
 40
3.0
100
AcDbArc
 50
179.9999999999978
 51
224.9999999999947
  0
ARC
  5
9B
330
47
100
AcDbEntity
  8
1
  6
Continuous
 62
     7
100
AcDbCircle
 10
130.9592901941684
 20
276.5519975022337
 30
0.0
 40
3.0
100
AcDbArc
 50
179.9999999999978
 51
224.9999999999947
  0
ARC
  5
9C
330
47
100
AcDbEntity
  8
1
  6
Continuous
 62
     7
100
AcDbCircle
 10
126.9592901941684
 20
281.2382890032491
 30
0.0
 40
1.0
100
AcDbArc
 50
0.0
 51
90.0
  0
ARC
  5
9D
330
47
100
AcDbEntity
  8
1
  6
Continuous
 62
     7
100
AcDbCircle
 10
111.9592901941679
 20
281.2382890032493
 30
0.0
 40
0.9999999999998863
100
AcDbArc
 50
90.0
 51
180.0000000000097
  0
ARC
  5
9E
330
47
100
AcDbEntity
  8
1
  6
Continuous
 62
     7
100
AcDbCircle
 10
107.9592901941679
 20
276.5519975022341
 30
0.0
 40
2.999999999999934
100
AcDbArc
 50
314.9999999999998
 51
359.9999999999978
  0
ARC
  5
9F
330
47
100
AcDbEntity
  8
1
  6
Continuous
 62
     7
100
AcDbCircle
 10
412.9756451594627
 20
276.5519975022337
 30
0.0
 40
3.0
100
AcDbArc
 50
180.0
 51
224.9999999999984
  0
ARC
  5
A0
330
47
100
AcDbEntity
  8
1
  6
Continuous
 62
     7
100
AcDbCircle
 10
408.9756451594627
 20
281.238289003249
 30
0.0
 40
1.0
100
AcDbArc
 50
0.0
 51
90.0
  0
ARC
  5
A1
330
47
100
AcDbEntity
  8
1
  6
Continuous
 62
     7
100
AcDbCircle
 10
393.9756451594627
 20
281.238289003249
 30
0.0
 40
1.0
100
AcDbArc
 50
90.0
 51
180.0
  0
ARC
  5
A2
330
47
100
AcDbEntity
  8
1
  6
Continuous
 62
     7
100
AcDbCircle
 10
389.9756451594627
 20
276.5519975022337
 30
0.0
 40
3.000000000000145
100
AcDbArc
 50
315.0000000000007
 51
0.0
  0
ENDBLK
  5
49
330
47
100
AcDbEntity
  8
0
100
AcDbBlockEnd
  0
BLOCK
  5
4B
330
4A
100
AcDbEntity
  8
0
100
AcDbBlockBegin
  2
A90-0A-13-M1
 70
     0
 10
0.0
 20
1162.5
 30
0.0
  3
A90-0A-13-M1
  1

  0
LINE
  5
A3
330
4A
100
AcDbEntity
  8
1
  6
PHANTOM
 62
     4
100
AcDbLine
 10
401.4756451594627
 20
222.2383876793358
 30
0.0
 11
401.4756451594627
 21
271.2383876793359
 31
0.0
  0
LINE
  5
A4
330
4A
100
AcDbEntity
  8
1
  6
PHANTOM
 62
     4
100
AcDbLine
 10
357.3430938072849
 20
238.2383876793359
 30
0.0
 11
463.4756451594626
 21
238.2383876793359
 31
0.0
  0
LINE
  5
A5
330
4A
100
AcDbEntity
  8
1
  6
Continuous
 62
     7
100
AcDbLine
 10
389.0212889321975
 20
255.4102975018475
 30
0.0
 11
389.1830679598147
 21
260.5063368717672
 31
0.0
  0
LINE
  5
A6
330
4A
100
AcDbEntity
  8
1
  6
Continuous
 62
     7
100
AcDbLine
 10
354.4544508766435
 20
226.0241527448287
 30
0.0
 11
353.4756451594627
 21
222.5983327346958
 31
0.0
  0
LINE
  5
A7
330
4A
100
AcDbEntity
  8
1
  6
Continuous
 62
     7
100
AcDbLine
 10
439.9756451594626
 20
247.2383876793359
 30
0.0
 11
423.6553092687316
 21
247.238387679336
 31
0.0
  0
LINE
  5
A8
330
4A
100
AcDbEntity
  8
1
  6
Continuous
 62
     7
100
AcDbLine
 10
413.7682223591117
 20
260.5063368717672
 30
0.0
 11
413.9203203516527
 21
255.7152501067291
 31
0.0
  0
LINE
  5
A9
330
4A
100
AcDbEntity
  8
1
  6
Continuous
 62
     7
100
AcDbLine
 10
423.6553092687307
 20
229.2383876793356
 30
0.0
 11
439.9756451594626
 21
229.2383876793359
 31
0.0
  0
LINE
  5
AA
330
4A
100
AcDbEntity
  8
1
  6
Continuous
 62
     7
100
AcDbLine
 10
383.0433365682957
 20
229.7383876793359
 30
0.0
 11
382.2171190494896
 21
229.7383876793359
 31
0.0
  0
LINE
  5
AB
330
4A
100
AcDbEntity
  8
1
  6
Continuous
 62
     7
100
AcDbLine
 10
378.4567919765837
 20
226.1643188747737
 30
0.0
 11
379.4756451594626
 21
222.5983327346958
 31
0.0
  0
LINE
  5
AC
330
4A
100
AcDbEntity
  8
1
  6
Continuous
 62
     7
100
AcDbLine
 10
379.4756451594626
 20
222.4704384869048
 30
0.0
 11
379.4756451594626
 21
219.2383876793361
 31
0.0
  0
LINE
  5
AD
330
4A
100
AcDbEntity
  8
1
  6
Continuous
 62
     7
100
AcDbLine
 10
459.4756451594626
 20
227.7383876793359
 30
0.0
 11
446.4756451594626
 21
227.7383876793359
 31
0.0
  0
LINE
  5
AE
330
4A
100
AcDbEntity
  8
1
  6
Continuous
 62
     2
100
AcDbLine
 10
448.2076959670317
 20
228.7383876793359
 30
0.0
 11
446.4756451594626
 21
227.7383876793359
 31
0.0
  0
LINE
  5
AF
330
4A
100
AcDbEntity
  8
1
  6
Continuous
 62
     2
100
AcDbLine
 10
460.4756451594627
 20
228.7383876793359
 30
0.0
 11
448.2076959670317
 21
228.7383876793359
 31
0.0
  0
LINE
  5
B0
330
4A
100
AcDbEntity
  8
1
  6
Continuous
 62
     7
100
AcDbLine
 10
459.4756451594626
 20
227.7383876793359
 30
0.0
 11
460.4756451594627
 21
228.7383876793359
 31
0.0
  0
LINE
  5
B1
330
4A
100
AcDbEntity
  8
1
  6
Continuous
 62
     7
100
AcDbLine
 10
448.2076959670317
 20
227.7383876793359
 30
0.0
 11
448.2076959670317
 21
228.7383876793359
 31
0.0
  0
LINE
  5
B2
330
4A
100
AcDbEntity
  8
1
  6
Continuous
 62
     7
100
AcDbLine
 10
443.9756451594626
 20
225.2383876793359
 30
0.0
 11
443.9756451594626
 21
215.7383876793359
 31
0.0
  0
LINE
  5
B3
330
4A
100
AcDbEntity
  8
1
  6
Continuous
 62
     7
100
AcDbLine
 10
446.4756451594627
 20
215.2383876793359
 30
0.0
 11
444.4756451594626
 21
215.2383876793359
 31
0.0
  0
LINE
  5
B4
330
4A
100
AcDbEntity
  8
1
  6
Continuous
 62
     7
100
AcDbLine
 10
446.4756451594626
 20
227.7383876793359
 30
0.0
 11
446.4756451594627
 21
215.2383876793359
 31
0.0
  0
LINE
  5
B5
330
4A
100
AcDbEntity
  8
1
  6
Continuous
 62
     2
100
AcDbLine
 10
448.2076959670317
 20
247.7383876793359
 30
0.0
 11
460.4756451594626
 21
247.7383876793359
 31
0.0
  0
LINE
  5
B6
330
4A
100
AcDbEntity
  8
1
  6
Continuous
 62
     7
100
AcDbLine
 10
446.4756451594626
 20
248.7383876793359
 30
0.0
 11
459.4756451594626
 21
248.7383876793359
 31
0.0
  0
LINE
  5
B7
330
4A
100
AcDbEntity
  8
1
  6
Continuous
 62
     7
100
AcDbLine
 10
448.2076959670317
 20
247.7383876793359
 30
0.0
 11
448.2076959670317
 21
248.7383876793359
 31
0.0
  0
LINE
  5
B8
330
4A
100
AcDbEntity
  8
1
  6
Continuous
 62
     7
100
AcDbLine
 10
460.4756451594626
 20
247.7383876793359
 30
0.0
 11
459.4756451594626
 21
248.7383876793359
 31
0.0
  0
LINE
  5
B9
330
4A
100
AcDbEntity
  8
1
  6
Continuous
 62
     2
100
AcDbLine
 10
446.4756451594626
 20
248.7383876793359
 30
0.0
 11
448.2076959670317
 21
247.7383876793359
 31
0.0
  0
LINE
  5
BA
330
4A
100
AcDbEntity
  8
1
  6
Continuous
 62
     7
100
AcDbLine
 10
446.4756451594626
 20
261.2383876793359
 30
0.0
 11
446.4756451594626
 21
248.7383876793359
 31
0.0
  0
LINE
  5
BB
330
4A
100
AcDbEntity
  8
1
  6
Continuous
 62
     7
100
AcDbLine
 10
446.4756451594626
 20
261.2383876793359
 30
0.0
 11
444.4756451594626
 21
261.2383876793359
 31
0.0
  0
LINE
  5
BC
330
4A
100
AcDbEntity
  8
1
  6
Continuous
 62
     7
100
AcDbLine
 10
443.9756451594626
 20
251.2383876793359
 30
0.0
 11
443.9756451594626
 21
260.7383876793359
 31
0.0
  0
LINE
  5
BD
330
4A
100
AcDbEntity
  8
1
  6
Continuous
 62
     7
100
AcDbLine
 10
379.4756451594626
 20
222.5983327346958
 30
0.0
 11
379.4756451594626
 21
222.4704384869048
 31
0.0
  0
LINE
  5
BE
330
4A
100
AcDbEntity
  8
1
  6
Continuous
 62
     2
100
AcDbLine
 10
353.4756451594627
 20
222.4704384869048
 30
0.0
 11
354.4756451594627
 21
220.7383876793359
 31
0.0
  0
LINE
  5
BF
330
4A
100
AcDbEntity
  8
1
  6
Continuous
 62
     7
100
AcDbLine
 10
353.4756451594627
 20
220.7383876793359
 30
0.0
 11
354.4756451594627
 21
220.7383876793359
 31
0.0
  0
LINE
  5
C0
330
4A
100
AcDbEntity
  8
1
  6
Continuous
 62
     7
100
AcDbLine
 10
378.4756451594626
 20
220.7383876793359
 30
0.0
 11
379.4756451594626
 21
220.7383876793359
 31
0.0
  0
LINE
  5
C1
330
4A
100
AcDbEntity
  8
1
  6
Continuous
 62
     2
100
AcDbLine
 10
378.4756451594626
 20
220.7383876793359
 30
0.0
 11
379.4756451594626
 21
222.4704384869048
 31
0.0
  0
LINE
  5
C2
330
4A
100
AcDbEntity
  8
1
  6
Continuous
 62
     2
100
AcDbLine
 10
378.4756451594626
 20
220.7383876793359
 30
0.0
 11
378.4756451594626
 21
219.2383876793361
 31
0.0
  0
LINE
  5
C3
330
4A
100
AcDbEntity
  8
1
  6
Continuous
 62
     7
100
AcDbLine
 10
389.1830679598147
 20
260.5063368717672
 30
0.0
 11
389.4756451594626
 21
260.5063368717672
 31
0.0
  0
LINE
  5
C4
330
4A
100
AcDbEntity
  8
1
  6
Continuous
 62
     7
100
AcDbLine
 10
413.4756451594626
 20
260.5063368717672
 30
0.0
 11
413.7682223591117
 21
260.5063368717672
 31
0.0
  0
LINE
  5
C5
330
4A
100
AcDbEntity
  8
1
  6
Continuous
 62
     2
100
AcDbLine
 10
412.4756451594626
 20
262.2383876793359
 30
0.0
 11
413.4756451594626
 21
260.5063368717672
 31
0.0
  0
LINE
  5
C6
330
4A
100
AcDbEntity
  8
1
  6
Continuous
 62
     7
100
AcDbLine
 10
412.4756451594626
 20
262.2383876793359
 30
0.0
 11
413.4756451594626
 21
262.2383876793359
 31
0.0
  0
LINE
  5
C7
330
4A
100
AcDbEntity
  8
1
  6
Continuous
 62
     7
100
AcDbLine
 10
413.4756451594626
 20
260.5063368717672
 30
0.0
 11
413.4756451594626
 21
263.738387679336
 31
0.0
  0
LINE
  5
C8
330
4A
100
AcDbEntity
  8
1
  6
Continuous
 62
     2
100
AcDbLine
 10
389.4756451594626
 20
260.5063368717672
 30
0.0
 11
390.4756451594627
 21
262.2383876793359
 31
0.0
  0
LINE
  5
C9
330
4A
100
AcDbEntity
  8
1
  6
Continuous
 62
     2
100
AcDbLine
 10
390.4756451594627
 20
262.2383876793359
 30
0.0
 11
390.4756451594628
 21
263.738387679336
 31
0.0
  0
LINE
  5
CA
330
4A
100
AcDbEntity
  8
1
  6
Continuous
 62
     7
100
AcDbLine
 10
389.4756451594627
 20
262.2383876793359
 30
0.0
 11
390.4756451594627
 21
262.2383876793359
 31
0.0
  0
LINE
  5
CB
330
4A
100
AcDbEntity
  8
1
  6
PHANTOM
 62
     4
100
AcDbLine
 10
366.4756451594609
 20
208.3665608593507
 30
0.0
 11
366.4756451594606
 21
245.5823594470697
 31
0.0
  0
LINE
  5
CC
330
4A
100
AcDbEntity
  8
1
  6
Continuous
 62
     7
100
AcDbLine
 10
353.4756451594627
 20
222.4704384869048
 30
0.0
 11
353.4756451594627
 21
222.5983327346958
 31
0.0
  0
LINE
  5
CD
330
4A
100
AcDbEntity
  8
1
  6
Continuous
 62
     7
100
AcDbLine
 10
460.4756451594626
 20
247.7383876793359
 30
0.0
 11
460.4756451594627
 21
228.7383876793359
 31
0.0
  0
LINE
  5
CE
330
4A
100
AcDbEntity
  8
1
  6
PHANTOM
 62
     4
100
AcDbLine
 10
132.459290194168
 20
559.5648012307219
 30
0.0
 11
103.4592901941683
 21
559.5648012307219
 31
0.0
  0
LINE
  5
CF
330
4A
100
AcDbEntity
  8
1
  6
Continuous
 62
     7
100
AcDbLine
 10
108.959290194168
 20
617.5648012307217
 30
0.0
 11
129.959290194168
 21
617.5648012307217
 31
0.0
  0
LINE
  5
D0
330
4A
100
AcDbEntity
  8
1
  6
Continuous
 62
     7
100
AcDbLine
 10
108.959290194168
 20
606.2968520382908
 30
0.0
 11
129.959290194168
 21
606.2968520382908
 31
0.0
  0
LINE
  5
D1
330
4A
100
AcDbEntity
  8
1
  6
PHANTOM
 62
     4
100
AcDbLine
 10
135.459290194168
 20
524.5648012307219
 30
0.0
 11
103.459290194168
 21
524.5648012307219
 31
0.0
  0
LINE
  5
D2
330
4A
100
AcDbEntity
  8
1
  6
PHANTOM
 62
     4
100
AcDbLine
 10
119.459290194168
 20
508.5648012307219
 30
0.0
 11
119.459290194168
 21
621.5648012307217
 31
0.0
  0
LINE
  5
D3
330
4A
100
AcDbEntity
  8
1
  6
Continuous
 62
     7
100
AcDbLine
 10
129.959290194168
 20
617.5648012307217
 30
0.0
 11
129.959290194168
 21
604.5648012307217
 31
0.0
  0
LINE
  5
D4
330
4A
100
AcDbEntity
  8
1
  6
Continuous
 62
     2
100
AcDbLine
 10
128.959290194168
 20
606.2968520382908
 30
0.0
 11
129.959290194168
 21
604.5648012307217
 31
0.0
  0
LINE
  5
D5
330
4A
100
AcDbEntity
  8
1
  6
Continuous
 62
     2
100
AcDbLine
 10
128.959290194168
 20
618.5648012307217
 30
0.0
 11
128.959290194168
 21
606.2968520382908
 31
0.0
  0
LINE
  5
D6
330
4A
100
AcDbEntity
  8
1
  6
Continuous
 62
     7
100
AcDbLine
 10
129.959290194168
 20
617.5648012307217
 30
0.0
 11
128.959290194168
 21
618.5648012307217
 31
0.0
  0
LINE
  5
D7
330
4A
100
AcDbEntity
  8
1
  6
Continuous
 62
     7
100
AcDbLine
 10
142.459290194168
 20
604.5648012307217
 30
0.0
 11
142.459290194168
 21
602.5648012307217
 31
0.0
  0
LINE
  5
D8
330
4A
100
AcDbEntity
  8
1
  6
Continuous
 62
     2
100
AcDbLine
 10
109.959290194168
 20
606.2968520382908
 30
0.0
 11
109.959290194168
 21
618.5648012307217
 31
0.0
  0
LINE
  5
D9
330
4A
100
AcDbEntity
  8
1
  6
Continuous
 62
     7
100
AcDbLine
 10
108.959290194168
 20
604.5648012307217
 30
0.0
 11
108.959290194168
 21
617.5648012307217
 31
0.0
  0
LINE
  5
DA
330
4A
100
AcDbEntity
  8
1
  6
Continuous
 62
     7
100
AcDbLine
 10
109.959290194168
 20
618.5648012307217
 30
0.0
 11
108.959290194168
 21
617.5648012307217
 31
0.0
  0
LINE
  5
DB
330
4A
100
AcDbEntity
  8
1
  6
Continuous
 62
     2
100
AcDbLine
 10
108.959290194168
 20
604.5648012307217
 30
0.0
 11
109.959290194168
 21
606.2968520382908
 31
0.0
  0
LINE
  5
DC
330
4A
100
AcDbEntity
  8
1
  6
Continuous
 62
     7
100
AcDbLine
 10
96.45929019416803
 20
604.5648012307217
 30
0.0
 11
142.459290194168
 21
604.5648012307217
 31
0.0
  0
LINE
  5
DD
330
4A
100
AcDbEntity
  8
1
  6
Continuous
 62
     7
100
AcDbLine
 10
96.45929019416803
 20
604.5648012307217
 30
0.0
 11
96.45929019416803
 21
602.5648012307217
 31
0.0
  0
LINE
  5
DE
330
4A
100
AcDbEntity
  8
1
  6
Continuous
 62
     7
100
AcDbLine
 10
141.959290194168
 20
602.0648012307217
 30
0.0
 11
106.459290194168
 21
602.0648012307217
 31
0.0
  0
LINE
  5
DF
330
4A
100
AcDbEntity
  8
1
  6
Continuous
 62
     7
100
AcDbLine
 10
109.959290194168
 20
618.5648012307217
 30
0.0
 11
128.959290194168
 21
618.5648012307217
 31
0.0
  0
LINE
  5
E0
330
4A
100
AcDbEntity
  8
1
  6
Continuous
 62
     7
100
AcDbLine
 10
110.459290194168
 20
598.0648012307219
 30
0.0
 11
110.459290194168
 21
581.7444653399898
 31
0.0
  0
LINE
  5
E1
330
4A
100
AcDbEntity
  8
1
  6
Continuous
 62
     7
100
AcDbLine
 10
107.7545779154323
 20
525.8581085410999
 30
0.0
 11
110.958770406435
 21
541.0255577997948
 31
0.0
  0
LINE
  5
E2
330
4A
100
AcDbEntity
  8
1
  6
Continuous
 62
     7
100
AcDbLine
 10
128.4592901941683
 20
581.7444653399898
 30
0.0
 11
128.459290194168
 21
598.0648012307219
 31
0.0
  0
LINE
  5
E3
330
4A
100
AcDbEntity
  8
1
  6
Continuous
 62
     7
100
AcDbLine
 10
127.9598099819016
 20
541.0255577997948
 30
0.0
 11
131.1640024729043
 21
525.8581085410999
 31
0.0
  0
LINE
  5
E4
330
4A
100
AcDbEntity
  8
1
  6
Continuous
 62
     7
100
AcDbLine
 10
106.459290194168
 20
602.0648012307217
 30
0.0
 11
96.95929019416803
 21
602.0648012307217
 31
0.0
  0
LINE
  5
E5
330
4A
100
AcDbEntity
  8
0
  6
PHANTOM
 62
     4
100
AcDbLine
 10
142.4592901941679
 20
238.2383876793361
 30
0.0
 11
145.4592901941679
 21
238.2383876793361
 31
0.0
  0
LINE
  5
E6
330
4A
100
AcDbEntity
  8
1
  6
Continuous
 62
     7
100
AcDbLine
 10
132.459290194168
 20
222.598332734696
 30
0.0
 11
131.480484476987
 21
226.0241527448289
 31
0.0
  0
LINE
  5
E7
330
4A
100
AcDbEntity
  8
1
  6
Continuous
 62
     2
100
AcDbLine
 10
131.4592901941679
 20
220.7383876793361
 30
0.0
 11
132.4592901941679
 21
222.4704384869049
 31
0.0
  0
LINE
  5
E8
330
4A
100
AcDbEntity
  8
1
  6
Continuous
 62
     7
100
AcDbLine
 10
132.4592901941679
 20
222.4704384869049
 30
0.0
 11
132.4592901941679
 21
219.2383876793361
 31
0.0
  0
LINE
  5
E9
330
4A
100
AcDbEntity
  8
1
  6
Continuous
 62
     2
100
AcDbLine
 10
131.4592901941679
 20
220.7383876793361
 30
0.0
 11
131.4592901941679
 21
219.2383876793361
 31
0.0
  0
LINE
  5
EA
330
4A
100
AcDbEntity
  8
1
  6
Continuous
 62
     7
100
AcDbLine
 10
132.459290194168
 20
222.598332734696
 30
0.0
 11
132.4592901941679
 21
222.4704384869049
 31
0.0
  0
LINE
  5
EB
330
4A
100
AcDbEntity
  8
1
  6
Continuous
 62
     7
100
AcDbLine
 10
106.4592995243369
 20
238.2228125610586
 30
0.0
 11
107.1667129945189
 21
260.5063368717674
 31
0.0
  0
LINE
  5
EC
330
4A
100
AcDbEntity
  8
1
  6
Continuous
 62
     7
100
AcDbLine
 10
131.4592901941677
 20
260.5063368717674
 30
0.0
 11
107.4592901941677
 21
260.5063368717674
 31
0.0
  0
LINE
  5
ED
330
4A
100
AcDbEntity
  8
1
  6
Continuous
 62
     7
100
AcDbLine
 10
131.4592901941677
 20
262.2383876793361
 30
0.0
 11
107.4592901941679
 21
262.2383876793361
 31
0.0
  0
LINE
  5
EE
330
4A
100
AcDbEntity
  8
1
  6
Continuous
 62
     7
100
AcDbLine
 10
132.4592901941679
 20
220.7383876793361
 30
0.0
 11
106.4592901941678
 21
220.7383876793361
 31
0.0
  0
LINE
  5
EF
330
4A
100
AcDbEntity
  8
1
  6
Continuous
 62
     7
100
AcDbLine
 10
107.4380959113488
 20
226.0241527448289
 30
0.0
 11
106.4592901941678
 21
222.598332734696
 31
0.0
  0
LINE
  5
F0
330
4A
100
AcDbEntity
  8
1
  6
Continuous
 62
     7
100
AcDbLine
 10
131.751867393817
 20
260.5063368717674
 30
0.0
 11
132.4592808639987
 21
238.2228125610586
 31
0.0
  0
LINE
  5
F1
330
4A
100
AcDbEntity
  8
1
  6
Continuous
 62
     2
100
AcDbLine
 10
130.4592901941677
 20
263.7383876793361
 30
0.0
 11
130.4592901941677
 21
262.2383876793361
 31
0.0
  0
LINE
  5
F2
330
4A
100
AcDbEntity
  8
1
  6
Continuous
 62
     2
100
AcDbLine
 10
106.4592901941677
 20
222.4704384869049
 30
0.0
 11
107.4592901941677
 21
220.7383876793361
 31
0.0
  0
LINE
  5
F3
330
4A
100
AcDbEntity
  8
1
  6
Continuous
 62
     7
100
AcDbLine
 10
106.4592901941677
 20
219.2383876793361
 30
0.0
 11
106.4592901941677
 21
222.4704384869049
 31
0.0
  0
LINE
  5
F4
330
4A
100
AcDbEntity
  8
1
  6
Continuous
 62
     2
100
AcDbLine
 10
107.4592901941677
 20
219.2383876793361
 30
0.0
 11
107.4592901941677
 21
220.7383876793361
 31
0.0
  0
LINE
  5
F5
330
4A
100
AcDbEntity
  8
1
  6
Continuous
 62
     7
100
AcDbLine
 10
107.1667129945189
 20
260.5063368717674
 30
0.0
 11
107.4592901941677
 21
260.5063368717674
 31
0.0
  0
LINE
  5
F6
330
4A
100
AcDbEntity
  8
1
  6
Continuous
 62
     7
100
AcDbLine
 10
131.4592901941677
 20
260.5063368717674
 30
0.0
 11
131.751867393817
 21
260.5063368717674
 31
0.0
  0
LINE
  5
F7
330
4A
100
AcDbEntity
  8
1
  6
Continuous
 62
     2
100
AcDbLine
 10
130.4592901941677
 20
262.2383876793361
 30
0.0
 11
131.4592901941677
 21
260.5063368717674
 31
0.0
  0
LINE
  5
F8
330
4A
100
AcDbEntity
  8
1
  6
Continuous
 62
     7
100
AcDbLine
 10
131.4592901941677
 20
260.5063368717674
 30
0.0
 11
131.4592901941677
 21
263.7383876793361
 31
0.0
  0
LINE
  5
F9
330
4A
100
AcDbEntity
  8
1
  6
Continuous
 62
     2
100
AcDbLine
 10
107.4592901941677
 20
260.5063368717674
 30
0.0
 11
108.4592901941677
 21
262.2383876793361
 31
0.0
  0
LINE
  5
FA
330
4A
100
AcDbEntity
  8
1
  6
Continuous
 62
     2
100
AcDbLine
 10
108.4592901941677
 20
262.2383876793361
 30
0.0
 11
108.4592901941679
 21
263.7383876793361
 31
0.0
  0
LINE
  5
FB
330
4A
100
AcDbEntity
  8
1
  6
Continuous
 62
     7
100
AcDbLine
 10
107.4592901941677
 20
263.7383876793361
 30
0.0
 11
107.4592901941677
 21
260.5063368717674
 31
0.0
  0
LINE
  5
FC
330
4A
100
AcDbEntity
  8
1
  6
Continuous
 62
     7
100
AcDbLine
 10
106.4592901941677
 20
222.4704384869049
 30
0.0
 11
106.4592901941678
 21
222.598332734696
 31
0.0
  0
LINE
  5
FD
330
4A
100
AcDbEntity
  8
0
  6
PHANTOM
 62
     4
100
AcDbLine
 10
93.45929019416792
 20
238.2383876793361
 30
0.0
 11
142.4592901941679
 21
238.2383876793361
 31
0.0
  0
LINE
  5
FE
330
4A
100
AcDbEntity
  8
1
  6
Continuous
 62
     7
100
AcDbLine
 10
389.4756451594626
 20
260.5063368717672
 30
0.0
 11
413.4756451594626
 21
260.5063368717672
 31
0.0
  0
LINE
  5
FF
330
4A
100
AcDbEntity
  8
1
  6
Continuous
 62
     7
100
AcDbLine
 10
412.4756451594626
 20
262.2383876793359
 30
0.0
 11
390.4756451594627
 21
262.2383876793359
 31
0.0
  0
LINE
  5
100
330
4A
100
AcDbEntity
  8
1
  6
Continuous
 62
     7
100
AcDbLine
 10
446.4756451594626
 20
248.7383876793359
 30
0.0
 11
446.4756451594626
 21
227.7383876793359
 31
0.0
  0
LINE
  5
101
330
4A
100
AcDbEntity
  8
1
  6
Continuous
 62
     7
100
AcDbLine
 10
443.9756451594626
 20
225.2383876793359
 30
0.0
 11
443.9756451594626
 21
251.2383876793359
 31
0.0
  0
LINE
  5
102
330
4A
100
AcDbEntity
  8
1
  6
Continuous
 62
     7
100
AcDbLine
 10
448.2076959670317
 20
247.7383876793359
 30
0.0
 11
448.2076959670317
 21
228.7383876793359
 31
0.0
  0
LINE
  5
103
330
4A
100
AcDbEntity
  8
1
  6
Continuous
 62
     7
100
AcDbLine
 10
459.4756451594626
 20
248.7383876793359
 30
0.0
 11
459.4756451594626
 21
227.7383876793359
 31
0.0
  0
LINE
  5
104
330
4A
100
AcDbEntity
  8
1
  6
Continuous
 62
     7
100
AcDbLine
 10
354.4756451594627
 20
220.7383876793359
 30
0.0
 11
378.4756451594626
 21
220.7383876793359
 31
0.0
  0
LINE
  5
105
330
4A
100
AcDbEntity
  8
1
  6
Continuous
 62
     7
100
AcDbLine
 10
389.4756451594626
 20
263.738387679336
 30
0.0
 11
389.4756451594626
 21
260.5063368717672
 31
0.0
  0
LINE
  5
106
330
4A
100
AcDbEntity
  8
1
  6
Continuous
 62
     2
100
AcDbLine
 10
412.4756451594627
 20
263.738387679336
 30
0.0
 11
412.4756451594626
 21
262.2383876793359
 31
0.0
  0
LINE
  5
107
330
4A
100
AcDbEntity
  8
1
  6
Continuous
 62
     7
100
AcDbLine
 10
353.4756451594627
 20
219.2383876793361
 30
0.0
 11
353.4756451594627
 21
222.4704384869048
 31
0.0
  0
LINE
  5
108
330
4A
100
AcDbEntity
  8
1
  6
Continuous
 62
     2
100
AcDbLine
 10
354.4756451594628
 20
219.2383876793361
 30
0.0
 11
354.4756451594627
 21
220.7383876793359
 31
0.0
  0
LINE
  5
109
330
4A
100
AcDbEntity
  8
1
  6
PHANTOM
 62
     4
100
AcDbLine
 10
401.4756451594626
 20
277.5998529484942
 30
0.0
 11
401.4756451594626
 21
315.2383876793362
 31
0.0
  0
ARC
  5
10A
330
4A
100
AcDbEntity
  8
1
  6
Continuous
 62
     7
100
AcDbCircle
 10
401.4756451594627
 20
254.2383876793358
 30
0.0
 40
29.0
100
AcDbArc
 50
242.5607598493185
 51
291.6947160223856
  0
ARC
  5
10B
330
4A
100
AcDbEntity
  8
1
  6
Continuous
 62
     7
100
AcDbCircle
 10
382.4346797838837
 20
225.7443086457121
 30
0.0
 40
3.999999999997907
100
AcDbArc
 50
93.11786651757339
 51
173.9726861048961
  0
ARC
  5
10C
330
4A
100
AcDbEntity
  8
1
  6
Continuous
 62
     7
100
AcDbCircle
 10
439.9756451594626
 20
225.2383876793359
 30
0.0
 40
4.0
100
AcDbArc
 50
0.0
 51
90.0
  0
ARC
  5
10D
330
4A
100
AcDbEntity
  8
1
  6
Continuous
 62
     7
100
AcDbCircle
 10
439.9756451594626
 20
251.2383876793359
 30
0.0
 40
4.0
100
AcDbArc
 50
270.0
 51
0.0
  0
ARC
  5
10E
330
4A
100
AcDbEntity
  8
1
  6
Continuous
 62
     7
100
AcDbCircle
 10
378.1800757334549
 20
222.405489296271
 30
0.0
 40
24.00000000000211
100
AcDbArc
 50
99.36066212030303
 51
171.3280051740369
  0
ARC
  5
10F
330
4A
100
AcDbEntity
  8
1
  6
Continuous
 62
     7
100
AcDbCircle
 10
382.2462899211239
 20
197.7383876788765
 30
0.0
 40
49.00000000045964
100
AcDbArc
 50
92.19404509977868
 51
99.36066212030437
  0
ARC
  5
110
330
4A
100
AcDbEntity
  8
1
  6
Continuous
 62
     7
100
AcDbCircle
 10
380.0258206545359
 20
255.6958679233617
 30
0.0
 40
9.000000000003757
100
AcDbArc
 50
272.1940450997753
 51
358.1816970355409
  0
ARC
  5
111
330
4A
100
AcDbEntity
  8
1
  6
Continuous
 62
     7
100
AcDbCircle
 10
135.459290194168
 20
559.5648012307219
 30
0.0
 40
29.00000000000005
100
AcDbArc
 50
196.3971810272965
 51
207.4392401506815
  0
ARC
  5
112
330
4A
100
AcDbEntity
  8
1
  6
Continuous
 62
     7
100
AcDbCircle
 10
103.4592901941683
 20
559.5648012307219
 30
0.0
 40
28.99999999999986
100
AcDbArc
 50
16.39718102729658
 51
21.69471602238582
  0
ARC
  5
113
330
4A
100
AcDbEntity
  8
1
  6
Continuous
 62
     7
100
AcDbCircle
 10
119.459290194168
 20
524.5648012307219
 30
0.0
 40
13.00000000000024
100
AcDbArc
 50
289.754739066555
 51
37.57493618966785
  0
ARC
  5
114
330
4A
100
AcDbEntity
  8
1
  6
Continuous
 62
     7
100
AcDbCircle
 10
106.459290194168
 20
598.0648012307219
 30
0.0
 40
4.0
100
AcDbArc
 50
0.0
 51
90.0
  0
ARC
  5
115
330
4A
100
AcDbEntity
  8
1
  6
Continuous
 62
     7
100
AcDbCircle
 10
132.459290194168
 20
598.0648012307219
 30
0.0
 40
3.999999999999886
100
AcDbArc
 50
90.0
 51
180.0
  0
ARC
  5
116
330
4A
100
AcDbEntity
  8
1
  6
Continuous
 62
     7
100
AcDbCircle
 10
103.4592901941683
 20
559.5648012307219
 30
0.0
 40
28.99999999999999
100
AcDbArc
 50
332.5607598493185
 51
343.6028189727032
  0
ARC
  5
117
330
4A
100
AcDbEntity
  8
1
  6
Continuous
 62
     7
100
AcDbCircle
 10
135.459290194168
 20
559.5648012307219
 30
0.0
 40
28.99999999999968
100
AcDbArc
 50
158.305283977614
 51
163.6028189727035
  0
ARC
  5
118
330
4A
100
AcDbEntity
  8
1
  6
Continuous
 62
     7
100
AcDbCircle
 10
119.459290194168
 20
524.5648012307219
 30
0.0
 40
12.99999999999978
100
AcDbArc
 50
142.4250638103308
 51
250.2452609334452
  0
ARC
  5
119
330
4A
100
AcDbEntity
  8
1
  6
Continuous
 62
     7
100
AcDbCircle
 10
119.4592901941679
 20
238.2383876793361
 30
0.0
 40
23.00000000000001
100
AcDbArc
 50
122.5778011728607
 51
235.582611289558
  0
ARC
  5
11A
330
4A
100
AcDbEntity
  8
1
  6
Continuous
 62
     7
100
AcDbCircle
 10
119.4592901941679
 20
238.2383876793361
 30
0.0
 40
22.99999999999999
100
AcDbArc
 50
0.0
 51
57.42219882713913
  0
ARC
  5
11B
330
4A
100
AcDbEntity
  8
1
  6
Continuous
 62
     7
100
AcDbCircle
 10
119.4592901941679
 20
238.2383876793361
 30
0.0
 40
23.00000000000002
100
AcDbArc
 50
304.4173887104415
 51
0.0
  0
ARC
  5
11C
330
4A
100
AcDbEntity
  8
1
  6
Continuous
 62
     7
100
AcDbCircle
 10
119.4592901941679
 20
238.2383876793361
 30
0.0
 40
8.35199593590594
100
AcDbArc
 50
0.19057502307755
 51
90.0
  0
ARC
  5
11D
330
4A
100
AcDbEntity
  8
1
  6
Continuous
 62
     7
100
AcDbCircle
 10
119.4592901941679
 20
238.2383876793361
 30
0.0
 40
8.351995935906075
100
AcDbArc
 50
90.0
 51
179.8094249769225
  0
ARC
  5
11E
330
4A
100
AcDbEntity
  8
1
  6
Continuous
 62
     7
100
AcDbCircle
 10
119.4592901941679
 20
238.2383876793361
 30
0.0
 40
13.0000000000001
100
AcDbArc
 50
180.0686452889392
 51
214.3100927933895
  0
ARC
  5
11F
330
4A
100
AcDbEntity
  8
1
  6
Continuous
 62
     7
100
AcDbCircle
 10
107.7548596201756
 20
222.4054892962711
 30
0.0
 40
24.00000000000156
100
AcDbArc
 50
8.67199482596343
 51
27.87011739414499
  0
ARC
  5
120
330
4A
100
AcDbEntity
  8
1
  6
Continuous
 62
     7
100
AcDbCircle
 10
119.4592901941679
 20
238.2383876793361
 30
0.0
 40
13.0
100
AcDbArc
 50
180.0
 51
180.0686452889392
  0
ARC
  5
121
330
4A
100
AcDbEntity
  8
1
  6
Continuous
 62
     7
100
AcDbCircle
 10
119.4592901941679
 20
238.2383876793361
 30
0.0
 40
13.00000000000004
100
AcDbArc
 50
325.6899072066108
 51
359.9313547110607
  0
ARC
  5
122
330
4A
100
AcDbEntity
  8
1
  6
Continuous
 62
     7
100
AcDbCircle
 10
131.16372076816
 20
222.4054892962711
 30
0.0
 40
24.00000000000137
100
AcDbArc
 50
152.1298826058547
 51
171.3280051740365
  0
ARC
  5
123
330
4A
100
AcDbEntity
  8
1
  6
Continuous
 62
     7
100
AcDbCircle
 10
423.6553092687316
 20
278.238387679336
 30
0.0
 40
30.99999999999995
100
AcDbArc
 50
268.0736638597937
 51
270.0
  0
ARC
  5
124
330
4A
100
AcDbEntity
  8
1
  6
Continuous
 62
     7
100
AcDbCircle
 10
422.782340001104
 20
256.125820528242
 30
0.0
 40
8.871525254333761
100
AcDbArc
 50
182.6525717999963
 51
268.9079326953403
  0
ARC
  5
125
330
4A
100
AcDbEntity
  8
1
  6
Continuous
 62
     7
100
AcDbCircle
 10
423.0029662066942
 20
198.3633876793356
 30
0.0
 40
30.88189075284393
100
AcDbArc
 50
88.78960505471257
 51
110.4843210770986
  0
ARC
  5
126
330
4A
100
AcDbEntity
  8
1
  6
Continuous
 62
     7
100
AcDbCircle
 10
383.0433365682957
 20
218.7383876793359
 30
0.0
 40
11.00000000000005
100
AcDbArc
 50
62.56075984931856
 51
90.0
  0
ARC
  5
127
330
4A
100
AcDbEntity
  8
1
  6
Continuous
 62
     7
100
AcDbCircle
 10
444.4756451594626
 20
215.7383876793359
 30
0.0
 40
0.5
100
AcDbArc
 50
180.0
 51
270.0
  0
ARC
  5
128
330
4A
100
AcDbEntity
  8
1
  6
Continuous
 62
     7
100
AcDbCircle
 10
444.4756451594626
 20
260.7383876793359
 30
0.0
 40
0.5
100
AcDbArc
 50
90.0
 51
180.0
  0
ARC
  5
129
330
4A
100
AcDbEntity
  8
1
  6
Continuous
 62
     7
100
AcDbCircle
 10
141.959290194168
 20
602.5648012307217
 30
0.0
 40
0.5
100
AcDbArc
 50
270.0
 51
0.0
  0
ARC
  5
12A
330
4A
100
AcDbEntity
  8
1
  6
Continuous
 62
     7
100
AcDbCircle
 10
96.95929019416803
 20
602.5648012307217
 30
0.0
 40
0.5
100
AcDbArc
 50
180.0
 51
270.0
  0
ARC
  5
12B
330
4A
100
AcDbEntity
  8
1
  6
Continuous
 62
     7
100
AcDbCircle
 10
79.5842901941678
 20
581.0921222779534
 30
0.0
 40
30.88189075284437
100
AcDbArc
 50
339.5156789229017
 51
1.21039494528722
  0
ARC
  5
12C
330
4A
100
AcDbEntity
  8
1
  6
Continuous
 62
     7
100
AcDbCircle
 10
99.95929019416803
 20
541.1324926395548
 30
0.0
 40
11.00000000000031
100
AcDbArc
 50
359.4429989537366
 51
27.43924015068133
  0
ARC
  5
12D
330
4A
100
AcDbEntity
  8
1
  6
Continuous
 62
     7
100
AcDbCircle
 10
159.3342901941683
 20
581.0921222779534
 30
0.0
 40
30.88189075284392
100
AcDbArc
 50
178.7896050547128
 51
200.4843210770986
  0
ARC
  5
12E
330
4A
100
AcDbEntity
  8
1
  6
Continuous
 62
     7
100
AcDbCircle
 10
138.959290194168
 20
541.1324926395548
 30
0.0
 40
10.99999999999988
100
AcDbArc
 50
152.5607598493181
 51
180.5570010462635
  0
ARC
  5
12F
330
4A
100
AcDbEntity
  8
1
  6
Continuous
 62
     7
100
AcDbCircle
 10
137.8111846128799
 20
238.2994292714017
 30
0.0
 40
10.00000000000018
100
AcDbArc
 50
180.1905750230771
 51
207.8701173941451
  0
ARC
  5
130
330
4A
100
AcDbEntity
  8
1
  6
Continuous
 62
     7
100
AcDbCircle
 10
101.107395775456
 20
238.2994292714017
 30
0.0
 40
10.00000000000006
100
AcDbArc
 50
332.1298826058548
 51
359.8094249769229
  0
ENDBLK
  5
4C
330
4A
100
AcDbEntity
  8
0
100
AcDbBlockEnd
  0
BLOCK
  5
4E
330
4D
100
AcDbEntity
  8
0
100
AcDbBlockBegin
  2
27-4A-M1
 70
     0
 10
0.0
 20
1162.5
 30
0.0
  3
27-4A-M1
  1

  0
LINE
  5
131
330
4D
100
AcDbEntity
  8
1
  6
PHANTOM
 62
     4
100
AcDbLine
 10
119.459290194168
 20
552.5648012307213
 30
0.0
 11
119.4592901941689
 21
551.5648012307213
 31
0.0
  0
LINE
  5
132
330
4D
100
AcDbEntity
  8
1
  6
PHANTOM
 62
     4
100
AcDbLine
 10
112.3097915073399
 20
448.5648012307221
 30
0.0
 11
126.6087888809964
 21
448.5648012307221
 31
0.0
  0
LINE
  5
133
330
4D
100
AcDbEntity
  8
1
  6
PHANTOM
 62
     4
100
AcDbLine
 10
126.5129563894398
 20
423.5648012307221
 30
0.0
 11
112.4056239988965
 21
423.5648012307221
 31
0.0
  0
LINE
  5
134
330
4D
100
AcDbEntity
  8
1
  6
Continuous
 62
     7
100
AcDbLine
 10
123.459290194168
 20
409.5648012307221
 30
0.0
 11
123.9603042569165
 21
540.2652699890019
 31
0.0
  0
LINE
  5
135
330
4D
100
AcDbEntity
  8
1
  6
Continuous
 62
     7
100
AcDbLine
 10
115.459290194168
 20
409.5648012307221
 30
0.0
 11
114.9582761314198
 21
540.2652699890019
 31
0.0
  0
LINE
  5
136
330
4D
100
AcDbEntity
  8
1
  6
Continuous
 62
     7
100
AcDbLine
 10
116.459290194168
 20
448.564801230722
 30
0.0
 11
122.459290194168
 21
448.564801230722
 31
0.0
  0
LINE
  5
137
330
4D
100
AcDbEntity
  8
1
  6
PHANTOM
 62
     4
100
AcDbLine
 10
119.459290194168
 20
406.5648012307221
 30
0.0
 11
119.459290194168
 21
442.5648012307221
 31
0.0
  0
LINE
  5
138
330
4D
100
AcDbEntity
  8
1
  6
PHANTOM
 62
     4
100
AcDbLine
 10
119.459290194168
 20
555.5648012307221
 30
0.0
 11
119.459290194168
 21
575.983345780535
 31
0.0
  0
LINE
  5
139
330
4D
100
AcDbEntity
  8
1
  6
PHANTOM
 62
     4
100
AcDbLine
 10
134.2512939608403
 20
559.5648012307221
 30
0.0
 11
104.7857309756048
 21
559.5648012307221
 31
0.0
  0
LINE
  5
13A
330
4D
100
AcDbEntity
  8
1
  6
PHANTOM
 62
     4
100
AcDbLine
 10
119.4592901941689
 20
551.5648012307213
 30
0.0
 11
119.459290194168
 21
542.3537461648856
 31
0.0
  0
LINE
  5
13B
330
4D
100
AcDbEntity
  8
1
  6
PHANTOM
 62
     4
100
AcDbLine
 10
119.459290194168
 20
542.3537461648856
 30
0.0
 11
119.459290194168
 21
442.5648012307221
 31
0.0
  0
LINE
  5
13C
330
4D
100
AcDbEntity
  8
1
  6
Continuous
 62
     7
100
AcDbLine
 10
123.459290194168
 20
409.5648012307221
 30
0.0
 11
115.459290194168
 21
409.5648012307221
 31
0.0
  0
LINE
  5
13D
330
4D
100
AcDbEntity
  8
1
  6
PHANTOM
 62
     4
100
AcDbLine
 10
119.459290194168
 20
555.5648012307221
 30
0.0
 11
119.459290194168
 21
552.5648012307213
 31
0.0
  0
LINE
  5
13E
330
4D
100
AcDbEntity
  8
1
  6
Continuous
 62
     7
100
AcDbLine
 10
121.649290194168
 20
298.0383876793361
 30
0.0
 11
123.4592901941679
 21
298.0383876793361
 31
0.0
  0
LINE
  5
13F
330
4D
100
AcDbEntity
  8
1
  6
Continuous
 62
     7
100
AcDbLine
 10
121.241179294168
 20
299.4030717158991
 30
0.0
 11
121.649290194168
 21
298.0383876793361
 31
0.0
  0
LINE
  5
140
330
4D
100
AcDbEntity
  8
1
  6
Continuous
 62
     7
100
AcDbLine
 10
117.2692901941679
 20
298.0383876793361
 30
0.0
 11
121.649290194168
 21
298.0383876793361
 31
0.0
  0
LINE
  5
141
330
4D
100
AcDbEntity
  8
1
  6
Continuous
 62
     7
100
AcDbLine
 10
117.677401094168
 20
299.4030717158991
 30
0.0
 11
117.2692901941679
 21
298.0383876793361
 31
0.0
  0
LINE
  5
142
330
4D
100
AcDbEntity
  8
1
  6
Continuous
 62
     7
100
AcDbLine
 10
125.4592901941679
 20
296.0383876793361
 30
0.0
 11
123.8079256380237
 21
309.0383876793361
 31
0.0
  0
LINE
  5
143
330
4D
100
AcDbEntity
  8
1
  6
Continuous
 62
     7
100
AcDbLine
 10
125.0234723188872
 20
297.2847159991253
 30
0.0
 11
122.356484062837
 21
300.5820194642122
 31
0.0
  0
LINE
  5
144
330
4D
100
AcDbEntity
  8
1
  6
Continuous
 62
     7
100
AcDbLine
 10
115.1106547503122
 20
309.0383876793361
 30
0.0
 11
108.8636336843928
 21
309.0383876793361
 31
0.0
  0
LINE
  5
145
330
4D
100
AcDbEntity
  8
1
  6
Continuous
 62
     7
100
AcDbLine
 10
115.1106547503122
 20
309.0383876793361
 30
0.0
 11
113.4592901941679
 21
296.0383876793361
 31
0.0
  0
LINE
  5
146
330
4D
100
AcDbEntity
  8
1
  6
Continuous
 62
     7
100
AcDbLine
 10
116.5620963254988
 20
300.5820194642122
 30
0.0
 11
113.8951080694487
 21
297.2847159991253
 31
0.0
  0
LINE
  5
147
330
4D
100
AcDbEntity
  8
1
  6
Continuous
 62
     7
100
AcDbLine
 10
115.4592901941679
 20
298.0383876793361
 30
0.0
 11
117.2692901941679
 21
298.0383876793361
 31
0.0
  0
LINE
  5
148
330
4D
100
AcDbEntity
  8
1
  6
Continuous
 62
     7
100
AcDbLine
 10
123.3284148962717
 20
309.0383876793361
 30
0.0
 11
130.0549467039431
 21
309.0383876793361
 31
0.0
  0
LINE
  5
149
330
4D
100
AcDbEntity
  8
1
  6
Continuous
 62
     7
100
AcDbLine
 10
115.5958769487696
 20
309.0383876793361
 30
0.0
 11
115.1106547503122
 21
309.0383876793361
 31
0.0
  0
LINE
  5
14A
330
4D
100
AcDbEntity
  8
1
  6
Continuous
 62
     7
100
AcDbLine
 10
117.677401094168
 20
299.4030717158991
 30
0.0
 11
121.241179294168
 21
299.4030717158991
 31
0.0
  0
LINE
  5
14B
330
4D
100
AcDbEntity
  8
1
  6
Continuous
 62
     7
100
AcDbLine
 10
121.6020433652503
 20
328.2383876793361
 30
0.0
 11
117.3165370230855
 21
328.2383876793361
 31
0.0
  0
LINE
  5
14C
330
4D
100
AcDbEntity
  8
1
  6
Continuous
 62
     7
100
AcDbLine
 10
117.3165370230855
 20
300.2383876793361
 30
0.0
 11
121.6020433652503
 21
300.2383876793361
 31
0.0
  0
LINE
  5
14D
330
4D
100
AcDbEntity
  8
1
  6
Continuous
 62
     7
100
AcDbLine
 10
131.0535762386977
 20
308.090723635579
 30
0.0
 11
132.1541396036415
 21
287.090723635579
 31
0.0
  0
LINE
  5
14E
330
4D
100
AcDbEntity
  8
1
  6
Continuous
 62
     7
100
AcDbLine
 10
131.0535762386977
 20
308.090723635579
 30
0.0
 11
132.1541396036415
 21
287.090723635579
 31
0.0
  0
LINE
  5
14F
330
4D
100
AcDbEntity
  8
1
  6
Continuous
 62
     7
100
AcDbLine
 10
106.7644407846943
 20
287.090723635579
 30
0.0
 11
107.8650041496381
 21
308.090723635579
 31
0.0
  0
LINE
  5
150
330
4D
100
AcDbEntity
  8
1
  6
Continuous
 62
     7
100
AcDbLine
 10
131.155510068887
 20
286.0383876793361
 30
0.0
 11
107.763070319449
 21
286.0383876793361
 31
0.0
  0
LINE
  5
151
330
4D
100
AcDbEntity
  8
0
  6
Continuous
 62
     7
100
AcDbLine
 10
265.2273033012817
 20
300.2405904840101
 30
0.0
 11
387.284401240694
 21
298.0752339126233
 31
0.0
  0
LINE
  5
152
330
4D
100
AcDbEntity
  8
1
  6
Continuous
 62
     7
100
AcDbLine
 10
401.4756451594626
 20
286.0383876793361
 30
0.0
 11
389.7062175823063
 21
286.0383876793361
 31
0.0
  0
LINE
  5
153
330
4D
100
AcDbEntity
  8
1
  6
Continuous
 62
     7
100
AcDbLine
 10
277.9268698730269
 20
304.6830299954201
 30
0.0
 11
265.4756451594626
 21
305.2434496876768
 31
0.0
  0
LINE
  5
154
330
4D
100
AcDbEntity
  8
1
  6
Continuous
 62
     7
100
AcDbLine
 10
271.8393933277421
 20
320.6025615652949
 30
0.0
 11
280.9350571163171
 21
311.5075062115223
 31
0.0
  0
LINE
  5
155
330
4D
100
AcDbEntity
  8
1
  6
Continuous
 62
     7
100
AcDbLine
 10
275.3748089767862
 20
324.1382137241611
 30
0.0
 11
290.4756451594626
 21
309.0383876793361
 31
0.0
  0
LINE
  5
156
330
4D
100
AcDbEntity
  8
1
  6
Continuous
 62
     7
100
AcDbLine
 10
412.0713016692378
 20
309.0383876793361
 30
0.0
 11
405.4756451594626
 21
309.0383876793361
 31
0.0
  0
LINE
  5
157
330
4D
100
AcDbEntity
  8
1
  6
Continuous
 62
     7
100
AcDbLine
 10
401.4756451594626
 20
286.0383876793361
 30
0.0
 11
413.1718650341817
 21
286.0383876793361
 31
0.0
  0
LINE
  5
158
330
4D
100
AcDbEntity
  8
1
  6
Continuous
 62
     7
100
AcDbLine
 10
397.4756451594626
 20
309.0383876793361
 30
0.0
 11
390.8799886496876
 21
309.0383876793361
 31
0.0
  0
LINE
  5
159
330
4D
100
AcDbEntity
  8
1
  6
Continuous
 62
     7
100
AcDbLine
 10
388.780795749989
 20
287.090723635579
 30
0.0
 11
389.8813591149328
 21
308.0907236355791
 31
0.0
  0
LINE
  5
15A
330
4D
100
AcDbEntity
  8
0
  6
Continuous
 62
     7
100
AcDbLine
 10
414.1704945689362
 20
287.090723635579
 30
0.0
 11
413.0699312039924
 21
308.0907236355791
 31
0.0
  0
LINE
  5
15B
330
4D
100
AcDbEntity
  8
1
  6
Continuous
 62
     7
100
AcDbLine
 10
290.4756451594626
 20
309.0383876793361
 30
0.0
 11
390.8799886496876
 21
309.0383876793361
 31
0.0
  0
ARC
  5
15C
330
4D
100
AcDbEntity
  8
1
  6
Continuous
 62
     7
100
AcDbCircle
 10
138.9535588097519
 20
539.8154723524169
 30
0.0
 40
14.99999999999989
100
AcDbArc
 50
153.2591865778372
 51
178.2816419983448
  0
ARC
  5
15D
330
4D
100
AcDbEntity
  8
1
  6
Continuous
 62
     7
100
AcDbCircle
 10
99.96502157858436
 20
539.8154723524169
 30
0.0
 40
14.99999999999975
100
AcDbArc
 50
26.7408134221631
 51
45.37238356672435
  0
ARC
  5
15E
330
4D
100
AcDbEntity
  8
1
  6
Continuous
 62
     7
100
AcDbCircle
 10
99.96502157858436
 20
539.8154723524169
 30
0.0
 40
14.99999999999994
100
AcDbArc
 50
1.71835800165523
 51
26.7408134221631
  0
ARC
  5
15F
330
4D
100
AcDbEntity
  8
1
  6
Continuous
 62
     7
100
AcDbCircle
 10
119.4592901941679
 20
559.564801230722
 30
0.0
 40
12.75000000000015
100
AcDbArc
 50
314.6276164332772
 51
0.0
  0
ARC
  5
160
330
4D
100
AcDbEntity
  8
1
  6
Continuous
 62
     7
100
AcDbCircle
 10
138.9535588097519
 20
539.8154723524169
 30
0.0
 40
14.9999999999998
100
AcDbArc
 50
134.6276164332756
 51
153.2591865778372
  0
ARC
  5
161
330
4D
100
AcDbEntity
  8
1
  6
Continuous
 62
     7
100
AcDbCircle
 10
119.4592901941679
 20
559.564801230722
 30
0.0
 40
12.75
100
AcDbArc
 50
270.0
 51
314.6276164332772
  0
ARC
  5
162
330
4D
100
AcDbEntity
  8
1
  6
Continuous
 62
     7
100
AcDbCircle
 10
119.4592901941679
 20
559.564801230722
 30
0.0
 40
12.75
100
AcDbArc
 50
90.0
 51
180.0
  0
ARC
  5
163
330
4D
100
AcDbEntity
  8
1
  6
Continuous
 62
     7
100
AcDbCircle
 10
119.4592901941679
 20
559.564801230722
 30
0.0
 40
12.74999999999999
100
AcDbArc
 50
0.0
 51
90.0
  0
ARC
  5
164
330
4D
100
AcDbEntity
  8
1
  6
Continuous
 62
     7
100
AcDbCircle
 10
119.4592901941679
 20
559.564801230722
 30
0.0
 40
12.75
100
AcDbArc
 50
180.0
 51
270.0
  0
ARC
  5
165
330
4D
100
AcDbEntity
  8
1
  6
Continuous
 62
     7
100
AcDbCircle
 10
23.45929019416792
 20
314.2383876793361
 30
0.0
 40
99.99999999999996
100
AcDbArc
 50
352.45452026503
 51
0.0
  0
ARC
  5
166
330
4D
100
AcDbEntity
  8
1
  6
Continuous
 62
     7
100
AcDbCircle
 10
215.459290194168
 20
314.2383876793361
 30
0.0
 40
100.0
100
AcDbArc
 50
172.45452026503
 51
180.0
  0
ARC
  5
167
330
4D
100
AcDbEntity
  8
1
  6
Continuous
 62
     7
100
AcDbCircle
 10
115.4592901941679
 20
296.0383876793361
 30
0.0
 40
2.0
100
AcDbArc
 50
90.0
 51
141.4524318300572
  0
ARC
  5
168
330
4D
100
AcDbEntity
  8
1
  6
Continuous
 62
     7
100
AcDbCircle
 10
123.4592901941679
 20
296.0383876793361
 30
0.0
 40
2.0
100
AcDbArc
 50
0.0
 51
90.0
  0
ARC
  5
169
330
4D
100
AcDbEntity
  8
1
  6
Continuous
 62
     7
100
AcDbCircle
 10
115.4592901941679
 20
296.0383876793361
 30
0.0
 40
1.999999999999918
100
AcDbArc
 50
141.4524318300572
 51
180.0
  0
ARC
  5
16A
330
4D
100
AcDbEntity
  8
1
  6
Continuous
 62
     7
100
AcDbCircle
 10
23.45929019416792
 20
314.2383876793361
 30
0.0
 40
100.0
100
AcDbArc
 50
0.0
 51
7.54547973497001
  0
ARC
  5
16B
330
4D
100
AcDbEntity
  8
1
  6
Continuous
 62
     7
100
AcDbCircle
 10
215.459290194168
 20
314.2383876793361
 30
0.0
 40
100.0000000000001
100
AcDbArc
 50
180.0
 51
187.54547973497
  0
ARC
  5
16C
330
4D
100
AcDbEntity
  8
1
  6
Continuous
 62
     7
100
AcDbCircle
 10
265.4756451594626
 20
314.2383876793361
 30
0.0
 40
14.0
100
AcDbArc
 50
180.0
 51
268.9835938090858
  0
ARC
  5
16D
330
4D
100
AcDbEntity
  8
1
  6
Continuous
 62
     7
100
AcDbCircle
 10
265.4756451594626
 20
314.2383876793361
 30
0.0
 40
8.994937991659377
100
AcDbArc
 50
45.00191640286387
 51
270.0
  0
ARC
  5
16E
330
4D
100
AcDbEntity
  8
1
  6
Continuous
 62
     7
100
AcDbCircle
 10
265.4756451594626
 20
314.2383876793361
 30
0.0
 40
14.0
100
AcDbArc
 50
90.0
 51
180.0
  0
ARC
  5
16F
330
4D
100
AcDbEntity
  8
1
  6
Continuous
 62
     7
100
AcDbCircle
 10
265.4756451594626
 20
314.2383876793361
 30
0.0
 40
14.00000000000017
100
AcDbArc
 50
45.00191640286499
 51
90.0
  0
ARC
  5
170
330
4D
100
AcDbEntity
  8
1
  6
Continuous
 62
     7
100
AcDbCircle
 10
278.1067245970817
 20
308.6789844844296
 30
0.0
 40
3.99999999999998
100
AcDbArc
 50
267.4229019814184
 51
45.0019164028626
  0
ARC
  5
171
330
4D
100
AcDbEntity
  8
0
  6
Continuous
 62
     7
100
AcDbCircle
 10
387.2489257797627
 20
296.0755485644567
 30
0.0
 40
1.999999999999813
100
AcDbArc
 50
357.0000000000055
 51
88.98364960619922
  0
CIRCLE
  5
172
330
4D
100
AcDbEntity
  8
1
  6
Continuous
 62
     7
100
AcDbCircle
 10
119.4592901941679
 20
559.564801230722
 30
0.0
 40
9.999999999999886
  0
ARC
  5
173
330
4D
100
AcDbEntity
  8
1
  6
Continuous
 62
     7
100
AcDbCircle
 10
117.3165370230855
 20
301.2383876793361
 30
0.0
 40
0.9999999999998662
100
AcDbArc
 50
187.5454797349729
 51
221.0234768671342
  0
ARC
  5
174
330
4D
100
AcDbEntity
  8
1
  6
Continuous
 62
     7
100
AcDbCircle
 10
121.6020433652503
 20
301.2383876793361
 30
0.0
 40
1.0
100
AcDbArc
 50
270.0
 51
352.4545202650311
  0
ARC
  5
175
330
4D
100
AcDbEntity
  8
1
  6
Continuous
 62
     7
100
AcDbCircle
 10
117.3165370230855
 20
301.2383876793361
 30
0.0
 40
1.000000000000025
100
AcDbArc
 50
221.0234768671342
 51
270.0
  0
ARC
  5
176
330
4D
100
AcDbEntity
  8
1
  6
Continuous
 62
     7
100
AcDbCircle
 10
117.3165370230855
 20
327.2383876793361
 30
0.0
 40
1.0
100
AcDbArc
 50
90.0
 51
172.4545202650303
  0
ARC
  5
177
330
4D
100
AcDbEntity
  8
1
  6
Continuous
 62
     7
100
AcDbCircle
 10
121.6020433652503
 20
327.2383876793361
 30
0.0
 40
0.9999999999999573
100
AcDbArc
 50
7.54547973496891
 51
90.0
  0
ARC
  5
178
330
4D
100
AcDbEntity
  8
1
  6
Continuous
 62
     7
100
AcDbCircle
 10
130.0549467039431
 20
308.0383876793361
 30
0.0
 40
1.000000000000024
100
AcDbArc
 50
2.999999999999
 51
90.0
  0
ARC
  5
179
330
4D
100
AcDbEntity
  8
1
  6
Continuous
 62
     7
100
AcDbCircle
 10
131.155510068887
 20
287.0383876793361
 30
0.0
 40
1.0
100
AcDbArc
 50
270.0
 51
2.99999999999926
  0
ARC
  5
17A
330
4D
100
AcDbEntity
  8
1
  6
Continuous
 62
     7
100
AcDbCircle
 10
107.763070319449
 20
287.0383876793361
 30
0.0
 40
1.000000000000123
100
AcDbArc
 50
177.0000000000013
 51
270.0
  0
ARC
  5
17B
330
4D
100
AcDbEntity
  8
1
  6
Continuous
 62
     7
100
AcDbCircle
 10
108.8636336843928
 20
308.0383876793361
 30
0.0
 40
1.0
100
AcDbArc
 50
90.0
 51
177.0000000000013
  0
ARC
  5
17C
330
4D
100
AcDbEntity
  8
1
  6
Continuous
 62
     7
100
AcDbCircle
 10
389.7794252847435
 20
287.0383876793361
 30
0.0
 40
0.9999999999999392
100
AcDbArc
 50
177.0000000000007
 51
270.0
  0
ARC
  5
17D
330
4D
100
AcDbEntity
  8
1
  6
Continuous
 62
     7
100
AcDbCircle
 10
412.0713016692378
 20
308.0383876793361
 30
0.0
 40
0.9999999999999989
100
AcDbArc
 50
3.00000000000234
 51
90.0
  0
ARC
  5
17E
330
4D
100
AcDbEntity
  8
1
  6
Continuous
 62
     7
100
AcDbCircle
 10
413.1718650341817
 20
287.0383876793361
 30
0.0
 40
1.0
100
AcDbArc
 50
270.0
 51
2.99999999999926
  0
ARC
  5
17F
330
4D
100
AcDbEntity
  8
1
  6
Continuous
 62
     7
100
AcDbCircle
 10
413.1718650341817
 20
287.0383876793361
 30
0.0
 40
1.0
100
AcDbArc
 50
270.0
 51
2.99999999999926
  0
ARC
  5
180
330
4D
100
AcDbEntity
  8
1
  6
Continuous
 62
     7
100
AcDbCircle
 10
390.8799886496876
 20
308.0383876793361
 30
0.0
 40
1.0
100
AcDbArc
 50
90.0
 51
176.9999999999984
  0
ARC
  5
181
330
4D
100
AcDbEntity
  8
1
  6
Continuous
 62
     7
100
AcDbCircle
 10
389.7794252847435
 20
287.0383876793361
 30
0.0
 40
0.9999999999999392
100
AcDbArc
 50
177.0000000000007
 51
270.0
  0
ENDBLK
  5
4F
330
4D
100
AcDbEntity
  8
0
100
AcDbBlockEnd
  0
BLOCK
  5
51
330
50
100
AcDbEntity
  8
0
100
AcDbBlockBegin
  2
42-29
 70
     0
 10
248.7756605191029
 20
433.6284565676668
 30
0.0
  3
42-29
  1

  0
LINE
  5
182
330
50
100
AcDbEntity
  8
1
  6
Continuous
 62
     7
100
AcDbLine
 10
115.4834931230769
 20
312.0383876793361
 30
0.0
 11
112.4592901941679
 21
312.0383876793361
 31
0.0
  0
LINE
  5
183
330
50
100
AcDbEntity
  8
1
  6
Continuous
 62
     7
100
AcDbLine
 10
112.4592901941679
 20
309.0383876793361
 30
0.0
 11
112.4592901941679
 21
312.0383876793361
 31
0.0
  0
LINE
  5
184
330
50
100
AcDbEntity
  8
1
  6
Continuous
 62
     7
100
AcDbLine
 10
112.4592901941679
 20
312.0383876793361
 30
0.0
 11
113.4592901941682
 21
312.3077098783593
 31
0.0
  0
LINE
  5
185
330
50
100
AcDbEntity
  8
1
  6
Continuous
 62
     2
100
AcDbLine
 10
113.4592901941679
 20
312.0383876793361
 30
0.0
 11
113.4592901941679
 21
309.0383876793361
 31
0.0
  0
LINE
  5
186
330
50
100
AcDbEntity
  8
1
  6
Continuous
 62
     7
100
AcDbLine
 10
126.4592901941679
 20
312.0383876793361
 30
0.0
 11
126.4592901941679
 21
309.0383876793361
 31
0.0
  0
LINE
  5
187
330
50
100
AcDbEntity
  8
1
  6
Continuous
 62
     7
100
AcDbLine
 10
125.4592901941682
 20
312.3077098783593
 30
0.0
 11
126.4592901941679
 21
312.0383876793361
 31
0.0
  0
LINE
  5
188
330
50
100
AcDbEntity
  8
1
  6
Continuous
 62
     2
100
AcDbLine
 10
125.4592901941679
 20
309.0383876793361
 30
0.0
 11
125.4592901941679
 21
312.0383876793361
 31
0.0
  0
LINE
  5
189
330
50
100
AcDbEntity
  8
1
  6
Continuous
 62
     7
100
AcDbLine
 10
126.4592901941679
 20
312.0383876793361
 30
0.0
 11
123.4350872652591
 21
312.0383876793361
 31
0.0
  0
LINE
  5
18A
330
50
100
AcDbEntity
  8
1
  6
Continuous
 62
     7
100
AcDbLine
 10
394.4756451594627
 20
309.0383876793361
 30
0.0
 11
394.4756451594627
 21
312.0383876793361
 31
0.0
  0
LINE
  5
18B
330
50
100
AcDbEntity
  8
1
  6
Continuous
 62
     7
100
AcDbLine
 10
394.4756451594627
 20
309.0383876793361
 30
0.0
 11
408.4756451594627
 21
309.0383876793361
 31
0.0
  0
LINE
  5
18C
330
50
100
AcDbEntity
  8
1
  6
Continuous
 62
     7
100
AcDbLine
 10
394.4756451594627
 20
312.0383876793361
 30
0.0
 11
395.4756451594628
 21
312.3077098783593
 31
0.0
  0
LINE
  5
18D
330
50
100
AcDbEntity
  8
1
  6
Continuous
 62
     2
100
AcDbLine
 10
395.4756451594627
 20
312.0383876793361
 30
0.0
 11
395.4756451594627
 21
309.0383876793361
 31
0.0
  0
LINE
  5
18E
330
50
100
AcDbEntity
  8
1
  6
Continuous
 62
     2
100
AcDbLine
 10
396.4756451594627
 20
312.0383876793361
 30
0.0
 11
396.4756451594627
 21
309.0383876793361
 31
0.0
  0
LINE
  5
18F
330
50
100
AcDbEntity
  8
1
  6
Continuous
 62
     2
100
AcDbLine
 10
397.4756451594626
 20
311.8484612708838
 30
0.0
 11
397.4756451594626
 21
309.2044359917878
 31
0.0
  0
LINE
  5
190
330
50
100
AcDbEntity
  8
1
  6
Continuous
 62
     2
100
AcDbLine
 10
398.4756451594626
 20
311.7349141730086
 30
0.0
 11
398.4756451594626
 21
309.3990881595739
 31
0.0
  0
LINE
  5
191
330
50
100
AcDbEntity
  8
1
  6
Continuous
 62
     2
100
AcDbLine
 10
399.4756451594626
 20
311.5240409912402
 30
0.0
 11
399.4756451594626
 21
309.7559504671819
 31
0.0
  0
LINE
  5
192
330
50
100
AcDbEntity
  8
1
  6
Continuous
 62
     2
100
AcDbLine
 10
400.4756451594626
 20
311.2807257815074
 30
0.0
 11
400.4756451594626
 21
310.0154866908968
 31
0.0
  0
LINE
  5
193
330
50
100
AcDbEntity
  8
1
  6
Continuous
 62
     7
100
AcDbLine
 10
408.4756451594627
 20
312.0383876793361
 30
0.0
 11
408.4756451594627
 21
309.0383876793361
 31
0.0
  0
LINE
  5
194
330
50
100
AcDbEntity
  8
1
  6
Continuous
 62
     7
100
AcDbLine
 10
407.4756451594628
 20
312.3077098783593
 30
0.0
 11
408.4756451594627
 21
312.0383876793361
 31
0.0
  0
LINE
  5
195
330
50
100
AcDbEntity
  8
1
  6
Continuous
 62
     2
100
AcDbLine
 10
407.4756451594627
 20
309.0383876793361
 30
0.0
 11
407.4756451594627
 21
312.0383876793361
 31
0.0
  0
LINE
  5
196
330
50
100
AcDbEntity
  8
1
  6
Continuous
 62
     7
100
AcDbLine
 10
408.4756451594627
 20
312.0383876793361
 30
0.0
 11
394.4756451594627
 21
312.0383876793361
 31
0.0
  0
LINE
  5
197
330
50
100
AcDbEntity
  8
1
  6
Continuous
 62
     2
100
AcDbLine
 10
406.4756451594627
 20
309.0383876793361
 30
0.0
 11
406.4756451594627
 21
312.0383876793361
 31
0.0
  0
LINE
  5
198
330
50
100
AcDbEntity
  8
1
  6
Continuous
 62
     2
100
AcDbLine
 10
405.4756451594627
 20
309.2044359917878
 30
0.0
 11
405.4756451594627
 21
311.8484612708838
 31
0.0
  0
LINE
  5
199
330
50
100
AcDbEntity
  8
1
  6
Continuous
 62
     2
100
AcDbLine
 10
404.4756451594627
 20
309.3990881595739
 30
0.0
 11
404.4756451594627
 21
311.7349141730086
 31
0.0
  0
LINE
  5
19A
330
50
100
AcDbEntity
  8
1
  6
Continuous
 62
     2
100
AcDbLine
 10
403.4756451594627
 20
309.7559504671819
 30
0.0
 11
403.4756451594627
 21
311.5240409912402
 31
0.0
  0
LINE
  5
19B
330
50
100
AcDbEntity
  8
1
  6
Continuous
 62
     2
100
AcDbLine
 10
402.4756451594627
 20
310.0154866908968
 30
0.0
 11
402.4756451594627
 21
311.2807257815074
 31
0.0
  0
ARC
  5
19C
330
50
100
AcDbEntity
  8
1
  6
Continuous
 62
     7
100
AcDbCircle
 10
119.4592901941679
 20
288.0383876793361
 30
0.0
 40
25.00000000000006
100
AcDbArc
 50
76.11345963737034
 51
80.81993228961572
  0
ARC
  5
19D
330
50
100
AcDbEntity
  8
1
  6
Continuous
 62
     7
100
AcDbCircle
 10
119.4592901941679
 20
288.0383876793361
 30
0.0
 40
25.00000000000002
100
AcDbArc
 50
99.18006771038431
 51
103.8865403626284
  0
ARC
  5
19E
330
50
100
AcDbEntity
  8
1
  6
Continuous
 62
     7
100
AcDbCircle
 10
401.4756451594626
 20
288.0383876793361
 30
0.0
 40
25.00000000000003
100
AcDbArc
 50
76.11345963737062
 51
103.8865403626286
  0
CIRCLE
  5
19F
330
50
100
AcDbEntity
  8
0
  6
Continuous
 62
     7
100
AcDbCircle
 10
119.4592901941679
 20
559.5648012307221
 30
0.0
 40
8.0
  0
ENDBLK
  5
52
330
50
100
AcDbEntity
  8
0
100
AcDbBlockEnd
  0
BLOCK
  5
54
330
53
100
AcDbEntity
  8
0
100
AcDbBlockBegin
  2
開示A4
 70
     0
 10
0.0
 20
0.0
 30
0.0
  3
開示A4
  1

  0
POINT
  5
1A0
330
53
100
AcDbEntity
  8
1
 62
     4
100
AcDbPoint
 10
93.75
 20
17.0
 30
0.0
  0
POINT
  5
1A1
330
53
100
AcDbEntity
  8
1
 62
     4
100
AcDbPoint
 10
85.25
 20
17.0
 30
0.0
  0
POINT
  5
1A2
330
53
100
AcDbEntity
  8
1
 62
     4
100
AcDbPoint
 10
106.5
 20
19.00000000000001
 30
0.0
  0
POINT
  5
1A3
330
53
100
AcDbEntity
  8
1
 62
     4
100
AcDbPoint
 10
106.5
 20
12.5
 30
0.0
  0
POINT
  5
1A4
330
53
100
AcDbEntity
  8
1
 62
     4
100
AcDbPoint
 10
112.25
 20
12.5
 30
0.0
  0
POINT
  5
1A5
330
53
100
AcDbEntity
  8
1
 62
     4
100
AcDbPoint
 10
100.75
 20
12.5
 30
0.0
  0
POINT
  5
1A6
330
53
100
AcDbEntity
  8
1
 62
     4
100
AcDbPoint
 10
123.5
 20
19.00000000000001
 30
0.0
  0
POINT
  5
1A7
330
53
100
AcDbEntity
  8
1
 62
     4
100
AcDbPoint
 10
123.5
 20
12.5
 30
0.0
  0
POINT
  5
1A8
330
53
100
AcDbEntity
  8
1
 62
     4
100
AcDbPoint
 10
129.25
 20
12.5
 30
0.0
  0
POINT
  5
1A9
330
53
100
AcDbEntity
  8
1
 62
     4
100
AcDbPoint
 10
117.75
 20
12.5
 30
0.0
  0
POINT
  5
1AA
330
53
100
AcDbEntity
  8
1
 62
     4
100
AcDbPoint
 10
140.5
 20
19.00000000000001
 30
0.0
  0
POINT
  5
1AB
330
53
100
AcDbEntity
  8
1
 62
     4
100
AcDbPoint
 10
140.5
 20
12.5
 30
0.0
  0
POINT
  5
1AC
330
53
100
AcDbEntity
  8
1
 62
     4
100
AcDbPoint
 10
146.25
 20
12.5
 30
0.0
  0
POINT
  5
1AD
330
53
100
AcDbEntity
  8
1
 62
     4
100
AcDbPoint
 10
134.75
 20
12.5
 30
0.0
  0
POINT
  5
1AE
330
53
100
AcDbEntity
  8
1
 62
     4
100
AcDbPoint
 10
151.75
 20
12.5
 30
0.0
  0
POINT
  5
1AF
330
53
100
AcDbEntity
  8
1
 62
     4
100
AcDbPoint
 10
163.25
 20
12.5
 30
0.0
  0
POINT
  5
1B0
330
53
100
AcDbEntity
  8
1
 62
     4
100
AcDbPoint
 10
157.5
 20
12.5
 30
0.0
  0
POINT
  5
1B1
330
53
100
AcDbEntity
  8
1
 62
     4
100
AcDbPoint
 10
57.0
 20
14.25
 30
0.0
  0
POINT
  5
1B2
330
53
100
AcDbEntity
  8
1
 62
     4
100
AcDbPoint
 10
57.0
 20
22.75000000000001
 30
0.0
  0
POINT
  5
1B3
330
53
100
AcDbEntity
  8
1
 62
     4
100
AcDbPoint
 10
47.5
 20
282.0000000000003
 30
0.0
  0
POINT
  5
1B4
330
53
100
AcDbEntity
  8
1
 62
     4
100
AcDbPoint
 10
157.5
 20
19.00000000000001
 30
0.0
  0
POINT
  5
1B5
330
53
100
AcDbEntity
  8
1
 62
     4
100
AcDbPoint
 10
57.0
 20
16.25
 30
0.0
  0
POINT
  5
1B6
330
53
100
AcDbEntity
  8
1
 62
     4
100
AcDbPoint
 10
57.0
 20
24.75000000000001
 30
0.0
  0
POINT
  5
1B7
330
53
100
AcDbEntity
  8
1
 62
     4
100
AcDbPoint
 10
57.0
 20
20.75000000000001
 30
0.0
  0
POINT
  5
1B8
330
53
100
AcDbEntity
  8
1
 62
     4
100
AcDbPoint
 10
57.0
 20
12.25
 30
0.0
  0
POINT
  5
1B9
330
53
100
AcDbEntity
  8
1
 62
     4
100
AcDbPoint
 10
34.0
 20
34.00000000000001
 30
0.0
  0
LINE
  5
1BA
330
53
100
AcDbEntity
  8
1
  6
Continuous
 62
     7
100
AcDbLine
 10
105.0
 20
10.0
 30
0.0
 11
200.0
 21
10.0
 31
0.0
  0
LINE
  5
1BB
330
53
100
AcDbEntity
  8
1
  6
Continuous
 62
     2
100
AcDbLine
 10
105.0
 20
10.0
 30
0.0
 11
105.0
 21
5.0
 31
0.0
  0
LINE
  5
1BC
330
53
100
AcDbEntity
  8
1
  6
Continuous
 62
     7
100
AcDbLine
 10
200.0
 20
148.5
 30
0.0
 11
200.0
 21
287.0000000000003
 31
0.0
  0
LINE
  5
1BD
330
53
100
AcDbEntity
  8
1
  6
Continuous
 62
     2
100
AcDbLine
 10
200.0
 20
148.5
 30
0.0
 11
205.0
 21
148.5
 31
0.0
  0
LINE
  5
1BE
330
53
100
AcDbEntity
  8
1
  6
Continuous
 62
     7
100
AcDbLine
 10
25.0
 20
148.5
 30
0.0
 11
25.0
 21
287.0000000000003
 31
0.0
  0
LINE
  5
1BF
330
53
100
AcDbEntity
  8
1
  6
Continuous
 62
     2
100
AcDbLine
 10
25.0
 20
148.5
 30
0.0
 11
20.0
 21
148.5
 31
0.0
  0
LINE
  5
1C0
330
53
100
AcDbEntity
  8
1
  6
Continuous
 62
     7
100
AcDbLine
 10
105.0
 20
287.0000000000003
 30
0.0
 11
25.0
 21
287.0000000000003
 31
0.0
  0
LINE
  5
1C1
330
53
100
AcDbEntity
  8
1
  6
Continuous
 62
     2
100
AcDbLine
 10
105.0
 20
287.0000000000003
 30
0.0
 11
105.0
 21
292.0000000000003
 31
0.0
  0
LINE
  5
1C2
330
53
100
AcDbEntity
  8
1
  6
Continuous
 62
     2
100
AcDbLine
 10
166.0
 20
20.00000000000001
 30
0.0
 11
200.0
 21
20.00000000000001
 31
0.0
  0
LINE
  5
1C3
330
53
100
AcDbEntity
  8
1
  6
Continuous
 62
     2
100
AcDbLine
 10
98.0
 20
27.00000000000001
 30
0.0
 11
98.0
 21
9.99999999999999
 31
0.0
  0
LINE
  5
1C4
330
53
100
AcDbEntity
  8
1
  6
Continuous
 62
     2
100
AcDbLine
 10
115.0
 20
27.00000000000001
 30
0.0
 11
115.0
 21
9.99999999999999
 31
0.0
  0
LINE
  5
1C5
330
53
100
AcDbEntity
  8
1
  6
Continuous
 62
     2
100
AcDbLine
 10
149.0
 20
27.00000000000001
 30
0.0
 11
149.0
 21
10.0
 31
0.0
  0
LINE
  5
1C6
330
53
100
AcDbEntity
  8
1
  6
Continuous
 62
     2
100
AcDbLine
 10
132.0
 20
27.00000000000001
 30
0.0
 11
132.0
 21
9.99999999999999
 31
0.0
  0
LINE
  5
1C7
330
53
100
AcDbEntity
  8
1
  6
Continuous
 62
     2
100
AcDbLine
 10
166.0
 20
27.00000000000001
 30
0.0
 11
166.0
 21
10.0
 31
0.0
  0
LINE
  5
1C8
330
53
100
AcDbEntity
  8
1
  6
Continuous
 62
     2
100
AcDbLine
 10
55.0
 20
277.0000000000003
 30
0.0
 11
25.0
 21
277.0000000000003
 31
0.0
  0
LINE
  5
1C9
330
53
100
AcDbEntity
  8
1
  6
Continuous
 62
     7
100
AcDbLine
 10
25.0
 20
10.0
 30
0.0
 11
25.0
 21
148.5
 31
0.0
  0
LINE
  5
1CA
330
53
100
AcDbEntity
  8
1
  6
Continuous
 62
     2
100
AcDbLine
 10
40.0
 20
287.0000000000003
 30
0.0
 11
40.0
 21
277.0000000000003
 31
0.0
  0
LINE
  5
1CB
330
53
100
AcDbEntity
  8
1
  6
Continuous
 62
     2
100
AcDbLine
 10
55.0
 20
287.0000000000003
 30
0.0
 11
55.0
 21
277.0000000000003
 31
0.0
  0
LINE
  5
1CC
330
53
100
AcDbEntity
  8
1
  6
Continuous
 62
     2
100
AcDbLine
 10
33.0
 20
41.00000000000001
 30
0.0
 11
33.0
 21
27.0
 31
0.0
  0
LINE
  5
1CD
330
53
100
AcDbEntity
  8
1
  6
Continuous
 62
     7
100
AcDbLine
 10
200.0
 20
27.00000000000001
 30
0.0
 11
25.0
 21
27.00000000000001
 31
0.0
  0
LINE
  5
1CE
330
53
100
AcDbEntity
  8
1
  6
Continuous
 62
     7
100
AcDbLine
 10
25.0
 20
41.0
 30
0.0
 11
200.0
 21
41.0
 31
0.0
  0
LINE
  5
1CF
330
53
100
AcDbEntity
  8
1
  6
PHANTOM
 62
     4
100
AcDbLine
 10
0.0
 20
0.0
 30
0.0
 11
210.0
 21
0.0
 31
0.0
  0
LINE
  5
1D0
330
53
100
AcDbEntity
  8
1
  6
PHANTOM
 62
     4
100
AcDbLine
 10
210.0
 20
0.0
 30
0.0
 11
210.0
 21
297.0
 31
0.0
  0
LINE
  5
1D1
330
53
100
AcDbEntity
  8
1
  6
PHANTOM
 62
     4
100
AcDbLine
 10
210.0
 20
297.0
 30
0.0
 11
0.0
 21
297.0
 31
0.0
  0
LINE
  5
1D2
330
53
100
AcDbEntity
  8
1
  6
PHANTOM
 62
     4
100
AcDbLine
 10
0.0
 20
297.0
 30
0.0
 11
0.0
 21
0.0
 31
0.0
  0
LINE
  5
1D3
330
53
100
AcDbEntity
  8
1
  6
Continuous
 62
     7
100
AcDbLine
 10
25.0
 20
10.0
 30
0.0
 11
105.0
 21
10.0
 31
0.0
  0
LINE
  5
1D4
330
53
100
AcDbEntity
  8
1
  6
Continuous
 62
     7
100
AcDbLine
 10
200.0
 20
10.0
 30
0.0
 11
200.0
 21
148.5
 31
0.0
  0
LINE
  5
1D5
330
53
100
AcDbEntity
  8
1
  6
Continuous
 62
     7
100
AcDbLine
 10
200.0
 20
287.0000000000003
 30
0.0
 11
105.0
 21
287.0000000000003
 31
0.0
  0
LINE
  5
1D6
330
53
100
AcDbEntity
  8
1
  6
Continuous
 62
     2
100
AcDbLine
 10
25.0
 20
18.50000000000001
 30
0.0
 11
81.0
 21
18.50000000000001
 31
0.0
  0
LINE
  5
1D7
330
53
100
AcDbEntity
  8
1
  6
Continuous
 62
     2
100
AcDbLine
 10
33.0
 20
27.0
 30
0.0
 11
33.0
 21
10.0
 31
0.0
  0
LINE
  5
1D8
330
53
100
AcDbEntity
  8
1
  6
Continuous
 62
     7
100
AcDbLine
 10
191.0
 20
24.70000000000001
 30
0.0
 11
191.0
 21
22.30000000000001
 31
0.0
  0
LINE
  5
1D9
330
53
100
AcDbEntity
  8
1
  6
Continuous
 62
     7
100
AcDbLine
 10
191.0
 20
24.70000000000001
 30
0.0
 11
196.0
 21
25.50000000000001
 31
0.0
  0
LINE
  5
1DA
330
53
100
AcDbEntity
  8
1
  6
Continuous
 62
     7
100
AcDbLine
 10
196.0
 20
25.50000000000001
 30
0.0
 11
196.0
 21
21.50000000000001
 31
0.0
  0
LINE
  5
1DB
330
53
100
AcDbEntity
  8
1
  6
Continuous
 62
     7
100
AcDbLine
 10
196.0
 20
21.50000000000001
 30
0.0
 11
191.0
 21
22.30000000000001
 31
0.0
  0
LINE
  5
1DC
330
53
100
AcDbEntity
  8
1
  6
DOT_CENTER
 62
     2
100
AcDbLine
 10
184.0
 20
23.50000000000001
 30
0.0
 11
197.0
 21
23.50000000000001
 31
0.0
  0
LINE
  5
1DD
330
53
100
AcDbEntity
  8
1
  6
DOT_CENTER
 62
     2
100
AcDbLine
 10
187.0
 20
26.50000000000001
 30
0.0
 11
187.0
 21
20.50000000000001
 31
0.0
  0
LINE
  5
1DE
330
53
100
AcDbEntity
  8
1
  6
Continuous
 62
     2
100
AcDbLine
 10
81.0
 20
27.00000000000001
 30
0.0
 11
81.0
 21
10.0
 31
0.0
  0
CIRCLE
  5
1DF
330
53
100
AcDbEntity
  8
1
  6
Continuous
 62
     7
100
AcDbCircle
 10
103.5
 20
12.5
 30
0.0
 40
0.2999999999999972
  0
CIRCLE
  5
1E0
330
53
100
AcDbEntity
  8
1
  6
Continuous
 62
     7
100
AcDbCircle
 10
109.5
 20
12.5
 30
0.0
 40
0.2999999999999972
  0
CIRCLE
  5
1E1
330
53
100
AcDbEntity
  8
1
  6
Continuous
 62
     7
100
AcDbCircle
 10
120.5
 20
12.5
 30
0.0
 40
0.2999999999999972
  0
CIRCLE
  5
1E2
330
53
100
AcDbEntity
  8
1
  6
Continuous
 62
     7
100
AcDbCircle
 10
126.5
 20
12.5
 30
0.0
 40
0.2999999999999972
  0
CIRCLE
  5
1E3
330
53
100
AcDbEntity
  8
1
  6
Continuous
 62
     7
100
AcDbCircle
 10
137.5
 20
12.5
 30
0.0
 40
0.3000000000000114
  0
CIRCLE
  5
1E4
330
53
100
AcDbEntity
  8
1
  6
Continuous
 62
     7
100
AcDbCircle
 10
143.5
 20
12.5
 30
0.0
 40
0.3000000000000114
  0
CIRCLE
  5
1E5
330
53
100
AcDbEntity
  8
1
  6
Continuous
 62
     7
100
AcDbCircle
 10
160.5
 20
12.5
 30
0.0
 40
0.3000000000000114
  0
CIRCLE
  5
1E6
330
53
100
AcDbEntity
  8
1
  6
Continuous
 62
     7
100
AcDbCircle
 10
154.5
 20
12.5
 30
0.0
 40
0.3000000000000114
  0
CIRCLE
  5
1E7
330
53
100
AcDbEntity
  8
1
  6
Continuous
 62
     7
100
AcDbCircle
 10
187.0
 20
23.50000000000001
 30
0.0
 40
1.200000000000102
  0
CIRCLE
  5
1E8
330
53
100
AcDbEntity
  8
1
  6
Continuous
 62
     7
100
AcDbCircle
 10
187.0
 20
23.50000000000001
 30
0.0
 40
2.0
  0
CIRCLE
  5
1E9
330
53
100
AcDbEntity
  8
1
  6
DOT_CENTER
 62
     7
100
AcDbCircle
 10
89.5
 20
16.0
 30
0.0
 40
0.1000000000000227
  0
CIRCLE
  5
1EA
330
53
100
AcDbEntity
  8
1
  6
DOT_CENTER
 62
     7
100
AcDbCircle
 10
89.5
 20
18.0
 30
0.0
 40
0.1000000000000227
  0
MTEXT
  5
1EC
330
53
100
AcDbEntity
  8
1
 62
     7
100
AcDbMText
 10
188.5
 20
15.0
 30
0.0
 40
3.0
 41
0.0
 71
     5
 72
     1
  1
三栄水栓製作所
  7
CONVERTER_11
 73
     1
 44
1.0
  0
MTEXT
  5
1ED
330
53
100
AcDbEntity
  8
1
 62
     7
100
AcDbMText
 10
171.5
 20
15.0
 30
0.0
 40
2.5
 41
0.0
 71
     5
 72
     1
  1
株式会社
  7
CONVERTER_11
 73
     1
 44
1.0
  0
MTEXT
  5
1EE
330
53
100
AcDbEntity
  8
1
 62
     2
100
AcDbMText
 10
32.5
 20
282.0000000000003
 30
0.0
 40
5.0
 41
0.0
 71
     5
 72
     1
  1
図番
  7
CONVERTER_11
 73
     1
 44
0.45454545454545
  0
MTEXT
  5
1EF
330
53
100
AcDbEntity
  8
1
 62
     2
100
AcDbMText
 10
29.0
 20
34.00000000000001
 30
0.0
 40
3.5
 41
0.0
 71
     5
 72
     1
  1
備考
  7
CONVERTER_11
 73
     1
 44
0.45454545454545
  0
MTEXT
  5
1F0
330
53
100
AcDbEntity
  8
1
 62
     2
100
AcDbMText
 10
29.0
 20
22.75
 30
0.0
 40
3.5
 41
0.0
 71
     5
 72
     1
  1
品名
  7
CONVERTER_11
 73
     1
 44
0.72727272727273
  0
MTEXT
  5
1F1
330
53
100
AcDbEntity
  8
1
 62
     2
100
AcDbMText
 10
29.0
 20
14.25
 30
0.0
 40
3.5
 41
0.0
 71
     5
 72
     1
  1
品番
  7
CONVERTER_11
 73
     1
 44
0.72727272727273
  0
MTEXT
  5
1F2
330
53
100
AcDbEntity
  8
1
 62
     2
100
AcDbMText
 10
101.5
 20
25.00000000000001
 30
0.0
 40
3.0
 41
0.0
 71
     5
 72
     1
  1
承認
  7
CONVERTER_11
 73
     1
 44
0.59090909090909
  0
MTEXT
  5
1F3
330
53
100
AcDbEntity
  8
1
 62
     2
100
AcDbMText
 10
175.0
 20
23.50000000000001
 30
0.0
 40
3.5
 41
0.0
 71
     5
 72
     1
  1
第三角法
  7
CONVERTER_11
 73
     1
 44
0.54545454545455
  0
MTEXT
  5
1F4
330
53
100
AcDbEntity
  8
1
 62
     2
100
AcDbMText
 10
118.5
 20
25.00000000000001
 30
0.0
 40
3.0
 41
0.0
 71
     5
 72
     1
  1
検図
  7
CONVERTER_11
 73
     1
 44
0.59090909090909
  0
MTEXT
  5
1F5
330
53
100
AcDbEntity
  8
1
 62
     2
100
AcDbMText
 10
152.5
 20
25.00000000000001
 30
0.0
 40
3.0
 41
0.0
 71
     5
 72
     1
  1
設計
  7
CONVERTER_11
 73
     1
 44
0.59090909090909
  0
MTEXT
  5
1F6
330
53
100
AcDbEntity
  8
1
 62
     2
100
AcDbMText
 10
135.5
 20
25.00000000000001
 30
0.0
 40
3.0
 41
0.0
 71
     5
 72
     1
  1
製図
  7
CONVERTER_11
 73
     1
 44
0.59090909090909
  0
MTEXT
  5
1F7
330
53
100
AcDbEntity
  8
1
 62
     2
100
AcDbMText
 10
89.5
 20
24.00000000000001
 30
0.0
 40
3.5
 41
0.0
 71
     5
 72
     1
  1
尺度
  7
CONVERTER_11
 73
     1
 44
0.54545454545455
  0
MTEXT
  5
1F8
330
53
100
AcDbEntity
  8
1
 62
   250
100
AcDbMText
 10
25.0
 20
5.0
 30
0.0
 40
3.5
 41
0.0
 71
     4
 72
     1
  1
備考欄の文字列 原点位置=4
  7
CONVERTER_11
 73
     1
 44
0.54545454545455
  0
ENDBLK
  5
55
330
53
100
AcDbEntity
  8
0
100
AcDbBlockEnd
  0
BLOCK
  5
57
330
56
100
AcDbEntity
  8
0
100
AcDbBlockBegin
  2
36-27
 70
     0
 10
155.6617867375143
 20
139.6692616699
 30
0.0
  3
36-27
  1

  0
LINE
  5
1F9
330
56
100
AcDbEntity
  8
1
  6
Continuous
 62
     7
100
AcDbLine
 10
114.7092901941679
 20
282.238289003249
 30
0.0
 11
114.7092901941679
 21
286.0383876793361
 31
0.0
  0
LINE
  5
1FA
330
56
100
AcDbEntity
  8
1
  6
Continuous
 62
     7
100
AcDbLine
 10
396.7256451594625
 20
282.238289003249
 30
0.0
 11
396.7256451594625
 21
286.0383876793361
 31
0.0
  0
LINE
  5
1FB
330
56
100
AcDbEntity
  8
1
  6
Continuous
 62
     7
100
AcDbLine
 10
124.2092901941679
 20
286.0383876793361
 30
0.0
 11
124.2092901941679
 21
282.2382890032491
 31
0.0
  0
LINE
  5
1FC
330
56
100
AcDbEntity
  8
1
  6
Continuous
 62
     7
100
AcDbLine
 10
406.2256451594626
 20
286.0383876793361
 30
0.0
 11
406.2256451594627
 21
282.238289003249
 31
0.0
  0
ENDBLK
  5
58
330
56
100
AcDbEntity
  8
0
100
AcDbBlockEnd
  0
BLOCK
  5
5A
330
59
100
AcDbEntity
  8
0
100
AcDbBlockBegin
  2
32-1-16
 70
     0
 10
69.92990532379372
 20
418.7242198094452
 30
0.0
  3
32-1-16
  1

  0
LINE
  5
1FD
330
59
100
AcDbEntity
  8
1
  6
Continuous
 62
     7
100
AcDbLine
 10
109.7069943910288
 20
535.1001181608724
 30
0.0
 11
106.6984308832665
 21
533.3631232097916
 31
0.0
  0
LINE
  5
1FE
330
59
100
AcDbEntity
  8
1
  6
Continuous
 62
     7
100
AcDbLine
 10
129.2115859973079
 20
535.100118160872
 30
0.0
 11
132.2201495050695
 21
533.3631232097916
 31
0.0
  0
LINE
  5
1FF
330
59
100
AcDbEntity
  8
1
  6
Continuous
 62
     7
100
AcDbLine
 10
123.9313393811191
 20
510.980932495328
 30
0.0
 11
132.2201495050695
 21
515.7664792516524
 31
0.0
  0
LINE
  5
200
330
59
100
AcDbEntity
  8
1
  6
Continuous
 62
     7
100
AcDbLine
 10
133.4592901941679
 20
211.525210429623
 30
0.0
 11
133.4592901941679
 21
218.666638858166
 31
0.0
  0
LINE
  5
201
330
59
100
AcDbEntity
  8
1
  6
Continuous
 62
     7
100
AcDbLine
 10
132.7592901941679
 20
219.2383876793361
 30
0.0
 11
119.4592901941677
 21
219.2383876793361
 31
0.0
  0
LINE
  5
202
330
59
100
AcDbEntity
  8
1
  6
Continuous
 62
     7
100
AcDbLine
 10
131.0173112558986
 20
210.2383876793361
 30
0.0
 11
130.9592901941679
 21
210.2383876793361
 31
0.0
  0
LINE
  5
203
330
59
100
AcDbEntity
  8
1
  6
Continuous
 62
     7
100
AcDbLine
 10
119.4592901941677
 20
209.2383876793361
 30
0.0
 11
129.2272393865991
 21
209.2383876793361
 31
0.0
  0
LINE
  5
204
330
59
100
AcDbEntity
  8
1
  6
Continuous
 62
     7
100
AcDbLine
 10
105.4592901941679
 20
218.666638858166
 30
0.0
 11
105.4592901941679
 21
211.525210429623
 31
0.0
  0
LINE
  5
205
330
59
100
AcDbEntity
  8
1
  6
Continuous
 62
     7
100
AcDbLine
 10
119.4592901941677
 20
219.2383876793361
 30
0.0
 11
106.1592901941679
 21
219.2383876793361
 31
0.0
  0
LINE
  5
206
330
59
100
AcDbEntity
  8
1
  6
Continuous
 62
     7
100
AcDbLine
 10
107.9592901941677
 20
210.2383876793361
 30
0.0
 11
107.9012691324373
 21
210.2383876793361
 31
0.0
  0
LINE
  5
207
330
59
100
AcDbEntity
  8
1
  6
Continuous
 62
     7
100
AcDbLine
 10
109.6913410017365
 20
209.2383876793361
 30
0.0
 11
119.4592901941677
 21
209.2383876793361
 31
0.0
  0
LINE
  5
208
330
59
100
AcDbEntity
  8
1
  6
Continuous
 62
     7
100
AcDbLine
 10
379.7756451594626
 20
219.2383876793361
 30
0.0
 11
366.4756451594626
 21
219.2383876793361
 31
0.0
  0
LINE
  5
209
330
59
100
AcDbEntity
  8
1
  6
Continuous
 62
     7
100
AcDbLine
 10
379.6626451594626
 20
219.2383876793361
 30
0.0
 11
379.7756451594626
 21
219.2383876793361
 31
0.0
  0
LINE
  5
20A
330
59
100
AcDbEntity
  8
1
  6
Continuous
 62
     7
100
AcDbLine
 10
378.0336662211931
 20
210.2383876793361
 30
0.0
 11
377.9756451594626
 21
210.2383876793361
 31
0.0
  0
LINE
  5
20B
330
59
100
AcDbEntity
  8
1
  6
Continuous
 62
     7
100
AcDbLine
 10
366.4756451594626
 20
209.2383876793361
 30
0.0
 11
376.2435943518938
 21
209.2383876793361
 31
0.0
  0
LINE
  5
20C
330
59
100
AcDbEntity
  8
1
  6
Continuous
 62
     7
100
AcDbLine
 10
106.6984308832665
 20
515.7664792516524
 30
0.0
 11
114.9872410072172
 21
510.9809324953278
 31
0.0
  0
LINE
  5
20D
330
59
100
AcDbEntity
  8
1
  6
Continuous
 62
     7
100
AcDbLine
 10
105.4592901941679
 20
531.2168685785471
 30
0.0
 11
105.4592901941679
 21
517.912733882897
 31
0.0
  0
LINE
  5
20E
330
59
100
AcDbEntity
  8
1
  6
Continuous
 62
     7
100
AcDbLine
 10
133.4592901941679
 20
531.2168685785471
 30
0.0
 11
133.4592901941679
 21
517.912733882897
 31
0.0
  0
LINE
  5
20F
330
59
100
AcDbEntity
  8
1
  6
Continuous
 62
     7
100
AcDbLine
 10
366.4756451594626
 20
219.2383876793361
 30
0.0
 11
353.1756451594625
 21
219.2383876793361
 31
0.0
  0
LINE
  5
210
330
59
100
AcDbEntity
  8
1
  6
Continuous
 62
     7
100
AcDbLine
 10
353.1756451594625
 20
219.2383876793361
 30
0.0
 11
353.2886451594625
 21
219.2383876793361
 31
0.0
  0
LINE
  5
211
330
59
100
AcDbEntity
  8
1
  6
Continuous
 62
     7
100
AcDbLine
 10
354.9756451594626
 20
210.2383876793361
 30
0.0
 11
354.917624097732
 21
210.2383876793361
 31
0.0
  0
LINE
  5
212
330
59
100
AcDbEntity
  8
1
  6
Continuous
 62
     7
100
AcDbLine
 10
356.7076959670315
 20
209.2383876793361
 30
0.0
 11
366.4756451594626
 21
209.2383876793361
 31
0.0
  0
ARC
  5
213
330
59
100
AcDbEntity
  8
1
  6
Continuous
 62
     7
100
AcDbCircle
 10
129.9592901941679
 20
215.0959246438945
 30
0.0
 40
5.000000000000057
100
AcDbArc
 50
45.57299599919494
 51
55.94420225743207
  0
ARC
  5
214
330
59
100
AcDbEntity
  8
1
  6
Continuous
 62
     7
100
AcDbCircle
 10
129.9592901941679
 20
215.0959246438945
 30
0.0
 40
4.999999999999992
100
AcDbArc
 50
285.3375576695544
 51
314.427004000805
  0
ARC
  5
215
330
59
100
AcDbEntity
  8
1
  6
Continuous
 62
     7
100
AcDbCircle
 10
108.9592901941677
 20
215.0959246438945
 30
0.0
 40
4.999999999999905
100
AcDbArc
 50
124.055797742566
 51
134.4270040008035
  0
ARC
  5
216
330
59
100
AcDbEntity
  8
1
  6
Continuous
 62
     7
100
AcDbCircle
 10
108.9592901941677
 20
215.0959246438945
 30
0.0
 40
4.999999999999917
100
AcDbArc
 50
225.5729959991965
 51
254.6624423304468
  0
ARC
  5
217
330
59
100
AcDbEntity
  8
1
  6
Continuous
 62
     7
100
AcDbCircle
 10
376.9756451594626
 20
215.0959246438945
 30
0.0
 40
5.000000000000014
100
AcDbArc
 50
285.3375576695554
 51
55.94420225743207
  0
ARC
  5
218
330
59
100
AcDbEntity
  8
1
  6
Continuous
 62
     7
100
AcDbCircle
 10
119.4592901941679
 20
524.5648012307221
 30
0.0
 40
15.50000000000013
100
AcDbArc
 50
325.4146209151612
 51
334.5853790848388
  0
ARC
  5
219
330
59
100
AcDbEntity
  8
1
  6
Continuous
 62
     7
100
AcDbCircle
 10
119.4592901941679
 20
524.5648012307221
 30
0.0
 40
15.50000000000002
100
AcDbArc
 50
205.4146209151612
 51
214.5853790848392
  0
ARC
  5
21A
330
59
100
AcDbEntity
  8
1
  6
Continuous
 62
     7
100
AcDbCircle
 10
119.4592901941679
 20
524.5648012307221
 30
0.0
 40
15.49999999999992
100
AcDbArc
 50
145.4146209151611
 51
154.5853790848392
  0
ARC
  5
21B
330
59
100
AcDbEntity
  8
1
  6
Continuous
 62
     7
100
AcDbCircle
 10
119.4592901941679
 20
524.5648012307221
 30
0.0
 40
15.49999999999996
100
AcDbArc
 50
25.41462091516082
 51
34.58537908483856
  0
ARC
  5
21C
330
59
100
AcDbEntity
  8
1
  6
Continuous
 62
     7
100
AcDbCircle
 10
355.9756451594626
 20
215.0959246438945
 30
0.0
 40
5.00000000000008
100
AcDbArc
 50
124.055797742569
 51
254.6624423304459
  0
SPLINE
  5
21D
330
59
100
AcDbEntity
  8
1
  6
Continuous
 62
     7
100
AcDbSpline
210
0.0
220
0.0
230
1.0
 70
    11
 71
     3
 72
    79
 73
    75
 74
    73
 42
0.000000001
 43
0.0000000001
 44
0.00000001
 40
0.0
 40
0.0
 40
0.0
 40
0.0
 40
0.2903672471832135
 40
0.5807357518971925
 40
0.872407097735945
 40
1.164081911024015
 40
1.45818992452223
 40
1.752302920472758
 40
2.049663201046351
 40
2.347029106415344
 40
2.64804578611582
 40
2.949067936325138
 40
3.253697746552208
 40
3.558332275329915
 40
3.86610485778
 40
4.173881019539971
 40
4.483966061108291
 40
4.794053321447545
 40
5.105362217358571
 40
5.416671863434687
 40
5.727981509500035
 40
6.039290405378586
 40
6.349377665663533
 40
6.659462707155243
 40
6.967238868816554
 40
7.275011451144493
 40
7.579645979777224
 40
7.884275789834247
 40
8.185297939849494
 40
8.486314619328304
 40
8.783680524448862
 40
9.08104080474091
 40
9.37515380037404
 40
9.669261813502082
 40
9.960936626337025
 40
10.25260797152385
 40
10.54297647485853
 40
10.83334373090407
 40
11.12371098694967
 40
11.41407949028446
 40
11.70575083547118
 40
11.99742564830617
 40
12.29153366143422
 40
12.5856466570674
 40
12.88300693735954
 40
13.18037284248001
 40
13.48138952195882
 40
13.78241167197407
 40
14.08704148203106
 40
14.39167601066373
 40
14.69944859299177
 40
15.00722475465301
 40
15.31730979614474
 40
15.62739705642967
 40
15.93870595230822
 40
16.25001559837357
 40
16.56132524444969
 40
16.87263414036071
 40
17.18272140069994
 40
17.4928064422683
 40
17.80058260402827
 40
18.10835518647838
 40
18.41298971525605
 40
18.71761952548306
 40
19.01864167569238
 40
19.31965835539285
 40
19.61702426076187
 40
19.91438454133544
 40
20.20849753728593
 40
20.50260555078424
 40
20.7942803640723
 40
21.085951709911
 40
21.37632021462504
 40
21.66668746180836
 40
21.66668746180836
 40
21.66668746180836
 40
21.66668746180836
 10
354.3512895064804
 20
211.5252104296231
 30
0.0
 10
354.2544656997707
 20
211.5278420269437
 30
0.0
 10
354.0608176668549
 20
211.5331052277621
 30
0.0
 10
353.7724567905482
 20
211.5754002999442
 30
0.0
 10
353.4887446465689
 20
211.6426111924374
 30
0.0
 10
353.2113195837833
 20
211.7366663577069
 30
0.0
 10
352.9429986724022
 20
211.8560978153903
 30
0.0
 10
352.6849989090314
 20
212.0003733108767
 30
0.0
 10
352.4401969057752
 20
212.1679773860796
 30
0.0
 10
352.2095006807127
 20
212.3581399402395
 30
0.0
 10
351.9956049734363
 20
212.5687626605512
 30
0.0
 10
351.7992314308566
 20
212.7989842763828
 30
0.0
 10
351.6226820856933
 20
213.0462206997808
 30
0.0
 10
351.4665792890228
 20
213.3094548740276
 30
0.0
 10
351.3326902744136
 20
213.5858184286093
 30
0.0
 10
351.2215622574102
 20
213.8740318724707
 30
0.0
 10
351.1343714974284
 20
214.1711703156238
 30
0.0
 10
351.071545890788
 20
214.4755934696554
 30
0.0
 10
351.0336973408329
 20
214.7845300819478
 30
0.0
 10
351.0210350786946
 20
215.0959246345222
 30
0.0
 10
351.0336973404714
 20
215.4073191870992
 30
0.0
 10
351.0715458900641
 20
215.7162557994077
 30
0.0
 10
351.1343714963401
 20
216.020678953442
 30
0.0
 10
351.2215622559555
 20
216.3178173966853
 30
0.0
 10
351.3326902725883
 20
216.6060308403514
 30
0.0
 10
351.466579286823
 20
216.8823943958397
 30
0.0
 10
351.6226820831133
 20
217.1456285669614
 30
0.0
 10
351.7992314278904
 20
217.3928650022256
 30
0.0
 10
351.9956049700752
 20
217.623086574602
 30
0.0
 10
352.2095006769481
 20
217.8337094564188
 30
0.0
 10
352.4401969015936
 20
218.0238714152958
 30
0.0
 10
352.6849989044156
 20
218.1914776988893
 30
0.0
 10
352.9429986673236
 20
218.3357450393507
 30
0.0
 10
353.2113195781961
 20
218.4552067786893
 30
0.0
 10
353.4887446403512
 20
218.5491498257432
 30
0.0
 10
353.7724567833919
 20
218.6167777981804
 30
0.0
 10
354.0608176615735
 20
218.6575229230228
 30
0.0
 10
354.3512895064804
 20
218.6711968009479
 30
0.0
 10
354.6417613513873
 20
218.6575229230228
 30
0.0
 10
354.9301222295691
 20
218.6167777981805
 30
0.0
 10
355.2138343726097
 20
218.5491498257433
 30
0.0
 10
355.4912594347647
 20
218.4552067786893
 30
0.0
 10
355.7595803456373
 20
218.3357450393507
 30
0.0
 10
356.0175801085454
 20
218.1914776988893
 30
0.0
 10
356.2623821113676
 20
218.0238714152958
 30
0.0
 10
356.4930783360127
 20
217.8337094564187
 30
0.0
 10
356.7069740428857
 20
217.623086574602
 30
0.0
 10
356.9033475850705
 20
217.3928650022256
 30
0.0
 10
357.0798969298477
 20
217.1456285669614
 30
0.0
 10
357.2359997261377
 20
216.8823943958396
 30
0.0
 10
357.3698887403729
 20
216.6060308403515
 30
0.0
 10
357.4810167570052
 20
216.3178173966852
 30
0.0
 10
357.5682075166209
 20
216.0206789534421
 30
0.0
 10
357.6310331228968
 20
215.7162557994077
 30
0.0
 10
357.6688816724895
 20
215.4073191870992
 30
0.0
 10
357.6815439342662
 20
215.0959246345222
 30
0.0
 10
357.6688816721279
 20
214.7845300819478
 30
0.0
 10
357.6310331221729
 20
214.4755934696554
 30
0.0
 10
357.5682075155327
 20
214.1711703156238
 30
0.0
 10
357.4810167555505
 20
213.8740318724708
 30
0.0
 10
357.3698887385474
 20
213.5858184286092
 30
0.0
 10
357.2359997239379
 20
213.3094548740277
 30
0.0
 10
357.0798969272677
 20
213.0462206997808
 30
0.0
 10
356.9033475821042
 20
212.7989842763828
 30
0.0
 10
356.7069740395248
 20
212.5687626605513
 30
0.0
 10
356.4930783322482
 20
212.3581399402394
 30
0.0
 10
356.2623821071858
 20
212.1679773860797
 30
0.0
 10
356.0175801039296
 20
212.0003733108766
 30
0.0
 10
355.7595803405588
 20
211.8560978153904
 30
0.0
 10
355.4912594291776
 20
211.7366663577068
 30
0.0
 10
355.213834366392
 20
211.6426111924374
 30
0.0
 10
354.9301222224128
 20
211.5754002999442
 30
0.0
 10
354.6417613461058
 20
211.5331052277621
 30
0.0
 10
354.4481133131903
 20
211.5278420269437
 30
0.0
 10
354.3512895064804
 20
211.5252104296231
 30
0.0
 11
354.3512895064804
 21
211.5252104296231
 31
0.0
 11
354.0612417446823
 21
211.5388280424756
 31
0.0
 11
353.7737298201466
 21
211.5794576018891
 31
0.0
 11
353.489992510278
 21
211.6470246997276
 31
0.0
 11
353.2137189926228
 21
211.7405508458083
 31
0.0
 11
352.9450019305241
 21
211.8600944112461
 31
0.0
 11
352.6882726695242
 21
212.0035954246813
 31
0.0
 11
352.4428553797421
 21
212.1715045973881
 31
0.0
 11
352.2133562714893
 21
212.360598862086
 31
0.0
 11
351.9988017124525
 21
212.5717324279156
 31
0.0
 11
351.8033998929532
 21
212.8007137892292
 31
0.0
 11
351.626296487813
 21
213.0485720252267
 31
0.0
 11
351.4708598510297
 21
213.3105675367588
 31
0.0
 11
351.3366066224066
 21
213.5875152450258
 31
0.0
 11
351.2258402066194
 21
213.8746684565544
 31
0.0
 11
351.1384824511465
 21
214.1721938430017
 31
0.0
 11
351.0757857576317
 21
214.4758766276169
 31
0.0
 11
351.0379033376626
 21
214.7848720174894
 31
0.0
 11
351.025255832568
 21
215.0959246438945
 31
0.0
 11
351.0379033376626
 21
215.4069772702997
 31
0.0
 11
351.0757857576317
 21
215.7159726601722
 31
0.0
 11
351.1384824511464
 21
216.0196554447874
 31
0.0
 11
351.2258402066194
 21
216.3171808312346
 31
0.0
 11
351.3366066224066
 21
216.6043340427632
 31
0.0
 11
351.4708598510297
 21
216.8812817510302
 31
0.0
 11
351.626296487813
 21
217.1432772625623
 31
0.0
 11
351.8033998929532
 21
217.3911354985598
 31
0.0
 11
351.9988017124525
 21
217.6201168598735
 31
0.0
 11
352.2133562714893
 21
217.8312504257031
 31
0.0
 11
352.4428553797421
 21
218.020344690401
 31
0.0
 11
352.6882726695242
 21
218.1882538631078
 31
0.0
 11
352.945001930524
 21
218.331754876543
 31
0.0
 11
353.2137189926228
 21
218.4512984419807
 31
0.0
 11
353.4899925102779
 21
218.5448245880614
 31
0.0
 11
353.7737298201466
 21
218.6123916858999
 31
0.0
 11
354.0612417446823
 21
218.6530212453134
 31
0.0
 11
354.3512895064804
 21
218.6666388581659
 31
0.0
 11
354.6413372682785
 21
218.6530212453134
 31
0.0
 11
354.9288491928143
 21
218.6123916858999
 31
0.0
 11
355.2125865026829
 21
218.5448245880614
 31
0.0
 11
355.4888600203381
 21
218.4512984419807
 31
0.0
 11
355.7575770824369
 21
218.331754876543
 31
0.0
 11
356.0143063434367
 21
218.1882538631078
 31
0.0
 11
356.2597236332189
 21
218.020344690401
 31
0.0
 11
356.4892227414716
 21
217.8312504257031
 31
0.0
 11
356.7037773005085
 21
217.6201168598735
 31
0.0
 11
356.8991791200077
 21
217.3911354985598
 31
0.0
 11
357.0762825251479
 21
217.1432772625623
 31
0.0
 11
357.2317191619311
 21
216.8812817510302
 31
0.0
 11
357.3659723905543
 21
216.6043340427632
 31
0.0
 11
357.4767388063414
 21
216.3171808312346
 31
0.0
 11
357.5640965618144
 21
216.0196554447874
 31
0.0
 11
357.6267932553291
 21
215.7159726601722
 31
0.0
 11
357.6646756752982
 21
215.4069772702997
 31
0.0
 11
357.6773231803929
 21
215.0959246438945
 31
0.0
 11
357.6646756752982
 21
214.7848720174894
 31
0.0
 11
357.6267932553291
 21
214.4758766276169
 31
0.0
 11
357.5640965618144
 21
214.1721938430017
 31
0.0
 11
357.4767388063414
 21
213.8746684565544
 31
0.0
 11
357.3659723905542
 21
213.5875152450258
 31
0.0
 11
357.2317191619311
 21
213.3105675367588
 31
0.0
 11
357.0762825251479
 21
213.0485720252266
 31
0.0
 11
356.8991791200077
 21
212.8007137892292
 31
0.0
 11
356.7037773005084
 21
212.5717324279156
 31
0.0
 11
356.4892227414716
 21
212.360598862086
 31
0.0
 11
356.2597236332188
 21
212.1715045973881
 31
0.0
 11
356.0143063434367
 21
212.0035954246813
 31
0.0
 11
355.7575770824369
 21
211.860094411246
 31
0.0
 11
355.4888600203381
 21
211.7405508458083
 31
0.0
 11
355.2125865026829
 21
211.6470246997276
 31
0.0
 11
354.9288491928143
 21
211.5794576018891
 31
0.0
 11
354.6413372682786
 21
211.5388280424756
 31
0.0
 11
354.3512895064804
 21
211.5252104296231
 31
0.0
  0
SPLINE
  5
21E
330
59
100
AcDbEntity
  8
1
  6
Continuous
 62
     7
100
AcDbSpline
210
0.0
220
0.0
230
1.0
 70
    11
 71
     3
 72
    79
 73
    75
 74
    73
 42
0.000000001
 43
0.0000000001
 44
0.00000001
 40
0.0
 40
0.0
 40
0.0
 40
0.0
 40
0.2903672471832716
 40
0.5807357518972467
 40
0.8724070977359439
 40
1.164081911024014
 40
1.45818992452228
 40
1.752302920472859
 40
2.049663201046498
 40
2.347029106415535
 40
2.648045786116011
 40
2.949067936325255
 40
3.253697746552326
 40
3.558332275329974
 40
3.866104857780084
 40
4.173881019540075
 40
4.483966061108426
 40
4.794053321447658
 40
5.105362217358691
 40
5.416671863434814
 40
5.727981509500166
 40
6.039290405378731
 40
6.349377665663678
 40
6.659462707155388
 40
6.967238868816699
 40
7.275011451144687
 40
7.579645979777361
 40
7.884275789834384
 40
8.185297939849631
 40
8.486314619328361
 40
8.783680524448918
 40
9.081040804741061
 40
9.37515380037429
 40
9.669261813502333
 40
9.96093662633732
 40
10.25260797152405
 40
10.54297647485872
 40
10.83334373090432
 40
11.12371098694981
 40
11.41407949028437
 40
11.7057508354711
 40
11.99742564830608
 40
12.29153366143428
 40
12.58564665706761
 40
12.88300693735964
 40
13.18037284248017
 40
13.48138952195894
 40
13.78241167197426
 40
14.08704148203125
 40
14.39167601066393
 40
14.69944859299194
 40
15.0072247546532
 40
15.31730979614491
 40
15.62739705642985
 40
15.93870595230841
 40
16.25001559837376
 40
16.56132524444988
 40
16.8726341403609
 40
17.18272140070015
 40
17.49280644226847
 40
17.80058260402844
 40
18.10835518647855
 40
18.41298971525622
 40
18.71761952548323
 40
19.01864167569259
 40
19.31965835539306
 40
19.61702426076199
 40
19.9143845413356
 40
20.20849753728629
 40
20.5026055507847
 40
20.79428036407275
 40
21.08595170991147
 40
21.37632021462533
 40
21.66668746180849
 40
21.66668746180849
 40
21.66668746180849
 40
21.66668746180849
 10
378.6000008124447
 20
211.5252104296231
 30
0.0
 10
378.6968246191544
 20
211.5278420269437
 30
0.0
 10
378.8904726520702
 20
211.5331052277623
 30
0.0
 10
379.1788335283767
 20
211.5754002999441
 30
0.0
 10
379.4625456723563
 20
211.6426111924374
 30
0.0
 10
379.7399707351418
 20
211.7366663577068
 30
0.0
 10
380.008291646523
 20
211.8560978153904
 30
0.0
 10
380.2662914098938
 20
212.0003733108767
 30
0.0
 10
380.5110934131502
 20
212.1679773860796
 30
0.0
 10
380.7417896382126
 20
212.3581399402395
 30
0.0
 10
380.9556853454891
 20
212.5687626605511
 30
0.0
 10
381.1520588880685
 20
212.7989842763829
 30
0.0
 10
381.3286082332319
 20
213.0462206997807
 30
0.0
 10
381.4847110299023
 20
213.3094548740277
 30
0.0
 10
381.6186000445118
 20
213.5858184286093
 30
0.0
 10
381.7297280615148
 20
213.8740318724707
 30
0.0
 10
381.816918821497
 20
214.1711703156238
 30
0.0
 10
381.8797444281373
 20
214.4755934696555
 30
0.0
 10
381.9175929780923
 20
214.7845300819477
 30
0.0
 10
381.9302552402308
 20
215.0959246345224
 30
0.0
 10
381.9175929784539
 20
215.4073191870991
 30
0.0
 10
381.8797444288612
 20
215.7162557994077
 30
0.0
 10
381.8169188225851
 20
216.020678953442
 30
0.0
 10
381.7297280629697
 20
216.3178173966853
 30
0.0
 10
381.6186000463371
 20
216.6060308403515
 30
0.0
 10
381.4847110321019
 20
216.8823943958396
 30
0.0
 10
381.3286082358121
 20
217.1456285669614
 30
0.0
 10
381.1520588910347
 20
217.3928650022256
 30
0.0
 10
380.95568534885
 20
217.6230865746019
 30
0.0
 10
380.7417896419771
 20
217.8337094564188
 30
0.0
 10
380.5110934173317
 20
218.0238714152957
 30
0.0
 10
380.2662914145095
 20
218.1914776988893
 30
0.0
 10
380.0082916516016
 20
218.3357450393507
 30
0.0
 10
379.7399707407289
 20
218.4552067786894
 30
0.0
 10
379.4625456785738
 20
218.5491498257431
 30
0.0
 10
379.1788335355333
 20
218.6167777981805
 30
0.0
 10
378.8904726573517
 20
218.6575229230229
 30
0.0
 10
378.6000008124447
 20
218.6711968009479
 30
0.0
 10
378.309528967538
 20
218.6575229230228
 30
0.0
 10
378.0211680893563
 20
218.6167777981805
 30
0.0
 10
377.7374559463158
 20
218.5491498257431
 30
0.0
 10
377.4600308841606
 20
218.4552067786892
 30
0.0
 10
377.1917099732879
 20
218.3357450393507
 30
0.0
 10
376.9337102103799
 20
218.1914776988894
 30
0.0
 10
376.6889082075576
 20
218.0238714152956
 30
0.0
 10
376.4582119829124
 20
217.8337094564189
 30
0.0
 10
376.2443162760395
 20
217.6230865746019
 30
0.0
 10
376.0479427338545
 20
217.3928650022256
 30
0.0
 10
375.8713933890775
 20
217.1456285669614
 30
0.0
 10
375.7152905927874
 20
216.8823943958397
 30
0.0
 10
375.5814015785524
 20
216.6060308403514
 30
0.0
 10
375.4702735619198
 20
216.3178173966853
 30
0.0
 10
375.3830828023044
 20
216.0206789534421
 30
0.0
 10
375.3202571960284
 20
215.7162557994077
 30
0.0
 10
375.2824086464357
 20
215.4073191870991
 30
0.0
 10
375.2697463846589
 20
215.0959246345223
 30
0.0
 10
375.2824086467972
 20
214.7845300819478
 30
0.0
 10
375.3202571967523
 20
214.4755934696554
 30
0.0
 10
375.3830828033927
 20
214.1711703156238
 30
0.0
 10
375.4702735633746
 20
213.8740318724707
 30
0.0
 10
375.5814015803776
 20
213.5858184286093
 30
0.0
 10
375.7152905949872
 20
213.3094548740276
 30
0.0
 10
375.8713933916574
 20
213.0462206997808
 30
0.0
 10
376.0479427368209
 20
212.7989842763828
 30
0.0
 10
376.2443162794003
 20
212.5687626605512
 30
0.0
 10
376.458211986677
 20
212.3581399402395
 30
0.0
 10
376.6889082117393
 20
212.1679773860796
 30
0.0
 10
376.9337102149955
 20
212.0003733108766
 30
0.0
 10
377.1917099783665
 20
211.8560978153903
 30
0.0
 10
377.4600308897477
 20
211.7366663577068
 30
0.0
 10
377.7374559525335
 20
211.6426111924375
 30
0.0
 10
378.0211680965126
 20
211.5754002999441
 30
0.0
 10
378.3095289728195
 20
211.5331052277623
 30
0.0
 10
378.5031770057349
 20
211.5278420269437
 30
0.0
 10
378.6000008124447
 20
211.5252104296231
 30
0.0
 11
378.6000008124447
 21
211.5252104296231
 31
0.0
 11
378.8900485742428
 21
211.5388280424756
 31
0.0
 11
379.1775604987785
 21
211.5794576018891
 31
0.0
 11
379.4612978086471
 21
211.6470246997276
 31
0.0
 11
379.7375713263023
 21
211.7405508458083
 31
0.0
 11
380.006288388401
 21
211.8600944112461
 31
0.0
 11
380.263017649401
 21
212.0035954246813
 31
0.0
 11
380.5084349391832
 21
212.1715045973881
 31
0.0
 11
380.737934047436
 21
212.360598862086
 31
0.0
 11
380.9524886064728
 21
212.5717324279156
 31
0.0
 11
381.147890425972
 21
212.8007137892292
 31
0.0
 11
381.3249938311122
 21
213.0485720252267
 31
0.0
 11
381.4804304678954
 21
213.3105675367588
 31
0.0
 11
381.6146836965186
 21
213.5875152450258
 31
0.0
 11
381.7254501123058
 21
213.8746684565544
 31
0.0
 11
381.8128078677788
 21
214.1721938430017
 31
0.0
 11
381.8755045612935
 21
214.4758766276169
 31
0.0
 11
381.9133869812627
 21
214.7848720174894
 31
0.0
 11
381.9260344863574
 21
215.0959246438945
 31
0.0
 11
381.9133869812627
 21
215.4069772702997
 31
0.0
 11
381.8755045612935
 21
215.7159726601722
 31
0.0
 11
381.8128078677788
 21
216.0196554447874
 31
0.0
 11
381.7254501123058
 21
216.3171808312346
 31
0.0
 11
381.6146836965186
 21
216.6043340427632
 31
0.0
 11
381.4804304678954
 21
216.8812817510302
 31
0.0
 11
381.3249938311122
 21
217.1432772625623
 31
0.0
 11
381.147890425972
 21
217.3911354985598
 31
0.0
 11
380.9524886064727
 21
217.6201168598735
 31
0.0
 11
380.737934047436
 21
217.8312504257031
 31
0.0
 11
380.5084349391832
 21
218.020344690401
 31
0.0
 11
380.263017649401
 21
218.1882538631078
 31
0.0
 11
380.0062883884011
 21
218.331754876543
 31
0.0
 11
379.7375713263023
 21
218.4512984419807
 31
0.0
 11
379.4612978086471
 21
218.5448245880614
 31
0.0
 11
379.1775604987785
 21
218.6123916858999
 31
0.0
 11
378.8900485742428
 21
218.6530212453134
 31
0.0
 11
378.6000008124447
 21
218.6666388581659
 31
0.0
 11
378.3099530506467
 21
218.6530212453134
 31
0.0
 11
378.0224411261111
 21
218.6123916858999
 31
0.0
 11
377.7387038162425
 21
218.5448245880614
 31
0.0
 11
377.4624302985873
 21
218.4512984419807
 31
0.0
 11
377.1937132364884
 21
218.331754876543
 31
0.0
 11
376.9369839754884
 21
218.1882538631078
 31
0.0
 11
376.6915666857063
 21
218.020344690401
 31
0.0
 11
376.4620675774535
 21
217.8312504257031
 31
0.0
 11
376.2475130184167
 21
217.6201168598735
 31
0.0
 11
376.0521111989174
 21
217.3911354985598
 31
0.0
 11
375.8750077937772
 21
217.1432772625623
 31
0.0
 11
375.719571156994
 21
216.8812817510302
 31
0.0
 11
375.5853179283708
 21
216.6043340427632
 31
0.0
 11
375.4745515125837
 21
216.3171808312346
 31
0.0
 11
375.3871937571107
 21
216.0196554447874
 31
0.0
 11
375.324497063596
 21
215.7159726601722
 31
0.0
 11
375.2866146436269
 21
215.4069772702997
 31
0.0
 11
375.2739671385322
 21
215.0959246438945
 31
0.0
 11
375.2866146436269
 21
214.7848720174894
 31
0.0
 11
375.324497063596
 21
214.4758766276169
 31
0.0
 11
375.3871937571108
 21
214.1721938430017
 31
0.0
 11
375.4745515125837
 21
213.8746684565544
 31
0.0
 11
375.5853179283708
 21
213.5875152450258
 31
0.0
 11
375.719571156994
 21
213.3105675367588
 31
0.0
 11
375.8750077937772
 21
213.0485720252266
 31
0.0
 11
376.0521111989174
 21
212.8007137892292
 31
0.0
 11
376.2475130184167
 21
212.5717324279156
 31
0.0
 11
376.4620675774535
 21
212.360598862086
 31
0.0
 11
376.6915666857062
 21
212.1715045973881
 31
0.0
 11
376.9369839754884
 21
212.0035954246813
 31
0.0
 11
377.1937132364885
 21
211.860094411246
 31
0.0
 11
377.4624302985873
 21
211.7405508458083
 31
0.0
 11
377.7387038162425
 21
211.6470246997276
 31
0.0
 11
378.0224411261111
 21
211.5794576018891
 31
0.0
 11
378.3099530506467
 21
211.5388280424756
 31
0.0
 11
378.6000008124447
 21
211.5252104296231
 31
0.0
  0
SPLINE
  5
21F
330
59
100
AcDbEntity
  8
1
  6
Continuous
 62
     7
100
AcDbSpline
210
0.0
220
0.0
230
1.0
 70
     8
 71
     3
 72
    25
 73
    21
 74
    19
 42
0.000000001
 43
0.0000000001
 44
0.00000001
 40
0.0
 40
0.0
 40
0.0
 40
0.0
 40
1.525997363576719
 40
3.041991995961887
 40
4.036425729137956
 40
5.033630621467629
 40
5.779988201878554
 40
6.525153423607695
 40
7.1131396548759
 40
7.69681469375541
 40
7.949097143679909
 40
8.201245171958645
 40
8.846896618341464
 40
9.499909905032116
 40
10.24994289999146
 40
11.00216045375455
 40
12.12686675713049
 40
13.24812597618487
 40
14.81779813343734
 40
16.39782994900074
 40
16.39782994900074
 40
16.39782994900074
 40
16.39782994900074
 10
366.4756451594626
 20
218.6666222090305
 30
0.0
 10
365.9680963337806
 20
218.6333043405066
 30
0.0
 10
364.9563256054932
 20
218.5668869872453
 30
0.0
 10
363.6226631858385
 20
218.3529667181756
 30
0.0
 10
362.5076008431316
 20
217.990127283072
 30
0.0
 10
361.6824053792224
 20
217.5934836070815
 30
0.0
 10
360.9848630551258
 20
217.1402743817821
 30
0.0
 10
360.4716552510514
 20
216.6671717919057
 30
0.0
 10
360.0948478423946
 20
216.1466110112587
 30
0.0
 10
359.9056294745823
 20
215.7048928944482
 30
0.0
 10
359.8342100710675
 20
215.3483515328586
 30
0.0
 10
359.8088158740742
 20
214.9646608517505
 30
0.0
 10
359.9075727138505
 20
214.4469073045926
 30
0.0
 10
360.2176651446807
 20
213.83082929858
 30
0.0
 10
360.698240485401
 20
213.2866903341957
 30
0.0
 10
361.4007658669082
 20
212.7587198339048
 30
0.0
 10
362.2858762106896
 20
212.28425227825
 30
0.0
 10
363.4927603839691
 20
211.8675743437025
 30
0.0
 10
364.9027588167662
 20
211.632255906921
 30
0.0
 10
365.9502013341842
 20
211.5609019385194
 30
0.0
 10
366.4756451594626
 20
211.5251076149791
 30
0.0
 11
366.4756451594626
 21
218.6666222090305
 31
0.0
 11
364.9546786584427
 21
218.5428123645963
 31
0.0
 11
363.4617893147374
 21
218.2791437545133
 31
0.0
 11
362.5166790536073
 21
217.9698460896657
 31
0.0
 11
361.6188408350045
 21
217.5359058494977
 31
0.0
 11
360.9970358219429
 21
217.1231006115573
 31
0.0
 11
360.453779245171
 21
216.6130579657582
 31
0.0
 11
360.1127952733135
 21
216.1340404922882
 31
0.0
 11
359.8889979296002
 21
215.5949752820703
 31
0.0
 11
359.8396969259506
 21
215.3475569202561
 31
0.0
 11
359.8235778116375
 21
215.0959246438945
 31
0.0
 11
359.9352488169377
 21
214.4600037541518
 31
0.0
 11
360.2247465597404
 21
213.8746684565544
 31
0.0
 11
360.7143993065716
 21
213.3065226282232
 31
0.0
 11
361.3095280684273
 21
212.8464650166309
 31
0.0
 11
362.2987686260007
 21
212.3113319582967
 31
0.0
 11
363.3573920968303
 21
211.9418206794137
 31
0.0
 11
364.9012292277111
 21
211.6582054509517
 31
0.0
 11
366.4756451594626
 21
211.5251076149791
 31
0.0
  0
SPLINE
  5
220
330
59
100
AcDbEntity
  8
1
  6
Continuous
 62
     7
100
AcDbSpline
210
0.0
220
0.0
230
1.0
 70
     8
 71
     3
 72
    25
 73
    21
 74
    19
 42
0.000000001
 43
0.0000000001
 44
0.00000001
 40
0.0
 40
0.0
 40
0.0
 40
0.0
 40
1.525997363576606
 40
3.041991995961717
 40
4.03642572913794
 40
5.033630621467728
 40
5.779988201878511
 40
6.52515342360761
 40
7.113139654875805
 40
7.696814693755311
 40
7.949097143679786
 40
8.201245171958526
 40
8.846896618341345
 40
9.499909905031947
 40
10.24994289999126
 40
11.00216045375448
 40
12.12686675713047
 40
13.24812597618468
 40
14.81779813343712
 40
16.39782994900051
 40
16.39782994900051
 40
16.39782994900051
 40
16.39782994900051
 10
366.4756451594626
 20
218.6666222090305
 30
0.0
 10
366.9831939851446
 20
218.6333043405066
 30
0.0
 10
367.994964713432
 20
218.5668869872454
 30
0.0
 10
369.3286271330865
 20
218.3529667181754
 30
0.0
 10
370.4436894757937
 20
217.9901272830721
 30
0.0
 10
371.2688849397027
 20
217.5934836070816
 30
0.0
 10
371.9664272637995
 20
217.1402743817821
 30
0.0
 10
372.4796350678737
 20
216.6671717919058
 30
0.0
 10
372.8564424765304
 20
216.1466110112587
 30
0.0
 10
373.0456608443428
 20
215.7048928944482
 30
0.0
 10
373.1170802478575
 20
215.3483515328587
 30
0.0
 10
373.1424744448506
 20
214.9646608517505
 30
0.0
 10
373.0437176050746
 20
214.4469073045927
 30
0.0
 10
372.7336251742447
 20
213.83082929858
 30
0.0
 10
372.2530498335242
 20
213.2866903341956
 30
0.0
 10
371.5505244520167
 20
212.7587198339048
 30
0.0
 10
370.6654141082355
 20
212.28425227825
 30
0.0
 10
369.4585299349561
 20
211.8675743437025
 30
0.0
 10
368.0485315021588
 20
211.6322559069209
 30
0.0
 10
367.0010889847412
 20
211.5609019385193
 30
0.0
 10
366.4756451594626
 20
211.5251076149791
 30
0.0
 11
366.4756451594626
 21
218.6666222090305
 31
0.0
 11
367.9966116604824
 21
218.5428123645963
 31
0.0
 11
369.4895010041876
 21
218.2791437545133
 31
0.0
 11
370.4346112653179
 21
217.9698460896657
 31
0.0
 11
371.3324494839208
 21
217.5359058494977
 31
0.0
 11
371.9542544969823
 21
217.1231006115573
 31
0.0
 11
372.4975110737541
 21
216.6130579657582
 31
0.0
 11
372.8384950456115
 21
216.1340404922882
 31
0.0
 11
373.0622923893249
 21
215.5949752820703
 31
0.0
 11
373.1115933929743
 21
215.3475569202561
 31
0.0
 11
373.1277125072875
 21
215.0959246438945
 31
0.0
 11
373.0160415019873
 21
214.4600037541518
 31
0.0
 11
372.7265437591847
 21
213.8746684565544
 31
0.0
 11
372.2368910123536
 21
213.3065226282232
 31
0.0
 11
371.6417622504977
 21
212.8464650166309
 31
0.0
 11
370.6525216929243
 21
212.3113319582967
 31
0.0
 11
369.5938982220948
 21
211.9418206794137
 31
0.0
 11
368.0500610912141
 21
211.6582054509516
 31
0.0
 11
366.4756451594626
 21
211.5251076149791
 31
0.0
  0
SPLINE
  5
221
330
59
100
AcDbEntity
  8
1
  6
Continuous
 62
     7
100
AcDbSpline
210
0.0
220
0.0
230
1.0
 70
    11
 71
     3
 72
    79
 73
    75
 74
    73
 42
0.000000001
 43
0.0000000001
 44
0.00000001
 40
0.0
 40
0.0
 40
0.0
 40
0.0
 40
0.321081305664824
 40
0.6418951396081669
 40
0.9828988891664647
 40
1.323531051596582
 40
1.692967055112473
 40
2.062075178394393
 40
2.463733854380018
 40
2.865152862487698
 40
3.298564779288518
 40
3.731815223729023
 40
4.19313126056884
 40
4.654344167617111
 40
5.137240966498906
 40
5.620077099452219
 40
6.116559525296412
 40
6.613013903592158
 40
7.114121230352351
 40
7.615228557112279
 40
8.111682935406884
 40
8.608165361248018
 40
9.091001494194723
 40
9.573898293063696
 40
10.0351112000904
 40
10.49642723689451
 40
10.92967768128235
 40
11.36308959800312
 40
11.76450860600179
 40
12.16616728182972
 40
12.53527540490461
 40
12.90471140812305
 40
13.24534357014038
 40
13.58634731899455
 40
13.90716115088656
 40
14.22824246386911
 40
14.54200444896846
 40
14.8557664340667
 40
15.17684774704589
 40
15.49766157893252
 40
15.83866532777948
 40
16.17929748978873
 40
16.54873349299779
 40
16.91784161606304
 40
17.31950029188056
 40
17.72091929986918
 40
18.15433121657966
 40
18.58758166095781
 40
19.04889769775227
 40
19.51011060477005
 40
19.99300740363051
 40
20.47584353656947
 40
20.97232596240346
 40
21.46878034069175
 40
21.96988766744628
 40
22.47099499420196
 40
22.96744937249428
 40
23.46393179833612
 40
23.94676793128821
 40
24.42966473016976
 40
24.89087763721867
 40
25.35219367405969
 40
25.78544411850139
 40
26.2188560353022
 40
26.62027504340744
 40
27.02193371938505
 40
27.39104184264878
 40
27.7604778461219
 40
28.10111000845243
 40
28.44211375771943
 40
28.76292759014605
 40
29.08400890392577
 40
29.39777089116762
 40
29.71153286919179
 40
29.71153286919179
 40
29.71153286919179
 40
29.71153286919179
 10
132.1976585232674
 20
214.7829697923288
 30
0.0
 10
132.1783786725182
 20
214.677508709265
 30
0.0
 10
132.1398350404506
 20
214.4666743940941
 30
0.0
 10
132.0247817282989
 20
214.1583347710347
 30
0.0
 10
131.8723932624516
 20
213.8602466764788
 30
0.0
 10
131.6753166179955
 20
213.5695745921607
 30
0.0
 10
131.442130108168
 20
213.2948090137335
 30
0.0
 10
131.1679616416204
 20
213.0307800684957
 30
0.0
 10
130.8624184415366
 20
212.7863960924203
 30
0.0
 10
130.5198008506439
 20
212.5565245180241
 30
0.0
 10
130.1511046338777
 20
212.3489572657898
 30
0.0
 10
129.7505498917406
 20
212.1597403061417
 30
0.0
 10
129.3294453945916
 20
211.9947756909386
 30
0.0
 10
128.883087088632
 20
211.8515916692763
 30
0.0
 10
128.4218912307997
 20
211.7340644423211
 30
0.0
 10
127.943196134444
 20
211.6409806358117
 30
0.0
 10
127.4555288254471
 20
211.5744778372482
 30
0.0
 10
126.9589110196961
 20
211.5340922747913
 30
0.0
 10
126.4592902041246
 20
211.5207487945891
 30
0.0
 10
125.9596693885375
 20
211.5340922747882
 30
0.0
 10
125.4630515828352
 20
211.5744778372455
 30
0.0
 10
124.9753842736673
 20
211.640980635769
 30
0.0
 10
124.4966891779411
 20
211.7340644423401
 30
0.0
 10
124.0354933178197
 20
211.8515916689178
 30
0.0
 10
123.5891350200474
 20
211.994775691689
 30
0.0
 10
123.1680304932588
 20
212.1597403025231
 30
0.0
 10
122.7674758553362
 20
212.3489572770512
 30
0.0
 10
122.398779264154
 20
212.5565244751744
 30
0.0
 10
122.0561629726822
 20
212.7863962365463
 30
0.0
 10
121.7506151290482
 20
213.0307795433917
 30
0.0
 10
121.4764626633746
 20
213.2948107933912
 30
0.0
 10
121.2432189983958
 20
213.5695681375306
 30
0.0
 10
121.0463399649293
 20
213.8602686893541
 30
0.0
 10
120.893240422714
 20
214.1582543440338
 30
0.0
 10
120.7806929522023
 20
214.4669549634127
 30
0.0
 10
120.7141414418377
 20
214.7795256005129
 30
0.0
 10
120.6906661851456
 20
215.0959246435128
 30
0.0
 10
120.7141414418269
 20
215.4123236865125
 30
0.0
 10
120.7806929521808
 20
215.7248943236116
 30
0.0
 10
120.8932404226819
 20
216.0335949429888
 30
0.0
 10
121.046339964887
 20
216.3315805976661
 30
0.0
 10
121.2432189983439
 20
216.6222811494863
 30
0.0
 10
121.4764626633136
 20
216.8970384936216
 30
0.0
 10
121.7506151289786
 20
217.1610697436159
 30
0.0
 10
122.0561629726045
 20
217.4054530504554
 30
0.0
 10
122.3987792640689
 20
217.6353248118201
 30
0.0
 10
122.7674758552442
 20
217.8428920099352
 30
0.0
 10
123.1680304931604
 20
218.032108984454
 30
0.0
 10
123.5891350199431
 20
218.1970735952772
 30
0.0
 10
124.03549331771
 20
218.3402576180358
 30
0.0
 10
124.4966891778263
 20
218.4577848445995
 30
0.0
 10
124.9753842735479
 20
218.5508686511542
 30
0.0
 10
125.463051582711
 20
218.6173714496591
 30
0.0
 10
125.9596693884097
 20
218.6577570120955
 30
0.0
 10
126.4592902039888
 20
218.6711004922702
 30
0.0
 10
126.9589110195669
 20
218.6577570120434
 30
0.0
 10
127.4555288252687
 20
218.6173714495492
 30
0.0
 10
127.9431961344191
 20
218.5508686509797
 30
0.0
 10
128.4218912301841
 20
218.4577848443375
 30
0.0
 10
128.8830870901352
 20
218.3402576176972
 30
0.0
 10
129.3294453884782
 20
218.1970735947307
 30
0.0
 10
129.7505499131492
 20
218.032108984058
 30
0.0
 10
130.1511045584476
 20
217.8428920082874
 30
0.0
 10
130.5198011230321
 20
217.6353248137767
 30
0.0
 10
130.8624175066781
 20
217.4054530388595
 30
0.0
 10
131.1679650207353
 20
217.1610697791796
 30
0.0
 10
131.442118621825
 20
216.8970383652365
 30
0.0
 10
131.6753582307492
 20
216.6222816049895
 30
0.0
 10
131.8722512873645
 20
216.3315790324606
 30
0.0
 10
132.0253003685396
 20
216.0336006466875
 30
0.0
 10
132.1380256636234
 20
215.7248744088722
 30
0.0
 10
132.2039266087579
 20
215.4123974918741
 30
0.0
 10
132.2297781185861
 20
215.0956561232963
 30
0.0
 10
132.2083650518707
 20
214.8871985685544
 30
0.0
 10
132.1976585232674
 20
214.7829697923288
 30
0.0
 11
132.1976585232674
 21
214.7829697923288
 31
0.0
 11
132.1306629815647
 21
214.4689557687157
 31
0.0
 11
132.0217081494203
 21
214.1672102478458
 31
0.0
 11
131.8662832828429
 21
213.8636864964502
 31
0.0
 11
131.6760475587373
 21
213.5811256372673
 31
0.0
 11
131.4375542621819
 21
213.2989839919215
 31
0.0
 11
131.172217133077
 21
213.0423967465412
 31
0.0
 11
130.8590557758553
 21
212.7908820227945
 31
0.0
 11
130.5260286566744
 21
212.5667611672012
 31
0.0
 11
130.1487002939561
 21
212.353526094386
 31
0.0
 11
129.7571326247626
 21
212.1681057394351
 31
0.0
 11
129.3277992730235
 21
211.9993296779882
 31
0.0
 11
128.888710184523
 21
211.8581981153179
 31
0.0
 11
128.4208642941222
 21
211.7385756207668
 31
0.0
 11
127.9469322666234
 21
211.6462763001007
 31
0.0
 11
127.4550355599298
 21
211.5789529823275
 31
0.0
 11
126.9602160079475
 21
211.5386967939204
 31
0.0
 11
126.4592901941679
 21
211.5252104296231
 31
0.0
 11
125.9583643803882
 21
211.5386967939204
 31
0.0
 11
125.4635448284058
 21
211.5789529823274
 31
0.0
 11
124.9716481217122
 21
211.6462763001007
 31
0.0
 11
124.4977160942134
 21
211.7385756207668
 31
0.0
 11
124.0298702038126
 21
211.8581981153179
 31
0.0
 11
123.5907811153122
 21
211.9993296779881
 31
0.0
 11
123.1614477635731
 21
212.1681057394351
 31
0.0
 11
122.7698800943796
 21
212.353526094386
 31
0.0
 11
122.3925517316613
 21
212.5667611672012
 31
0.0
 11
122.0595246124804
 21
212.7908820227945
 31
0.0
 11
121.7463632552587
 21
213.0423967465412
 31
0.0
 11
121.4810261261537
 21
213.2989839919216
 31
0.0
 11
121.2425328295984
 21
213.5811256372673
 31
0.0
 11
121.0522971054927
 21
213.8636864964502
 31
0.0
 11
120.8968722389153
 21
214.1672102478458
 31
0.0
 11
120.7879174067709
 21
214.4689557687157
 31
0.0
 11
120.7209218650682
 21
214.7829697923288
 31
0.0
 11
120.6984308832663
 21
215.0959246438945
 31
0.0
 11
120.7209218650683
 21
215.4088794954602
 31
0.0
 11
120.7879174067711
 21
215.7228935190734
 31
0.0
 11
120.8968722389155
 21
216.0246390399432
 31
0.0
 11
121.0522971054927
 21
216.3281627913388
 31
0.0
 11
121.2425328295984
 21
216.6107236505218
 31
0.0
 11
121.4810261261537
 21
216.8928652958676
 31
0.0
 11
121.7463632552587
 21
217.1494525412479
 31
0.0
 11
122.0595246124804
 21
217.4009672649946
 31
0.0
 11
122.3925517316613
 21
217.6250881205879
 31
0.0
 11
122.7698800943796
 21
217.838323193403
 31
0.0
 11
123.1614477635731
 21
218.0237435483539
 31
0.0
 11
123.5907811153122
 21
218.1925196098009
 31
0.0
 11
124.0298702038126
 21
218.3336511724711
 31
0.0
 11
124.4977160942134
 21
218.4532736670222
 31
0.0
 11
124.9716481217122
 21
218.5455729876884
 31
0.0
 11
125.4635448284058
 21
218.6128963054617
 31
0.0
 11
125.9583643803882
 21
218.6531524938687
 31
0.0
 11
126.4592901941679
 21
218.666638858166
 31
0.0
 11
126.9602160079475
 21
218.6531524938687
 31
0.0
 11
127.4550355599298
 21
218.6128963054616
 31
0.0
 11
127.9469322666234
 21
218.5455729876884
 31
0.0
 11
128.4208642941222
 21
218.4532736670223
 31
0.0
 11
128.888710184523
 21
218.3336511724711
 31
0.0
 11
129.3277992730235
 21
218.1925196098009
 31
0.0
 11
129.7571326247627
 21
218.0237435483539
 31
0.0
 11
130.1487002939562
 21
217.838323193403
 31
0.0
 11
130.5260286566745
 21
217.6250881205878
 31
0.0
 11
130.8590557758553
 21
217.4009672649945
 31
0.0
 11
131.1722171330769
 21
217.1494525412478
 31
0.0
 11
131.4375542621819
 21
216.8928652958675
 31
0.0
 11
131.6760475587372
 21
216.6107236505218
 31
0.0
 11
131.8662832828429
 21
216.3281627913389
 31
0.0
 11
132.0217081494202
 21
216.0246390399432
 31
0.0
 11
132.1306629815645
 21
215.7228935190733
 31
0.0
 11
132.1976585232674
 21
215.4088794954602
 31
0.0
 11
132.2201495050693
 21
215.0959246438945
 31
0.0
 11
132.1976585232674
 21
214.7829697923288
 31
0.0
  0
SPLINE
  5
222
330
59
100
AcDbEntity
  8
1
  6
Continuous
 62
     7
100
AcDbSpline
210
0.0
220
0.0
230
1.0
 70
    11
 71
     3
 72
    79
 73
    75
 74
    73
 42
0.000000001
 43
0.0000000001
 44
0.00000001
 40
0.0
 40
0.0
 40
0.0
 40
0.0
 40
0.3210813056648151
 40
0.6418951396081531
 40
0.9828988891664574
 40
1.323531051596582
 40
1.692967055112446
 40
2.062075178394417
 40
2.463733854380086
 40
2.865152862487743
 40
3.298564779288551
 40
3.73181522372903
 40
4.19313126056886
 40
4.654344167617158
 40
5.137240966498993
 40
5.620077099452264
 40
6.116559525296429
 40
6.613013903592132
 40
7.114121230352311
 40
7.615228557112268
 40
8.111682935406844
 40
8.608165361247991
 40
9.091001494194696
 40
9.57389829306367
 40
10.0351112000904
 40
10.49642723689463
 40
10.92967768128256
 40
11.36308959800328
 40
11.76450860600186
 40
12.16616728182972
 40
12.53527540490461
 40
12.90471140812303
 40
13.24534357014037
 40
13.58634731899454
 40
13.90716115088655
 40
14.2282424638691
 40
14.54200444896846
 40
14.85576643406668
 40
15.17684774704586
 40
15.49766157893252
 40
15.83866532777953
 40
16.17929748978879
 40
16.54873349299785
 40
16.91784161606308
 40
17.31950029188058
 40
17.72091929986912
 40
18.15433121657952
 40
18.58758166095776
 40
19.04889769775235
 40
19.51011060477017
 40
19.99300740363062
 40
20.47584353656957
 40
20.97232596240353
 40
21.46878034069174
 40
21.9698876674462
 40
22.47099499420194
 40
22.96744937249438
 40
23.46393179833623
 40
23.94676793128834
 40
24.42966473016986
 40
24.89087763721874
 40
25.35219367405968
 40
25.78544411850129
 40
26.21885603530213
 40
26.62027504340746
 40
27.02193371938512
 40
27.39104184264884
 40
27.76047784612192
 40
28.1011100084524
 40
28.44211375771942
 40
28.76292759014604
 40
29.08400890392576
 40
29.39777089116761
 40
29.71153286919178
 40
29.71153286919178
 40
29.71153286919178
 40
29.71153286919178
 10
106.7209218650682
 20
214.7829697923288
 30
0.0
 10
106.7402017158174
 20
214.6775087092649
 30
0.0
 10
106.778745347885
 20
214.4666743940941
 30
0.0
 10
106.8937986600366
 20
214.1583347710347
 30
0.0
 10
107.046187125884
 20
213.8602466764788
 30
0.0
 10
107.2432637703401
 20
213.5695745921607
 30
0.0
 10
107.4764502801675
 20
213.2948090137334
 30
0.0
 10
107.7506187467153
 20
213.0307800684957
 30
0.0
 10
108.0561619467991
 20
212.7863960924202
 30
0.0
 10
108.3987795376917
 20
212.5565245180241
 30
0.0
 10
108.767475754458
 20
212.3489572657898
 30
0.0
 10
109.1680304965951
 20
212.1597403061417
 30
0.0
 10
109.589134993744
 20
211.9947756909387
 30
0.0
 10
110.0354932997037
 20
211.8515916692762
 30
0.0
 10
110.496689157536
 20
211.7340644423211
 30
0.0
 10
110.9753842538917
 20
211.6409806358117
 30
0.0
 10
111.4630515628886
 20
211.5744778372483
 30
0.0
 10
111.9596693686396
 20
211.5340922747912
 30
0.0
 10
112.459290184211
 20
211.5207487945891
 30
0.0
 10
112.9589109997981
 20
211.5340922747882
 30
0.0
 10
113.4555288055004
 20
211.5744778372456
 30
0.0
 10
113.9431961146682
 20
211.640980635769
 30
0.0
 10
114.4218912103946
 20
211.73406444234
 30
0.0
 10
114.8830870705159
 20
211.8515916689179
 30
0.0
 10
115.3294453682883
 20
211.994775691689
 30
0.0
 10
115.750549895077
 20
212.159740302523
 30
0.0
 10
116.1511045329996
 20
212.3489572770512
 30
0.0
 10
116.5198011241818
 20
212.5565244751743
 30
0.0
 10
116.8624174156535
 20
212.7863962365462
 30
0.0
 10
117.1679652592874
 20
213.0307795433917
 30
0.0
 10
117.442117724961
 20
213.2948107933912
 30
0.0
 10
117.6753613899397
 20
213.5695681375306
 30
0.0
 10
117.8722404234063
 20
213.8602686893541
 30
0.0
 10
118.0253399656217
 20
214.1582543440339
 30
0.0
 10
118.1378874361332
 20
214.4669549634126
 30
0.0
 10
118.2044389464979
 20
214.7795256005129
 30
0.0
 10
118.22791420319
 20
215.0959246435129
 30
0.0
 10
118.2044389465089
 20
215.4123236865125
 30
0.0
 10
118.1378874361551
 20
215.7248943236117
 30
0.0
 10
118.0253399656539
 20
216.0335949429888
 30
0.0
 10
117.8722404234486
 20
216.3315805976661
 30
0.0
 10
117.6753613899917
 20
216.6222811494861
 30
0.0
 10
117.4421177250221
 20
216.8970384936217
 30
0.0
 10
117.1679652593571
 20
217.1610697436159
 30
0.0
 10
116.8624174157312
 20
217.4054530504554
 30
0.0
 10
116.5198011242669
 20
217.6353248118201
 30
0.0
 10
116.1511045330916
 20
217.8428920099353
 30
0.0
 10
115.7505498951754
 20
218.032108984454
 30
0.0
 10
115.3294453683926
 20
218.1970735952772
 30
0.0
 10
114.8830870706255
 20
218.3402576180358
 30
0.0
 10
114.4218912105094
 20
218.4577848445995
 30
0.0
 10
113.9431961147877
 20
218.5508686511542
 30
0.0
 10
113.4555288056246
 20
218.6173714496592
 30
0.0
 10
112.9589109999261
 20
218.6577570120955
 30
0.0
 10
112.4592901843469
 20
218.6711004922703
 30
0.0
 10
111.9596693687688
 20
218.6577570120434
 30
0.0
 10
111.463051563067
 20
218.6173714495493
 30
0.0
 10
110.9753842539165
 20
218.5508686509797
 30
0.0
 10
110.4966891581515
 20
218.4577848443375
 30
0.0
 10
110.0354932982004
 20
218.3402576176973
 30
0.0
 10
109.5891349998574
 20
218.1970735947307
 30
0.0
 10
109.1680304751865
 20
218.0321089840581
 30
0.0
 10
108.7674758298882
 20
217.8428920082872
 30
0.0
 10
108.3987792653037
 20
217.6353248137767
 30
0.0
 10
108.0561628816576
 20
217.4054530388594
 30
0.0
 10
107.7506153676003
 20
217.1610697791797
 30
0.0
 10
107.4764617665106
 20
216.8970383652365
 30
0.0
 10
107.2432221575865
 20
216.6222816049896
 30
0.0
 10
107.0463291009713
 20
216.3315790324606
 30
0.0
 10
106.8932800197962
 20
216.0336006466874
 30
0.0
 10
106.7805547247123
 20
215.7248744088723
 30
0.0
 10
106.7146537795779
 20
215.4123974918742
 30
0.0
 10
106.6888022697496
 20
215.0956561232963
 30
0.0
 10
106.710215336465
 20
214.8871985685544
 30
0.0
 10
106.7209218650682
 20
214.7829697923288
 30
0.0
 11
106.7209218650682
 21
214.7829697923288
 31
0.0
 11
106.7879174067709
 21
214.4689557687157
 31
0.0
 11
106.8968722389153
 21
214.1672102478458
 31
0.0
 11
107.0522971054927
 21
213.8636864964502
 31
0.0
 11
107.2425328295984
 21
213.5811256372673
 31
0.0
 11
107.4810261261537
 21
213.2989839919215
 31
0.0
 11
107.7463632552587
 21
213.0423967465412
 31
0.0
 11
108.0595246124804
 21
212.7908820227945
 31
0.0
 11
108.3925517316613
 21
212.5667611672012
 31
0.0
 11
108.7698800943796
 21
212.353526094386
 31
0.0
 11
109.1614477635731
 21
212.1681057394351
 31
0.0
 11
109.5907811153122
 21
211.9993296779882
 31
0.0
 11
110.0298702038127
 21
211.8581981153179
 31
0.0
 11
110.4977160942135
 21
211.7385756207668
 31
0.0
 11
110.9716481217123
 21
211.6462763001007
 31
0.0
 11
111.4635448284059
 21
211.5789529823275
 31
0.0
 11
111.9583643803881
 21
211.5386967939204
 31
0.0
 11
112.4592901941677
 21
211.5252104296231
 31
0.0
 11
112.9602160079474
 21
211.5386967939204
 31
0.0
 11
113.4550355599298
 21
211.5789529823274
 31
0.0
 11
113.9469322666234
 21
211.6462763001007
 31
0.0
 11
114.4208642941222
 21
211.7385756207668
 31
0.0
 11
114.888710184523
 21
211.8581981153179
 31
0.0
 11
115.3277992730235
 21
211.9993296779881
 31
0.0
 11
115.7571326247627
 21
212.1681057394351
 31
0.0
 11
116.1487002939563
 21
212.353526094386
 31
0.0
 11
116.5260286566745
 21
212.5667611672012
 31
0.0
 11
116.8590557758553
 21
212.7908820227945
 31
0.0
 11
117.1722171330769
 21
213.0423967465412
 31
0.0
 11
117.4375542621819
 21
213.2989839919216
 31
0.0
 11
117.6760475587372
 21
213.5811256372673
 31
0.0
 11
117.8662832828429
 21
213.8636864964502
 31
0.0
 11
118.0217081494203
 21
214.1672102478458
 31
0.0
 11
118.1306629815647
 21
214.4689557687157
 31
0.0
 11
118.1976585232674
 21
214.7829697923288
 31
0.0
 11
118.2201495050693
 21
215.0959246438945
 31
0.0
 11
118.1976585232674
 21
215.4088794954602
 31
0.0
 11
118.1306629815647
 21
215.7228935190734
 31
0.0
 11
118.0217081494203
 21
216.0246390399432
 31
0.0
 11
117.8662832828429
 21
216.3281627913388
 31
0.0
 11
117.6760475587372
 21
216.6107236505218
 31
0.0
 11
117.4375542621819
 21
216.8928652958676
 31
0.0
 11
117.172217133077
 21
217.1494525412479
 31
0.0
 11
116.8590557758553
 21
217.4009672649946
 31
0.0
 11
116.5260286566745
 21
217.6250881205879
 31
0.0
 11
116.1487002939563
 21
217.838323193403
 31
0.0
 11
115.7571326247627
 21
218.0237435483539
 31
0.0
 11
115.3277992730235
 21
218.1925196098009
 31
0.0
 11
114.888710184523
 21
218.3336511724711
 31
0.0
 11
114.4208642941222
 21
218.4532736670222
 31
0.0
 11
113.9469322666234
 21
218.5455729876884
 31
0.0
 11
113.4550355599298
 21
218.6128963054617
 31
0.0
 11
112.9602160079475
 21
218.6531524938687
 31
0.0
 11
112.4592901941679
 21
218.666638858166
 31
0.0
 11
111.9583643803882
 21
218.6531524938687
 31
0.0
 11
111.4635448284058
 21
218.6128963054616
 31
0.0
 11
110.9716481217122
 21
218.5455729876884
 31
0.0
 11
110.4977160942134
 21
218.4532736670223
 31
0.0
 11
110.0298702038126
 21
218.3336511724711
 31
0.0
 11
109.5907811153122
 21
218.1925196098009
 31
0.0
 11
109.1614477635731
 21
218.0237435483539
 31
0.0
 11
108.7698800943796
 21
217.838323193403
 31
0.0
 11
108.3925517316613
 21
217.6250881205878
 31
0.0
 11
108.0595246124804
 21
217.4009672649945
 31
0.0
 11
107.7463632552587
 21
217.1494525412478
 31
0.0
 11
107.4810261261538
 21
216.8928652958675
 31
0.0
 11
107.2425328295985
 21
216.6107236505218
 31
0.0
 11
107.0522971054929
 21
216.3281627913389
 31
0.0
 11
106.8968722389156
 21
216.0246390399432
 31
0.0
 11
106.7879174067712
 21
215.7228935190733
 31
0.0
 11
106.7209218650683
 21
215.4088794954602
 31
0.0
 11
106.6984308832664
 21
215.0959246438945
 31
0.0
 11
106.7209218650682
 21
214.7829697923288
 31
0.0
  0
ARC
  5
223
330
59
100
AcDbEntity
  8
1
  6
Continuous
 62
     7
100
AcDbCircle
 10
131.0173112558986
 20
211.2383876793361
 30
0.0
 40
1.0
100
AcDbArc
 50
270.0
 51
285.3375576695473
  0
ARC
  5
224
330
59
100
AcDbEntity
  8
1
  6
Continuous
 62
     7
100
AcDbCircle
 10
129.2272393865991
 20
210.2383876793361
 30
0.0
 40
1.0
100
AcDbArc
 50
270.0
 51
329.9999999999954
  0
ARC
  5
225
330
59
100
AcDbEntity
  8
1
  6
Continuous
 62
     7
100
AcDbCircle
 10
130.9592901941679
 20
209.2383876793361
 30
0.0
 40
1.0
100
AcDbArc
 50
90.0
 51
150.0000000000019
  0
ARC
  5
226
330
59
100
AcDbEntity
  8
1
  6
Continuous
 62
     7
100
AcDbCircle
 10
107.9012691324373
 20
211.2383876793361
 30
0.0
 40
1.000000000000025
100
AcDbArc
 50
254.6624423304425
 51
270.0
  0
ARC
  5
227
330
59
100
AcDbEntity
  8
1
  6
Continuous
 62
     7
100
AcDbCircle
 10
109.6913410017365
 20
210.2383876793361
 30
0.0
 40
0.9999999999998851
100
AcDbArc
 50
210.0000000000038
 51
270.0
  0
ARC
  5
228
330
59
100
AcDbEntity
  8
1
  6
Continuous
 62
     7
100
AcDbCircle
 10
107.9592901941677
 20
209.2383876793361
 30
0.0
 40
1.000000000000045
100
AcDbArc
 50
29.99999999999851
 51
90.0
  0
ARC
  5
229
330
59
100
AcDbEntity
  8
1
  6
Continuous
 62
     7
100
AcDbCircle
 10
378.0336662211931
 20
211.2383876793361
 30
0.0
 40
1.0
100
AcDbArc
 50
270.0
 51
285.3375576695646
  0
ARC
  5
22A
330
59
100
AcDbEntity
  8
1
  6
Continuous
 62
     7
100
AcDbCircle
 10
376.2435943518938
 20
210.2383876793361
 30
0.0
 40
1.0
100
AcDbArc
 50
270.0
 51
329.9999999999962
  0
ARC
  5
22B
330
59
100
AcDbEntity
  8
1
  6
Continuous
 62
     7
100
AcDbCircle
 10
377.9756451594626
 20
209.2383876793361
 30
0.0
 40
1.0
100
AcDbArc
 50
90.0
 51
150.0000000000011
  0
ARC
  5
22C
330
59
100
AcDbEntity
  8
1
  6
Continuous
 62
     7
100
AcDbCircle
 10
354.917624097732
 20
211.2383876793361
 30
0.0
 40
0.9999999999999989
100
AcDbArc
 50
254.662442330448
 51
270.0
  0
ARC
  5
22D
330
59
100
AcDbEntity
  8
1
  6
Continuous
 62
     7
100
AcDbCircle
 10
356.7076959670315
 20
210.2383876793361
 30
0.0
 40
1.000000000000033
100
AcDbArc
 50
209.9999999999989
 51
270.0
  0
ARC
  5
22E
330
59
100
AcDbEntity
  8
1
  6
Continuous
 62
     7
100
AcDbCircle
 10
354.9756451594626
 20
209.2383876793361
 30
0.0
 40
0.9999999999999836
100
AcDbArc
 50
30.00000000000054
 51
90.0
  0
ENDBLK
  5
5B
330
59
100
AcDbEntity
  8
0
100
AcDbBlockEnd
  0
BLOCK
  5
5D
330
5C
100
AcDbEntity
  8
0
100
AcDbBlockBegin
  2
60-1-16-170
 70
     0
 10
190.3094111540487
 20
113.3722898493423
 30
0.0
  3
60-1-16-170
  1

  0
LINE
  5
22F
330
5C
100
AcDbEntity
  8
1
  6
Continuous
 62
     7
100
AcDbLine
 10
339.4756451594626
 20
168.7383876793361
 30
0.0
 11
223.4738457550519
 21
168.7383876793361
 31
0.0
  0
LINE
  5
230
330
5C
100
AcDbEntity
  8
1
  6
Continuous
 62
     7
100
AcDbLine
 10
204.4738457550519
 20
148.7383876793361
 30
0.0
 11
204.4738457550519
 21
149.7383876793361
 31
0.0
  0
LINE
  5
231
330
5C
100
AcDbEntity
  8
1
  6
Continuous
 62
     7
100
AcDbLine
 10
188.4738457550519
 20
148.7383876793361
 30
0.0
 11
188.4738457550519
 21
149.7383876793361
 31
0.0
  0
LINE
  5
232
330
5C
100
AcDbEntity
  8
1
  6
Continuous
 62
     7
100
AcDbLine
 10
374.4756451594626
 20
209.2383876793361
 30
0.0
 11
374.4756451594626
 21
203.7383876793361
 31
0.0
  0
LINE
  5
233
330
5C
100
AcDbEntity
  8
1
  6
Continuous
 62
     7
100
AcDbLine
 10
358.4756451594626
 20
203.7383876793361
 30
0.0
 11
358.4756451594626
 21
209.2383876793361
 31
0.0
  0
LINE
  5
234
330
5C
100
AcDbEntity
  8
1
  6
Continuous
 62
     7
100
AcDbLine
 10
339.4756451594626
 20
184.7383876793361
 30
0.0
 11
223.4738457550519
 21
184.7383876793361
 31
0.0
  0
LINE
  5
235
330
5C
100
AcDbEntity
  8
1
  6
Continuous
 62
     7
100
AcDbLine
 10
204.4738457550519
 20
148.7383876793361
 30
0.0
 11
188.4738457550519
 21
148.7383876793361
 31
0.0
  0
LINE
  5
236
330
5C
100
AcDbEntity
  8
1
  6
Continuous
 62
     7
100
AcDbLine
 10
189.0874387490658
 20
143.7383876793361
 30
0.0
 11
203.8602527610381
 21
143.7383876793361
 31
0.0
  0
LINE
  5
237
330
5C
100
AcDbEntity
  8
1
  6
Continuous
 62
     7
100
AcDbLine
 10
127.4592901941679
 20
513.0177958469295
 30
0.0
 11
127.4592901941679
 21
354.5630018263114
 31
0.0
  0
LINE
  5
238
330
5C
100
AcDbEntity
  8
1
  6
Continuous
 62
     7
100
AcDbLine
 10
111.4592901941679
 20
513.0177958469295
 30
0.0
 11
111.4592901941679
 21
354.5630018263114
 31
0.0
  0
LINE
  5
239
330
5C
100
AcDbEntity
  8
1
  6
Continuous
 62
     7
100
AcDbLine
 10
127.4592901941678
 20
148.7383876793361
 30
0.0
 11
111.4592901941678
 21
148.7383876793361
 31
0.0
  0
LINE
  5
23A
330
5C
100
AcDbEntity
  8
1
  6
Continuous
 62
     7
100
AcDbLine
 10
112.0728831881818
 20
143.7383876793361
 30
0.0
 11
126.8456972001538
 21
143.7383876793361
 31
0.0
  0
LINE
  5
23B
330
5C
100
AcDbEntity
  8
1
  6
Continuous
 62
     7
100
AcDbLine
 10
127.4592901941678
 20
148.7383876793361
 30
0.0
 11
127.4592901941678
 21
209.2383876793361
 31
0.0
  0
LINE
  5
23C
330
5C
100
AcDbEntity
  8
1
  6
Continuous
 62
     7
100
AcDbLine
 10
111.4592901941678
 20
148.7383876793361
 30
0.0
 11
111.4592901941678
 21
209.2383876793361
 31
0.0
  0
ARC
  5
23D
330
5C
100
AcDbEntity
  8
1
  6
Continuous
 62
     7
100
AcDbCircle
 10
201.2638194603336
 20
146.5946679721138
 30
0.0
 40
3.86002629471821
100
AcDbArc
 50
0.0
 51
33.73579100002762
  0
ARC
  5
23E
330
5C
100
AcDbEntity
  8
1
  6
Continuous
 62
     7
100
AcDbCircle
 10
191.68387204977
 20
146.5946679721138
 30
0.0
 40
3.860026294718296
100
AcDbArc
 50
180.0
 51
227.7283445035828
  0
ARC
  5
23F
330
5C
100
AcDbEntity
  8
1
  6
Continuous
 62
     7
100
AcDbCircle
 10
191.68387204977
 20
146.5946679721138
 30
0.0
 40
3.860026294718067
100
AcDbArc
 50
146.2642089999705
 51
180.0
  0
ARC
  5
240
330
5C
100
AcDbEntity
  8
1
  6
Continuous
 62
     7
100
AcDbCircle
 10
201.2638194603336
 20
146.5946679721138
 30
0.0
 40
3.860026294718408
100
AcDbArc
 50
312.2716554964206
 51
0.0
  0
ARC
  5
241
330
5C
100
AcDbEntity
  8
1
  6
Continuous
 62
     7
100
AcDbCircle
 10
223.4738457550519
 20
149.7383876793361
 30
0.0
 40
19.0
100
AcDbArc
 50
90.0
 51
180.0
  0
ARC
  5
242
330
5C
100
AcDbEntity
  8
1
  6
Continuous
 62
     7
100
AcDbCircle
 10
223.4738457550519
 20
149.7383876793361
 30
0.0
 40
35.0
100
AcDbArc
 50
90.0
 51
180.0
  0
ARC
  5
243
330
5C
100
AcDbEntity
  8
1
  6
Continuous
 62
     7
100
AcDbCircle
 10
339.4756451594626
 20
203.7383876793361
 30
0.0
 40
19.0
100
AcDbArc
 50
270.0
 51
0.0
  0
ARC
  5
244
330
5C
100
AcDbEntity
  8
1
  6
Continuous
 62
     7
100
AcDbCircle
 10
339.4756451594626
 20
203.7383876793361
 30
0.0
 40
35.0
100
AcDbArc
 50
270.0
 51
0.0
  0
ARC
  5
245
330
5C
100
AcDbEntity
  8
1
  6
Continuous
 62
     7
100
AcDbCircle
 10
119.4592901941679
 20
354.5630018263114
 30
0.0
 40
8.0
100
AcDbArc
 50
180.0
 51
0.0
  0
ARC
  5
246
330
5C
100
AcDbEntity
  8
1
  6
Continuous
 62
     7
100
AcDbCircle
 10
119.4592901941679
 20
354.5630018263114
 30
0.0
 40
8.650000000000205
100
AcDbArc
 50
270.0
 51
22.35342559933236
  0
ARC
  5
247
330
5C
100
AcDbEntity
  8
1
  6
Continuous
 62
     7
100
AcDbCircle
 10
119.4592901941679
 20
354.5630018263114
 30
0.0
 40
8.650000000000071
100
AcDbArc
 50
157.6465744006676
 51
270.0
  0
ARC
  5
248
330
5C
100
AcDbEntity
  8
1
  6
Continuous
 62
     7
100
AcDbCircle
 10
124.2492638994495
 20
146.5946679721138
 30
0.0
 40
3.86002629471831
100
AcDbArc
 50
0.0
 51
33.73579100002773
  0
ARC
  5
249
330
5C
100
AcDbEntity
  8
1
  6
Continuous
 62
     7
100
AcDbCircle
 10
114.6693164888859
 20
146.5946679721138
 30
0.0
 40
3.860026294718196
100
AcDbArc
 50
180.0
 51
227.7283445035841
  0
ARC
  5
24A
330
5C
100
AcDbEntity
  8
1
  6
Continuous
 62
     7
100
AcDbCircle
 10
114.6693164888859
 20
146.5946679721138
 30
0.0
 40
3.860026294718067
100
AcDbArc
 50
146.2642089999705
 51
180.0
  0
ARC
  5
24B
330
5C
100
AcDbEntity
  8
1
  6
Continuous
 62
     7
100
AcDbCircle
 10
124.2492638994495
 20
146.5946679721138
 30
0.0
 40
3.860026294718256
100
AcDbArc
 50
312.2716554964181
 51
0.0
  0
ARC
  5
24C
330
5C
100
AcDbEntity
  8
1
  6
Continuous
 62
     7
100
AcDbCircle
 10
119.4592901941678
 20
176.7383876793361
 30
0.0
 40
8.0
100
AcDbArc
 50
0.0
 51
180.0
  0
ENDBLK
  5
5E
330
5C
100
AcDbEntity
  8
0
100
AcDbBlockEnd
  0
BLOCK
  5
62
330
5F
100
AcDbEntity
  8
0
100
AcDbBlockBegin
  2
61-1X-16-170
 70
     0
 10
149.8238457550516
 20
141.5903427597141
 30
0.0
  3
61-1X-16-170
  1

  0
INSERT
  5
60
330
5F
100
AcDbEntity
  8
1
100
AcDbBlockReference
  2
32-1-16
 10
69.9299053237937
 20
418.7242198094451
 30
0.0
 41
1.0
 42
1.0
 43
1.0
  0
INSERT
  5
61
330
5F
100
AcDbEntity
  8
0
100
AcDbBlockReference
  2
60-1-16-170
 10
190.3094111540487
 20
113.3722898493423
 30
0.0
 41
1.0
 42
1.0
 43
1.0
  0
LINE
  5
24D
330
5F
100
AcDbEntity
  8
1
  6
PHANTOM
 62
     4
100
AcDbLine
 10
223.4738457550519
 20
176.7383876793361
 30
0.0
 11
339.4756451594626
 21
176.7383876793361
 31
0.0
  0
LINE
  5
24E
330
5F
100
AcDbEntity
  8
1
  6
PHANTOM
 62
     4
100
AcDbLine
 10
196.4738457550519
 20
140.5903427597141
 30
0.0
 11
196.4738457550519
 21
149.7383876793361
 31
0.0
  0
ARC
  5
24F
330
5F
100
AcDbEntity
  8
1
  6
PHANTOM
 62
     4
100
AcDbCircle
 10
339.4756451594626
 20
203.7383876793361
 30
0.0
 40
27.0
100
AcDbArc
 50
270.0
 51
0.0
  0
ARC
  5
250
330
5F
100
AcDbEntity
  8
1
  6
PHANTOM
 62
     4
100
AcDbCircle
 10
223.4738457550519
 20
149.7383876793361
 30
0.0
 40
27.0
100
AcDbArc
 50
90.0
 51
180.0
  0
ENDBLK
  5
63
330
5F
100
AcDbEntity
  8
0
100
AcDbBlockEnd
  0
BLOCK
  5
273
330
26C
100
AcDbEntity
  8
0
100
AcDbBlockBegin
  2
*D10
 70
     1
 10
0.0
 20
0.0
 30
0.0
  3
*D10
  1

  0
LINE
  5
26D
330
26C
100
AcDbEntity
  8
1
  6
Continuous
 62
     2
100
AcDbLine
 10
162.8238457550517
 20
238.2383876793361
 30
0.0
 11
162.8238457550517
 21
143.7383876793361
 31
0.0
  0
LINE
  5
26E
330
26C
100
AcDbEntity
  8
1
  6
Continuous
 62
     2
100
AcDbLine
 10
351.6803788872733
 20
238.2383876793361
 30
0.0
 11
160.3238457550517
 21
238.2383876793361
 31
0.0
  0
LINE
  5
26F
330
26C
100
AcDbEntity
  8
1
  6
Continuous
 62
     2
100
AcDbLine
 10
189.0874387490658
 20
143.7383876793361
 30
0.0
 11
160.3238457550517
 21
143.7383876793361
 31
0.0
  0
SOLID
  5
270
330
26C
100
AcDbEntity
  8
1
 62
     2
100
AcDbTrace
 10
163.9758051089414
 20
229.4883876793361
 30
0.0
 11
161.671886401162
 21
229.4883876793361
 31
0.0
 12
162.8238457550517
 22
238.2383876793361
 32
0.0
 13
162.8238457550517
 23
238.2383876793361
 33
0.0
  0
SOLID
  5
271
330
26C
100
AcDbEntity
  8
1
 62
     2
100
AcDbTrace
 10
161.671886401162
 20
152.4883876793361
 30
0.0
 11
163.9758051089414
 21
152.4883876793361
 31
0.0
 12
162.8238457550517
 22
143.7383876793361
 32
0.0
 13
162.8238457550517
 23
143.7383876793361
 33
0.0
  0
MTEXT
  5
272
330
26C
100
AcDbEntity
  8
1
 62
     7
100
AcDbMText
 10
160.3238457550517
 20
184.4258876793361
 30
0.0
 40
8.75
 41
0.0
 71
     7
 72
     1
  1
95
  7
CONVERTER_12
 11
0.0
 21
1.0
 31
0.0
 73
     1
 44
0.60024009603842
  0
ENDBLK
  5
274
330
26C
100
AcDbEntity
  8
0
100
AcDbBlockEnd
  0
BLOCK
  5
27E
330
277
100
AcDbEntity
  8
0
100
AcDbBlockBegin
  2
*D11
 70
     1
 10
0.0
 20
0.0
 30
0.0
  3
*D11
  1

  0
LINE
  5
278
330
277
100
AcDbEntity
  8
1
  6
Continuous
 62
     2
100
AcDbLine
 10
162.8238457550517
 20
328.2383876793361
 30
0.0
 11
162.8238457550517
 21
238.2383876793361
 31
0.0
  0
LINE
  5
279
330
277
100
AcDbEntity
  8
1
  6
Continuous
 62
     2
100
AcDbLine
 10
351.6803788872733
 20
238.2383876793361
 30
0.0
 11
160.3238457550517
 21
238.2383876793361
 31
0.0
  0
LINE
  5
27A
330
277
100
AcDbEntity
  8
1
  6
Continuous
 62
     2
100
AcDbLine
 10
265.4756451594626
 20
328.2383876793361
 30
0.0
 11
160.3238457550517
 21
328.2383876793361
 31
0.0
  0
SOLID
  5
27B
330
277
100
AcDbEntity
  8
1
 62
     2
100
AcDbTrace
 10
163.9758051089414
 20
319.4883876793361
 30
0.0
 11
161.671886401162
 21
319.4883876793361
 31
0.0
 12
162.8238457550517
 22
328.2383876793361
 32
0.0
 13
162.8238457550517
 23
328.2383876793361
 33
0.0
  0
SOLID
  5
27C
330
277
100
AcDbEntity
  8
1
 62
     2
100
AcDbTrace
 10
161.671886401162
 20
246.9883876793361
 30
0.0
 11
163.9758051089414
 21
246.9883876793361
 31
0.0
 12
162.8238457550517
 22
238.2383876793361
 32
0.0
 13
162.8238457550517
 23
238.2383876793361
 33
0.0
  0
MTEXT
  5
27D
330
277
100
AcDbEntity
  8
1
 62
     7
100
AcDbMText
 10
160.3238457550517
 20
276.4923442094729
 30
0.0
 40
8.75
 41
0.0
 71
     7
 72
     1
  1
90
  7
CONVERTER_12
 11
0.0
 21
1.0
 31
0.0
 73
     1
 44
0.60024009603842
  0
ENDBLK
  5
27F
330
277
100
AcDbEntity
  8
0
100
AcDbBlockEnd
  0
BLOCK
  5
289
330
282
100
AcDbEntity
  8
0
100
AcDbBlockBegin
  2
*D12
 70
     1
 10
0.0
 20
0.0
 30
0.0
  3
*D12
  1

  0
LINE
  5
283
330
282
100
AcDbEntity
  8
1
  6
Continuous
 62
     2
100
AcDbLine
 10
366.4756451594627
 20
118.7383876793361
 30
0.0
 11
401.4756451594627
 21
118.7383876793361
 31
0.0
  0
LINE
  5
284
330
282
100
AcDbEntity
  8
1
  6
Continuous
 62
     2
100
AcDbLine
 10
366.4756451594627
 20
203.7383876793361
 30
0.0
 11
366.4756451594627
 21
116.2383876793361
 31
0.0
  0
LINE
  5
285
330
282
100
AcDbEntity
  8
1
  6
Continuous
 62
     2
100
AcDbLine
 10
401.4756451594627
 20
222.5871027293721
 30
0.0
 11
401.4756451594627
 21
116.2383876793361
 31
0.0
  0
SOLID
  5
286
330
282
100
AcDbEntity
  8
1
 62
     2
100
AcDbTrace
 10
375.2256451594627
 20
119.8903470332258
 30
0.0
 11
375.2256451594627
 21
117.5864283254464
 31
0.0
 12
366.4756451594627
 22
118.7383876793361
 32
0.0
 13
366.4756451594627
 23
118.7383876793361
 33
0.0
  0
SOLID
  5
287
330
282
100
AcDbEntity
  8
1
 62
     2
100
AcDbTrace
 10
392.7256451594627
 20
117.5864283254464
 30
0.0
 11
392.7256451594627
 21
119.8903470332258
 31
0.0
 12
401.4756451594627
 22
118.7383876793361
 32
0.0
 13
401.4756451594627
 23
118.7383876793361
 33
0.0
  0
MTEXT
  5
288
330
282
100
AcDbEntity
  8
1
 62
     7
100
AcDbMText
 10
377.4131451594627
 20
121.2383876793361
 30
0.0
 40
8.75
 41
0.0
 71
     7
 72
     1
  1
35
  7
CONVERTER_12
 11
0.9999999999970619
 21
2.424068405545306E-6
 31
0.0
 73
     1
 44
0.60024009603842
  0
ENDBLK
  5
28A
330
282
100
AcDbEntity
  8
0
100
AcDbBlockEnd
  0
BLOCK
  5
294
330
28D
100
AcDbEntity
  8
0
100
AcDbBlockBegin
  2
*D13
 70
     1
 10
0.0
 20
0.0
 30
0.0
  3
*D13
  1

  0
LINE
  5
28E
330
28D
100
AcDbEntity
  8
1
  6
Continuous
 62
     2
100
AcDbLine
 10
196.4738457550519
 20
118.7383876793361
 30
0.0
 11
366.4756451594626
 21
118.7383876793361
 31
0.0
  0
LINE
  5
28F
330
28D
100
AcDbEntity
  8
1
  6
Continuous
 62
     2
100
AcDbLine
 10
196.4738457550519
 20
140.5903427597141
 30
0.0
 11
196.4738457550519
 21
116.2383876793361
 31
0.0
  0
LINE
  5
290
330
28D
100
AcDbEntity
  8
1
  6
Continuous
 62
     2
100
AcDbLine
 10
366.4756451594626
 20
204.7383876793361
 30
0.0
 11
366.4756451594626
 21
116.2383876793361
 31
0.0
  0
SOLID
  5
291
330
28D
100
AcDbEntity
  8
1
 62
     2
100
AcDbTrace
 10
205.2238457550519
 20
119.8903470332258
 30
0.0
 11
205.2238457550519
 21
117.5864283254464
 31
0.0
 12
196.4738457550519
 22
118.7383876793361
 32
0.0
 13
196.4738457550519
 23
118.7383876793361
 33
0.0
  0
SOLID
  5
292
330
28D
100
AcDbEntity
  8
1
 62
     2
100
AcDbTrace
 10
357.7256451594626
 20
117.5864283254464
 30
0.0
 11
357.7256451594626
 21
119.8903470332258
 31
0.0
 12
366.4756451594626
 22
118.7383876793361
 32
0.0
 13
366.4756451594626
 23
118.7383876793361
 33
0.0
  0
MTEXT
  5
293
330
28D
100
AcDbEntity
  8
1
 62
     7
100
AcDbMText
 10
272.2872454572573
 20
121.2383876793361
 30
0.0
 40
8.75
 41
0.0
 71
     7
 72
     1
  1
170
  7
CONVERTER_12
 11
0.9999999999970619
 21
2.424068405545306E-6
 31
0.0
 73
     1
 44
0.60024009603842
  0
ENDBLK
  5
295
330
28D
100
AcDbEntity
  8
0
100
AcDbBlockEnd
  0
BLOCK
  5
29F
330
298
100
AcDbEntity
  8
0
100
AcDbBlockBegin
  2
*D14
 70
     1
 10
0.0
 20
0.0
 30
0.0
  3
*D14
  1

  0
LINE
  5
299
330
298
100
AcDbEntity
  8
1
  6
Continuous
 62
     2
100
AcDbLine
 10
251.4756451594627
 20
352.9383876793361
 30
0.0
 11
401.4756451594627
 21
352.9383876793361
 31
0.0
  0
LINE
  5
29A
330
298
100
AcDbEntity
  8
1
  6
Continuous
 62
     2
100
AcDbLine
 10
401.4756451594627
 20
315.2383876793362
 30
0.0
 11
401.4756451594627
 21
355.4383876793361
 31
0.0
  0
LINE
  5
29B
330
298
100
AcDbEntity
  8
1
  6
Continuous
 62
     2
100
AcDbLine
 10
251.4756451594627
 20
314.2383876793361
 30
0.0
 11
251.4756451594627
 21
355.4383876793361
 31
0.0
  0
SOLID
  5
29C
330
298
100
AcDbEntity
  8
1
 62
     2
100
AcDbTrace
 10
260.2256451594627
 20
354.0903470332258
 30
0.0
 11
260.2256451594627
 21
351.7864283254464
 31
0.0
 12
251.4756451594627
 22
352.9383876793361
 32
0.0
 13
251.4756451594627
 23
352.9383876793361
 33
0.0
  0
SOLID
  5
29D
330
298
100
AcDbEntity
  8
1
 62
     2
100
AcDbTrace
 10
392.7256451594627
 20
351.7864283254464
 30
0.0
 11
392.7256451594627
 21
354.0903470332258
 31
0.0
 12
401.4756451594627
 22
352.9383876793361
 32
0.0
 13
401.4756451594627
 23
352.9383876793361
 33
0.0
  0
MTEXT
  5
29E
330
298
100
AcDbEntity
  8
1
 62
     7
100
AcDbMText
 10
317.2881451594627
 20
355.4383876793361
 30
0.0
 40
8.75
 41
0.0
 71
     7
 72
     1
  1
150
  7
CONVERTER_12
 11
0.9999999999970619
 21
2.424068405545306E-6
 31
0.0
 73
     1
 44
0.60024009603842
  0
ENDBLK
  5
2A0
330
298
100
AcDbEntity
  8
0
100
AcDbBlockEnd
  0
BLOCK
  5
2AC
330
2A3
100
AcDbEntity
  8
0
100
AcDbBlockBegin
  2
*D15
 70
     1
 10
0.0
 20
0.0
 30
0.0
  3
*D15
  1

  0
LINE
  5
2A4
330
2A3
100
AcDbEntity
  8
1
  6
Continuous
 62
     2
100
AcDbLine
 10
428.9756451594627
 20
118.7383876793361
 30
0.0
 11
446.4756451594627
 21
118.7383876793361
 31
0.0
  0
LINE
  5
2A5
330
2A3
100
AcDbEntity
  8
1
  6
Continuous
 62
     2
100
AcDbLine
 10
446.4756451594627
 20
118.7383876793361
 30
0.0
 11
460.4756451594627
 21
118.7383876793361
 31
0.0
  0
LINE
  5
2A6
330
2A3
100
AcDbEntity
  8
1
  6
Continuous
 62
     2
100
AcDbLine
 10
460.4756451594627
 20
118.7383876793361
 30
0.0
 11
478.125671440905
 21
118.7383876793361
 31
0.0
  0
LINE
  5
2A7
330
2A3
100
AcDbEntity
  8
1
  6
Continuous
 62
     2
100
AcDbLine
 10
460.4756451594627
 20
228.7383876793359
 30
0.0
 11
460.4756451594627
 21
116.2383876793361
 31
0.0
  0
LINE
  5
2A8
330
2A3
100
AcDbEntity
  8
1
  6
Continuous
 62
     2
100
AcDbLine
 10
446.4756451594627
 20
215.2383876793359
 30
0.0
 11
446.4756451594627
 21
116.2383876793361
 31
0.0
  0
SOLID
  5
2A9
330
2A3
100
AcDbEntity
  8
1
 62
     2
100
AcDbTrace
 10
437.7256451594627
 20
117.5864283254464
 30
0.0
 11
437.7256451594627
 21
119.8903470332258
 31
0.0
 12
446.4756451594627
 22
118.7383876793361
 32
0.0
 13
446.4756451594627
 23
118.7383876793361
 33
0.0
  0
SOLID
  5
2AA
330
2A3
100
AcDbEntity
  8
1
 62
     2
100
AcDbTrace
 10
469.2256451594627
 20
119.8903470332258
 30
0.0
 11
469.2256451594627
 21
117.5864283254464
 31
0.0
 12
460.4756451594627
 22
118.7383876793361
 32
0.0
 13
460.4756451594627
 23
118.7383876793361
 33
0.0
  0
MTEXT
  5
2AB
330
2A3
100
AcDbEntity
  8
1
 62
     7
100
AcDbMText
 10
467.625671440905
 20
121.2383876793361
 30
0.0
 40
8.75
 41
0.0
 71
     7
 72
     1
  1
14
  7
CONVERTER_12
 11
0.9999999999970619
 21
2.424068405545306E-6
 31
0.0
 73
     1
 44
0.60024009603842
  0
ENDBLK
  5
2AD
330
2A3
100
AcDbEntity
  8
0
100
AcDbBlockEnd
  0
BLOCK
  5
2B7
330
2B0
100
AcDbEntity
  8
0
100
AcDbBlockBegin
  2
*D16
 70
     1
 10
0.0
 20
0.0
 30
0.0
  3
*D16
  1

  0
LINE
  5
2B1
330
2B0
100
AcDbEntity
  8
1
  6
Continuous
 62
     2
100
AcDbLine
 10
485.4756451594627
 20
261.2383876793359
 30
0.0
 11
485.4756451594627
 21
215.2383876793359
 31
0.0
  0
LINE
  5
2B2
330
2B0
100
AcDbEntity
  8
1
  6
Continuous
 62
     2
100
AcDbLine
 10
446.4756451594627
 20
215.2383876793359
 30
0.0
 11
487.9756451594627
 21
215.2383876793359
 31
0.0
  0
LINE
  5
2B3
330
2B0
100
AcDbEntity
  8
1
  6
Continuous
 62
     2
100
AcDbLine
 10
446.4756451594626
 20
261.2383876793359
 30
0.0
 11
487.9756451594627
 21
261.2383876793359
 31
0.0
  0
SOLID
  5
2B4
330
2B0
100
AcDbEntity
  8
1
 62
     2
100
AcDbTrace
 10
486.6276045133524
 20
252.4883876793359
 30
0.0
 11
484.323685805573
 21
252.4883876793359
 31
0.0
 12
485.4756451594627
 22
261.2383876793359
 32
0.0
 13
485.4756451594627
 23
261.2383876793359
 33
0.0
  0
SOLID
  5
2B5
330
2B0
100
AcDbEntity
  8
1
 62
     2
100
AcDbTrace
 10
484.323685805573
 20
223.9883876793359
 30
0.0
 11
486.6276045133524
 21
223.9883876793359
 31
0.0
 12
485.4756451594627
 22
215.2383876793359
 32
0.0
 13
485.4756451594627
 23
215.2383876793359
 33
0.0
  0
MTEXT
  5
2B6
330
2B0
100
AcDbEntity
  8
1
 62
     7
100
AcDbMText
 10
482.9756451594627
 20
229.7508876793361
 30
0.0
 40
8.75
 41
0.0
 71
     7
 72
     1
  1
\C7;{\Fgdt;n}\C7;46
  7
CONVERTER_12
 11
0.0
 21
1.0
 31
0.0
 73
     1
 44
0.60024009603842
  0
ENDBLK
  5
2B8
330
2B0
100
AcDbEntity
  8
0
100
AcDbBlockEnd
  0
BLOCK
  5
2C2
330
2BB
100
AcDbEntity
  8
0
100
AcDbBlockBegin
  2
*D17
 70
     1
 10
0.0
 20
0.0
 30
0.0
  3
*D17
  1

  0
LINE
  5
2BC
330
2BB
100
AcDbEntity
  8
1
  6
Continuous
 62
     2
100
AcDbLine
 10
401.4756451594627
 20
118.7383876793361
 30
0.0
 11
446.4756451594627
 21
118.7383876793361
 31
0.0
  0
LINE
  5
2BD
330
2BB
100
AcDbEntity
  8
1
  6
Continuous
 62
     2
100
AcDbLine
 10
446.4756451594627
 20
215.2383876793359
 30
0.0
 11
446.4756451594627
 21
116.2383876793361
 31
0.0
  0
LINE
  5
2BE
330
2BB
100
AcDbEntity
  8
1
  6
Continuous
 62
     2
100
AcDbLine
 10
401.4756451594627
 20
222.2383876793358
 30
0.0
 11
401.4756451594627
 21
116.2383876793361
 31
0.0
  0
SOLID
  5
2BF
330
2BB
100
AcDbEntity
  8
1
 62
     2
100
AcDbTrace
 10
410.2256451594627
 20
119.8903470332258
 30
0.0
 11
410.2256451594627
 21
117.5864283254464
 31
0.0
 12
401.4756451594627
 22
118.7383876793361
 32
0.0
 13
401.4756451594627
 23
118.7383876793361
 33
0.0
  0
SOLID
  5
2C0
330
2BB
100
AcDbEntity
  8
1
 62
     2
100
AcDbTrace
 10
437.7256451594627
 20
117.5864283254464
 30
0.0
 11
437.7256451594627
 21
119.8903470332258
 31
0.0
 12
446.4756451594627
 22
118.7383876793361
 32
0.0
 13
446.4756451594627
 23
118.7383876793361
 33
0.0
  0
MTEXT
  5
2C1
330
2BB
100
AcDbEntity
  8
1
 62
     7
100
AcDbMText
 10
417.4131451594627
 20
121.2383876793361
 30
0.0
 40
8.75
 41
0.0
 71
     7
 72
     1
  1
45
  7
CONVERTER_12
 11
0.9999999999970619
 21
2.424068405545306E-6
 31
0.0
 73
     1
 44
0.60024009603842
  0
ENDBLK
  5
2C3
330
2BB
100
AcDbEntity
  8
0
100
AcDbBlockEnd
  0
ENDSEC
  0
SECTION
  2
ENTITIES
  0
INSERT
  5
64
330
1F
100
AcDbEntity
  8
1
100
AcDbBlockReference
  2
37-119
 10
1398.1006207669
 20
750.3640453267149
 30
0.0
 41
1.0
 42
1.0
 43
1.0
  0
INSERT
  5
65
330
1F
100
AcDbEntity
  8
1
100
AcDbBlockReference
  2
A90-0A-13-M1
 10
0.0
 20
1162.5
 30
0.0
 41
1.0
 42
1.0
 43
1.0
  0
INSERT
  5
66
330
1F
100
AcDbEntity
  8
1
100
AcDbBlockReference
  2
27-4A-M1
 10
0.0
 20
1162.5
 30
0.0
 41
1.0
 42
1.0
 43
1.0
  0
INSERT
  5
67
330
1F
100
AcDbEntity
  8
0
100
AcDbBlockReference
  2
42-29
 10
248.7756605191029
 20
433.6284565676667
 30
0.0
 41
1.0
 42
1.0
 43
1.0
  0
INSERT
  5
68
330
1F
100
AcDbEntity
  8
1
100
AcDbBlockReference
  2
開示A4
 10
0.0
 20
0.0
 30
0.0
 41
2.5
 42
2.5
 43
2.5
  0
INSERT
  5
69
330
1F
100
AcDbEntity
  8
0
100
AcDbBlockReference
  2
36-27
 10
155.6617867375143
 20
139.6692616699
 30
0.0
 41
1.0
 42
1.0
 43
1.0
  0
INSERT
  5
6A
330
1F
100
AcDbEntity
  8
1
100
AcDbBlockReference
  2
61-1X-16-170
 10
149.8238457550516
 20
141.5903427597141
 30
0.0
 41
1.0
 42
1.0
 43
1.0
  0
LINE
  5
251
330
1F
100
AcDbEntity
  8
1
  6
DASH_CENTER
 62
     2
100
AcDbLine
 10
401.4756451594626
 20
277.5998529484942
 30
0.0
 11
401.4756451594626
 21
315.2383876793362
 31
0.0
  0
LINE
  5
252
330
1F
100
AcDbEntity
  8
1
  6
DASH_CENTER
 62
     2
100
AcDbLine
 10
223.4738457550519
 20
176.7383876793361
 30
0.0
 11
339.4756451594626
 21
176.7383876793361
 31
0.0
  0
LINE
  5
253
330
1F
100
AcDbEntity
  8
1
  6
DASH_CENTER
 62
     2
100
AcDbLine
 10
196.4738457550519
 20
140.5903427597141
 30
0.0
 11
196.4738457550519
 21
149.7383876793361
 31
0.0
  0
LINE
  5
254
330
1F
100
AcDbEntity
  8
1
  6
DASH_CENTER
 62
     2
100
AcDbLine
 10
130.83351238803
 20
354.5630018263114
 30
0.0
 11
108.481338981947
 21
354.5630018263114
 31
0.0
  0
LINE
  5
255
330
1F
100
AcDbEntity
  8
1
  6
DASH_CENTER
 62
     2
100
AcDbLine
 10
136.4592901941679
 20
559.5648012307221
 30
0.0
 11
102.4592901941679
 21
559.5648012307221
 31
0.0
  0
LINE
  5
256
330
1F
100
AcDbEntity
  8
1
  6
DASH_CENTER
 62
     2
100
AcDbLine
 10
135.4592901941679
 20
524.5648012307221
 30
0.0
 11
103.4592901941679
 21
524.5648012307221
 31
0.0
  0
LINE
  5
257
330
1F
100
AcDbEntity
  8
0
  6
DASH_CENTER
 62
     2
100
AcDbLine
 10
142.4592901941679
 20
238.2383876793361
 30
0.0
 11
145.4592901941679
 21
238.2383876793361
 31
0.0
  0
LINE
  5
258
330
1F
100
AcDbEntity
  8
0
  6
DASH_CENTER
 62
     2
100
AcDbLine
 10
93.45929019416792
 20
238.2383876793361
 30
0.0
 11
142.4592901941679
 21
238.2383876793361
 31
0.0
  0
LINE
  5
259
330
1F
100
AcDbEntity
  8
1
  6
DASH_CENTER
 62
     2
100
AcDbLine
 10
119.4592901941679
 20
624.2866194248658
 30
0.0
 11
119.4592901941679
 21
339.586804560757
 31
0.0
  0
LINE
  5
25A
330
1F
100
AcDbEntity
  8
0
  6
DASH_CENTER
 62
     2
100
AcDbLine
 10
265.4756451594626
 20
330.9383876793361
 30
0.0
 11
265.4756451594626
 21
296.9383876793361
 31
0.0
  0
LINE
  5
25B
330
1F
100
AcDbEntity
  8
0
  6
DASH_CENTER
 62
     2
100
AcDbLine
 10
119.4592901941679
 20
334.9062007369949
 30
0.0
 11
119.4592901941679
 21
141.2954151777522
 31
0.0
  0
LINE
  5
25C
330
1F
100
AcDbEntity
  8
1
  6
DASH_CENTER
 62
     2
100
AcDbLine
 10
401.4756451594626
 20
222.5871027293721
 30
0.0
 11
401.4756451594626
 21
277.5998529484942
 31
0.0
  0
LINE
  5
25D
330
1F
100
AcDbEntity
  8
1
  6
DASH_CENTER
 62
     2
100
AcDbLine
 10
463.5134516912156
 20
238.2383876793361
 30
0.0
 11
351.6803788872733
 21
238.2383876793361
 31
0.0
  0
LINE
  5
25E
330
1F
100
AcDbEntity
  8
1
  6
DASH_CENTER
 62
     2
100
AcDbLine
 10
366.4756451594626
 20
204.7383876793361
 30
0.0
 11
366.4756451594626
 21
241.1708570751037
 31
0.0
  0
LINE
  5
25F
330
1F
100
AcDbEntity
  8
1
  6
DASH_CENTER
 62
     2
100
AcDbLine
 10
112.2674235400734
 20
314.2383876793361
 30
0.0
 11
126.6492901941679
 21
314.2383876793361
 31
0.0
  0
LINE
  5
260
330
1F
100
AcDbEntity
  8
1
  6
DASH_CENTER
 62
     2
100
AcDbLine
 10
243.9756451594626
 20
314.2383876793361
 30
0.0
 11
292.7752972934136
 21
314.2383876793361
 31
0.0
  0
ARC
  5
261
330
1F
100
AcDbEntity
  8
1
  6
DASH_CENTER
 62
     2
100
AcDbCircle
 10
339.4756451594626
 20
203.7383876793361
 30
0.0
 40
27.0
100
AcDbArc
 50
270.0
 51
0.0
  0
ARC
  5
262
330
1F
100
AcDbEntity
  8
1
  6
DASH_CENTER
 62
     2
100
AcDbCircle
 10
223.4738457550519
 20
149.7383876793361
 30
0.0
 40
27.0
100
AcDbArc
 50
90.0
 51
180.0
  0
SOLID
  5
263
330
1F
100
AcDbEntity
  8
1
 62
     2
100
AcDbTrace
 10
133.3366641295724
 20
619.2185031907808
 30
0.0
 11
135.3319162587636
 21
618.066543836891
 31
0.0
 12
129.9592901941679
 22
611.0648012307221
 32
0.0
 13
129.9592901941679
 23
611.0648012307221
 33
0.0
  0
LEADER
  5
264
330
1F
100
AcDbEntity
  8
1
  6
Continuous
 62
     2
100
AcDbLeader
  3
Standard
 71
     0
 76
     3
 10
129.9592901941679
 20
611.0648012307221
 30
0.0
 10
145.1702433508697
 20
637.4109449296798
 30
0.0
 10
183.004899340696
 20
637.4109449296798
 30
0.0
  0
MTEXT
  5
266
330
1F
100
AcDbEntity
  8
1
 62
     7
100
AcDbMText
 10
234.375
 20
42.5
 30
0.0
 40
8.75
 41
0.0
 71
     5
 72
     1
  1
2,5
  7
CONVERTER_12
 73
     1
 44
0.7202881152461
  0
MTEXT
  5
267
330
1F
100
AcDbEntity
  8
1
 62
     7
100
AcDbMText
 10
213.125
 20
42.5
 30
0.0
 40
8.75
 41
0.0
 71
     5
 72
     1
  1
1
  7
CONVERTER_12
 73
     1
 44
0.7202881152461
  0
MTEXT
  5
268
330
1F
100
AcDbEntity
  8
0
 62
     7
100
AcDbMText
 10
142.5
 20
35.62499999999999
 30
0.0
 40
8.75
 41
0.0
 71
     5
 72
     1
  1
A90-13
  7
CONVERTER_12
 73
     1
 44
1.32052821128451
  0
MTEXT
  5
269
330
1F
100
AcDbEntity
  8
0
 62
     7
100
AcDbMText
 10
142.5
 20
56.87500000000003
 30
0.0
 40
8.75
 41
0.0
 71
     5
 72
     1
  1
レバー式自在水栓
  7
CONVERTER_11
 73
     1
 44
1.0
  0
MTEXT
  5
26A
330
1F
100
AcDbEntity
  8
1
 62
     7
100
AcDbMText
 10
164.0875713457828
 20
644.9109449296799
 30
0.0
 40
8.75
 41
0.0
 71
     5
 72
     1
  1
PJ1/2
  7
CONVERTER_12
 73
     1
 44
1.32052821128451
  0
MTEXT
  5
26B
330
1F
100
AcDbEntity
  8
0
 62
     7
100
AcDbMText
 10
85.0
 20
85.00000000000001
 30
0.0
 40
8.75
 41
0.0
 71
     4
 72
     1
  1
JIS
  7
CONVERTER_12
 73
     1
 44
1.32052821128451
  0
DIMENSION
  5
276
330
1F
100
AcDbEntity
  8
1
100
AcDbDimension
  2
*D10
 10
162.8238457550517
 20
238.2383876793361
 30
0.0
 11
155.9488457550517
 21
190.9883876793361
 31
0.0
 70
    32
  1
95
 71
     5
 42
-1.0
 53
90.0
  3
ME10_DIM_10
100
AcDbAlignedDimension
 13
189.0874387490657
 23
143.7383876793361
 33
0.0
 14
351.6803788872733
 24
238.2383876793361
 34
0.0
 50
90.0
100
AcDbRotatedDimension
  0
DIMENSION
  5
281
330
1F
100
AcDbEntity
  8
1
100
AcDbDimension
  2
*D11
 10
162.8238457550517
 20
328.2383876793361
 30
0.0
 11
155.9488457550517
 21
283.0548442094729
 31
0.0
 70
    32
  1
<>
 71
     5
 42
-1.0
 53
90.0
  3
ME10_DIM_11
100
AcDbAlignedDimension
 13
351.6803788872733
 23
238.2383876793361
 33
0.0
 14
265.4756451594625
 24
328.238387679336
 34
0.0
 50
90.0
100
AcDbRotatedDimension
  0
DIMENSION
  5
28C
330
1F
100
AcDbEntity
  8
1
100
AcDbDimension
  2
*D12
 10
366.4756451594627
 20
118.7383876793361
 30
0.0
 11
383.9756451594627
 21
125.6133876793361
 31
0.0
 70
    32
  1
<>
 71
     5
 42
-1.0
 53
0.00013888888889
  3
ME10_DIM_12
100
AcDbAlignedDimension
 13
401.4756451594626
 23
222.5871027293721
 33
0.0
 14
366.4756451594625
 24
203.7383876793361
 34
0.0
100
AcDbRotatedDimension
  0
DIMENSION
  5
297
330
1F
100
AcDbEntity
  8
1
100
AcDbDimension
  2
*D13
 10
196.4738457550519
 20
118.7383876793361
 30
0.0
 11
281.4747454572573
 21
125.6133876793361
 31
0.0
 70
    32
  1
<>
 71
     5
 42
-1.0
 53
0.00013888888889
  3
ME10_DIM_13
100
AcDbAlignedDimension
 13
366.4756451594626
 23
204.7383876793361
 33
0.0
 14
196.4738457550519
 24
140.5903427597141
 34
0.0
100
AcDbRotatedDimension
  0
DIMENSION
  5
2A2
330
1F
100
AcDbEntity
  8
1
100
AcDbDimension
  2
*D14
 10
251.4756451594627
 20
352.9383876793361
 30
0.0
 11
326.4756451594627
 21
359.8133876793361
 31
0.0
 70
    32
  1
<>
 71
     5
 42
-1.0
 53
0.00013888888889
  3
ME10_DIM_14
100
AcDbAlignedDimension
 13
401.4756451594625
 23
315.2383876793361
 33
0.0
 14
251.4756451594625
 24
314.238387679336
 34
0.0
100
AcDbRotatedDimension
  0
DIMENSION
  5
2AF
330
1F
100
AcDbEntity
  8
1
100
AcDbDimension
  2
*D15
 10
446.4756451594627
 20
118.7383876793361
 30
0.0
 11
472.875671440905
 21
125.6133876793361
 31
0.0
 70
    32
  1
<>
 71
     5
 42
-1.0
 53
0.00013888888889
  3
ME10_DIM_15
100
AcDbAlignedDimension
 13
460.4756451594626
 23
228.7383876793358
 33
0.0
 14
446.4756451594625
 24
215.2383876793358
 34
0.0
100
AcDbRotatedDimension
  0
DIMENSION
  5
2BA
330
1F
100
AcDbEntity
  8
1
100
AcDbDimension
  2
*D16
 10
485.4756451594627
 20
261.2383876793359
 30
0.0
 11
478.6006451594627
 21
238.2383876793361
 31
0.0
 70
    32
  1
<>
 71
     5
 42
-1.0
 53
90.0
  3
ME10_DIM_16
100
AcDbAlignedDimension
 13
446.4756451594625
 23
215.2383876793358
 33
0.0
 14
446.4756451594625
 24
261.2383876793359
 34
0.0
 50
90.0
100
AcDbRotatedDimension
  0
DIMENSION
  5
2C5
330
1F
100
AcDbEntity
  8
1
100
AcDbDimension
  2
*D17
 10
401.4756451594627
 20
118.7383876793361
 30
0.0
 11
423.9756451594627
 21
125.6133876793361
 31
0.0
 70
    32
  1
<>
 71
     5
 42
-1.0
 53
0.00013888888889
  3
ME10_DIM_17
100
AcDbAlignedDimension
 13
446.4756451594625
 23
215.2383876793358
 33
0.0
 14
401.4756451594627
 24
222.2383876793357
 34
0.0
100
AcDbRotatedDimension
  0
ENDSEC
  0
SECTION
  2
OBJECTS
  0
DICTIONARY
  5
C
330
0
100
AcDbDictionary
281
     1
  3
ACAD_GROUP
350
D
  3
ACAD_LAYOUT
350
1A
  3
ACAD_MATERIAL
350
3B
  3
ACAD_MLEADERSTYLE
350
2C8
  3
ACAD_MLINESTYLE
350
17
  3
ACAD_PLOTSETTINGS
350
19
  3
ACAD_PLOTSTYLENAME
350
E
  3
ACAD_VISUALSTYLE
350
2A
  3
AcDbVariableDictionary
350
2C6
  0
DICTIONARY
  5
D
102
{ACAD_REACTORS
330
C
102
}
330
C
100
AcDbDictionary
281
     1
  0
DICTIONARY
  5
1A
102
{ACAD_REACTORS
330
C
102
}
330
C
100
AcDbDictionary
281
     1
  3
Layout1
350
1E
  3
Layout2
350
26
  3
Model
350
22
  0
DICTIONARY
  5
3B
102
{ACAD_REACTORS
330
C
102
}
330
C
100
AcDbDictionary
281
     1
  3
ByBlock
350
3D
  3
ByLayer
350
3C
  3
Global
350
3E
  0
DICTIONARY
  5
2C8
102
{ACAD_REACTORS
330
C
102
}
330
C
100
AcDbDictionary
281
     1
  0
DICTIONARY
  5
17
102
{ACAD_REACTORS
330
C
102
}
330
C
100
AcDbDictionary
281
     1
  3
Standard
350
18
  0
DICTIONARY
  5
19
102
{ACAD_REACTORS
330
C
102
}
330
C
100
AcDbDictionary
281
     1
  0
ACDBDICTIONARYWDFLT
  5
E
102
{ACAD_REACTORS
330
C
102
}
330
C
100
AcDbDictionary
281
     1
  3
Normal
350
F
100
AcDbDictionaryWithDefault
340
F
  0
DICTIONARY
  5
2A
102
{ACAD_REACTORS
330
C
102
}
330
C
100
AcDbDictionary
281
     1
  3
2dWireframe
350
2F
  3
3D Hidden
350
31
  3
3dWireframe
350
30
  3
Basic
350
32
  3
Brighten
350
36
  3
ColorChange
350
3A
  3
Conceptual
350
34
  3
Dim
350
35
  3
Facepattern
350
39
  3
Flat
350
2B
  3
FlatWithEdges
350
2C
  3
Gouraud
350
2D
  3
GouraudWithEdges
350
2E
  3
Linepattern
350
38
  3
Realistic
350
33
  3
Thicken
350
37
  0
DICTIONARY
  5
2C6
102
{ACAD_REACTORS
330
C
102
}
330
C
100
AcDbDictionary
281
     1
  3
DIMASSOC
350
2C9
  3
HIDETEXT
350
2CA
  0
LAYOUT
  5
1E
102
{ACAD_REACTORS
330
1A
102
}
330
1A
100
AcDbPlotSettings
  1

  2
none_device
  4

  6

 40
0.0
 41
0.0
 42
0.0
 43
0.0
 44
0.0
 45
0.0
 46
0.0
 47
0.0
 48
0.0
 49
0.0
140
0.0
141
0.0
142
1.0
143
1.0
 70
   688
 72
     0
 73
     0
 74
     5
  7

 75
    16
147
1.0
148
0.0
149
0.0
100
AcDbLayout
  1
Layout1
 70
     1
 71
     1
 10
0.0
 20
0.0
 11
12.0
 21
9.0
 12
0.0
 22
0.0
 32
0.0
 14
1.00000000000000E+20
 24
1.00000000000000E+20
 34
1.00000000000000E+20
 15
-1.00000000000000E+20
 25
-1.00000000000000E+20
 35
-1.00000000000000E+20
146
0.0
 13
0.0
 23
0.0
 33
0.0
 16
1.0
 26
0.0
 36
0.0
 17
0.0
 27
1.0
 37
0.0
 76
     0
330
1B
  0
LAYOUT
  5
26
102
{ACAD_REACTORS
330
1A
102
}
330
1A
100
AcDbPlotSettings
  1

  2
none_device
  4

  6

 40
0.0
 41
0.0
 42
0.0
 43
0.0
 44
0.0
 45
0.0
 46
0.0
 47
0.0
 48
0.0
 49
0.0
140
0.0
141
0.0
142
1.0
143
1.0
 70
   688
 72
     0
 73
     0
 74
     5
  7

 75
    16
147
1.0
148
0.0
149
0.0
100
AcDbLayout
  1
Layout2
 70
     1
 71
     2
 10
0.0
 20
0.0
 11
0.0
 21
0.0
 12
0.0
 22
0.0
 32
0.0
 14
0.0
 24
0.0
 34
0.0
 15
0.0
 25
0.0
 35
0.0
146
0.0
 13
0.0
 23
0.0
 33
0.0
 16
1.0
 26
0.0
 36
0.0
 17
0.0
 27
1.0
 37
0.0
 76
     0
330
23
  0
LAYOUT
  5
22
102
{ACAD_REACTORS
330
1A
102
}
330
1A
100
AcDbPlotSettings
  1

  2
none_device
  4

  6

 40
0.0
 41
0.0
 42
0.0
 43
0.0
 44
0.0
 45
0.0
 46
0.0
 47
0.0
 48
0.0
 49
0.0
140
0.0
141
0.0
142
1.0
143
1.0
 70
  1712
 72
     0
 73
     0
 74
     0
  7

 75
     0
147
1.0
148
0.0
149
0.0
100
AcDbLayout
  1
Model
 70
     1
 71
     0
 10
0.0
 20
0.0
 11
12.0
 21
9.0
 12
0.0
 22
0.0
 32
0.0
 14
0.0
 24
0.0
 34
0.0
 15
525.0
 25
742.5
 35
0.0
146
0.0
 13
0.0
 23
0.0
 33
0.0
 16
1.0
 26
0.0
 36
0.0
 17
0.0
 27
1.0
 37
0.0
 76
     0
330
1F
331
29
  0
MATERIAL
  5
3D
102
{ACAD_REACTORS
330
3B
102
}
102
{ACAD_XDICTIONARY
360
2ED
102
}
330
3B
100
AcDbMaterial
  1
ByBlock
  0
MATERIAL
  5
3C
102
{ACAD_REACTORS
330
3B
102
}
102
{ACAD_XDICTIONARY
360
2EB
102
}
330
3B
100
AcDbMaterial
  1
ByLayer
  0
MATERIAL
  5
3E
102
{ACAD_REACTORS
330
3B
102
}
102
{ACAD_XDICTIONARY
360
2EF
102
}
330
3B
100
AcDbMaterial
  1
Global
  0
MLINESTYLE
  5
18
102
{ACAD_REACTORS
330
17
102
}
330
17
100
AcDbMlineStyle
  2
Standard
 70
     0
  3

 62
   256
 51
90.0
 52
90.0
 71
     2
 49
0.5
 62
   256
  6
BYLAYER
 49
-0.5
 62
   256
  6
BYLAYER
  0
ACDBPLACEHOLDER
  5
F
102
{ACAD_REACTORS
330
E
102
}
330
E
  0
VISUALSTYLE
  5
2F
102
{ACAD_REACTORS
330
2A
102
}
102
{ACAD_XDICTIONARY
360
2D3
102
}
330
2A
100
AcDbVisualStyle
  2
2dWireframe
 70
     4
 71
     0
 72
     2
 73
     0
 90
        0
 40
-0.6
 41
-30.0
 62
     5
 63
     7
 74
     1
 91
        4
 64
     7
 65
   257
 75
     1
175
     1
 42
1.0
 92
        0
 66
   257
 43
1.0
 76
     1
 77
     6
 78
     2
 67
     7
 79
     5
170
     0
171
     0
290
     0
174
     0
 93
        1
 44
0.0
173
     0
291
     0
 45
0.0
1001
ACAD
1000
AcDbSavedByObjectVersion
1070
     0
  0
VISUALSTYLE
  5
31
102
{ACAD_REACTORS
330
2A
102
}
102
{ACAD_XDICTIONARY
360
2D7
102
}
330
2A
100
AcDbVisualStyle
  2
3D Hidden
 70
     6
 71
     1
 72
     2
 73
     2
 90
        0
 40
-0.6
 41
-30.0
 62
     5
 63
     7
 74
     2
 91
        2
 64
     7
 65
   257
 75
     2
175
     1
 42
40.0
 92
        0
 66
   257
 43
1.0
 76
     1
 77
     6
 78
     2
 67
     7
 79
     3
170
     0
171
     0
290
     0
174
     0
 93
        1
 44
0.0
173
     0
291
     0
 45
0.0
1001
ACAD
1000
AcDbSavedByObjectVersion
1070
     0
  0
VISUALSTYLE
  5
30
102
{ACAD_REACTORS
330
2A
102
}
102
{ACAD_XDICTIONARY
360
2D5
102
}
330
2A
100
AcDbVisualStyle
  2
3dWireframe
 70
     5
 71
     0
 72
     2
 73
     0
 90
        0
 40
-0.6
 41
-30.0
 62
     5
 63
     7
 74
     1
 91
        4
 64
     7
 65
   257
 75
     1
175
     1
 42
1.0
 92
        0
 66
   257
 43
1.0
 76
     1
 77
     6
 78
     2
 67
     7
 79
     5
170
     0
171
     0
290
     0
174
     0
 93
        1
 44
0.0
173
     0
291
     0
 45
0.0
1001
ACAD
1000
AcDbSavedByObjectVersion
1070
     0
  0
VISUALSTYLE
  5
32
102
{ACAD_REACTORS
330
2A
102
}
102
{ACAD_XDICTIONARY
360
2D9
102
}
330
2A
100
AcDbVisualStyle
  2
Basic
 70
     7
 71
     1
 72
     0
 73
     1
 90
        0
 40
-0.6
 41
-30.0
 62
     5
 63
     7
 74
     0
 91
        4
 64
     7
 65
   257
 75
     1
175
     1
 42
1.0
 92
        8
 66
     7
 43
1.0
 76
     1
 77
     6
 78
     2
 67
     7
 79
     5
170
     0
171
     0
290
     0
174
     0
 93
        1
 44
0.0
173
     0
291
     1
 45
0.0
1001
ACAD
1000
AcDbSavedByObjectVersion
1070
     0
  0
VISUALSTYLE
  5
36
102
{ACAD_REACTORS
330
2A
102
}
102
{ACAD_XDICTIONARY
360
2E1
102
}
330
2A
100
AcDbVisualStyle
  2
Brighten
 70
    12
 71
     2
 72
     2
 73
     0
 90
        0
 40
-0.6
 41
-30.0
 62
     5
 63
     7
 74
     1
 91
        4
 64
     7
 65
   257
 75
     1
175
     1
 42
1.0
 92
        8
 66
     7
 43
1.0
 76
     1
 77
     6
 78
     2
 67
     7
 79
     5
170
     0
171
     0
290
     0
174
     0
 93
        1
 44
50.0
173
     0
291
     1
 45
0.0
1001
ACAD
1000
AcDbSavedByObjectVersion
1070
     0
  0
VISUALSTYLE
  5
3A
102
{ACAD_REACTORS
330
2A
102
}
102
{ACAD_XDICTIONARY
360
2E9
102
}
330
2A
100
AcDbVisualStyle
  2
ColorChange
 70
    16
 71
     2
 72
     2
 73
     3
 90
        0
 40
-0.6
 41
-30.0
 62
     5
 63
     8
 74
     1
 91
        4
 64
     7
 65
   257
 75
     1
175
     1
 42
1.0
 92
        8
 66
     8
 43
1.0
 76
     1
 77
     6
 78
     2
 67
     7
 79
     5
170
     0
171
     0
290
     0
174
     0
 93
        1
 44
0.0
173
     0
291
     1
 45
0.0
1001
ACAD
1000
AcDbSavedByObjectVersion
1070
     0
  0
VISUALSTYLE
  5
34
102
{ACAD_REACTORS
330
2A
102
}
102
{ACAD_XDICTIONARY
360
2DD
102
}
330
2A
100
AcDbVisualStyle
  2
Conceptual
 70
     9
 71
     3
 72
     2
 73
     0
 90
        0
 40
-0.6
 41
-30.0
 62
     5
 63
     7
 74
     2
 91
        2
 64
     7
 65
   257
 75
     1
175
     1
 42
40.0
 92
        8
 66
     7
 43
1.0
 76
     1
 77
     6
 78
     2
 67
     7
 79
     3
170
     0
171
     0
290
     0
174
     0
 93
        1
 44
0.0
173
     0
291
     0
 45
0.0
1001
ACAD
1000
AcDbSavedByObjectVersion
1070
     0
  0
VISUALSTYLE
  5
35
102
{ACAD_REACTORS
330
2A
102
}
102
{ACAD_XDICTIONARY
360
2DF
102
}
330
2A
100
AcDbVisualStyle
  2
Dim
 70
    11
 71
     2
 72
     2
 73
     0
 90
        0
 40
-0.6
 41
-30.0
 62
     5
 63
     7
 74
     1
 91
        4
 64
     7
 65
   257
 75
     1
175
     1
 42
1.0
 92
        8
 66
     7
 43
1.0
 76
     1
 77
     6
 78
     2
 67
     7
 79
     5
170
     0
171
     0
290
     0
174
     0
 93
        1
 44
-50.0
173
     0
291
     1
 45
0.0
1001
ACAD
1000
AcDbSavedByObjectVersion
1070
     0
  0
VISUALSTYLE
  5
39
102
{ACAD_REACTORS
330
2A
102
}
102
{ACAD_XDICTIONARY
360
2E7
102
}
330
2A
100
AcDbVisualStyle
  2
Facepattern
 70
    15
 71
     2
 72
     2
 73
     0
 90
        0
 40
-0.6
 41
-30.0
 62
     5
 63
     7
 74
     1
 91
        4
 64
     7
 65
   257
 75
     1
175
     1
 42
1.0
 92
        8
 66
     7
 43
1.0
 76
     1
 77
     6
 78
     2
 67
     7
 79
     5
170
     0
171
     0
290
     0
174
     0
 93
        1
 44
0.0
173
     0
291
     1
 45
0.0
1001
ACAD
1000
AcDbSavedByObjectVersion
1070
     0
  0
VISUALSTYLE
  5
2B
102
{ACAD_REACTORS
330
2A
102
}
102
{ACAD_XDICTIONARY
360
2CB
102
}
330
2A
100
AcDbVisualStyle
  2
Flat
 70
     0
 71
     2
 72
     1
 73
     1
 90
        2
 40
-0.6
 41
30.0
 62
     5
 63
     7
 74
     0
 91
        4
 64
     7
 65
   257
 75
     1
175
     1
 42
1.0
 92
        8
 66
     7
 43
1.0
 76
     1
 77
     6
 78
     2
 67
     7
 79
     5
170
     0
171
     0
290
     0
174
     0
 93
       13
 44
0.0
173
     0
291
     1
 45
0.0
1001
ACAD
1000
AcDbSavedByObjectVersion
1070
     0
  0
VISUALSTYLE
  5
2C
102
{ACAD_REACTORS
330
2A
102
}
102
{ACAD_XDICTIONARY
360
2CD
102
}
330
2A
100
AcDbVisualStyle
  2
FlatWithEdges
 70
     1
 71
     2
 72
     1
 73
     1
 90
        2
 40
-0.6
 41
30.0
 62
     5
 63
     7
 74
     1
 91
        4
 64
     7
 65
   257
 75
     1
175
     1
 42
1.0
 92
        0
 66
   257
 43
1.0
 76
     1
 77
     6
 78
     2
 67
     7
 79
     5
170
     0
171
     0
290
     0
174
     0
 93
       13
 44
0.0
173
     0
291
     1
 45
0.0
1001
ACAD
1000
AcDbSavedByObjectVersion
1070
     0
  0
VISUALSTYLE
  5
2D
102
{ACAD_REACTORS
330
2A
102
}
102
{ACAD_XDICTIONARY
360
2CF
102
}
330
2A
100
AcDbVisualStyle
  2
Gouraud
 70
     2
 71
     2
 72
     2
 73
     1
 90
        2
 40
-0.6
 41
30.0
 62
     5
 63
     7
 74
     0
 91
        4
 64
     7
 65
   257
 75
     1
175
     1
 42
1.0
 92
        0
 66
     7
 43
1.0
 76
     1
 77
     6
 78
     2
 67
     7
 79
     5
170
     0
171
     0
290
     0
174
     0
 93
       13
 44
0.0
173
     0
291
     1
 45
0.0
1001
ACAD
1000
AcDbSavedByObjectVersion
1070
     0
  0
VISUALSTYLE
  5
2E
102
{ACAD_REACTORS
330
2A
102
}
102
{ACAD_XDICTIONARY
360
2D1
102
}
330
2A
100
AcDbVisualStyle
  2
GouraudWithEdges
 70
     3
 71
     2
 72
     2
 73
     1
 90
        2
 40
-0.6
 41
30.0
 62
     5
 63
     7
 74
     1
 91
        4
 64
     7
 65
   257
 75
     1
175
     1
 42
1.0
 92
        0
 66
   257
 43
1.0
 76
     1
 77
     6
 78
     2
 67
     7
 79
     5
170
     0
171
     0
290
     0
174
     0
 93
       13
 44
0.0
173
     0
291
     1
 45
0.0
1001
ACAD
1000
AcDbSavedByObjectVersion
1070
     0
  0
VISUALSTYLE
  5
38
102
{ACAD_REACTORS
330
2A
102
}
102
{ACAD_XDICTIONARY
360
2E5
102
}
330
2A
100
AcDbVisualStyle
  2
Linepattern
 70
    14
 71
     2
 72
     2
 73
     0
 90
        0
 40
-0.6
 41
-30.0
 62
     5
 63
     7
 74
     1
 91
        4
 64
     7
 65
   257
 75
     7
175
     7
 42
1.0
 92
        8
 66
     7
 43
1.0
 76
     1
 77
     6
 78
     2
 67
     7
 79
     5
170
     0
171
     0
290
     0
174
     0
 93
        1
 44
0.0
173
     0
291
     1
 45
0.0
1001
ACAD
1000
AcDbSavedByObjectVersion
1070
     0
  0
VISUALSTYLE
  5
33
102
{ACAD_REACTORS
330
2A
102
}
102
{ACAD_XDICTIONARY
360
2DB
102
}
330
2A
100
AcDbVisualStyle
  2
Realistic
 70
     8
 71
     2
 72
     2
 73
     0
 90
        0
 40
-0.6
 41
-30.0
 62
     5
 63
     7
 74
     1
 91
        0
 64
     7
 65
   257
 75
     1
175
     1
 42
1.0
 92
        8
 66
     8
 43
1.0
 76
     1
 77
     6
 78
     2
 67
     7
 79
     5
170
     0
171
     0
290
     0
174
     0
 93
       13
 44
0.0
173
     0
291
     0
 45
0.0
1001
ACAD
1000
AcDbSavedByObjectVersion
1070
     0
  0
VISUALSTYLE
  5
37
102
{ACAD_REACTORS
330
2A
102
}
102
{ACAD_XDICTIONARY
360
2E3
102
}
330
2A
100
AcDbVisualStyle
  2
Thicken
 70
    13
 71
     2
 72
     2
 73
     0
 90
        0
 40
-0.6
 41
-30.0
 62
     5
 63
     7
 74
     1
 91
        4
 64
     7
 65
   257
 75
     1
175
     1
 42
1.0
 92
       12
 66
     7
 43
1.0
 76
     1
 77
     6
 78
     2
 67
     7
 79
     5
170
     0
171
     0
290
     0
174
     0
 93
        1
 44
0.0
173
     0
291
     1
 45
0.0
1001
ACAD
1000
AcDbSavedByObjectVersion
1070
     0
  0
DICTIONARYVAR
  5
2C9
102
{ACAD_REACTORS
330
2C6
102
}
330
2C6
100
DictionaryVariables
280
     0
  1
2
  0
DICTIONARYVAR
  5
2CA
102
{ACAD_REACTORS
330
2C6
102
}
330
2C6
100
DictionaryVariables
280
     0
  1
1
  0
DICTIONARY
  5
2ED
330
3D
100
AcDbDictionary
280
     1
281
     1
  3
ACAD_XREC_ROUNDTRIP
360
2EE
  0
DICTIONARY
  5
2EB
330
3C
100
AcDbDictionary
280
     1
281
     1
  3
ACAD_XREC_ROUNDTRIP
360
2EC
  0
DICTIONARY
  5
2EF
330
3E
100
AcDbDictionary
280
     1
281
     1
  3
ACAD_XREC_ROUNDTRIP
360
2F0
  0
DICTIONARY
  5
2D3
330
2F
100
AcDbDictionary
280
     1
281
     1
  3
ACAD_XREC_ROUNDTRIP
360
2D4
  0
DICTIONARY
  5
2D7
330
31
100
AcDbDictionary
280
     1
281
     1
  3
ACAD_XREC_ROUNDTRIP
360
2D8
  0
DICTIONARY
  5
2D5
330
30
100
AcDbDictionary
280
     1
281
     1
  3
ACAD_XREC_ROUNDTRIP
360
2D6
  0
DICTIONARY
  5
2D9
330
32
100
AcDbDictionary
280
     1
281
     1
  3
ACAD_XREC_ROUNDTRIP
360
2DA
  0
DICTIONARY
  5
2E1
330
36
100
AcDbDictionary
280
     1
281
     1
  3
ACAD_XREC_ROUNDTRIP
360
2E2
  0
DICTIONARY
  5
2E9
330
3A
100
AcDbDictionary
280
     1
281
     1
  3
ACAD_XREC_ROUNDTRIP
360
2EA
  0
DICTIONARY
  5
2DD
330
34
100
AcDbDictionary
280
     1
281
     1
  3
ACAD_XREC_ROUNDTRIP
360
2DE
  0
DICTIONARY
  5
2DF
330
35
100
AcDbDictionary
280
     1
281
     1
  3
ACAD_XREC_ROUNDTRIP
360
2E0
  0
DICTIONARY
  5
2E7
330
39
100
AcDbDictionary
280
     1
281
     1
  3
ACAD_XREC_ROUNDTRIP
360
2E8
  0
DICTIONARY
  5
2CB
330
2B
100
AcDbDictionary
280
     1
281
     1
  3
ACAD_XREC_ROUNDTRIP
360
2CC
  0
DICTIONARY
  5
2CD
330
2C
100
AcDbDictionary
280
     1
281
     1
  3
ACAD_XREC_ROUNDTRIP
360
2CE
  0
DICTIONARY
  5
2CF
330
2D
100
AcDbDictionary
280
     1
281
     1
  3
ACAD_XREC_ROUNDTRIP
360
2D0
  0
DICTIONARY
  5
2D1
330
2E
100
AcDbDictionary
280
     1
281
     1
  3
ACAD_XREC_ROUNDTRIP
360
2D2
  0
DICTIONARY
  5
2E5
330
38
100
AcDbDictionary
280
     1
281
     1
  3
ACAD_XREC_ROUNDTRIP
360
2E6
  0
DICTIONARY
  5
2DB
330
33
100
AcDbDictionary
280
     1
281
     1
  3
ACAD_XREC_ROUNDTRIP
360
2DC
  0
DICTIONARY
  5
2E3
330
37
100
AcDbDictionary
280
     1
281
     1
  3
ACAD_XREC_ROUNDTRIP
360
2E4
  0
XRECORD
  5
2EE
102
{ACAD_REACTORS
330
2ED
102
}
330
2ED
100
AcDbXrecord
280
     1
102
MATERIAL
148
0.0
149
0.0
149
0.0
 93
        0
 94
      127
282
     0
 72
     1
 77
     1
171
     1
175
     1
179
     1
273
     0
  0
XRECORD
  5
2EC
102
{ACAD_REACTORS
330
2EB
102
}
330
2EB
100
AcDbXrecord
280
     1
102
MATERIAL
148
0.0
149
0.0
149
0.0
 93
        0
 94
      127
282
     0
 72
     1
 77
     1
171
     1
175
     1
179
     1
273
     0
  0
XRECORD
  5
2F0
102
{ACAD_REACTORS
330
2EF
102
}
330
2EF
100
AcDbXrecord
280
     1
102
MATERIAL
148
0.0
149
0.0
149
0.0
 93
        0
 94
      127
282
     0
 72
     1
 77
     1
171
     1
175
     1
179
     1
273
     0
  0
XRECORD
  5
2D4
102
{ACAD_REACTORS
330
2D3
102
}
330
2D3
100
AcDbXrecord
280
     1
102
RTVSPropertyOp0
 70
     1
102
RTVSPropertyOp1
 70
     1
102
RTVSPropertyOp2
 70
     1
102
RTVSPropertyOp3
 70
     1
102
RTVSPropertyOp4
 70
     1
102
RTVSPropertyOp5
 70
     1
102
RTVSPropertyOp6
 70
     1
102
RTVSPropertyOp7
 70
     1
102
RTVSPropertyOp8
 70
     1
102
RTVSPropertyOp9
 70
     1
102
RTVSPropertyOp10
 70
     1
102
RTVSPropertyOp11
 70
     1
102
RTVSPropertyOp12
 70
     1
102
RTVSPropertyOp13
 70
     1
102
RTVSPropertyOp14
 70
     1
102
RTVSPropertyOp15
 70
     1
102
RTVSPropertyOp16
 70
     1
102
RTVSPropertyOp17
 70
     1
102
RTVSPropertyOp18
 70
     1
102
RTVSPropertyOp19
 70
     1
102
RTVSPropertyOp20
 70
     1
102
RTVSPropertyOp21
 70
     1
102
RTVSPropertyOp22
 70
     1
102
RTVSPropertyOp23
 70
     1
102
RTVSPropertyOp24
 70
     1
102
RTVSPropertyOp25
 70
     1
102
RTVSPropertyOp26
 70
     1
102
RTVSPropertyOp27
 70
     1
102
RTVSPropertyOp28
 70
     1
102
RTVSPropertyOp29
 70
     1
102
RTVSPropertyOp30
 70
     1
102
RTVSPropertyOp31
 70
     1
102
RTVSPropertyOp32
 70
     1
  0
XRECORD
  5
2D8
102
{ACAD_REACTORS
330
2D7
102
}
330
2D7
100
AcDbXrecord
280
     1
102
RTVSPropertyOp0
 70
     1
102
RTVSPropertyOp1
 70
     1
102
RTVSPropertyOp2
 70
     1
102
RTVSPropertyOp3
 70
     1
102
RTVSPropertyOp4
 70
     1
102
RTVSPropertyOp5
 70
     1
102
RTVSPropertyOp6
 70
     1
102
RTVSPropertyOp7
 70
     1
102
RTVSPropertyOp8
 70
     1
102
RTVSPropertyOp9
 70
     1
102
RTVSPropertyOp10
 70
     1
102
RTVSPropertyOp11
 70
     1
102
RTVSPropertyOp12
 70
     1
102
RTVSPropertyOp13
 70
     1
102
RTVSPropertyOp14
 70
     1
102
RTVSPropertyOp15
 70
     1
102
RTVSPropertyOp16
 70
     1
102
RTVSPropertyOp17
 70
     1
102
RTVSPropertyOp18
 70
     1
102
RTVSPropertyOp19
 70
     1
102
RTVSPropertyOp20
 70
     1
102
RTVSPropertyOp21
 70
     1
102
RTVSPropertyOp22
 70
     1
102
RTVSPropertyOp23
 70
     1
102
RTVSPropertyOp24
 70
     1
102
RTVSPropertyOp25
 70
     1
102
RTVSPropertyOp26
 70
     1
102
RTVSPropertyOp27
 70
     1
102
RTVSPropertyOp28
 70
     1
102
RTVSPropertyOp29
 70
     1
102
RTVSPropertyOp30
 70
     1
102
RTVSPropertyOp31
 70
     1
102
RTVSPropertyOp32
 70
     1
  0
XRECORD
  5
2D6
102
{ACAD_REACTORS
330
2D5
102
}
330
2D5
100
AcDbXrecord
280
     1
102
RTVSPropertyOp0
 70
     1
102
RTVSPropertyOp1
 70
     1
102
RTVSPropertyOp2
 70
     1
102
RTVSPropertyOp3
 70
     1
102
RTVSPropertyOp4
 70
     1
102
RTVSPropertyOp5
 70
     1
102
RTVSPropertyOp6
 70
     1
102
RTVSPropertyOp7
 70
     1
102
RTVSPropertyOp8
 70
     1
102
RTVSPropertyOp9
 70
     1
102
RTVSPropertyOp10
 70
     1
102
RTVSPropertyOp11
 70
     1
102
RTVSPropertyOp12
 70
     1
102
RTVSPropertyOp13
 70
     1
102
RTVSPropertyOp14
 70
     1
102
RTVSPropertyOp15
 70
     1
102
RTVSPropertyOp16
 70
     1
102
RTVSPropertyOp17
 70
     1
102
RTVSPropertyOp18
 70
     1
102
RTVSPropertyOp19
 70
     1
102
RTVSPropertyOp20
 70
     1
102
RTVSPropertyOp21
 70
     1
102
RTVSPropertyOp22
 70
     1
102
RTVSPropertyOp23
 70
     1
102
RTVSPropertyOp24
 70
     1
102
RTVSPropertyOp25
 70
     1
102
RTVSPropertyOp26
 70
     1
102
RTVSPropertyOp27
 70
     1
102
RTVSPropertyOp28
 70
     1
102
RTVSPropertyOp29
 70
     1
102
RTVSPropertyOp30
 70
     1
102
RTVSPropertyOp31
 70
     1
102
RTVSPropertyOp32
 70
     1
  0
XRECORD
  5
2DA
102
{ACAD_REACTORS
330
2D9
102
}
330
2D9
100
AcDbXrecord
280
     1
102
RTVSPropertyOp0
 70
     1
102
RTVSPropertyOp1
 70
     1
102
RTVSPropertyOp2
 70
     1
102
RTVSPropertyOp3
 70
     1
102
RTVSPropertyOp4
 70
     1
102
RTVSPropertyOp5
 70
     1
102
RTVSPropertyOp6
 70
     1
102
RTVSPropertyOp7
 70
     1
102
RTVSPropertyOp8
 70
     1
102
RTVSPropertyOp9
 70
     1
102
RTVSPropertyOp10
 70
     1
102
RTVSPropertyOp11
 70
     1
102
RTVSPropertyOp12
 70
     1
102
RTVSPropertyOp13
 70
     1
102
RTVSPropertyOp14
 70
     1
102
RTVSPropertyOp15
 70
     1
102
RTVSPropertyOp16
 70
     1
102
RTVSPropertyOp17
 70
     1
102
RTVSPropertyOp18
 70
     1
102
RTVSPropertyOp19
 70
     1
102
RTVSPropertyOp20
 70
     1
102
RTVSPropertyOp21
 70
     1
102
RTVSPropertyOp22
 70
     1
102
RTVSPropertyOp23
 70
     1
102
RTVSPropertyOp24
 70
     1
102
RTVSPropertyOp25
 70
     1
102
RTVSPropertyOp26
 70
     1
102
RTVSPropertyOp27
 70
     1
102
RTVSPropertyOp28
 70
     1
102
RTVSPropertyOp29
 70
     1
102
RTVSPropertyOp30
 70
     1
102
RTVSPropertyOp31
 70
     1
102
RTVSPropertyOp32
 70
     1
  0
XRECORD
  5
2E2
102
{ACAD_REACTORS
330
2E1
102
}
330
2E1
100
AcDbXrecord
280
     1
102
RTVSPropertyOp0
 70
     1
102
RTVSPropertyOp1
 70
     1
102
RTVSPropertyOp2
 70
     1
102
RTVSPropertyOp3
 70
     1
102
RTVSPropertyOp4
 70
     1
102
RTVSPropertyOp5
 70
     1
102
RTVSPropertyOp6
 70
     1
102
RTVSPropertyOp7
 70
     1
102
RTVSPropertyOp8
 70
     1
102
RTVSPropertyOp9
 70
     1
102
RTVSPropertyOp10
 70
     1
102
RTVSPropertyOp11
 70
     1
102
RTVSPropertyOp12
 70
     1
102
RTVSPropertyOp13
 70
     1
102
RTVSPropertyOp14
 70
     1
102
RTVSPropertyOp15
 70
     1
102
RTVSPropertyOp16
 70
     1
102
RTVSPropertyOp17
 70
     1
102
RTVSPropertyOp18
 70
     1
102
RTVSPropertyOp19
 70
     1
102
RTVSPropertyOp20
 70
     1
102
RTVSPropertyOp21
 70
     1
102
RTVSPropertyOp22
 70
     1
102
RTVSPropertyOp23
 70
     1
102
RTVSPropertyOp24
 70
     1
102
RTVSPropertyOp25
 70
     1
102
RTVSPropertyOp26
 70
     1
102
RTVSPropertyOp27
 70
     1
102
RTVSPropertyOp28
 70
     1
102
RTVSPropertyOp29
 70
     1
102
RTVSPropertyOp30
 70
     1
102
RTVSPropertyOp31
 70
     1
102
RTVSPropertyOp32
 70
     1
  0
XRECORD
  5
2EA
102
{ACAD_REACTORS
330
2E9
102
}
330
2E9
100
AcDbXrecord
280
     1
102
RTVSPropertyOp0
 70
     1
102
RTVSPropertyOp1
 70
     1
102
RTVSPropertyOp2
 70
     1
102
RTVSPropertyOp3
 70
     1
102
RTVSPropertyOp4
 70
     1
102
RTVSPropertyOp5
 70
     1
102
RTVSPropertyOp6
 70
     1
102
RTVSPropertyOp7
 70
     1
102
RTVSPropertyOp8
 70
     1
102
RTVSPropertyOp9
 70
     1
102
RTVSPropertyOp10
 70
     1
102
RTVSPropertyOp11
 70
     1
102
RTVSPropertyOp12
 70
     1
102
RTVSPropertyOp13
 70
     1
102
RTVSPropertyOp14
 70
     1
102
RTVSPropertyOp15
 70
     1
102
RTVSPropertyOp16
 70
     1
102
RTVSPropertyOp17
 70
     1
102
RTVSPropertyOp18
 70
     1
102
RTVSPropertyOp19
 70
     1
102
RTVSPropertyOp20
 70
     1
102
RTVSPropertyOp21
 70
     1
102
RTVSPropertyOp22
 70
     1
102
RTVSPropertyOp23
 70
     1
102
RTVSPropertyOp24
 70
     1
102
RTVSPropertyOp25
 70
     1
102
RTVSPropertyOp26
 70
     1
102
RTVSPropertyOp27
 70
     1
102
RTVSPropertyOp28
 70
     1
102
RTVSPropertyOp29
 70
     1
102
RTVSPropertyOp30
 70
     1
102
RTVSPropertyOp31
 70
     1
102
RTVSPropertyOp32
 70
     1
  0
XRECORD
  5
2DE
102
{ACAD_REACTORS
330
2DD
102
}
330
2DD
100
AcDbXrecord
280
     1
102
RTVSPropertyOp0
 70
     1
102
RTVSPropertyOp1
 70
     1
102
RTVSPropertyOp2
 70
     1
102
RTVSPropertyOp3
 70
     1
102
RTVSPropertyOp4
 70
     1
102
RTVSPropertyOp5
 70
     1
102
RTVSPropertyOp6
 70
     1
102
RTVSPropertyOp7
 70
     1
102
RTVSPropertyOp8
 70
     1
102
RTVSPropertyOp9
 70
     1
102
RTVSPropertyOp10
 70
     1
102
RTVSPropertyOp11
 70
     1
102
RTVSPropertyOp12
 70
     1
102
RTVSPropertyOp13
 70
     1
102
RTVSPropertyOp14
 70
     1
102
RTVSPropertyOp15
 70
     1
102
RTVSPropertyOp16
 70
     1
102
RTVSPropertyOp17
 70
     1
102
RTVSPropertyOp18
 70
     1
102
RTVSPropertyOp19
 70
     1
102
RTVSPropertyOp20
 70
     1
102
RTVSPropertyOp21
 70
     1
102
RTVSPropertyOp22
 70
     1
102
RTVSPropertyOp23
 70
     1
102
RTVSPropertyOp24
 70
     1
102
RTVSPropertyOp25
 70
     1
102
RTVSPropertyOp26
 70
     1
102
RTVSPropertyOp27
 70
     1
102
RTVSPropertyOp28
 70
     1
102
RTVSPropertyOp29
 70
     1
102
RTVSPropertyOp30
 70
     1
102
RTVSPropertyOp31
 70
     1
102
RTVSPropertyOp32
 70
     1
  0
XRECORD
  5
2E0
102
{ACAD_REACTORS
330
2DF
102
}
330
2DF
100
AcDbXrecord
280
     1
102
RTVSPropertyOp0
 70
     1
102
RTVSPropertyOp1
 70
     1
102
RTVSPropertyOp2
 70
     1
102
RTVSPropertyOp3
 70
     1
102
RTVSPropertyOp4
 70
     1
102
RTVSPropertyOp5
 70
     1
102
RTVSPropertyOp6
 70
     1
102
RTVSPropertyOp7
 70
     1
102
RTVSPropertyOp8
 70
     1
102
RTVSPropertyOp9
 70
     1
102
RTVSPropertyOp10
 70
     1
102
RTVSPropertyOp11
 70
     1
102
RTVSPropertyOp12
 70
     1
102
RTVSPropertyOp13
 70
     1
102
RTVSPropertyOp14
 70
     1
102
RTVSPropertyOp15
 70
     1
102
RTVSPropertyOp16
 70
     1
102
RTVSPropertyOp17
 70
     1
102
RTVSPropertyOp18
 70
     1
102
RTVSPropertyOp19
 70
     1
102
RTVSPropertyOp20
 70
     1
102
RTVSPropertyOp21
 70
     1
102
RTVSPropertyOp22
 70
     1
102
RTVSPropertyOp23
 70
     1
102
RTVSPropertyOp24
 70
     1
102
RTVSPropertyOp25
 70
     1
102
RTVSPropertyOp26
 70
     1
102
RTVSPropertyOp27
 70
     1
102
RTVSPropertyOp28
 70
     1
102
RTVSPropertyOp29
 70
     1
102
RTVSPropertyOp30
 70
     1
102
RTVSPropertyOp31
 70
     1
102
RTVSPropertyOp32
 70
     1
  0
XRECORD
  5
2E8
102
{ACAD_REACTORS
330
2E7
102
}
330
2E7
100
AcDbXrecord
280
     1
102
RTVSPropertyOp0
 70
     1
102
RTVSPropertyOp1
 70
     1
102
RTVSPropertyOp2
 70
     1
102
RTVSPropertyOp3
 70
     1
102
RTVSPropertyOp4
 70
     1
102
RTVSPropertyOp5
 70
     1
102
RTVSPropertyOp6
 70
     1
102
RTVSPropertyOp7
 70
     1
102
RTVSPropertyOp8
 70
     1
102
RTVSPropertyOp9
 70
     1
102
RTVSPropertyOp10
 70
     1
102
RTVSPropertyOp11
 70
     1
102
RTVSPropertyOp12
 70
     1
102
RTVSPropertyOp13
 70
     1
102
RTVSPropertyOp14
 70
     1
102
RTVSPropertyOp15
 70
     1
102
RTVSPropertyOp16
 70
     1
102
RTVSPropertyOp17
 70
     1
102
RTVSPropertyOp18
 70
     1
102
RTVSPropertyOp19
 70
     1
102
RTVSPropertyOp20
 70
     1
102
RTVSPropertyOp21
 70
     1
102
RTVSPropertyOp22
 70
     1
102
RTVSPropertyOp23
 70
     1
102
RTVSPropertyOp24
 70
     1
102
RTVSPropertyOp25
 70
     1
102
RTVSPropertyOp26
 70
     1
102
RTVSPropertyOp27
 70
     1
102
RTVSPropertyOp28
 70
     1
102
RTVSPropertyOp29
 70
     1
102
RTVSPropertyOp30
 70
     1
102
RTVSPropertyOp31
 70
     1
102
RTVSPropertyOp32
 70
     1
  0
XRECORD
  5
2CC
102
{ACAD_REACTORS
330
2CB
102
}
330
2CB
100
AcDbXrecord
280
     1
102
RTVSPropertyOp0
 70
     1
102
RTVSPropertyOp1
 70
     1
102
RTVSPropertyOp2
 70
     1
102
RTVSPropertyOp3
 70
     1
102
RTVSPropertyOp4
 70
     1
102
RTVSPropertyOp5
 70
     1
102
RTVSPropertyOp6
 70
     1
102
RTVSPropertyOp7
 70
     1
102
RTVSPropertyOp8
 70
     1
102
RTVSPropertyOp9
 70
     1
102
RTVSPropertyOp10
 70
     1
102
RTVSPropertyOp11
 70
     1
102
RTVSPropertyOp12
 70
     1
102
RTVSPropertyOp13
 70
     1
102
RTVSPropertyOp14
 70
     1
102
RTVSPropertyOp15
 70
     1
102
RTVSPropertyOp16
 70
     1
102
RTVSPropertyOp17
 70
     1
102
RTVSPropertyOp18
 70
     1
102
RTVSPropertyOp19
 70
     1
102
RTVSPropertyOp20
 70
     1
102
RTVSPropertyOp21
 70
     1
102
RTVSPropertyOp22
 70
     1
102
RTVSPropertyOp23
 70
     1
102
RTVSPropertyOp24
 70
     1
102
RTVSPropertyOp25
 70
     1
102
RTVSPropertyOp26
 70
     1
102
RTVSPropertyOp27
 70
     1
102
RTVSPropertyOp28
 70
     1
102
RTVSPropertyOp29
 70
     1
102
RTVSPropertyOp30
 70
     1
102
RTVSPropertyOp31
 70
     1
102
RTVSPropertyOp32
 70
     1
  0
XRECORD
  5
2CE
102
{ACAD_REACTORS
330
2CD
102
}
330
2CD
100
AcDbXrecord
280
     1
102
RTVSPropertyOp0
 70
     1
102
RTVSPropertyOp1
 70
     1
102
RTVSPropertyOp2
 70
     1
102
RTVSPropertyOp3
 70
     1
102
RTVSPropertyOp4
 70
     1
102
RTVSPropertyOp5
 70
     1
102
RTVSPropertyOp6
 70
     1
102
RTVSPropertyOp7
 70
     1
102
RTVSPropertyOp8
 70
     1
102
RTVSPropertyOp9
 70
     1
102
RTVSPropertyOp10
 70
     1
102
RTVSPropertyOp11
 70
     1
102
RTVSPropertyOp12
 70
     1
102
RTVSPropertyOp13
 70
     1
102
RTVSPropertyOp14
 70
     1
102
RTVSPropertyOp15
 70
     1
102
RTVSPropertyOp16
 70
     1
102
RTVSPropertyOp17
 70
     1
102
RTVSPropertyOp18
 70
     1
102
RTVSPropertyOp19
 70
     1
102
RTVSPropertyOp20
 70
     1
102
RTVSPropertyOp21
 70
     1
102
RTVSPropertyOp22
 70
     1
102
RTVSPropertyOp23
 70
     1
102
RTVSPropertyOp24
 70
     1
102
RTVSPropertyOp25
 70
     1
102
RTVSPropertyOp26
 70
     1
102
RTVSPropertyOp27
 70
     1
102
RTVSPropertyOp28
 70
     1
102
RTVSPropertyOp29
 70
     1
102
RTVSPropertyOp30
 70
     1
102
RTVSPropertyOp31
 70
     1
102
RTVSPropertyOp32
 70
     1
  0
XRECORD
  5
2D0
102
{ACAD_REACTORS
330
2CF
102
}
330
2CF
100
AcDbXrecord
280
     1
102
RTVSPropertyOp0
 70
     1
102
RTVSPropertyOp1
 70
     1
102
RTVSPropertyOp2
 70
     1
102
RTVSPropertyOp3
 70
     1
102
RTVSPropertyOp4
 70
     1
102
RTVSPropertyOp5
 70
     1
102
RTVSPropertyOp6
 70
     1
102
RTVSPropertyOp7
 70
     1
102
RTVSPropertyOp8
 70
     1
102
RTVSPropertyOp9
 70
     1
102
RTVSPropertyOp10
 70
     1
102
RTVSPropertyOp11
 70
     1
102
RTVSPropertyOp12
 70
     1
102
RTVSPropertyOp13
 70
     1
102
RTVSPropertyOp14
 70
     1
102
RTVSPropertyOp15
 70
     1
102
RTVSPropertyOp16
 70
     1
102
RTVSPropertyOp17
 70
     1
102
RTVSPropertyOp18
 70
     1
102
RTVSPropertyOp19
 70
     1
102
RTVSPropertyOp20
 70
     1
102
RTVSPropertyOp21
 70
     1
102
RTVSPropertyOp22
 70
     1
102
RTVSPropertyOp23
 70
     1
102
RTVSPropertyOp24
 70
     1
102
RTVSPropertyOp25
 70
     1
102
RTVSPropertyOp26
 70
     1
102
RTVSPropertyOp27
 70
     1
102
RTVSPropertyOp28
 70
     1
102
RTVSPropertyOp29
 70
     1
102
RTVSPropertyOp30
 70
     1
102
RTVSPropertyOp31
 70
     1
102
RTVSPropertyOp32
 70
     1
  0
XRECORD
  5
2D2
102
{ACAD_REACTORS
330
2D1
102
}
330
2D1
100
AcDbXrecord
280
     1
102
RTVSPropertyOp0
 70
     1
102
RTVSPropertyOp1
 70
     1
102
RTVSPropertyOp2
 70
     1
102
RTVSPropertyOp3
 70
     1
102
RTVSPropertyOp4
 70
     1
102
RTVSPropertyOp5
 70
     1
102
RTVSPropertyOp6
 70
     1
102
RTVSPropertyOp7
 70
     1
102
RTVSPropertyOp8
 70
     1
102
RTVSPropertyOp9
 70
     1
102
RTVSPropertyOp10
 70
     1
102
RTVSPropertyOp11
 70
     1
102
RTVSPropertyOp12
 70
     1
102
RTVSPropertyOp13
 70
     1
102
RTVSPropertyOp14
 70
     1
102
RTVSPropertyOp15
 70
     1
102
RTVSPropertyOp16
 70
     1
102
RTVSPropertyOp17
 70
     1
102
RTVSPropertyOp18
 70
     1
102
RTVSPropertyOp19
 70
     1
102
RTVSPropertyOp20
 70
     1
102
RTVSPropertyOp21
 70
     1
102
RTVSPropertyOp22
 70
     1
102
RTVSPropertyOp23
 70
     1
102
RTVSPropertyOp24
 70
     1
102
RTVSPropertyOp25
 70
     1
102
RTVSPropertyOp26
 70
     1
102
RTVSPropertyOp27
 70
     1
102
RTVSPropertyOp28
 70
     1
102
RTVSPropertyOp29
 70
     1
102
RTVSPropertyOp30
 70
     1
102
RTVSPropertyOp31
 70
     1
102
RTVSPropertyOp32
 70
     1
  0
XRECORD
  5
2E6
102
{ACAD_REACTORS
330
2E5
102
}
330
2E5
100
AcDbXrecord
280
     1
102
RTVSPropertyOp0
 70
     1
102
RTVSPropertyOp1
 70
     1
102
RTVSPropertyOp2
 70
     1
102
RTVSPropertyOp3
 70
     1
102
RTVSPropertyOp4
 70
     1
102
RTVSPropertyOp5
 70
     1
102
RTVSPropertyOp6
 70
     1
102
RTVSPropertyOp7
 70
     1
102
RTVSPropertyOp8
 70
     1
102
RTVSPropertyOp9
 70
     1
102
RTVSPropertyOp10
 70
     1
102
RTVSPropertyOp11
 70
     1
102
RTVSPropertyOp12
 70
     1
102
RTVSPropertyOp13
 70
     1
102
RTVSPropertyOp14
 70
     1
102
RTVSPropertyOp15
 70
     1
102
RTVSPropertyOp16
 70
     1
102
RTVSPropertyOp17
 70
     1
102
RTVSPropertyOp18
 70
     1
102
RTVSPropertyOp19
 70
     1
102
RTVSPropertyOp20
 70
     1
102
RTVSPropertyOp21
 70
     1
102
RTVSPropertyOp22
 70
     1
102
RTVSPropertyOp23
 70
     1
102
RTVSPropertyOp24
 70
     1
102
RTVSPropertyOp25
 70
     1
102
RTVSPropertyOp26
 70
     1
102
RTVSPropertyOp27
 70
     1
102
RTVSPropertyOp28
 70
     1
102
RTVSPropertyOp29
 70
     1
102
RTVSPropertyOp30
 70
     1
102
RTVSPropertyOp31
 70
     1
102
RTVSPropertyOp32
 70
     1
  0
XRECORD
  5
2DC
102
{ACAD_REACTORS
330
2DB
102
}
330
2DB
100
AcDbXrecord
280
     1
102
RTVSPropertyOp0
 70
     1
102
RTVSPropertyOp1
 70
     1
102
RTVSPropertyOp2
 70
     1
102
RTVSPropertyOp3
 70
     1
102
RTVSPropertyOp4
 70
     1
102
RTVSPropertyOp5
 70
     1
102
RTVSPropertyOp6
 70
     1
102
RTVSPropertyOp7
 70
     1
102
RTVSPropertyOp8
 70
     1
102
RTVSPropertyOp9
 70
     1
102
RTVSPropertyOp10
 70
     1
102
RTVSPropertyOp11
 70
     1
102
RTVSPropertyOp12
 70
     1
102
RTVSPropertyOp13
 70
     1
102
RTVSPropertyOp14
 70
     1
102
RTVSPropertyOp15
 70
     1
102
RTVSPropertyOp16
 70
     1
102
RTVSPropertyOp17
 70
     1
102
RTVSPropertyOp18
 70
     1
102
RTVSPropertyOp19
 70
     1
102
RTVSPropertyOp20
 70
     1
102
RTVSPropertyOp21
 70
     1
102
RTVSPropertyOp22
 70
     1
102
RTVSPropertyOp23
 70
     1
102
RTVSPropertyOp24
 70
     1
102
RTVSPropertyOp25
 70
     1
102
RTVSPropertyOp26
 70
     1
102
RTVSPropertyOp27
 70
     1
102
RTVSPropertyOp28
 70
     1
102
RTVSPropertyOp29
 70
     1
102
RTVSPropertyOp30
 70
     1
102
RTVSPropertyOp31
 70
     1
102
RTVSPropertyOp32
 70
     1
  0
XRECORD
  5
2E4
102
{ACAD_REACTORS
330
2E3
102
}
330
2E3
100
AcDbXrecord
280
     1
102
RTVSPropertyOp0
 70
     1
102
RTVSPropertyOp1
 70
     1
102
RTVSPropertyOp2
 70
     1
102
RTVSPropertyOp3
 70
     1
102
RTVSPropertyOp4
 70
     1
102
RTVSPropertyOp5
 70
     1
102
RTVSPropertyOp6
 70
     1
102
RTVSPropertyOp7
 70
     1
102
RTVSPropertyOp8
 70
     1
102
RTVSPropertyOp9
 70
     1
102
RTVSPropertyOp10
 70
     1
102
RTVSPropertyOp11
 70
     1
102
RTVSPropertyOp12
 70
     1
102
RTVSPropertyOp13
 70
     1
102
RTVSPropertyOp14
 70
     1
102
RTVSPropertyOp15
 70
     1
102
RTVSPropertyOp16
 70
     1
102
RTVSPropertyOp17
 70
     1
102
RTVSPropertyOp18
 70
     1
102
RTVSPropertyOp19
 70
     1
102
RTVSPropertyOp20
 70
     1
102
RTVSPropertyOp21
 70
     1
102
RTVSPropertyOp22
 70
     1
102
RTVSPropertyOp23
 70
     1
102
RTVSPropertyOp24
 70
     1
102
RTVSPropertyOp25
 70
     1
102
RTVSPropertyOp26
 70
     1
102
RTVSPropertyOp27
 70
     1
102
RTVSPropertyOp28
 70
     1
102
RTVSPropertyOp29
 70
     1
102
RTVSPropertyOp30
 70
     1
102
RTVSPropertyOp31
 70
     1
102
RTVSPropertyOp32
 70
     1
  0
ENDSEC
  0
EOF
