  0
SECTION
  2
HEADER
  9
$ACADVER
  1
AC1015
  9
$ACADMAINTVER
 70
     6
  9
$DWGCODEPAGE
  3
DOS932
  9
$INSBASE
 10
0.0
 20
0.0
 30
0.0
  9
$EXTMIN
 10
0.0
 20
0.0
 30
0.0
  9
$EXTMAX
 10
315.0
 20
445.5
 30
0.0
  9
$LIMMIN
 10
0.0
 20
0.0
  9
$LIMMAX
 10
12.0
 20
9.0
  9
$ORTHOMODE
 70
     0
  9
$REGENMODE
 70
     1
  9
$FILLMODE
 70
     1
  9
$QTEXTMODE
 70
     0
  9
$MIRRTEXT
 70
     1
  9
$LTSCALE
 40
1.0
  9
$ATTMODE
 70
     1
  9
$TEXTSIZE
 40
0.2
  9
$TRACEWID
 40
0.05
  9
$TEXTSTYLE
  7
Standard
  9
$CLAYER
  8
0
  9
$CELTYPE
  6
ByLayer
  9
$CECOLOR
 62
   256
  9
$CELTSCALE
 40
1.0
  9
$DISPSILH
 70
     0
  9
$DIMSCALE
 40
1.0
  9
$DIMASZ
 40
0.18
  9
$DIMEXO
 40
0.0625
  9
$DIMDLI
 40
0.38
  9
$DIMRND
 40
0.0
  9
$DIMDLE
 40
0.0
  9
$DIMEXE
 40
0.18
  9
$DIMTP
 40
0.0
  9
$DIMTM
 40
0.0
  9
$DIMTXT
 40
0.18
  9
$DIMCEN
 40
0.09
  9
$DIMTSZ
 40
0.0
  9
$DIMTOL
 70
     0
  9
$DIMLIM
 70
     0
  9
$DIMTIH
 70
     1
  9
$DIMTOH
 70
     1
  9
$DIMSE1
 70
     0
  9
$DIMSE2
 70
     0
  9
$DIMTAD
 70
     0
  9
$DIMZIN
 70
     0
  9
$DIMBLK
  1

  9
$DIMASO
 70
     1
  9
$DIMSHO
 70
     1
  9
$DIMPOST
  1

  9
$DIMAPOST
  1

  9
$DIMALT
 70
     0
  9
$DIMALTD
 70
     2
  9
$DIMALTF
 40
25.4
  9
$DIMLFAC
 40
1.0
  9
$DIMTOFL
 70
     0
  9
$DIMTVP
 40
0.0
  9
$DIMTIX
 70
     0
  9
$DIMSOXD
 70
     0
  9
$DIMSAH
 70
     0
  9
$DIMBLK1
  1

  9
$DIMBLK2
  1

  9
$DIMSTYLE
  2
Standard
  9
$DIMCLRD
 70
     0
  9
$DIMCLRE
 70
     0
  9
$DIMCLRT
 70
     0
  9
$DIMTFAC
 40
1.0
  9
$DIMGAP
 40
0.09
  9
$DIMJUST
 70
     0
  9
$DIMSD1
 70
     0
  9
$DIMSD2
 70
     0
  9
$DIMTOLJ
 70
     1
  9
$DIMTZIN
 70
     0
  9
$DIMALTZ
 70
     0
  9
$DIMALTTZ
 70
     0
  9
$DIMUPT
 70
     0
  9
$DIMDEC
 70
     4
  9
$DIMTDEC
 70
     4
  9
$DIMALTU
 70
     2
  9
$DIMALTTD
 70
     2
  9
$DIMTXSTY
  7
Standard
  9
$DIMAUNIT
 70
     0
  9
$DIMADEC
 70
     0
  9
$DIMALTRND
 40
0.0
  9
$DIMAZIN
 70
     0
  9
$DIMDSEP
 70
    46
  9
$DIMATFIT
 70
     3
  9
$DIMFRAC
 70
     0
  9
$DIMLDRBLK
  1

  9
$DIMLUNIT
 70
     2
  9
$DIMLWD
 70
    -2
  9
$DIMLWE
 70
    -2
  9
$DIMTMOVE
 70
     0
  9
$LUNITS
 70
     2
  9
$LUPREC
 70
     4
  9
$SKETCHINC
 40
0.1
  9
$FILLETRAD
 40
0.5
  9
$AUNITS
 70
     0
  9
$AUPREC
 70
     0
  9
$MENU
  1
.
  9
$ELEVATION
 40
0.0
  9
$PELEVATION
 40
0.0
  9
$THICKNESS
 40
0.0
  9
$LIMCHECK
 70
     0
  9
$CHAMFERA
 40
0.5
  9
$CHAMFERB
 40
0.5
  9
$CHAMFERC
 40
1.0
  9
$CHAMFERD
 40
0.0
  9
$SKPOLY
 70
     0
  9
$TDCREATE
 40
2456142.676835937
  9
$TDUCREATE
 40
2456142.301835937
  9
$TDUPDATE
 40
2456142.676835949
  9
$TDUUPDATE
 40
2456142.301835949
  9
$TDINDWG
 40
0.0000000116
  9
$TDUSRTIMER
 40
0.0000000116
  9
$USRTIMER
 70
     1
  9
$ANGBASE
 50
0.0
  9
$ANGDIR
 70
     0
  9
$PDMODE
 70
     0
  9
$PDSIZE
 40
0.0
  9
$PLINEWID
 40
0.0
  9
$SPLFRAME
 70
     0
  9
$SPLINETYPE
 70
     6
  9
$SPLINESEGS
 70
     8
  9
$HANDSEED
  5
1FD
  9
$SURFTAB1
 70
     6
  9
$SURFTAB2
 70
     6
  9
$SURFTYPE
 70
     6
  9
$SURFU
 70
     6
  9
$SURFV
 70
     6
  9
$UCSBASE
  2

  9
$UCSNAME
  2

  9
$UCSORG
 10
0.0
 20
0.0
 30
0.0
  9
$UCSXDIR
 10
1.0
 20
0.0
 30
0.0
  9
$UCSYDIR
 10
0.0
 20
1.0
 30
0.0
  9
$UCSORTHOREF
  2

  9
$UCSORTHOVIEW
 70
     0
  9
$UCSORGTOP
 10
0.0
 20
0.0
 30
0.0
  9
$UCSORGBOTTOM
 10
0.0
 20
0.0
 30
0.0
  9
$UCSORGLEFT
 10
0.0
 20
0.0
 30
0.0
  9
$UCSORGRIGHT
 10
0.0
 20
0.0
 30
0.0
  9
$UCSORGFRONT
 10
0.0
 20
0.0
 30
0.0
  9
$UCSORGBACK
 10
0.0
 20
0.0
 30
0.0
  9
$PUCSBASE
  2

  9
$PUCSNAME
  2

  9
$PUCSORG
 10
0.0
 20
0.0
 30
0.0
  9
$PUCSXDIR
 10
1.0
 20
0.0
 30
0.0
  9
$PUCSYDIR
 10
0.0
 20
1.0
 30
0.0
  9
$PUCSORTHOREF
  2

  9
$PUCSORTHOVIEW
 70
     0
  9
$PUCSORGTOP
 10
0.0
 20
0.0
 30
0.0
  9
$PUCSORGBOTTOM
 10
0.0
 20
0.0
 30
0.0
  9
$PUCSORGLEFT
 10
0.0
 20
0.0
 30
0.0
  9
$PUCSORGRIGHT
 10
0.0
 20
0.0
 30
0.0
  9
$PUCSORGFRONT
 10
0.0
 20
0.0
 30
0.0
  9
$PUCSORGBACK
 10
0.0
 20
0.0
 30
0.0
  9
$USERI1
 70
     0
  9
$USERI2
 70
     0
  9
$USERI3
 70
     0
  9
$USERI4
 70
     0
  9
$USERI5
 70
     0
  9
$USERR1
 40
13.2
  9
$USERR2
 40
0.0
  9
$USERR3
 40
0.0
  9
$USERR4
 40
0.0
  9
$USERR5
 40
0.0
  9
$WORLDVIEW
 70
     1
  9
$SHADEDGE
 70
     3
  9
$SHADEDIF
 70
    70
  9
$TILEMODE
 70
     1
  9
$MAXACTVP
 70
    64
  9
$PINSBASE
 10
0.0
 20
0.0
 30
0.0
  9
$PLIMCHECK
 70
     0
  9
$PEXTMIN
 10
1.00000000000000E+20
 20
1.00000000000000E+20
 30
1.00000000000000E+20
  9
$PEXTMAX
 10
-1.00000000000000E+20
 20
-1.00000000000000E+20
 30
-1.00000000000000E+20
  9
$PLIMMIN
 10
0.0
 20
0.0
  9
$PLIMMAX
 10
12.0
 20
9.0
  9
$UNITMODE
 70
     0
  9
$VISRETAIN
 70
     1
  9
$PLINEGEN
 70
     0
  9
$PSLTSCALE
 70
     1
  9
$TREEDEPTH
 70
  3020
  9
$CMLSTYLE
  2
Standard
  9
$CMLJUST
 70
     0
  9
$CMLSCALE
 40
1.0
  9
$PROXYGRAPHICS
 70
     1
  9
$MEASUREMENT
 70
     1
  9
$CELWEIGHT
370
    -1
  9
$ENDCAPS
280
     0
  9
$JOINSTYLE
280
     0
  9
$LWDISPLAY
290
     0
  9
$INSUNITS
 70
     1
  9
$HYPERLINKBASE
  1

  9
$STYLESHEET
  1

  9
$XEDIT
290
     1
  9
$CEPSNTYPE
380
     0
  9
$PSTYLEMODE
290
     0
  9
$FINGERPRINTGUID
  2
{FAEB1C30-E019-11D5-929B-00C0DF256EC4}
  9
$VERSIONGUID
  2
{FAEB1C32-E019-11D5-929B-00C0DF256EC4}
  9
$EXTNAMES
290
     1
  9
$PSVPSCALE
 40
0.0
  9
$OLESTARTUP
290
     0
  0
ENDSEC
  0
SECTION
  2
CLASSES
  0
CLASS
  1
ACDBDICTIONARYWDFLT
  2
AcDbDictionaryWithDefault
  3
ObjectDBX Classes
 90
        0
280
     0
281
     0
  0
CLASS
  1
TABLESTYLE
  2
AcDbTableStyle
  3
ObjectDBX Classes
 90
     2047
280
     0
281
     0
  0
CLASS
  1
DICTIONARYVAR
  2
AcDbDictionaryVar
  3
ObjectDBX Classes
 90
        0
280
     0
281
     0
  0
CLASS
  1

  2
exOdDbSpline
  3

 90
        0
280
     0
281
     1
  0
CLASS
  1

  2
exOdDbCircle
  3

 90
        0
280
     0
281
     1
  0
CLASS
  1
ACDBPLACEHOLDER
  2
AcDbPlaceHolder
  3
ObjectDBX Classes
 90
        0
280
     0
281
     0
  0
CLASS
  1
LAYOUT
  2
AcDbLayout
  3
ObjectDBX Classes
 90
        0
280
     0
281
     0
  0
ENDSEC
  0
SECTION
  2
TABLES
  0
TABLE
  2
VPORT
  5
8
330
0
100
AcDbSymbolTable
 70
     2
  0
VPORT
  5
29
330
8
100
AcDbSymbolTableRecord
100
AcDbViewportTableRecord
  2
*Active
 70
     0
 10
0.0
 20
0.0
 11
1.0
 21
1.0
 12
157.5
 22
222.75
 13
0.0
 23
0.0
 14
0.5
 24
0.5
 15
0.5
 25
0.5
 16
0.0
 26
0.0
 36
1.0
 17
0.0
 27
0.0
 37
0.0
 40
490.05
 41
1.60267857142857
 42
50.0
 43
0.0
 44
0.0
 50
0.0
 51
0.0
 71
     0
 72
   100
 73
     1
 74
     3
 75
     0
 76
     0
 77
     0
 78
     0
281
     0
 65
     1
110
0.0
120
0.0
130
0.0
111
1.0
121
0.0
131
0.0
112
0.0
122
1.0
132
0.0
 79
     0
146
0.0
  0
ENDTAB
  0
TABLE
  2
LTYPE
  5
5
330
0
100
AcDbSymbolTable
 70
     8
  0
LTYPE
  5
14
330
5
100
AcDbSymbolTableRecord
100
AcDbLinetypeTableRecord
  2
ByBlock
 70
     0
  3

 72
    65
 73
     0
 40
0.0
  0
LTYPE
  5
15
330
5
100
AcDbSymbolTableRecord
100
AcDbLinetypeTableRecord
  2
ByLayer
 70
     0
  3

 72
    65
 73
     0
 40
0.0
  0
LTYPE
  5
16
330
5
100
AcDbSymbolTableRecord
100
AcDbLinetypeTableRecord
  2
Continuous
 70
     0
  3
Solid line
 72
    65
 73
     0
 40
0.0
  0
LTYPE
  5
2E
330
5
100
AcDbSymbolTableRecord
100
AcDbLinetypeTableRecord
  2
DASHED
 70
     0
  3
Dashed
 72
    65
 73
     2
 40
15.0
 49
7.0
 74
     0
 49
-8.0
 74
     0
  0
LTYPE
  5
2F
330
5
100
AcDbSymbolTableRecord
100
AcDbLinetypeTableRecord
  2
DOTTED
 70
     0
  3
Dotted
 72
    65
 73
     2
 40
1.0
 49
0.0
 74
     0
 49
-1.0
 74
     0
  0
LTYPE
  5
30
330
5
100
AcDbSymbolTableRecord
100
AcDbLinetypeTableRecord
  2
DOT_CENTER
 70
     0
  3
Dot_Center
 72
    65
 73
     4
 40
14.0
 49
12.0
 74
     0
 49
-1.0
 74
     0
 49
0.0
 74
     0
 49
-1.0
 74
     0
  0
LTYPE
  5
31
330
5
100
AcDbSymbolTableRecord
100
AcDbLinetypeTableRecord
  2
LONG_DASHED
 70
     0
  3
Long_Dashed
 72
    65
 73
     2
 40
15.0
 49
10.0
 74
     0
 49
-5.0
 74
     0
  0
LTYPE
  5
32
330
5
100
AcDbSymbolTableRecord
100
AcDbLinetypeTableRecord
  2
DASH_CENTER
 70
     0
  3
Dash_Center
 72
    65
 73
     4
 40
14.0
 49
11.0
 74
     0
 49
-1.0
 74
     0
 49
1.0
 74
     0
 49
-1.0
 74
     0
  0
LTYPE
  5
33
330
5
100
AcDbSymbolTableRecord
100
AcDbLinetypeTableRecord
  2
PHANTOM
 70
     0
  3
Phantom
 72
    65
 73
     6
 40
13.0
 49
10.0
 74
     0
 49
-1.0
 74
     0
 49
0.0
 74
     0
 49
-1.0
 74
     0
 49
0.0
 74
     0
 49
-1.0
 74
     0
  0
LTYPE
  5
34
330
5
100
AcDbSymbolTableRecord
100
AcDbLinetypeTableRecord
  2
CENTER_DASH_DASH
 70
     0
  3
Center_Dash_Dash
 72
    65
 73
     6
 40
14.0
 49
9.0
 74
     0
 49
-1.0
 74
     0
 49
1.0
 74
     0
 49
-1.0
 74
     0
 49
1.0
 74
     0
 49
-1.0
 74
     0
  0
ENDTAB
  0
TABLE
  2
LAYER
  5
2
330
0
100
AcDbSymbolTable
 70
     2
  0
LAYER
  5
10
330
2
100
AcDbSymbolTableRecord
100
AcDbLayerTableRecord
  2
0
 70
     0
 62
     7
  6
Continuous
370
    -3
390
F
  0
LAYER
  5
35
330
2
100
AcDbSymbolTableRecord
100
AcDbLayerTableRecord
  2
1
 70
     0
 62
     7
  6
Continuous
370
    -3
390
F
  0
ENDTAB
  0
TABLE
  2
STYLE
  5
3
330
0
100
AcDbSymbolTable
 70
     3
  0
STYLE
  5
11
330
3
100
AcDbSymbolTableRecord
100
AcDbTextStyleTableRecord
  2
Standard
 70
     0
 40
0.0
 41
1.0
 50
0.0
 71
     0
 42
0.2
  3
txt
  4

  0
STYLE
  5
1AC
330
3
100
AcDbSymbolTableRecord
100
AcDbTextStyleTableRecord
  2
CONVERTER_1
 70
     0
 40
0.0
 41
0.89
 50
0.0
 71
     0
 42
0.2
  3
msmincho.ttc
  4

1001
ACAD
1000
MS Mincho
1071
    32785
  0
STYLE
  5
1CD
330
3
100
AcDbSymbolTableRecord
100
AcDbTextStyleTableRecord
  2
CONVERTER_2
 70
     0
 40
0.0
 41
0.9
 50
0.0
 71
     0
 42
0.2
  3
txt.shx
  4

  0
ENDTAB
  0
TABLE
  2
VIEW
  5
6
330
0
100
AcDbSymbolTable
 70
     0
  0
ENDTAB
  0
TABLE
  2
UCS
  5
7
330
0
100
AcDbSymbolTable
 70
     0
  0
ENDTAB
  0
TABLE
  2
APPID
  5
9
330
0
100
AcDbSymbolTable
 70
     1
  0
APPID
  5
12
330
9
100
AcDbSymbolTableRecord
100
AcDbRegAppTableRecord
  2
ACAD
 70
     0
  0
ENDTAB
  0
TABLE
  2
DIMSTYLE
  5
A
330
0
100
AcDbSymbolTable
 70
     4
100
AcDbDimStyleTable
  0
DIMSTYLE
105
27
330
A
100
AcDbSymbolTableRecord
100
AcDbDimStyleTableRecord
  2
Standard
 70
     0
340
11
  0
DIMSTYLE
105
1E5
102
{ACAD_REACTORS
330
1E6
102
}
330
A
100
AcDbSymbolTableRecord
100
AcDbDimStyleTableRecord
  2
ME10_DIM_0
 70
     0
 41
5.25
 42
0.0
 44
1.5
 73
     0
 74
     0
 77
     1
 78
     8
140
5.25
147
0.625
172
     1
173
     1
176
     2
177
     2
178
     7
271
     2
340
1CD
  0
DIMSTYLE
105
1F0
102
{ACAD_REACTORS
330
1F1
102
}
330
A
100
AcDbSymbolTableRecord
100
AcDbDimStyleTableRecord
  2
ME10_DIM_1
 70
     0
 41
5.25
 42
0.0
 44
1.5
 73
     0
 74
     0
 77
     1
 78
     8
140
5.25
147
0.625
172
     1
173
     1
176
     2
177
     2
178
     7
271
     2
340
1CD
  0
DIMSTYLE
105
1FB
102
{ACAD_REACTORS
330
1FC
102
}
330
A
100
AcDbSymbolTableRecord
100
AcDbDimStyleTableRecord
  2
ME10_DIM_2
 70
     0
 41
5.25
 42
0.0
 44
1.5
 73
     0
 74
     0
 77
     1
 78
     8
140
5.25
147
0.625
172
     1
173
     1
176
     2
177
     2
178
     7
271
     2
340
1AC
  0
ENDTAB
  0
TABLE
  2
BLOCK_RECORD
  5
1
330
0
100
AcDbSymbolTable
 70
    10
  0
BLOCK_RECORD
  5
1F
330
1
100
AcDbSymbolTableRecord
100
AcDbBlockTableRecord
  2
*Model_Space
340
22
  0
BLOCK_RECORD
  5
1B
330
1
100
AcDbSymbolTableRecord
100
AcDbBlockTableRecord
  2
*Paper_Space
340
1E
  0
BLOCK_RECORD
  5
23
330
1
100
AcDbSymbolTableRecord
100
AcDbBlockTableRecord
  2
*Paper_Space0
340
26
  0
BLOCK_RECORD
  5
36
330
1
100
AcDbSymbolTableRecord
100
AcDbBlockTableRecord
  2
36-54A-M4
340
0
102
{BLKREFS
331
48
102
}
  0
BLOCK_RECORD
  5
39
330
1
100
AcDbSymbolTableRecord
100
AcDbBlockTableRecord
  2
37-1-13
340
0
102
{BLKREFS
331
49
102
}
  0
BLOCK_RECORD
  5
3C
330
1
100
AcDbSymbolTableRecord
100
AcDbBlockTableRecord
  2
42-1
340
0
102
{BLKREFS
331
4A
102
}
  0
BLOCK_RECORD
  5
3F
330
1
100
AcDbSymbolTableRecord
100
AcDbBlockTableRecord
  2
51-1
340
0
102
{BLKREFS
331
4B
102
}
  0
BLOCK_RECORD
  5
42
330
1
100
AcDbSymbolTableRecord
100
AcDbBlockTableRecord
  2
V20-0A-13-M11
340
0
102
{BLKREFS
331
4C
102
}
  0
BLOCK_RECORD
  5
45
330
1
100
AcDbSymbolTableRecord
100
AcDbBlockTableRecord
  2
_J__A4
340
0
102
{BLKREFS
331
4D
102
}
  0
BLOCK_RECORD
  5
1DC
330
1
100
AcDbSymbolTableRecord
100
AcDbBlockTableRecord
  2
*D07
340
0
  0
BLOCK_RECORD
  5
1E7
330
1
100
AcDbSymbolTableRecord
100
AcDbBlockTableRecord
  2
*D18
340
0
  0
BLOCK_RECORD
  5
1F2
330
1
100
AcDbSymbolTableRecord
100
AcDbBlockTableRecord
  2
*D29
340
0
  0
ENDTAB
  0
ENDSEC
  0
SECTION
  2
BLOCKS
  0
BLOCK
  5
20
330
1F
100
AcDbEntity
  8
0
100
AcDbBlockBegin
  2
*Model_Space
 70
     0
 71
     0
 10
0.0
 20
0.0
 30
0.0
  3
*Model_Space
  1

  0
ENDBLK
  5
21
330
1F
100
AcDbEntity
  8
0
100
AcDbBlockEnd
  0
BLOCK
  5
1C
330
1B
100
AcDbEntity
 67
     1
  8
0
100
AcDbBlockBegin
  2
*Paper_Space
 70
     0
 71
     0
 10
0.0
 20
0.0
 30
0.0
  3
*Paper_Space
  1

  0
ENDBLK
  5
1D
330
1B
100
AcDbEntity
 67
     1
  8
0
100
AcDbBlockEnd
  0
BLOCK
  5
24
330
23
100
AcDbEntity
  8
0
100
AcDbBlockBegin
  2
*Paper_Space0
 70
     0
 71
     0
 10
0.0
 20
0.0
 30
0.0
  3
*Paper_Space0
  1

  0
ENDBLK
  5
25
330
23
100
AcDbEntity
  8
0
100
AcDbBlockEnd
  0
BLOCK
  5
37
330
36
100
AcDbEntity
  8
0
100
AcDbBlockBegin
  2
36-54A-M4
 70
     0
 71
     0
 10
164.9767897876808
 20
161.2922429973317
 30
0.0
  3
36-54A-M4
  1

  0
LINE
  5
4E
330
36
100
AcDbEntity
  8
1
  6
Continuous
 62
     7
100
AcDbLine
 10
96.20189512240975
 20
216.7118832851016
 30
0.0
 11
104.5085189853279
 21
216.7118832851016
 31
0.0
  0
LINE
  5
4F
330
36
100
AcDbEntity
  8
1
  6
Continuous
 62
     7
100
AcDbLine
 10
95.60520705386873
 20
251.1415745732865
 30
0.0
 11
95.60520705386873
 21
254.1477239930662
 31
0.0
  0
LINE
  5
50
330
36
100
AcDbEntity
  8
1
  6
Continuous
 62
     7
100
AcDbLine
 10
232.6052070538688
 20
255.2118832851016
 30
0.0
 11
232.6052070538688
 21
251.1415745732865
 31
0.0
  0
LINE
  5
51
330
36
100
AcDbEntity
  8
1
  6
Continuous
 62
     7
100
AcDbLine
 10
223.1052070538688
 20
251.1415745732865
 30
0.0
 11
223.1052070538688
 21
255.2118832851016
 31
0.0
  0
LINE
  5
52
330
36
100
AcDbEntity
  8
1
  6
Continuous
 62
     7
100
AcDbLine
 10
105.1052070538688
 20
254.1099787424697
 30
0.0
 11
105.1052070538688
 21
251.1415745732865
 31
0.0
  0
ENDBLK
  5
38
330
36
100
AcDbEntity
  8
0
100
AcDbBlockEnd
  0
BLOCK
  5
3A
330
39
100
AcDbEntity
  8
0
100
AcDbBlockBegin
  2
37-1-13
 70
     0
 71
     0
 10
421.2237197993121
 20
209.7979241782513
 30
0.0
  3
37-1-13
  1

  0
LINE
  5
53
330
39
100
AcDbEntity
  8
1
  6
Continuous
 62
     7
100
AcDbLine
 10
239.1135373030665
 20
244.2122887875578
 30
0.0
 11
216.5968768046712
 21
244.2122887875578
 31
0.0
  0
LINE
  5
54
330
39
100
AcDbEntity
  8
1
  6
Continuous
 62
     7
100
AcDbLine
 10
87.35520705386884
 20
237.1415745732865
 30
0.0
 11
87.35520705386884
 21
244.212288787558
 31
0.0
  0
LINE
  5
55
330
39
100
AcDbEntity
  8
1
  6
Continuous
 62
     7
100
AcDbLine
 10
113.3552070538688
 20
244.212288787558
 30
0.0
 11
113.3552070538688
 21
237.1415745732865
 31
0.0
  0
LINE
  5
56
330
39
100
AcDbEntity
  8
1
  6
Continuous
 62
     7
100
AcDbLine
 10
113.3552070538688
 20
237.1415745732865
 30
0.0
 11
87.35520705386884
 21
237.1415745732865
 31
0.0
  0
LINE
  5
57
330
39
100
AcDbEntity
  8
1
  6
Continuous
 62
     7
100
AcDbLine
 10
94.35520705386884
 20
251.1415745732865
 30
0.0
 11
106.3552070538688
 21
251.1415745732865
 31
0.0
  0
LINE
  5
58
330
39
100
AcDbEntity
  8
1
  6
Continuous
 62
     7
100
AcDbLine
 10
87.35520705386884
 20
244.212288787558
 30
0.0
 11
113.3552070538688
 21
244.212288787558
 31
0.0
  0
LINE
  5
59
330
39
100
AcDbEntity
  8
1
  6
Continuous
 62
     7
100
AcDbLine
 10
214.7844928395974
 20
237.1415745732865
 30
0.0
 11
240.9259212681403
 21
237.1415745732865
 31
0.0
  0
LINE
  5
5A
330
39
100
AcDbEntity
  8
1
  6
Continuous
 62
     7
100
AcDbLine
 10
233.8552070538688
 20
251.1415745732865
 30
0.0
 11
221.8552070538689
 21
251.1415745732865
 31
0.0
  0
ARC
  5
5B
330
39
100
AcDbEntity
  8
1
  6
Continuous
 62
     7
100
AcDbCircle
 10
90.85520705386884
 20
240.6415745732865
 30
0.0
 40
5.0
100
AcDbArc
 50
126.8698976458424
 51
134.4270040008051
  0
ARC
  5
5C
330
39
100
AcDbEntity
  8
1
  6
Continuous
 62
     7
100
AcDbCircle
 10
74.44875184875394
 20
264.5480297784014
 30
0.0
 40
23.99999999999998
100
AcDbArc
 50
-56.04080749990222
 51
-33.95919250009754
  0
ARC
  5
5D
330
39
100
AcDbEntity
  8
1
  6
Continuous
 62
     7
100
AcDbCircle
 10
109.8552070538688
 20
240.6415745732865
 30
0.0
 40
5.000000000000057
100
AcDbArc
 50
45.57299599919494
 51
53.13010235415748
  0
ARC
  5
5E
330
39
100
AcDbEntity
  8
1
  6
Continuous
 62
     7
100
AcDbCircle
 10
126.2616622589836
 20
264.5480297784014
 30
0.0
 40
23.9999999999999
100
AcDbArc
 50
-146.0408074999024
 51
-123.9591925000976
  0
ARC
  5
5F
330
39
100
AcDbEntity
  8
1
  6
Continuous
 62
     7
100
AcDbCircle
 10
201.948751848754
 20
264.5480297784014
 30
0.0
 40
24.00000000000005
100
AcDbArc
 50
-56.04080749990234
 51
-33.95919250009754
  0
ARC
  5
60
330
39
100
AcDbEntity
  8
1
  6
Continuous
 62
     7
100
AcDbCircle
 10
218.3552070538689
 20
240.6415745732865
 30
0.0
 40
4.999999999999932
100
AcDbArc
 50
126.869897645843
 51
-135.5729959991949
  0
ARC
  5
61
330
39
100
AcDbEntity
  8
1
  6
Continuous
 62
     7
100
AcDbCircle
 10
237.3552070538688
 20
240.6415745732865
 30
0.0
 40
5.000000000000057
100
AcDbArc
 50
-44.42700400080507
 51
53.13010235415703
  0
ARC
  5
62
330
39
100
AcDbEntity
  8
1
  6
Continuous
 62
     7
100
AcDbCircle
 10
253.7616622589837
 20
264.5480297784013
 30
0.0
 40
23.99999999999992
100
AcDbArc
 50
-146.0408074999027
 51
-123.9591925000978
  0
SPLINE
  5
63
330
39
100
AcDbEntity
  8
1
  6
Continuous
 62
     7
100
AcDbSpline
210
0.0
220
0.0
230
1.0
 70
    11
 71
     3
 72
    79
 73
    75
 74
    73
 42
0.0000000001
 43
0.0000000001
 44
0.00000001
 40
0.0
 40
0.0
 40
0.0
 40
0.0
 40
0.2813091385367347
 40
0.5626019606351869
 40
0.846422652514327
 40
1.130214060738666
 40
1.417835711262175
 40
1.705420542401935
 40
1.997635978226863
 40
2.289812854371145
 40
2.586839035183101
 40
2.883829792124878
 40
3.185307045384646
 40
3.48675546140284
 40
3.791812980111157
 40
4.096850365689798
 40
4.404220799428801
 40
4.711580931801444
 40
5.019747232346218
 40
5.327913532890939
 40
5.635273665263526
 40
5.942644099002551
 40
6.247681484581204
 40
6.552739003289531
 40
6.854187419307658
 40
7.155664672567374
 40
7.452655429509118
 40
7.749681610321027
 40
8.041858486465349
 40
8.334073922290308
 40
8.62165875343007
 40
8.909280403953604
 40
9.19307181217793
 40
9.476892504057116
 40
9.758185326155568
 40
10.03949446469229
 40
10.31992040211366
 40
10.60034633953507
 40
10.88165547807179
 40
11.16294830017027
 40
11.44676899204947
 40
11.73056040027383
 40
12.01818205079731
 40
12.3057668819371
 40
12.59798231776207
 40
12.89015919390634
 40
13.18718537471826
 40
13.48417613165997
 40
13.78565338491965
 40
14.08710180093784
 40
14.39215931964623
 40
14.69719670522489
 40
15.00456713896394
 40
15.31192727133648
 40
15.62009357188117
 40
15.92825987242589
 40
16.23562000479854
 40
16.54299043853757
 40
16.84802782411619
 40
17.15308534282455
 40
17.45453375884272
 40
17.75601101210252
 40
18.05300176904424
 40
18.35002794985626
 40
18.64220482600056
 40
18.93442026182542
 40
19.22200509296514
 40
19.50962674348865
 40
19.79341815171308
 40
20.07723884359226
 40
20.35853166569071
 40
20.63984080422739
 40
20.92026674164874
 40
21.20069267907012
 40
21.20069267907012
 40
21.20069267907012
 40
21.20069267907012
 10
216.8767518821074
 20
244.1987668025299
 30
0.0
 10
216.9698788331284
 20
244.1871953990429
 30
0.0
 10
217.1561273336387
 20
244.1640532632312
 30
0.0
 10
217.430428918745
 20
244.095291122864
 30
0.0
 10
217.6981728473217
 20
244.0027229960295
 30
0.0
 10
217.9577854833274
 20
243.8838706601989
 30
0.0
 10
218.2065025802459
 20
243.7412087445653
 30
0.0
 10
218.4433464956218
 20
243.5746658436316
 30
0.0
 10
218.6655619149382
 20
243.3867081243085
 30
0.0
 10
218.8724249669411
 20
243.1775459125013
 30
0.0
 10
219.0614837018124
 20
242.9500933360185
 30
0.0
 10
219.2321236464736
 20
242.7047477516652
 30
0.0
 10
219.3823873753396
 20
242.4447191933255
 30
0.0
 10
219.5116947274663
 20
242.1706964472689
 30
0.0
 10
219.6186855294143
 20
241.8859487618859
 30
0.0
 10
219.7028178685902
 20
241.5915859123368
 30
0.0
 10
219.7633368527953
 20
241.2906954323682
 30
0.0
 10
219.7998179907899
 20
240.9849091104105
 30
0.0
 10
219.8120367723229
 20
240.676931680423
 30
0.0
 10
219.7998179907902
 20
240.36895425043
 30
0.0
 10
219.7633368527939
 20
240.0631679284896
 30
0.0
 10
219.702817868595
 20
239.7622774484574
 30
0.0
 10
219.6186855293965
 20
239.4679145991429
 30
0.0
 10
219.5116947275326
 20
239.1831669128903
 30
0.0
 10
219.3823873750959
 20
238.9091441700421
 30
0.0
 10
219.2321236473773
 20
238.6491155998174
 30
0.0
 10
219.0614836984955
 20
238.4037700591885
 30
0.0
 10
218.8724249792427
 20
238.1763173209042
 30
0.0
 10
218.6655618698574
 20
237.9671557035496
 30
0.0
 10
218.4433466628549
 20
237.7791957847577
 30
0.0
 10
218.2065019670692
 20
237.6126609684992
 30
0.0
 10
217.9577877603974
 20
237.4699691112785
 30
0.0
 10
217.69816447442
 20
237.3512271041162
 30
0.0
 10
217.4304600667886
 20
237.2582495589829
 30
0.0
 10
217.1560122334442
 20
237.1910024811756
 30
0.0
 10
216.8774734107855
 20
237.1506871350812
 30
0.0
 10
216.5966521457642
 20
237.1370254561084
 30
0.0
 10
216.3158308807429
 20
237.1506871350811
 30
0.0
 10
216.0372920580842
 20
237.1910024811757
 30
0.0
 10
215.7628442247398
 20
237.2582495589829
 30
0.0
 10
215.4951398171084
 20
237.3512271041165
 30
0.0
 10
215.2355165311309
 20
237.4699691112784
 30
0.0
 10
214.986802324459
 20
237.6126609684992
 30
0.0
 10
214.7499576286734
 20
237.7791957847576
 30
0.0
 10
214.527742421671
 20
237.9671557035498
 30
0.0
 10
214.3208793122856
 20
238.1763173209042
 30
0.0
 10
214.131820593033
 20
238.4037700591885
 30
0.0
 10
213.961180644151
 20
238.6491155998173
 30
0.0
 10
213.8109169164325
 20
238.909144170042
 30
0.0
 10
213.6816095639957
 20
239.1831669128902
 30
0.0
 10
213.574618762132
 20
239.4679145991429
 30
0.0
 10
213.4904864229333
 20
239.7622774484576
 30
0.0
 10
213.4299674387346
 20
240.0631679284896
 30
0.0
 10
213.3934863007381
 20
240.3689542504302
 30
0.0
 10
213.3812675192054
 20
240.6769316804222
 30
0.0
 10
213.3934863007381
 20
240.9849091104138
 30
0.0
 10
213.4299674387345
 20
241.2906954323557
 30
0.0
 10
213.4904864229331
 20
241.5915859123832
 30
0.0
 10
213.5746187621331
 20
241.8859487617146
 30
0.0
 10
213.681609563991
 20
242.1706964479049
 30
0.0
 10
213.8109169164497
 20
242.4447191909833
 30
0.0
 10
213.9611806440863
 20
242.7047477603559
 30
0.0
 10
214.1318205932709
 20
242.9500933041191
 30
0.0
 10
214.3208793114039
 20
243.177546030805
 30
0.0
 10
214.5277424249024
 20
243.3867076907718
 30
0.0
 10
214.7499576166857
 20
243.5746674518992
 30
0.0
 10
214.9868023684133
 20
243.7412028476911
 30
0.0
 10
215.2355163679039
 20
243.8838925586102
 30
0.0
 10
215.4951404173027
 20
244.0026424744577
 30
0.0
 10
215.762841991956
 20
244.0955906712765
 30
0.0
 10
216.0373003088065
 20
244.1629463532479
 30
0.0
 10
216.3158001182653
 20
244.2028575410473
 30
0.0
 10
216.5967665539375
 20
244.2180231192859
 30
0.0
 10
216.7834234393841
 20
244.2051855747819
 30
0.0
 10
216.8767518821075
 20
244.1987668025299
 30
0.0
 11
216.8767518821074
 21
244.1987668025299
 31
0.0
 11
217.155151389461
 21
244.15841155839
 31
0.0
 11
217.4283954143337
 21
244.0916032158311
 31
0.0
 11
217.6965015404984
 21
243.998472714642
 31
0.0
 11
217.954647558596
 21
243.8805821012654
 31
0.0
 11
218.2041402369441
 21
243.7374750878086
 31
0.0
 11
218.4394856440439
 21
243.572194797215
 31
0.0
 11
218.6626278370589
 21
243.3835220047121
 31
0.0
 11
218.8681927621441
 21
243.1758915914097
 31
0.0
 11
219.0581073394129
 21
242.9475125086798
 31
0.0
 11
219.2277936421037
 21
242.7037707018678
 31
0.0
 11
219.3786893316643
 21
242.4427744852188
 31
0.0
 11
219.5074293186621
 21
242.1701994253405
 31
0.0
 11
219.6147719819521
 21
241.8846514567637
 31
0.0
 11
219.6986683251912
 21
241.5913781879652
 31
0.0
 11
219.7593002818308
 21
241.2900472247853
 31
0.0
 11
219.7957495158172
 21
240.9848559662048
 31
0.0
 11
219.8079602904305
 21
240.6769316804221
 31
0.0
 11
219.7957495158172
 21
240.3690073946394
 31
0.0
 11
219.7593002818307
 21
240.063816136059
 31
0.0
 11
219.6986683251912
 21
239.762485172879
 31
0.0
 11
219.6147719819521
 21
239.4692119040805
 31
0.0
 11
219.5074293186621
 21
239.1836639355038
 31
0.0
 11
219.3786893316642
 21
238.9110888756256
 31
0.0
 11
219.2277936421037
 21
238.6500926589766
 31
0.0
 11
219.058107339413
 21
238.4063508521646
 31
0.0
 11
218.8681927621441
 21
238.1779717694348
 31
0.0
 11
218.6626278370588
 21
237.9703413561323
 31
0.0
 11
218.4394856440439
 21
237.7816685636294
 31
0.0
 11
218.2041402369442
 21
237.6163882730357
 31
0.0
 11
217.954647558596
 21
237.4732812595789
 31
0.0
 11
217.6965015404984
 21
237.3553906462023
 31
0.0
 11
217.4283954143337
 21
237.2622601450132
 31
0.0
 11
217.155151389461
 21
237.1954518024542
 31
0.0
 11
216.8767518821075
 21
237.1550965583143
 31
0.0
 11
216.5966521457642
 21
237.1415745732865
 31
0.0
 11
216.3165524094209
 21
237.1550965583144
 31
0.0
 11
216.0381529020674
 21
237.1954518024542
 31
0.0
 11
215.7649088771947
 21
237.2622601450132
 31
0.0
 11
215.49680275103
 21
237.3553906462024
 31
0.0
 11
215.2386567329323
 21
237.4732812595789
 31
0.0
 11
214.9891640545841
 21
237.6163882730356
 31
0.0
 11
214.7538186474844
 21
237.7816685636294
 31
0.0
 11
214.5306764544695
 21
237.9703413561324
 31
0.0
 11
214.3251115293843
 21
238.1779717694349
 31
0.0
 11
214.1351969521154
 21
238.4063508521646
 31
0.0
 11
213.9655106494247
 21
238.6500926589766
 31
0.0
 11
213.8146149598641
 21
238.9110888756255
 31
0.0
 11
213.6858749728662
 21
239.1836639355038
 31
0.0
 11
213.5785323095763
 21
239.4692119040806
 31
0.0
 11
213.4946359663372
 21
239.7624851728791
 31
0.0
 11
213.4340040096977
 21
240.0638161360591
 31
0.0
 11
213.3975547757111
 21
240.3690073946395
 31
0.0
 11
213.3853440010979
 21
240.6769316804221
 31
0.0
 11
213.3975547757111
 21
240.9848559662048
 31
0.0
 11
213.4340040096977
 21
241.2900472247852
 31
0.0
 11
213.4946359663372
 21
241.5913781879652
 31
0.0
 11
213.5785323095763
 21
241.8846514567637
 31
0.0
 11
213.6858749728662
 21
242.1701994253405
 31
0.0
 11
213.814614959864
 21
242.4427744852188
 31
0.0
 11
213.9655106494247
 21
242.7037707018678
 31
0.0
 11
214.1351969521155
 21
242.9475125086797
 31
0.0
 11
214.3251115293844
 21
243.1758915914096
 31
0.0
 11
214.5306764544696
 21
243.3835220047121
 31
0.0
 11
214.7538186474844
 21
243.572194797215
 31
0.0
 11
214.9891640545841
 21
243.7374750878087
 31
0.0
 11
215.2386567329323
 21
243.8805821012654
 31
0.0
 11
215.49680275103
 21
243.998472714642
 31
0.0
 11
215.7649088771948
 21
244.091603215831
 31
0.0
 11
216.0381529020675
 21
244.1584115583898
 31
0.0
 11
216.316552409421
 21
244.1987668025298
 31
0.0
 11
216.5966521457642
 21
244.2122887875578
 31
0.0
 11
216.8767518821075
 21
244.1987668025299
 31
0.0
  0
SPLINE
  5
64
330
39
100
AcDbEntity
  8
1
  6
Continuous
 62
     7
100
AcDbSpline
210
0.0
220
0.0
230
1.0
 70
    11
 71
     3
 72
    79
 73
    75
 74
    73
 42
0.0000000001
 43
0.0000000001
 44
0.00000001
 40
0.0
 40
0.0
 40
0.0
 40
0.0
 40
0.2813091385367347
 40
0.5626019606351869
 40
0.846422652514327
 40
1.130214060738692
 40
1.417835711262226
 40
1.705420542401939
 40
1.997635978226867
 40
2.289812854371149
 40
2.586839035183106
 40
2.883829792124866
 40
3.185307045384634
 40
3.486755461402828
 40
3.791812980111135
 40
4.096850365689799
 40
4.404220799428807
 40
4.71158093180145
 40
5.019747232346222
 40
5.327913532890941
 40
5.635273665263524
 40
5.942644099002549
 40
6.247681484581233
 40
6.55273900328957
 40
6.854187419307674
 40
7.155664672567388
 40
7.452655429509132
 40
7.749681610321059
 40
8.041858486465362
 40
8.334073922290299
 40
8.621658753430038
 40
8.909280403953597
 40
9.193071812177974
 40
9.47689250405716
 40
9.758185326155584
 40
10.0394944646923
 40
10.31992040211365
 40
10.60034633953505
 40
10.88165547807177
 40
11.16294830017025
 40
11.44676899204946
 40
11.73056040027382
 40
12.01818205079737
 40
12.30576688193712
 40
12.59798231776209
 40
12.89015919390633
 40
13.18718537471826
 40
13.48417613165996
 40
13.78565338491967
 40
14.08710180093786
 40
14.39215931964625
 40
14.6971967052249
 40
15.00456713896396
 40
15.31192727133649
 40
15.62009357188119
 40
15.92825987242591
 40
16.23562000479857
 40
16.54299043853759
 40
16.84802782411621
 40
17.15308534282456
 40
17.45453375884277
 40
17.75601101210251
 40
18.05300176904422
 40
18.35002794985623
 40
18.64220482600052
 40
18.9344202618254
 40
19.22200509296512
 40
19.50962674348867
 40
19.79341815171308
 40
20.07723884359229
 40
20.35853166569077
 40
20.63984080422747
 40
20.9202667416488
 40
21.20069267907012
 40
21.20069267907012
 40
21.20069267907012
 40
21.20069267907012
 10
238.8334375667232
 20
244.1987668025299
 30
0.0
 10
238.7403106157023
 20
244.1871953990429
 30
0.0
 10
238.5540621151918
 20
244.1640532632313
 30
0.0
 10
238.2797605300858
 20
244.0952911228639
 30
0.0
 10
238.0120166015088
 20
244.0027229960296
 30
0.0
 10
237.7524039655033
 20
243.8838706601989
 30
0.0
 10
237.5036868685847
 20
243.7412087445653
 30
0.0
 10
237.2668429532087
 20
243.5746658436316
 30
0.0
 10
237.0446275338927
 20
243.3867081243086
 30
0.0
 10
236.8377644818895
 20
243.1775459125012
 30
0.0
 10
236.6487057470183
 20
242.9500933360186
 30
0.0
 10
236.4780658023571
 20
242.7047477516653
 30
0.0
 10
236.3278020734911
 20
242.4447191933254
 30
0.0
 10
236.1984947213643
 20
242.1706964472689
 30
0.0
 10
236.0915039194165
 20
241.8859487618857
 30
0.0
 10
236.0073715802404
 20
241.5915859123369
 30
0.0
 10
235.9468525960353
 20
241.2906954323682
 30
0.0
 10
235.9103714580407
 20
240.9849091104105
 30
0.0
 10
235.8981526765078
 20
240.6769316804231
 30
0.0
 10
235.9103714580405
 20
240.3689542504299
 30
0.0
 10
235.9468525960367
 20
240.0631679284896
 30
0.0
 10
236.0073715802355
 20
239.7622774484575
 30
0.0
 10
236.0915039194342
 20
239.4679145991429
 30
0.0
 10
236.1984947212982
 20
239.1831669128903
 30
0.0
 10
236.3278020737347
 20
238.909144170042
 30
0.0
 10
236.4780658014534
 20
238.6491155998174
 30
0.0
 10
236.6487057503352
 20
238.4037700591885
 30
0.0
 10
236.837764469588
 20
238.1763173209042
 30
0.0
 10
237.0446275789733
 20
237.9671557035496
 30
0.0
 10
237.2668427859757
 20
237.7791957847576
 30
0.0
 10
237.5036874817614
 20
237.6126609684992
 30
0.0
 10
237.7524016884333
 20
237.4699691112784
 30
0.0
 10
238.0120249744106
 20
237.3512271041162
 30
0.0
 10
238.2797293820421
 20
237.258249558983
 30
0.0
 10
238.5541772153865
 20
237.1910024811756
 30
0.0
 10
238.8327160380451
 20
237.1506871350811
 30
0.0
 10
239.1135373030666
 20
237.1370254561085
 30
0.0
 10
239.3943585680877
 20
237.1506871350811
 30
0.0
 10
239.6728973907465
 20
237.1910024811757
 30
0.0
 10
239.947345224091
 20
237.258249558983
 30
0.0
 10
240.2150496317223
 20
237.3512271041164
 30
0.0
 10
240.4746729176997
 20
237.4699691112784
 30
0.0
 10
240.7233871243717
 20
237.6126609684991
 30
0.0
 10
240.9602318201573
 20
237.7791957847577
 30
0.0
 10
241.1824470271597
 20
237.9671557035497
 30
0.0
 10
241.389310136545
 20
238.1763173209043
 30
0.0
 10
241.5783688557977
 20
238.4037700591885
 30
0.0
 10
241.7490088046795
 20
238.6491155998173
 30
0.0
 10
241.8992725323984
 20
238.909144170042
 30
0.0
 10
242.0285798848349
 20
239.1831669128903
 30
0.0
 10
242.1355706866987
 20
239.4679145991429
 30
0.0
 10
242.2197030258973
 20
239.7622774484576
 30
0.0
 10
242.2802220100962
 20
240.0631679284896
 30
0.0
 10
242.3167031480926
 20
240.3689542504303
 30
0.0
 10
242.3289219296252
 20
240.6769316804221
 30
0.0
 10
242.3167031480926
 20
240.9849091104139
 30
0.0
 10
242.280222010096
 20
241.2906954323557
 30
0.0
 10
242.2197030258977
 20
241.5915859123832
 30
0.0
 10
242.1355706866974
 20
241.8859487617146
 30
0.0
 10
242.0285798848396
 20
242.1706964479049
 30
0.0
 10
241.8992725323809
 20
242.4447191909833
 30
0.0
 10
241.7490088047443
 20
242.7047477603559
 30
0.0
 10
241.5783688555599
 20
242.9500933041191
 30
0.0
 10
241.3893101374268
 20
243.1775460308049
 30
0.0
 10
241.1824470239283
 20
243.3867076907718
 30
0.0
 10
240.960231832145
 20
243.5746674518991
 30
0.0
 10
240.7233870804174
 20
243.7412028476911
 30
0.0
 10
240.4746730809268
 20
243.8838925586103
 30
0.0
 10
240.215049031528
 20
244.0026424744577
 30
0.0
 10
239.9473474568746
 20
244.0955906712766
 30
0.0
 10
239.672889140024
 20
244.1629463532478
 30
0.0
 10
239.3943893305654
 20
244.2028575410474
 30
0.0
 10
239.1134228948931
 20
244.2180231192859
 30
0.0
 10
238.9267660094465
 20
244.2051855747819
 30
0.0
 10
238.8334375667232
 20
244.1987668025299
 30
0.0
 11
238.8334375667232
 21
244.1987668025299
 31
0.0
 11
238.5550380593697
 21
244.15841155839
 31
0.0
 11
238.281794034497
 21
244.0916032158311
 31
0.0
 11
238.0136879083323
 21
243.998472714642
 31
0.0
 11
237.7555418902347
 21
243.8805821012654
 31
0.0
 11
237.5060492118865
 21
243.7374750878086
 31
0.0
 11
237.2707038047867
 21
243.572194797215
 31
0.0
 11
237.0475616117718
 21
243.3835220047121
 31
0.0
 11
236.8419966866866
 21
243.1758915914097
 31
0.0
 11
236.6520821094177
 21
242.9475125086798
 31
0.0
 11
236.482395806727
 21
242.7037707018678
 31
0.0
 11
236.3315001171664
 21
242.4427744852188
 31
0.0
 11
236.2027601301685
 21
242.1701994253405
 31
0.0
 11
236.0954174668786
 21
241.8846514567637
 31
0.0
 11
236.0115211236394
 21
241.5913781879652
 31
0.0
 11
235.9508891669998
 21
241.2900472247853
 31
0.0
 11
235.9144399330134
 21
240.9848559662048
 31
0.0
 11
235.9022291584002
 21
240.6769316804221
 31
0.0
 11
235.9144399330135
 21
240.3690073946394
 31
0.0
 11
235.9508891669999
 21
240.063816136059
 31
0.0
 11
236.0115211236394
 21
239.762485172879
 31
0.0
 11
236.0954174668786
 21
239.4692119040805
 31
0.0
 11
236.2027601301686
 21
239.1836639355038
 31
0.0
 11
236.3315001171665
 21
238.9110888756256
 31
0.0
 11
236.482395806727
 21
238.6500926589766
 31
0.0
 11
236.6520821094177
 21
238.4063508521646
 31
0.0
 11
236.8419966866866
 21
238.1779717694348
 31
0.0
 11
237.0475616117718
 21
237.9703413561323
 31
0.0
 11
237.2707038047867
 21
237.7816685636294
 31
0.0
 11
237.5060492118865
 21
237.6163882730357
 31
0.0
 11
237.7555418902347
 21
237.4732812595789
 31
0.0
 11
238.0136879083323
 21
237.3553906462023
 31
0.0
 11
238.281794034497
 21
237.2622601450132
 31
0.0
 11
238.5550380593697
 21
237.1954518024542
 31
0.0
 11
238.8334375667232
 21
237.1550965583143
 31
0.0
 11
239.1135373030664
 21
237.1415745732865
 31
0.0
 11
239.3936370394097
 21
237.1550965583144
 31
0.0
 11
239.6720365467633
 21
237.1954518024542
 31
0.0
 11
239.945280571636
 21
237.2622601450132
 31
0.0
 11
240.2133866978007
 21
237.3553906462024
 31
0.0
 11
240.4715327158984
 21
237.4732812595789
 31
0.0
 11
240.7210253942466
 21
237.6163882730356
 31
0.0
 11
240.9563708013463
 21
237.7816685636294
 31
0.0
 11
241.1795129943612
 21
237.9703413561324
 31
0.0
 11
241.3850779194463
 21
238.1779717694349
 31
0.0
 11
241.5749924967152
 21
238.4063508521646
 31
0.0
 11
241.744678799406
 21
238.6500926589766
 31
0.0
 11
241.8955744889666
 21
238.9110888756255
 31
0.0
 11
242.0243144759645
 21
239.1836639355038
 31
0.0
 11
242.1316571392544
 21
239.4692119040806
 31
0.0
 11
242.2155534824935
 21
239.7624851728791
 31
0.0
 11
242.276185439133
 21
240.0638161360591
 31
0.0
 11
242.3126346731195
 21
240.3690073946395
 31
0.0
 11
242.3248454477329
 21
240.6769316804221
 31
0.0
 11
242.3126346731195
 21
240.9848559662048
 31
0.0
 11
242.276185439133
 21
241.2900472247852
 31
0.0
 11
242.2155534824935
 21
241.5913781879652
 31
0.0
 11
242.1316571392544
 21
241.8846514567637
 31
0.0
 11
242.0243144759645
 21
242.1701994253405
 31
0.0
 11
241.8955744889665
 21
242.4427744852188
 31
0.0
 11
241.744678799406
 21
242.7037707018678
 31
0.0
 11
241.5749924967152
 21
242.9475125086797
 31
0.0
 11
241.3850779194463
 21
243.1758915914096
 31
0.0
 11
241.1795129943612
 21
243.3835220047121
 31
0.0
 11
240.9563708013463
 21
243.572194797215
 31
0.0
 11
240.7210253942466
 21
243.7374750878087
 31
0.0
 11
240.4715327158983
 21
243.8805821012654
 31
0.0
 11
240.2133866978006
 21
243.998472714642
 31
0.0
 11
239.9452805716359
 21
244.091603215831
 31
0.0
 11
239.6720365467631
 21
244.1584115583898
 31
0.0
 11
239.3936370394096
 21
244.1987668025298
 31
0.0
 11
239.1135373030664
 21
244.2122887875578
 31
0.0
 11
238.8334375667232
 21
244.1987668025299
 31
0.0
  0
SPLINE
  5
65
330
39
100
AcDbEntity
  8
1
  6
Continuous
 62
     7
100
AcDbSpline
210
0.0
220
0.0
230
1.0
 70
    11
 71
     3
 72
    81
 73
    77
 74
    75
 42
0.0000000001
 43
0.0000000001
 44
0.00000001
 40
0.0
 40
0.0
 40
0.0
 40
0.0
 40
0.1554868167315273
 40
0.3119100204069433
 40
0.6337309571179599
 40
0.9551597065678704
 40
1.304665793870719
 40
1.653587858019909
 40
2.041539596897534
 40
2.429053012782743
 40
2.859699217153783
 40
3.290057567298429
 40
3.762056874719418
 40
4.233877043373247
 40
4.741753477130343
 40
5.249521397617755
 40
5.784902100584025
 40
6.32022109849733
 40
6.872864312687603
 40
7.425479622763636
 40
7.983932688804662
 40
8.542385566074545
 40
9.094919882301271
 40
9.64748228602503
 40
10.18280128548536
 40
10.71818198976293
 40
11.22594990875333
 40
11.73382633494428
 40
12.20564651118944
 40
12.67764587144894
 40
13.10800417189144
 40
13.53865003021092
 40
13.92616375907615
 40
14.31411764698732
 40
14.66303778057786
 40
15.0125309890697
 40
15.33399367404376
 40
15.65591278732615
 40
15.96749095767343
 40
16.27906912802063
 40
16.60098824130298
 40
16.92245092627708
 40
17.27194413476909
 40
17.62086426836
 40
18.00881815627057
 40
18.39633188513349
 40
18.82697774345543
 40
19.25733604390994
 40
19.7293354041573
 40
20.20115558034564
 40
20.70903200658942
 40
21.21679992581456
 40
21.75218062990272
 40
22.28749962864969
 40
22.84010243756865
 40
23.3926772507087
 40
23.95113022236561
 40
24.50958319401865
 40
25.06215800716984
 40
25.61476081618328
 40
26.15007981480695
 40
26.68546051794525
 40
27.19322843821296
 40
27.70110487200394
 40
28.17292504064429
 40
28.64492434767296
 40
29.07528269811412
 40
29.50592890420941
 40
29.8934423188706
 40
30.28139405137753
 40
30.6303161195675
 40
30.97982222335193
 40
31.30127288834612
 40
31.62311631966127
 40
31.77956195432007
 40
31.93507079932517
 40
31.93507079932517
 40
31.93507079932517
 40
31.93507079932517
 10
234.2778233441233
 20
240.6768871344531
 30
0.0
 10
234.2766072211892
 20
240.728734869237
 30
0.0
 10
234.2741676514741
 20
240.8327425809804
 30
0.0
 10
234.2472704587408
 20
241.0425472617128
 30
0.0
 10
234.1853265501349
 20
241.3029222379009
 30
0.0
 10
234.0583641034658
 20
241.6097841314321
 30
0.0
 10
233.8871085482249
 20
241.9045887837469
 30
0.0
 10
233.6665441411158
 20
242.192827869196
 30
0.0
 10
233.4065252359185
 20
242.4637742706214
 30
0.0
 10
233.1003155614952
 20
242.7251514598908
 30
0.0
 10
232.7602633347183
 20
242.9660037630893
 30
0.0
 10
232.3780773420537
 20
243.1934312568916
 30
0.0
 10
231.9678474314157
 20
243.3981149663666
 30
0.0
 10
231.5212793384787
 20
243.5852891396105
 30
0.0
 10
231.0526169489323
 20
243.748088581364
 30
0.0
 10
230.5551210445822
 20
243.889722246455
 30
0.0
 10
230.0416604270786
 20
244.0057812877853
 30
0.0
 10
229.5082088464259
 20
244.0978616254272
 30
0.0
 10
228.9650818445246
 20
244.1635624963931
 30
0.0
 10
228.4117395127161
 20
244.2035221364289
 30
0.0
 10
227.8551751711887
 20
244.2166932184319
 30
0.0
 10
227.2986376423617
 20
244.2035304335749
 30
0.0
 10
226.7453485670974
 20
244.1635842037018
 30
0.0
 10
226.2022736130648
 20
244.0979029381019
 30
0.0
 10
225.6688460345211
 20
244.0058419383991
 30
0.0
 10
225.1553821985509
 20
243.8897971432147
 30
0.0
 10
224.6578823678137
 20
243.7481772815094
 30
0.0
 10
224.1892154501136
 20
243.5853908726478
 30
0.0
 10
223.742642153666
 20
243.3982290822629
 30
0.0
 10
223.3324065938071
 20
243.1935566236159
 30
0.0
 10
222.9502145229231
 20
242.9661397512381
 30
0.0
 10
222.610154847181
 20
242.7252975935902
 30
0.0
 10
222.3039386290483
 20
242.4639280675958
 30
0.0
 10
222.0439095190941
 20
242.1929878630984
 30
0.0
 10
221.8233557547063
 20
241.9047542888903
 30
0.0
 10
221.6520222027315
 20
241.6099704826451
 30
0.0
 10
221.5252349191606
 20
241.3030182782779
 30
0.0
 10
221.4505833508208
 20
240.9922680894121
 30
0.0
 10
221.4237434726988
 20
240.677020895086
 30
0.0
 10
221.4505746048472
 20
240.3617729562573
 30
0.0
 10
221.5252175519561
 20
240.0510206964385
 30
0.0
 10
221.6519963196444
 20
239.7440649747053
 30
0.0
 10
221.8233216933095
 20
239.4492764152339
 30
0.0
 10
222.0438674610926
 20
239.161036722271
 30
0.0
 10
222.3038890542002
 20
238.8900893038407
 30
0.0
 10
222.6100980209931
 20
238.6287112825355
 30
0.0
 10
222.9501510148778
 20
238.3878596906375
 30
0.0
 10
223.3323367763264
 20
238.1604322150924
 30
0.0
 10
223.7425666577441
 20
237.955748375267
 30
0.0
 10
224.1891347616462
 20
237.7685741958672
 30
0.0
 10
224.6577971630347
 20
237.6057747845669
 30
0.0
 10
225.1552930640827
 20
237.4641411199062
 30
0.0
 10
225.6687536804896
 20
237.3480820762006
 30
0.0
 10
226.2021919831348
 20
237.2560040081034
 30
0.0
 10
226.745292049955
 20
237.1903054070235
 30
0.0
 10
227.298607199238
 20
237.1503447969369
 30
0.0
 10
227.8551579517255
 20
237.1371701432597
 30
0.0
 10
228.4117090695117
 20
237.1503293562467
 30
0.0
 10
228.9650253272665
 20
237.1902746155913
 30
0.0
 10
229.5081272164291
 20
237.2559581504217
 30
0.0
 10
230.041568073043
 20
237.3480214192998
 30
0.0
 10
230.5550319101055
 20
237.4640662121219
 30
0.0
 10
231.0525317441689
 20
237.6056860742705
 30
0.0
 10
231.521198650066
 20
237.7684725135059
 30
0.0
 10
231.967771935439
 20
237.9556342976657
 30
0.0
 10
232.3780075242791
 20
238.1603066263768
 30
0.0
 10
232.7601998266026
 20
238.3877235175143
 30
0.0
 10
233.100258737512
 20
238.6285663837955
 30
0.0
 10
233.4064756614064
 20
238.8899350770241
 30
0.0
 10
233.6665020753406
 20
239.1608742720488
 30
0.0
 10
233.8870744608925
 20
239.4491072567513
 30
0.0
 10
234.0583420130305
 20
239.7439133986275
 30
0.0
 10
234.1853171963006
 20
240.0507863246454
 30
0.0
 10
234.2472691070603
 20
240.3111825300441
 30
0.0
 10
234.2741693895433
 20
240.5210094355779
 30
0.0
 10
234.2766078000872
 20
240.6250320270364
 30
0.0
 10
234.2778233441233
 20
240.6768871344531
 30
0.0
 11
234.2778233441233
 21
240.6768871344531
 31
0.0
 11
234.2714914843924
 21
240.8322449721365
 31
0.0
 11
234.252498708314
 21
240.9875108508894
 31
0.0
 11
234.1771769358997
 21
241.3003931704697
 31
0.0
 11
234.0557903645088
 21
241.5980200194919
 31
0.0
 11
233.8808705031924
 21
241.9006047963377
 31
0.0
 11
233.6698045538274
 21
242.1784496664878
 31
0.0
 11
233.4020321280685
 21
242.4591710224645
 31
0.0
 11
233.1078737934298
 21
242.7114358072713
 31
0.0
 11
232.7570949533637
 21
242.9612564603428
 31
0.0
 11
232.3875907653228
 21
243.1818804947531
 31
0.0
 11
231.9656481494549
 21
243.3934171939814
 31
0.0
 11
231.5306765873028
 21
243.5762121930036
 31
0.0
 11
231.0511406652536
 21
243.7434956991548
 31
0.0
 11
230.5628564017012
 21
243.8828037715813
 31
0.0
 11
230.0407509195655
 21
244.0012873680516
 31
0.0
 11
229.5132576910781
 21
244.0924867289417
 31
0.0
 11
228.96464797644
 21
244.1591343335144
 31
0.0
 11
228.4134687891781
 21
244.1989487085533
 31
0.0
 11
227.8551750768096
 21
244.2122887872814
 31
0.0
 11
227.2968813698658
 21
244.1989563862239
 31
0.0
 11
226.7457822814095
 21
244.1591573245428
 31
0.0
 11
226.197251174654
 21
244.092532742513
 31
0.0
 11
225.6697554172378
 21
244.0013480009654
 31
0.0
 11
225.1476466483863
 21
243.8828788826219
 31
0.0
 11
224.6593585199924
 21
243.7435843628968
 31
0.0
 11
224.1798179570312
 21
243.5763141839786
 31
0.0
 11
223.7448413238311
 21
243.3935312326896
 31
0.0
 11
223.3228928398893
 21
243.1820061207417
 31
0.0
 11
222.9533825307921
 21
242.96139243524
 31
0.0
 11
222.6025967577022
 21
242.7115821138249
 31
0.0
 11
222.3084314264278
 21
242.4593250070167
 31
0.0
 11
222.0406512242743
 21
242.1786080989403
 31
0.0
 11
221.8295775572175
 21
241.9007715162157
 31
0.0
 11
221.6546492432406
 21
241.598206502126
 31
0.0
 11
221.5332477227549
 21
241.3005491006482
 31
0.0
 11
221.4579171464946
 21
240.9875679194619
 31
0.0
 11
221.4325907637327
 21
240.6770207723599
 31
0.0
 11
221.4579085309158
 21
240.3664729227429
 31
0.0
 11
221.5332304240503
 21
240.0534896517664
 31
0.0
 11
221.6546236865227
 21
239.7558288823374
 31
0.0
 11
221.8295436063131
 21
239.4532590152942
 31
0.0
 11
222.0406095652149
 21
239.1754165768188
 31
0.0
 11
222.3083819792824
 21
238.8946922397737
 31
0.0
 11
222.6025403120266
 21
238.6424269719813
 31
0.0
 11
222.9533191544454
 21
238.3926069187406
 31
0.0
 11
223.3228233428707
 21
238.1719829819018
 31
0.0
 11
223.7447659582706
 21
237.9604461638691
 31
0.0
 11
224.1797375203336
 21
237.7776511451872
 31
0.0
 11
224.6592734424871
 21
237.6103676621457
 31
0.0
 11
225.1475577061365
 21
237.47105959466
 31
0.0
 11
225.6696631881655
 21
237.3525759926503
 31
0.0
 11
226.1971564161366
 21
237.26137662388
 31
0.0
 11
226.7457259025399
 21
237.1947329219097
 31
0.0
 11
227.2968644882034
 21
237.1549185588019
 31
0.0
 11
227.8551580128237
 21
237.141574574409
 31
0.0
 11
228.4134519074338
 21
237.1549030697926
 31
0.0
 11
228.9645915974626
 21
237.1947021426963
 31
0.0
 11
229.5131629325642
 21
237.2613306263528
 31
0.0
 11
230.0406586904934
 21
237.3525153600209
 31
0.0
 11
230.5627674594324
 21
237.4709844728308
 31
0.0
 11
231.0510555877465
 21
237.6102789974917
 31
0.0
 11
231.5305961507062
 21
237.7775491994897
 31
0.0
 11
231.965572783908
 21
237.9603321311443
 31
0.0
 11
232.3875212677846
 21
238.1718571244425
 31
0.0
 11
232.7570315769353
 21
238.3924709073887
 31
0.0
 11
233.1078173503653
 21
238.6422818278532
 31
0.0
 11
233.4019826813658
 21
238.8945384523049
 31
0.0
 11
233.6697628818266
 21
239.175252383196
 31
0.0
 11
233.8808365502641
 21
239.4530913944278
 31
0.0
 11
234.0557648727078
 21
239.7556712988987
 31
0.0
 11
234.1771663858138
 21
240.053315722063
 31
0.0
 11
234.252496917818
 21
240.3662190701254
 31
0.0
 11
234.2714924384247
 21
240.5215072113361
 31
0.0
 11
234.2778233441233
 21
240.6768871344531
 31
0.0
  0
SPLINE
  5
66
330
39
100
AcDbEntity
  8
1
  6
Continuous
 62
     7
100
AcDbSpline
210
0.0
220
0.0
230
1.0
 70
    11
 71
     3
 72
    81
 73
    77
 74
    75
 42
0.0000000001
 43
0.0000000001
 44
0.00000001
 40
0.0
 40
0.0
 40
0.0
 40
0.0
 40
0.3160149117721102
 40
0.6318632115075207
 40
0.9639105462283377
 40
1.295674867772757
 40
1.650818601694799
 40
2.005699042925927
 40
2.387328402689242
 40
2.768752113548714
 40
3.176740551579446
 40
3.584583771173197
 40
4.015916131140282
 40
4.447152552910968
 40
4.896638153704434
 40
5.346066062275165
 40
5.80701880115796
 40
6.267944533158501
 40
6.732806441390308
 40
7.197668349623517
 40
7.658594081620095
 40
8.119546820469587
 40
8.568974729084292
 40
9.018460330213314
 40
9.449696751607961
 40
9.881029108893362
 40
10.28887233125435
 40
10.69686078837034
 40
11.07828448051207
 40
11.45991371394955
 40
11.81479427566024
 40
12.16993880503446
 40
12.50170237115416
 40
12.83374486846303
 40
13.14959785626393
 40
13.46564150275274
 40
13.77586393743823
 40
14.08608637212378
 40
14.40213001861263
 40
14.71798300641361
 40
15.0500255037223
 40
15.38178906984149
 40
15.73693359921637
 40
16.09181416093016
 40
16.47344339436446
 40
16.85486708649074
 40
17.26285554362187
 40
17.67069876605489
 40
18.10203112327503
 40
18.53326754437822
 40
18.98275314573653
 40
19.43218105520056
 40
19.89308293610282
 40
20.35395764281316
 40
20.81881937968486
 40
21.28368145927894
 40
21.74465821659872
 40
22.20566181338492
 40
22.65508972110817
 40
23.1045753216827
 40
23.53581174373562
 40
23.96714410371564
 40
24.37498732328121
 40
24.78297576154409
 40
25.16439947222141
 40
25.54602883091198
 40
25.90090927295106
 40
26.25605301095352
 40
26.5878173297236
 40
26.91986465328479
 40
27.23567960415694
 40
27.55166056770754
 40
27.70720239015381
 40
27.86208488876766
 40
28.01700086143821
 40
28.17257658784348
 40
28.17257658784348
 40
28.17257658784348
 40
28.17257658784348
 10
99.39658517928828
 20
240.3672414998825
 30
0.0
 10
99.37879002982885
 20
240.263257787727
 30
0.0
 10
99.34320911301816
 20
240.0553451865824
 30
0.0
 10
99.23706181087734
 20
239.7507122049148
 30
0.0
 10
99.0960044650854
 20
239.4555555082889
 30
0.0
 10
98.91374635413706
 20
239.1680471769467
 30
0.0
 10
98.6975235574144
 20
238.895530053468
 30
0.0
 10
98.44357825914199
 20
238.6341485996086
 30
0.0
 10
98.15998344790157
 20
238.3916221408159
 30
0.0
 10
97.84238017649739
 20
238.1639574744578
 30
0.0
 10
97.50007027068708
 20
237.9579853501608
 30
0.0
 10
97.12860985227387
 20
237.7705526362278
 30
0.0
 10
96.73766214896372
 20
237.6069072371905
 30
0.0
 10
96.3236345571339
 20
237.4650651184464
 30
0.0
 10
95.89553446446716
 20
237.3485158307978
 30
0.0
 10
95.45144782796946
 20
237.2563056696221
 30
0.0
 10
94.99885291344691
 20
237.1903731563663
 30
0.0
 10
94.53808203232603
 20
237.1503775069488
 30
0.0
 10
94.07446421990791
 20
237.1371485191602
 30
0.0
 10
93.6108470760599
 20
237.1504009170978
 30
0.0
 10
93.15007821513994
 20
237.1904198328252
 30
0.0
 10
92.69748663022807
 20
237.256375199172
 30
0.0
 10
92.2534046507821
 20
237.3486077841772
 30
0.0
 10
91.82531044222036
 20
237.4651786897899
 30
0.0
 10
91.41129002125365
 20
237.6070417152833
 30
0.0
 10
91.0203505528244
 20
237.7707068427755
 30
0.0
 10
90.648899682539
 20
237.9581583274827
 30
0.0
 10
90.30659987355013
 20
238.1641477327389
 30
0.0
 10
89.98900927933691
 20
238.3918285655048
 30
0.0
 10
89.70542248449135
 20
238.6343686206888
 30
0.0
 10
89.45150446755748
 20
238.895765018103
 30
0.0
 10
89.23524474864334
 20
239.1682868057674
 30
0.0
 10
89.05318180840995
 20
239.4558269911509
 30
0.0
 10
88.91148518086885
 20
239.7509014511206
 30
0.0
 10
88.80766909239168
 20
240.0558610081824
 30
0.0
 10
88.74613198257103
 20
240.3647236921381
 30
0.0
 10
88.72462382681431
 20
240.6770667512152
 30
0.0
 10
88.74614775412439
 20
240.9894087238523
 30
0.0
 10
88.80770045970783
 20
241.2982683001339
 30
0.0
 10
88.91153194680771
 20
241.6032226146739
 30
0.0
 10
89.05324347378112
 20
241.8982899193787
 30
0.0
 10
89.23532093295691
 20
242.1858209112332
 30
0.0
 10
89.45159441242498
 20
242.4583317786425
 30
0.0
 10
89.70552562809024
 20
242.7197153542849
 30
0.0
 10
89.98912466948849
 20
242.9622410896069
 30
0.0
 10
90.30672675993104
 20
243.1899058855032
 30
0.0
 10
90.64903696981706
 20
243.3958780062528
 30
0.0
 10
91.02049730477307
 20
243.5833107348313
 30
0.0
 10
91.41144503675125
 20
243.7469561216223
 30
0.0
 10
91.82547262121729
 20
243.8887982405189
 30
0.0
 10
92.25357271495136
 20
244.0053475255223
 30
0.0
 10
92.69764274291731
 20
244.0975542635294
 30
0.0
 10
93.15020375627786
 20
244.1634833359335
 30
0.0
 10
93.61094028415477
 20
244.2034804597669
 30
0.0
 10
94.07454092433761
 20
244.2167148436234
 30
0.0
 10
94.53817524064985
 20
244.2034678413044
 30
0.0
 10
94.99897845487483
 20
244.1634503988951
 30
0.0
 10
95.45160394095896
 20
244.0974915902142
 30
0.0
 10
95.89570252822533
 20
244.0052555811375
 30
0.0
 10
96.32379673765418
 20
243.8886846731251
 30
0.0
 10
96.73781715904094
 20
243.7468216469402
 30
0.0
 10
97.12875662395148
 20
243.5831565102548
 30
0.0
 10
97.5002074886753
 20
243.395705029177
 30
0.0
 10
97.84250731523083
 20
243.1897156602113
 30
0.0
 10
98.16009796472737
 20
242.9620348187132
 30
0.0
 10
98.44368457333619
 20
242.7194945365585
 30
0.0
 10
98.69760257824099
 20
242.4580985247058
 30
0.0
 10
98.91386230759814
 20
242.1855767271387
 30
0.0
 10
99.09592851445846
 20
241.8980373696813
 30
0.0
 10
99.23760837169914
 20
241.6029625989653
 30
0.0
 10
99.34144807193349
 20
241.2980649304995
 30
0.0
 10
99.39279412463017
 20
241.0398567973461
 30
0.0
 10
99.41392814272942
 20
240.8319990213713
 30
0.0
 10
99.4189660252883
 20
240.6768671988216
 30
0.0
 10
99.4143296690286
 20
240.5216391929263
 30
0.0
 10
99.40250838209137
 20
240.4187802514393
 30
0.0
 10
99.39658517928828
 20
240.3672414998825
 30
0.0
 11
99.39658517928828
 21
240.3672414998825
 31
0.0
 11
99.33469504121581
 21
240.0573462994167
 31
0.0
 11
99.23363136511799
 21
239.7581034518508
 31
0.0
 11
99.09017007864131
 21
239.458646790917
 31
0.0
 11
98.91333227700127
 21
239.1779406154221
 31
0.0
 11
98.69301467473308
 21
238.8993957790405
 31
0.0
 11
98.44620069070177
 21
238.6443997303358
 31
0.0
 11
98.1565841272334
 21
238.3958776701518
 31
0.0
 11
97.84687618721297
 21
238.1732455990252
 31
0.0
 11
97.49759428153166
 21
237.9623979859716
 31
0.0
 11
97.13364583305503
 21
237.7783392490965
 31
0.0
 11
96.73594512494154
 21
237.6113609525403
 31
0.0
 11
96.32806575695318
 21
237.4713635503109
 31
0.0
 11
95.89445438601311
 21
237.3529638699391
 31
0.0
 11
95.45443931813612
 21
237.2614642248935
 31
0.0
 11
94.99833175150657
 21
237.1948060284971
 31
0.0
 11
94.53913444719308
 21
237.154926633674
 31
0.0
 11
94.07446433165191
 21
237.1415745758598
 31
0.0
 11
93.60979489090744
 21
237.1549500969501
 31
0.0
 11
93.15059960086619
 21
237.1948526785773
 31
0.0
 11
92.69449540068513
 21
237.261533905546
 31
0.0
 11
92.25448495359009
 21
237.3530557689941
 31
0.0
 11
91.8208795617242
 21
237.4714773454366
 31
0.0
 11
91.41300726334444
 21
237.6114953419645
 31
0.0
 11
91.01531498721784
 21
237.7784937130662
 31
0.0
 11
90.65137583313663
 21
237.9625708331883
 31
0.0
 11
90.30210457448453
 21
238.1734361196142
 31
0.0
 11
89.99240787657338
 21
238.3960837969655
 31
0.0
 11
89.70280386267905
 21
238.6446202871443
 31
0.0
 11
89.456002754642
 21
238.8996289657256
 31
0.0
 11
89.23569921642024
 21
239.1781859397747
 31
0.0
 11
89.05887559015137
 21
239.4589001520932
 31
0.0
 11
88.91542943106245
 21
239.7583586959048
 31
0.0
 11
88.81438085935982
 21
240.0576115923981
 31
0.0
 11
88.75250633483273
 21
240.3675392124975
 31
0.0
 11
88.73175125942694
 21
240.6770665712674
 31
0.0
 11
88.75252196420991
 21
240.9865928816274
 31
0.0
 11
88.81441213827269
 21
241.2965173770137
 31
0.0
 11
88.91547582044711
 21
241.5957651707368
 31
0.0
 11
89.0589371003379
 21
241.8952164709361
 31
0.0
 11
89.23577490088195
 21
242.1759217542902
 31
0.0
 11
89.45609250439483
 21
242.4544676038863
 31
0.0
 11
89.70290648863147
 21
242.7094638200691
 31
0.0
 11
89.99252305186238
 21
242.9579856865396
 31
0.0
 11
90.30223099184633
 21
243.1806177256223
 31
0.0
 11
90.65151289756966
 21
243.3914653755654
 31
0.0
 11
91.01546134603532
 21
243.5755241187535
 31
0.0
 11
91.41316205416086
 21
243.7425024081852
 31
0.0
 11
91.82104142226449
 21
243.8824998080227
 31
0.0
 11
92.2546527930807
 21
244.0008994909924
 31
0.0
 11
92.69466786023827
 21
244.0923991438854
 31
0.0
 11
93.15072488953445
 21
244.1590514495378
 31
0.0
 11
93.60987097774056
 21
244.1989308298034
 31
0.0
 11
94.07454075229987
 21
244.2122887869217
 31
0.0
 11
94.53921053424961
 21
244.1989191651128
 31
0.0
 11
94.99845704047161
 21
244.1590165673033
 31
0.0
 11
95.45461177768695
 21
244.0923294473639
 31
0.0
 11
95.8946222255036
 21
244.0008075917627
 31
0.0
 11
96.32822761750492
 21
243.8823860179207
 31
0.0
 11
96.73609991575884
 21
243.7423680189988
 31
0.0
 11
97.13379219181044
 21
243.5753696407587
 31
0.0
 11
97.49773134595839
 21
243.3912925269621
 31
0.0
 11
97.84700260490442
 21
243.1804272775007
 31
0.0
 11
98.15669930256023
 21
242.9577795680403
 31
0.0
 11
98.44630331492635
 21
242.709242883754
 31
0.0
 11
98.69310442428468
 21
242.4542343729914
 31
0.0
 11
98.91340797049745
 21
242.1756784142175
 31
0.0
 11
99.09023158973017
 21
241.8949633079436
 31
0.0
 11
99.2336777065405
 21
241.5954993924943
 31
0.0
 11
99.33471768126806
 21
241.2962837399936
 31
0.0
 11
99.39659210606271
 21
240.9864200201381
 31
0.0
 11
99.41216468943604
 21
240.8316597113474
 31
0.0
 11
99.41735592041738
 21
240.6768642349995
 31
0.0
 11
99.41216351258767
 21
240.5220353052435
 31
0.0
 11
99.39658517928828
 21
240.3672414998825
 31
0.0
  0
SPLINE
  5
67
330
39
100
AcDbEntity
  8
1
  6
Continuous
 62
     7
100
AcDbSpline
210
0.0
220
0.0
230
1.0
 70
    11
 71
     3
 72
    81
 73
    77
 74
    75
 42
0.0000000001
 43
0.0000000001
 44
0.00000001
 40
0.0
 40
0.0
 40
0.0
 40
0.0
 40
0.3160149117721073
 40
0.6318632115075223
 40
0.9639105462283395
 40
1.295674867772744
 40
1.650818601694777
 40
2.005699042925924
 40
2.387328402689261
 40
2.768752113548722
 40
3.176740551579478
 40
3.584583771173178
 40
4.01591613114029
 40
4.447152552910949
 40
4.89663815370443
 40
5.346066062275188
 40
5.807018801158011
 40
6.267944533158567
 40
6.732806441390374
 40
7.197668349623526
 40
7.658594081620118
 40
8.11954682046961
 40
8.56897472908433
 40
9.018460330213337
 40
9.449696751607943
 40
9.881029108893371
 40
10.28887233125435
 40
10.69686078837032
 40
11.07828448051207
 40
11.45991371394956
 40
11.81479427566028
 40
12.16993880503451
 40
12.5017023711542
 40
12.83374486846308
 40
13.14959785626397
 40
13.46564150275276
 40
13.77586393743826
 40
14.08608637212381
 40
14.40213001861267
 40
14.71798300641365
 40
15.05002550372233
 40
15.38178906984152
 40
15.7369335992164
 40
16.09181416093017
 40
16.47344339436448
 40
16.85486708649076
 40
17.26285554362188
 40
17.67069876605487
 40
18.10203112327501
 40
18.53326754437818
 40
18.98275314573651
 40
19.43218105520056
 40
19.89308293610284
 40
20.3539576428132
 40
20.81881937968488
 40
21.28368145927897
 40
21.74465821659868
 40
22.20566181338488
 40
22.65508972110813
 40
23.10457532168267
 40
23.53581174373561
 40
23.96714410371564
 40
24.37498732328118
 40
24.78297576154409
 40
25.16439947222142
 40
25.546028830912
 40
25.90090927295108
 40
26.25605301095354
 40
26.58781732972362
 40
26.91986465328481
 40
27.23567960415694
 40
27.55166056770754
 40
27.70720239015381
 40
27.86208488876767
 40
28.01700086143821
 40
28.17257658784348
 40
28.17257658784348
 40
28.17257658784348
 40
28.17257658784348
 10
101.3138289284493
 20
240.3672414998825
 30
0.0
 10
101.3316240779088
 20
240.263257787727
 30
0.0
 10
101.3672049947195
 20
240.0553451865825
 30
0.0
 10
101.4733522968602
 20
239.7507122049147
 30
0.0
 10
101.6144096426522
 20
239.455555508289
 30
0.0
 10
101.7966677536005
 20
239.1680471769466
 30
0.0
 10
102.0128905503232
 20
238.895530053468
 30
0.0
 10
102.2668358485956
 20
238.6341485996087
 30
0.0
 10
102.550430659836
 20
238.3916221408159
 30
0.0
 10
102.8680339312402
 20
238.1639574744578
 30
0.0
 10
103.2103438370505
 20
237.9579853501608
 30
0.0
 10
103.5818042554637
 20
237.7705526362278
 30
0.0
 10
103.9727519587738
 20
237.6069072371905
 30
0.0
 10
104.3867795506037
 20
237.4650651184465
 30
0.0
 10
104.8148796432704
 20
237.3485158307977
 30
0.0
 10
105.2589662797682
 20
237.2563056696222
 30
0.0
 10
105.7115611942907
 20
237.1903731563662
 30
0.0
 10
106.1723320754117
 20
237.1503775069488
 30
0.0
 10
106.6359498878297
 20
237.1371485191602
 30
0.0
 10
107.0995670316777
 20
237.1504009170978
 30
0.0
 10
107.5603358925977
 20
237.1904198328252
 30
0.0
 10
108.0129274775095
 20
237.256375199172
 30
0.0
 10
108.4570094569555
 20
237.3486077841772
 30
0.0
 10
108.8851036655172
 20
237.4651786897899
 30
0.0
 10
109.2991240864839
 20
237.6070417152832
 30
0.0
 10
109.6900635549131
 20
237.7707068427755
 30
0.0
 10
110.0615144251986
 20
237.9581583274826
 30
0.0
 10
110.4038142341875
 20
238.164147732739
 30
0.0
 10
110.7214048284006
 20
238.3918285655047
 30
0.0
 10
111.0049916232462
 20
238.6343686206888
 30
0.0
 10
111.2589096401802
 20
238.8957650181029
 30
0.0
 10
111.4751693590943
 20
239.1682868057674
 30
0.0
 10
111.6572322993277
 20
239.4558269911509
 30
0.0
 10
111.7989289268688
 20
239.7509014511207
 30
0.0
 10
111.902745015346
 20
240.0558610081824
 30
0.0
 10
111.9642821251665
 20
240.3647236921381
 30
0.0
 10
111.9857902809233
 20
240.6770667512152
 30
0.0
 10
111.9642663536131
 20
240.9894087238523
 30
0.0
 10
111.9027136480298
 20
241.2982683001338
 30
0.0
 10
111.7988821609298
 20
241.6032226146739
 30
0.0
 10
111.6571706339565
 20
241.8982899193787
 30
0.0
 10
111.4750931747806
 20
242.1858209112332
 30
0.0
 10
111.2588196953126
 20
242.4583317786425
 30
0.0
 10
111.0048884796473
 20
242.7197153542849
 30
0.0
 10
110.7212894382491
 20
242.9622410896069
 30
0.0
 10
110.4036873478065
 20
243.1899058855032
 30
0.0
 10
110.0613771379206
 20
243.3958780062527
 30
0.0
 10
109.6899168029645
 20
243.5833107348314
 30
0.0
 10
109.2989690709864
 20
243.7469561216221
 30
0.0
 10
108.8849414865204
 20
243.888798240519
 30
0.0
 10
108.4568413927862
 20
244.0053475255222
 30
0.0
 10
108.0127713648203
 20
244.0975542635294
 30
0.0
 10
107.5602103514597
 20
244.1634833359334
 30
0.0
 10
107.0994738235828
 20
244.2034804597668
 30
0.0
 10
106.6358731833999
 20
244.2167148436235
 30
0.0
 10
106.1722388670878
 20
244.2034678413043
 30
0.0
 10
105.7114356528628
 20
244.1634503988952
 30
0.0
 10
105.2588101667787
 20
244.0974915902142
 30
0.0
 10
104.8147115795123
 20
244.0052555811376
 30
0.0
 10
104.3866173700835
 20
243.8886846731251
 30
0.0
 10
103.9725969486966
 20
243.7468216469401
 30
0.0
 10
103.5816574837861
 20
243.5831565102548
 30
0.0
 10
103.2102066190624
 20
243.3957050291769
 30
0.0
 10
102.8679067925067
 20
243.1897156602113
 30
0.0
 10
102.5503161430102
 20
242.9620348187132
 30
0.0
 10
102.2667295344014
 20
242.7194945365585
 30
0.0
 10
102.0128115294966
 20
242.4580985247059
 30
0.0
 10
101.7965518001395
 20
242.1855767271387
 30
0.0
 10
101.6144855932791
 20
241.8980373696813
 30
0.0
 10
101.4728057360384
 20
241.6029625989654
 30
0.0
 10
101.3689660358041
 20
241.2980649304996
 30
0.0
 10
101.3176199831075
 20
241.039856797346
 30
0.0
 10
101.2964859650082
 20
240.8319990213714
 30
0.0
 10
101.2914480824493
 20
240.6768671988216
 30
0.0
 10
101.296084438709
 20
240.5216391929263
 30
0.0
 10
101.3079057256462
 20
240.4187802514393
 30
0.0
 10
101.3138289284493
 20
240.3672414998825
 30
0.0
 11
101.3138289284493
 21
240.3672414998825
 31
0.0
 11
101.3757190665218
 21
240.0573462994167
 31
0.0
 11
101.4767827426196
 21
239.7581034518508
 31
0.0
 11
101.6202440290963
 21
239.458646790917
 31
0.0
 11
101.7970818307363
 21
239.1779406154221
 31
0.0
 11
102.0173994330045
 21
238.8993957790405
 31
0.0
 11
102.2642134170358
 21
238.6443997303358
 31
0.0
 11
102.5538299805042
 21
238.3958776701518
 31
0.0
 11
102.8635379205246
 21
238.1732455990252
 31
0.0
 11
103.212819826206
 21
237.9623979859716
 31
0.0
 11
103.5767682746825
 21
237.7783392490965
 31
0.0
 11
103.9744689827961
 21
237.6113609525403
 31
0.0
 11
104.3823483507844
 21
237.4713635503109
 31
0.0
 11
104.8159597217245
 21
237.3529638699391
 31
0.0
 11
105.2559747896015
 21
237.2614642248935
 31
0.0
 11
105.7120823562311
 21
237.1948060284971
 31
0.0
 11
106.1712796605446
 21
237.154926633674
 31
0.0
 11
106.6359497760857
 21
237.1415745758598
 31
0.0
 11
107.1006192168302
 21
237.1549500969501
 31
0.0
 11
107.5598145068714
 21
237.1948526785773
 31
0.0
 11
108.0159187070525
 21
237.261533905546
 31
0.0
 11
108.4559291541475
 21
237.3530557689941
 31
0.0
 11
108.8895345460134
 21
237.4714773454366
 31
0.0
 11
109.2974068443931
 21
237.6114953419645
 31
0.0
 11
109.6950991205198
 21
237.7784937130662
 31
0.0
 11
110.059038274601
 21
237.9625708331883
 31
0.0
 11
110.408309533253
 21
238.1734361196142
 31
0.0
 11
110.7180062311642
 21
238.3960837969655
 31
0.0
 11
111.0076102450586
 21
238.6446202871443
 31
0.0
 11
111.2544113530956
 21
238.8996289657256
 31
0.0
 11
111.4747148913174
 21
239.1781859397747
 31
0.0
 11
111.6515385175863
 21
239.4589001520932
 31
0.0
 11
111.7949846766752
 21
239.7583586959048
 31
0.0
 11
111.8960332483778
 21
240.0576115923981
 31
0.0
 11
111.9579077729049
 21
240.3675392124975
 31
0.0
 11
111.9786628483106
 21
240.6770665712674
 31
0.0
 11
111.9578921435277
 21
240.9865928816274
 31
0.0
 11
111.8960019694649
 21
241.2965173770137
 31
0.0
 11
111.7949382872904
 21
241.5957651707368
 31
0.0
 11
111.6514770073997
 21
241.8952164709361
 31
0.0
 11
111.4746392068556
 21
242.1759217542902
 31
0.0
 11
111.2543216033427
 21
242.4544676038863
 31
0.0
 11
111.0075076191061
 21
242.7094638200691
 31
0.0
 11
110.7178910558752
 21
242.9579856865396
 31
0.0
 11
110.4081831158913
 21
243.1806177256223
 31
0.0
 11
110.0589012101679
 21
243.3914653755654
 31
0.0
 11
109.6949527617023
 21
243.5755241187535
 31
0.0
 11
109.2972520535767
 21
243.7425024081852
 31
0.0
 11
108.8893726854732
 21
243.8824998080227
 31
0.0
 11
108.4557613146569
 21
244.0008994909924
 31
0.0
 11
108.0157462474993
 21
244.0923991438854
 31
0.0
 11
107.5596892182031
 21
244.1590514495378
 31
0.0
 11
107.100543129997
 21
244.1989308298034
 31
0.0
 11
106.6358733554377
 21
244.2122887869217
 31
0.0
 11
106.171203573488
 21
244.1989191651128
 31
0.0
 11
105.711957067266
 21
244.1590165673033
 31
0.0
 11
105.2558023300507
 21
244.0923294473639
 31
0.0
 11
104.815791882234
 21
244.0008075917627
 31
0.0
 11
104.3821864902327
 21
243.8823860179207
 31
0.0
 11
103.9743141919788
 21
243.7423680189988
 31
0.0
 11
103.5766219159272
 21
243.5753696407587
 31
0.0
 11
103.2126827617792
 21
243.3912925269621
 31
0.0
 11
102.8634115028332
 21
243.1804272775007
 31
0.0
 11
102.5537148051774
 21
242.9577795680403
 31
0.0
 11
102.2641107928112
 21
242.709242883754
 31
0.0
 11
102.0173096834529
 21
242.4542343729914
 31
0.0
 11
101.7970061372401
 21
242.1756784142175
 31
0.0
 11
101.6201825180074
 21
241.8949633079436
 31
0.0
 11
101.4767364011971
 21
241.5954993924943
 31
0.0
 11
101.3756964264696
 21
241.2962837399936
 31
0.0
 11
101.3138220016749
 21
240.9864200201381
 31
0.0
 11
101.2982494183016
 21
240.8316597113474
 31
0.0
 11
101.2930581873203
 21
240.6768642349995
 31
0.0
 11
101.29825059515
 21
240.5220353052435
 31
0.0
 11
101.3138289284493
 21
240.3672414998825
 31
0.0
  0
ENDBLK
  5
3B
330
39
100
AcDbEntity
  8
0
100
AcDbBlockEnd
  0
BLOCK
  5
3D
330
3C
100
AcDbEntity
  8
0
100
AcDbBlockBegin
  2
42-1
 70
     0
 71
     0
 10
338.160645891137
 20
216.6893143061234
 30
0.0
  3
42-1
  1

  0
LINE
  5
68
330
3C
100
AcDbEntity
  8
1
  6
Continuous
 62
     7
100
AcDbLine
 10
227.8552070538688
 20
269.5416490053053
 30
0.0
 11
233.6052070538688
 21
269.5416490053053
 31
0.0
  0
LINE
  5
69
330
3C
100
AcDbEntity
  8
1
  6
Continuous
 62
     7
100
AcDbLine
 10
233.3552070538688
 20
269.2118832851015
 30
0.0
 11
233.8552070538688
 21
269.2118832851015
 31
0.0
  0
LINE
  5
6A
330
3C
100
AcDbEntity
  8
1
  6
Continuous
 62
     2
100
AcDbLine
 10
233.8552070538688
 20
266.2118832851015
 30
0.0
 11
233.8552070538688
 21
269.2118832851015
 31
0.0
  0
LINE
  5
6B
330
3C
100
AcDbEntity
  8
1
  6
Continuous
 62
     7
100
AcDbLine
 10
234.3552070538688
 20
269.2118832851015
 30
0.0
 11
234.8552070538688
 21
269.2118832851015
 31
0.0
  0
LINE
  5
6C
330
3C
100
AcDbEntity
  8
1
  6
Continuous
 62
     7
100
AcDbLine
 10
233.8552070538689
 20
269.4812054841247
 30
0.0
 11
234.8552070538688
 21
269.2118832851015
 31
0.0
  0
LINE
  5
6D
330
3C
100
AcDbEntity
  8
1
  6
Continuous
 62
     7
100
AcDbLine
 10
234.8552070538688
 20
269.2118832851015
 30
0.0
 11
234.8552070538688
 21
266.2118832851015
 31
0.0
  0
LINE
  5
6E
330
3C
100
AcDbEntity
  8
1
  6
Continuous
 62
     2
100
AcDbLine
 10
234.3552070538688
 20
266.2118832851015
 30
0.0
 11
234.3552070538688
 21
269.2118832851015
 31
0.0
  0
LINE
  5
6F
330
3C
100
AcDbEntity
  8
1
  6
Continuous
 62
     7
100
AcDbLine
 10
233.8552070538688
 20
269.2118832851015
 30
0.0
 11
234.3552070538688
 21
269.2118832851015
 31
0.0
  0
LINE
  5
70
330
3C
100
AcDbEntity
  8
1
  6
Continuous
 62
     2
100
AcDbLine
 10
233.3552070538688
 20
266.2118832851015
 30
0.0
 11
233.3552070538688
 21
269.2118832851015
 31
0.0
  0
LINE
  5
71
330
3C
100
AcDbEntity
  8
1
  6
Continuous
 62
     7
100
AcDbLine
 10
232.8552070538688
 20
269.2118832851015
 30
0.0
 11
233.3552070538688
 21
269.2118832851015
 31
0.0
  0
LINE
  5
72
330
3C
100
AcDbEntity
  8
1
  6
Continuous
 62
     7
100
AcDbLine
 10
222.1052070538688
 20
269.5416490053053
 30
0.0
 11
227.8552070538688
 21
269.5416490053053
 31
0.0
  0
LINE
  5
73
330
3C
100
AcDbEntity
  8
1
  6
Continuous
 62
     2
100
AcDbLine
 10
226.8552070538688
 20
268.4542213872728
 30
0.0
 11
226.8552070538688
 21
267.1889822966623
 31
0.0
  0
LINE
  5
74
330
3C
100
AcDbEntity
  8
1
  6
Continuous
 62
     2
100
AcDbLine
 10
225.8552070538688
 20
268.6975365970055
 30
0.0
 11
225.8552070538688
 21
266.9294460729474
 31
0.0
  0
LINE
  5
75
330
3C
100
AcDbEntity
  8
1
  6
Continuous
 62
     7
100
AcDbLine
 10
221.8552070538688
 20
269.2118832851015
 30
0.0
 11
222.3552070538688
 21
269.2118832851015
 31
0.0
  0
LINE
  5
76
330
3C
100
AcDbEntity
  8
1
  6
Continuous
 62
     7
100
AcDbLine
 10
220.8552070538688
 20
269.2118832851015
 30
0.0
 11
221.3552070538688
 21
269.2118832851015
 31
0.0
  0
LINE
  5
77
330
3C
100
AcDbEntity
  8
1
  6
Continuous
 62
     7
100
AcDbLine
 10
220.8552070538688
 20
269.2118832851015
 30
0.0
 11
221.8552070538687
 21
269.4812054841247
 31
0.0
  0
LINE
  5
78
330
3C
100
AcDbEntity
  8
1
  6
Continuous
 62
     7
100
AcDbLine
 10
221.3552070538688
 20
269.2118832851015
 30
0.0
 11
221.8552070538688
 21
269.2118832851015
 31
0.0
  0
LINE
  5
79
330
3C
100
AcDbEntity
  8
1
  6
Continuous
 62
     7
100
AcDbLine
 10
222.3552070538688
 20
269.2118832851015
 30
0.0
 11
222.8552070538688
 21
269.2118832851015
 31
0.0
  0
LINE
  5
7A
330
3C
100
AcDbEntity
  8
1
  6
Continuous
 62
     2
100
AcDbLine
 10
225.3552070538688
 20
268.7434264123875
 30
0.0
 11
225.3552070538688
 21
266.8254324757789
 31
0.0
  0
LINE
  5
7B
330
3C
100
AcDbEntity
  8
1
  6
Continuous
 62
     2
100
AcDbLine
 10
226.3552070538688
 20
268.4982034433234
 30
0.0
 11
226.3552070538688
 21
267.1494771134708
 31
0.0
  0
LINE
  5
7C
330
3C
100
AcDbEntity
  8
1
  6
Continuous
 62
     7
100
AcDbLine
 10
222.8552070538688
 20
269.2118832851015
 30
0.0
 11
232.8552070538688
 21
269.2118832851015
 31
0.0
  0
LINE
  5
7D
330
3C
100
AcDbEntity
  8
1
  6
Continuous
 62
     2
100
AcDbLine
 10
228.8552070538688
 20
267.1889822966623
 30
0.0
 11
228.8552070538688
 21
268.4542213872728
 31
0.0
  0
LINE
  5
7E
330
3C
100
AcDbEntity
  8
1
  6
Continuous
 62
     2
100
AcDbLine
 10
229.8552070538688
 20
266.9294460729474
 30
0.0
 11
229.8552070538688
 21
268.6975365970055
 31
0.0
  0
LINE
  5
7F
330
3C
100
AcDbEntity
  8
1
  6
Continuous
 62
     2
100
AcDbLine
 10
230.3552070538688
 20
266.8254324757789
 30
0.0
 11
230.3552070538688
 21
268.7434264123875
 31
0.0
  0
LINE
  5
80
330
3C
100
AcDbEntity
  8
1
  6
Continuous
 62
     2
100
AcDbLine
 10
229.3552070538688
 20
267.1494771134708
 30
0.0
 11
229.3552070538688
 21
268.4982034433234
 31
0.0
  0
LINE
  5
81
330
3C
100
AcDbEntity
  8
1
  6
Continuous
 62
     2
100
AcDbLine
 10
230.8552070538688
 20
266.5725837653393
 30
0.0
 11
230.8552070538688
 21
268.908409778774
 31
0.0
  0
LINE
  5
82
330
3C
100
AcDbEntity
  8
1
  6
Continuous
 62
     2
100
AcDbLine
 10
231.3552070538688
 20
266.4663559853636
 30
0.0
 11
231.3552070538688
 21
268.9361016023664
 31
0.0
  0
LINE
  5
83
330
3C
100
AcDbEntity
  8
1
  6
Continuous
 62
     2
100
AcDbLine
 10
231.8552070538688
 20
266.3779315975531
 30
0.0
 11
231.8552070538688
 21
269.0219568766492
 31
0.0
  0
LINE
  5
84
330
3C
100
AcDbEntity
  8
1
  6
Continuous
 62
     2
100
AcDbLine
 10
232.3552070538688
 20
266.317470611289
 30
0.0
 11
232.3552070538688
 21
269.0674710500793
 31
0.0
  0
LINE
  5
85
330
3C
100
AcDbEntity
  8
1
  6
Continuous
 62
     2
100
AcDbLine
 10
232.8552070538688
 20
266.2118832851015
 30
0.0
 11
232.8552070538688
 21
269.2118832851015
 31
0.0
  0
LINE
  5
86
330
3C
100
AcDbEntity
  8
1
  6
Continuous
 62
     7
100
AcDbLine
 10
234.8552070538688
 20
266.2118832851015
 30
0.0
 11
220.8552070538688
 21
266.2118832851015
 31
0.0
  0
LINE
  5
87
330
3C
100
AcDbEntity
  8
1
  6
Continuous
 62
     2
100
AcDbLine
 10
224.8552070538688
 20
268.908409778774
 30
0.0
 11
224.8552070538688
 21
266.5725837653393
 31
0.0
  0
LINE
  5
88
330
3C
100
AcDbEntity
  8
1
  6
Continuous
 62
     2
100
AcDbLine
 10
224.3552070538688
 20
268.9361016023664
 30
0.0
 11
224.3552070538688
 21
266.4663559853636
 31
0.0
  0
LINE
  5
89
330
3C
100
AcDbEntity
  8
1
  6
Continuous
 62
     2
100
AcDbLine
 10
223.8552070538688
 20
269.0219568766492
 30
0.0
 11
223.8552070538688
 21
266.3779315975531
 31
0.0
  0
LINE
  5
8A
330
3C
100
AcDbEntity
  8
1
  6
Continuous
 62
     2
100
AcDbLine
 10
223.3552070538688
 20
269.0674710500793
 30
0.0
 11
223.3552070538688
 21
266.317470611289
 31
0.0
  0
LINE
  5
8B
330
3C
100
AcDbEntity
  8
1
  6
Continuous
 62
     2
100
AcDbLine
 10
222.8552070538688
 20
269.2118832851015
 30
0.0
 11
222.8552070538688
 21
266.2118832851015
 31
0.0
  0
LINE
  5
8C
330
3C
100
AcDbEntity
  8
1
  6
Continuous
 62
     2
100
AcDbLine
 10
222.3552070538688
 20
269.2118832851015
 30
0.0
 11
222.3552070538688
 21
266.2118832851015
 31
0.0
  0
LINE
  5
8D
330
3C
100
AcDbEntity
  8
1
  6
Continuous
 62
     2
100
AcDbLine
 10
221.8552070538688
 20
269.2118832851015
 30
0.0
 11
221.8552070538688
 21
266.2118832851015
 31
0.0
  0
LINE
  5
8E
330
3C
100
AcDbEntity
  8
1
  6
Continuous
 62
     2
100
AcDbLine
 10
221.3552070538688
 20
269.2118832851015
 30
0.0
 11
221.3552070538688
 21
266.2118832851015
 31
0.0
  0
LINE
  5
8F
330
3C
100
AcDbEntity
  8
1
  6
Continuous
 62
     7
100
AcDbLine
 10
220.8552070538688
 20
266.2118832851015
 30
0.0
 11
220.8552070538688
 21
269.2118832851015
 31
0.0
  0
LINE
  5
90
330
3C
100
AcDbEntity
  8
1
  6
Continuous
 62
     7
100
AcDbLine
 10
100.3552070538688
 20
268.5416490053053
 30
0.0
 11
106.1052070538687
 21
268.5416490053053
 31
0.0
  0
LINE
  5
91
330
3C
100
AcDbEntity
  8
1
  6
Continuous
 62
     7
100
AcDbLine
 10
105.8552070538687
 20
268.2118832851015
 30
0.0
 11
106.3552070538687
 21
268.2118832851015
 31
0.0
  0
LINE
  5
92
330
3C
100
AcDbEntity
  8
1
  6
Continuous
 62
     2
100
AcDbLine
 10
106.3552070538687
 20
265.2118832851015
 30
0.0
 11
106.3552070538687
 21
268.2118832851015
 31
0.0
  0
LINE
  5
93
330
3C
100
AcDbEntity
  8
1
  6
Continuous
 62
     7
100
AcDbLine
 10
106.8552070538687
 20
268.2118832851015
 30
0.0
 11
107.3552070538687
 21
268.2118832851015
 31
0.0
  0
LINE
  5
94
330
3C
100
AcDbEntity
  8
1
  6
Continuous
 62
     7
100
AcDbLine
 10
106.3552070538689
 20
268.4812054841247
 30
0.0
 11
107.3552070538687
 21
268.2118832851015
 31
0.0
  0
LINE
  5
95
330
3C
100
AcDbEntity
  8
1
  6
Continuous
 62
     7
100
AcDbLine
 10
107.3552070538687
 20
268.2118832851015
 30
0.0
 11
107.3552070538687
 21
265.2118832851015
 31
0.0
  0
LINE
  5
96
330
3C
100
AcDbEntity
  8
1
  6
Continuous
 62
     2
100
AcDbLine
 10
106.8552070538687
 20
265.2118832851015
 30
0.0
 11
106.8552070538687
 21
268.2118832851015
 31
0.0
  0
LINE
  5
97
330
3C
100
AcDbEntity
  8
1
  6
Continuous
 62
     7
100
AcDbLine
 10
106.3552070538687
 20
268.2118832851015
 30
0.0
 11
106.8552070538687
 21
268.2118832851015
 31
0.0
  0
LINE
  5
98
330
3C
100
AcDbEntity
  8
1
  6
Continuous
 62
     2
100
AcDbLine
 10
105.8552070538687
 20
265.2118832851015
 30
0.0
 11
105.8552070538687
 21
268.2118832851015
 31
0.0
  0
LINE
  5
99
330
3C
100
AcDbEntity
  8
1
  6
Continuous
 62
     7
100
AcDbLine
 10
105.3552070538687
 20
268.2118832851015
 30
0.0
 11
105.8552070538687
 21
268.2118832851015
 31
0.0
  0
LINE
  5
9A
330
3C
100
AcDbEntity
  8
1
  6
Continuous
 62
     7
100
AcDbLine
 10
94.60520705386884
 20
268.5416490053053
 30
0.0
 11
100.3552070538688
 21
268.5416490053053
 31
0.0
  0
LINE
  5
9B
330
3C
100
AcDbEntity
  8
1
  6
Continuous
 62
     2
100
AcDbLine
 10
99.35520705386884
 20
267.4542213872728
 30
0.0
 11
99.35520705386884
 21
266.1889822966623
 31
0.0
  0
LINE
  5
9C
330
3C
100
AcDbEntity
  8
1
  6
Continuous
 62
     2
100
AcDbLine
 10
98.35520705386884
 20
267.6975365970055
 30
0.0
 11
98.35520705386884
 21
265.9294460729474
 31
0.0
  0
LINE
  5
9D
330
3C
100
AcDbEntity
  8
1
  6
Continuous
 62
     7
100
AcDbLine
 10
94.35520705386884
 20
268.2118832851015
 30
0.0
 11
94.85520705386884
 21
268.2118832851015
 31
0.0
  0
LINE
  5
9E
330
3C
100
AcDbEntity
  8
1
  6
Continuous
 62
     7
100
AcDbLine
 10
93.35520705386884
 20
268.2118832851015
 30
0.0
 11
93.85520705386884
 21
268.2118832851015
 31
0.0
  0
LINE
  5
9F
330
3C
100
AcDbEntity
  8
1
  6
Continuous
 62
     7
100
AcDbLine
 10
93.35520705386884
 20
268.2118832851015
 30
0.0
 11
94.35520705386873
 21
268.4812054841247
 31
0.0
  0
LINE
  5
A0
330
3C
100
AcDbEntity
  8
1
  6
Continuous
 62
     7
100
AcDbLine
 10
93.85520705386884
 20
268.2118832851015
 30
0.0
 11
94.35520705386884
 21
268.2118832851015
 31
0.0
  0
LINE
  5
A1
330
3C
100
AcDbEntity
  8
1
  6
Continuous
 62
     7
100
AcDbLine
 10
94.85520705386884
 20
268.2118832851015
 30
0.0
 11
95.35520705386884
 21
268.2118832851015
 31
0.0
  0
LINE
  5
A2
330
3C
100
AcDbEntity
  8
1
  6
Continuous
 62
     2
100
AcDbLine
 10
97.85520705386884
 20
267.7434264123875
 30
0.0
 11
97.85520705386884
 21
265.8254324757789
 31
0.0
  0
LINE
  5
A3
330
3C
100
AcDbEntity
  8
1
  6
Continuous
 62
     2
100
AcDbLine
 10
98.85520705386884
 20
267.4982034433234
 30
0.0
 11
98.85520705386884
 21
266.1494771134708
 31
0.0
  0
LINE
  5
A4
330
3C
100
AcDbEntity
  8
1
  6
Continuous
 62
     7
100
AcDbLine
 10
95.35520705386884
 20
268.2118832851015
 30
0.0
 11
105.3552070538687
 21
268.2118832851015
 31
0.0
  0
LINE
  5
A5
330
3C
100
AcDbEntity
  8
1
  6
Continuous
 62
     2
100
AcDbLine
 10
101.3552070538687
 20
266.1889822966623
 30
0.0
 11
101.3552070538687
 21
267.4542213872728
 31
0.0
  0
LINE
  5
A6
330
3C
100
AcDbEntity
  8
1
  6
Continuous
 62
     2
100
AcDbLine
 10
102.3552070538687
 20
265.9294460729474
 30
0.0
 11
102.3552070538687
 21
267.6975365970055
 31
0.0
  0
LINE
  5
A7
330
3C
100
AcDbEntity
  8
1
  6
Continuous
 62
     2
100
AcDbLine
 10
102.8552070538688
 20
265.8254324757789
 30
0.0
 11
102.8552070538687
 21
267.7434264123875
 31
0.0
  0
LINE
  5
A8
330
3C
100
AcDbEntity
  8
1
  6
Continuous
 62
     2
100
AcDbLine
 10
101.8552070538687
 20
266.1494771134708
 30
0.0
 11
101.8552070538687
 21
267.4982034433234
 31
0.0
  0
LINE
  5
A9
330
3C
100
AcDbEntity
  8
1
  6
Continuous
 62
     2
100
AcDbLine
 10
103.3552070538687
 20
265.5725837653393
 30
0.0
 11
103.3552070538687
 21
267.908409778774
 31
0.0
  0
LINE
  5
AA
330
3C
100
AcDbEntity
  8
1
  6
Continuous
 62
     2
100
AcDbLine
 10
103.8552070538687
 20
265.4663559853636
 30
0.0
 11
103.8552070538687
 21
267.9361016023664
 31
0.0
  0
LINE
  5
AB
330
3C
100
AcDbEntity
  8
1
  6
Continuous
 62
     2
100
AcDbLine
 10
104.3552070538687
 20
265.3779315975531
 30
0.0
 11
104.3552070538687
 21
268.0219568766492
 31
0.0
  0
LINE
  5
AC
330
3C
100
AcDbEntity
  8
1
  6
Continuous
 62
     2
100
AcDbLine
 10
104.8552070538687
 20
265.317470611289
 30
0.0
 11
104.8552070538687
 21
268.0674710500793
 31
0.0
  0
LINE
  5
AD
330
3C
100
AcDbEntity
  8
1
  6
Continuous
 62
     2
100
AcDbLine
 10
105.3552070538687
 20
265.2118832851015
 30
0.0
 11
105.3552070538687
 21
268.2118832851015
 31
0.0
  0
LINE
  5
AE
330
3C
100
AcDbEntity
  8
1
  6
Continuous
 62
     7
100
AcDbLine
 10
107.3552070538687
 20
265.2118832851015
 30
0.0
 11
102.6552070538687
 21
265.2118832851015
 31
0.0
  0
LINE
  5
AF
330
3C
100
AcDbEntity
  8
1
  6
Continuous
 62
     7
100
AcDbLine
 10
98.05520705386883
 20
265.2118832851015
 30
0.0
 11
102.6552070538687
 21
265.2118832851015
 31
0.0
  0
LINE
  5
B0
330
3C
100
AcDbEntity
  8
1
  6
Continuous
 62
     7
100
AcDbLine
 10
98.05520705386883
 20
265.2118832851015
 30
0.0
 11
93.35520705386884
 21
265.2118832851015
 31
0.0
  0
LINE
  5
B1
330
3C
100
AcDbEntity
  8
1
  6
Continuous
 62
     2
100
AcDbLine
 10
97.35520705386884
 20
267.908409778774
 30
0.0
 11
97.35520705386884
 21
265.5725837653393
 31
0.0
  0
LINE
  5
B2
330
3C
100
AcDbEntity
  8
1
  6
Continuous
 62
     2
100
AcDbLine
 10
96.85520705386884
 20
267.9361016023664
 30
0.0
 11
96.85520705386884
 21
265.4663559853636
 31
0.0
  0
LINE
  5
B3
330
3C
100
AcDbEntity
  8
1
  6
Continuous
 62
     2
100
AcDbLine
 10
96.35520705386884
 20
268.0219568766492
 30
0.0
 11
96.35520705386884
 21
265.3779315975531
 31
0.0
  0
LINE
  5
B4
330
3C
100
AcDbEntity
  8
1
  6
Continuous
 62
     2
100
AcDbLine
 10
95.85520705386884
 20
268.0674710500793
 30
0.0
 11
95.85520705386884
 21
265.317470611289
 31
0.0
  0
LINE
  5
B5
330
3C
100
AcDbEntity
  8
1
  6
Continuous
 62
     2
100
AcDbLine
 10
95.35520705386884
 20
268.2118832851015
 30
0.0
 11
95.35520705386884
 21
265.2118832851015
 31
0.0
  0
LINE
  5
B6
330
3C
100
AcDbEntity
  8
1
  6
Continuous
 62
     2
100
AcDbLine
 10
94.85520705386884
 20
268.2118832851015
 30
0.0
 11
94.85520705386884
 21
265.2118832851015
 31
0.0
  0
LINE
  5
B7
330
3C
100
AcDbEntity
  8
1
  6
Continuous
 62
     2
100
AcDbLine
 10
94.35520705386884
 20
268.2118832851015
 30
0.0
 11
94.35520705386884
 21
265.2118832851015
 31
0.0
  0
LINE
  5
B8
330
3C
100
AcDbEntity
  8
1
  6
Continuous
 62
     2
100
AcDbLine
 10
93.85520705386884
 20
268.2118832851015
 30
0.0
 11
93.85520705386884
 21
265.2118832851015
 31
0.0
  0
LINE
  5
B9
330
3C
100
AcDbEntity
  8
1
  6
Continuous
 62
     7
100
AcDbLine
 10
93.35520705386884
 20
265.2118832851015
 30
0.0
 11
93.35520705386884
 21
268.2118832851015
 31
0.0
  0
ARC
  5
BA
330
3C
100
AcDbEntity
  8
1
  6
Continuous
 62
     7
100
AcDbCircle
 10
227.8552070538688
 20
245.2118832851015
 30
0.0
 40
25.0000000000001
100
AcDbArc
 50
76.702928252791
 51
90.0
  0
ARC
  5
BB
330
3C
100
AcDbEntity
  8
1
  6
Continuous
 62
     7
100
AcDbCircle
 10
227.8552070538688
 20
245.2118832851015
 30
0.0
 40
25.00000000000003
100
AcDbArc
 50
90.0
 51
103.297071747209
  0
ARC
  5
BC
330
3C
100
AcDbEntity
  8
1
  6
Continuous
 62
     7
100
AcDbCircle
 10
227.8552070538688
 20
245.2118832851015
 30
0.0
 40
25.00000000000004
100
AcDbArc
 50
76.11345963737082
 51
76.702928252791
  0
ARC
  5
BD
330
3C
100
AcDbEntity
  8
1
  6
Continuous
 62
     7
100
AcDbCircle
 10
227.8552070538688
 20
245.2118832851015
 30
0.0
 40
25.0000000000001
100
AcDbArc
 50
103.297071747209
 51
103.8865403626293
  0
ARC
  5
BE
330
3C
100
AcDbEntity
  8
1
  6
Continuous
 62
     7
100
AcDbCircle
 10
100.3552070538688
 20
244.2118832851015
 30
0.0
 40
25.00000000000008
100
AcDbArc
 50
76.70292825279122
 51
90.0
  0
ARC
  5
BF
330
3C
100
AcDbEntity
  8
1
  6
Continuous
 62
     7
100
AcDbCircle
 10
100.3552070538688
 20
244.2118832851015
 30
0.0
 40
25.00000000000003
100
AcDbArc
 50
90.0
 51
103.2970717472089
  0
ARC
  5
C0
330
3C
100
AcDbEntity
  8
1
  6
Continuous
 62
     7
100
AcDbCircle
 10
100.3552070538688
 20
244.2118832851015
 30
0.0
 40
25.00000000000004
100
AcDbArc
 50
76.11345963737081
 51
76.70292825279122
  0
ARC
  5
C1
330
3C
100
AcDbEntity
  8
1
  6
Continuous
 62
     7
100
AcDbCircle
 10
100.3552070538688
 20
244.2118832851015
 30
0.0
 40
25.00000000000009
100
AcDbArc
 50
103.2970717472089
 51
103.8865403626292
  0
CIRCLE
  5
C2
330
3C
100
AcDbEntity
  8
1
  6
Continuous
 62
     7
100
AcDbCircle
 10
100.3552070538685
 20
331.7118832851015
 30
0.0
 40
5.749999999999901
  0
CIRCLE
  5
C3
330
3C
100
AcDbEntity
  8
1
  6
Continuous
 62
     7
100
AcDbCircle
 10
100.3552070538685
 20
331.7118832851015
 30
0.0
 40
6.999999999999901
  0
ENDBLK
  5
3E
330
3C
100
AcDbEntity
  8
0
100
AcDbBlockEnd
  0
BLOCK
  5
40
330
3F
100
AcDbEntity
  8
0
100
AcDbBlockBegin
  2
51-1
 70
     0
 71
     0
 10
-225.5707917728051
 20
200.7260500867651
 30
0.0
  3
51-1
  1

  0
LINE
  5
C4
330
3F
100
AcDbEntity
  8
1
  6
Continuous
 62
     7
100
AcDbLine
 10
106.1507620116031
 20
257.7374364186149
 30
0.0
 11
107.1227363665044
 21
254.1099787424697
 31
0.0
  0
LINE
  5
C5
330
3F
100
AcDbEntity
  8
1
  6
Continuous
 62
     7
100
AcDbLine
 10
94.55965209613453
 20
257.7374364186149
 30
0.0
 11
93.58767774123334
 21
254.1099787424697
 31
0.0
  0
LINE
  5
C6
330
3F
100
AcDbEntity
  8
1
  6
Continuous
 62
     7
100
AcDbLine
 10
73.16134602387973
 20
257.8950584978204
 30
0.0
 11
72.70943792488714
 21
254.6795652929498
 31
0.0
  0
LINE
  5
C7
330
3F
100
AcDbEntity
  8
1
  6
Continuous
 62
     7
100
AcDbLine
 10
73.20457195925803
 20
254.1099787424697
 30
0.0
 11
127.5058421484801
 21
254.1099787424697
 31
0.0
  0
LINE
  5
C8
330
3F
100
AcDbEntity
  8
1
  6
Continuous
 62
     7
100
AcDbLine
 10
128.0009761828507
 20
254.6795652929498
 30
0.0
 11
127.5490680838584
 21
257.8950584978204
 31
0.0
  0
LINE
  5
C9
330
3F
100
AcDbEntity
  8
1
  6
Continuous
 62
     7
100
AcDbLine
 10
128.0009761828507
 20
254.6795652929498
 30
0.0
 11
127.5490680838584
 21
257.8950584978204
 31
0.0
  0
LINE
  5
CA
330
3F
100
AcDbEntity
  8
1
  6
Continuous
 62
     7
100
AcDbLine
 10
94.55965209613441
 20
305.1589690144861
 30
0.0
 11
90.90824288466382
 21
318.7862137109188
 31
0.0
  0
LINE
  5
CB
330
3F
100
AcDbEntity
  8
1
  6
Continuous
 62
     7
100
AcDbLine
 10
106.1507620116032
 20
305.1589690144861
 30
0.0
 11
109.8021712230736
 21
318.7862137109188
 31
0.0
  0
LINE
  5
CC
330
3F
100
AcDbEntity
  8
1
  6
Continuous
 62
     7
100
AcDbLine
 10
74.4619312721384
 20
339.9692425979818
 30
0.0
 11
84.43776675710092
 21
329.9934071130195
 31
0.0
  0
LINE
  5
CD
330
3F
100
AcDbEntity
  8
1
  6
Continuous
 62
     7
100
AcDbLine
 10
80.2574862298728
 20
350.0074382428355
 30
0.0
 11
93.88473092630571
 21
346.356029031365
 31
0.0
  0
LINE
  5
CE
330
3F
100
AcDbEntity
  8
1
  6
Continuous
 62
     7
100
AcDbLine
 10
121.2134327804852
 20
350.2112149173325
 30
0.0
 11
106.8256831814318
 21
346.356029031365
 31
0.0
  0
LINE
  5
CF
330
3F
100
AcDbEntity
  8
1
  6
Continuous
 62
     7
100
AcDbLine
 10
126.248482835599
 20
339.9692425979818
 30
0.0
 11
116.2726473506367
 21
329.9934071130195
 31
0.0
  0
LINE
  5
D0
330
3F
100
AcDbEntity
  8
1
  6
Continuous
 62
     7
100
AcDbLine
 10
197.3871653221009
 20
258.9969630404522
 30
0.0
 11
196.9352572231086
 21
255.7814698355815
 31
0.0
  0
LINE
  5
D1
330
3F
100
AcDbEntity
  8
1
  6
Continuous
 62
     7
100
AcDbLine
 10
245.6578929082201
 20
260.1709598908452
 30
0.0
 11
246.2751104022277
 21
255.7815052178141
 31
0.0
  0
LINE
  5
D2
330
3F
100
AcDbEntity
  8
1
  6
Continuous
 62
     7
100
AcDbLine
 10
245.7799813417946
 20
255.2118832851016
 30
0.0
 11
197.4303912574794
 21
255.2118832851016
 31
0.0
  0
LINE
  5
D3
330
3F
100
AcDbEntity
  8
1
  6
Continuous
 62
     7
100
AcDbLine
 10
214.9295374796866
 20
257.1500980715301
 30
0.0
 11
214.9295374796866
 21
263.4771091644066
 31
0.0
  0
LINE
  5
D4
330
3F
100
AcDbEntity
  8
1
  6
Continuous
 62
     7
100
AcDbLine
 10
226.1367308817873
 20
257.4890450943627
 30
0.0
 11
226.1367308817873
 21
263.8160561872394
 31
0.0
  0
ARC
  5
D5
330
3F
100
AcDbEntity
  8
1
  6
Continuous
 62
     7
100
AcDbCircle
 10
100.355207053869
 20
256.1845221479997
 30
0.0
 40
5.999999999999729
100
AcDbArc
 50
15.00000000000134
 51
90.0
  0
ARC
  5
D6
330
3F
100
AcDbEntity
  8
1
  6
Continuous
 62
     7
100
AcDbCircle
 10
100.355207053869
 20
256.1845221479997
 30
0.0
 40
6.0
100
AcDbArc
 50
90.0
 51
164.9999999999996
  0
ARC
  5
D7
330
3F
100
AcDbEntity
  8
1
  6
Continuous
 62
     7
100
AcDbCircle
 10
101.9922974047582
 20
137.7398262021454
 30
0.0
 40
127.4948334081408
100
AcDbArc
 50
92.53411689479736
 51
100.8094932463522
  0
ARC
  5
D8
330
3F
100
AcDbEntity
  8
1
  6
Continuous
 62
     7
100
AcDbCircle
 10
98.71811670297993
 20
137.7398262021454
 30
0.0
 40
127.4948334081408
100
AcDbArc
 50
79.19050675364785
 51
87.46588310520276
  0
ARC
  5
D9
330
3F
100
AcDbEntity
  8
1
  6
Continuous
 62
     7
100
AcDbCircle
 10
100.3552070538688
 20
306.7118832851011
 30
0.0
 40
5.999999999999946
100
AcDbArc
 50
-165.0000000000009
 51
-90.0
  0
ARC
  5
DA
330
3F
100
AcDbEntity
  8
1
  6
Continuous
 62
     7
100
AcDbCircle
 10
100.3552070538688
 20
306.7118832851011
 30
0.0
 40
6.0
100
AcDbArc
 50
-90.0
 51
-14.99999999999903
  0
ARC
  5
DB
330
3F
100
AcDbEntity
  8
1
  6
Continuous
 62
     7
100
AcDbCircle
 10
78.70457195925781
 20
344.2118832851011
 30
0.0
 40
5.999999999999952
100
AcDbArc
 50
75.00000000000119
 51
-135.0000000000006
  0
ARC
  5
DC
330
3F
100
AcDbEntity
  8
1
  6
Continuous
 62
     7
100
AcDbCircle
 10
122.0058421484797
 20
344.2118832851011
 30
0.0
 40
6.000000000000038
100
AcDbArc
 50
-45.00000000000009
 51
97.52424107894053
  0
ARC
  5
DD
330
3F
100
AcDbEntity
  8
1
  6
Continuous
 62
     7
100
AcDbCircle
 10
227.855207053869
 20
116.2118832851016
 30
0.0
 40
150.0533238552215
100
AcDbArc
 50
91.52752544221298
 51
99.80290179376782
  0
ARC
  5
DE
330
3F
100
AcDbEntity
  8
1
  6
Continuous
 62
     7
100
AcDbCircle
 10
228.2194027191156
 20
191.3000622764024
 30
0.0
 40
75.0
100
AcDbArc
 50
80.4085075173349
 51
87.22136103403739
  0
ARC
  5
DF
330
3F
100
AcDbEntity
  8
1
  6
Continuous
 62
     7
100
AcDbCircle
 10
73.20457195925803
 20
254.6099787424697
 30
0.0
 40
0.5000000000001147
100
AcDbArc
 50
171.9999999999945
 51
-90.0
  0
ARC
  5
E0
330
3F
100
AcDbEntity
  8
1
  6
Continuous
 62
     7
100
AcDbCircle
 10
79.10295443632913
 20
257.0600198920601
 30
0.0
 40
5.999999999999941
100
AcDbArc
 50
99.80290179376986
 51
172.0000000000008
  0
ARC
  5
E1
330
3F
100
AcDbEntity
  8
1
  6
Continuous
 62
     7
100
AcDbCircle
 10
127.5058421484796
 20
254.6099787424697
 30
0.0
 40
0.5
100
AcDbArc
 50
-89.999999999943
 51
8.00000000000211
  0
ARC
  5
E2
330
3F
100
AcDbEntity
  8
1
  6
Continuous
 62
     7
100
AcDbCircle
 10
121.607459671409
 20
257.0600198920601
 30
0.0
 40
5.999999999999964
100
AcDbArc
 50
7.99999999999919
 51
80.19709820623203
  0
ARC
  5
E3
330
3F
100
AcDbEntity
  8
1
  6
Continuous
 62
     7
100
AcDbCircle
 10
66.760097227437
 20
312.3157375833558
 30
0.0
 40
25.00000000000009
100
AcDbArc
 50
14.99999999999981
 51
44.99999999999959
  0
ARC
  5
E4
330
3F
100
AcDbEntity
  8
1
  6
Continuous
 62
     7
100
AcDbCircle
 10
100.3552070538688
 20
370.5041746885917
 30
0.0
 40
25.00000000000004
100
AcDbArc
 50
-105.0000000000001
 51
-75.00000000000006
  0
ARC
  5
E5
330
3F
100
AcDbEntity
  8
1
  6
Continuous
 62
     7
100
AcDbCircle
 10
133.9503168803003
 20
312.3157375833558
 30
0.0
 40
24.99999999999992
100
AcDbArc
 50
134.9999999999999
 51
165.0000000000001
  0
ARC
  5
E6
330
3F
100
AcDbEntity
  8
1
  6
Continuous
 62
     7
100
AcDbCircle
 10
203.3287737345504
 20
258.1619244346919
 30
0.0
 40
6.000000000000019
100
AcDbArc
 50
99.8029017937678
 51
172.0000000000009
  0
ARC
  5
E7
330
3F
100
AcDbEntity
  8
1
  6
Continuous
 62
     7
100
AcDbCircle
 10
239.716344183023
 20
259.3354966982938
 30
0.0
 40
5.99999999999995
100
AcDbArc
 50
8.00409437170106
 51
80.40850751733568
  0
ARC
  5
E8
330
3F
100
AcDbEntity
  8
1
  6
Continuous
 62
     7
100
AcDbCircle
 10
197.4303912574793
 20
255.7118832851016
 30
0.0
 40
0.49999999999989
100
AcDbArc
 50
172.0000000000139
 51
-89.99999999998697
  0
ARC
  5
E9
330
3F
100
AcDbEntity
  8
1
  6
Continuous
 62
     7
100
AcDbCircle
 10
245.7799813417946
 20
255.7118832851016
 30
0.0
 40
0.5
100
AcDbArc
 50
-90.0
 51
8.00409437168694
  0
ENDBLK
  5
41
330
3F
100
AcDbEntity
  8
0
100
AcDbBlockEnd
  0
BLOCK
  5
43
330
42
100
AcDbEntity
  8
0
100
AcDbBlockBegin
  2
V20-0A-13-M11
 70
     0
 71
     0
 10
172.5552070538688
 20
166.3972476917058
 30
0.0
  3
V20-0A-13-M11
  1

  0
LINE
  5
EA
330
42
100
AcDbEntity
  8
1
  6
Continuous
 62
     2
100
AcDbLine
 10
195.8552070538688
 20
221.0498832851015
 30
0.0
 11
197.0172070538688
 21
221.0498832851015
 31
0.0
  0
LINE
  5
EB
330
42
100
AcDbEntity
  8
1
  6
Continuous
 62
     2
100
AcDbLine
 10
197.0172070538688
 20
221.0498832851015
 30
0.0
 11
204.8552070538688
 21
221.0498832851015
 31
0.0
  0
LINE
  5
EC
330
42
100
AcDbEntity
  8
1
  6
Continuous
 62
     2
100
AcDbLine
 10
204.8552070538688
 20
221.0498832851015
 30
0.0
 11
206.8678500922638
 21
222.2118832851016
 31
0.0
  0
LINE
  5
ED
330
42
100
AcDbEntity
  8
1
  6
Continuous
 62
     7
100
AcDbLine
 10
209.8552070538688
 20
222.2118832851016
 30
0.0
 11
206.8678500922638
 21
222.2118832851016
 31
0.0
  0
LINE
  5
EE
330
42
100
AcDbEntity
  8
1
  6
Continuous
 62
     7
100
AcDbLine
 10
215.8552070538688
 20
234.3037259785481
 30
0.0
 11
215.8552070538688
 21
228.2118832851016
 31
0.0
  0
LINE
  5
EF
330
42
100
AcDbEntity
  8
1
  6
Continuous
 62
     2
100
AcDbLine
 10
216.6682070538688
 20
235.7118832851016
 30
0.0
 11
215.8552070538688
 21
234.3037259785481
 31
0.0
  0
LINE
  5
F0
330
42
100
AcDbEntity
  8
1
  6
Continuous
 62
     2
100
AcDbLine
 10
216.6682070538688
 20
235.7118832851016
 30
0.0
 11
216.6682070538688
 21
237.142450020063
 31
0.0
  0
LINE
  5
F1
330
42
100
AcDbEntity
  8
1
  6
Continuous
 62
     2
100
AcDbLine
 10
239.8552070538688
 20
234.3037259785481
 30
0.0
 11
239.0422070538688
 21
235.7118832851016
 31
0.0
  0
LINE
  5
F2
330
42
100
AcDbEntity
  8
1
  6
Continuous
 62
     7
100
AcDbLine
 10
239.8552070538688
 20
228.2118832851016
 30
0.0
 11
239.8552070538688
 21
234.3037259785481
 31
0.0
  0
LINE
  5
F3
330
42
100
AcDbEntity
  8
1
  6
Continuous
 62
     7
100
AcDbLine
 10
248.8425640154737
 20
222.2118832851016
 30
0.0
 11
245.8552070538688
 21
222.2118832851016
 31
0.0
  0
LINE
  5
F4
330
42
100
AcDbEntity
  8
1
  6
Continuous
 62
     2
100
AcDbLine
 10
248.8425640154737
 20
222.2118832851016
 30
0.0
 11
250.8552070538688
 21
221.0498832851015
 31
0.0
  0
LINE
  5
F5
330
42
100
AcDbEntity
  8
1
  6
Continuous
 62
     2
100
AcDbLine
 10
250.8552070538688
 20
221.0498832851015
 30
0.0
 11
258.6932070538688
 21
221.0498832851015
 31
0.0
  0
LINE
  5
F6
330
42
100
AcDbEntity
  8
1
  6
Continuous
 62
     2
100
AcDbLine
 10
258.6932070538688
 20
221.0498832851015
 30
0.0
 11
259.8552070538688
 21
221.0498832851015
 31
0.0
  0
LINE
  5
F7
330
42
100
AcDbEntity
  8
1
  6
Continuous
 62
     2
100
AcDbLine
 10
250.8552070538688
 20
202.3738832851016
 30
0.0
 11
259.8552070538688
 21
202.3738832851016
 31
0.0
  0
LINE
  5
F8
330
42
100
AcDbEntity
  8
1
  6
Continuous
 62
     2
100
AcDbLine
 10
250.8552070538688
 20
202.3738832851016
 30
0.0
 11
248.8425640154737
 21
201.2118832851016
 31
0.0
  0
LINE
  5
F9
330
42
100
AcDbEntity
  8
1
  6
Continuous
 62
     7
100
AcDbLine
 10
248.8425640154737
 20
201.2118832851016
 30
0.0
 11
247.4864564229646
 21
201.2118832851016
 31
0.0
  0
LINE
  5
FA
330
42
100
AcDbEntity
  8
1
  6
Continuous
 62
     7
100
AcDbLine
 10
206.8678500922638
 20
201.2118832851016
 30
0.0
 11
208.223957684773
 21
201.2118832851016
 31
0.0
  0
LINE
  5
FB
330
42
100
AcDbEntity
  8
1
  6
Continuous
 62
     2
100
AcDbLine
 10
206.8678500922638
 20
201.2118832851016
 30
0.0
 11
204.8552070538688
 21
202.3738832851016
 31
0.0
  0
LINE
  5
FC
330
42
100
AcDbEntity
  8
1
  6
Continuous
 62
     7
100
AcDbLine
 10
195.8552070538688
 20
202.3738832851016
 30
0.0
 11
195.8552070538688
 21
205.2118832851016
 31
0.0
  0
LINE
  5
FD
330
42
100
AcDbEntity
  8
1
  6
Continuous
 62
     7
100
AcDbLine
 10
259.8552070538688
 20
205.2118832851016
 30
0.0
 11
259.8552070538688
 21
202.3738832851016
 31
0.0
  0
LINE
  5
FE
330
42
100
AcDbEntity
  8
1
  6
Continuous
 62
     7
100
AcDbLine
 10
259.8552070538688
 20
221.0498832851015
 30
0.0
 11
259.8552070538688
 21
205.2118832851016
 31
0.0
  0
LINE
  5
FF
330
42
100
AcDbEntity
  8
1
  6
Continuous
 62
     7
100
AcDbLine
 10
248.8425640154737
 20
201.2118832851016
 30
0.0
 11
250.8552070538688
 21
201.2118832851016
 31
0.0
  0
LINE
  5
100
330
42
100
AcDbEntity
  8
1
  6
Continuous
 62
     7
100
AcDbLine
 10
258.6932070538688
 20
202.3738832851016
 30
0.0
 11
258.6932070538688
 21
201.2118832851016
 31
0.0
  0
LINE
  5
101
330
42
100
AcDbEntity
  8
1
  6
Continuous
 62
     7
100
AcDbLine
 10
258.6932070538688
 20
202.3738832851016
 30
0.0
 11
258.6932070538688
 21
222.2118832851016
 31
0.0
  0
LINE
  5
102
330
42
100
AcDbEntity
  8
1
  6
Continuous
 62
     7
100
AcDbLine
 10
250.8552070538688
 20
222.2118832851016
 30
0.0
 11
258.6932070538688
 21
222.2118832851016
 31
0.0
  0
LINE
  5
103
330
42
100
AcDbEntity
  8
1
  6
Continuous
 62
     7
100
AcDbLine
 10
258.6932070538688
 20
222.2118832851016
 30
0.0
 11
259.8552070538688
 21
221.0498832851015
 31
0.0
  0
LINE
  5
104
330
42
100
AcDbEntity
  8
1
  6
Continuous
 62
     7
100
AcDbLine
 10
250.8552070538688
 20
201.2118832851016
 30
0.0
 11
258.6932070538688
 21
201.2118832851016
 31
0.0
  0
LINE
  5
105
330
42
100
AcDbEntity
  8
1
  6
Continuous
 62
     7
100
AcDbLine
 10
258.6932070538688
 20
201.2118832851016
 30
0.0
 11
259.8552070538688
 21
202.3738832851016
 31
0.0
  0
LINE
  5
106
330
42
100
AcDbEntity
  8
1
  6
Continuous
 62
     7
100
AcDbLine
 10
239.8552070538688
 20
235.7118832851016
 30
0.0
 11
239.8552070538688
 21
237.1415745732865
 31
0.0
  0
LINE
  5
107
330
42
100
AcDbEntity
  8
1
  6
Continuous
 62
     7
100
AcDbLine
 10
239.0422070538688
 20
235.7118832851016
 30
0.0
 11
239.8552070538688
 21
235.7118832851016
 31
0.0
  0
LINE
  5
108
330
42
100
AcDbEntity
  8
1
  6
Continuous
 62
     7
100
AcDbLine
 10
239.8552070538688
 20
234.3037259785481
 30
0.0
 11
239.8552070538688
 21
235.7118832851016
 31
0.0
  0
LINE
  5
109
330
42
100
AcDbEntity
  8
1
  6
Continuous
 62
     7
100
AcDbLine
 10
250.8552070538688
 20
222.2118832851016
 30
0.0
 11
250.8552070538688
 21
202.3738832851016
 31
0.0
  0
LINE
  5
10A
330
42
100
AcDbEntity
  8
1
  6
Continuous
 62
     7
100
AcDbLine
 10
248.8425640154737
 20
222.2118832851016
 30
0.0
 11
250.8552070538688
 21
222.2118832851016
 31
0.0
  0
LINE
  5
10B
330
42
100
AcDbEntity
  8
1
  6
Continuous
 62
     7
100
AcDbLine
 10
250.8552070538688
 20
202.3738832851016
 30
0.0
 11
250.8552070538688
 21
201.2118832851016
 31
0.0
  0
LINE
  5
10C
330
42
100
AcDbEntity
  8
1
  6
Continuous
 62
     2
100
AcDbLine
 10
204.8552070538688
 20
202.3738832851016
 30
0.0
 11
195.8552070538688
 21
202.3738832851016
 31
0.0
  0
LINE
  5
10D
330
42
100
AcDbEntity
  8
1
  6
Continuous
 62
     7
100
AcDbLine
 10
204.8552070538688
 20
201.2118832851016
 30
0.0
 11
204.8552070538688
 21
202.3738832851016
 31
0.0
  0
LINE
  5
10E
330
42
100
AcDbEntity
  8
1
  6
Continuous
 62
     7
100
AcDbLine
 10
204.8552070538688
 20
222.2118832851016
 30
0.0
 11
206.8678500922638
 21
222.2118832851016
 31
0.0
  0
LINE
  5
10F
330
42
100
AcDbEntity
  8
1
  6
Continuous
 62
     7
100
AcDbLine
 10
204.8552070538688
 20
202.3738832851016
 30
0.0
 11
204.8552070538688
 21
222.2118832851016
 31
0.0
  0
LINE
  5
110
330
42
100
AcDbEntity
  8
1
  6
Continuous
 62
     7
100
AcDbLine
 10
215.8552070538688
 20
235.7118832851016
 30
0.0
 11
215.8552070538688
 21
234.3037259785481
 31
0.0
  0
LINE
  5
111
330
42
100
AcDbEntity
  8
1
  6
Continuous
 62
     7
100
AcDbLine
 10
215.8552070538688
 20
235.7118832851016
 30
0.0
 11
239.0422070538688
 21
235.7118832851016
 31
0.0
  0
LINE
  5
112
330
42
100
AcDbEntity
  8
1
  6
Continuous
 62
     7
100
AcDbLine
 10
195.8552070538688
 20
202.3738832851016
 30
0.0
 11
197.0172070538688
 21
201.2118832851016
 31
0.0
  0
LINE
  5
113
330
42
100
AcDbEntity
  8
1
  6
Continuous
 62
     7
100
AcDbLine
 10
197.0172070538688
 20
201.2118832851016
 30
0.0
 11
204.8552070538688
 21
201.2118832851016
 31
0.0
  0
LINE
  5
114
330
42
100
AcDbEntity
  8
1
  6
Continuous
 62
     7
100
AcDbLine
 10
195.8552070538688
 20
221.0498832851015
 30
0.0
 11
197.0172070538688
 21
222.2118832851016
 31
0.0
  0
LINE
  5
115
330
42
100
AcDbEntity
  8
1
  6
Continuous
 62
     7
100
AcDbLine
 10
197.0172070538688
 20
222.2118832851016
 30
0.0
 11
204.8552070538688
 21
222.2118832851016
 31
0.0
  0
LINE
  5
116
330
42
100
AcDbEntity
  8
1
  6
Continuous
 62
     7
100
AcDbLine
 10
197.0172070538688
 20
222.2118832851016
 30
0.0
 11
197.0172070538688
 21
221.0498832851015
 31
0.0
  0
LINE
  5
117
330
42
100
AcDbEntity
  8
1
  6
Continuous
 62
     7
100
AcDbLine
 10
197.0172070538688
 20
201.2118832851016
 30
0.0
 11
197.0172070538688
 21
221.0498832851015
 31
0.0
  0
LINE
  5
118
330
42
100
AcDbEntity
  8
1
  6
Continuous
 62
     7
100
AcDbLine
 10
204.8552070538688
 20
201.2118832851016
 30
0.0
 11
206.8678500922638
 21
201.2118832851016
 31
0.0
  0
LINE
  5
119
330
42
100
AcDbEntity
  8
1
  6
Continuous
 62
     7
100
AcDbLine
 10
195.8552070538688
 20
205.2118832851016
 30
0.0
 11
195.8552070538688
 21
221.0498832851015
 31
0.0
  0
LINE
  5
11A
330
42
100
AcDbEntity
  8
1
  6
Continuous
 62
     7
100
AcDbLine
 10
112.3552070538688
 20
235.7118832851016
 30
0.0
 11
88.35520705386884
 21
235.7118832851016
 31
0.0
  0
LINE
  5
11B
330
42
100
AcDbEntity
  8
1
  6
Continuous
 62
     2
100
AcDbLine
 10
112.3552070538688
 20
234.3037259785481
 30
0.0
 11
111.5422070538688
 21
235.7118832851016
 31
0.0
  0
LINE
  5
11C
330
42
100
AcDbEntity
  8
1
  6
Continuous
 62
     2
100
AcDbLine
 10
89.16820705386883
 20
235.7118832851016
 30
0.0
 11
88.35520705386884
 21
234.3037259785481
 31
0.0
  0
LINE
  5
11D
330
42
100
AcDbEntity
  8
1
  6
Continuous
 62
     2
100
AcDbLine
 10
89.16820705386883
 20
235.7118832851016
 30
0.0
 11
89.16820705386883
 21
237.1415745732865
 31
0.0
  0
LINE
  5
11E
330
42
100
AcDbEntity
  8
1
  6
Continuous
 62
     2
100
AcDbLine
 10
111.5422070538688
 20
235.7118832851016
 30
0.0
 11
111.5422070538688
 21
237.1415745732865
 31
0.0
  0
LINE
  5
11F
330
42
100
AcDbEntity
  8
1
  6
Continuous
 62
     7
100
AcDbLine
 10
112.3552070538688
 20
234.3037259785481
 30
0.0
 11
113.3421564930742
 21
212.2942442243158
 31
0.0
  0
LINE
  5
120
330
42
100
AcDbEntity
  8
1
  6
Continuous
 62
     7
100
AcDbLine
 10
88.35520705386884
 20
234.3037259785481
 30
0.0
 11
87.36825761466344
 21
212.2942442243158
 31
0.0
  0
LINE
  5
121
330
42
100
AcDbEntity
  8
1
  6
Continuous
 62
     7
100
AcDbLine
 10
112.3552070538688
 20
237.1415745732865
 30
0.0
 11
112.3552070538688
 21
234.3037259785481
 31
0.0
  0
LINE
  5
122
330
42
100
AcDbEntity
  8
1
  6
Continuous
 62
     7
100
AcDbLine
 10
88.35520705386884
 20
237.1415745732865
 30
0.0
 11
88.35520705386884
 21
234.3037259785481
 31
0.0
  0
LINE
  5
123
330
42
100
AcDbEntity
  8
1
  6
Continuous
 62
     7
100
AcDbLine
 10
94.58892575653343
 20
214.7118832851016
 30
0.0
 11
106.1214883512042
 21
214.7118832851016
 31
0.0
  0
LINE
  5
124
330
42
100
AcDbEntity
  8
1
  6
Continuous
 62
     2
100
AcDbLine
 10
239.0422070538688
 20
237.1424500200719
 30
0.0
 11
239.0422070538688
 21
235.7118832851016
 31
0.0
  0
LINE
  5
125
330
42
100
AcDbEntity
  8
1
  6
Continuous
 62
     7
100
AcDbLine
 10
215.8552070538688
 20
237.1415745732865
 30
0.0
 11
215.8552070538688
 21
235.7118832851016
 31
0.0
  0
LINE
  5
126
330
42
100
AcDbEntity
  8
1
  6
Continuous
 62
     2
100
AcDbLine
 10
91.0172070538685
 20
299.711883285101
 30
0.0
 11
91.0172070538685
 21
300.8738832851009
 31
0.0
  0
LINE
  5
127
330
42
100
AcDbEntity
  8
1
  6
Continuous
 62
     2
100
AcDbLine
 10
91.0172070538685
 20
300.8738832851009
 30
0.0
 11
91.0172070538685
 21
308.711883285101
 31
0.0
  0
LINE
  5
128
330
42
100
AcDbEntity
  8
1
  6
Continuous
 62
     2
100
AcDbLine
 10
91.0172070538685
 20
308.711883285101
 30
0.0
 11
89.85520705386861
 21
310.724526323496
 31
0.0
  0
LINE
  5
129
330
42
100
AcDbEntity
  8
1
  6
Continuous
 62
     7
100
AcDbLine
 10
89.85520705386861
 20
352.6992402467059
 30
0.0
 11
89.85520705386861
 21
351.3431326541968
 31
0.0
  0
LINE
  5
12A
330
42
100
AcDbEntity
  8
1
  6
Continuous
 62
     2
100
AcDbLine
 10
89.85520705386861
 20
352.6992402467059
 30
0.0
 11
91.0172070538685
 21
354.711883285101
 31
0.0
  0
LINE
  5
12B
330
42
100
AcDbEntity
  8
1
  6
Continuous
 62
     2
100
AcDbLine
 10
91.0172070538685
 20
354.711883285101
 30
0.0
 11
91.0172070538685
 21
362.5498832851009
 31
0.0
  0
LINE
  5
12C
330
42
100
AcDbEntity
  8
1
  6
Continuous
 62
     2
100
AcDbLine
 10
91.0172070538685
 20
362.5498832851009
 30
0.0
 11
91.0172070538685
 21
363.711883285101
 31
0.0
  0
LINE
  5
12D
330
42
100
AcDbEntity
  8
1
  6
Continuous
 62
     2
100
AcDbLine
 10
109.6932070538685
 20
354.711883285101
 30
0.0
 11
109.6932070538685
 21
363.711883285101
 31
0.0
  0
LINE
  5
12E
330
42
100
AcDbEntity
  8
1
  6
Continuous
 62
     2
100
AcDbLine
 10
109.6932070538685
 20
354.711883285101
 30
0.0
 11
110.8552070538686
 21
352.6992402467059
 31
0.0
  0
LINE
  5
12F
330
42
100
AcDbEntity
  8
1
  6
Continuous
 62
     7
100
AcDbLine
 10
110.8552070538686
 20
352.6992402467059
 30
0.0
 11
110.8552070538686
 21
351.3431326541968
 31
0.0
  0
LINE
  5
130
330
42
100
AcDbEntity
  8
1
  6
Continuous
 62
     7
100
AcDbLine
 10
110.8552070538686
 20
310.724526323496
 30
0.0
 11
110.8552070538686
 21
312.0806339160051
 31
0.0
  0
LINE
  5
131
330
42
100
AcDbEntity
  8
1
  6
Continuous
 62
     2
100
AcDbLine
 10
110.8552070538686
 20
310.724526323496
 30
0.0
 11
109.6932070538685
 21
308.711883285101
 31
0.0
  0
LINE
  5
132
330
42
100
AcDbEntity
  8
1
  6
Continuous
 62
     7
100
AcDbLine
 10
109.6932070538685
 20
299.711883285101
 30
0.0
 11
106.8552070538686
 21
299.711883285101
 31
0.0
  0
LINE
  5
133
330
42
100
AcDbEntity
  8
1
  6
Continuous
 62
     7
100
AcDbLine
 10
106.8552070538686
 20
363.711883285101
 30
0.0
 11
109.6932070538685
 21
363.711883285101
 31
0.0
  0
LINE
  5
134
330
42
100
AcDbEntity
  8
1
  6
Continuous
 62
     7
100
AcDbLine
 10
91.0172070538685
 20
363.711883285101
 30
0.0
 11
106.8552070538686
 21
363.711883285101
 31
0.0
  0
LINE
  5
135
330
42
100
AcDbEntity
  8
1
  6
Continuous
 62
     7
100
AcDbLine
 10
110.8552070538686
 20
352.6992402467059
 30
0.0
 11
110.8552070538686
 21
354.711883285101
 31
0.0
  0
LINE
  5
136
330
42
100
AcDbEntity
  8
1
  6
Continuous
 62
     7
100
AcDbLine
 10
109.6932070538685
 20
362.5498832851009
 30
0.0
 11
110.8552070538686
 21
362.5498832851009
 31
0.0
  0
LINE
  5
137
330
42
100
AcDbEntity
  8
1
  6
Continuous
 62
     7
100
AcDbLine
 10
109.6932070538685
 20
362.5498832851009
 30
0.0
 11
89.85520705386861
 21
362.5498832851009
 31
0.0
  0
LINE
  5
138
330
42
100
AcDbEntity
  8
1
  6
Continuous
 62
     7
100
AcDbLine
 10
89.85520705386861
 20
354.711883285101
 30
0.0
 11
89.85520705386861
 21
362.5498832851009
 31
0.0
  0
LINE
  5
139
330
42
100
AcDbEntity
  8
1
  6
Continuous
 62
     7
100
AcDbLine
 10
89.85520705386861
 20
362.5498832851009
 30
0.0
 11
91.0172070538685
 21
363.711883285101
 31
0.0
  0
LINE
  5
13A
330
42
100
AcDbEntity
  8
1
  6
Continuous
 62
     7
100
AcDbLine
 10
110.8552070538686
 20
354.711883285101
 30
0.0
 11
110.8552070538686
 21
362.5498832851009
 31
0.0
  0
LINE
  5
13B
330
42
100
AcDbEntity
  8
1
  6
Continuous
 62
     7
100
AcDbLine
 10
110.8552070538686
 20
362.5498832851009
 30
0.0
 11
109.6932070538685
 21
363.711883285101
 31
0.0
  0
LINE
  5
13C
330
42
100
AcDbEntity
  8
1
  6
Continuous
 62
     7
100
AcDbLine
 10
89.85520705386861
 20
354.711883285101
 30
0.0
 11
109.6932070538685
 21
354.711883285101
 31
0.0
  0
LINE
  5
13D
330
42
100
AcDbEntity
  8
1
  6
Continuous
 62
     7
100
AcDbLine
 10
89.85520705386861
 20
352.6992402467059
 30
0.0
 11
89.85520705386861
 21
354.711883285101
 31
0.0
  0
LINE
  5
13E
330
42
100
AcDbEntity
  8
1
  6
Continuous
 62
     7
100
AcDbLine
 10
109.6932070538685
 20
354.711883285101
 30
0.0
 11
110.8552070538686
 21
354.711883285101
 31
0.0
  0
LINE
  5
13F
330
42
100
AcDbEntity
  8
1
  6
Continuous
 62
     2
100
AcDbLine
 10
109.6932070538685
 20
308.711883285101
 30
0.0
 11
109.6932070538685
 21
299.711883285101
 31
0.0
  0
LINE
  5
140
330
42
100
AcDbEntity
  8
1
  6
Continuous
 62
     7
100
AcDbLine
 10
110.8552070538686
 20
308.711883285101
 30
0.0
 11
109.6932070538685
 21
308.711883285101
 31
0.0
  0
LINE
  5
141
330
42
100
AcDbEntity
  8
1
  6
Continuous
 62
     7
100
AcDbLine
 10
89.85520705386861
 20
308.711883285101
 30
0.0
 11
89.85520705386861
 21
310.724526323496
 31
0.0
  0
LINE
  5
142
330
42
100
AcDbEntity
  8
1
  6
Continuous
 62
     7
100
AcDbLine
 10
109.6932070538685
 20
308.711883285101
 30
0.0
 11
107.1027625211913
 21
308.711883285101
 31
0.0
  0
LINE
  5
143
330
42
100
AcDbEntity
  8
1
  6
Continuous
 62
     7
100
AcDbLine
 10
109.6932070538685
 20
299.711883285101
 30
0.0
 11
110.8552070538686
 21
300.8738832851009
 31
0.0
  0
LINE
  5
144
330
42
100
AcDbEntity
  8
1
  6
Continuous
 62
     7
100
AcDbLine
 10
110.8552070538686
 20
300.8738832851009
 30
0.0
 11
110.8552070538686
 21
308.711883285101
 31
0.0
  0
LINE
  5
145
330
42
100
AcDbEntity
  8
1
  6
Continuous
 62
     7
100
AcDbLine
 10
91.0172070538685
 20
299.711883285101
 30
0.0
 11
89.85520705386861
 21
300.8738832851009
 31
0.0
  0
LINE
  5
146
330
42
100
AcDbEntity
  8
1
  6
Continuous
 62
     7
100
AcDbLine
 10
89.85520705386861
 20
300.8738832851009
 30
0.0
 11
89.85520705386861
 21
308.711883285101
 31
0.0
  0
LINE
  5
147
330
42
100
AcDbEntity
  8
1
  6
Continuous
 62
     7
100
AcDbLine
 10
89.85520705386861
 20
300.8738832851009
 30
0.0
 11
91.0172070538685
 21
300.8738832851009
 31
0.0
  0
LINE
  5
148
330
42
100
AcDbEntity
  8
1
  6
Continuous
 62
     7
100
AcDbLine
 10
110.8552070538686
 20
300.8738832851009
 30
0.0
 11
101.7400377294382
 21
300.8738832851009
 31
0.0
  0
LINE
  5
149
330
42
100
AcDbEntity
  8
1
  6
Continuous
 62
     7
100
AcDbLine
 10
110.8552070538686
 20
308.711883285101
 30
0.0
 11
110.8552070538686
 21
310.724526323496
 31
0.0
  0
LINE
  5
14A
330
42
100
AcDbEntity
  8
1
  6
Continuous
 62
     7
100
AcDbLine
 10
106.8552070538686
 20
299.711883285101
 30
0.0
 11
91.0172070538685
 21
299.711883285101
 31
0.0
  0
LINE
  5
14B
330
42
100
AcDbEntity
  8
1
  6
Continuous
 62
     7
100
AcDbLine
 10
93.60765158654581
 20
308.711883285101
 30
0.0
 11
89.85520705386861
 21
308.711883285101
 31
0.0
  0
LINE
  5
14C
330
42
100
AcDbEntity
  8
1
  6
Continuous
 62
     7
100
AcDbLine
 10
98.97037637829871
 20
300.8738832851009
 30
0.0
 11
91.0172070538685
 21
300.8738832851009
 31
0.0
  0
LINE
  5
14D
330
42
100
AcDbEntity
  8
1
  6
Continuous
 62
     7
100
AcDbLine
 10
89.85520705386861
 20
310.724526323496
 30
0.0
 11
89.85520705386861
 21
312.0806339160051
 31
0.0
  0
LINE
  5
14E
330
42
100
AcDbEntity
  8
1
  6
Continuous
 62
     7
100
AcDbLine
 10
89.85520705386861
 20
312.0806339160051
 30
0.0
 11
89.8537535867446
 21
312.4216254955975
 31
0.0
  0
ARC
  5
14F
330
42
100
AcDbEntity
  8
1
  6
Continuous
 62
     7
100
AcDbCircle
 10
227.8552070538688
 20
235.6673333757993
 30
0.0
 40
37.00000000000003
100
AcDbArc
 50
-104.77069890486
 51
-75.22930109514003
  0
ARC
  5
150
330
42
100
AcDbEntity
  8
1
  6
Continuous
 62
     7
100
AcDbCircle
 10
100.3552070538688
 20
211.7118832851016
 30
0.0
 40
12.99999999999996
100
AcDbArc
 50
177.4324620009084
 51
2.5675379990916
  0
ARC
  5
151
330
42
100
AcDbEntity
  8
1
  6
Continuous
 62
     7
100
AcDbCircle
 10
100.3552070538688
 20
211.7118832851016
 30
0.0
 40
6.500000000000012
100
AcDbArc
 50
27.48642625038123
 51
152.5135737496186
  0
ARC
  5
152
330
42
100
AcDbEntity
  8
1
  6
Continuous
 62
     7
100
AcDbCircle
 10
100.3552070538688
 20
211.7118832851016
 30
0.0
 40
6.499999999999973
100
AcDbArc
 50
152.5135737496186
 51
27.48642625038123
  0
ARC
  5
153
330
42
100
AcDbEntity
  8
1
  6
Continuous
 62
     7
100
AcDbCircle
 10
187.6787072106744
 20
174.9622028810313
 30
0.0
 40
55.00000000000011
100
AcDbArc
 50
49.65361037817625
 51
60.95608255935579
  0
ARC
  5
154
330
42
100
AcDbEntity
  8
1
  6
Continuous
 62
     7
100
AcDbCircle
 10
268.0317068970632
 20
174.9622028810313
 30
0.0
 40
55.00000000000001
100
AcDbArc
 50
119.0439174406442
 51
130.3463896218238
  0
ARC
  5
155
330
42
100
AcDbEntity
  8
1
  6
Continuous
 62
     7
100
AcDbCircle
 10
124.3106571445663
 20
331.711883285101
 30
0.0
 40
37.00000000000007
100
AcDbArc
 50
-170.8899244160335
 51
-165.2293010951398
  0
ARC
  5
156
330
42
100
AcDbEntity
  8
1
  6
Continuous
 62
     7
100
AcDbCircle
 10
76.3997569631708
 20
331.711883285101
 30
0.0
 40
37.00000000000016
100
AcDbArc
 50
-14.77069890486014
 51
-9.11007558396699
  0
CIRCLE
  5
157
330
42
100
AcDbEntity
  8
1
  6
Continuous
 62
     2
100
AcDbCircle
 10
100.3552070538688
 20
211.7118832851016
 30
0.0
 40
9.5
  0
CIRCLE
  5
158
330
42
100
AcDbEntity
  8
1
  6
Continuous
 62
     7
100
AcDbCircle
 10
100.3552070538688
 20
211.7118832851016
 30
0.0
 40
10.5
  0
ARC
  5
159
330
42
100
AcDbEntity
  8
1
  6
Continuous
 62
     7
100
AcDbCircle
 10
209.8552070538688
 20
228.2118832851016
 30
0.0
 40
6.0
100
AcDbArc
 50
-90.0
 51
0.0
  0
ARC
  5
15A
330
42
100
AcDbEntity
  8
1
  6
Continuous
 62
     7
100
AcDbCircle
 10
245.8552070538688
 20
228.2118832851016
 30
0.0
 40
6.0
100
AcDbArc
 50
180.0
 51
-90.0
  0
ARC
  5
15B
330
42
100
AcDbEntity
  8
1
  6
Continuous
 62
     7
100
AcDbCircle
 10
247.4864564229646
 20
161.2118832851016
 30
0.0
 40
40.0
100
AcDbArc
 50
90.0
 51
104.77069890486
  0
ARC
  5
15C
330
42
100
AcDbEntity
  8
1
  6
Continuous
 62
     7
100
AcDbCircle
 10
208.223957684773
 20
161.2118832851016
 30
0.0
 40
39.99999999999996
100
AcDbArc
 50
75.22930109514003
 51
90.0
  0
ARC
  5
15D
330
42
100
AcDbEntity
  8
1
  6
Continuous
 62
     7
100
AcDbCircle
 10
150.8552070538686
 20
312.0806339160051
 30
0.0
 40
39.99999999999997
100
AcDbArc
 50
165.2293010951401
 51
180.0
  0
ARC
  5
15E
330
42
100
AcDbEntity
  8
1
  6
Continuous
 62
     7
100
AcDbCircle
 10
49.8552070538686
 20
351.3431326541968
 30
0.0
 40
39.9999999999999
100
AcDbArc
 50
-5.53397820265001
 51
0.0
  0
ARC
  5
15F
330
42
100
AcDbEntity
  8
1
  6
Continuous
 62
     7
100
AcDbCircle
 10
49.8552070538686
 20
312.0806339160051
 30
0.0
 40
40.00000000000001
100
AcDbArc
 50
0.0
 51
14.77069890485993
  0
ARC
  5
160
330
42
100
AcDbEntity
  8
1
  6
Continuous
 62
     7
100
AcDbCircle
 10
150.8552070538686
 20
351.3431326541968
 30
0.0
 40
40.00000000000001
100
AcDbArc
 50
180.0
 51
-174.4660217973497
  0
ENDBLK
  5
44
330
42
100
AcDbEntity
  8
0
100
AcDbBlockEnd
  0
BLOCK
  5
46
330
45
100
AcDbEntity
  8
0
100
AcDbBlockBegin
  2
_J__A4
 70
     0
 71
     0
 10
0.0
 20
0.0
 30
0.0
  3
_J__A4
  1

  0
POINT
  5
161
330
45
100
AcDbEntity
  8
1
 62
     4
100
AcDbPoint
 10
93.75
 20
17.0
 30
0.0
  0
POINT
  5
162
330
45
100
AcDbEntity
  8
1
 62
     4
100
AcDbPoint
 10
85.25
 20
17.0
 30
0.0
  0
POINT
  5
163
330
45
100
AcDbEntity
  8
1
 62
     4
100
AcDbPoint
 10
106.5
 20
19.00000000000001
 30
0.0
  0
POINT
  5
164
330
45
100
AcDbEntity
  8
1
 62
     4
100
AcDbPoint
 10
106.5
 20
12.5
 30
0.0
  0
POINT
  5
165
330
45
100
AcDbEntity
  8
1
 62
     4
100
AcDbPoint
 10
112.25
 20
12.5
 30
0.0
  0
POINT
  5
166
330
45
100
AcDbEntity
  8
1
 62
     4
100
AcDbPoint
 10
100.75
 20
12.5
 30
0.0
  0
POINT
  5
167
330
45
100
AcDbEntity
  8
1
 62
     4
100
AcDbPoint
 10
123.5
 20
19.00000000000001
 30
0.0
  0
POINT
  5
168
330
45
100
AcDbEntity
  8
1
 62
     4
100
AcDbPoint
 10
123.5
 20
12.5
 30
0.0
  0
POINT
  5
169
330
45
100
AcDbEntity
  8
1
 62
     4
100
AcDbPoint
 10
129.25
 20
12.5
 30
0.0
  0
POINT
  5
16A
330
45
100
AcDbEntity
  8
1
 62
     4
100
AcDbPoint
 10
117.75
 20
12.5
 30
0.0
  0
POINT
  5
16B
330
45
100
AcDbEntity
  8
1
 62
     4
100
AcDbPoint
 10
140.5
 20
19.00000000000001
 30
0.0
  0
POINT
  5
16C
330
45
100
AcDbEntity
  8
1
 62
     4
100
AcDbPoint
 10
140.5
 20
12.5
 30
0.0
  0
POINT
  5
16D
330
45
100
AcDbEntity
  8
1
 62
     4
100
AcDbPoint
 10
146.25
 20
12.5
 30
0.0
  0
POINT
  5
16E
330
45
100
AcDbEntity
  8
1
 62
     4
100
AcDbPoint
 10
134.75
 20
12.5
 30
0.0
  0
POINT
  5
16F
330
45
100
AcDbEntity
  8
1
 62
     4
100
AcDbPoint
 10
151.75
 20
12.5
 30
0.0
  0
POINT
  5
170
330
45
100
AcDbEntity
  8
1
 62
     4
100
AcDbPoint
 10
163.25
 20
12.5
 30
0.0
  0
POINT
  5
171
330
45
100
AcDbEntity
  8
1
 62
     4
100
AcDbPoint
 10
157.5
 20
12.5
 30
0.0
  0
POINT
  5
172
330
45
100
AcDbEntity
  8
1
 62
     4
100
AcDbPoint
 10
57.0
 20
14.25
 30
0.0
  0
POINT
  5
173
330
45
100
AcDbEntity
  8
1
 62
     4
100
AcDbPoint
 10
57.0
 20
22.75000000000001
 30
0.0
  0
POINT
  5
174
330
45
100
AcDbEntity
  8
1
 62
     4
100
AcDbPoint
 10
47.5
 20
282.0000000000003
 30
0.0
  0
POINT
  5
175
330
45
100
AcDbEntity
  8
1
 62
     4
100
AcDbPoint
 10
157.5
 20
19.00000000000001
 30
0.0
  0
POINT
  5
176
330
45
100
AcDbEntity
  8
1
 62
     4
100
AcDbPoint
 10
57.0
 20
16.25
 30
0.0
  0
POINT
  5
177
330
45
100
AcDbEntity
  8
1
 62
     4
100
AcDbPoint
 10
57.0
 20
24.75000000000001
 30
0.0
  0
POINT
  5
178
330
45
100
AcDbEntity
  8
1
 62
     4
100
AcDbPoint
 10
57.0
 20
20.75000000000001
 30
0.0
  0
POINT
  5
179
330
45
100
AcDbEntity
  8
1
 62
     4
100
AcDbPoint
 10
57.0
 20
12.25
 30
0.0
  0
POINT
  5
17A
330
45
100
AcDbEntity
  8
1
 62
     4
100
AcDbPoint
 10
34.0
 20
34.00000000000001
 30
0.0
  0
LINE
  5
17B
330
45
100
AcDbEntity
  8
1
  6
Continuous
 62
     7
100
AcDbLine
 10
105.0
 20
10.0
 30
0.0
 11
200.0
 21
10.0
 31
0.0
  0
LINE
  5
17C
330
45
100
AcDbEntity
  8
1
  6
Continuous
 62
     2
100
AcDbLine
 10
105.0
 20
10.0
 30
0.0
 11
105.0
 21
5.0
 31
0.0
  0
LINE
  5
17D
330
45
100
AcDbEntity
  8
1
  6
Continuous
 62
     7
100
AcDbLine
 10
200.0
 20
148.5
 30
0.0
 11
200.0
 21
287.0000000000003
 31
0.0
  0
LINE
  5
17E
330
45
100
AcDbEntity
  8
1
  6
Continuous
 62
     2
100
AcDbLine
 10
200.0
 20
148.5
 30
0.0
 11
205.0
 21
148.5
 31
0.0
  0
LINE
  5
17F
330
45
100
AcDbEntity
  8
1
  6
Continuous
 62
     7
100
AcDbLine
 10
25.0
 20
148.5
 30
0.0
 11
25.0
 21
287.0000000000003
 31
0.0
  0
LINE
  5
180
330
45
100
AcDbEntity
  8
1
  6
Continuous
 62
     2
100
AcDbLine
 10
25.0
 20
148.5
 30
0.0
 11
20.0
 21
148.5
 31
0.0
  0
LINE
  5
181
330
45
100
AcDbEntity
  8
1
  6
Continuous
 62
     7
100
AcDbLine
 10
105.0
 20
287.0000000000003
 30
0.0
 11
25.0
 21
287.0000000000003
 31
0.0
  0
LINE
  5
182
330
45
100
AcDbEntity
  8
1
  6
Continuous
 62
     2
100
AcDbLine
 10
105.0
 20
287.0000000000003
 30
0.0
 11
105.0
 21
292.0000000000003
 31
0.0
  0
LINE
  5
183
330
45
100
AcDbEntity
  8
1
  6
Continuous
 62
     2
100
AcDbLine
 10
166.0
 20
20.00000000000001
 30
0.0
 11
200.0
 21
20.00000000000001
 31
0.0
  0
LINE
  5
184
330
45
100
AcDbEntity
  8
1
  6
Continuous
 62
     2
100
AcDbLine
 10
98.0
 20
27.00000000000001
 30
0.0
 11
98.0
 21
9.99999999999999
 31
0.0
  0
LINE
  5
185
330
45
100
AcDbEntity
  8
1
  6
Continuous
 62
     2
100
AcDbLine
 10
115.0
 20
27.00000000000001
 30
0.0
 11
115.0
 21
9.99999999999999
 31
0.0
  0
LINE
  5
186
330
45
100
AcDbEntity
  8
1
  6
Continuous
 62
     2
100
AcDbLine
 10
149.0
 20
27.00000000000001
 30
0.0
 11
149.0
 21
10.0
 31
0.0
  0
LINE
  5
187
330
45
100
AcDbEntity
  8
1
  6
Continuous
 62
     2
100
AcDbLine
 10
132.0
 20
27.00000000000001
 30
0.0
 11
132.0
 21
9.99999999999999
 31
0.0
  0
LINE
  5
188
330
45
100
AcDbEntity
  8
1
  6
Continuous
 62
     2
100
AcDbLine
 10
166.0
 20
27.00000000000001
 30
0.0
 11
166.0
 21
10.0
 31
0.0
  0
LINE
  5
189
330
45
100
AcDbEntity
  8
1
  6
Continuous
 62
     2
100
AcDbLine
 10
55.0
 20
277.0000000000003
 30
0.0
 11
25.0
 21
277.0000000000003
 31
0.0
  0
LINE
  5
18A
330
45
100
AcDbEntity
  8
1
  6
Continuous
 62
     7
100
AcDbLine
 10
25.0
 20
10.0
 30
0.0
 11
25.0
 21
148.5
 31
0.0
  0
LINE
  5
18B
330
45
100
AcDbEntity
  8
1
  6
Continuous
 62
     2
100
AcDbLine
 10
40.0
 20
287.0000000000003
 30
0.0
 11
40.0
 21
277.0000000000003
 31
0.0
  0
LINE
  5
18C
330
45
100
AcDbEntity
  8
1
  6
Continuous
 62
     2
100
AcDbLine
 10
55.0
 20
287.0000000000003
 30
0.0
 11
55.0
 21
277.0000000000003
 31
0.0
  0
LINE
  5
18D
330
45
100
AcDbEntity
  8
1
  6
Continuous
 62
     2
100
AcDbLine
 10
33.0
 20
41.00000000000001
 30
0.0
 11
33.0
 21
27.0
 31
0.0
  0
LINE
  5
18E
330
45
100
AcDbEntity
  8
1
  6
Continuous
 62
     7
100
AcDbLine
 10
200.0
 20
27.00000000000001
 30
0.0
 11
25.0
 21
27.00000000000001
 31
0.0
  0
LINE
  5
18F
330
45
100
AcDbEntity
  8
1
  6
Continuous
 62
     7
100
AcDbLine
 10
25.0
 20
41.0
 30
0.0
 11
200.0
 21
41.0
 31
0.0
  0
LINE
  5
190
330
45
100
AcDbEntity
  8
1
  6
PHANTOM
 62
     4
100
AcDbLine
 10
0.0
 20
0.0
 30
0.0
 11
210.0
 21
0.0
 31
0.0
  0
LINE
  5
191
330
45
100
AcDbEntity
  8
1
  6
PHANTOM
 62
     4
100
AcDbLine
 10
210.0
 20
0.0
 30
0.0
 11
210.0
 21
297.0
 31
0.0
  0
LINE
  5
192
330
45
100
AcDbEntity
  8
1
  6
PHANTOM
 62
     4
100
AcDbLine
 10
210.0
 20
297.0
 30
0.0
 11
0.0
 21
297.0
 31
0.0
  0
LINE
  5
193
330
45
100
AcDbEntity
  8
1
  6
PHANTOM
 62
     4
100
AcDbLine
 10
0.0
 20
297.0
 30
0.0
 11
0.0
 21
0.0
 31
0.0
  0
LINE
  5
194
330
45
100
AcDbEntity
  8
1
  6
Continuous
 62
     7
100
AcDbLine
 10
25.0
 20
10.0
 30
0.0
 11
105.0
 21
10.0
 31
0.0
  0
LINE
  5
195
330
45
100
AcDbEntity
  8
1
  6
Continuous
 62
     7
100
AcDbLine
 10
200.0
 20
10.0
 30
0.0
 11
200.0
 21
148.5
 31
0.0
  0
LINE
  5
196
330
45
100
AcDbEntity
  8
1
  6
Continuous
 62
     7
100
AcDbLine
 10
200.0
 20
287.0000000000003
 30
0.0
 11
105.0
 21
287.0000000000003
 31
0.0
  0
LINE
  5
197
330
45
100
AcDbEntity
  8
1
  6
Continuous
 62
     2
100
AcDbLine
 10
25.0
 20
18.50000000000001
 30
0.0
 11
81.0
 21
18.50000000000001
 31
0.0
  0
LINE
  5
198
330
45
100
AcDbEntity
  8
1
  6
Continuous
 62
     2
100
AcDbLine
 10
33.0
 20
27.0
 30
0.0
 11
33.0
 21
10.0
 31
0.0
  0
LINE
  5
199
330
45
100
AcDbEntity
  8
1
  6
Continuous
 62
     7
100
AcDbLine
 10
191.0
 20
24.70000000000001
 30
0.0
 11
191.0
 21
22.30000000000001
 31
0.0
  0
LINE
  5
19A
330
45
100
AcDbEntity
  8
1
  6
Continuous
 62
     7
100
AcDbLine
 10
191.0
 20
24.70000000000001
 30
0.0
 11
196.0
 21
25.50000000000001
 31
0.0
  0
LINE
  5
19B
330
45
100
AcDbEntity
  8
1
  6
Continuous
 62
     7
100
AcDbLine
 10
196.0
 20
25.50000000000001
 30
0.0
 11
196.0
 21
21.50000000000001
 31
0.0
  0
LINE
  5
19C
330
45
100
AcDbEntity
  8
1
  6
Continuous
 62
     7
100
AcDbLine
 10
196.0
 20
21.50000000000001
 30
0.0
 11
191.0
 21
22.30000000000001
 31
0.0
  0
LINE
  5
19D
330
45
100
AcDbEntity
  8
1
  6
DOT_CENTER
 62
     2
100
AcDbLine
 10
184.0
 20
23.50000000000001
 30
0.0
 11
197.0
 21
23.50000000000001
 31
0.0
  0
LINE
  5
19E
330
45
100
AcDbEntity
  8
1
  6
DOT_CENTER
 62
     2
100
AcDbLine
 10
187.0
 20
26.50000000000001
 30
0.0
 11
187.0
 21
20.50000000000001
 31
0.0
  0
LINE
  5
19F
330
45
100
AcDbEntity
  8
1
  6
Continuous
 62
     2
100
AcDbLine
 10
81.0
 20
27.00000000000001
 30
0.0
 11
81.0
 21
10.0
 31
0.0
  0
CIRCLE
  5
1A0
330
45
100
AcDbEntity
  8
1
  6
Continuous
 62
     7
100
AcDbCircle
 10
103.5
 20
12.5
 30
0.0
 40
0.2999999999999972
  0
CIRCLE
  5
1A1
330
45
100
AcDbEntity
  8
1
  6
Continuous
 62
     7
100
AcDbCircle
 10
109.5
 20
12.5
 30
0.0
 40
0.2999999999999972
  0
CIRCLE
  5
1A2
330
45
100
AcDbEntity
  8
1
  6
Continuous
 62
     7
100
AcDbCircle
 10
120.5
 20
12.5
 30
0.0
 40
0.2999999999999972
  0
CIRCLE
  5
1A3
330
45
100
AcDbEntity
  8
1
  6
Continuous
 62
     7
100
AcDbCircle
 10
126.5
 20
12.5
 30
0.0
 40
0.2999999999999972
  0
CIRCLE
  5
1A4
330
45
100
AcDbEntity
  8
1
  6
Continuous
 62
     7
100
AcDbCircle
 10
137.5
 20
12.5
 30
0.0
 40
0.3000000000000114
  0
CIRCLE
  5
1A5
330
45
100
AcDbEntity
  8
1
  6
Continuous
 62
     7
100
AcDbCircle
 10
143.5
 20
12.5
 30
0.0
 40
0.3000000000000114
  0
CIRCLE
  5
1A6
330
45
100
AcDbEntity
  8
1
  6
Continuous
 62
     7
100
AcDbCircle
 10
160.5
 20
12.5
 30
0.0
 40
0.3000000000000114
  0
CIRCLE
  5
1A7
330
45
100
AcDbEntity
  8
1
  6
Continuous
 62
     7
100
AcDbCircle
 10
154.5
 20
12.5
 30
0.0
 40
0.3000000000000114
  0
CIRCLE
  5
1A8
330
45
100
AcDbEntity
  8
1
  6
Continuous
 62
     7
100
AcDbCircle
 10
187.0
 20
23.50000000000001
 30
0.0
 40
1.200000000000102
  0
CIRCLE
  5
1A9
330
45
100
AcDbEntity
  8
1
  6
Continuous
 62
     7
100
AcDbCircle
 10
187.0
 20
23.50000000000001
 30
0.0
 40
2.0
  0
CIRCLE
  5
1AA
330
45
100
AcDbEntity
  8
1
  6
DOT_CENTER
 62
     7
100
AcDbCircle
 10
89.5
 20
16.0
 30
0.0
 40
0.1000000000000227
  0
CIRCLE
  5
1AB
330
45
100
AcDbEntity
  8
1
  6
DOT_CENTER
 62
     7
100
AcDbCircle
 10
89.5
 20
18.0
 30
0.0
 40
0.1000000000000227
  0
MTEXT
  5
1AD
330
45
100
AcDbEntity
  8
1
 62
     7
100
AcDbMText
 10
188.5
 20
15.0
 30
0.0
 40
3.0
 41
0.0
 71
     5
 72
     1
  1
三栄水栓製作所
  7
CONVERTER_1
 73
     1
 44
1.32052821128451
  0
MTEXT
  5
1AE
330
45
100
AcDbEntity
  8
1
 62
     7
100
AcDbMText
 10
171.5
 20
15.0
 30
0.0
 40
2.5
 41
0.0
 71
     5
 72
     1
  1
株式会社
  7
CONVERTER_1
 73
     1
 44
1.32052821128451
  0
MTEXT
  5
1AF
330
45
100
AcDbEntity
  8
1
 62
     2
100
AcDbMText
 10
32.5
 20
282.0000000000003
 30
0.0
 40
5.0
 41
0.0
 71
     5
 72
     1
  1
図番
  7
CONVERTER_1
 73
     1
 44
0.60024009603842
  0
MTEXT
  5
1B0
330
45
100
AcDbEntity
  8
1
 62
     2
100
AcDbMText
 10
29.0
 20
34.00000000000001
 30
0.0
 40
3.5
 41
0.0
 71
     5
 72
     1
  1
備考
  7
CONVERTER_1
 73
     1
 44
0.60024009603842
  0
MTEXT
  5
1B1
330
45
100
AcDbEntity
  8
1
 62
     2
100
AcDbMText
 10
29.0
 20
22.75
 30
0.0
 40
3.5
 41
0.0
 71
     5
 72
     1
  1
品名
  7
CONVERTER_1
 73
     1
 44
0.96038415366146
  0
MTEXT
  5
1B2
330
45
100
AcDbEntity
  8
1
 62
     2
100
AcDbMText
 10
29.0
 20
14.25
 30
0.0
 40
3.5
 41
0.0
 71
     5
 72
     1
  1
品番
  7
CONVERTER_1
 73
     1
 44
0.96038415366146
  0
MTEXT
  5
1B3
330
45
100
AcDbEntity
  8
1
 62
     2
100
AcDbMText
 10
101.5
 20
25.00000000000001
 30
0.0
 40
3.0
 41
0.0
 71
     5
 72
     1
  1
承認
  7
CONVERTER_1
 73
     1
 44
0.78031212484994
  0
MTEXT
  5
1B4
330
45
100
AcDbEntity
  8
1
 62
     2
100
AcDbMText
 10
175.0
 20
23.50000000000001
 30
0.0
 40
3.5
 41
0.0
 71
     5
 72
     1
  1
第三角法
  7
CONVERTER_1
 73
     1
 44
0.7202881152461
  0
MTEXT
  5
1B5
330
45
100
AcDbEntity
  8
1
 62
     2
100
AcDbMText
 10
118.5
 20
25.00000000000001
 30
0.0
 40
3.0
 41
0.0
 71
     5
 72
     1
  1
検図
  7
CONVERTER_1
 73
     1
 44
0.78031212484994
  0
MTEXT
  5
1B6
330
45
100
AcDbEntity
  8
1
 62
     2
100
AcDbMText
 10
152.5
 20
25.00000000000001
 30
0.0
 40
3.0
 41
0.0
 71
     5
 72
     1
  1
設計
  7
CONVERTER_1
 73
     1
 44
0.78031212484994
  0
MTEXT
  5
1B7
330
45
100
AcDbEntity
  8
1
 62
     2
100
AcDbMText
 10
135.5
 20
25.00000000000001
 30
0.0
 40
3.0
 41
0.0
 71
     5
 72
     1
  1
製図
  7
CONVERTER_1
 73
     1
 44
0.78031212484994
  0
MTEXT
  5
1B8
330
45
100
AcDbEntity
  8
1
 62
     2
100
AcDbMText
 10
89.5
 20
24.00000000000001
 30
0.0
 40
3.5
 41
0.0
 71
     5
 72
     1
  1
尺度
  7
CONVERTER_1
 73
     1
 44
0.7202881152461
  0
MTEXT
  5
1B9
330
45
100
AcDbEntity
  8
1
 62
   250
100
AcDbMText
 10
25.0
 20
5.0
 30
0.0
 40
3.5
 41
0.0
 71
     4
 72
     1
  1
備考欄の文字列 原点位置=4
  7
CONVERTER_1
 73
     1
 44
0.7202881152461
  0
ENDBLK
  5
47
330
45
100
AcDbEntity
  8
0
100
AcDbBlockEnd
  0
BLOCK
  5
1E3
330
1DC
100
AcDbEntity
  8
0
100
AcDbBlockBegin
  2
*D07
 70
     1
 71
     0
 10
0.0
 20
0.0
 30
0.0
  3
*D07
  1

  0
LINE
  5
1DD
330
1DC
100
AcDbEntity
  8
0
  6
Continuous
 62
     2
100
AcDbLine
 10
259.8552070538689
 20
183.6673333757993
 30
0.0
 11
227.8552070538688
 21
183.6673333757993
 31
0.0
  0
LINE
  5
1DE
330
1DC
100
AcDbEntity
  8
0
  6
Continuous
 62
     2
100
AcDbLine
 10
259.8552070538689
 20
202.3738832851016
 30
0.0
 11
259.8552070538689
 21
182.1673333757993
 31
0.0
  0
LINE
  5
1DF
330
1DC
100
AcDbEntity
  8
0
  6
Continuous
 62
     2
100
AcDbLine
 10
227.8552070538688
 20
195.7018832851016
 30
0.0
 11
227.8552070538688
 21
182.1673333757993
 31
0.0
  0
SOLID
  5
1E0
330
1DC
100
AcDbEntity
  8
0
 62
     2
100
AcDbTrace
 10
254.6052070538689
 20
182.9761577634655
 30
0.0
 11
254.6052070538689
 21
184.3585089881331
 31
0.0
 12
259.8552070538689
 22
183.6673333757993
 32
0.0
 13
259.8552070538689
 23
183.6673333757993
 33
0.0
  0
SOLID
  5
1E1
330
1DC
100
AcDbEntity
  8
0
 62
     2
100
AcDbTrace
 10
233.1052070538688
 20
184.3585089881331
 30
0.0
 11
233.1052070538688
 21
182.9761577634655
 31
0.0
 12
227.8552070538688
 22
183.6673333757993
 32
0.0
 13
227.8552070538688
 23
183.6673333757993
 33
0.0
  0
MTEXT
  5
1E2
330
1DC
100
AcDbEntity
  8
0
 62
     7
100
AcDbMText
 10
239.9177070538688
 20
185.1673333757993
 30
0.0
 40
5.25
 41
0.0
 71
     7
 72
     1
  1
32
  7
CONVERTER_2
 11
0.9999999999970621
 21
2.424068405545307E-6
 31
0.0
 73
     1
 44
0.60024009603842
  0
ENDBLK
  5
1E4
330
1DC
100
AcDbEntity
  8
0
100
AcDbBlockEnd
  0
BLOCK
  5
1EE
330
1E7
100
AcDbEntity
  8
0
100
AcDbBlockBegin
  2
*D18
 70
     1
 71
     0
 10
0.0
 20
0.0
 30
0.0
  3
*D18
  1

  0
LINE
  5
1E8
330
1E7
100
AcDbEntity
  8
0
  6
Continuous
 62
     2
100
AcDbLine
 10
195.8552070538688
 20
183.6673333757993
 30
0.0
 11
227.8552070538688
 21
183.6673333757993
 31
0.0
  0
LINE
  5
1E9
330
1E7
100
AcDbEntity
  8
0
  6
Continuous
 62
     2
100
AcDbLine
 10
195.8552070538688
 20
202.3738832851016
 30
0.0
 11
195.8552070538688
 21
182.1673333757993
 31
0.0
  0
LINE
  5
1EA
330
1E7
100
AcDbEntity
  8
0
  6
Continuous
 62
     2
100
AcDbLine
 10
227.8552070538688
 20
195.7018832851016
 30
0.0
 11
227.8552070538688
 21
182.1673333757993
 31
0.0
  0
SOLID
  5
1EB
330
1E7
100
AcDbEntity
  8
0
 62
     2
100
AcDbTrace
 10
201.1052070538688
 20
184.3585089881331
 30
0.0
 11
201.1052070538688
 21
182.9761577634655
 31
0.0
 12
195.8552070538688
 22
183.6673333757993
 32
0.0
 13
195.8552070538688
 23
183.6673333757993
 33
0.0
  0
SOLID
  5
1EC
330
1E7
100
AcDbEntity
  8
0
 62
     2
100
AcDbTrace
 10
222.6052070538688
 20
182.9761577634655
 30
0.0
 11
222.6052070538688
 21
184.3585089881331
 31
0.0
 12
227.8552070538688
 22
183.6673333757993
 32
0.0
 13
227.8552070538688
 23
183.6673333757993
 33
0.0
  0
MTEXT
  5
1ED
330
1E7
100
AcDbEntity
  8
0
 62
     7
100
AcDbMText
 10
207.9177070538688
 20
185.1673333757993
 30
0.0
 40
5.25
 41
0.0
 71
     7
 72
     1
  1
32
  7
CONVERTER_2
 11
0.9999999999970621
 21
2.424068405545307E-6
 31
0.0
 73
     1
 44
0.60024009603842
  0
ENDBLK
  5
1EF
330
1E7
100
AcDbEntity
  8
0
100
AcDbBlockEnd
  0
BLOCK
  5
1F9
330
1F2
100
AcDbEntity
  8
0
100
AcDbBlockBegin
  2
*D29
 70
     1
 71
     0
 10
0.0
 20
0.0
 30
0.0
  3
*D29
  1

  0
LINE
  5
1F3
330
1F2
100
AcDbEntity
  8
0
  6
Continuous
 62
     2
100
AcDbLine
 10
179.3552070538688
 20
211.7118832851016
 30
0.0
 11
179.3552070538688
 21
270.2118832851015
 31
0.0
  0
LINE
  5
1F4
330
1F2
100
AcDbEntity
  8
0
  6
Continuous
 62
     2
100
AcDbLine
 10
192.8552070538688
 20
211.7118832851016
 30
0.0
 11
177.8552070538688
 21
211.7118832851016
 31
0.0
  0
LINE
  5
1F5
330
1F2
100
AcDbEntity
  8
0
  6
Continuous
 62
     2
100
AcDbLine
 10
227.8552070538688
 20
270.2118832851015
 30
0.0
 11
177.8552070538688
 21
270.2118832851015
 31
0.0
  0
SOLID
  5
1F6
330
1F2
100
AcDbEntity
  8
0
 62
     2
100
AcDbTrace
 10
178.664031441535
 20
216.9618832851016
 30
0.0
 11
180.0463826662027
 21
216.9618832851016
 31
0.0
 12
179.3552070538688
 22
211.7118832851016
 32
0.0
 13
179.3552070538688
 23
211.7118832851016
 33
0.0
  0
SOLID
  5
1F7
330
1F2
100
AcDbEntity
  8
0
 62
     2
100
AcDbTrace
 10
180.0463826662027
 20
264.9618832851015
 30
0.0
 11
178.664031441535
 21
264.9618832851015
 31
0.0
 12
179.3552070538688
 22
270.2118832851015
 32
0.0
 13
179.3552070538688
 23
270.2118832851015
 33
0.0
  0
MTEXT
  5
1F8
330
1F2
100
AcDbEntity
  8
0
 62
     7
100
AcDbMText
 10
177.8552070538688
 20
225.4053206006513
 30
0.0
 40
5.25
 41
0.0
 71
     7
 72
     1
  1
59リフト5
  7
CONVERTER_1
 11
0.0
 21
1.0
 31
0.0
 73
     1
 44
0.60024009603842
  0
ENDBLK
  5
1FA
330
1F2
100
AcDbEntity
  8
0
100
AcDbBlockEnd
  0
ENDSEC
  0
SECTION
  2
ENTITIES
  0
INSERT
  5
48
330
1F
100
AcDbEntity
  8
1
100
AcDbBlockReference
  2
36-54A-M4
 10
164.9767897876808
 20
161.2922429973317
 30
0.0
  0
INSERT
  5
49
330
1F
100
AcDbEntity
  8
1
100
AcDbBlockReference
  2
37-1-13
 10
421.2237197993121
 20
209.7979241782513
 30
0.0
  0
INSERT
  5
4A
330
1F
100
AcDbEntity
  8
1
100
AcDbBlockReference
  2
42-1
 10
338.160645891137
 20
216.6893143061234
 30
0.0
  0
INSERT
  5
4B
330
1F
100
AcDbEntity
  8
1
100
AcDbBlockReference
  2
51-1
 10
-225.5707917728051
 20
200.7260500867651
 30
0.0
  0
INSERT
  5
4C
330
1F
100
AcDbEntity
  8
0
100
AcDbBlockReference
  2
V20-0A-13-M11
 10
172.5552070538688
 20
166.3972476917058
 30
0.0
  0
INSERT
  5
4D
330
1F
100
AcDbEntity
  8
1
100
AcDbBlockReference
  2
_J__A4
 10
0.0
 20
0.0
 30
0.0
 41
1.5
 42
1.5
 43
1.5
  0
LINE
  5
1BA
330
1F
100
AcDbEntity
  8
1
  6
Continuous
 62
     2
100
AcDbLine
 10
186.75
 20
118.2500000000003
 30
0.0
 11
186.75
 21
86.93750000000011
 31
0.0
  0
LINE
  5
1BB
330
1F
100
AcDbEntity
  8
1
  6
Continuous
 62
     7
100
AcDbLine
 10
226.125
 20
86.93750000000011
 30
0.0
 11
111.3750000000001
 21
86.93750000000011
 31
0.0
  0
LINE
  5
1BC
330
1F
100
AcDbEntity
  8
1
  6
Continuous
 62
     2
100
AcDbLine
 10
226.125
 20
97.37500000000023
 30
0.0
 11
111.3750000000001
 21
97.37500000000023
 31
0.0
  0
LINE
  5
1BD
330
1F
100
AcDbEntity
  8
1
  6
Continuous
 62
     7
100
AcDbLine
 10
226.125
 20
118.2500000000003
 30
0.0
 11
226.125
 21
86.93750000000011
 31
0.0
  0
LINE
  5
1BE
330
1F
100
AcDbEntity
  8
1
  6
Continuous
 62
     7
100
AcDbLine
 10
111.3750000000001
 20
118.2500000000004
 30
0.0
 11
111.3750000000001
 21
86.93750000000011
 31
0.0
  0
LINE
  5
1BF
330
1F
100
AcDbEntity
  8
1
  6
Continuous
 62
     7
100
AcDbLine
 10
111.3750000000001
 20
118.2500000000004
 30
0.0
 11
226.125
 21
118.2500000000003
 31
0.0
  0
LINE
  5
1C0
330
1F
100
AcDbEntity
  8
1
  6
Continuous
 62
     2
100
AcDbLine
 10
226.125
 20
107.8125000000003
 30
0.0
 11
111.3750000000001
 21
107.8125000000003
 31
0.0
  0
LINE
  5
1C1
330
1F
100
AcDbEntity
  8
1
  6
DASH_CENTER
 62
     2
100
AcDbLine
 10
262.8552070538688
 20
211.7118832851016
 30
0.0
 11
192.8552070538688
 21
211.7118832851016
 31
0.0
  0
LINE
  5
1C2
330
1F
100
AcDbEntity
  8
1
  6
DASH_CENTER
 62
     2
100
AcDbLine
 10
100.3552070538688
 20
272.2118493035633
 30
0.0
 11
100.3552070538688
 21
195.6673333757993
 31
0.0
  0
LINE
  5
1C3
330
1F
100
AcDbEntity
  8
1
  6
DASH_CENTER
 62
     2
100
AcDbLine
 10
116.3997569631711
 20
211.7118832851016
 30
0.0
 11
84.85520705386884
 21
211.7118832851016
 31
0.0
  0
LINE
  5
1C4
330
1F
100
AcDbEntity
  8
1
  6
DASH_CENTER
 62
     2
100
AcDbLine
 10
227.8552070538688
 20
195.7018832851016
 30
0.0
 11
227.8552070538688
 21
272.2118493035633
 31
0.0
  0
LINE
  5
1C5
330
1F
100
AcDbEntity
  8
1
  6
DASH_CENTER
 62
     2
100
AcDbLine
 10
129.8000707825395
 20
348.7118832851013
 30
0.0
 11
91.69495301602427
 21
326.7118832851013
 31
0.0
  0
LINE
  5
1C6
330
1F
100
AcDbEntity
  8
1
  6
DASH_CENTER
 62
     2
100
AcDbLine
 10
79.7192905850192
 20
331.7118832851013
 30
0.0
 11
120.9911235227184
 21
331.7118832851013
 31
0.0
  0
LINE
  5
1C7
330
1F
100
AcDbEntity
  8
1
  6
DASH_CENTER
 62
     2
100
AcDbLine
 10
109.0154610917131
 20
326.7118832851013
 30
0.0
 11
70.91034332519777
 21
348.7118832851013
 31
0.0
  0
LINE
  5
1C8
330
1F
100
AcDbEntity
  8
1
  6
DASH_CENTER
 62
     2
100
AcDbLine
 10
100.3552070538688
 20
369.7118832851013
 30
0.0
 11
100.3552070538688
 21
293.7118832851014
 31
0.0
  0
SOLID
  5
1C9
330
1F
100
AcDbEntity
  8
1
 62
     2
100
AcDbTrace
 10
258.4841231899648
 20
197.0108377214002
 30
0.0
 11
257.28697191245
 21
196.3196621090664
 31
0.0
 12
255.2605475512074
 22
201.2118832851016
 32
0.0
 13
255.2605475512074
 23
201.2118832851016
 33
0.0
  0
LEADER
  5
1CA
330
1F
100
AcDbEntity
  8
1
  6
Continuous
 62
     2
100
AcDbLeader
  3
Standard
 71
     0
 76
     3
 10
255.2605475512074
 20
201.2118832851016
 30
0.0
 10
265.3898981641539
 20
183.6673333757993
 30
0.0
 10
287.9155263984499
 20
183.6673333757993
 30
0.0
  0
SOLID
  5
1CB
330
1F
100
AcDbEntity
  8
1
 62
     2
100
AcDbTrace
 10
198.8900993054002
 20
196.3196621090664
 30
0.0
 11
197.6929480278855
 21
197.0108377214002
 31
0.0
 12
200.9165236666428
 22
201.2118832851016
 32
0.0
 13
200.9165236666428
 23
201.2118832851016
 33
0.0
  0
LEADER
  5
1CC
330
1F
100
AcDbEntity
  8
1
  6
Continuous
 62
     2
100
AcDbLeader
  3
Standard
 71
     0
 76
     3
 10
200.9165236666428
 20
201.2118832851016
 30
0.0
 10
190.7871730536963
 20
183.6673333757993
 30
0.0
 10
166.2331057176976
 20
183.6673333757993
 30
0.0
  0
MTEXT
  5
1CE
330
1F
100
AcDbEntity
  8
1
 62
     7
100
AcDbMText
 10
149.0624999999999
 20
92.15625000000019
 30
0.0
 40
5.25
 41
0.0
 71
     5
 72
     1
  1
V20A-13-R
  7
CONVERTER_2
 73
     1
 44
0.7202881152461
  0
MTEXT
  5
1CF
330
1F
100
AcDbEntity
  8
1
 62
     7
100
AcDbMText
 10
206.4375
 20
92.15625000000023
 30
0.0
 40
5.25
 41
0.0
 71
     5
 72
     1
  1
赤
  7
CONVERTER_1
 73
     1
 44
0.7202881152461
  0
MTEXT
  5
1D0
330
1F
100
AcDbEntity
  8
1
 62
     7
100
AcDbMText
 10
206.4375
 20
102.5937500000003
 30
0.0
 40
5.25
 41
0.0
 71
     5
 72
     1
  1
無地
  7
CONVERTER_1
 73
     1
 44
0.7202881152461
  0
MTEXT
  5
1D1
330
1F
100
AcDbEntity
  8
1
 62
     7
100
AcDbMText
 10
149.0624999999999
 20
102.5937500000003
 30
0.0
 40
5.25
 41
0.0
 71
     5
 72
     1
  1
V20A-13
  7
CONVERTER_2
 73
     1
 44
0.7202881152461
  0
MTEXT
  5
1D2
330
1F
100
AcDbEntity
  8
1
 62
     7
100
AcDbMText
 10
149.0624999999999
 20
113.0312500000003
 30
0.0
 40
5.25
 41
0.0
 71
     5
 72
     1
  1
品番
  7
CONVERTER_1
 73
     1
 44
0.7202881152461
  0
MTEXT
  5
1D3
330
1F
100
AcDbEntity
  8
1
 62
     7
100
AcDbMText
 10
206.4375
 20
113.0312500000003
 30
0.0
 40
5.25
 41
0.0
 71
     5
 72
     1
  1
ビスの色
  7
CONVERTER_1
 73
     1
 44
0.7202881152461
  0
MTEXT
  5
1D4
330
1F
100
AcDbEntity
  8
1
 62
     7
100
AcDbMText
 10
51.0
 20
45.75000000000001
 30
0.0
 40
5.25
 41
0.0
 71
     4
 72
     1
  1
共用形
  7
CONVERTER_1
 73
     1
 44
0.7202881152461
  0
MTEXT
  5
1D5
330
1F
100
AcDbEntity
  8
1
 62
     7
100
AcDbMText
 10
85.5
 20
34.12500000000001
 30
0.0
 40
5.25
 41
0.0
 71
     5
 72
     1
  1
オネジ化粧バルブ
  7
CONVERTER_1
 73
     1
 44
0.7202881152461
  0
MTEXT
  5
1D6
330
1F
100
AcDbEntity
  8
1
 62
     7
100
AcDbMText
 10
277.3433005120593
 20
188.1673333757993
 30
0.0
 40
5.25
 41
0.0
 71
     5
 72
     1
  1
PJ1/2
  7
CONVERTER_2
 73
     1
 44
1.32052821128451
  0
MTEXT
  5
1D7
330
1F
100
AcDbEntity
  8
1
 62
     7
100
AcDbMText
 10
178.2608535330037
 20
188.1673333757993
 30
0.0
 40
5.25
 41
0.0
 71
     5
 72
     1
  1
PJ1/2
  7
CONVERTER_2
 73
     1
 44
1.32052821128451
  0
MTEXT
  5
1D8
330
1F
100
AcDbEntity
  8
0
 62
     7
100
AcDbMText
 10
127.8750000001278
 20
25.5000000000255
 30
0.0
 40
5.25
 41
0.0
 71
     5
 72
     1
  1
1
  7
CONVERTER_2
 73
     1
 44
0.7202881152461
  0
MTEXT
  5
1D9
330
1F
100
AcDbEntity
  8
0
 62
     7
100
AcDbMText
 10
140.6250000001406
 20
25.5000000000255
 30
0.0
 40
5.25
 41
0.0
 71
     5
 72
     1
  1
1,5
  7
CONVERTER_2
 73
     1
 44
0.7202881152461
  0
MTEXT
  5
1DA
330
1F
100
AcDbEntity
  8
1
 62
     7
100
AcDbMText
 10
85.49999999999999
 20
21.375
 30
0.0
 40
5.25
 41
0.0
 71
     5
 72
     1
  1
V20A-13-色
  7
CONVERTER_1
 73
     1
 44
1.32052821128451
  0
MTEXT
  5
1DB
330
1F
100
AcDbEntity
  8
1
 62
     7
100
AcDbMText
 10
51.00000000000001
 20
56.25000000000001
 30
0.0
 40
5.25
 41
0.0
 71
     4
 72
     1
  1
JIS
  7
CONVERTER_2
 73
     1
 44
1.32052821128451
  0
DIMENSION
  5
1E6
330
1F
100
AcDbEntity
  8
0
100
AcDbDimension
  2
*D07
 10
259.8552070538689
 20
183.6673333757993
 30
0.0
 11
243.8552070538688
 21
187.7923333757993
 31
0.0
  1
<>
 71
     5
 42
0.0
 53
0.00013888888889
  3
ME10_DIM_0
100
AcDbAlignedDimension
 13
227.8552070538688
 23
195.7018832851016
 33
0.0
 14
259.8552070538688
 24
202.3738832851016
 34
0.0
100
AcDbRotatedDimension
  0
DIMENSION
  5
1F1
330
1F
100
AcDbEntity
  8
0
100
AcDbDimension
  2
*D18
 10
195.8552070538688
 20
183.6673333757993
 30
0.0
 11
211.8552070538688
 21
187.7923333757993
 31
0.0
  1
<>
 71
     5
 42
0.0
 53
0.00013888888889
  3
ME10_DIM_1
100
AcDbAlignedDimension
 13
227.8552070538688
 23
195.7018832851016
 33
0.0
 14
195.8552070538688
 24
202.3738832851016
 34
0.0
100
AcDbRotatedDimension
  0
DIMENSION
  5
1FC
330
1F
100
AcDbEntity
  8
0
100
AcDbDimension
  2
*D29
 10
179.3552070538688
 20
211.7118832851016
 30
0.0
 11
175.2302070538688
 21
239.5803206006513
 31
0.0
  1
59リフト5
 71
     5
 42
0.0
 53
90.0
  3
ME10_DIM_2
100
AcDbAlignedDimension
 13
227.8552070538688
 23
270.2118832851015
 33
0.0
 14
192.8552070538688
 24
211.7118832851016
 34
0.0
 50
90.0
100
AcDbRotatedDimension
  0
ENDSEC
  0
SECTION
  2
OBJECTS
  0
DICTIONARY
  5
C
330
0
100
AcDbDictionary
281
     1
  3
ACAD_GROUP
350
D
  3
ACAD_LAYOUT
350
1A
  3
ACAD_MLINESTYLE
350
17
  3
ACAD_PLOTSETTINGS
350
19
  3
ACAD_PLOTSTYLENAME
350
E
  3
ACAD_TABLESTYLE
350
2A
  3
AcDbVariableDictionary
350
2C
  0
DICTIONARY
  5
D
102
{ACAD_REACTORS
330
C
102
}
330
C
100
AcDbDictionary
281
     1
  0
DICTIONARY
  5
1A
102
{ACAD_REACTORS
330
C
102
}
330
C
100
AcDbDictionary
281
     1
  3
Layout1
350
1E
  3
Layout2
350
26
  3
Model
350
22
  0
DICTIONARY
  5
17
102
{ACAD_REACTORS
330
C
102
}
330
C
100
AcDbDictionary
281
     1
  3
Standard
350
18
  0
DICTIONARY
  5
19
102
{ACAD_REACTORS
330
C
102
}
330
C
100
AcDbDictionary
281
     1
  0
ACDBDICTIONARYWDFLT
  5
E
102
{ACAD_REACTORS
330
C
102
}
330
C
100
AcDbDictionary
281
     1
  3
Normal
350
F
100
AcDbDictionaryWithDefault
340
F
  0
DICTIONARY
  5
2A
102
{ACAD_REACTORS
330
C
102
}
330
C
100
AcDbDictionary
281
     1
  3
Standard
350
2B
  0
DICTIONARY
  5
2C
102
{ACAD_REACTORS
330
C
102
}
330
C
100
AcDbDictionary
281
     1
  3
CTABLESTYLE
350
2D
  0
LAYOUT
  5
1E
102
{ACAD_REACTORS
330
1A
102
}
330
1A
100
AcDbPlotSettings
  1

  2

  4

  6

 40
0.0
 41
0.0
 42
0.0
 43
0.0
 44
0.0
 45
0.0
 46
0.0
 47
0.0
 48
0.0
 49
0.0
140
0.0
141
0.0
142
1.0
143
1.0
 70
   688
 72
     0
 73
     0
 74
     5
  7

 75
    16
147
1.0
148
0.0
149
0.0
100
AcDbLayout
  1
Layout1
 70
     1
 71
     1
 10
0.0
 20
0.0
 11
12.0
 21
9.0
 12
0.0
 22
0.0
 32
0.0
 14
1.00000000000000E+20
 24
1.00000000000000E+20
 34
1.00000000000000E+20
 15
-1.00000000000000E+20
 25
-1.00000000000000E+20
 35
-1.00000000000000E+20
146
0.0
 13
0.0
 23
0.0
 33
0.0
 16
1.0
 26
0.0
 36
0.0
 17
0.0
 27
1.0
 37
0.0
 76
     0
330
1B
  0
LAYOUT
  5
26
102
{ACAD_REACTORS
330
1A
102
}
330
1A
100
AcDbPlotSettings
  1

  2

  4

  6

 40
0.0
 41
0.0
 42
0.0
 43
0.0
 44
0.0
 45
0.0
 46
0.0
 47
0.0
 48
0.0
 49
0.0
140
0.0
141
0.0
142
1.0
143
1.0
 70
   688
 72
     0
 73
     0
 74
     5
  7

 75
    16
147
1.0
148
0.0
149
0.0
100
AcDbLayout
  1
Layout2
 70
     1
 71
     2
 10
0.0
 20
0.0
 11
0.0
 21
0.0
 12
0.0
 22
0.0
 32
0.0
 14
0.0
 24
0.0
 34
0.0
 15
0.0
 25
0.0
 35
0.0
146
0.0
 13
0.0
 23
0.0
 33
0.0
 16
1.0
 26
0.0
 36
0.0
 17
0.0
 27
1.0
 37
0.0
 76
     0
330
23
  0
LAYOUT
  5
22
102
{ACAD_REACTORS
330
1A
102
}
330
1A
100
AcDbPlotSettings
  1

  2

  4

  6

 40
0.0
 41
0.0
 42
0.0
 43
0.0
 44
0.0
 45
0.0
 46
0.0
 47
0.0
 48
0.0
 49
0.0
140
0.0
141
0.0
142
1.0
143
1.0
 70
  1712
 72
     0
 73
     0
 74
     0
  7

 75
     0
147
1.0
148
0.0
149
0.0
100
AcDbLayout
  1
Model
 70
     1
 71
     0
 10
0.0
 20
0.0
 11
0.0
 21
0.0
 12
0.0
 22
0.0
 32
0.0
 14
0.0
 24
0.0
 34
0.0
 15
315.0
 25
445.5
 35
0.0
146
0.0
 13
0.0
 23
0.0
 33
0.0
 16
1.0
 26
0.0
 36
0.0
 17
0.0
 27
1.0
 37
0.0
 76
     0
330
1F
  0
MLINESTYLE
  5
18
102
{ACAD_REACTORS
330
17
102
}
330
17
100
AcDbMlineStyle
  2
Standard
 70
     0
  3

 62
   256
 51
90.0
 52
90.0
 71
     2
 49
0.5
 62
   256
  6
BYLAYER
 49
-0.5
 62
   256
  6
BYLAYER
  0
ACDBPLACEHOLDER
  5
F
102
{ACAD_REACTORS
330
E
102
}
330
E
  0
TABLESTYLE
  5
2B
102
{ACAD_REACTORS
330
2A
102
}
330
2A
100
AcDbTableStyle
  3
Standard
 70
     0
 71
     0
 40
0.06
 41
0.06
280
     0
281
     0
  7
Standard
140
0.18
170
     2
 62
     0
 63
     7
283
     0
274
    -2
284
     1
 64
     0
275
    -2
285
     1
 65
     0
276
    -2
286
     1
 66
     0
277
    -2
287
     1
 67
     0
278
    -2
288
     1
 68
     0
279
    -2
289
     1
 69
     0
  7
Standard
140
0.25
170
     5
 62
     0
 63
     7
283
     0
274
    -2
284
     1
 64
     0
275
    -2
285
     1
 65
     0
276
    -2
286
     1
 66
     0
277
    -2
287
     1
 67
     0
278
    -2
288
     1
 68
     0
279
    -2
289
     1
 69
     0
  7
Standard
140
0.18
170
     5
 62
     0
 63
     7
283
     0
274
    -2
284
     1
 64
     0
275
    -2
285
     1
 65
     0
276
    -2
286
     1
 66
     0
277
    -2
287
     1
 67
     0
278
    -2
288
     1
 68
     0
279
    -2
289
     1
 69
     0
  0
DICTIONARYVAR
  5
2D
102
{ACAD_REACTORS
330
2C
102
}
330
2C
100
DictionaryVariables
280
     0
  1
Standard
  0
ENDSEC
  0
EOF
