  0
SECTION
  2
HEADER
  9
$ACADVER
  1
AC1015
  9
$ACADMAINTVER
 70
     6
  9
$DWGCODEPAGE
  3
DOS932
  9
$INSBASE
 10
0.0
 20
0.0
 30
0.0
  9
$EXTMIN
 10
0.00000000000004
 20
0.0
 30
0.0
  9
$EXTMAX
 10
315.0000000000002
 20
445.5
 30
0.0
  9
$LIMMIN
 10
0.0
 20
0.0
  9
$LIMMAX
 10
12.0
 20
9.0
  9
$ORTHOMODE
 70
     0
  9
$REGENMODE
 70
     1
  9
$FILLMODE
 70
     1
  9
$QTEXTMODE
 70
     0
  9
$MIRRTEXT
 70
     1
  9
$LTSCALE
 40
1.0
  9
$ATTMODE
 70
     1
  9
$TEXTSIZE
 40
0.2
  9
$TRACEWID
 40
0.05
  9
$TEXTSTYLE
  7
Standard
  9
$CLAYER
  8
0
  9
$CELTYPE
  6
ByLayer
  9
$CECOLOR
 62
   256
  9
$CELTSCALE
 40
1.0
  9
$DISPSILH
 70
     0
  9
$DIMSCALE
 40
1.0
  9
$DIMASZ
 40
0.18
  9
$DIMEXO
 40
0.0625
  9
$DIMDLI
 40
0.38
  9
$DIMRND
 40
0.0
  9
$DIMDLE
 40
0.0
  9
$DIMEXE
 40
0.18
  9
$DIMTP
 40
0.0
  9
$DIMTM
 40
0.0
  9
$DIMTXT
 40
0.18
  9
$DIMCEN
 40
0.09
  9
$DIMTSZ
 40
0.0
  9
$DIMTOL
 70
     0
  9
$DIMLIM
 70
     0
  9
$DIMTIH
 70
     1
  9
$DIMTOH
 70
     1
  9
$DIMSE1
 70
     0
  9
$DIMSE2
 70
     0
  9
$DIMTAD
 70
     0
  9
$DIMZIN
 70
     0
  9
$DIMBLK
  1

  9
$DIMASO
 70
     1
  9
$DIMSHO
 70
     1
  9
$DIMPOST
  1

  9
$DIMAPOST
  1

  9
$DIMALT
 70
     0
  9
$DIMALTD
 70
     2
  9
$DIMALTF
 40
25.4
  9
$DIMLFAC
 40
1.0
  9
$DIMTOFL
 70
     0
  9
$DIMTVP
 40
0.0
  9
$DIMTIX
 70
     0
  9
$DIMSOXD
 70
     0
  9
$DIMSAH
 70
     0
  9
$DIMBLK1
  1

  9
$DIMBLK2
  1

  9
$DIMSTYLE
  2
Standard
  9
$DIMCLRD
 70
     0
  9
$DIMCLRE
 70
     0
  9
$DIMCLRT
 70
     0
  9
$DIMTFAC
 40
1.0
  9
$DIMGAP
 40
0.09
  9
$DIMJUST
 70
     0
  9
$DIMSD1
 70
     0
  9
$DIMSD2
 70
     0
  9
$DIMTOLJ
 70
     1
  9
$DIMTZIN
 70
     0
  9
$DIMALTZ
 70
     0
  9
$DIMALTTZ
 70
     0
  9
$DIMUPT
 70
     0
  9
$DIMDEC
 70
     4
  9
$DIMTDEC
 70
     4
  9
$DIMALTU
 70
     2
  9
$DIMALTTD
 70
     2
  9
$DIMTXSTY
  7
Standard
  9
$DIMAUNIT
 70
     0
  9
$DIMADEC
 70
     0
  9
$DIMALTRND
 40
0.0
  9
$DIMAZIN
 70
     0
  9
$DIMDSEP
 70
    46
  9
$DIMATFIT
 70
     3
  9
$DIMFRAC
 70
     0
  9
$DIMLDRBLK
  1

  9
$DIMLUNIT
 70
     2
  9
$DIMLWD
 70
    -2
  9
$DIMLWE
 70
    -2
  9
$DIMTMOVE
 70
     0
  9
$LUNITS
 70
     2
  9
$LUPREC
 70
     4
  9
$SKETCHINC
 40
0.1
  9
$FILLETRAD
 40
0.5
  9
$AUNITS
 70
     0
  9
$AUPREC
 70
     0
  9
$MENU
  1
.
  9
$ELEVATION
 40
0.0
  9
$PELEVATION
 40
0.0
  9
$THICKNESS
 40
0.0
  9
$LIMCHECK
 70
     0
  9
$CHAMFERA
 40
0.5
  9
$CHAMFERB
 40
0.5
  9
$CHAMFERC
 40
1.0
  9
$CHAMFERD
 40
0.0
  9
$SKPOLY
 70
     0
  9
$TDCREATE
 40
2456143.420092593
  9
$TDUCREATE
 40
2456143.045092593
  9
$TDUPDATE
 40
2456143.420092604
  9
$TDUUPDATE
 40
2456143.045092604
  9
$TDINDWG
 40
0.0000000116
  9
$TDUSRTIMER
 40
0.0000000116
  9
$USRTIMER
 70
     1
  9
$ANGBASE
 50
0.0
  9
$ANGDIR
 70
     0
  9
$PDMODE
 70
     0
  9
$PDSIZE
 40
0.0
  9
$PLINEWID
 40
0.0
  9
$SPLFRAME
 70
     0
  9
$SPLINETYPE
 70
     6
  9
$SPLINESEGS
 70
     8
  9
$HANDSEED
  5
23C
  9
$SURFTAB1
 70
     6
  9
$SURFTAB2
 70
     6
  9
$SURFTYPE
 70
     6
  9
$SURFU
 70
     6
  9
$SURFV
 70
     6
  9
$UCSBASE
  2

  9
$UCSNAME
  2

  9
$UCSORG
 10
0.0
 20
0.0
 30
0.0
  9
$UCSXDIR
 10
1.0
 20
0.0
 30
0.0
  9
$UCSYDIR
 10
0.0
 20
1.0
 30
0.0
  9
$UCSORTHOREF
  2

  9
$UCSORTHOVIEW
 70
     0
  9
$UCSORGTOP
 10
0.0
 20
0.0
 30
0.0
  9
$UCSORGBOTTOM
 10
0.0
 20
0.0
 30
0.0
  9
$UCSORGLEFT
 10
0.0
 20
0.0
 30
0.0
  9
$UCSORGRIGHT
 10
0.0
 20
0.0
 30
0.0
  9
$UCSORGFRONT
 10
0.0
 20
0.0
 30
0.0
  9
$UCSORGBACK
 10
0.0
 20
0.0
 30
0.0
  9
$PUCSBASE
  2

  9
$PUCSNAME
  2

  9
$PUCSORG
 10
0.0
 20
0.0
 30
0.0
  9
$PUCSXDIR
 10
1.0
 20
0.0
 30
0.0
  9
$PUCSYDIR
 10
0.0
 20
1.0
 30
0.0
  9
$PUCSORTHOREF
  2

  9
$PUCSORTHOVIEW
 70
     0
  9
$PUCSORGTOP
 10
0.0
 20
0.0
 30
0.0
  9
$PUCSORGBOTTOM
 10
0.0
 20
0.0
 30
0.0
  9
$PUCSORGLEFT
 10
0.0
 20
0.0
 30
0.0
  9
$PUCSORGRIGHT
 10
0.0
 20
0.0
 30
0.0
  9
$PUCSORGFRONT
 10
0.0
 20
0.0
 30
0.0
  9
$PUCSORGBACK
 10
0.0
 20
0.0
 30
0.0
  9
$USERI1
 70
     0
  9
$USERI2
 70
     0
  9
$USERI3
 70
     0
  9
$USERI4
 70
     0
  9
$USERI5
 70
     0
  9
$USERR1
 40
13.2
  9
$USERR2
 40
0.0
  9
$USERR3
 40
0.0
  9
$USERR4
 40
0.0
  9
$USERR5
 40
0.0
  9
$WORLDVIEW
 70
     1
  9
$SHADEDGE
 70
     3
  9
$SHADEDIF
 70
    70
  9
$TILEMODE
 70
     1
  9
$MAXACTVP
 70
    64
  9
$PINSBASE
 10
0.0
 20
0.0
 30
0.0
  9
$PLIMCHECK
 70
     0
  9
$PEXTMIN
 10
1.00000000000000E+20
 20
1.00000000000000E+20
 30
1.00000000000000E+20
  9
$PEXTMAX
 10
-1.00000000000000E+20
 20
-1.00000000000000E+20
 30
-1.00000000000000E+20
  9
$PLIMMIN
 10
0.0
 20
0.0
  9
$PLIMMAX
 10
12.0
 20
9.0
  9
$UNITMODE
 70
     0
  9
$VISRETAIN
 70
     1
  9
$PLINEGEN
 70
     0
  9
$PSLTSCALE
 70
     1
  9
$TREEDEPTH
 70
  3020
  9
$CMLSTYLE
  2
Standard
  9
$CMLJUST
 70
     0
  9
$CMLSCALE
 40
1.0
  9
$PROXYGRAPHICS
 70
     1
  9
$MEASUREMENT
 70
     1
  9
$CELWEIGHT
370
    -1
  9
$ENDCAPS
280
     0
  9
$JOINSTYLE
280
     0
  9
$LWDISPLAY
290
     0
  9
$INSUNITS
 70
     1
  9
$HYPERLINKBASE
  1

  9
$STYLESHEET
  1

  9
$XEDIT
290
     1
  9
$CEPSNTYPE
380
     0
  9
$PSTYLEMODE
290
     0
  9
$FINGERPRINTGUID
  2
{FAEB1C30-E019-11D5-929B-00C0DF256EC4}
  9
$VERSIONGUID
  2
{FAEB1C32-E019-11D5-929B-00C0DF256EC4}
  9
$EXTNAMES
290
     1
  9
$PSVPSCALE
 40
0.0
  9
$OLESTARTUP
290
     0
  0
ENDSEC
  0
SECTION
  2
CLASSES
  0
CLASS
  1
ACDBDICTIONARYWDFLT
  2
AcDbDictionaryWithDefault
  3
ObjectDBX Classes
 90
        0
280
     0
281
     0
  0
CLASS
  1
TABLESTYLE
  2
AcDbTableStyle
  3
ObjectDBX Classes
 90
     2047
280
     0
281
     0
  0
CLASS
  1
DICTIONARYVAR
  2
AcDbDictionaryVar
  3
ObjectDBX Classes
 90
        0
280
     0
281
     0
  0
CLASS
  1

  2
exOdDbSpline
  3

 90
        0
280
     0
281
     1
  0
CLASS
  1

  2
exOdDbCircle
  3

 90
        0
280
     0
281
     1
  0
CLASS
  1
ACDBPLACEHOLDER
  2
AcDbPlaceHolder
  3
ObjectDBX Classes
 90
        0
280
     0
281
     0
  0
CLASS
  1
LAYOUT
  2
AcDbLayout
  3
ObjectDBX Classes
 90
        0
280
     0
281
     0
  0
ENDSEC
  0
SECTION
  2
TABLES
  0
TABLE
  2
VPORT
  5
8
330
0
100
AcDbSymbolTable
 70
     2
  0
VPORT
  5
29
330
8
100
AcDbSymbolTableRecord
100
AcDbViewportTableRecord
  2
*Active
 70
     0
 10
0.0
 20
0.0
 11
1.0
 21
1.0
 12
157.5000000000001
 22
222.75
 13
0.0
 23
0.0
 14
0.5
 24
0.5
 15
0.5
 25
0.5
 16
0.0
 26
0.0
 36
1.0
 17
0.0
 27
0.0
 37
0.0
 40
490.05
 41
1.60267857142857
 42
50.0
 43
0.0
 44
0.0
 50
0.0
 51
0.0
 71
     0
 72
   100
 73
     1
 74
     3
 75
     0
 76
     0
 77
     0
 78
     0
281
     0
 65
     1
110
0.0
120
0.0
130
0.0
111
1.0
121
0.0
131
0.0
112
0.0
122
1.0
132
0.0
 79
     0
146
0.0
  0
ENDTAB
  0
TABLE
  2
LTYPE
  5
5
330
0
100
AcDbSymbolTable
 70
     8
  0
LTYPE
  5
14
330
5
100
AcDbSymbolTableRecord
100
AcDbLinetypeTableRecord
  2
ByBlock
 70
     0
  3

 72
    65
 73
     0
 40
0.0
  0
LTYPE
  5
15
330
5
100
AcDbSymbolTableRecord
100
AcDbLinetypeTableRecord
  2
ByLayer
 70
     0
  3

 72
    65
 73
     0
 40
0.0
  0
LTYPE
  5
16
330
5
100
AcDbSymbolTableRecord
100
AcDbLinetypeTableRecord
  2
Continuous
 70
     0
  3
Solid line
 72
    65
 73
     0
 40
0.0
  0
LTYPE
  5
2E
330
5
100
AcDbSymbolTableRecord
100
AcDbLinetypeTableRecord
  2
DASHED
 70
     0
  3
Dashed
 72
    65
 73
     2
 40
15.0
 49
7.0
 74
     0
 49
-8.0
 74
     0
  0
LTYPE
  5
2F
330
5
100
AcDbSymbolTableRecord
100
AcDbLinetypeTableRecord
  2
DOTTED
 70
     0
  3
Dotted
 72
    65
 73
     2
 40
1.0
 49
0.0
 74
     0
 49
-1.0
 74
     0
  0
LTYPE
  5
30
330
5
100
AcDbSymbolTableRecord
100
AcDbLinetypeTableRecord
  2
DOT_CENTER
 70
     0
  3
Dot_Center
 72
    65
 73
     4
 40
14.0
 49
12.0
 74
     0
 49
-1.0
 74
     0
 49
0.0
 74
     0
 49
-1.0
 74
     0
  0
LTYPE
  5
31
330
5
100
AcDbSymbolTableRecord
100
AcDbLinetypeTableRecord
  2
LONG_DASHED
 70
     0
  3
Long_Dashed
 72
    65
 73
     2
 40
15.0
 49
10.0
 74
     0
 49
-5.0
 74
     0
  0
LTYPE
  5
32
330
5
100
AcDbSymbolTableRecord
100
AcDbLinetypeTableRecord
  2
DASH_CENTER
 70
     0
  3
Dash_Center
 72
    65
 73
     4
 40
14.0
 49
11.0
 74
     0
 49
-1.0
 74
     0
 49
1.0
 74
     0
 49
-1.0
 74
     0
  0
LTYPE
  5
33
330
5
100
AcDbSymbolTableRecord
100
AcDbLinetypeTableRecord
  2
PHANTOM
 70
     0
  3
Phantom
 72
    65
 73
     6
 40
13.0
 49
10.0
 74
     0
 49
-1.0
 74
     0
 49
0.0
 74
     0
 49
-1.0
 74
     0
 49
0.0
 74
     0
 49
-1.0
 74
     0
  0
LTYPE
  5
34
330
5
100
AcDbSymbolTableRecord
100
AcDbLinetypeTableRecord
  2
CENTER_DASH_DASH
 70
     0
  3
Center_Dash_Dash
 72
    65
 73
     6
 40
14.0
 49
9.0
 74
     0
 49
-1.0
 74
     0
 49
1.0
 74
     0
 49
-1.0
 74
     0
 49
1.0
 74
     0
 49
-1.0
 74
     0
  0
ENDTAB
  0
TABLE
  2
LAYER
  5
2
330
0
100
AcDbSymbolTable
 70
     2
  0
LAYER
  5
10
330
2
100
AcDbSymbolTableRecord
100
AcDbLayerTableRecord
  2
0
 70
     0
 62
     7
  6
Continuous
370
    -3
390
F
  0
LAYER
  5
35
330
2
100
AcDbSymbolTableRecord
100
AcDbLayerTableRecord
  2
1
 70
     0
 62
     7
  6
Continuous
370
    -3
390
F
  0
ENDTAB
  0
TABLE
  2
STYLE
  5
3
330
0
100
AcDbSymbolTable
 70
     3
  0
STYLE
  5
11
330
3
100
AcDbSymbolTableRecord
100
AcDbTextStyleTableRecord
  2
Standard
 70
     0
 40
0.0
 41
1.0
 50
0.0
 71
     0
 42
0.2
  3
txt
  4

  0
STYLE
  5
1CD
330
3
100
AcDbSymbolTableRecord
100
AcDbTextStyleTableRecord
  2
CONVERTER_1
 70
     0
 40
0.0
 41
0.89
 50
0.0
 71
     0
 42
0.2
  3
msmincho.ttc
  4

1001
ACAD
1000
MS Mincho
1071
    32785
  0
STYLE
  5
1E6
330
3
100
AcDbSymbolTableRecord
100
AcDbTextStyleTableRecord
  2
CONVERTER_2
 70
     0
 40
0.0
 41
0.9
 50
0.0
 71
     0
 42
0.2
  3
txt.shx
  4

  0
ENDTAB
  0
TABLE
  2
VIEW
  5
6
330
0
100
AcDbSymbolTable
 70
     0
  0
ENDTAB
  0
TABLE
  2
UCS
  5
7
330
0
100
AcDbSymbolTable
 70
     0
  0
ENDTAB
  0
TABLE
  2
APPID
  5
9
330
0
100
AcDbSymbolTable
 70
     1
  0
APPID
  5
12
330
9
100
AcDbSymbolTableRecord
100
AcDbRegAppTableRecord
  2
ACAD
 70
     0
  0
ENDTAB
  0
TABLE
  2
DIMSTYLE
  5
A
330
0
100
AcDbSymbolTable
 70
     8
100
AcDbDimStyleTable
  0
DIMSTYLE
105
27
330
A
100
AcDbSymbolTableRecord
100
AcDbDimStyleTableRecord
  2
Standard
 70
     0
340
11
  0
DIMSTYLE
105
1F7
102
{ACAD_REACTORS
330
1F8
102
}
330
A
100
AcDbSymbolTableRecord
100
AcDbDimStyleTableRecord
  2
ME10_DIM_0
 70
     0
 41
5.25
 42
0.0
 44
1.5
 73
     0
 74
     0
 77
     1
 78
     8
140
5.25
147
0.625
172
     1
173
     1
176
     2
177
     2
178
     7
271
     2
340
1E6
  0
DIMSTYLE
105
203
102
{ACAD_REACTORS
330
204
102
}
330
A
100
AcDbSymbolTableRecord
100
AcDbDimStyleTableRecord
  2
ME10_DIM_1
 70
     0
 41
5.25
 42
0.0
 44
1.5
 73
     0
 74
     0
 77
     1
 78
     8
140
5.25
147
0.625
172
     1
173
     1
176
     2
177
     2
178
     7
271
     2
340
1E6
  0
DIMSTYLE
105
20E
102
{ACAD_REACTORS
330
20F
102
}
330
A
100
AcDbSymbolTableRecord
100
AcDbDimStyleTableRecord
  2
ME10_DIM_2
 70
     0
 41
5.25
 42
0.0
 44
1.5
 73
     0
 74
     0
 77
     1
 78
     8
140
5.25
147
0.625
172
     1
173
     1
176
     2
177
     2
178
     7
271
     2
340
1CD
  0
DIMSTYLE
105
219
102
{ACAD_REACTORS
330
21A
102
}
330
A
100
AcDbSymbolTableRecord
100
AcDbDimStyleTableRecord
  2
ME10_DIM_3
 70
     0
 41
5.25
 42
0.0
 44
1.5
 73
     0
 74
     0
 77
     1
 78
     8
140
5.25
147
0.625
172
     1
173
     1
176
     2
177
     2
178
     7
271
     2
340
1E6
  0
DIMSTYLE
105
224
102
{ACAD_REACTORS
330
225
102
}
330
A
100
AcDbSymbolTableRecord
100
AcDbDimStyleTableRecord
  2
ME10_DIM_4
 70
     0
 41
5.25
 42
0.0
 44
1.5
 73
     0
 74
     0
 77
     1
 78
     8
140
5.25
147
0.625
172
     1
173
     1
176
     2
177
     2
178
     7
271
     2
340
1E6
  0
DIMSTYLE
105
22F
102
{ACAD_REACTORS
330
230
102
}
330
A
100
AcDbSymbolTableRecord
100
AcDbDimStyleTableRecord
  2
ME10_DIM_5
 70
     0
 41
5.25
 42
0.0
 44
1.5
 73
     0
 74
     0
 77
     1
 78
     8
140
5.25
147
0.625
172
     1
173
     1
176
     2
177
     2
178
     7
271
     2
340
1E6
  0
DIMSTYLE
105
23A
102
{ACAD_REACTORS
330
23B
102
}
330
A
100
AcDbSymbolTableRecord
100
AcDbDimStyleTableRecord
  2
ME10_DIM_6
 70
     0
 41
5.25
 42
0.0
 44
1.5
 73
     0
 74
     0
 77
     1
 78
     8
140
5.25
147
0.625
172
     1
173
     1
176
     2
177
     2
178
     7
271
     2
340
1E6
  0
ENDTAB
  0
TABLE
  2
BLOCK_RECORD
  5
1
330
0
100
AcDbSymbolTable
 70
    16
  0
BLOCK_RECORD
  5
1F
330
1
100
AcDbSymbolTableRecord
100
AcDbBlockTableRecord
  2
*Model_Space
340
22
  0
BLOCK_RECORD
  5
1B
330
1
100
AcDbSymbolTableRecord
100
AcDbBlockTableRecord
  2
*Paper_Space
340
1E
  0
BLOCK_RECORD
  5
23
330
1
100
AcDbSymbolTableRecord
100
AcDbBlockTableRecord
  2
*Paper_Space0
340
26
  0
BLOCK_RECORD
  5
36
330
1
100
AcDbSymbolTableRecord
100
AcDbBlockTableRecord
  2
32-12
340
0
102
{BLKREFS
331
4E
102
}
  0
BLOCK_RECORD
  5
39
330
1
100
AcDbSymbolTableRecord
100
AcDbBlockTableRecord
  2
37-1-13
340
0
102
{BLKREFS
331
4F
102
}
  0
BLOCK_RECORD
  5
3C
330
1
100
AcDbSymbolTableRecord
100
AcDbBlockTableRecord
  2
36-3-13
340
0
102
{BLKREFS
331
50
102
}
  0
BLOCK_RECORD
  5
3F
330
1
100
AcDbSymbolTableRecord
100
AcDbBlockTableRecord
  2
V22-0A-13-__________
340
0
102
{BLKREFS
331
51
102
}
  0
BLOCK_RECORD
  5
42
330
1
100
AcDbSymbolTableRecord
100
AcDbBlockTableRecord
  2
78-167
340
0
102
{BLKREFS
331
52
102
}
  0
BLOCK_RECORD
  5
45
330
1
100
AcDbSymbolTableRecord
100
AcDbBlockTableRecord
  2
64-7-13-55
340
0
102
{BLKREFS
331
53
102
}
  0
BLOCK_RECORD
  5
48
330
1
100
AcDbSymbolTableRecord
100
AcDbBlockTableRecord
  2
V22-0A-13
340
0
102
{BLKREFS
331
54
102
}
  0
BLOCK_RECORD
  5
4B
330
1
100
AcDbSymbolTableRecord
100
AcDbBlockTableRecord
  2
_J__A4
340
0
102
{BLKREFS
331
55
102
}
  0
BLOCK_RECORD
  5
1EE
330
1
100
AcDbSymbolTableRecord
100
AcDbBlockTableRecord
  2
*D09
340
0
  0
BLOCK_RECORD
  5
1F9
330
1
100
AcDbSymbolTableRecord
100
AcDbBlockTableRecord
  2
*D110
340
0
  0
BLOCK_RECORD
  5
205
330
1
100
AcDbSymbolTableRecord
100
AcDbBlockTableRecord
  2
*D211
340
0
  0
BLOCK_RECORD
  5
210
330
1
100
AcDbSymbolTableRecord
100
AcDbBlockTableRecord
  2
*D312
340
0
  0
BLOCK_RECORD
  5
21B
330
1
100
AcDbSymbolTableRecord
100
AcDbBlockTableRecord
  2
*D413
340
0
  0
BLOCK_RECORD
  5
226
330
1
100
AcDbSymbolTableRecord
100
AcDbBlockTableRecord
  2
*D514
340
0
  0
BLOCK_RECORD
  5
231
330
1
100
AcDbSymbolTableRecord
100
AcDbBlockTableRecord
  2
*D615
340
0
  0
ENDTAB
  0
ENDSEC
  0
SECTION
  2
BLOCKS
  0
BLOCK
  5
20
330
1F
100
AcDbEntity
  8
0
100
AcDbBlockBegin
  2
*Model_Space
 70
     0
 71
     0
 10
0.0
 20
0.0
 30
0.0
  3
*Model_Space
  1

  0
ENDBLK
  5
21
330
1F
100
AcDbEntity
  8
0
100
AcDbBlockEnd
  0
BLOCK
  5
1C
330
1B
100
AcDbEntity
 67
     1
  8
0
100
AcDbBlockBegin
  2
*Paper_Space
 70
     0
 71
     0
 10
0.0
 20
0.0
 30
0.0
  3
*Paper_Space
  1

  0
ENDBLK
  5
1D
330
1B
100
AcDbEntity
 67
     1
  8
0
100
AcDbBlockEnd
  0
BLOCK
  5
24
330
23
100
AcDbEntity
  8
0
100
AcDbBlockBegin
  2
*Paper_Space0
 70
     0
 71
     0
 10
0.0
 20
0.0
 30
0.0
  3
*Paper_Space0
  1

  0
ENDBLK
  5
25
330
23
100
AcDbEntity
  8
0
100
AcDbBlockEnd
  0
BLOCK
  5
37
330
36
100
AcDbEntity
  8
0
100
AcDbBlockBegin
  2
32-12
 70
     0
 71
     0
 10
181.0375011125199
 20
173.1303292860237
 30
0.0
  3
32-12
  1

  0
LINE
  5
56
330
36
100
AcDbEntity
  8
1
  6
Continuous
 62
     7
100
AcDbLine
 10
89.81673323515122
 20
295.91298073017
 30
0.0
 11
81.33145186091258
 21
291.0140012446037
 31
0.0
  0
LINE
  5
57
330
36
100
AcDbEntity
  8
1
  6
Continuous
 62
     7
100
AcDbLine
 10
91.3240925480319
 20
308.3217626164741
 30
0.0
 11
91.3240925480319
 21
298.5238036453414
 31
0.0
  0
LINE
  5
58
330
36
100
AcDbEntity
  8
1
  6
Continuous
 62
     7
100
AcDbLine
 10
81.33145186091258
 20
315.8315650172123
 30
0.0
 11
89.81673323515122
 21
310.9325855316455
 31
0.0
  0
LINE
  5
59
330
36
100
AcDbEntity
  8
1
  6
Continuous
 62
     7
100
AcDbLine
 10
69.83145186091258
 20
310.9325855316455
 30
0.0
 11
78.31673323515122
 21
315.8315650172123
 31
0.0
  0
LINE
  5
5A
330
36
100
AcDbEntity
  8
1
  6
Continuous
 62
     7
100
AcDbLine
 10
78.31673323515122
 20
291.0140012446037
 30
0.0
 11
69.83145186091258
 21
295.91298073017
 31
0.0
  0
LINE
  5
5B
330
36
100
AcDbEntity
  8
1
  6
Continuous
 62
     7
100
AcDbLine
 10
68.32409254803167
 20
298.5238036453414
 30
0.0
 11
68.32409254803167
 21
308.3217626164741
 31
0.0
  0
LINE
  5
5C
330
36
100
AcDbEntity
  8
1
  6
Continuous
 62
     7
100
AcDbLine
 10
204.422110803345
 20
205.8198156485459
 30
0.0
 11
182.6375011125182
 21
205.8198156485459
 31
0.0
  0
LINE
  5
5D
330
36
100
AcDbEntity
  8
1
  6
Continuous
 62
     7
100
AcDbLine
 10
204.422110803345
 20
193.819815648546
 30
0.0
 11
182.6375011125182
 21
193.819815648546
 31
0.0
  0
LINE
  5
5E
330
36
100
AcDbEntity
  8
1
  6
Continuous
 62
     7
100
AcDbLine
 10
91.49999999999875
 20
204.6942740636338
 30
0.0
 11
91.49999999999875
 21
194.9453572334579
 31
0.0
  0
LINE
  5
5F
330
36
100
AcDbEntity
  8
1
  6
Continuous
 62
     7
100
AcDbLine
 10
70.23514779186678
 20
205.8198156485459
 30
0.0
 11
89.99264068711807
 21
205.8198156485459
 31
0.0
  0
LINE
  5
60
330
36
100
AcDbEntity
  8
1
  6
Continuous
 62
     7
100
AcDbLine
 10
68.49999999999875
 20
204.6942740636338
 30
0.0
 11
68.49999999999875
 21
194.9453572334579
 31
0.0
  0
LINE
  5
61
330
36
100
AcDbEntity
  8
1
  6
Continuous
 62
     7
100
AcDbLine
 10
70.00735931287966
 20
193.819815648546
 30
0.0
 11
89.99264068711807
 21
193.819815648546
 31
0.0
  0
ARC
  5
62
330
36
100
AcDbEntity
  8
1
  6
Continuous
 62
     7
100
AcDbCircle
 10
193.0298059579317
 20
199.819815648546
 30
0.0
 40
12.00000000000014
100
AcDbArc
 50
150.000000000001
 51
-177.6119845367307
  0
ARC
  5
63
330
36
100
AcDbEntity
  8
1
  6
Continuous
 62
     7
100
AcDbCircle
 10
79.82409254803167
 20
303.422783130908
 30
0.0
 40
6.699999999999989
100
AcDbArc
 50
90.0
 51
-90.0
  0
ARC
  5
64
330
36
100
AcDbEntity
  8
1
  6
Continuous
 62
     7
100
AcDbCircle
 10
79.82409254803167
 20
303.422783130908
 30
0.0
 40
6.700000000000102
100
AcDbArc
 50
-90.0
 51
90.0
  0
ARC
  5
65
330
36
100
AcDbEntity
  8
1
  6
Continuous
 62
     7
100
AcDbCircle
 10
79.82409254803167
 20
303.422783130908
 30
0.0
 40
10.89230484541349
100
AcDbArc
 50
-90.0
 51
90.0
  0
ARC
  5
66
330
36
100
AcDbEntity
  8
1
  6
Continuous
 62
     7
100
AcDbCircle
 10
79.82409254803167
 20
303.422783130908
 30
0.0
 40
12.50000000000001
100
AcDbArc
 50
-96.92608193436782
 51
-83.07391806563012
  0
ARC
  5
67
330
36
100
AcDbEntity
  8
1
  6
Continuous
 62
     7
100
AcDbCircle
 10
79.82409254803167
 20
303.422783130908
 30
0.0
 40
12.5000000000003
100
AcDbArc
 50
-36.92608193436883
 51
-23.07391806563159
  0
ARC
  5
68
330
36
100
AcDbEntity
  8
1
  6
Continuous
 62
     7
100
AcDbCircle
 10
79.82409254803167
 20
303.422783130908
 30
0.0
 40
12.5000000000001
100
AcDbArc
 50
23.07391806562944
 51
36.92608193436696
  0
ARC
  5
69
330
36
100
AcDbEntity
  8
1
  6
Continuous
 62
     7
100
AcDbCircle
 10
79.82409254803167
 20
303.422783130908
 30
0.0
 40
12.50000000000012
100
AcDbArc
 50
83.07391806563015
 51
96.92608193436779
  0
ARC
  5
6A
330
36
100
AcDbEntity
  8
1
  6
Continuous
 62
     7
100
AcDbCircle
 10
79.82409254803167
 20
303.422783130908
 30
0.0
 40
12.49999999999963
100
AcDbArc
 50
143.0739180656318
 51
156.9260819343702
  0
ARC
  5
6B
330
36
100
AcDbEntity
  8
1
  6
Continuous
 62
     7
100
AcDbCircle
 10
79.82409254803167
 20
303.422783130908
 30
0.0
 40
12.5000000000001
100
AcDbArc
 50
-156.926081934368
 51
-143.0739180656299
  0
ARC
  5
6C
330
36
100
AcDbEntity
  8
1
  6
Continuous
 62
     7
100
AcDbCircle
 10
79.82409254803167
 20
303.422783130908
 30
0.0
 40
10.89230484541309
100
AcDbArc
 50
90.0
 51
-90.0
  0
ARC
  5
6D
330
36
100
AcDbEntity
  8
0
  6
Continuous
 62
     7
100
AcDbCircle
 10
193.5298059579317
 20
199.4943561412523
 30
0.0
 40
4.835606911877835
100
AcDbArc
 50
177.841178630851
 51
2.15882136914907
  0
ARC
  5
6E
330
36
100
AcDbEntity
  8
0
  6
Continuous
 62
     7
100
AcDbCircle
 10
193.5298059579317
 20
199.8586671517561
 30
0.0
 40
4.835606911877835
100
AcDbArc
 50
-2.15882136914907
 51
-177.841178630851
  0
ARC
  5
6F
330
36
100
AcDbEntity
  8
1
  6
Continuous
 62
     7
100
AcDbCircle
 10
194.0298059579317
 20
199.819815648546
 30
0.0
 40
12.00000000000003
100
AcDbArc
 50
-29.99999999999993
 51
29.99999999999946
  0
ARC
  5
70
330
36
100
AcDbEntity
  8
1
  6
Continuous
 62
     7
100
AcDbCircle
 10
193.0298059579317
 20
199.819815648546
 30
0.0
 40
12.00000000000021
100
AcDbArc
 50
-177.6119845367307
 51
-150.0000000000005
  0
ARC
  5
71
330
36
100
AcDbEntity
  8
1
  6
Continuous
 62
     7
100
AcDbCircle
 10
87.78551204220855
 20
201.2918408809359
 30
0.0
 40
5.037258416171657
100
AcDbArc
 50
42.48936704282353
 51
64.01341503332318
  0
ARC
  5
72
330
36
100
AcDbEntity
  8
1
  6
Continuous
 62
     7
100
AcDbCircle
 10
87.78551204220855
 20
198.3477904161557
 30
0.0
 40
5.037258416171456
100
AcDbArc
 50
-64.01341503332164
 51
-42.48936704282257
  0
ARC
  5
73
330
36
100
AcDbEntity
  8
1
  6
Continuous
 62
     7
100
AcDbCircle
 10
71.32573654174087
 20
202.2383189053667
 30
0.0
 40
3.743862009042955
100
AcDbArc
 50
106.9358291036612
 51
139.0048526480505
  0
ARC
  5
74
330
36
100
AcDbEntity
  8
1
  6
Continuous
 62
     7
100
AcDbCircle
 10
72.28914005077138
 20
198.4477667556279
 30
0.0
 40
5.159889028395493
100
AcDbArc
 50
-137.2519203604489
 51
-116.2452975634032
  0
SPLINE
  5
75
330
36
100
AcDbEntity
  8
1
  6
Continuous
 62
     7
100
AcDbSpline
210
0.0
220
0.0
230
1.0
 70
    11
 71
     3
 72
    79
 73
    75
 74
    73
 42
0.0000000001
 43
0.0000000001
 44
0.00000001
 40
0.0
 40
0.0
 40
0.0
 40
0.0
 40
0.372430589701575
 40
0.7448259659053805
 40
1.122241116444062
 40
1.499594494002699
 40
1.884512815566916
 40
2.26935600587258
 40
2.663282545184101
 40
3.057133335632611
 40
3.460428049575029
 40
3.863655724149325
 40
4.27556250233599
 40
4.687416446300021
 40
5.106213939220626
 40
5.524975444234373
 40
5.948208199313323
 40
6.371422820826742
 40
6.796179387437185
 40
7.220935954047572
 40
7.644150575560908
 40
8.067383330639821
 40
8.48614483565351
 40
8.904942328574125
 40
9.316796272538245
 40
9.728703050724977
 40
10.13193072529927
 40
10.53522543924173
 40
10.92907622969016
 40
11.32300276900158
 40
11.70784595930721
 40
12.09276428087144
 40
12.4701176584301
 40
12.84753280896879
 40
13.21992818517259
 40
13.59235877487416
 40
13.96303024910113
 40
14.33370172332811
 40
14.70613231302969
 40
15.07852768923349
 40
15.45594283977233
 40
15.83329621733114
 40
16.21821453889539
 40
16.60305772920114
 40
16.99698426851252
 40
17.39083505896089
 40
17.7941297729033
 40
18.19735744747751
 40
18.60926422566423
 40
19.02111816962832
 40
19.43991566254899
 40
19.85867716756275
 40
20.28190992264165
 40
20.70512454415497
 40
21.12988111076541
 40
21.55463767737579
 40
21.97785229888917
 40
22.4010850539681
 40
22.81984655898187
 40
23.23864405190255
 40
23.65049799586657
 40
24.06240477405329
 40
24.46563244862748
 40
24.86892716256987
 40
25.26277795301829
 40
25.65670449232973
 40
26.04154768263552
 40
26.42646600419981
 40
26.80381938175862
 40
27.18123453229747
 40
27.55362990850124
 40
27.92606049820282
 40
28.29673197242982
 40
28.6674034466568
 40
28.6674034466568
 40
28.6674034466568
 40
28.6674034466568
 10
85.76838587744786
 20
194.9640313671548
 30
0.0
 10
85.89160321903128
 20
194.9800140869672
 30
0.0
 10
86.13802625193711
 20
195.0119780154178
 30
0.0
 10
86.50079333666039
 20
195.1070136457691
 30
0.0
 10
86.85461968563297
 20
195.2347677082033
 30
0.0
 10
87.19790138884299
 20
195.3989540255828
 30
0.0
 10
87.52638453134863
 20
195.5957500466652
 30
0.0
 10
87.83945105755191
 20
195.8256965287498
 30
0.0
 10
88.13277528813167
 20
196.084842623155
 30
0.0
 10
88.4061073109298
 20
196.3734855543455
 30
0.0
 10
88.65556566170048
 20
196.6869571923572
 30
0.0
 10
88.88095570909914
 20
197.0253781643139
 30
0.0
 10
89.07917733469351
 20
197.3836547066455
 30
0.0
 10
89.24992367501199
 20
197.76148738723
 30
0.0
 10
89.39104478277076
 20
198.1537808572528
 30
0.0
 10
89.50211695395237
 20
198.559534331139
 30
0.0
 10
89.58193473252496
 20
198.974072174674
 30
0.0
 10
89.63009972149519
 20
199.3954710136597
 30
0.0
 10
89.64619856612798
 20
199.8198156485445
 30
0.0
 10
89.6300997214957
 20
200.244160283438
 30
0.0
 10
89.581934732523
 20
200.6655591223982
 30
0.0
 10
89.50211695395971
 20
201.0800969660257
 30
0.0
 10
89.39104478274371
 20
201.4858504395704
 30
0.0
 10
89.24992367511241
 20
201.8781439108575
 30
0.0
 10
89.07917733432561
 20
202.2559765867988
 30
0.0
 10
88.88095571046088
 20
202.6142531462791
 30
0.0
 10
88.6555656567371
 20
202.9526740555238
 30
0.0
 10
88.40610732928676
 20
203.2661459247503
 30
0.0
 10
88.13277522139796
 20
203.5547880122888
 30
0.0
 10
87.83945130442706
 20
203.813937216049
 30
0.0
 10
87.52638363349806
 20
204.0438723484572
 30
0.0
 10
87.19790471515745
 20
204.2407102511073
 30
0.0
 10
86.85460754151696
 20
204.404743182932
 30
0.0
 10
86.50083844258427
 20
204.533064865586
 30
0.0
 10
86.13786039133017
 20
204.626008814101
 30
0.0
 10
85.76958598187382
 20
204.6816528216945
 30
0.0
 10
85.39818509606528
 20
204.7005697457255
 30
0.0
 10
85.02678421025674
 20
204.6816528216945
 30
0.0
 10
84.65850980080036
 20
204.6260088141009
 30
0.0
 10
84.29553174954626
 20
204.5330648655859
 30
0.0
 10
83.94176265061347
 20
204.4047431829318
 30
0.0
 10
83.59846547697282
 20
204.2407102511073
 30
0.0
 10
83.26998655863187
 20
204.0438723484575
 30
0.0
 10
82.95691888770294
 20
203.8139372160491
 30
0.0
 10
82.66359497073212
 20
203.5547880122889
 30
0.0
 10
82.39026286284349
 20
203.2661459247503
 30
0.0
 10
82.1408045353932
 20
202.9526740555238
 30
0.0
 10
81.9154144816696
 20
202.6142531462789
 30
0.0
 10
81.71719285780495
 20
202.2559765867988
 30
0.0
 10
81.5464465170181
 20
201.8781439108575
 30
0.0
 10
81.40532540938656
 20
201.4858504395704
 30
0.0
 10
81.29425323817047
 20
201.0800969660257
 30
0.0
 10
81.21443545960705
 20
200.6655591223983
 30
0.0
 10
81.16627047063453
 20
200.2441602834376
 30
0.0
 10
81.15017162600253
 20
199.8198156485459
 30
0.0
 10
81.16627047063447
 20
199.3954710136547
 30
0.0
 10
81.21443545960717
 20
198.9740721746923
 30
0.0
 10
81.29425323816992
 20
198.5595343310714
 30
0.0
 10
81.40532540938861
 20
198.1537808575022
 30
0.0
 10
81.54644651701085
 20
197.7614873863057
 30
0.0
 10
81.71719285783134
 20
197.3836547100319
 30
0.0
 10
81.91541448157201
 20
197.02537815178
 30
0.0
 10
82.14080453574883
 20
196.6869572380435
 30
0.0
 10
82.39026286152861
 20
196.3734853853777
 30
0.0
 10
82.66359497551196
 20
196.0848432374123
 30
0.0
 10
82.95691887002036
 20
195.8256942563608
 30
0.0
 10
83.26998662294076
 20
195.5957583110268
 30
0.0
 10
83.59846523872407
 20
195.3989234081627
 30
0.0
 10
83.94176352044116
 20
195.2348794900299
 30
0.0
 10
84.29552851881448
 20
195.1065984634255
 30
0.0
 10
84.65852168063978
 20
195.0135046972724
 30
0.0
 10
85.02673993804748
 20
194.9584174235827
 30
0.0
 10
85.39834945840752
 20
194.9374319387227
 30
0.0
 10
85.64504040443443
 20
194.9551648910108
 30
0.0
 10
85.76838587744786
 20
194.9640313671548
 30
0.0
 11
85.76838587744786
 21
194.9640313671548
 31
0.0
 11
86.13662369730551
 21
195.0197579512233
 31
0.0
 11
86.49744252897169
 21
195.111888765466
 31
0.0
 11
86.85224201582534
 21
195.2405725639199
 31
0.0
 11
87.19284852290622
 21
195.4030003290621
 31
0.0
 11
87.52307110986855
 21
195.600775851652
 31
0.0
 11
87.83341579669117
 21
195.8283510183236
 31
0.0
 11
88.12872455057864
 21
196.0890632317916
 31
0.0
 11
88.39972390500518
 21
196.3748565050457
 31
0.0
 11
88.65097495422992
 21
196.6903236769628
 31
0.0
 11
88.87467614351357
 21
197.0258089008635
 31
0.0
 11
89.07421462296789
 21
197.386158160795
 31
0.0
 11
89.24397358908024
 21
197.7613988363396
 31
0.0
 11
89.38584448426657
 21
198.1554343539971
 31
0.0
 11
89.49651413712465
 21
198.5593073860476
 31
0.0
 11
89.5766035858163
 21
198.9748932919443
 31
0.0
 11
89.62471000329077
 21
199.3953649181696
 31
0.0
 11
89.64082578318437
 21
199.819815648546
 31
0.0
 11
89.62471000329077
 21
200.2442663789224
 31
0.0
 11
89.57660358581629
 21
200.6647380051476
 31
0.0
 11
89.49651413712468
 21
201.0803239110443
 31
0.0
 11
89.38584448426661
 21
201.4841969430947
 31
0.0
 11
89.24397358908026
 21
201.8782324607522
 31
0.0
 11
89.07421462296787
 21
202.2534731362969
 31
0.0
 11
88.87467614351357
 21
202.6138223962285
 31
0.0
 11
88.65097495422997
 21
202.9493076201292
 31
0.0
 11
88.39972390500519
 21
203.2647747920463
 31
0.0
 11
88.12872455057863
 21
203.5505680653003
 31
0.0
 11
87.83341579669119
 21
203.8112802787682
 31
0.0
 11
87.52307110986853
 21
204.0388554454397
 31
0.0
 11
87.19284852290622
 21
204.2366309680297
 31
0.0
 11
86.85224201582533
 21
204.3990587331718
 31
0.0
 11
86.49744252897169
 21
204.5277425316258
 31
0.0
 11
86.13662369730551
 21
204.6198733458685
 31
0.0
 11
85.76838587744786
 21
204.675599929937
 31
0.0
 11
85.39818509606528
 21
204.6942740636338
 31
0.0
 11
85.0279843146827
 21
204.675599929937
 31
0.0
 11
84.65974649482504
 21
204.6198733458685
 31
0.0
 11
84.29892766315888
 21
204.5277425316257
 31
0.0
 11
83.94412817630509
 21
204.3990587331717
 31
0.0
 11
83.60352166922398
 21
204.2366309680297
 31
0.0
 11
83.2732990822615
 21
204.0388554454399
 31
0.0
 11
82.96295439543879
 21
203.8112802787683
 31
0.0
 11
82.66764564155146
 21
203.5505680653003
 31
0.0
 11
82.39664628712501
 21
203.2647747920463
 31
0.0
 11
82.14539523790035
 21
202.9493076201292
 31
0.0
 11
81.9216940486169
 21
202.6138223962285
 31
0.0
 11
81.72215556916267
 21
202.2534731362969
 31
0.0
 11
81.55239660305023
 21
201.8782324607522
 31
0.0
 11
81.41052570786371
 21
201.4841969430947
 31
0.0
 11
81.29985605500549
 21
201.0803239110443
 31
0.0
 11
81.2197666063138
 21
200.6647380051476
 31
0.0
 11
81.17166018883947
 21
200.2442663789224
 31
0.0
 11
81.15554440894596
 21
199.819815648546
 31
0.0
 11
81.17166018883944
 21
199.3953649181696
 31
0.0
 11
81.21976660631378
 21
198.9748932919443
 31
0.0
 11
81.29985605500549
 21
198.5593073860476
 31
0.0
 11
81.41052570786374
 21
198.1554343539972
 31
0.0
 11
81.55239660305023
 21
197.7613988363397
 31
0.0
 11
81.72215556916267
 21
197.3861581607951
 31
0.0
 11
81.9216940486169
 21
197.0258089008635
 31
0.0
 11
82.14539523790039
 21
196.6903236769628
 31
0.0
 11
82.396646287125
 21
196.3748565050457
 31
0.0
 11
82.66764564155143
 21
196.0890632317916
 31
0.0
 11
82.96295439543876
 21
195.8283510183235
 31
0.0
 11
83.27329908226147
 21
195.6007758516518
 31
0.0
 11
83.60352166922397
 21
195.403000329062
 31
0.0
 11
83.94412817630507
 21
195.24057256392
 31
0.0
 11
84.29892766315888
 21
195.111888765466
 31
0.0
 11
84.65974649482502
 21
195.0197579512232
 31
0.0
 11
85.02798431468267
 21
194.9640313671547
 31
0.0
 11
85.39818509606528
 21
194.9453572334579
 31
0.0
 11
85.76838587744786
 21
194.9640313671548
 31
0.0
  0
SPLINE
  5
76
330
36
100
AcDbEntity
  8
1
  6
Continuous
 62
     7
100
AcDbSpline
210
0.0
220
0.0
230
1.0
 70
    11
 71
     3
 72
    79
 73
    75
 74
    73
 42
0.0000000001
 43
0.0000000001
 44
0.00000001
 40
0.0
 40
0.0
 40
0.0
 40
0.0
 40
0.3724305897016031
 40
0.7448259659053811
 40
1.122241116444063
 40
1.4995944940027
 40
1.884512815566904
 40
2.269356005872591
 40
2.663282545184091
 40
3.057133335632611
 40
3.460428049575028
 40
3.863655724149324
 40
4.275562502335996
 40
4.687416446300021
 40
5.106213939220621
 40
5.524975444234372
 40
5.948208199313323
 40
6.371422820826741
 40
6.796179387437184
 40
7.220935954047572
 40
7.644150575560906
 40
8.067383330639819
 40
8.486144835653509
 40
8.904942328574119
 40
9.316796272538239
 40
9.728703050724979
 40
10.13193072529928
 40
10.53522543924174
 40
10.92907622969015
 40
11.32300276900161
 40
11.7078459593072
 40
12.09276428087144
 40
12.47011765843008
 40
12.84753280896879
 40
13.21992818517256
 40
13.59235877487414
 40
13.96303024910113
 40
14.33370172332811
 40
14.7061323130297
 40
15.07852768923349
 40
15.45594283977234
 40
15.83329621733114
 40
16.2182145388954
 40
16.60305772920115
 40
16.99698426851253
 40
17.39083505896089
 40
17.79412977290329
 40
18.19735744747751
 40
18.60926422566423
 40
19.02111816962833
 40
19.43991566254899
 40
19.85867716756276
 40
20.28190992264166
 40
20.70512454415498
 40
21.12988111076542
 40
21.5546376773758
 40
21.97785229888918
 40
22.40108505396811
 40
22.81984655898187
 40
23.23864405190256
 40
23.65049799586657
 40
24.06240477405331
 40
24.46563244862748
 40
24.86892716256988
 40
25.26277795301829
 40
25.65670449232974
 40
26.04154768263553
 40
26.42646600419982
 40
26.80381938175862
 40
27.18123453229747
 40
27.55362990850124
 40
27.92606049820285
 40
28.29673197242982
 40
28.6674034466568
 40
28.6674034466568
 40
28.6674034466568
 40
28.6674034466568
 10
73.87979921861663
 20
194.9640313671548
 30
0.0
 10
73.7565818770332
 20
194.9800140869672
 30
0.0
 10
73.51015884412738
 20
195.0119780154178
 30
0.0
 10
73.14739175940406
 20
195.107013645769
 30
0.0
 10
72.79356541043148
 20
195.2347677082033
 30
0.0
 10
72.4502837072215
 20
195.3989540255829
 30
0.0
 10
72.12180056471586
 20
195.5957500466653
 30
0.0
 10
71.80873403851257
 20
195.8256965287497
 30
0.0
 10
71.51540980793283
 20
196.084842623155
 30
0.0
 10
71.24207778513468
 20
196.3734855543455
 30
0.0
 10
70.99261943436402
 20
196.6869571923572
 30
0.0
 10
70.76722938696534
 20
197.0253781643139
 30
0.0
 10
70.56900776137093
 20
197.3836547066455
 30
0.0
 10
70.39826142105251
 20
197.76148738723
 30
0.0
 10
70.2571403132937
 20
198.1537808572528
 30
0.0
 10
70.14606814211216
 20
198.5595343311389
 30
0.0
 10
70.06625036353947
 20
198.9740721746741
 30
0.0
 10
70.01808537456934
 20
199.3954710136596
 30
0.0
 10
70.00198652993643
 20
199.8198156485446
 30
0.0
 10
70.01808537456883
 20
200.2441602834379
 30
0.0
 10
70.06625036354149
 20
200.6655591223982
 30
0.0
 10
70.14606814210475
 20
201.0800969660257
 30
0.0
 10
70.25714031332076
 20
201.4858504395705
 30
0.0
 10
70.39826142095205
 20
201.8781439108574
 30
0.0
 10
70.56900776173885
 20
202.2559765867989
 30
0.0
 10
70.76722938560363
 20
202.6142531462789
 30
0.0
 10
70.99261943932736
 20
202.9526740555239
 30
0.0
 10
71.24207776677778
 20
203.2661459247503
 30
0.0
 10
71.51540987466649
 20
203.5547880122888
 30
0.0
 10
71.80873379163744
 20
203.813937216049
 30
0.0
 10
72.1218014625664
 20
204.0438723484571
 30
0.0
 10
72.45028038090706
 20
204.2407102511073
 30
0.0
 10
72.79357755454751
 20
204.404743182932
 30
0.0
 10
73.14734665348024
 20
204.533064865586
 30
0.0
 10
73.51032470473426
 20
204.626008814101
 30
0.0
 10
73.87859911419068
 20
204.6816528216944
 30
0.0
 10
74.2499999999992
 20
204.7005697457256
 30
0.0
 10
74.62140088580776
 20
204.6816528216945
 30
0.0
 10
74.98967529526411
 20
204.6260088141009
 30
0.0
 10
75.35265334651822
 20
204.5330648655859
 30
0.0
 10
75.70642244545103
 20
204.4047431829319
 30
0.0
 10
76.04971961909166
 20
204.2407102511073
 30
0.0
 10
76.37819853743261
 20
204.0438723484574
 30
0.0
 10
76.69126620836154
 20
203.8139372160491
 30
0.0
 10
76.98459012533238
 20
203.5547880122889
 30
0.0
 10
77.25792223322102
 20
203.2661459247504
 30
0.0
 10
77.50738056067124
 20
202.9526740555237
 30
0.0
 10
77.73277061439491
 20
202.614253146279
 30
0.0
 10
77.93099223825949
 20
202.2559765867987
 30
0.0
 10
78.10173857904641
 20
201.8781439108575
 30
0.0
 10
78.24285968667785
 20
201.4858504395704
 30
0.0
 10
78.35393185789405
 20
201.0800969660257
 30
0.0
 10
78.43374963645744
 20
200.6655591223983
 30
0.0
 10
78.48191462542994
 20
200.2441602834376
 30
0.0
 10
78.49801347006195
 20
199.8198156485459
 30
0.0
 10
78.48191462542999
 20
199.3954710136547
 30
0.0
 10
78.43374963645731
 20
198.9740721746922
 30
0.0
 10
78.35393185789454
 20
198.5595343310714
 30
0.0
 10
78.24285968667593
 20
198.1537808575022
 30
0.0
 10
78.10173857905362
 20
197.7614873863057
 30
0.0
 10
77.93099223823319
 20
197.3836547100319
 30
0.0
 10
77.73277061449238
 20
197.0253781517801
 30
0.0
 10
77.50738056031571
 20
196.6869572380434
 30
0.0
 10
77.2579222345358
 20
196.3734853853778
 30
0.0
 10
76.98459012055257
 20
196.0848432374122
 30
0.0
 10
76.69126622604408
 20
195.8256942563608
 30
0.0
 10
76.37819847312369
 20
195.5957583110268
 30
0.0
 10
76.04971985734044
 20
195.3989234081628
 30
0.0
 10
75.70642157562335
 20
195.2348794900299
 30
0.0
 10
75.35265657724997
 20
195.1065984634255
 30
0.0
 10
74.98966341542467
 20
195.0135046972725
 30
0.0
 10
74.621445158017
 20
194.9584174235827
 30
0.0
 10
74.24983563765693
 20
194.9374319387228
 30
0.0
 10
74.00314469163007
 20
194.9551648910108
 30
0.0
 10
73.87979921861663
 20
194.9640313671548
 30
0.0
 11
73.87979921861663
 21
194.9640313671548
 31
0.0
 11
73.51156139875894
 21
195.0197579512233
 31
0.0
 11
73.15074256709279
 21
195.111888765466
 31
0.0
 11
72.79594308023914
 21
195.2405725639199
 31
0.0
 11
72.45533657315826
 21
195.4030003290621
 31
0.0
 11
72.12511398619594
 21
195.600775851652
 31
0.0
 11
71.8147692993733
 21
195.8283510183236
 31
0.0
 11
71.51946054548586
 21
196.0890632317916
 31
0.0
 11
71.24846119105931
 21
196.3748565050457
 31
0.0
 11
70.99721014183456
 21
196.6903236769628
 31
0.0
 11
70.77350895255091
 21
197.0258089008635
 31
0.0
 11
70.57397047309658
 21
197.386158160795
 31
0.0
 11
70.40421150698424
 21
197.7613988363396
 31
0.0
 11
70.26234061179792
 21
198.1554343539971
 31
0.0
 11
70.15167095893983
 21
198.5593073860476
 31
0.0
 11
70.07158151024817
 21
198.9748932919443
 31
0.0
 11
70.02347509277371
 21
199.3953649181696
 31
0.0
 11
70.00735931288011
 21
199.819815648546
 31
0.0
 11
70.02347509277372
 21
200.2442663789224
 31
0.0
 11
70.07158151024819
 21
200.6647380051476
 31
0.0
 11
70.1516709589398
 21
201.0803239110443
 31
0.0
 11
70.26234061179787
 21
201.4841969430947
 31
0.0
 11
70.40421150698421
 21
201.8782324607522
 31
0.0
 11
70.57397047309659
 21
202.2534731362969
 31
0.0
 11
70.77350895255091
 21
202.6138223962285
 31
0.0
 11
70.99721014183452
 21
202.9493076201292
 31
0.0
 11
71.24846119105931
 21
203.2647747920463
 31
0.0
 11
71.51946054548584
 21
203.5505680653003
 31
0.0
 11
71.81476929937332
 21
203.8112802787682
 31
0.0
 11
72.12511398619594
 21
204.0388554454397
 31
0.0
 11
72.45533657315826
 21
204.2366309680297
 31
0.0
 11
72.79594308023914
 21
204.3990587331718
 31
0.0
 11
73.15074256709279
 21
204.5277425316258
 31
0.0
 11
73.51156139875894
 21
204.6198733458685
 31
0.0
 11
73.87979921861661
 21
204.675599929937
 31
0.0
 11
74.2499999999992
 21
204.6942740636338
 31
0.0
 11
74.62020078138178
 21
204.675599929937
 31
0.0
 11
74.98843860123945
 21
204.6198733458685
 31
0.0
 11
75.3492574329056
 21
204.5277425316257
 31
0.0
 11
75.70405691975941
 21
204.3990587331717
 31
0.0
 11
76.0446634268405
 21
204.2366309680297
 31
0.0
 11
76.37488601380299
 21
204.0388554454399
 31
0.0
 11
76.6852307006257
 21
203.8112802787683
 31
0.0
 11
76.98053945451304
 21
203.5505680653003
 31
0.0
 11
77.25153880893947
 21
203.2647747920463
 31
0.0
 11
77.50278985816412
 21
202.9493076201292
 31
0.0
 11
77.72649104744758
 21
202.6138223962285
 31
0.0
 11
77.92602952690181
 21
202.2534731362969
 31
0.0
 11
78.09578849301425
 21
201.8782324607522
 31
0.0
 11
78.23765938820075
 21
201.4841969430947
 31
0.0
 11
78.348329041059
 21
201.0803239110443
 31
0.0
 11
78.42841848975068
 21
200.6647380051476
 31
0.0
 11
78.47652490722503
 21
200.2442663789224
 31
0.0
 11
78.49264068711851
 21
199.819815648546
 31
0.0
 11
78.47652490722503
 21
199.3953649181696
 31
0.0
 11
78.4284184897507
 21
198.9748932919443
 31
0.0
 11
78.34832904105898
 21
198.5593073860476
 31
0.0
 11
78.23765938820075
 21
198.1554343539972
 31
0.0
 11
78.09578849301425
 21
197.7613988363397
 31
0.0
 11
77.92602952690183
 21
197.3861581607951
 31
0.0
 11
77.72649104744755
 21
197.0258089008635
 31
0.0
 11
77.50278985816409
 21
196.6903236769628
 31
0.0
 11
77.25153880893947
 21
196.3748565050457
 31
0.0
 11
76.98053945451305
 21
196.0890632317916
 31
0.0
 11
76.68523070062571
 21
195.8283510183235
 31
0.0
 11
76.37488601380299
 21
195.6007758516518
 31
0.0
 11
76.0446634268405
 21
195.403000329062
 31
0.0
 11
75.70405691975941
 21
195.24057256392
 31
0.0
 11
75.3492574329056
 21
195.111888765466
 31
0.0
 11
74.98843860123947
 21
195.0197579512232
 31
0.0
 11
74.62020078138178
 21
194.9640313671547
 31
0.0
 11
74.2499999999992
 21
194.9453572334579
 31
0.0
 11
73.87979921861663
 21
194.9640313671548
 31
0.0
  0
SPLINE
  5
77
330
36
100
AcDbEntity
  8
1
  6
Continuous
 62
     7
100
AcDbSpline
210
0.0
220
0.0
230
1.0
 70
    11
 71
     3
 72
    79
 73
    75
 74
    73
 42
0.0000000001
 43
0.0000000001
 44
0.00000001
 40
0.0
 40
0.0
 40
0.0
 40
0.0
 40
0.2251440043915053
 40
0.4498541163682532
 40
0.6980863442790334
 40
0.9458096979688141
 40
1.225753246443974
 40
1.505341882253987
 40
1.820037946962429
 40
2.134517093609122
 40
2.482533802619733
 40
2.830421094392756
 40
3.207135646622209
 40
3.583774048987309
 40
3.982383404506503
 40
4.380950216893672
 40
4.793229956183647
 40
5.205490581551332
 40
5.622408661135113
 40
6.039326740718781
 40
6.451587366086319
 40
6.863867105376379
 40
7.262433917763612
 40
7.661043273282895
 40
8.037681675648003
 40
8.41439622787742
 40
8.762283519650417
 40
9.110300228661004
 40
9.424779375307658
 40
9.739475440016163
 40
10.01906407582624
 40
10.29900762430134
 40
10.54673097799104
 40
10.79496320590194
 40
11.01967331787871
 40
11.24481732227018
 40
11.46116996799149
 40
11.67752261371277
 40
11.90266661810436
 40
12.12737673008131
 40
12.37560895799219
 40
12.62333231168184
 40
12.9032758601569
 40
13.18286449596691
 40
13.49756056067541
 40
13.81203970732208
 40
14.16005641633267
 40
14.50794370810569
 40
14.88465826033509
 40
15.26129666270023
 40
15.65990601821944
 40
16.05847283060667
 40
16.47075256989671
 40
16.8830131952643
 40
17.29993127484803
 40
17.71684935443175
 40
18.12910997979938
 40
18.54138971908936
 40
18.93995653147657
 40
19.33856588699576
 40
19.71520428936085
 40
20.09191884159029
 40
20.43980613336328
 40
20.78782284237384
 40
21.10230198902048
 40
21.416998053729
 40
21.69658668953899
 40
21.97653023801405
 40
22.22425359170371
 40
22.47248581961461
 40
22.69719593159159
 40
22.92233993598315
 40
23.13869258170444
 40
23.35504522742585
 40
23.35504522742585
 40
23.35504522742585
 40
23.35504522742585
 10
183.3550011114626
 20
204.5966013802311
 30
0.0
 10
183.2815660565039
 20
204.5802517101549
 30
0.0
 10
183.1348374689573
 20
204.5475838787156
 30
0.0
 10
182.9219491265606
 20
204.4501535093709
 30
0.0
 10
182.7178162419585
 20
204.3225350058443
 30
0.0
 10
182.5180172100573
 20
204.1572320732064
 30
0.0
 10
182.3308650315885
 20
203.9631950350085
 30
0.0
 10
182.149830347983
 20
203.7343376283874
 30
0.0
 10
181.983471102637
 20
203.4807436859444
 30
0.0
 10
181.8259861987419
 20
203.1953077580302
 30
0.0
 10
181.6845227248309
 20
202.8893666601567
 30
0.0
 10
181.554915059523
 20
202.5559281646757
 30
0.0
 10
181.4423342001106
 20
202.2063219353925
 30
0.0
 10
181.3442605712502
 20
201.8348986818218
 30
0.0
 10
181.2639703478803
 20
201.4517820822974
 30
0.0
 10
181.2002121799326
 20
201.0535563153478
 30
0.0
 10
181.1547537291635
 20
200.6482486046238
 30
0.0
 10
181.1270839177508
 20
200.2352183359403
 30
0.0
 10
181.1179771296436
 20
199.8198156485489
 30
0.0
 10
181.127083917749
 20
199.4044129611404
 30
0.0
 10
181.1547537291705
 20
198.9913826925079
 30
0.0
 10
181.2002121799065
 20
198.5860749815991
 30
0.0
 10
181.2639703479733
 20
198.1878492153164
 30
0.0
 10
181.3442605709107
 20
197.8047326133659
 30
0.0
 10
181.4423342013001
 20
197.4333093683729
 30
0.0
 10
181.5549150552182
 20
197.0837031082649
 30
0.0
 10
181.6845227395385
 20
196.7502647194496
 30
0.0
 10
181.8259861459249
 20
196.4443232427392
 30
0.0
 10
181.98347127881
 20
196.1588885995466
 30
0.0
 10
182.1498297188641
 20
195.9052901391032
 30
0.0
 10
182.3308670914094
 20
195.6764478184818
 30
0.0
 10
182.5180098569512
 20
195.4823579700936
 30
0.0
 10
182.7178402187939
 20
195.3172308106447
 30
0.0
 10
182.9218626747901
 20
195.1889927595769
 30
0.0
 10
183.1351265671236
 20
195.0936693718224
 30
0.0
 10
183.3510666676651
 20
195.0376822007329
 30
0.0
 10
183.5705138144105
 20
195.0172714698263
 30
0.0
 10
183.7899609611559
 20
195.037682200733
 30
0.0
 10
184.0059010616976
 20
195.0936693718223
 30
0.0
 10
184.2191649540312
 20
195.1889927595769
 30
0.0
 10
184.4231874100273
 20
195.3172308106445
 30
0.0
 10
184.6230177718701
 20
195.4823579700937
 30
0.0
 10
184.8101605374115
 20
195.6764478184818
 30
0.0
 10
184.9911979099568
 20
195.9052901391034
 30
0.0
 10
185.1575563500112
 20
196.1588885995465
 30
0.0
 10
185.3150414828962
 20
196.4443232427392
 30
0.0
 10
185.4565048892827
 20
196.7502647194496
 30
0.0
 10
185.5861125736029
 20
197.0837031082648
 30
0.0
 10
185.6986934275211
 20
197.4333093683729
 30
0.0
 10
185.7967670579104
 20
197.8047326133658
 30
0.0
 10
185.8770572808477
 20
198.1878492153165
 30
0.0
 10
185.9408154489144
 20
198.586074981599
 30
0.0
 10
185.9862738996505
 20
198.9913826925078
 30
0.0
 10
186.0139437110722
 20
199.4044129611411
 30
0.0
 10
186.0230504991768
 20
199.8198156485462
 30
0.0
 10
186.0139437110723
 20
200.2352183359502
 30
0.0
 10
185.9862738996499
 20
200.6482486045871
 30
0.0
 10
185.9408154489161
 20
201.0535563154826
 30
0.0
 10
185.8770572808413
 20
201.4517820818123
 30
0.0
 10
185.7967670579341
 20
201.8348986835921
 30
0.0
 10
185.6986934274374
 20
202.2063219291886
 30
0.0
 10
185.5861125739058
 20
202.5559281871279
 30
0.0
 10
185.4565048882479
 20
202.8893665834482
 30
0.0
 10
185.3150414866124
 20
203.1953080335032
 30
0.0
 10
185.1575563376154
 20
203.4807427670899
 30
0.0
 10
184.9911979542223
 20
203.7343409096427
 30
0.0
 10
184.8101603924807
 20
203.9631842917283
 30
0.0
 10
184.623018289241
 20
204.1572704243452
 30
0.0
 10
184.4231857229962
 20
204.3224099513503
 30
0.0
 10
184.2191710368536
 20
204.4506044105086
 30
0.0
 10
184.0058807204967
 20
204.5460760473391
 30
0.0
 10
183.7900360342983
 20
204.6015279067562
 30
0.0
 10
183.5702457429023
 20
204.6238638129613
 30
0.0
 10
183.4267493219425
 20
204.6056888578078
 30
0.0
 10
183.3550011114626
 20
204.5966013802311
 30
0.0
 11
183.3550011114626
 21
204.5966013802311
 31
0.0
 11
183.1370858302926
 21
204.5400085101321
 31
0.0
 11
182.9314396886497
 21
204.4494309254217
 31
0.0
 11
182.7208713138269
 21
204.3179767566097
 31
0.0
 11
182.5292993677545
 21
204.1609192848316
 31
0.0
 11
182.334250391841
 21
203.960110203045
 31
0.0
 11
182.1602596568533
 21
203.7412563033481
 31
0.0
 11
181.9868785600229
 21
203.4786299368027
 31
0.0
 11
181.834548538715
 21
203.2035068765479
 31
0.0
 11
181.6878421458292
 21
202.8879235055711
 31
0.0
 11
181.561505311181
 21
202.5637868492235
 31
0.0
 11
181.4455466757548
 21
202.2053632887095
 31
0.0
 11
181.3491933050088
 21
201.8412582021177
 31
0.0
 11
181.2670936403519
 21
201.4511953054322
 31
0.0
 11
181.2039815331048
 21
201.0576570406405
 31
0.0
 11
181.157820083772
 21
200.6479697159348
 31
0.0
 11
181.1302581908674
 21
200.2366314545391
 31
0.0
 11
181.1210240716272
 21
199.819815648546
 31
0.0
 11
181.1302581908674
 21
199.402999842553
 31
0.0
 11
181.1578200837719
 21
198.9916615811574
 31
0.0
 11
181.2039815331047
 21
198.5819742564516
 31
0.0
 11
181.2670936403519
 21
198.1884359916598
 31
0.0
 11
181.3491933050088
 21
197.7983730949742
 31
0.0
 11
181.4455466757548
 21
197.4342680083825
 31
0.0
 11
181.561505311181
 21
197.0758444478685
 31
0.0
 11
181.6878421458292
 21
196.7517077915209
 31
0.0
 11
181.8345485387149
 21
196.4361244205441
 31
0.0
 11
181.9868785600228
 21
196.1610013602894
 31
0.0
 11
182.1602596568532
 21
195.8983749937439
 31
0.0
 11
182.334250391841
 21
195.679521094047
 31
0.0
 11
182.5292993677545
 21
195.4787120122604
 31
0.0
 11
182.7208713138268
 21
195.3216545404823
 31
0.0
 11
182.9314396886497
 21
195.1902003716704
 31
0.0
 11
183.1370858302927
 21
195.0996227869599
 31
0.0
 11
183.3550011114627
 21
195.043029916861
 31
0.0
 11
183.5705138144105
 21
195.0239841252334
 31
0.0
 11
183.7860265173583
 21
195.043029916861
 31
0.0
 11
184.0039417985284
 21
195.0996227869599
 31
0.0
 11
184.2095879401716
 21
195.1902003716703
 31
0.0
 11
184.4201563149946
 21
195.3216545404822
 31
0.0
 11
184.6117282610667
 21
195.4787120122604
 31
0.0
 11
184.80677723698
 21
195.6795210940471
 31
0.0
 11
184.9807679719678
 21
195.8983749937439
 31
0.0
 11
185.1541490687984
 21
196.1610013602893
 31
0.0
 11
185.3064790901062
 21
196.4361244205441
 31
0.0
 11
185.4531854829919
 21
196.7517077915208
 31
0.0
 11
185.5795223176402
 21
197.0758444478685
 31
0.0
 11
185.6954809530663
 21
197.4342680083824
 31
0.0
 11
185.7918343238123
 21
197.7983730949743
 31
0.0
 11
185.8739339884691
 21
198.1884359916598
 31
0.0
 11
185.9370460957163
 21
198.5819742564516
 31
0.0
 11
185.9832075450491
 21
198.9916615811573
 31
0.0
 11
186.0107694379536
 21
199.402999842553
 31
0.0
 11
186.0200035571937
 21
199.819815648546
 31
0.0
 11
186.0107694379536
 21
200.2366314545391
 31
0.0
 11
185.983207545049
 21
200.6479697159348
 31
0.0
 11
185.9370460957162
 21
201.0576570406404
 31
0.0
 11
185.8739339884691
 21
201.4511953054322
 31
0.0
 11
185.7918343238123
 21
201.8412582021177
 31
0.0
 11
185.6954809530663
 21
202.2053632887095
 31
0.0
 11
185.5795223176402
 21
202.5637868492235
 31
0.0
 11
185.4531854829919
 21
202.8879235055711
 31
0.0
 11
185.3064790901063
 21
203.2035068765478
 31
0.0
 11
185.1541490687984
 21
203.4786299368026
 31
0.0
 11
184.9807679719678
 21
203.741256303348
 31
0.0
 11
184.80677723698
 21
203.9601102030448
 31
0.0
 11
184.6117282610667
 21
204.1609192848314
 31
0.0
 11
184.4201563149946
 21
204.3179767566097
 31
0.0
 11
184.2095879401716
 21
204.4494309254216
 31
0.0
 11
184.0039417985284
 21
204.5400085101321
 31
0.0
 11
183.7860265173584
 21
204.5966013802311
 31
0.0
 11
183.5705138144106
 21
204.6156471718588
 31
0.0
 11
183.3550011114626
 21
204.5966013802311
 31
0.0
  0
SPLINE
  5
78
330
36
100
AcDbEntity
  8
1
  6
Continuous
 62
     7
100
AcDbSpline
210
0.0
220
0.0
230
1.0
 70
    11
 71
     3
 72
    79
 73
    75
 74
    73
 42
0.0000000001
 43
0.0000000001
 44
0.00000001
 40
0.0
 40
0.0
 40
0.0
 40
0.0
 40
0.2251440043915053
 40
0.4498541163682532
 40
0.698086344279154
 40
0.9458096979688907
 40
1.22575324644407
 40
1.505341882254083
 40
1.820037946962525
 40
2.134517093609205
 40
2.482533802619816
 40
2.830421094392828
 40
3.207135646622272
 40
3.58377404898738
 40
3.982383404506586
 40
4.38095021689375
 40
4.793229956183724
 40
5.205490581551407
 40
5.622408661135188
 40
6.039326740718854
 40
6.451587366086395
 40
6.863867105376458
 40
7.262433917763687
 40
7.661043273282976
 40
8.037681675648077
 40
8.414396227877495
 40
8.762283519650481
 40
9.11030022866108
 40
9.42477937530772
 40
9.739475440016225
 40
10.01906407582632
 40
10.2990076243014
 40
10.54673097799114
 40
10.79496320590204
 40
11.01967331787887
 40
11.24481732227031
 40
11.46116996799162
 40
11.6775226137129
 40
11.90266661810441
 40
12.12737673008141
 40
12.37560895799232
 40
12.62333231168194
 40
12.90327586015698
 40
13.18286449596699
 40
13.49756056067547
 40
13.81203970732218
 40
14.16005641633275
 40
14.50794370810578
 40
14.88465826033517
 40
15.26129666270031
 40
15.65990601821951
 40
16.05847283060675
 40
16.47075256989678
 40
16.88301319526438
 40
17.2999312748481
 40
17.71684935443182
 40
18.12910997979945
 40
18.54138971908942
 40
18.93995653147664
 40
19.33856588699582
 40
19.71520428936091
 40
20.09191884159036
 40
20.43980613336335
 40
20.78782284237391
 40
21.10230198902054
 40
21.41699805372909
 40
21.69658668953906
 40
21.97653023801408
 40
22.22425359170374
 40
22.47248581961464
 40
22.69719593159168
 40
22.92233993598324
 40
23.13869258170453
 40
23.35504522742585
 40
23.35504522742585
 40
23.35504522742585
 40
23.35504522742585
 10
203.720001113577
 20
204.5966013802311
 30
0.0
 10
203.7934361685358
 20
204.5802517101549
 30
0.0
 10
203.9401647560823
 20
204.5475838787156
 30
0.0
 10
204.153053098479
 20
204.4501535093708
 30
0.0
 10
204.3571859830813
 20
204.3225350058444
 30
0.0
 10
204.5569850149825
 20
204.1572320732063
 30
0.0
 10
204.7441371934511
 20
203.9631950350085
 30
0.0
 10
204.9251718770568
 20
203.7343376283874
 30
0.0
 10
205.0915311224026
 20
203.4807436859444
 30
0.0
 10
205.249016026298
 20
203.1953077580302
 30
0.0
 10
205.3904795002087
 20
202.8893666601568
 30
0.0
 10
205.5200871655168
 20
202.5559281646758
 30
0.0
 10
205.632668024929
 20
202.2063219353925
 30
0.0
 10
205.7307416537895
 20
201.8348986818218
 30
0.0
 10
205.8110318771595
 20
201.4517820822974
 30
0.0
 10
205.8747900451072
 20
201.0535563153478
 30
0.0
 10
205.9202484958761
 20
200.6482486046238
 30
0.0
 10
205.9479183072889
 20
200.2352183359402
 30
0.0
 10
205.9570250953961
 20
199.8198156485489
 30
0.0
 10
205.9479183072908
 20
199.4044129611403
 30
0.0
 10
205.9202484958692
 20
198.9913826925079
 30
0.0
 10
205.874790045133
 20
198.586074981599
 30
0.0
 10
205.8110318770665
 20
198.1878492153165
 30
0.0
 10
205.7307416541289
 20
197.8047326133658
 30
0.0
 10
205.6326680237396
 20
197.4333093683729
 30
0.0
 10
205.5200871698215
 20
197.0837031082648
 30
0.0
 10
205.3904794855014
 20
196.7502647194496
 30
0.0
 10
205.2490160791147
 20
196.4443232427392
 30
0.0
 10
205.0915309462297
 20
196.1588885995465
 30
0.0
 10
204.9251725061755
 20
195.9052901391033
 30
0.0
 10
204.7441351336304
 20
195.6764478184818
 30
0.0
 10
204.5569923680885
 20
195.4823579700936
 30
0.0
 10
204.3571620062458
 20
195.3172308106446
 30
0.0
 10
204.1531395502495
 20
195.1889927595769
 30
0.0
 10
203.9398756579161
 20
195.0936693718224
 30
0.0
 10
203.7239355573745
 20
195.0376822007329
 30
0.0
 10
203.5044884106292
 20
195.0172714698263
 30
0.0
 10
203.2850412638838
 20
195.0376822007329
 30
0.0
 10
203.0691011633421
 20
195.0936693718224
 30
0.0
 10
202.8558372710085
 20
195.1889927595769
 30
0.0
 10
202.6518148150123
 20
195.3172308106445
 30
0.0
 10
202.4519844531697
 20
195.4823579700937
 30
0.0
 10
202.2648416876281
 20
195.6764478184819
 30
0.0
 10
202.0838043150828
 20
195.9052901391033
 30
0.0
 10
201.9174458750286
 20
196.1588885995466
 30
0.0
 10
201.7599607421435
 20
196.4443232427392
 30
0.0
 10
201.618497335757
 20
196.7502647194495
 30
0.0
 10
201.4888896514368
 20
197.0837031082649
 30
0.0
 10
201.3763087975187
 20
197.4333093683729
 30
0.0
 10
201.2782351671294
 20
197.8047326133659
 30
0.0
 10
201.1979449441921
 20
198.1878492153165
 30
0.0
 10
201.1341867761254
 20
198.5860749815991
 30
0.0
 10
201.0887283253892
 20
198.9913826925077
 30
0.0
 10
201.0610585139676
 20
199.4044129611411
 30
0.0
 10
201.051951725863
 20
199.8198156485462
 30
0.0
 10
201.0610585139675
 20
200.2352183359502
 30
0.0
 10
201.0887283253898
 20
200.6482486045871
 30
0.0
 10
201.1341867761236
 20
201.0535563154827
 30
0.0
 10
201.1979449441985
 20
201.4517820818123
 30
0.0
 10
201.2782351671054
 20
201.8348986835921
 30
0.0
 10
201.3763087976024
 20
202.2063219291887
 30
0.0
 10
201.4888896511339
 20
202.5559281871279
 30
0.0
 10
201.6184973367917
 20
202.8893665834482
 30
0.0
 10
201.7599607384273
 20
203.1953080335032
 30
0.0
 10
201.9174458874242
 20
203.4807427670901
 30
0.0
 10
202.0838042708175
 20
203.7343409096426
 30
0.0
 10
202.2648418325589
 20
203.9631842917282
 30
0.0
 10
202.4519839357986
 20
204.1572704243451
 30
0.0
 10
202.6518165020435
 20
204.3224099513504
 30
0.0
 10
202.855831188186
 20
204.4506044105086
 30
0.0
 10
203.0691215045431
 20
204.5460760473391
 30
0.0
 10
203.2849661907414
 20
204.6015279067561
 30
0.0
 10
203.5047564821373
 20
204.6238638129614
 30
0.0
 10
203.6482529030971
 20
204.6056888578078
 30
0.0
 10
203.720001113577
 20
204.5966013802311
 30
0.0
 11
203.720001113577
 21
204.5966013802311
 31
0.0
 11
203.937916394747
 21
204.5400085101321
 31
0.0
 11
204.1435625363899
 21
204.4494309254217
 31
0.0
 11
204.3541309112129
 21
204.3179767566097
 31
0.0
 11
204.5457028572852
 21
204.1609192848316
 31
0.0
 11
204.7407518331987
 21
203.960110203045
 31
0.0
 11
204.9147425681865
 21
203.7412563033481
 31
0.0
 11
205.0881236650169
 21
203.4786299368027
 31
0.0
 11
205.2404536863247
 21
203.2035068765479
 31
0.0
 11
205.3871600792105
 21
202.8879235055711
 31
0.0
 11
205.5134969138587
 21
202.5637868492235
 31
0.0
 11
205.6294555492848
 21
202.2053632887095
 31
0.0
 11
205.7258089200309
 21
201.8412582021177
 31
0.0
 11
205.8079085846878
 21
201.4511953054322
 31
0.0
 11
205.8710206919349
 21
201.0576570406405
 31
0.0
 11
205.9171821412677
 21
200.6479697159348
 31
0.0
 11
205.9447440341723
 21
200.2366314545391
 31
0.0
 11
205.9539781534125
 21
199.819815648546
 31
0.0
 11
205.9447440341724
 21
199.402999842553
 31
0.0
 11
205.9171821412678
 21
198.9916615811574
 31
0.0
 11
205.871020691935
 21
198.5819742564516
 31
0.0
 11
205.8079085846878
 21
198.1884359916598
 31
0.0
 11
205.7258089200309
 21
197.7983730949742
 31
0.0
 11
205.6294555492849
 21
197.4342680083825
 31
0.0
 11
205.5134969138588
 21
197.0758444478685
 31
0.0
 11
205.3871600792105
 21
196.7517077915209
 31
0.0
 11
205.2404536863248
 21
196.4361244205441
 31
0.0
 11
205.088123665017
 21
196.1610013602894
 31
0.0
 11
204.9147425681865
 21
195.8983749937439
 31
0.0
 11
204.7407518331987
 21
195.679521094047
 31
0.0
 11
204.5457028572853
 21
195.4787120122604
 31
0.0
 11
204.3541309112129
 21
195.3216545404823
 31
0.0
 11
204.14356253639
 21
195.1902003716704
 31
0.0
 11
203.9379163947469
 21
195.0996227869599
 31
0.0
 11
203.720001113577
 21
195.043029916861
 31
0.0
 11
203.5044884106291
 21
195.0239841252334
 31
0.0
 11
203.2889757076813
 21
195.043029916861
 31
0.0
 11
203.0710604265113
 21
195.0996227869599
 31
0.0
 11
202.8654142848681
 21
195.1902003716703
 31
0.0
 11
202.6548459100451
 21
195.3216545404822
 31
0.0
 11
202.4632739639729
 21
195.4787120122604
 31
0.0
 11
202.2682249880597
 21
195.6795210940471
 31
0.0
 11
202.0942342530719
 21
195.8983749937439
 31
0.0
 11
201.9208531562414
 21
196.1610013602893
 31
0.0
 11
201.7685231349335
 21
196.4361244205441
 31
0.0
 11
201.6218167420478
 21
196.7517077915208
 31
0.0
 11
201.4954799073995
 21
197.0758444478685
 31
0.0
 11
201.3795212719734
 21
197.4342680083824
 31
0.0
 11
201.2831679012274
 21
197.7983730949743
 31
0.0
 11
201.2010682365707
 21
198.1884359916598
 31
0.0
 11
201.1379561293235
 21
198.5819742564516
 31
0.0
 11
201.0917946799906
 21
198.9916615811573
 31
0.0
 11
201.0642327870861
 21
199.402999842553
 31
0.0
 11
201.054998667846
 21
199.819815648546
 31
0.0
 11
201.0642327870862
 21
200.2366314545391
 31
0.0
 11
201.0917946799907
 21
200.6479697159348
 31
0.0
 11
201.1379561293235
 21
201.0576570406404
 31
0.0
 11
201.2010682365706
 21
201.4511953054322
 31
0.0
 11
201.2831679012274
 21
201.8412582021177
 31
0.0
 11
201.3795212719734
 21
202.2053632887095
 31
0.0
 11
201.4954799073995
 21
202.5637868492235
 31
0.0
 11
201.6218167420478
 21
202.8879235055711
 31
0.0
 11
201.7685231349335
 21
203.2035068765478
 31
0.0
 11
201.9208531562413
 21
203.4786299368026
 31
0.0
 11
202.0942342530719
 21
203.741256303348
 31
0.0
 11
202.2682249880597
 21
203.9601102030448
 31
0.0
 11
202.4632739639729
 21
204.1609192848314
 31
0.0
 11
202.6548459100451
 21
204.3179767566097
 31
0.0
 11
202.865414284868
 21
204.4494309254216
 31
0.0
 11
203.0710604265113
 21
204.5400085101321
 31
0.0
 11
203.2889757076813
 21
204.5966013802311
 31
0.0
 11
203.5044884106291
 21
204.6156471718588
 31
0.0
 11
203.720001113577
 21
204.5966013802311
 31
0.0
  0
ENDBLK
  5
38
330
36
100
AcDbEntity
  8
0
100
AcDbBlockEnd
  0
BLOCK
  5
3A
330
39
100
AcDbEntity
  8
0
100
AcDbBlockBegin
  2
37-1-13
 70
     0
 71
     0
 10
1654.710563554359
 20
-358.5466441246866
 30
0.0
  3
37-1-13
  1

  0
LINE
  5
79
330
39
100
AcDbEntity
  8
1
  6
Continuous
 62
     7
100
AcDbLine
 10
82.87011900324853
 20
286.9999999999999
 30
0.0
 11
92.82395495552737
 21
286.9999999999999
 31
0.0
  0
LINE
  5
7A
330
39
100
AcDbEntity
  8
1
  6
Continuous
 62
     7
100
AcDbLine
 10
66.82395495552737
 20
280.2372492387566
 30
0.0
 11
66.82395495552737
 21
286.9999999999999
 31
0.0
  0
LINE
  5
7B
330
39
100
AcDbEntity
  8
1
  6
Continuous
 62
     7
100
AcDbLine
 10
66.82395495552737
 20
286.9999999999999
 30
0.0
 11
82.87011900324853
 21
286.9999999999999
 31
0.0
  0
LINE
  5
7C
330
39
100
AcDbEntity
  8
1
  6
Continuous
 62
     7
100
AcDbLine
 10
92.82395495552737
 20
280.2371386014912
 30
0.0
 11
92.82395495552737
 21
286.9999999999999
 31
0.0
  0
LINE
  5
7D
330
39
100
AcDbEntity
  8
1
  6
Continuous
 62
     7
100
AcDbLine
 10
92.32395495552703
 20
279.4999999999999
 30
0.0
 11
79.82395495552703
 21
279.4999999999999
 31
0.0
  0
LINE
  5
7E
330
39
100
AcDbEntity
  8
1
  6
Continuous
 62
     7
100
AcDbLine
 10
79.82395495552703
 20
279.4999999999999
 30
0.0
 11
67.32395495552737
 21
279.4999999999999
 31
0.0
  0
LINE
  5
7F
330
39
100
AcDbEntity
  8
1
  6
Continuous
 62
     7
100
AcDbLine
 10
92.82395495552737
 20
279.9292857857287
 30
0.0
 11
92.82395495552737
 21
280.2371386014912
 31
0.0
  0
LINE
  5
80
330
39
100
AcDbEntity
  8
1
  6
Continuous
 62
     7
100
AcDbLine
 10
66.82395495552737
 20
279.9292857857282
 30
0.0
 11
66.82395495552737
 21
280.2372492387566
 31
0.0
  0
LINE
  5
81
330
39
100
AcDbEntity
  8
1
  6
Continuous
 62
     7
100
AcDbLine
 10
85.82395495552703
 20
272.9999999999999
 30
0.0
 11
73.82395495552703
 21
272.9999999999999
 31
0.0
  0
LINE
  5
82
330
39
100
AcDbEntity
  8
1
  6
Continuous
 62
     7
100
AcDbLine
 10
177.0375011125199
 20
156.2491014342745
 30
0.0
 11
177.0375011125199
 21
182.3905298628174
 31
0.0
  0
LINE
  5
83
330
39
100
AcDbEntity
  8
0
  6
Continuous
 62
     7
100
AcDbLine
 10
169.9667868982484
 20
164.4744688696491
 30
0.0
 11
169.9667868982484
 21
160.644532842002
 31
0.0
  0
LINE
  5
84
330
39
100
AcDbEntity
  8
0
  6
Continuous
 62
     7
100
AcDbLine
 10
169.9667868982484
 20
177.9950984550899
 30
0.0
 11
169.9667868982484
 21
174.1651624274428
 31
0.0
  0
LINE
  5
85
330
39
100
AcDbEntity
  8
1
  6
Continuous
 62
     7
100
AcDbLine
 10
163.0375011125199
 20
175.3198156485459
 30
0.0
 11
163.0375011125199
 21
163.319815648546
 31
0.0
  0
LINE
  5
86
330
39
100
AcDbEntity
  8
1
  6
Continuous
 62
     7
100
AcDbLine
 10
66.8240925480319
 20
169.3198156485459
 30
0.0
 11
66.8240925480319
 21
175.7424319378784
 31
0.0
  0
LINE
  5
87
330
39
100
AcDbEntity
  8
1
  6
Continuous
 62
     7
100
AcDbLine
 10
67.76194368271024
 20
177.3668377530773
 30
0.0
 11
73.3240925480319
 21
180.5781458977435
 31
0.0
  0
LINE
  5
88
330
39
100
AcDbEntity
  8
1
  6
Continuous
 62
     7
100
AcDbLine
 10
73.3240925480319
 20
180.5781458977435
 30
0.0
 11
78.88624141335356
 21
183.7894540424098
 31
0.0
  0
LINE
  5
89
330
39
100
AcDbEntity
  8
1
  6
Continuous
 62
     7
100
AcDbLine
 10
80.76194368271024
 20
183.7894540424098
 30
0.0
 11
86.32409254803213
 21
180.5781458977436
 31
0.0
  0
LINE
  5
8A
330
39
100
AcDbEntity
  8
1
  6
Continuous
 62
     7
100
AcDbLine
 10
86.32409254803213
 20
180.5781458977436
 30
0.0
 11
91.88624141335356
 21
177.3668377530773
 31
0.0
  0
LINE
  5
8B
330
39
100
AcDbEntity
  8
1
  6
Continuous
 62
     7
100
AcDbLine
 10
92.8240925480319
 20
175.7424319378784
 30
0.0
 11
92.82409254803213
 21
169.3198156485459
 31
0.0
  0
LINE
  5
8C
330
39
100
AcDbEntity
  8
1
  6
Continuous
 62
     7
100
AcDbLine
 10
92.82409254803213
 20
169.3198156485459
 30
0.0
 11
92.8240925480319
 21
162.8971993592133
 31
0.0
  0
LINE
  5
8D
330
39
100
AcDbEntity
  8
1
  6
Continuous
 62
     7
100
AcDbLine
 10
91.88624141335356
 20
161.2727935440144
 30
0.0
 11
86.32409254803213
 21
158.0614853993482
 31
0.0
  0
LINE
  5
8E
330
39
100
AcDbEntity
  8
1
  6
Continuous
 62
     7
100
AcDbLine
 10
86.32409254803213
 20
158.0614853993482
 30
0.0
 11
80.76194368271024
 21
154.8501772546818
 31
0.0
  0
LINE
  5
8F
330
39
100
AcDbEntity
  8
1
  6
Continuous
 62
     7
100
AcDbLine
 10
78.88624141335356
 20
154.8501772546819
 30
0.0
 11
73.32409254803213
 21
158.0614853993482
 31
0.0
  0
LINE
  5
90
330
39
100
AcDbEntity
  8
1
  6
Continuous
 62
     7
100
AcDbLine
 10
73.32409254803213
 20
158.0614853993482
 30
0.0
 11
67.76194368271024
 21
161.2727935440144
 31
0.0
  0
LINE
  5
91
330
39
100
AcDbEntity
  8
1
  6
Continuous
 62
     7
100
AcDbLine
 10
66.8240925480319
 20
162.8971993592132
 30
0.0
 11
66.8240925480319
 21
169.3198156485459
 31
0.0
  0
ARC
  5
92
330
39
100
AcDbEntity
  8
1
  6
Continuous
 62
     7
100
AcDbCircle
 10
89.32395495552703
 20
283.4999999999999
 30
0.0
 40
5.0
100
AcDbArc
 50
-53.13010235415598
 51
-45.57299599918941
  0
ARC
  5
93
330
39
100
AcDbEntity
  8
1
  6
Continuous
 62
     7
100
AcDbCircle
 10
70.32395495552703
 20
283.4999999999999
 30
0.0
 40
4.99999999999994
100
AcDbArc
 50
-134.4270040008009
 51
-126.8698976458409
  0
ARC
  5
94
330
39
100
AcDbEntity
  8
1
  6
Continuous
 62
     7
100
AcDbCircle
 10
53.91749975041228
 20
259.5935447948849
 30
0.0
 40
23.99999999999989
100
AcDbArc
 50
33.95919250009785
 51
56.04080749990226
  0
ARC
  5
95
330
39
100
AcDbEntity
  8
1
  6
Continuous
 62
     7
100
AcDbCircle
 10
105.7304101606421
 20
259.5935447948849
 30
0.0
 40
24.00000000000013
100
AcDbArc
 50
123.9591925000977
 51
146.0408074999026
  0
ARC
  5
96
330
39
100
AcDbEntity
  8
1
  6
Continuous
 62
     7
100
AcDbCircle
 10
149.6310459074049
 20
195.2262708536608
 30
0.0
 40
24.00000000000001
100
AcDbArc
 50
-56.04080749990236
 51
-33.95919250009754
  0
ARC
  5
97
330
39
100
AcDbEntity
  8
1
  6
Continuous
 62
     7
100
AcDbCircle
 10
173.5375011125199
 20
178.8198156485459
 30
0.0
 40
5.000000000000057
100
AcDbArc
 50
45.57299599919494
 51
143.1301023541568
  0
ARC
  5
98
330
39
100
AcDbEntity
  8
1
  6
Continuous
 62
     7
100
AcDbCircle
 10
173.5375011125199
 20
159.8198156485459
 30
0.0
 40
4.999999999999881
100
AcDbArc
 50
-143.1301023541578
 51
-45.57299599919402
  0
ARC
  5
99
330
39
100
AcDbEntity
  8
1
  6
Continuous
 62
     7
100
AcDbCircle
 10
149.6310459074049
 20
143.4133604434311
 30
0.0
 40
24.0000000000001
100
AcDbArc
 50
33.95919250009759
 51
56.04080749990239
  0
ARC
  5
9A
330
39
100
AcDbEntity
  8
1
  6
Continuous
 62
     7
100
AcDbCircle
 10
79.82409254803213
 20
169.3198156485458
 30
0.0
 40
14.50000000000016
100
AcDbArc
 50
146.2915552747294
 51
149.9999999999998
  0
ARC
  5
9B
330
39
100
AcDbEntity
  8
1
  6
Continuous
 62
     7
100
AcDbCircle
 10
79.82409254803213
 20
169.3198156485458
 30
0.0
 40
14.50000000000031
100
AcDbArc
 50
149.9999999999998
 51
153.708444725271
  0
ARC
  5
9C
330
39
100
AcDbEntity
  8
1
  6
Continuous
 62
     7
100
AcDbCircle
 10
79.82409254803213
 20
169.3198156485458
 30
0.0
 40
14.5
100
AcDbArc
 50
86.29155527472992
 51
93.70844472527188
  0
ARC
  5
9D
330
39
100
AcDbEntity
  8
1
  6
Continuous
 62
     7
100
AcDbCircle
 10
79.82409254803213
 20
169.3198156485458
 30
0.0
 40
14.4999999999998
100
AcDbArc
 50
26.29155527472982
 51
33.70844472527156
  0
ARC
  5
9E
330
39
100
AcDbEntity
  8
1
  6
Continuous
 62
     7
100
AcDbCircle
 10
79.82409254803213
 20
169.3198156485458
 30
0.0
 40
14.49999999999977
100
AcDbArc
 50
-30.00000000000014
 51
-26.29155527472962
  0
ARC
  5
9F
330
39
100
AcDbEntity
  8
1
  6
Continuous
 62
     7
100
AcDbCircle
 10
79.82409254803213
 20
169.3198156485458
 30
0.0
 40
14.49999999999973
100
AcDbArc
 50
-33.70844472527128
 51
-30.00000000000014
  0
ARC
  5
A0
330
39
100
AcDbEntity
  8
1
  6
Continuous
 62
     7
100
AcDbCircle
 10
79.82409254803213
 20
169.3198156485458
 30
0.0
 40
14.49999999999994
100
AcDbArc
 50
-93.7084447252719
 51
-86.29155527472993
  0
ARC
  5
A1
330
39
100
AcDbEntity
  8
1
  6
Continuous
 62
     7
100
AcDbCircle
 10
79.82409254803213
 20
169.3198156485458
 30
0.0
 40
14.50000000000022
100
AcDbArc
 50
-153.7084447252709
 51
-146.2915552747297
  0
ARC
  5
A2
330
39
100
AcDbEntity
  8
1
  6
Continuous
 62
     7
100
AcDbCircle
 10
79.82409254803213
 20
169.3198156485458
 30
0.0
 40
13.00000000000023
100
AcDbArc
 50
179.9999999999996
 51
-120.0000000000002
  0
ARC
  5
A3
330
39
100
AcDbEntity
  8
1
  6
Continuous
 62
     7
100
AcDbCircle
 10
79.82409254803213
 20
169.3198156485458
 30
0.0
 40
13.0000000000001
100
AcDbArc
 50
120.0000000000009
 51
179.9999999999996
  0
ARC
  5
A4
330
39
100
AcDbEntity
  8
1
  6
Continuous
 62
     7
100
AcDbCircle
 10
79.82409254803213
 20
169.3198156485458
 30
0.0
 40
13.00000000000008
100
AcDbArc
 50
60.00000000000021
 51
120.0000000000009
  0
ARC
  5
A5
330
39
100
AcDbEntity
  8
1
  6
Continuous
 62
     7
100
AcDbCircle
 10
79.82409254803213
 20
169.3198156485458
 30
0.0
 40
13.0
100
AcDbArc
 50
0.00000000000038
 51
60.00000000000021
  0
ARC
  5
A6
330
39
100
AcDbEntity
  8
1
  6
Continuous
 62
     7
100
AcDbCircle
 10
79.82409254803213
 20
169.3198156485458
 30
0.0
 40
12.99999999999993
100
AcDbArc
 50
-59.99999999999983
 51
0.00000000000038
  0
ARC
  5
A7
330
39
100
AcDbEntity
  8
1
  6
Continuous
 62
     7
100
AcDbCircle
 10
79.82409254803213
 20
169.3198156485458
 30
0.0
 40
12.99999999999993
100
AcDbArc
 50
-120.0000000000002
 51
-59.99999999999983
  0
CIRCLE
  5
A8
330
39
100
AcDbEntity
  8
1
  6
Continuous
 62
     7
100
AcDbCircle
 10
79.82409254803213
 20
169.3198156485458
 30
0.0
 40
5.999999999999859
  0
CIRCLE
  5
A9
330
39
100
AcDbEntity
  8
1
  6
Continuous
 62
     7
100
AcDbCircle
 10
79.82409254803213
 20
169.3198156485458
 30
0.0
 40
4.999999999999973
  0
SPLINE
  5
AA
330
39
100
AcDbEntity
  8
1
  6
Continuous
 62
     7
100
AcDbSpline
210
0.0
220
0.0
230
1.0
 70
    11
 71
     3
 72
    79
 73
    75
 74
    73
 42
0.0000000001
 43
0.0000000001
 44
0.00000001
 40
0.0
 40
0.0
 40
0.0
 40
0.0
 40
0.3142650659704714
 40
0.6282865583858983
 40
0.9611940750940102
 40
1.293759071488997
 40
1.653345631090425
 40
2.012624930760367
 40
2.402527484666658
 40
2.792202156791248
 40
3.212046604561896
 40
3.631735870026409
 40
4.077938487430273
 40
4.524041249095167
 40
4.990653914337218
 40
5.457207554045659
 40
5.936678586743354
 40
6.416122255863936
 40
6.89997196015101
 40
7.383821664438084
 40
7.863265333558638
 40
8.342736366256291
 40
8.809290005964895
 40
9.275902671207097
 40
9.722005432871992
 40
10.16820805027584
 40
10.58789731574028
 40
11.0077417635108
 40
11.39741643563536
 40
11.78731898954158
 40
12.14659828921157
 40
12.50618484881292
 40
12.83874984520799
 40
13.1716573619161
 40
13.48567885433151
 40
13.79994392030193
 40
14.10737582563197
 40
14.414807730962
 40
14.72907279693253
 40
15.04309428934797
 40
15.37600180605604
 40
15.70856680245099
 40
16.06815336205236
 40
16.42743266172232
 40
16.81733521562859
 40
17.20700988775321
 40
17.62685433552376
 40
18.04654360098816
 40
18.492746218392
 40
18.9388489800569
 40
19.40546164529913
 40
19.87201528500775
 40
20.35148631770538
 40
20.83092998682593
 40
21.314779691113
 40
21.79862939540008
 40
22.27807306452067
 40
22.75754409721835
 40
23.22409773692679
 40
23.69071040216888
 40
24.13681316383377
 40
24.58301578123765
 40
25.00270504670212
 40
25.42254949447275
 40
25.81222416659734
 40
26.2021267205036
 40
26.56140602017358
 40
26.92099257977498
 40
27.25355757616998
 40
27.5864650928781
 40
27.90048658529361
 40
28.21475165126412
 40
28.52218355659416
 40
28.82961546192408
 40
28.82961546192408
 40
28.82961546192408
 40
28.82961546192408
 10
80.78349720637826
 20
283.1934854642682
 30
0.0
 10
80.80208974205684
 20
283.0902180857137
 30
0.0
 10
80.83926040312629
 20
282.8837633667802
 30
0.0
 10
80.95020706000874
 20
282.5816911609745
 30
0.0
 10
81.09727209462058
 20
282.2895089148033
 30
0.0
 10
81.28742700431921
 20
282.0046666760674
 30
0.0
 10
81.51256175999394
 20
281.7352377206341
 30
0.0
 10
81.77719805006075
 20
281.4764515330127
 30
0.0
 10
82.07225811806941
 20
281.2367846017023
 30
0.0
 10
82.40302426511232
 20
281.0114561478128
 30
0.0
 10
82.759091334316
 20
280.8079017269092
 30
0.0
 10
83.14582442338195
 20
280.6224175369
 30
0.0
 10
83.55249761019631
 20
280.4606546212409
 30
0.0
 10
83.98347376560894
 20
280.320293179639
 30
0.0
 10
84.42884720158783
 20
280.2050552250125
 30
0.0
 10
84.89106006596025
 20
280.1138058664403
 30
0.0
 10
85.36197844851346
 20
280.0486012047341
 30
0.0
 10
85.84150988596461
 20
280.0090124612249
 30
0.0
 10
86.32395495552488
 20
279.9959274420591
 30
0.0
 10
86.80640002510025
 20
280.0090124612237
 30
0.0
 10
87.28593146250634
 20
280.048601204739
 30
0.0
 10
87.75684984522307
 20
280.113805866422
 30
0.0
 10
88.21906270900182
 20
280.2050552250787
 30
0.0
 10
88.66443614715175
 20
280.3202931793971
 30
0.0
 10
89.09541229480286
 20
280.4606546220994
 30
0.0
 10
89.50208550974504
 20
280.6224175337712
 30
0.0
 10
89.88881849977533
 20
280.8079017378187
 30
0.0
 10
90.24488592514095
 20
281.0114561082372
 30
0.0
 10
90.57565083363789
 20
281.2367847376871
 30
0.0
 10
90.87071533345009
 20
281.4764510408016
 30
0.0
 10
91.13533631335884
 20
281.7352393985952
 30
0.0
 10
91.3605258414603
 20
282.00466059019
 30
0.0
 10
91.55049083862522
 20
282.2895297484967
 30
0.0
 10
91.69824025331204
 20
282.5816149857055
 30
0.0
 10
91.80676923871201
 20
282.8840298896851
 30
0.0
 10
91.87098089153047
 20
283.1902517650424
 30
0.0
 10
91.89358217636499
 20
283.5001511974273
 30
0.0
 10
91.87098089153049
 20
283.8100506298123
 30
0.0
 10
91.80676923871209
 20
284.1162725051697
 30
0.0
 10
91.69824025331199
 20
284.4186874091492
 30
0.0
 10
91.55049083862519
 20
284.710772646358
 30
0.0
 10
91.3605258414602
 20
284.9956418046646
 30
0.0
 10
91.13533631335892
 20
285.2650629962596
 30
0.0
 10
90.87071533345009
 20
285.523851354053
 30
0.0
 10
90.57565083363799
 20
285.7635176571677
 30
0.0
 10
90.24488592514096
 20
285.9888462866176
 30
0.0
 10
89.88881849977538
 20
286.1924006570362
 30
0.0
 10
89.50208550974502
 20
286.3778848610835
 30
0.0
 10
89.09541229480284
 20
286.5396477727553
 30
0.0
 10
88.66443614715172
 20
286.6800092154576
 30
0.0
 10
88.21906270900183
 20
286.7952471697761
 30
0.0
 10
87.75684984522306
 20
286.8864965284329
 30
0.0
 10
87.28593146250651
 20
286.9517011901158
 30
0.0
 10
86.80640002509961
 20
286.991289933631
 30
0.0
 10
86.32395495552721
 20
287.0043749527952
 30
0.0
 10
85.84150988595587
 20
286.9912899336312
 30
0.0
 10
85.3619784485458
 20
286.9517011901155
 30
0.0
 10
84.89106006584086
 20
286.8864965284342
 30
0.0
 10
84.42884720202
 20
286.7952471697716
 30
0.0
 10
83.98347376402442
 20
286.6800092154747
 30
0.0
 10
83.55249761582221
 20
286.5396477726941
 30
0.0
 10
83.1458244028772
 20
286.3778848613056
 30
0.0
 10
82.75909140581491
 20
286.1924006562616
 30
0.0
 10
82.40302400573778
 20
285.9888462894276
 30
0.0
 10
82.07225900930045
 20
285.7635176475123
 30
0.0
 10
81.77719482415904
 20
285.5238513890014
 30
0.0
 10
81.51257275718545
 20
285.2650628771194
 30
0.0
 10
81.28738711808212
 20
284.9956422367794
 30
0.0
 10
81.09740863658723
 20
284.7107711671064
 30
0.0
 10
80.94970781483139
 20
284.4186928178099
 30
0.0
 10
80.84100716788224
 20
284.1162535812856
 30
0.0
 10
80.77742408329756
 20
283.8101208037181
 30
0.0
 10
80.75252459292651
 20
283.4998956071233
 30
0.0
 10
80.77317300189432
 20
283.2956221785532
 30
0.0
 10
80.78349720637827
 20
283.1934854642682
 30
0.0
 11
80.78349720637826
 21
283.1934854642682
 31
0.0
 11
80.84811913143325
 21
282.8859362186317
 31
0.0
 11
80.95331909062449
 21
282.5900604570611
 31
0.0
 11
81.10321275759704
 21
282.2928075289304
 31
0.0
 11
81.28698690414923
 21
282.0156315200728
 31
0.0
 11
81.51704401532109
 21
281.7392690417129
 31
0.0
 11
81.77340535398241
 21
281.4875539662583
 31
0.0
 11
82.0755712353902
 21
281.2411401240016
 31
0.0
 11
82.39731170339996
 21
281.0213005885667
 31
0.0
 11
82.76147008569657
 21
280.8123555409418
 31
0.0
 11
83.13971659618311
 21
280.6305076461206
 31
0.0
 11
83.55413082182075
 21
280.4651062393333
 31
0.0
 11
83.97822477853825
 21
280.3267155249022
 31
0.0
 11
84.42986793862646
 21
280.2094728905501
 31
0.0
 11
84.88756104758177
 21
280.1189780468295
 31
0.0
 11
85.36246923133362
 21
280.0529879854436
 31
0.0
 11
85.84028591658009
 21
280.0135234803804
 31
0.0
 11
86.3239549555274
 21
280.0003023948549
 31
0.0
 11
86.80762399447471
 21
280.0135234803804
 31
0.0
 11
87.28544067972115
 21
280.0529879854436
 31
0.0
 11
87.76034886347296
 21
280.1189780468295
 31
0.0
 11
88.21804197242842
 21
280.2094728905502
 31
0.0
 11
88.6696851325168
 21
280.3267155249022
 31
0.0
 11
89.0937790892343
 21
280.4651062393333
 31
0.0
 11
89.50819331487193
 21
280.6305076461206
 31
0.0
 11
89.88643982535835
 21
280.8123555409418
 31
0.0
 11
90.25059820765485
 21
281.0213005885667
 31
0.0
 11
90.57233867566458
 21
281.2411401240016
 31
0.0
 11
90.87450455707241
 21
281.4875539662581
 31
0.0
 11
91.13086589573381
 21
281.7392690417127
 31
0.0
 11
91.36092300690561
 21
282.0156315200726
 31
0.0
 11
91.54469715345769
 21
282.2928075289303
 31
0.0
 11
91.69459082043014
 21
282.5900604570611
 31
0.0
 11
91.79979077962132
 21
282.8859362186317
 31
0.0
 11
91.86441270467631
 21
283.1934854642682
 31
0.0
 11
91.88610382084903
 21
283.5001511974273
 31
0.0
 11
91.86441270467635
 21
283.8068169305865
 31
0.0
 11
91.79979077962136
 21
284.1143661762231
 31
0.0
 11
91.69459082043008
 21
284.4102419377937
 31
0.0
 11
91.54469715345763
 21
284.7074948659244
 31
0.0
 11
91.36092300690558
 21
284.984670874782
 31
0.0
 11
91.13086589573381
 21
285.261033353142
 31
0.0
 11
90.87450455707247
 21
285.5127484285965
 31
0.0
 11
90.57233867566467
 21
285.7591622708532
 31
0.0
 11
90.25059820765486
 21
285.9790018062881
 31
0.0
 11
89.88643982535837
 21
286.187946853913
 31
0.0
 11
89.50819331487193
 21
286.3697947487341
 31
0.0
 11
89.09377908923429
 21
286.5351961555214
 31
0.0
 11
88.6696851325168
 21
286.6735868699525
 31
0.0
 11
88.21804197242842
 21
286.7908295043047
 31
0.0
 11
87.76034886347296
 21
286.8813243480254
 31
0.0
 11
87.28544067972115
 21
286.9473144094112
 31
0.0
 11
86.80762399447471
 21
286.9867789144743
 31
0.0
 11
86.3239549555274
 21
286.9999999999998
 31
0.0
 11
85.84028591658009
 21
286.9867789144743
 31
0.0
 11
85.36246923133361
 21
286.9473144094112
 31
0.0
 11
84.88756104758176
 21
286.8813243480254
 31
0.0
 11
84.42986793862646
 21
286.7908295043047
 31
0.0
 11
83.97822477853825
 21
286.6735868699524
 31
0.0
 11
83.55413082182078
 21
286.5351961555213
 31
0.0
 11
83.13971659618309
 21
286.3697947487341
 31
0.0
 11
82.76147008569656
 21
286.187946853913
 31
0.0
 11
82.39731170339996
 21
285.9790018062881
 31
0.0
 11
82.0755712353902
 21
285.7591622708532
 31
0.0
 11
81.77340535398241
 21
285.5127484285965
 31
0.0
 11
81.51704401532103
 21
285.261033353142
 31
0.0
 11
81.28698690414922
 21
284.984670874782
 31
0.0
 11
81.10321275759709
 21
284.7074948659244
 31
0.0
 11
80.95331909062452
 21
284.4102419377937
 31
0.0
 11
80.84811913143321
 21
284.114366176223
 31
0.0
 11
80.78349720637826
 21
283.8068169305864
 31
0.0
 11
80.7618060902056
 21
283.5001511974273
 31
0.0
 11
80.78349720637827
 21
283.1934854642682
 31
0.0
  0
SPLINE
  5
AB
330
39
100
AcDbEntity
  8
1
  6
Continuous
 62
     7
100
AcDbSpline
210
0.0
220
0.0
230
1.0
 70
    11
 71
     3
 72
    79
 73
    75
 74
    73
 42
0.0000000001
 43
0.0000000001
 44
0.00000001
 40
0.0
 40
0.0
 40
0.0
 40
0.0
 40
0.3142650659704656
 40
0.628286558385902
 40
0.9611940750940138
 40
1.293759071489001
 40
1.653345631090428
 40
2.012624930760371
 40
2.402527484666651
 40
2.792202156791241
 40
3.212046604561889
 40
3.631735870026402
 40
4.077938487430253
 40
4.524041249095161
 40
4.990653914337212
 40
5.457207554045652
 40
5.936678586743348
 40
6.41612225586393
 40
6.899971960151018
 40
7.383821664438078
 40
7.863265333558632
 40
8.342736366256299
 40
8.809290005964902
 40
9.27590267120709
 40
9.722005432871985
 40
10.16820805027582
 40
10.58789731574027
 40
11.00774176351079
 40
11.39741643563537
 40
11.78731898954159
 40
12.14659828921158
 40
12.50618484881292
 40
12.838749845208
 40
13.1716573619161
 40
13.48567885433151
 40
13.79994392030192
 40
14.10737582563196
 40
14.414807730962
 40
14.72907279693253
 40
15.04309428934795
 40
15.37600180605603
 40
15.70856680245099
 40
16.06815336205236
 40
16.42743266172231
 40
16.81733521562859
 40
17.20700988775321
 40
17.62685433552374
 40
18.04654360098816
 40
18.492746218392
 40
18.9388489800569
 40
19.40546164529913
 40
19.87201528500773
 40
20.35148631770538
 40
20.83092998682593
 40
21.314779691113
 40
21.79862939540007
 40
22.27807306452066
 40
22.75754409721835
 40
23.2240977369268
 40
23.69071040216888
 40
24.13681316383377
 40
24.58301578123764
 40
25.00270504670213
 40
25.42254949447275
 40
25.81222416659734
 40
26.20212672050361
 40
26.56140602017358
 40
26.92099257977498
 40
27.25355757616998
 40
27.5864650928781
 40
27.9004865852936
 40
28.21475165126412
 40
28.52218355659416
 40
28.82961546192408
 40
28.82961546192408
 40
28.82961546192408
 40
28.82961546192408
 10
78.86468788968618
 20
283.1934854642682
 30
0.0
 10
78.84609535400763
 20
283.0902180857137
 30
0.0
 10
78.80892469293821
 20
282.8837633667802
 30
0.0
 10
78.6979780360557
 20
282.5816911609743
 30
0.0
 10
78.55091300144383
 20
282.2895089148033
 30
0.0
 10
78.36075809174524
 20
282.0046666760673
 30
0.0
 10
78.13562333607047
 20
281.7352377206342
 30
0.0
 10
77.87098704600369
 20
281.4764515330127
 30
0.0
 10
77.57592697799504
 20
281.2367846017023
 30
0.0
 10
77.24516083095213
 20
281.0114561478128
 30
0.0
 10
76.88909376174846
 20
280.8079017269092
 30
0.0
 10
76.50236067268249
 20
280.6224175368999
 30
0.0
 10
76.09568748586814
 20
280.460654621241
 30
0.0
 10
75.66471133045553
 20
280.320293179639
 30
0.0
 10
75.2193378944766
 20
280.2050552250126
 30
0.0
 10
74.75712503010422
 20
280.1138058664403
 30
0.0
 10
74.28620664755103
 20
280.0486012047341
 30
0.0
 10
73.80667521009981
 20
280.009012461225
 30
0.0
 10
73.32423014053958
 20
279.995927442059
 30
0.0
 10
72.84178507096421
 20
280.0090124612238
 30
0.0
 10
72.36225363355811
 20
280.048601204739
 30
0.0
 10
71.89133525084138
 20
280.1138058664221
 30
0.0
 10
71.42912238706261
 20
280.2050552250786
 30
0.0
 10
70.98374894891273
 20
280.3202931793972
 30
0.0
 10
70.5527728012616
 20
280.4606546220994
 30
0.0
 10
70.14609958631941
 20
280.6224175337712
 30
0.0
 10
69.75936659628914
 20
280.8079017378187
 30
0.0
 10
69.40329917092348
 20
281.0114561082372
 30
0.0
 10
69.07253426242654
 20
281.2367847376871
 30
0.0
 10
68.77746976261436
 20
281.4764510408016
 30
0.0
 10
68.51284878270559
 20
281.7352393985952
 30
0.0
 10
68.28765925460417
 20
282.0046605901899
 30
0.0
 10
68.0976942574392
 20
282.2895297484968
 30
0.0
 10
67.94994484275239
 20
282.5816149857055
 30
0.0
 10
67.84141585735247
 20
282.8840298896851
 30
0.0
 10
67.77720420453399
 20
283.1902517650424
 30
0.0
 10
67.75460291969948
 20
283.5001511974273
 30
0.0
 10
67.77720420453395
 20
283.8100506298123
 30
0.0
 10
67.8414158573524
 20
284.1162725051697
 30
0.0
 10
67.94994484275242
 20
284.4186874091492
 30
0.0
 10
68.09769425743924
 20
284.7107726463579
 30
0.0
 10
68.28765925460426
 20
284.9956418046647
 30
0.0
 10
68.51284878270556
 20
285.2650629962595
 30
0.0
 10
68.77746976261437
 20
285.5238513540531
 30
0.0
 10
69.07253426242643
 20
285.7635176571677
 30
0.0
 10
69.4032991709235
 20
285.9888462866176
 30
0.0
 10
69.75936659628906
 20
286.1924006570362
 30
0.0
 10
70.14609958631942
 20
286.3778848610834
 30
0.0
 10
70.55277280126163
 20
286.5396477727553
 30
0.0
 10
70.98374894891271
 20
286.6800092154576
 30
0.0
 10
71.42912238706261
 20
286.7952471697761
 30
0.0
 10
71.89133525084138
 20
286.8864965284328
 30
0.0
 10
72.36225363355797
 20
286.9517011901158
 30
0.0
 10
72.84178507096482
 20
286.9912899336309
 30
0.0
 10
73.32423014053723
 20
287.0043749527953
 30
0.0
 10
73.80667521010858
 20
286.9912899336312
 30
0.0
 10
74.28620664751867
 20
286.9517011901154
 30
0.0
 10
74.75712503022359
 20
286.8864965284342
 30
0.0
 10
75.21933789404449
 20
286.7952471697716
 30
0.0
 10
75.66471133204004
 20
286.6800092154746
 30
0.0
 10
76.09568748024222
 20
286.5396477726943
 30
0.0
 10
76.50236069318729
 20
286.3778848613056
 30
0.0
 10
76.88909369024955
 20
286.1924006562616
 30
0.0
 10
77.24516109032669
 20
285.9888462894277
 30
0.0
 10
77.57592608676401
 20
285.7635176475123
 30
0.0
 10
77.87099027190543
 20
285.5238513890015
 30
0.0
 10
78.135612338879
 20
285.2650628771194
 30
0.0
 10
78.36079797798237
 20
284.9956422367793
 30
0.0
 10
78.55077645947722
 20
284.7107711671065
 30
0.0
 10
78.69847728123307
 20
284.4186928178099
 30
0.0
 10
78.8071779281822
 20
284.1162535812856
 30
0.0
 10
78.87076101276692
 20
283.8101208037182
 30
0.0
 10
78.89566050313798
 20
283.4998956071233
 30
0.0
 10
78.8750120941701
 20
283.2956221785532
 30
0.0
 10
78.86468788968618
 20
283.1934854642682
 30
0.0
 11
78.86468788968618
 21
283.1934854642682
 31
0.0
 11
78.80006596463122
 21
282.8859362186317
 31
0.0
 11
78.69486600543995
 21
282.5900604570611
 31
0.0
 11
78.5449723384674
 21
282.2928075289304
 31
0.0
 11
78.36119819191521
 21
282.0156315200728
 31
0.0
 11
78.13114108074335
 21
281.7392690417129
 31
0.0
 11
77.87477974208203
 21
281.4875539662583
 31
0.0
 11
77.57261386067425
 21
281.2411401240016
 31
0.0
 11
77.25087339266449
 21
281.0213005885667
 31
0.0
 11
76.88671501036788
 21
280.8123555409418
 31
0.0
 11
76.50846849988135
 21
280.6305076461206
 31
0.0
 11
76.09405427424372
 21
280.4651062393333
 31
0.0
 11
75.6699603175262
 21
280.3267155249022
 31
0.0
 11
75.21831715743799
 21
280.2094728905501
 31
0.0
 11
74.76062404848268
 21
280.1189780468295
 31
0.0
 11
74.28571586473083
 21
280.0529879854436
 31
0.0
 11
73.80789917948437
 21
280.0135234803804
 31
0.0
 11
73.32423014053704
 21
280.0003023948549
 31
0.0
 11
72.84056110158974
 21
280.0135234803804
 31
0.0
 11
72.3627444163433
 21
280.0529879854436
 31
0.0
 11
71.88783623259148
 21
280.1189780468295
 31
0.0
 11
71.43014312363601
 21
280.2094728905502
 31
0.0
 11
70.97849996354765
 21
280.3267155249022
 31
0.0
 11
70.55440600683015
 21
280.4651062393333
 31
0.0
 11
70.13999178119254
 21
280.6305076461206
 31
0.0
 11
69.7617452707061
 21
280.8123555409418
 31
0.0
 11
69.39758688840961
 21
281.0213005885667
 31
0.0
 11
69.07584642039986
 21
281.2411401240016
 31
0.0
 11
68.77368053899203
 21
281.4875539662581
 31
0.0
 11
68.51731920033063
 21
281.7392690417127
 31
0.0
 11
68.28726208915884
 21
282.0156315200726
 31
0.0
 11
68.10348794260673
 21
282.2928075289303
 31
0.0
 11
67.95359427563432
 21
282.5900604570611
 31
0.0
 11
67.84839431644315
 21
282.8859362186317
 31
0.0
 11
67.78377239138814
 21
283.1934854642682
 31
0.0
 11
67.76208127521542
 21
283.5001511974273
 31
0.0
 11
67.7837723913881
 21
283.8068169305865
 31
0.0
 11
67.84839431644311
 21
284.1143661762231
 31
0.0
 11
67.95359427563435
 21
284.4102419377937
 31
0.0
 11
68.1034879426068
 21
284.7074948659244
 31
0.0
 11
68.28726208915887
 21
284.984670874782
 31
0.0
 11
68.51731920033065
 21
285.261033353142
 31
0.0
 11
68.77368053899198
 21
285.5127484285965
 31
0.0
 11
69.0758464203998
 21
285.7591622708532
 31
0.0
 11
69.39758688840959
 21
285.9790018062881
 31
0.0
 11
69.76174527070607
 21
286.187946853913
 31
0.0
 11
70.13999178119252
 21
286.3697947487341
 31
0.0
 11
70.55440600683016
 21
286.5351961555214
 31
0.0
 11
70.97849996354765
 21
286.6735868699525
 31
0.0
 11
71.43014312363603
 21
286.7908295043047
 31
0.0
 11
71.88783623259148
 21
286.8813243480254
 31
0.0
 11
72.3627444163433
 21
286.9473144094112
 31
0.0
 11
72.84056110158974
 21
286.9867789144743
 31
0.0
 11
73.32423014053705
 21
286.9999999999998
 31
0.0
 11
73.80789917948437
 21
286.9867789144743
 31
0.0
 11
74.28571586473085
 21
286.9473144094112
 31
0.0
 11
74.7606240484827
 21
286.8813243480254
 31
0.0
 11
75.21831715743801
 21
286.7908295043047
 31
0.0
 11
75.6699603175262
 21
286.6735868699524
 31
0.0
 11
76.09405427424368
 21
286.5351961555213
 31
0.0
 11
76.50846849988135
 21
286.3697947487341
 31
0.0
 11
76.88671501036791
 21
286.187946853913
 31
0.0
 11
77.25087339266449
 21
285.9790018062881
 31
0.0
 11
77.57261386067425
 21
285.7591622708532
 31
0.0
 11
77.87477974208206
 21
285.5127484285965
 31
0.0
 11
78.13114108074342
 21
285.261033353142
 31
0.0
 11
78.36119819191524
 21
284.984670874782
 31
0.0
 11
78.54497233846738
 21
284.7074948659244
 31
0.0
 11
78.69486600543993
 21
284.4102419377937
 31
0.0
 11
78.80006596463123
 21
284.114366176223
 31
0.0
 11
78.86468788968621
 21
283.8068169305864
 31
0.0
 11
78.88637900585886
 21
283.5001511974273
 31
0.0
 11
78.86468788968618
 21
283.1934854642682
 31
0.0
  0
SPLINE
  5
AC
330
39
100
AcDbEntity
  8
1
  6
Continuous
 62
     7
100
AcDbSpline
210
0.0
220
0.0
230
1.0
 70
    11
 71
     3
 72
    79
 73
    75
 74
    73
 42
0.0000000001
 43
0.0000000001
 44
0.00000001
 40
0.0
 40
0.0
 40
0.0
 40
0.0
 40
0.3219191133368856
 40
0.6433817983662576
 40
0.9928750068868513
 40
1.341795140506966
 40
1.729749028413355
 40
2.117262757272404
 40
2.547908615557012
 40
2.978266915974179
 40
3.450266276154517
 40
3.922086452275907
 40
4.429962878428741
 40
4.937730797563093
 40
5.473111501542481
 40
6.008430500180234
 40
6.561033308980353
 40
7.113608122002719
 40
7.672061093536269
 40
8.230514065069734
 40
8.783088878092071
 40
9.33569168689217
 40
9.87101068552988
 40
10.4063913895093
 40
10.91415930864363
 40
11.42203573479652
 40
11.89385591091789
 40
12.36585527109829
 40
12.79621357151553
 40
13.22685942980004
 40
13.61437315865907
 40
14.00232704656542
 40
14.35124718018561
 40
14.70074038870619
 40
15.02220307373555
 40
15.34412218707247
 40
15.65570035748484
 40
15.96727852789722
 40
16.28919764123416
 40
16.61066032626352
 40
16.96015353478407
 40
17.30907366840427
 40
17.69702755631064
 40
18.08454128516966
 40
18.51518714345421
 40
18.94554544387136
 40
19.41754480405184
 40
19.88936498017319
 40
20.39724140632607
 40
20.90500932546038
 40
21.44039002943978
 40
21.97570902807747
 40
22.52831183687757
 40
23.08088664989995
 40
23.63933962143344
 40
24.19779259296699
 40
24.75036740598939
 40
25.30297021478952
 40
25.8382892134272
 40
26.37366991740656
 40
26.88143783654084
 40
27.38931426269367
 40
27.86113443881512
 40
28.33313379899556
 40
28.76349209941278
 40
29.19413795769733
 40
29.58165168655636
 40
29.96960557446272
 40
30.31852570808293
 40
30.66801891660348
 40
30.98948160163286
 40
31.3114007149698
 40
31.6229788853822
 40
31.93455705579457
 40
31.93455705579457
 40
31.93455705579457
 40
31.93455705579457
 10
173.1915965069287
 20
175.7171098629102
 30
0.0
 10
173.0862775812689
 20
175.6953858459608
 30
0.0
 10
172.875789054848
 20
175.6519686131419
 30
0.0
 10
172.5692959079048
 20
175.522375159191
 30
0.0
 10
172.2743761979976
 20
175.3518600513063
 30
0.0
 10
171.9861771315283
 20
175.131081170168
 30
0.0
 10
171.7152222008198
 20
174.8711236322279
 30
0.0
 10
171.4538515786309
 20
174.5648918191588
 30
0.0
 10
171.2130037710695
 20
174.22484117278
 30
0.0
 10
170.9855818606631
 20
173.8426506487743
 30
0.0
 10
170.7809036342613
 20
173.4324183983559
 30
0.0
 10
170.5937356710655
 20
172.9858475663596
 30
0.0
 10
170.4309427546269
 20
172.5171829447122
 30
0.0
 10
170.289315992733
 20
172.019685068624
 30
0.0
 10
170.1732640710442
 20
171.5062228454165
 30
0.0
 10
170.0811934027144
 20
170.9727832648562
 30
0.0
 10
170.0155023352547
 20
170.4296822870864
 30
0.0
 10
169.9755494005035
 20
169.8763665836018
 30
0.0
 10
169.9623824670631
 20
169.3198156485494
 30
0.0
 10
169.9755494005015
 20
168.7632647134761
 30
0.0
 10
170.0155023352624
 20
168.2099490100536
 30
0.0
 10
170.0811934026855
 20
167.6668480320591
 30
0.0
 10
170.1732640711485
 20
167.1334084523118
 30
0.0
 10
170.2893159923516
 20
166.6199462261415
 30
0.0
 10
170.4309427559691
 20
166.1224483605664
 30
0.0
 10
170.5937356661962
 20
165.6537837010359
 30
0.0
 10
170.7809036510079
 20
165.207213000871
 30
0.0
 10
170.9855818003186
 20
164.7969802802889
 30
0.0
 10
171.2130039743664
 20
164.4147913641801
 30
0.0
 10
171.4538508492212
 20
164.074735029405
 30
0.0
 10
171.7152246229525
 20
163.7685224369808
 30
0.0
 10
171.9861684345069
 20
163.5084970854825
 30
0.0
 10
172.2744050681829
 20
163.2879473194286
 30
0.0
 10
172.5691912511363
 20
163.1166178566324
 30
0.0
 10
172.876145214279
 20
162.9898348310235
 30
0.0
 10
173.1868964387147
 20
162.9151875733105
 30
0.0
 10
173.502144005384
 20
162.8883520681813
 30
0.0
 10
173.8173915720533
 20
162.9151875733106
 30
0.0
 10
174.1281427964891
 20
162.9898348310235
 30
0.0
 10
174.4350967596319
 20
163.1166178566324
 30
0.0
 10
174.7298829425853
 20
163.2879473194284
 30
0.0
 10
175.0181195762611
 20
163.5084970854824
 30
0.0
 10
175.2890633878155
 20
163.7685224369809
 30
0.0
 10
175.5504371615468
 20
164.074735029405
 30
0.0
 10
175.7912840364016
 20
164.4147913641801
 30
0.0
 10
176.0187062104494
 20
164.7969802802889
 30
0.0
 10
176.2233843597601
 20
165.2072130008712
 30
0.0
 10
176.410552344572
 20
165.6537837010358
 30
0.0
 10
176.5733452547992
 20
166.1224483605664
 30
0.0
 10
176.7149720184167
 20
166.6199462261414
 30
0.0
 10
176.8310239396193
 20
167.1334084523118
 30
0.0
 10
176.9230946080826
 20
167.6668480320591
 30
0.0
 10
176.9887856755055
 20
168.2099490100534
 30
0.0
 10
177.0287386102668
 20
168.7632647134769
 30
0.0
 10
177.0419055437045
 20
169.3198156485461
 30
0.0
 10
177.0287386102669
 20
169.876366583614
 30
0.0
 10
176.988785675505
 20
170.4296822870418
 30
0.0
 10
176.9230946080846
 20
170.9727832650203
 30
0.0
 10
176.831023939612
 20
171.506222844825
 30
0.0
 10
176.7149720184437
 20
172.0196850707861
 30
0.0
 10
176.5733452547043
 20
172.5171829371036
 30
0.0
 10
176.4105523449158
 20
172.9858475939589
 30
0.0
 10
176.2233843585775
 20
173.4324183034334
 30
0.0
 10
176.0187062147108
 20
173.8426509908131
 30
0.0
 10
175.791284022045
 20
174.2248400204699
 30
0.0
 10
175.550437213057
 20
174.5648959535367
 30
0.0
 10
175.2890632167672
 20
174.8711099033019
 30
0.0
 10
175.0181201904353
 20
175.1311304658807
 30
0.0
 10
174.7298809038042
 20
175.3516964117924
 30
0.0
 10
174.4351041503788
 20
175.5229683657315
 30
0.0
 10
174.128117644898
 20
175.6499498607291
 30
0.0
 10
173.8174845721839
 20
175.7238765340795
 30
0.0
 10
173.5018092620384
 20
175.7533207634471
 30
0.0
 10
173.2950007586319
 20
175.7291801630892
 30
0.0
 10
173.1915965069287
 20
175.7171098629102
 30
0.0
 11
173.1915965069287
 21
175.7171098629102
 31
0.0
 11
172.8786142807565
 21
175.6417836282248
 31
0.0
 11
172.580955195204
 21
175.5203862367605
 31
0.0
 11
172.2783877545492
 21
175.3454621199051
 31
0.0
 11
172.0005482438531
 21
175.1343923069483
 31
0.0
 11
171.7198276212085
 21
174.8666159988781
 31
0.0
 11
171.4675664338232
 21
174.5724541668992
 31
0.0
 11
171.2177512464162
 21
174.2216718591946
 31
0.0
 11
170.9971324351581
 21
173.8521646104741
 31
0.0
 11
170.7856014701179
 21
173.4302190608593
 31
0.0
 11
170.60281248516
 21
172.9952449632703
 31
0.0
 11
170.4355356540265
 21
172.5157067207831
 31
0.0
 11
170.2962343598033
 21
172.0274205248593
 31
0.0
 11
170.1777580002159
 21
171.5053133994412
 31
0.0
 11
170.0865659486102
 21
170.9778189065538
 31
0.0
 11
170.0199298561617
 21
170.4292484958708
 31
0.0
 11
169.9801231381974
 21
169.8781093580919
 31
0.0
 11
169.9667868982483
 21
169.3198156485459
 31
0.0
 11
169.9801231381974
 21
168.761521939
 31
0.0
 11
170.0199298561617
 21
168.2103828012211
 31
0.0
 11
170.0865659486103
 21
167.6618123905381
 31
0.0
 11
170.1777580002159
 21
167.1343178976508
 31
0.0
 11
170.2962343598033
 21
166.6122107722326
 31
0.0
 11
170.4355356540264
 21
166.1239245763088
 31
0.0
 11
170.6028124851599
 21
165.6443863338216
 31
0.0
 11
170.7856014701177
 21
165.2094122362326
 31
0.0
 11
170.9971324351581
 21
164.7874666866177
 31
0.0
 11
171.2177512464163
 21
164.4179594378972
 31
0.0
 11
171.4675664338232
 21
164.0671771301928
 31
0.0
 11
171.7198276212085
 21
163.7730152982138
 31
0.0
 11
172.0005482438531
 21
163.5052389901437
 31
0.0
 11
172.2783877545492
 21
163.2941691771868
 31
0.0
 11
172.580955195204
 21
163.1192450603314
 31
0.0
 11
172.8786142807565
 21
162.9978476688671
 31
0.0
 11
173.1915965069288
 21
162.9225214341817
 31
0.0
 11
173.502144005384
 21
162.8971993592134
 31
0.0
 11
173.8126915038393
 21
162.9225214341817
 31
0.0
 11
174.1256737300116
 21
162.9978476688671
 31
0.0
 11
174.4233328155641
 21
163.1192450603314
 31
0.0
 11
174.7259002562189
 21
163.2941691771867
 31
0.0
 11
175.003739766915
 21
163.5052389901437
 31
0.0
 11
175.2844603895596
 21
163.7730152982138
 31
0.0
 11
175.5367215769448
 21
164.0671771301928
 31
0.0
 11
175.7865367643518
 21
164.4179594378973
 31
0.0
 11
176.0071555756099
 21
164.7874666866177
 31
0.0
 11
176.2186865406502
 21
165.2094122362327
 31
0.0
 11
176.4014755256082
 21
165.6443863338216
 31
0.0
 11
176.5687523567418
 21
166.1239245763088
 31
0.0
 11
176.7080536509649
 21
166.6122107722326
 31
0.0
 11
176.8265300105521
 21
167.1343178976508
 31
0.0
 11
176.9177220621577
 21
167.6618123905381
 31
0.0
 11
176.9843581546063
 21
168.2103828012211
 31
0.0
 11
177.0241648725707
 21
168.7615219389999
 31
0.0
 11
177.0375011125199
 21
169.3198156485459
 31
0.0
 11
177.0241648725708
 21
169.8781093580919
 31
0.0
 11
176.9843581546063
 21
170.4292484958708
 31
0.0
 11
176.9177220621578
 21
170.9778189065539
 31
0.0
 11
176.8265300105522
 21
171.5053133994412
 31
0.0
 11
176.7080536509649
 21
172.0274205248593
 31
0.0
 11
176.5687523567418
 21
172.5157067207831
 31
0.0
 11
176.4014755256082
 21
172.9952449632702
 31
0.0
 11
176.2186865406503
 21
173.4302190608592
 31
0.0
 11
176.0071555756099
 21
173.8521646104741
 31
0.0
 11
175.7865367643518
 21
174.2216718591947
 31
0.0
 11
175.5367215769448
 21
174.5724541668992
 31
0.0
 11
175.2844603895596
 21
174.8666159988781
 31
0.0
 11
175.003739766915
 21
175.1343923069483
 31
0.0
 11
174.7259002562189
 21
175.3454621199052
 31
0.0
 11
174.4233328155641
 21
175.5203862367605
 31
0.0
 11
174.1256737300116
 21
175.6417836282249
 31
0.0
 11
173.8126915038393
 21
175.7171098629102
 31
0.0
 11
173.502144005384
 21
175.7424319378785
 31
0.0
 11
173.1915965069287
 21
175.7171098629102
 31
0.0
  0
SPLINE
  5
AD
330
39
100
AcDbEntity
  8
1
  6
Continuous
 62
     7
100
AcDbSpline
210
0.0
220
0.0
230
1.0
 70
    11
 71
     3
 72
    79
 73
    75
 74
    73
 42
0.0000000001
 43
0.0000000001
 44
0.00000001
 40
0.0
 40
0.0
 40
0.0
 40
0.0
 40
0.2813091385366943
 40
0.562601960635208
 40
0.8464226525144216
 40
1.130214060738748
 40
1.417835711262201
 40
1.705420542401947
 40
1.997635978226872
 40
2.289812854371174
 40
2.586839035183113
 40
2.883829792124836
 40
3.185307045384583
 40
3.486755461402791
 40
3.791812980111115
 40
4.09685036568972
 40
4.404220799428717
 40
4.711580931801363
 40
5.019747232346084
 40
5.327913532890804
 40
5.635273665263391
 40
5.942644099002382
 40
6.24768148458107
 40
6.552739003289377
 40
6.854187419307557
 40
7.155664672567266
 40
7.452655429509019
 40
7.749681610320986
 40
8.041858486465369
 40
8.334073922290306
 40
8.621658753430015
 40
8.909280403953506
 40
9.193071812177836
 40
9.476892504056995
 40
9.758185326155447
 40
10.03949446469221
 40
10.31992040211359
 40
10.60034633953503
 40
10.8816554780718
 40
11.16294830017027
 40
11.44676899204941
 40
11.73056040027376
 40
12.01818205079725
 40
12.30576688193705
 40
12.59798231776203
 40
12.89015919390633
 40
13.18718537471821
 40
13.48417613165992
 40
13.78565338491961
 40
14.08710180093781
 40
14.39215931964617
 40
14.69719670522481
 40
15.00456713896375
 40
15.31192727133637
 40
15.62009357188109
 40
15.92825987242586
 40
16.23562000479848
 40
16.54299043853746
 40
16.84802782411607
 40
17.15308534282447
 40
17.4545337588427
 40
17.75601101210247
 40
18.05300176904417
 40
18.35002794985608
 40
18.64220482600038
 40
18.93442026182535
 40
19.22200509296508
 40
19.5096267434885
 40
19.7934181517128
 40
20.07723884359197
 40
20.3585316656905
 40
20.63984080422724
 40
20.92026674164868
 40
21.20069267907005
 40
21.20069267907005
 40
21.20069267907005
 40
21.20069267907005
 10
169.9803088832763
 20
157.781385663005
 30
0.0
 10
169.9918802867631
 20
157.6882587119841
 30
0.0
 10
170.0150224225747
 20
157.5020102114737
 30
0.0
 10
170.0837845629423
 20
157.2277086263676
 30
0.0
 10
170.1763526897769
 20
156.9599646977907
 30
0.0
 10
170.2952050256075
 20
156.7003520617851
 30
0.0
 10
170.4378669412408
 20
156.4516349648665
 30
0.0
 10
170.6044098421747
 20
156.2147910494907
 30
0.0
 10
170.7923675614978
 20
155.9925756301744
 30
0.0
 10
171.001529773305
 20
155.7857125781714
 30
0.0
 10
171.2289823497879
 20
155.5966538433003
 30
0.0
 10
171.4743279341409
 20
155.4260138986388
 30
0.0
 10
171.7343564924808
 20
155.2757501697729
 30
0.0
 10
172.0083792385372
 20
155.1464428176461
 30
0.0
 10
172.2931269239204
 20
155.0394520156983
 30
0.0
 10
172.5874897734693
 20
154.9553196765223
 30
0.0
 10
172.888380253438
 20
154.8948006923174
 30
0.0
 10
173.1941665753957
 20
154.8583195543228
 30
0.0
 10
173.5021440053831
 20
154.8461007727895
 30
0.0
 10
173.8101214353762
 20
154.8583195543224
 30
0.0
 10
174.1159077573166
 20
154.8948006923186
 30
0.0
 10
174.4167982373486
 20
154.9553196765175
 30
0.0
 10
174.7111610866633
 20
155.0394520157161
 30
0.0
 10
174.9959087729159
 20
155.14644281758
 30
0.0
 10
175.2699315157642
 20
155.2757501700164
 30
0.0
 10
175.5299600859887
 20
155.4260138977352
 30
0.0
 10
175.7753056266177
 20
155.5966538466171
 30
0.0
 10
176.002758364902
 20
155.7857125658699
 30
0.0
 10
176.2119199822567
 20
155.9925756752551
 30
0.0
 10
176.3998799010485
 20
156.2147908822576
 30
0.0
 10
176.5664147173071
 20
156.4516355780432
 30
0.0
 10
176.7091065745277
 20
156.7003497847151
 30
0.0
 10
176.8278485816899
 20
156.9599730706925
 30
0.0
 10
176.9208261268232
 20
157.2276774783238
 30
0.0
 10
176.9880732046305
 20
157.5021253116683
 30
0.0
 10
177.0283885507252
 20
157.780664134327
 30
0.0
 10
177.0420502296981
 20
158.0614853993484
 30
0.0
 10
177.0283885507251
 20
158.3423066643696
 30
0.0
 10
176.9880732046305
 20
158.6208454870284
 30
0.0
 10
176.9208261268232
 20
158.8952933203728
 30
0.0
 10
176.8278485816898
 20
159.1629977280042
 30
0.0
 10
176.7091065745277
 20
159.4226210139815
 30
0.0
 10
176.5664147173071
 20
159.6713352206535
 30
0.0
 10
176.3998799010485
 20
159.9081799164391
 30
0.0
 10
176.2119199822565
 20
160.1303951234415
 30
0.0
 10
176.002758364902
 20
160.3372582328269
 30
0.0
 10
175.7753056266178
 20
160.5263169520796
 30
0.0
 10
175.5299600859889
 20
160.6969569009614
 30
0.0
 10
175.2699315157642
 20
160.8472206286801
 30
0.0
 10
174.9959087729158
 20
160.9765279811166
 30
0.0
 10
174.7111610866633
 20
161.0835187829805
 30
0.0
 10
174.4167982373487
 20
161.1676511221792
 30
0.0
 10
174.1159077573167
 20
161.228170106378
 30
0.0
 10
173.8101214353761
 20
161.2646512443743
 30
0.0
 10
173.502144005384
 20
161.2768700259069
 30
0.0
 10
173.1941665753924
 20
161.2646512443744
 30
0.0
 10
172.8883802534506
 20
161.2281701063781
 30
0.0
 10
172.5874897734231
 20
161.1676511221795
 30
0.0
 10
172.2931269240916
 20
161.0835187829792
 30
0.0
 10
172.0083792379014
 20
160.9765279811213
 30
0.0
 10
171.734356494823
 20
160.8472206286628
 30
0.0
 10
171.4743279254502
 20
160.6969569010262
 30
0.0
 10
171.2289823816871
 20
160.5263169518418
 30
0.0
 10
171.0015296550012
 20
160.3372582337087
 30
0.0
 10
170.7923679950345
 20
160.1303951202102
 30
0.0
 10
170.6044082339071
 20
159.9081799284268
 30
0.0
 10
170.4378728381151
 20
159.6713351766992
 30
0.0
 10
170.2951831271961
 20
159.4226211772086
 30
0.0
 10
170.1764332113488
 20
159.1629971278098
 30
0.0
 10
170.0834850145296
 20
158.8952955531567
 30
0.0
 10
170.016129332558
 20
158.6208372363061
 30
0.0
 10
169.9762181447587
 20
158.3423374268474
 30
0.0
 10
169.9610525665204
 20
158.061370991175
 30
0.0
 10
169.9738901110243
 20
157.8747141057284
 30
0.0
 10
169.9803088832763
 20
157.781385663005
 30
0.0
 11
169.9803088832763
 21
157.781385663005
 31
0.0
 11
170.0206641274161
 21
157.5029861556515
 31
0.0
 11
170.0874724699751
 21
157.2297421307788
 31
0.0
 11
170.1806029711644
 21
156.9616360046141
 31
0.0
 11
170.2984935845409
 21
156.7034899865165
 31
0.0
 11
170.4416005979976
 21
156.4539973081683
 31
0.0
 11
170.6068808885913
 21
156.2186519010686
 31
0.0
 11
170.7955536810942
 21
155.9955097080537
 31
0.0
 11
171.0031840943967
 21
155.7899447829685
 31
0.0
 11
171.2315631771265
 21
155.6000302056996
 31
0.0
 11
171.4753049839385
 21
155.4303439030089
 31
0.0
 11
171.7363012005874
 21
155.2794482134482
 31
0.0
 11
172.0088762604657
 21
155.1507082264504
 31
0.0
 11
172.2944242290425
 21
155.0433655631605
 31
0.0
 11
172.587697497841
 21
154.9594692199214
 31
0.0
 11
172.8890284610209
 21
154.8988372632819
 31
0.0
 11
173.1942197196014
 21
154.8623880292954
 31
0.0
 11
173.5021440053841
 21
154.8501772546821
 31
0.0
 11
173.8100682911667
 21
154.8623880292954
 31
0.0
 11
174.1152595497471
 21
154.8988372632818
 31
0.0
 11
174.4165905129271
 21
154.9594692199213
 31
0.0
 11
174.7098637817256
 21
155.0433655631604
 31
0.0
 11
174.9954117503024
 21
155.1507082264503
 31
0.0
 11
175.2679868101806
 21
155.2794482134482
 31
0.0
 11
175.5289830268296
 21
155.4303439030088
 31
0.0
 11
175.7727248336416
 21
155.6000302056996
 31
0.0
 11
176.0011039163714
 21
155.7899447829685
 31
0.0
 11
176.2087343296739
 21
155.9955097080538
 31
0.0
 11
176.3974071221769
 21
156.2186519010686
 31
0.0
 11
176.5626874127706
 21
156.4539973081683
 31
0.0
 11
176.7057944262273
 21
156.7034899865165
 31
0.0
 11
176.8236850396038
 21
156.9616360046141
 31
0.0
 11
176.916815540793
 21
157.2297421307788
 31
0.0
 11
176.983623883352
 21
157.5029861556515
 31
0.0
 11
177.0239791274919
 21
157.781385663005
 31
0.0
 11
177.0375011125199
 21
158.0614853993483
 31
0.0
 11
177.0239791274919
 21
158.3415851356916
 31
0.0
 11
176.983623883352
 21
158.6199846430452
 31
0.0
 11
176.916815540793
 21
158.8932286679179
 31
0.0
 11
176.8236850396038
 21
159.1613347940825
 31
0.0
 11
176.7057944262273
 21
159.4194808121802
 31
0.0
 11
176.5626874127706
 21
159.6689734905284
 31
0.0
 11
176.3974071221768
 21
159.9043188976281
 31
0.0
 11
176.2087343296738
 21
160.127461090643
 31
0.0
 11
176.0011039163714
 21
160.3330260157283
 31
0.0
 11
175.7727248336416
 21
160.5229405929971
 31
0.0
 11
175.5289830268296
 21
160.6926268956878
 31
0.0
 11
175.2679868101807
 21
160.8435225852483
 31
0.0
 11
174.9954117503024
 21
160.9722625722462
 31
0.0
 11
174.7098637817256
 21
161.0796052355362
 31
0.0
 11
174.4165905129271
 21
161.1635015787753
 31
0.0
 11
174.1152595497472
 21
161.2241335354148
 31
0.0
 11
173.8100682911668
 21
161.2605827694013
 31
0.0
 11
173.5021440053841
 21
161.2727935440146
 31
0.0
 11
173.1942197196014
 21
161.2605827694014
 31
0.0
 11
172.889028461021
 21
161.2241335354149
 31
0.0
 11
172.587697497841
 21
161.1635015787753
 31
0.0
 11
172.2944242290426
 21
161.0796052355362
 31
0.0
 11
172.0088762604657
 21
160.9722625722462
 31
0.0
 11
171.7363012005874
 21
160.8435225852484
 31
0.0
 11
171.4753049839384
 21
160.6926268956878
 31
0.0
 11
171.2315631771264
 21
160.5229405929971
 31
0.0
 11
171.0031840943966
 21
160.3330260157283
 31
0.0
 11
170.7955536810941
 21
160.127461090643
 31
0.0
 11
170.6068808885912
 21
159.9043188976281
 31
0.0
 11
170.4416005979976
 21
159.6689734905283
 31
0.0
 11
170.298493584541
 21
159.4194808121802
 31
0.0
 11
170.1806029711644
 21
159.1613347940826
 31
0.0
 11
170.0874724699752
 21
158.8932286679179
 31
0.0
 11
170.0206641274161
 21
158.6199846430452
 31
0.0
 11
169.9803088832763
 21
158.3415851356916
 31
0.0
 11
169.9667868982484
 21
158.0614853993483
 31
0.0
 11
169.9803088832763
 21
157.781385663005
 31
0.0
  0
SPLINE
  5
AE
330
39
100
AcDbEntity
  8
1
  6
Continuous
 62
     7
100
AcDbSpline
210
0.0
220
0.0
230
1.0
 70
    11
 71
     3
 72
    79
 73
    75
 74
    73
 42
0.0000000001
 43
0.0000000001
 44
0.00000001
 40
0.0
 40
0.0
 40
0.0
 40
0.0
 40
0.2813091385367787
 40
0.5626019606352095
 40
0.8464226525143963
 40
1.130214060738749
 40
1.417835711262202
 40
1.705420542401924
 40
1.997635978226828
 40
2.28981285437113
 40
2.586839035183123
 40
2.883829792124845
 40
3.185307045384593
 40
3.486755461402801
 40
3.791812980111124
 40
4.09685036568973
 40
4.404220799428721
 40
4.711580931801371
 40
5.019747232346092
 40
5.327913532890813
 40
5.6352736652634
 40
5.942644099002396
 40
6.247681484581084
 40
6.552739003289391
 40
6.854187419307559
 40
7.155664672567268
 40
7.452655429509036
 40
7.749681610320968
 40
8.04185848646533
 40
8.33407392229031
 40
8.621658753430088
 40
8.909280403953531
 40
9.193071812177809
 40
9.476892504057021
 40
9.758185326155529
 40
10.03949446469224
 40
10.31992040211362
 40
10.60034633953503
 40
10.88165547807185
 40
11.16294830017027
 40
11.44676899204944
 40
11.73056040027375
 40
12.01818205079727
 40
12.30576688193705
 40
12.59798231776202
 40
12.89015919390631
 40
13.18718537471821
 40
13.48417613165993
 40
13.78565338491961
 40
14.08710180093783
 40
14.39215931964617
 40
14.69719670522481
 40
15.00456713896375
 40
15.31192727133638
 40
15.62009357188109
 40
15.92825987242587
 40
16.23562000479848
 40
16.54299043853747
 40
16.84802782411607
 40
17.15308534282446
 40
17.45453375884269
 40
17.75601101210246
 40
18.05300176904416
 40
18.35002794985611
 40
18.64220482600039
 40
18.93442026182535
 40
19.22200509296511
 40
19.50962674348855
 40
19.79341815171288
 40
20.07723884359202
 40
20.3585316656905
 40
20.63984080422727
 40
20.92026674164867
 40
21.20069267907007
 40
21.20069267907007
 40
21.20069267907007
 40
21.20069267907007
 10
169.9803088832763
 20
180.8582456340871
 30
0.0
 10
169.9918802867631
 20
180.951372585108
 30
0.0
 10
170.0150224225747
 20
181.1376210856185
 30
0.0
 10
170.0837845629424
 20
181.4119226707245
 30
0.0
 10
170.1763526897769
 20
181.6796665993015
 30
0.0
 10
170.2952050256075
 20
181.9392792353071
 30
0.0
 10
170.4378669412409
 20
182.1879963322257
 30
0.0
 10
170.6044098421747
 20
182.4248402476014
 30
0.0
 10
170.7923675614978
 20
182.6470556669177
 30
0.0
 10
171.001529773305
 20
182.8539187189206
 30
0.0
 10
171.2289823497877
 20
183.042977453792
 30
0.0
 10
171.4743279341409
 20
183.2136173984532
 30
0.0
 10
171.7343564924808
 20
183.3638811273193
 30
0.0
 10
172.0083792385373
 20
183.493188479446
 30
0.0
 10
172.2931269239204
 20
183.6001792813938
 30
0.0
 10
172.5874897734693
 20
183.6843116205699
 30
0.0
 10
172.888380253438
 20
183.7448306047747
 30
0.0
 10
173.1941665753957
 20
183.7813117427694
 30
0.0
 10
173.5021440053831
 20
183.7935305243026
 30
0.0
 10
173.8101214353762
 20
183.7813117427698
 30
0.0
 10
174.1159077573166
 20
183.7448306047735
 30
0.0
 10
174.4167982373486
 20
183.6843116205747
 30
0.0
 10
174.7111610866633
 20
183.6001792813761
 30
0.0
 10
174.9959087729159
 20
183.4931884795122
 30
0.0
 10
175.2699315157643
 20
183.3638811270758
 30
0.0
 10
175.5299600859887
 20
183.2136173993569
 30
0.0
 10
175.7753056266178
 20
183.0429774504751
 30
0.0
 10
176.002758364902
 20
182.8539187312223
 30
0.0
 10
176.2119199822567
 20
182.6470556218371
 30
0.0
 10
176.3998799010486
 20
182.4248404148345
 30
0.0
 10
176.5664147173071
 20
182.1879957190489
 30
0.0
 10
176.7091065745278
 20
181.9392815123771
 30
0.0
 10
176.8278485816899
 20
181.6796582263996
 30
0.0
 10
176.9208261268233
 20
181.4119538187684
 30
0.0
 10
176.9880732046305
 20
181.1375059854238
 30
0.0
 10
177.0283885507252
 20
180.8589671627652
 30
0.0
 10
177.042050229698
 20
180.5781458977438
 30
0.0
 10
177.0283885507252
 20
180.2973246327225
 30
0.0
 10
176.9880732046305
 20
180.0187858100637
 30
0.0
 10
176.9208261268233
 20
179.7443379767193
 30
0.0
 10
176.8278485816899
 20
179.476633569088
 30
0.0
 10
176.7091065745277
 20
179.2170102831106
 30
0.0
 10
176.5664147173071
 20
178.9682960764386
 30
0.0
 10
176.3998799010485
 20
178.7314513806531
 30
0.0
 10
176.2119199822565
 20
178.5092361736507
 30
0.0
 10
176.002758364902
 20
178.3023730642653
 30
0.0
 10
175.7753056266177
 20
178.1133143450125
 30
0.0
 10
175.5299600859889
 20
177.9426743961307
 30
0.0
 10
175.2699315157643
 20
177.7924106684121
 30
0.0
 10
174.9959087729158
 20
177.6631033159756
 30
0.0
 10
174.7111610866633
 20
177.5561125141117
 30
0.0
 10
174.4167982373486
 20
177.4719801749129
 30
0.0
 10
174.1159077573167
 20
177.4114611907142
 30
0.0
 10
173.810121435376
 20
177.3749800527177
 30
0.0
 10
173.5021440053841
 20
177.3627612711852
 30
0.0
 10
173.1941665753924
 20
177.3749800527178
 30
0.0
 10
172.8883802534505
 20
177.4114611907142
 30
0.0
 10
172.5874897734231
 20
177.4719801749126
 30
0.0
 10
172.2931269240916
 20
177.5561125141129
 30
0.0
 10
172.0083792379014
 20
177.6631033159707
 30
0.0
 10
171.734356494823
 20
177.7924106684294
 30
0.0
 10
171.4743279254503
 20
177.9426743960659
 30
0.0
 10
171.228982381687
 20
178.1133143452502
 30
0.0
 10
171.0015296550012
 20
178.3023730633834
 30
0.0
 10
170.7923679950343
 20
178.5092361768819
 30
0.0
 10
170.6044082339071
 20
178.7314513686653
 30
0.0
 10
170.4378728381152
 20
178.968296120393
 30
0.0
 10
170.2951831271961
 20
179.2170101198836
 30
0.0
 10
170.1764332113488
 20
179.4766341692824
 30
0.0
 10
170.0834850145296
 20
179.7443357439354
 30
0.0
 10
170.016129332558
 20
180.018794060786
 30
0.0
 10
169.9762181447588
 20
180.2972938702448
 30
0.0
 10
169.9610525665203
 20
180.5782603059171
 30
0.0
 10
169.9738901110243
 20
180.7649171913638
 30
0.0
 10
169.9803088832763
 20
180.8582456340871
 30
0.0
 11
169.9803088832763
 21
180.8582456340871
 31
0.0
 11
170.0206641274161
 21
181.1366451414407
 31
0.0
 11
170.0874724699751
 21
181.4098891663134
 31
0.0
 11
170.1806029711644
 21
181.677995292478
 31
0.0
 11
170.2984935845409
 21
181.9361413105756
 31
0.0
 11
170.4416005979976
 21
182.1856339889238
 31
0.0
 11
170.6068808885913
 21
182.4209793960235
 31
0.0
 11
170.7955536810942
 21
182.6441215890384
 31
0.0
 11
171.0031840943967
 21
182.8496865141236
 31
0.0
 11
171.2315631771265
 21
183.0396010913925
 31
0.0
 11
171.4753049839385
 21
183.2092873940833
 31
0.0
 11
171.7363012005874
 21
183.3601830836439
 31
0.0
 11
172.0088762604657
 21
183.4889230706418
 31
0.0
 11
172.2944242290425
 21
183.5962657339317
 31
0.0
 11
172.587697497841
 21
183.6801620771708
 31
0.0
 11
172.8890284610209
 21
183.7407940338103
 31
0.0
 11
173.1942197196014
 21
183.7772432677968
 31
0.0
 11
173.5021440053841
 21
183.7894540424101
 31
0.0
 11
173.8100682911667
 21
183.7772432677968
 31
0.0
 11
174.1152595497471
 21
183.7407940338104
 31
0.0
 11
174.4165905129271
 21
183.6801620771709
 31
0.0
 11
174.7098637817256
 21
183.5962657339317
 31
0.0
 11
174.9954117503024
 21
183.4889230706418
 31
0.0
 11
175.2679868101806
 21
183.3601830836439
 31
0.0
 11
175.5289830268296
 21
183.2092873940833
 31
0.0
 11
175.7727248336416
 21
183.0396010913926
 31
0.0
 11
176.0011039163714
 21
182.8496865141237
 31
0.0
 11
176.2087343296739
 21
182.6441215890385
 31
0.0
 11
176.3974071221769
 21
182.4209793960235
 31
0.0
 11
176.5626874127706
 21
182.1856339889238
 31
0.0
 11
176.7057944262273
 21
181.9361413105756
 31
0.0
 11
176.8236850396038
 21
181.6779952924781
 31
0.0
 11
176.916815540793
 21
181.4098891663134
 31
0.0
 11
176.983623883352
 21
181.1366451414406
 31
0.0
 11
177.0239791274919
 21
180.8582456340871
 31
0.0
 11
177.0375011125199
 21
180.5781458977438
 31
0.0
 11
177.0239791274919
 21
180.2980461614006
 31
0.0
 11
176.983623883352
 21
180.0196466540469
 31
0.0
 11
176.916815540793
 21
179.7464026291743
 31
0.0
 11
176.8236850396038
 21
179.4782965030096
 31
0.0
 11
176.7057944262273
 21
179.220150484912
 31
0.0
 11
176.5626874127706
 21
178.9706578065638
 31
0.0
 11
176.3974071221768
 21
178.7353123994641
 31
0.0
 11
176.2087343296738
 21
178.5121702064492
 31
0.0
 11
176.0011039163714
 21
178.3066052813639
 31
0.0
 11
175.7727248336416
 21
178.116690704095
 31
0.0
 11
175.5289830268296
 21
177.9470044014043
 31
0.0
 11
175.2679868101807
 21
177.7961087118439
 31
0.0
 11
174.9954117503024
 21
177.6673687248459
 31
0.0
 11
174.7098637817256
 21
177.560026061556
 31
0.0
 11
174.4165905129271
 21
177.4761297183168
 31
0.0
 11
174.1152595497472
 21
177.4154977616773
 31
0.0
 11
173.8100682911668
 21
177.3790485276908
 31
0.0
 11
173.5021440053841
 21
177.3668377530775
 31
0.0
 11
173.1942197196014
 21
177.3790485276908
 31
0.0
 11
172.889028461021
 21
177.4154977616773
 31
0.0
 11
172.587697497841
 21
177.4761297183168
 31
0.0
 11
172.2944242290426
 21
177.560026061556
 31
0.0
 11
172.0088762604657
 21
177.6673687248459
 31
0.0
 11
171.7363012005874
 21
177.7961087118437
 31
0.0
 11
171.4753049839384
 21
177.9470044014043
 31
0.0
 11
171.2315631771264
 21
178.116690704095
 31
0.0
 11
171.0031840943966
 21
178.3066052813639
 31
0.0
 11
170.7955536810941
 21
178.5121702064491
 31
0.0
 11
170.6068808885912
 21
178.735312399464
 31
0.0
 11
170.4416005979976
 21
178.9706578065638
 31
0.0
 11
170.298493584541
 21
179.220150484912
 31
0.0
 11
170.1806029711644
 21
179.4782965030096
 31
0.0
 11
170.0874724699752
 21
179.7464026291742
 31
0.0
 11
170.0206641274161
 21
180.0196466540469
 31
0.0
 11
169.9803088832763
 21
180.2980461614005
 31
0.0
 11
169.9667868982484
 21
180.5781458977438
 31
0.0
 11
169.9803088832763
 21
180.8582456340871
 31
0.0
  0
ENDBLK
  5
3B
330
39
100
AcDbEntity
  8
0
100
AcDbBlockEnd
  0
BLOCK
  5
3D
330
3C
100
AcDbEntity
  8
0
100
AcDbBlockBegin
  2
36-3-13
 70
     0
 71
     0
 10
-406.4359515521381
 20
164.6072077003502
 30
0.0
  3
36-3-13
  1

  0
LINE
  5
AF
330
3C
100
AcDbEntity
  8
1
  6
Continuous
 62
     7
100
AcDbLine
 10
160.5375011125199
 20
170.2198156485459
 30
0.0
 11
160.5375011125199
 21
173.069815648546
 31
0.0
  0
LINE
  5
B0
330
3C
100
AcDbEntity
  8
1
  6
Continuous
 62
     7
100
AcDbLine
 10
161.5375011125199
 20
174.069815648546
 30
0.0
 11
160.5375011125199
 21
173.069815648546
 31
0.0
  0
LINE
  5
B1
330
3C
100
AcDbEntity
  8
1
  6
Continuous
 62
     7
100
AcDbLine
 10
160.5375011125199
 20
165.5698156485459
 30
0.0
 11
161.5375011125199
 21
164.5698156485459
 31
0.0
  0
LINE
  5
B2
330
3C
100
AcDbEntity
  8
1
  6
Continuous
 62
     7
100
AcDbLine
 10
161.5375011125199
 20
164.5698156485459
 30
0.0
 11
163.0375011125199
 21
164.569815648546
 31
0.0
  0
LINE
  5
B3
330
3C
100
AcDbEntity
  8
1
  6
Continuous
 62
     7
100
AcDbLine
 10
160.5375011125199
 20
168.4198156485459
 30
0.0
 11
161.5375011125199
 21
168.4198156485459
 31
0.0
  0
LINE
  5
B4
330
3C
100
AcDbEntity
  8
1
  6
Continuous
 62
     7
100
AcDbLine
 10
160.5375011125199
 20
165.5698156485459
 30
0.0
 11
160.5375011125199
 21
168.4198156485459
 31
0.0
  0
LINE
  5
B5
330
3C
100
AcDbEntity
  8
1
  6
Continuous
 62
     7
100
AcDbLine
 10
163.0375011125199
 20
170.2198156485459
 30
0.0
 11
161.5375011125199
 21
170.2198156485459
 31
0.0
  0
LINE
  5
B6
330
3C
100
AcDbEntity
  8
1
  6
Continuous
 62
     7
100
AcDbLine
 10
161.5375011125199
 20
174.069815648546
 30
0.0
 11
161.5375011125199
 21
170.2198156485459
 31
0.0
  0
LINE
  5
B7
330
3C
100
AcDbEntity
  8
1
  6
Continuous
 62
     7
100
AcDbLine
 10
161.5375011125199
 20
170.2198156485459
 30
0.0
 11
160.5375011125199
 21
170.2198156485459
 31
0.0
  0
LINE
  5
B8
330
3C
100
AcDbEntity
  8
1
  6
Continuous
 62
     7
100
AcDbLine
 10
161.5375011125199
 20
164.5698156485459
 30
0.0
 11
161.5375011125199
 21
168.4198156485459
 31
0.0
  0
LINE
  5
B9
330
3C
100
AcDbEntity
  8
1
  6
Continuous
 62
     7
100
AcDbLine
 10
161.5375011125199
 20
168.4198156485459
 30
0.0
 11
163.0375011125199
 21
168.4198156485459
 31
0.0
  0
LINE
  5
BA
330
3C
100
AcDbEntity
  8
1
  6
Continuous
 62
     7
100
AcDbLine
 10
163.0375011125199
 20
174.069815648546
 30
0.0
 11
161.5375011125199
 21
174.069815648546
 31
0.0
  0
LINE
  5
BB
330
3C
100
AcDbEntity
  8
1
  6
Continuous
 62
     7
100
AcDbLine
 10
75.13367678820862
 20
170.0698156485459
 30
0.0
 11
84.51450830785541
 21
170.0698156485459
 31
0.0
  0
LINE
  5
BC
330
3C
100
AcDbEntity
  8
1
  6
Continuous
 62
     7
100
AcDbLine
 10
75.13367678820862
 20
168.5698156485459
 30
0.0
 11
84.51450830785541
 21
168.5698156485459
 31
0.0
  0
LINE
  5
BD
330
3C
100
AcDbEntity
  8
1
  6
Continuous
 62
     7
100
AcDbLine
 10
80.72409254803188
 20
270.4999999999999
 30
0.0
 11
76.0740925480319
 21
270.4999999999999
 31
0.0
  0
LINE
  5
BE
330
3C
100
AcDbEntity
  8
1
  6
Continuous
 62
     7
100
AcDbLine
 10
75.0740925480319
 20
271.4999999999999
 30
0.0
 11
76.0740925480319
 21
270.4999999999999
 31
0.0
  0
LINE
  5
BF
330
3C
100
AcDbEntity
  8
1
  6
Continuous
 62
     7
100
AcDbLine
 10
83.5740925480319
 20
270.4999999999999
 30
0.0
 11
84.5740925480319
 21
271.4999999999999
 31
0.0
  0
LINE
  5
C0
330
3C
100
AcDbEntity
  8
1
  6
Continuous
 62
     7
100
AcDbLine
 10
84.5740925480319
 20
271.4999999999999
 30
0.0
 11
84.5740925480319
 21
272.9999999999999
 31
0.0
  0
LINE
  5
C1
330
3C
100
AcDbEntity
  8
1
  6
Continuous
 62
     7
100
AcDbLine
 10
83.5740925480319
 20
270.4999999999999
 30
0.0
 11
80.72409254803188
 21
270.4999999999999
 31
0.0
  0
LINE
  5
C2
330
3C
100
AcDbEntity
  8
1
  6
Continuous
 62
     7
100
AcDbLine
 10
75.0740925480319
 20
271.4999999999999
 30
0.0
 11
78.92409254803204
 21
271.4999999999999
 31
0.0
  0
LINE
  5
C3
330
3C
100
AcDbEntity
  8
1
  6
Continuous
 62
     7
100
AcDbLine
 10
84.5740925480319
 20
271.4999999999999
 30
0.0
 11
78.92409254803204
 21
271.4999999999999
 31
0.0
  0
LINE
  5
C4
330
3C
100
AcDbEntity
  8
1
  6
Continuous
 62
     7
100
AcDbLine
 10
75.0740925480319
 20
272.9999999999999
 30
0.0
 11
75.0740925480319
 21
271.4999999999999
 31
0.0
  0
ARC
  5
C5
330
3C
100
AcDbEntity
  8
1
  6
Continuous
 62
     7
100
AcDbCircle
 10
79.82409254803213
 20
169.3198156485459
 30
0.0
 40
3.74999999999958
100
AcDbArc
 50
11.5369590328168
 51
168.4630409671853
  0
ARC
  5
C6
330
3C
100
AcDbEntity
  8
1
  6
Continuous
 62
     7
100
AcDbCircle
 10
79.82409254803213
 20
169.3198156485459
 30
0.0
 40
4.749999999999854
100
AcDbArc
 50
9.08472028739136
 51
170.9152797126091
  0
ARC
  5
C7
330
3C
100
AcDbEntity
  8
1
  6
Continuous
 62
     7
100
AcDbCircle
 10
79.82409254803213
 20
169.3198156485459
 30
0.0
 40
3.750000000000248
100
AcDbArc
 50
-168.4630409671853
 51
-11.5369590328168
  0
ARC
  5
C8
330
3C
100
AcDbEntity
  8
1
  6
Continuous
 62
     7
100
AcDbCircle
 10
79.82409254803213
 20
169.3198156485459
 30
0.0
 40
4.750000000000078
100
AcDbArc
 50
-170.9152797126091
 51
-9.08472028739136
  0
ARC
  5
C9
330
3C
100
AcDbEntity
  8
1
  6
Continuous
 62
     7
100
AcDbCircle
 10
79.82409254803213
 20
169.3198156485459
 30
0.0
 40
4.749999999999854
100
AcDbArc
 50
-9.08472028739136
 51
9.08472028739136
  0
ARC
  5
CA
330
3C
100
AcDbEntity
  8
1
  6
Continuous
 62
     7
100
AcDbCircle
 10
79.82409254803213
 20
169.3198156485459
 30
0.0
 40
4.750000000000078
100
AcDbArc
 50
170.9152797126091
 51
-170.9152797126091
  0
ENDBLK
  5
3E
330
3C
100
AcDbEntity
  8
0
100
AcDbBlockEnd
  0
BLOCK
  5
40
330
3F
100
AcDbEntity
  8
0
100
AcDbBlockBegin
  2
V22-0A-13-__________
 70
     0
 71
     0
 10
0.00000000000004
 20
1039.5
 30
0.0
  3
V22-0A-13-__________
  1

  0
LINE
  5
CB
330
3F
100
AcDbEntity
  8
1
  6
Continuous
 62
     7
100
AcDbLine
 10
92.8240925480321
 20
161.8142621490809
 30
0.0
 11
92.8240925480321
 21
176.8253691480111
 31
0.0
  0
LINE
  5
CC
330
3F
100
AcDbEntity
  8
1
  6
PHANTOM
 62
     4
100
AcDbLine
 10
79.82409254803213
 20
201.319815648546
 30
0.0
 11
79.82409254803213
 21
152.069815648546
 31
0.0
  0
LINE
  5
CD
330
3F
100
AcDbEntity
  8
1
  6
Continuous
 62
     7
100
AcDbLine
 10
66.82409254803213
 20
176.8253691480111
 30
0.0
 11
66.82409254803213
 21
161.8142621490809
 31
0.0
  0
LINE
  5
CE
330
3F
100
AcDbEntity
  8
1
  6
Continuous
 62
     7
100
AcDbLine
 10
66.82409254803213
 20
161.8142621490809
 30
0.0
 11
79.82409254803213
 21
154.3087086496158
 31
0.0
  0
LINE
  5
CF
330
3F
100
AcDbEntity
  8
1
  6
Continuous
 62
     7
100
AcDbLine
 10
79.82409254803213
 20
154.3087086496158
 30
0.0
 11
92.8240925480321
 21
161.8142621490809
 31
0.0
  0
LINE
  5
D0
330
3F
100
AcDbEntity
  8
1
  6
Continuous
 62
     2
100
AcDbLine
 10
89.16209254803212
 20
190.319815648546
 30
0.0
 11
90.32409254803213
 21
188.307172610151
 31
0.0
  0
LINE
  5
D1
330
3F
100
AcDbEntity
  8
1
  6
Continuous
 62
     2
100
AcDbLine
 10
69.32409254803213
 20
188.307172610151
 30
0.0
 11
70.48609254803213
 21
190.319815648546
 31
0.0
  0
LINE
  5
D2
330
3F
100
AcDbEntity
  8
1
  6
Continuous
 62
     2
100
AcDbLine
 10
70.48609254803213
 20
190.319815648546
 30
0.0
 11
70.48609254803213
 21
193.819815648546
 31
0.0
  0
LINE
  5
D3
330
3F
100
AcDbEntity
  8
1
  6
Continuous
 62
     7
100
AcDbLine
 10
69.32409254803213
 20
190.319815648546
 30
0.0
 11
69.32409254803213
 21
188.307172610151
 31
0.0
  0
LINE
  5
D4
330
3F
100
AcDbEntity
  8
1
  6
Continuous
 62
     7
100
AcDbLine
 10
89.16209254803212
 20
190.319815648546
 30
0.0
 11
90.32409254803213
 21
190.319815648546
 31
0.0
  0
LINE
  5
D5
330
3F
100
AcDbEntity
  8
1
  6
Continuous
 62
     7
100
AcDbLine
 10
90.32409254803213
 20
190.319815648546
 30
0.0
 11
90.32409254803213
 21
188.307172610151
 31
0.0
  0
LINE
  5
D6
330
3F
100
AcDbEntity
  8
1
  6
Continuous
 62
     7
100
AcDbLine
 10
69.32409254803213
 20
190.319815648546
 30
0.0
 11
70.48609254803213
 21
190.319815648546
 31
0.0
  0
LINE
  5
D7
330
3F
100
AcDbEntity
  8
1
  6
PHANTOM
 62
     4
100
AcDbLine
 10
63.82409254803212
 20
169.319815648546
 30
0.0
 11
94.8240925480321
 21
169.319815648546
 31
0.0
  0
LINE
  5
D8
330
3F
100
AcDbEntity
  8
1
  6
Continuous
 62
     7
100
AcDbLine
 10
92.8240925480321
 20
176.8253691480111
 30
0.0
 11
91.0203057111743
 21
177.8667859638317
 31
0.0
  0
LINE
  5
D9
330
3F
100
AcDbEntity
  8
1
  6
Continuous
 62
     7
100
AcDbLine
 10
70.48609254803213
 20
190.319815648546
 30
0.0
 11
89.16209254803212
 21
190.319815648546
 31
0.0
  0
LINE
  5
DA
330
3F
100
AcDbEntity
  8
1
  6
Continuous
 62
     7
100
AcDbLine
 10
68.62787938489001
 20
177.8667859638317
 30
0.0
 11
66.82409254803213
 21
176.8253691480111
 31
0.0
  0
LINE
  5
DB
330
3F
100
AcDbEntity
  8
1
  6
Continuous
 62
     7
100
AcDbLine
 10
90.32409254803213
 20
194.1044983594736
 30
0.0
 11
90.32409254803213
 21
190.319815648546
 31
0.0
  0
LINE
  5
DC
330
3F
100
AcDbEntity
  8
1
  6
Continuous
 62
     2
100
AcDbLine
 10
89.16209254803212
 20
193.819815648546
 30
0.0
 11
89.16209254803212
 21
190.319815648546
 31
0.0
  0
LINE
  5
DD
330
3F
100
AcDbEntity
  8
1
  6
Continuous
 62
     7
100
AcDbLine
 10
69.32409254803213
 20
194.1066663694895
 30
0.0
 11
69.32409254803213
 21
190.319815648546
 31
0.0
  0
ARC
  5
DE
330
3F
100
AcDbEntity
  8
1
  6
Continuous
 62
     7
100
AcDbCircle
 10
-9.30583854882065
 20
188.3071726101511
 30
0.0
 40
78.6299310968528
100
AcDbArc
 50
-7.63019728412837
 51
-0.00000000000006
  0
ARC
  5
DF
330
3F
100
AcDbEntity
  8
1
  6
Continuous
 62
     7
100
AcDbCircle
 10
168.9540236448849
 20
188.3071726101511
 30
0.0
 40
78.62993109685277
100
AcDbArc
 50
-179.9999999999999
 51
-172.3698027158716
  0
ENDBLK
  5
41
330
3F
100
AcDbEntity
  8
0
100
AcDbBlockEnd
  0
BLOCK
  5
43
330
42
100
AcDbEntity
  8
0
100
AcDbBlockBegin
  2
78-167
 70
     0
 71
     0
 10
297.1335982707208
 20
-36.92244694433663
 30
0.0
  3
78-167
  1

  0
LINE
  5
E0
330
42
100
AcDbEntity
  8
1
  6
Continuous
 62
     7
100
AcDbLine
 10
233.0398582701589
 20
158.3789491178398
 30
0.0
 11
233.0398582701589
 21
157.1985889765039
 31
0.0
  0
LINE
  5
E1
330
42
100
AcDbEntity
  8
1
  6
Continuous
 62
     7
100
AcDbLine
 10
249.0398582701589
 20
199.3198156485459
 30
0.0
 11
249.0398582701589
 21
139.319815648546
 31
0.0
  0
LINE
  5
E2
330
42
100
AcDbEntity
  8
1
  6
Continuous
 62
     7
100
AcDbLine
 10
249.0398582701589
 20
199.3198156485459
 30
0.0
 11
247.0398582701589
 21
199.3198156485459
 31
0.0
  0
LINE
  5
E3
330
42
100
AcDbEntity
  8
1
  6
Continuous
 62
     7
100
AcDbLine
 10
233.0398582701589
 20
157.1985889765039
 30
0.0
 11
233.0398582701589
 21
181.5239841252333
 31
0.0
  0
LINE
  5
E4
330
42
100
AcDbEntity
  8
1
  6
Continuous
 62
     7
100
AcDbLine
 10
247.0398582701589
 20
139.319815648546
 30
0.0
 11
249.0398582701589
 21
139.319815648546
 31
0.0
  0
LINE
  5
E5
330
42
100
AcDbEntity
  8
1
  6
Continuous
 62
     7
100
AcDbLine
 10
109.8240925480322
 20
357.002357157639
 30
0.0
 11
109.8240925480322
 21
359.002357157639
 31
0.0
  0
LINE
  5
E6
330
42
100
AcDbEntity
  8
1
  6
Continuous
 62
     7
100
AcDbLine
 10
91.94531922007428
 20
343.002357157639
 30
0.0
 11
67.61992407134488
 21
343.002357157639
 31
0.0
  0
LINE
  5
E7
330
42
100
AcDbEntity
  8
1
  6
Continuous
 62
     7
100
AcDbLine
 10
49.8240925480323
 20
359.002357157639
 30
0.0
 11
49.8240925480323
 21
357.002357157639
 31
0.0
  0
LINE
  5
E8
330
42
100
AcDbEntity
  8
1
  6
Continuous
 62
     7
100
AcDbLine
 10
49.8240925480323
 20
359.002357157639
 30
0.0
 11
109.8240925480322
 21
359.002357157639
 31
0.0
  0
LINE
  5
E9
330
42
100
AcDbEntity
  8
1
  6
Continuous
 62
     7
100
AcDbLine
 10
90.7649590787384
 20
343.002357157639
 30
0.0
 11
91.94531922007428
 21
343.002357157639
 31
0.0
  0
ARC
  5
EA
330
42
100
AcDbEntity
  8
1
  6
Continuous
 62
     7
100
AcDbCircle
 10
258.0398582701589
 20
181.5239841252333
 30
0.0
 40
25.0000000000001
100
AcDbArc
 50
156.443535690899
 51
180.0
  0
ARC
  5
EB
330
42
100
AcDbEntity
  8
1
  6
Continuous
 62
     7
100
AcDbCircle
 10
247.0398582701589
 20
186.319815648546
 30
0.0
 40
12.99999999999989
100
AcDbArc
 50
90.0
 51
156.4435356908992
  0
ARC
  5
EC
330
42
100
AcDbEntity
  8
1
  6
Continuous
 62
     7
100
AcDbCircle
 10
247.0398582701589
 20
152.319815648546
 30
0.0
 40
13.00000000000019
100
AcDbArc
 50
-156.4435356908983
 51
-90.0
  0
ARC
  5
ED
330
42
100
AcDbEntity
  8
1
  6
Continuous
 62
     7
100
AcDbCircle
 10
258.0398582701589
 20
157.1156471718587
 30
0.0
 40
25.0
100
AcDbArc
 50
180.0
 51
-156.4435356908986
  0
ARC
  5
EE
330
42
100
AcDbEntity
  8
1
  6
Continuous
 62
     7
100
AcDbCircle
 10
92.02826102471948
 20
368.002357157639
 30
0.0
 40
25.0
100
AcDbArc
 50
-90.0
 51
-66.44353569089856
  0
ARC
  5
EF
330
42
100
AcDbEntity
  8
1
  6
Continuous
 62
     7
100
AcDbCircle
 10
96.82409254803218
 20
357.002357157639
 30
0.0
 40
13.00000000000019
100
AcDbArc
 50
-66.44353569089829
 51
0.0
  0
ARC
  5
F0
330
42
100
AcDbEntity
  8
1
  6
Continuous
 62
     7
100
AcDbCircle
 10
62.82409254803218
 20
357.002357157639
 30
0.0
 40
12.99999999999989
100
AcDbArc
 50
180.0
 51
-113.5564643091007
  0
ARC
  5
F1
330
42
100
AcDbEntity
  8
1
  6
Continuous
 62
     7
100
AcDbCircle
 10
67.61992407134488
 20
368.002357157639
 30
0.0
 40
25.00000000000008
100
AcDbArc
 50
-113.5564643091009
 51
-90.0
  0
ARC
  5
F2
330
42
100
AcDbEntity
  8
1
  6
Continuous
 62
     7
100
AcDbCircle
 10
79.82409254803213
 20
169.319815648546
 30
0.0
 40
32.06610472190874
100
AcDbArc
 50
110.6800047299002
 51
68.73416593707356
  0
ENDBLK
  5
44
330
42
100
AcDbEntity
  8
0
100
AcDbBlockEnd
  0
BLOCK
  5
46
330
45
100
AcDbEntity
  8
0
100
AcDbBlockBegin
  2
64-7-13-55
 70
     0
 71
     0
 10
381.286758560684
 20
32.02593046409051
 30
0.0
  3
64-7-13-55
  1

  0
LINE
  5
F3
330
45
100
AcDbEntity
  8
1
  6
Continuous
 62
     7
100
AcDbLine
 10
222.5375011125199
 20
158.7159635550596
 30
0.0
 11
221.5375011125199
 21
158.7392194318895
 31
0.0
  0
LINE
  5
F4
330
45
100
AcDbEntity
  8
1
  6
Continuous
 62
     7
100
AcDbLine
 10
222.5375011125199
 20
178.7612718504044
 30
0.0
 11
222.5375011125199
 21
158.7159635550596
 31
0.0
  0
LINE
  5
F5
330
45
100
AcDbEntity
  8
1
  6
Continuous
 62
     7
100
AcDbLine
 10
224.646176964992
 20
158.660914875629
 30
0.0
 11
222.5375011125199
 21
158.7159635550596
 31
0.0
  0
LINE
  5
F6
330
45
100
AcDbEntity
  8
1
  6
Continuous
 62
     7
100
AcDbLine
 10
251.5375011125199
 20
158.7159635550596
 30
0.0
 11
249.4288252600476
 21
158.660914875629
 31
0.0
  0
LINE
  5
F7
330
45
100
AcDbEntity
  8
1
  6
Continuous
 62
     7
100
AcDbLine
 10
251.5375011125199
 20
158.7159635550596
 30
0.0
 11
251.5375011125199
 21
159.8783594466875
 31
0.0
  0
LINE
  5
F8
330
45
100
AcDbEntity
  8
1
  6
Continuous
 62
     7
100
AcDbLine
 10
264.5375011125199
 20
160.2161028734766
 30
0.0
 11
264.5375011125199
 21
160.2178034292577
 31
0.0
  0
LINE
  5
F9
330
45
100
AcDbEntity
  8
1
  6
Continuous
 62
     2
100
AcDbLine
 10
222.5375011125199
 20
159.8783594466875
 30
0.0
 11
224.646176964992
 21
158.660914875629
 31
0.0
  0
LINE
  5
FA
330
45
100
AcDbEntity
  8
1
  6
Continuous
 62
     2
100
AcDbLine
 10
222.5375011125199
 20
159.8783594466875
 30
0.0
 11
221.5375011125199
 21
159.9044705222698
 31
0.0
  0
LINE
  5
FB
330
45
100
AcDbEntity
  8
1
  6
Continuous
 62
     2
100
AcDbLine
 10
264.5375011125199
 20
160.2178034292577
 30
0.0
 11
251.5375011125199
 21
159.8783594466875
 31
0.0
  0
LINE
  5
FC
330
45
100
AcDbEntity
  8
1
  6
Continuous
 62
     2
100
AcDbLine
 10
249.4288252600476
 20
158.660914875629
 30
0.0
 11
251.5375011125199
 21
159.8783594466875
 31
0.0
  0
LINE
  5
FD
330
45
100
AcDbEntity
  8
1
  6
Continuous
 62
     7
100
AcDbLine
 10
225.0554468843498
 20
158.4246227775166
 30
0.0
 11
233.0398582701589
 21
158.4246227775166
 31
0.0
  0
LINE
  5
FE
330
45
100
AcDbEntity
  8
1
  6
Continuous
 62
     7
100
AcDbLine
 10
224.646176964992
 20
158.660914875629
 30
0.0
 11
225.0554468843498
 21
158.4246227775166
 31
0.0
  0
LINE
  5
FF
330
45
100
AcDbEntity
  8
1
  6
Continuous
 62
     7
100
AcDbLine
 10
264.5375011125199
 20
178.4218278678341
 30
0.0
 11
264.5375011125199
 21
178.4235284236152
 31
0.0
  0
LINE
  5
100
330
45
100
AcDbEntity
  8
1
  6
Continuous
 62
     7
100
AcDbLine
 10
264.5375011125199
 20
160.2178034292577
 30
0.0
 11
264.5375011125199
 21
178.4218278678341
 31
0.0
  0
LINE
  5
101
330
45
100
AcDbEntity
  8
1
  6
Continuous
 62
     7
100
AcDbLine
 10
251.5375011125199
 20
179.9236677420323
 30
0.0
 11
263.3771991832201
 21
179.6483251819972
 31
0.0
  0
LINE
  5
102
330
45
100
AcDbEntity
  8
1
  6
Continuous
 62
     7
100
AcDbLine
 10
251.5375011125199
 20
159.8783594466875
 30
0.0
 11
251.5375011125199
 21
179.9236677420323
 31
0.0
  0
LINE
  5
103
330
45
100
AcDbEntity
  8
1
  6
Continuous
 62
     7
100
AcDbLine
 10
263.3771991832201
 20
179.6483251819972
 30
0.0
 11
264.5375011125199
 21
178.4235284236152
 31
0.0
  0
LINE
  5
104
330
45
100
AcDbEntity
  8
1
  6
Continuous
 62
     7
100
AcDbLine
 10
249.4288252600476
 20
179.9787164214629
 30
0.0
 11
251.5375011125199
 21
179.9236677420323
 31
0.0
  0
LINE
  5
105
330
45
100
AcDbEntity
  8
1
  6
Continuous
 62
     2
100
AcDbLine
 10
251.5375011125199
 20
178.7612718504044
 30
0.0
 11
264.5375011125199
 21
178.4218278678341
 31
0.0
  0
LINE
  5
106
330
45
100
AcDbEntity
  8
1
  6
Continuous
 62
     2
100
AcDbLine
 10
251.5375011125199
 20
178.7612718504044
 30
0.0
 11
249.4288252600476
 21
179.9787164214629
 31
0.0
  0
LINE
  5
107
330
45
100
AcDbEntity
  8
1
  6
Continuous
 62
     7
100
AcDbLine
 10
249.4288252600476
 20
179.9787164214629
 30
0.0
 11
249.0398582701589
 21
180.203286617781
 31
0.0
  0
LINE
  5
108
330
45
100
AcDbEntity
  8
1
  6
Continuous
 62
     7
100
AcDbLine
 10
225.0554468843498
 20
180.2150085195752
 30
0.0
 11
224.646176964992
 21
179.9787164214629
 31
0.0
  0
LINE
  5
109
330
45
100
AcDbEntity
  8
1
  6
Continuous
 62
     2
100
AcDbLine
 10
224.646176964992
 20
179.9787164214629
 30
0.0
 11
222.5375011125199
 21
178.7612718504044
 31
0.0
  0
LINE
  5
10A
330
45
100
AcDbEntity
  8
1
  6
Continuous
 62
     7
100
AcDbLine
 10
222.5375011125199
 20
179.9236677420323
 30
0.0
 11
224.646176964992
 21
179.9787164214629
 31
0.0
  0
LINE
  5
10B
330
45
100
AcDbEntity
  8
1
  6
Continuous
 62
     7
100
AcDbLine
 10
222.5375011125199
 20
179.9236677420323
 30
0.0
 11
222.5375011125199
 21
178.7612718504044
 31
0.0
  0
LINE
  5
10C
330
45
100
AcDbEntity
  8
1
  6
Continuous
 62
     7
100
AcDbLine
 10
264.5375011125199
 20
160.2161028734766
 30
0.0
 11
263.3771991832201
 21
158.9913061150947
 31
0.0
  0
LINE
  5
10D
330
45
100
AcDbEntity
  8
1
  6
Continuous
 62
     7
100
AcDbLine
 10
263.3771991832201
 20
158.9913061150947
 30
0.0
 11
251.5375011125199
 21
158.7159635550596
 31
0.0
  0
LINE
  5
10E
330
45
100
AcDbEntity
  8
1
  6
Continuous
 62
     7
100
AcDbLine
 10
263.3771991832201
 20
158.9913061150947
 30
0.0
 11
263.3771991832201
 21
179.6483251819972
 31
0.0
  0
LINE
  5
10F
330
45
100
AcDbEntity
  8
1
  6
Continuous
 62
     7
100
AcDbLine
 10
221.5375011125199
 20
179.9004118652024
 30
0.0
 11
222.5375011125199
 21
179.9236677420323
 31
0.0
  0
LINE
  5
110
330
45
100
AcDbEntity
  8
1
  6
Continuous
 62
     2
100
AcDbLine
 10
221.5375011125199
 20
178.7351607748221
 30
0.0
 11
222.5375011125199
 21
178.7612718504044
 31
0.0
  0
LINE
  5
111
330
45
100
AcDbEntity
  8
1
  6
Continuous
 62
     7
100
AcDbLine
 10
233.0398582701589
 20
180.2150085195752
 30
0.0
 11
225.0554468843498
 21
180.2150085195752
 31
0.0
  0
LINE
  5
112
330
45
100
AcDbEntity
  8
1
  6
Continuous
 62
     7
100
AcDbLine
 10
68.9288996770029
 20
343.002357157639
 30
0.0
 11
68.9288996770029
 21
335.0179457718299
 31
0.0
  0
LINE
  5
113
330
45
100
AcDbEntity
  8
1
  6
Continuous
 62
     2
100
AcDbLine
 10
70.408747421756
 20
331.5
 30
0.0
 11
70.38263634617368
 21
332.5
 31
0.0
  0
LINE
  5
114
330
45
100
AcDbEntity
  8
1
  6
Continuous
 62
     7
100
AcDbLine
 10
69.2434963313757
 20
331.5
 30
0.0
 11
69.22024045454583
 21
332.5
 31
0.0
  0
LINE
  5
115
330
45
100
AcDbEntity
  8
1
  6
Continuous
 62
     7
100
AcDbLine
 10
90.15260208148339
 20
373.3396980707003
 30
0.0
 11
69.49558301458092
 21
373.3396980707003
 31
0.0
  0
LINE
  5
116
330
45
100
AcDbEntity
  8
1
  6
Continuous
 62
     7
100
AcDbLine
 10
90.15260208148339
 20
373.3396980707003
 30
0.0
 11
90.42794464151854
 21
361.5
 31
0.0
  0
LINE
  5
117
330
45
100
AcDbEntity
  8
1
  6
Continuous
 62
     7
100
AcDbLine
 10
88.9278053231015
 20
374.5
 30
0.0
 11
90.15260208148339
 21
373.3396980707003
 31
0.0
  0
LINE
  5
118
330
45
100
AcDbEntity
  8
1
  6
Continuous
 62
     7
100
AcDbLine
 10
69.22024045454583
 20
332.5
 30
0.0
 11
70.38263634617368
 21
332.5
 31
0.0
  0
LINE
  5
119
330
45
100
AcDbEntity
  8
1
  6
Continuous
 62
     7
100
AcDbLine
 10
69.22024045454583
 20
332.5
 30
0.0
 11
69.1651917751152
 21
334.6086758524722
 31
0.0
  0
LINE
  5
11A
330
45
100
AcDbEntity
  8
1
  6
Continuous
 62
     2
100
AcDbLine
 10
69.1651917751152
 20
334.6086758524722
 30
0.0
 11
70.38263634617368
 21
332.5
 31
0.0
  0
LINE
  5
11B
330
45
100
AcDbEntity
  8
1
  6
Continuous
 62
     7
100
AcDbLine
 10
68.9288996770029
 20
335.0179457718299
 30
0.0
 11
69.1651917751152
 21
334.6086758524722
 31
0.0
  0
LINE
  5
11C
330
45
100
AcDbEntity
  8
1
  6
Continuous
 62
     7
100
AcDbLine
 10
69.1651917751152
 20
359.3913241475277
 30
0.0
 11
68.94062157879711
 21
359.002357157639
 31
0.0
  0
LINE
  5
11D
330
45
100
AcDbEntity
  8
1
  6
Continuous
 62
     2
100
AcDbLine
 10
70.38263634617368
 20
361.5
 30
0.0
 11
69.1651917751152
 21
359.3913241475277
 31
0.0
  0
LINE
  5
11E
330
45
100
AcDbEntity
  8
1
  6
Continuous
 62
     2
100
AcDbLine
 10
70.38263634617368
 20
361.5
 30
0.0
 11
70.72208032874403
 21
374.5
 31
0.0
  0
LINE
  5
11F
330
45
100
AcDbEntity
  8
1
  6
Continuous
 62
     7
100
AcDbLine
 10
69.1651917751152
 20
359.3913241475277
 30
0.0
 11
69.22024045454583
 21
361.5
 31
0.0
  0
LINE
  5
120
330
45
100
AcDbEntity
  8
1
  6
Continuous
 62
     7
100
AcDbLine
 10
69.49558301458092
 20
373.3396980707003
 30
0.0
 11
70.72037977296293
 21
374.5
 31
0.0
  0
LINE
  5
121
330
45
100
AcDbEntity
  8
1
  6
Continuous
 62
     7
100
AcDbLine
 10
89.26554874989063
 20
361.5
 30
0.0
 11
69.22024045454583
 21
361.5
 31
0.0
  0
LINE
  5
122
330
45
100
AcDbEntity
  8
1
  6
Continuous
 62
     7
100
AcDbLine
 10
69.22024045454583
 20
361.5
 30
0.0
 11
69.49558301458092
 21
373.3396980707003
 31
0.0
  0
LINE
  5
123
330
45
100
AcDbEntity
  8
1
  6
Continuous
 62
     7
100
AcDbLine
 10
88.9261047673204
 20
374.5
 30
0.0
 11
70.72208032874403
 21
374.5
 31
0.0
  0
LINE
  5
124
330
45
100
AcDbEntity
  8
1
  6
Continuous
 62
     7
100
AcDbLine
 10
70.72208032874403
 20
374.5
 30
0.0
 11
70.72037977296293
 21
374.5
 31
0.0
  0
LINE
  5
125
330
45
100
AcDbEntity
  8
1
  6
Continuous
 62
     7
100
AcDbLine
 10
90.48299332094911
 20
334.6086758524722
 30
0.0
 11
90.71928541906152
 21
335.0179457718299
 31
0.0
  0
LINE
  5
126
330
45
100
AcDbEntity
  8
1
  6
Continuous
 62
     7
100
AcDbLine
 10
90.71928541906152
 20
335.0179457718299
 30
0.0
 11
90.71928541906146
 21
343.002357157639
 31
0.0
  0
LINE
  5
127
330
45
100
AcDbEntity
  8
1
  6
Continuous
 62
     2
100
AcDbLine
 10
90.48299332094911
 20
359.3913241475277
 30
0.0
 11
89.26554874989063
 21
361.5
 31
0.0
  0
LINE
  5
128
330
45
100
AcDbEntity
  8
1
  6
Continuous
 62
     2
100
AcDbLine
 10
88.9261047673204
 20
374.5
 30
0.0
 11
89.26554874989063
 21
361.5
 31
0.0
  0
LINE
  5
129
330
45
100
AcDbEntity
  8
1
  6
Continuous
 62
     2
100
AcDbLine
 10
89.26554874989063
 20
332.5
 30
0.0
 11
89.23943767430831
 21
331.5
 31
0.0
  0
LINE
  5
12A
330
45
100
AcDbEntity
  8
1
  6
Continuous
 62
     2
100
AcDbLine
 10
89.26554874989063
 20
332.5
 30
0.0
 11
90.48299332094911
 21
334.6086758524722
 31
0.0
  0
LINE
  5
12B
330
45
100
AcDbEntity
  8
1
  6
Continuous
 62
     7
100
AcDbLine
 10
88.9278053231015
 20
374.5
 30
0.0
 11
88.9261047673204
 21
374.5
 31
0.0
  0
LINE
  5
12C
330
45
100
AcDbEntity
  8
1
  6
Continuous
 62
     7
100
AcDbLine
 10
90.42794464151854
 20
361.5
 30
0.0
 11
89.26554874989063
 21
361.5
 31
0.0
  0
LINE
  5
12D
330
45
100
AcDbEntity
  8
1
  6
Continuous
 62
     7
100
AcDbLine
 10
90.42794464151854
 20
361.5
 30
0.0
 11
90.48299332094911
 21
359.3913241475277
 31
0.0
  0
LINE
  5
12E
330
45
100
AcDbEntity
  8
1
  6
Continuous
 62
     7
100
AcDbLine
 10
90.48299332094911
 20
334.6086758524722
 30
0.0
 11
90.42794464151854
 21
332.5
 31
0.0
  0
LINE
  5
12F
330
45
100
AcDbEntity
  8
1
  6
Continuous
 62
     7
100
AcDbLine
 10
70.38263634617368
 20
332.5
 30
0.0
 11
90.42794464151854
 21
332.5
 31
0.0
  0
LINE
  5
130
330
45
100
AcDbEntity
  8
1
  6
Continuous
 62
     7
100
AcDbLine
 10
90.42794464151854
 20
332.5
 30
0.0
 11
90.40468876468862
 21
331.5
 31
0.0
  0
LINE
  5
131
330
45
100
AcDbEntity
  8
1
  6
Continuous
 62
     7
100
AcDbLine
 10
68.9288996770029
 20
335.0179457718299
 30
0.0
 11
90.71928541906152
 21
335.0179457718299
 31
0.0
  0
LINE
  5
132
330
45
100
AcDbEntity
  8
1
  6
Continuous
 62
     7
100
AcDbLine
 10
225.0554468843498
 20
180.2150085195752
 30
0.0
 11
225.0554468843498
 21
158.4246227775166
 31
0.0
  0
ENDBLK
  5
47
330
45
100
AcDbEntity
  8
0
100
AcDbBlockEnd
  0
BLOCK
  5
49
330
48
100
AcDbEntity
  8
0
100
AcDbBlockBegin
  2
V22-0A-13
 70
     0
 71
     0
 10
133.7385709387331
 20
1165.277740897449
 30
0.0
  3
V22-0A-13
  1

  0
LINE
  5
133
330
48
100
AcDbEntity
  8
1
  6
Continuous
 62
     7
100
AcDbLine
 10
74.39253913230749
 20
299.5
 30
0.0
 11
85.25564596375573
 21
299.5
 31
0.0
  0
LINE
  5
134
330
48
100
AcDbEntity
  8
1
  6
Continuous
 62
     7
100
AcDbLine
 10
66.82409254803226
 20
329.2388930010698
 30
0.0
 11
66.82409254803226
 21
322.0972746609746
 31
0.0
  0
LINE
  5
135
330
48
100
AcDbEntity
  8
1
  6
Continuous
 62
     7
100
AcDbLine
 10
92.57409254803226
 20
331.5
 30
0.0
 11
67.07409254803226
 21
331.5
 31
0.0
  0
LINE
  5
136
330
48
100
AcDbEntity
  8
1
  6
Continuous
 62
     7
100
AcDbLine
 10
92.82409254803214
 20
331.2500000000002
 30
0.0
 11
92.82409254803214
 21
322.0972746609746
 31
0.0
  0
LINE
  5
137
330
48
100
AcDbEntity
  8
1
  6
Continuous
 62
     7
100
AcDbLine
 10
92.57409254803226
 20
331.5
 30
0.0
 11
92.82409254803214
 21
331.2500000000002
 31
0.0
  0
LINE
  5
138
330
48
100
AcDbEntity
  8
1
  6
Continuous
 62
     7
100
AcDbLine
 10
66.82409254803226
 20
331.25
 30
0.0
 11
66.82409254803226
 21
329.2388930010698
 31
0.0
  0
LINE
  5
139
330
48
100
AcDbEntity
  8
1
  6
Continuous
 62
     7
100
AcDbLine
 10
66.82409254803226
 20
331.25
 30
0.0
 11
67.07409254803226
 21
331.5
 31
0.0
  0
LINE
  5
13A
330
48
100
AcDbEntity
  8
1
  6
Continuous
 62
     7
100
AcDbLine
 10
67.82409254803216
 20
288.5
 30
0.0
 11
67.82409254803216
 21
287.0700000000001
 31
0.0
  0
LINE
  5
13B
330
48
100
AcDbEntity
  8
1
  6
Continuous
 62
     7
100
AcDbLine
 10
68.63709254803216
 20
288.5
 30
0.0
 11
67.82409254803216
 21
288.5
 31
0.0
  0
LINE
  5
13C
330
48
100
AcDbEntity
  8
1
  6
Continuous
 62
     7
100
AcDbLine
 10
67.82409254803216
 20
289.9081573065536
 30
0.0
 11
67.82409254803216
 21
288.5
 31
0.0
  0
LINE
  5
13D
330
48
100
AcDbEntity
  8
1
  6
Continuous
 62
     7
100
AcDbLine
 10
91.82409254803226
 20
288.5
 30
0.0
 11
91.82409254803226
 21
289.9081573065536
 31
0.0
  0
LINE
  5
13E
330
48
100
AcDbEntity
  8
1
  6
Continuous
 62
     7
100
AcDbLine
 10
91.82409254803226
 20
288.5
 30
0.0
 11
91.01109254803227
 21
288.5
 31
0.0
  0
LINE
  5
13F
330
48
100
AcDbEntity
  8
1
  6
Continuous
 62
     2
100
AcDbLine
 10
67.82409254803216
 20
289.9081573065536
 30
0.0
 11
68.63709254803216
 21
288.5
 31
0.0
  0
LINE
  5
140
330
48
100
AcDbEntity
  8
1
  6
Continuous
 62
     2
100
AcDbLine
 10
91.01109254803227
 20
288.5
 30
0.0
 11
91.01109254803227
 21
287.0700000000001
 31
0.0
  0
LINE
  5
141
330
48
100
AcDbEntity
  8
1
  6
Continuous
 62
     2
100
AcDbLine
 10
91.01109254803227
 20
288.5
 30
0.0
 11
91.82409254803226
 21
289.9081573065536
 31
0.0
  0
LINE
  5
142
330
48
100
AcDbEntity
  8
1
  6
Continuous
 62
     7
100
AcDbLine
 10
67.32409254803226
 20
290.4081573065535
 30
0.0
 11
67.32409254803216
 21
319.9178251892043
 31
0.0
  0
LINE
  5
143
330
48
100
AcDbEntity
  8
1
  6
Continuous
 62
     7
100
AcDbLine
 10
67.82409254803216
 20
289.9081573065536
 30
0.0
 11
67.32409254803226
 21
290.4081573065535
 31
0.0
  0
LINE
  5
144
330
48
100
AcDbEntity
  8
1
  6
Continuous
 62
     7
100
AcDbLine
 10
91.82409254803226
 20
289.9081573065536
 30
0.0
 11
92.32409254803226
 21
290.4081573065536
 31
0.0
  0
LINE
  5
145
330
48
100
AcDbEntity
  8
1
  6
Continuous
 62
     7
100
AcDbLine
 10
92.32409254803226
 20
290.4081573065536
 30
0.0
 11
92.32409254803226
 21
319.9178251892043
 31
0.0
  0
LINE
  5
146
330
48
100
AcDbEntity
  8
1
  6
Continuous
 62
     7
100
AcDbLine
 10
180.4456584190734
 20
156.819815648546
 30
0.0
 11
209.9553263017242
 21
156.819815648546
 31
0.0
  0
LINE
  5
147
330
48
100
AcDbEntity
  8
1
  6
Continuous
 62
     7
100
AcDbLine
 10
179.9456584190734
 20
157.319815648546
 30
0.0
 11
180.4456584190734
 21
156.819815648546
 31
0.0
  0
LINE
  5
148
330
48
100
AcDbEntity
  8
1
  6
Continuous
 62
     7
100
AcDbLine
 10
179.9456584190734
 20
181.3198156485461
 30
0.0
 11
180.4456584190733
 21
181.819815648546
 31
0.0
  0
LINE
  5
149
330
48
100
AcDbEntity
  8
1
  6
Continuous
 62
     7
100
AcDbLine
 10
209.0375011125199
 20
181.8198156485461
 30
0.0
 11
209.9553263017242
 21
181.8198156485461
 31
0.0
  0
LINE
  5
14A
330
48
100
AcDbEntity
  8
1
  6
Continuous
 62
     7
100
AcDbLine
 10
214.5375011125199
 20
184.3309226474762
 30
0.0
 11
213.4908602076569
 21
183.2842817426133
 31
0.0
  0
LINE
  5
14B
330
48
100
AcDbEntity
  8
1
  6
Continuous
 62
     7
100
AcDbLine
 10
214.5375011125199
 20
154.3087086496157
 30
0.0
 11
213.490860207657
 21
155.3553495544786
 31
0.0
  0
LINE
  5
14C
330
48
100
AcDbEntity
  8
1
  6
PHANTOM
 62
     4
100
AcDbLine
 10
193.5375011125199
 20
202.319815648546
 30
0.0
 11
193.5375011125199
 21
152.199493919101
 31
0.0
  0
LINE
  5
14D
330
48
100
AcDbEntity
  8
1
  6
Continuous
 62
     7
100
AcDbLine
 10
221.5375011125199
 20
156.569815648546
 30
0.0
 11
221.5375011125199
 21
182.069815648546
 31
0.0
  0
LINE
  5
14E
330
48
100
AcDbEntity
  8
1
  6
Continuous
 62
     2
100
AcDbLine
 10
178.5375011125199
 20
158.1328156485459
 30
0.0
 11
179.9456584190734
 21
157.319815648546
 31
0.0
  0
LINE
  5
14F
330
48
100
AcDbEntity
  8
1
  6
Continuous
 62
     2
100
AcDbLine
 10
178.5375011125199
 20
158.1328156485459
 30
0.0
 11
177.1078098243349
 21
158.1328156485459
 31
0.0
  0
LINE
  5
150
330
48
100
AcDbEntity
  8
1
  6
Continuous
 62
     2
100
AcDbLine
 10
202.8755011125199
 20
190.319815648546
 30
0.0
 11
204.0375011125199
 21
188.3071726101509
 31
0.0
  0
LINE
  5
151
330
48
100
AcDbEntity
  8
1
  6
Continuous
 62
     2
100
AcDbLine
 10
183.0375011125199
 20
188.3071726101509
 30
0.0
 11
184.1995011125199
 21
190.319815648546
 31
0.0
  0
LINE
  5
152
330
48
100
AcDbEntity
  8
1
  6
Continuous
 62
     2
100
AcDbLine
 10
184.1995011125199
 20
190.319815648546
 30
0.0
 11
184.1995011125199
 21
193.819815648546
 31
0.0
  0
LINE
  5
153
330
48
100
AcDbEntity
  8
1
  6
Continuous
 62
     2
100
AcDbLine
 10
179.9456584190734
 20
181.3198156485461
 30
0.0
 11
178.5375011125199
 21
180.5068156485461
 31
0.0
  0
LINE
  5
154
330
48
100
AcDbEntity
  8
1
  6
Continuous
 62
     7
100
AcDbLine
 10
178.5375011125199
 20
157.319815648546
 30
0.0
 11
178.5375011125199
 21
158.1328156485459
 31
0.0
  0
LINE
  5
155
330
48
100
AcDbEntity
  8
1
  6
Continuous
 62
     7
100
AcDbLine
 10
178.5375011125199
 20
157.319815648546
 30
0.0
 11
179.9456584190734
 21
157.319815648546
 31
0.0
  0
LINE
  5
156
330
48
100
AcDbEntity
  8
1
  6
Continuous
 62
     7
100
AcDbLine
 10
202.8755011125199
 20
190.319815648546
 30
0.0
 11
204.0375011125199
 21
190.319815648546
 31
0.0
  0
LINE
  5
157
330
48
100
AcDbEntity
  8
1
  6
Continuous
 62
     7
100
AcDbLine
 10
183.0375011125199
 20
190.319815648546
 30
0.0
 11
184.1995011125199
 21
190.319815648546
 31
0.0
  0
LINE
  5
158
330
48
100
AcDbEntity
  8
1
  6
Continuous
 62
     7
100
AcDbLine
 10
179.9456584190734
 20
181.3198156485461
 30
0.0
 11
178.5375011125199
 21
181.3198156485461
 31
0.0
  0
LINE
  5
159
330
48
100
AcDbEntity
  8
1
  6
Continuous
 62
     7
100
AcDbLine
 10
178.5375011125199
 20
180.5068156485461
 30
0.0
 11
178.5375011125199
 21
181.3198156485461
 31
0.0
  0
LINE
  5
15A
330
48
100
AcDbEntity
  8
1
  6
Continuous
 62
     7
100
AcDbLine
 10
178.5375011125199
 20
181.3198156485461
 30
0.0
 11
177.1078098243349
 21
181.3198156485461
 31
0.0
  0
LINE
  5
15B
330
48
100
AcDbEntity
  8
1
  6
Continuous
 62
     7
100
AcDbLine
 10
219.2763941135896
 20
184.3309226474762
 30
0.0
 11
221.5375011125199
 21
182.069815648546
 31
0.0
  0
LINE
  5
15C
330
48
100
AcDbEntity
  8
1
  6
Continuous
 62
     7
100
AcDbLine
 10
219.2763941135896
 20
184.3309226474762
 30
0.0
 11
214.5375011125199
 21
184.3309226474762
 31
0.0
  0
LINE
  5
15D
330
48
100
AcDbEntity
  8
1
  6
Continuous
 62
     7
100
AcDbLine
 10
221.5375011125199
 20
156.569815648546
 30
0.0
 11
219.2763941135896
 21
154.3087086496157
 31
0.0
  0
LINE
  5
15E
330
48
100
AcDbEntity
  8
1
  6
Continuous
 62
     7
100
AcDbLine
 10
219.2763941135896
 20
154.3087086496157
 30
0.0
 11
214.5375011125199
 21
154.3087086496157
 31
0.0
  0
LINE
  5
15F
330
48
100
AcDbEntity
  8
1
  6
Continuous
 62
     7
100
AcDbLine
 10
183.0375011125199
 20
190.319815648546
 30
0.0
 11
183.0375011125199
 21
188.3071726101509
 31
0.0
  0
LINE
  5
160
330
48
100
AcDbEntity
  8
1
  6
Continuous
 62
     7
100
AcDbLine
 10
204.0375011125199
 20
190.319815648546
 30
0.0
 11
204.0375011125199
 21
188.3071726101509
 31
0.0
  0
LINE
  5
161
330
48
100
AcDbEntity
  8
1
  6
Continuous
 62
     7
100
AcDbLine
 10
204.0375011125199
 20
188.3071726101509
 30
0.0
 11
204.0375011125199
 21
186.8198156485461
 31
0.0
  0
LINE
  5
162
330
48
100
AcDbEntity
  8
1
  6
PHANTOM
 62
     4
100
AcDbLine
 10
64.32409254803216
 20
303.5
 30
0.0
 11
95.32409254803226
 21
303.5
 31
0.0
  0
LINE
  5
163
330
48
100
AcDbEntity
  8
1
  6
PHANTOM
 62
     4
100
AcDbLine
 10
224.5375011125199
 20
169.319815648546
 30
0.0
 11
169.5375011125199
 21
169.319815648546
 31
0.0
  0
LINE
  5
164
330
48
100
AcDbEntity
  8
1
  6
Continuous
 62
     7
100
AcDbLine
 10
219.2763941135897
 20
176.8253691480111
 30
0.0
 11
214.5375011125199
 21
176.8253691480111
 31
0.0
  0
LINE
  5
165
330
48
100
AcDbEntity
  8
1
  6
Continuous
 62
     7
100
AcDbLine
 10
219.2763941135897
 20
161.8142621490808
 30
0.0
 11
214.5375011125199
 21
161.8142621490808
 31
0.0
  0
LINE
  5
166
330
48
100
AcDbEntity
  8
1
  6
Continuous
 62
     7
100
AcDbLine
 10
184.1995011125199
 20
190.319815648546
 30
0.0
 11
202.8755011125199
 21
190.319815648546
 31
0.0
  0
LINE
  5
167
330
48
100
AcDbEntity
  8
1
  6
Continuous
 62
     7
100
AcDbLine
 10
178.5375011125199
 20
158.1328156485459
 30
0.0
 11
178.5375011125199
 21
180.5068156485461
 31
0.0
  0
LINE
  5
168
330
48
100
AcDbEntity
  8
1
  6
Continuous
 62
     7
100
AcDbLine
 10
79.82409254803226
 20
324.5
 30
0.0
 11
79.82409254803226
 21
329.2388930010698
 31
0.0
  0
LINE
  5
169
330
48
100
AcDbEntity
  8
1
  6
PHANTOM
 62
     4
100
AcDbLine
 10
79.82409254803226
 20
337.5
 30
0.0
 11
79.82409254803226
 21
276.5
 31
0.0
  0
LINE
  5
16A
330
48
100
AcDbEntity
  8
1
  6
Continuous
 62
     2
100
AcDbLine
 10
177.1078098243349
 20
180.5068156485461
 30
0.0
 11
178.5375011125199
 21
180.5068156485461
 31
0.0
  0
LINE
  5
16B
330
48
100
AcDbEntity
  8
1
  6
Continuous
 62
     7
100
AcDbLine
 10
177.1078098243349
 20
157.319815648546
 30
0.0
 11
178.5375011125199
 21
157.319815648546
 31
0.0
  0
LINE
  5
16C
330
48
100
AcDbEntity
  8
1
  6
Continuous
 62
     7
100
AcDbLine
 10
183.0375011125199
 20
193.819815648546
 30
0.0
 11
183.0375011125199
 21
190.319815648546
 31
0.0
  0
LINE
  5
16D
330
48
100
AcDbEntity
  8
1
  6
Continuous
 62
     2
100
AcDbLine
 10
202.8755011125199
 20
193.819815648546
 30
0.0
 11
202.8755011125199
 21
190.319815648546
 31
0.0
  0
LINE
  5
16E
330
48
100
AcDbEntity
  8
1
  6
Continuous
 62
     7
100
AcDbLine
 10
204.0375011125199
 20
193.819815648546
 30
0.0
 11
204.0375011125199
 21
190.319815648546
 31
0.0
  0
LINE
  5
16F
330
48
100
AcDbEntity
  8
1
  6
Continuous
 62
     7
100
AcDbLine
 10
91.82409254803226
 20
287.0700000000001
 30
0.0
 11
91.82409254803226
 21
288.5
 31
0.0
  0
LINE
  5
170
330
48
100
AcDbEntity
  8
1
  6
Continuous
 62
     2
100
AcDbLine
 10
68.63709254803216
 20
287.0700000000001
 30
0.0
 11
68.63709254803216
 21
288.5
 31
0.0
  0
LINE
  5
171
330
48
100
AcDbEntity
  8
1
  6
Continuous
 62
     7
100
AcDbLine
 10
68.63709254803216
 20
288.5
 30
0.0
 11
91.01109254803227
 21
288.5
 31
0.0
  0
ARC
  5
172
330
48
100
AcDbEntity
  8
1
  6
Continuous
 62
     7
100
AcDbCircle
 10
173.6226841912895
 20
188.3071726101509
 30
0.0
 40
9.414816921230363
100
AcDbArc
 50
-43.55560474847115
 51
0.0
  0
SPLINE
  5
173
330
48
100
AcDbEntity
  8
1
  6
Continuous
 62
     7
100
AcDbSpline
210
0.0
220
0.0
230
1.0
 70
     8
 71
     3
 72
    33
 73
    29
 74
    27
 42
0.0000000001
 43
0.0000000001
 44
0.00000001
 40
0.0
 40
0.0
 40
0.0
 40
0.0
 40
0.5939249141923338
 40
1.187851599377314
 40
1.513819741512962
 40
1.839789281990728
 40
2.19631743791821
 40
2.5528519351048
 40
2.958199561199015
 40
3.363541512548744
 40
3.863542578221017
 40
4.363662706811251
 40
5.224160052688808
 40
6.084683379167933
 40
6.883623439069149
 40
7.682563498970349
 40
8.543086825449445
 40
9.403584171326976
 40
9.903704299917292
 40
10.40370536558962
 40
10.80904731693935
 40
11.21439494303349
 40
11.57092944021995
 40
11.92745759614735
 40
12.25342713662518
 40
12.57939527876095
 40
13.17332196394599
 40
13.76724687813832
 40
13.76724687813832
 40
13.76724687813832
 40
13.76724687813832
 10
79.82409254803226
 20
324.5
 30
0.0
 10
79.99628074325051
 20
324.4022763687798
 30
0.0
 10
80.34065764712572
 20
324.2068288149429
 30
0.0
 10
80.78818019039699
 20
323.9734414224452
 30
0.0
 10
81.16066740593278
 20
323.7897905861663
 30
0.0
 10
81.46491775242347
 20
323.6467978209742
 30
0.0
 10
81.78130933541898
 20
323.5058383343022
 30
0.0
 10
82.12521680173697
 20
323.3618443511118
 30
0.0
 10
82.4878765976525
 20
323.220782771955
 30
0.0
 10
82.89953316515421
 20
323.0742557871237
 30
0.0
 10
83.34616239957613
 20
322.9323907002266
 30
0.0
 10
83.94461321601168
 20
322.7689681891799
 30
0.0
 10
84.66999611434321
 20
322.6167589671045
 30
0.0
 10
85.50439118234145
 20
322.5115234745183
 30
0.0
 10
86.32409254803221
 20
322.478163673144
 30
0.0
 10
87.14379391372302
 20
322.5115234745181
 30
0.0
 10
87.97818898172122
 20
322.6167589671045
 30
0.0
 10
88.70357188005278
 20
322.7689681891799
 30
0.0
 10
89.30202269648832
 20
322.9323907002266
 30
0.0
 10
89.7486519309104
 20
323.0742557871237
 30
0.0
 10
90.16030849841199
 20
323.2207827719549
 30
0.0
 10
90.52296829432753
 20
323.3618443511119
 30
0.0
 10
90.86687576064534
 20
323.5058383343022
 30
0.0
 10
91.18326734364085
 20
323.646797820974
 30
0.0
 10
91.48751769013155
 20
323.7897905861664
 30
0.0
 10
91.86000490566747
 20
323.9734414224451
 30
0.0
 10
92.30752744893867
 20
324.206828814943
 30
0.0
 10
92.65190435281396
 20
324.40227636878
 30
0.0
 10
92.82409254803226
 20
324.5
 30
0.0
 11
79.82409254803226
 21
324.5
 31
0.0
 11
80.34235247796784
 21
324.2099078616689
 31
0.0
 11
80.86868159270753
 21
323.9347232502674
 31
0.0
 11
81.16110986171258
 21
323.7907061083222
 31
0.0
 11
81.45613578447659
 21
323.6520848754012
 31
0.0
 11
81.78184052563393
 21
323.5070719533678
 31
0.0
 11
82.11074185189553
 21
323.3694465005349
 31
0.0
 11
82.48856203795847
 21
323.2226180122107
 31
0.0
 11
82.8704753425728
 21
323.0868081256686
 31
0.0
 11
83.34708944261743
 21
322.9356788256899
 31
0.0
 11
83.82960939686109
 21
322.8041697508022
 31
0.0
 11
84.67193795261061
 21
322.6282769242536
 31
0.0
 11
85.52581486606422
 21
322.521531375936
 31
0.0
 11
86.32409254803224
 21
322.4890050514168
 31
0.0
 11
87.12237023000024
 21
322.521531375936
 31
0.0
 11
87.97624714345382
 21
322.6282769242537
 31
0.0
 11
88.81857569920332
 21
322.8041697508022
 31
0.0
 11
89.30109565344706
 21
322.9356788256899
 31
0.0
 11
89.77770975349176
 21
323.0868081256685
 31
0.0
 11
90.15962305810608
 21
323.2226180122107
 31
0.0
 11
90.53744324416894
 21
323.3694465005349
 31
0.0
 11
90.86634457043043
 21
323.5070719533677
 31
0.0
 11
91.19204931158768
 21
323.6520848754012
 31
0.0
 11
91.48707523435176
 21
323.7907061083221
 31
0.0
 11
91.77950350335694
 21
323.9347232502674
 31
0.0
 11
92.30583261809662
 21
324.209907861669
 31
0.0
 11
92.82409254803226
 21
324.5
 31
0.0
  0
SPLINE
  5
174
330
48
100
AcDbEntity
  8
1
  6
Continuous
 62
     7
100
AcDbSpline
210
0.0
220
0.0
230
1.0
 70
     8
 71
     3
 72
    33
 73
    29
 74
    27
 42
0.0000000001
 43
0.0000000001
 44
0.00000001
 40
0.0
 40
0.0
 40
0.0
 40
0.0
 40
0.5939249141923463
 40
1.18785159937734
 40
1.513819741513077
 40
1.83978928199092
 40
2.196317437918388
 40
2.5528519351049
 40
2.958199561199009
 40
3.363541512548697
 40
3.863542578220943
 40
4.363662706811177
 40
5.224160052688763
 40
6.084683379167887
 40
6.883623439069161
 40
7.682563498970389
 40
8.543086825449471
 40
9.40358417132706
 40
9.903704299917335
 40
10.40370536558963
 40
10.80904731693934
 40
11.2143949430335
 40
11.57092944021999
 40
11.92745759614743
 40
12.25342713662526
 40
12.57939527876101
 40
13.17332196394605
 40
13.76724687813833
 40
13.76724687813833
 40
13.76724687813833
 40
13.76724687813833
 10
79.82409254803226
 20
324.5
 30
0.0
 10
79.651904352814
 20
324.40227636878
 30
0.0
 10
79.30752744893877
 20
324.2068288149429
 30
0.0
 10
78.86000490566747
 20
323.9734414224453
 30
0.0
 10
78.48751769013157
 20
323.7897905861663
 30
0.0
 10
78.18326734364085
 20
323.646797820974
 30
0.0
 10
77.86687576064531
 20
323.5058383343023
 30
0.0
 10
77.52296829432747
 20
323.3618443511118
 30
0.0
 10
77.16030849841199
 20
323.2207827719549
 30
0.0
 10
76.74865193091037
 20
323.0742557871237
 30
0.0
 10
76.30202269648842
 20
322.9323907002266
 30
0.0
 10
75.70357188005289
 20
322.76896818918
 30
0.0
 10
74.97818898172137
 20
322.6167589671044
 30
0.0
 10
74.14379391372309
 20
322.5115234745184
 30
0.0
 10
73.32409254803227
 20
322.4781636731441
 30
0.0
 10
72.50439118234144
 20
322.5115234745181
 30
0.0
 10
71.66999611434324
 20
322.6167589671047
 30
0.0
 10
70.9446132160117
 20
322.7689681891799
 30
0.0
 10
70.34616239957612
 20
322.9323907002266
 30
0.0
 10
69.89953316515411
 20
323.0742557871235
 30
0.0
 10
69.4878765976525
 20
323.220782771955
 30
0.0
 10
69.12521680173698
 20
323.3618443511119
 30
0.0
 10
68.7813093354191
 20
323.5058383343021
 30
0.0
 10
68.46491775242359
 20
323.6467978209741
 30
0.0
 10
68.16066740593287
 20
323.7897905861663
 30
0.0
 10
67.78818019039699
 20
323.9734414224452
 30
0.0
 10
67.3406576471258
 20
324.206828814943
 30
0.0
 10
66.99628074325052
 20
324.4022763687798
 30
0.0
 10
66.82409254803226
 20
324.5
 30
0.0
 11
79.82409254803226
 21
324.5
 31
0.0
 11
79.30583261809666
 21
324.2099078616689
 31
0.0
 11
78.77950350335695
 21
323.9347232502674
 31
0.0
 11
78.48707523435181
 21
323.7907061083222
 31
0.0
 11
78.19204931158771
 21
323.6520848754012
 31
0.0
 11
77.86634457043039
 21
323.5070719533678
 31
0.0
 11
77.53744324416887
 21
323.3694465005349
 31
0.0
 11
77.15962305810604
 21
323.2226180122107
 31
0.0
 11
76.77770975349175
 21
323.0868081256686
 31
0.0
 11
76.30109565344715
 21
322.9356788256899
 31
0.0
 11
75.81857569920349
 21
322.8041697508022
 31
0.0
 11
74.97624714345395
 21
322.6282769242536
 31
0.0
 11
74.12237023000033
 21
322.521531375936
 31
0.0
 11
73.32409254803226
 21
322.4890050514168
 31
0.0
 11
72.52581486606422
 21
322.521531375936
 31
0.0
 11
71.67193795261066
 21
322.6282769242537
 31
0.0
 11
70.8296093968611
 21
322.8041697508022
 31
0.0
 11
70.3470894426174
 21
322.9356788256899
 31
0.0
 11
69.87047534257273
 21
323.0868081256685
 31
0.0
 11
69.48856203795845
 21
323.2226180122107
 31
0.0
 11
69.11074185189555
 21
323.3694465005349
 31
0.0
 11
68.78184052563404
 21
323.5070719533677
 31
0.0
 11
68.45613578447674
 21
323.6520848754012
 31
0.0
 11
68.16110986171266
 21
323.7907061083221
 31
0.0
 11
67.8686815927075
 21
323.9347232502674
 31
0.0
 11
67.34235247796784
 21
324.209907861669
 31
0.0
 11
66.82409254803226
 21
324.5
 31
0.0
  0
SPLINE
  5
175
330
48
100
AcDbEntity
  8
1
  6
Continuous
 62
     7
100
AcDbSpline
210
0.0
220
0.0
230
1.0
 70
     8
 71
     3
 72
    33
 73
    29
 74
    27
 42
0.0000000001
 43
0.0000000001
 44
0.00000001
 40
0.0
 40
0.0
 40
0.0
 40
0.0
 40
0.5939249141922228
 40
1.187851599377256
 40
1.513819741512954
 40
1.83978928199072
 40
2.196317437918202
 40
2.552851935104792
 40
2.958199561199007
 40
3.363541512548736
 40
3.863542578220975
 40
4.363662706811208
 40
5.224160052688766
 40
6.084683379167911
 40
6.883623439069128
 40
7.682563498970333
 40
8.543086825449421
 40
9.403584171326976
 40
9.903704299917278
 40
10.40370536558962
 40
10.8090473169393
 40
11.21439494303345
 40
11.57092944021994
 40
11.92745759614737
 40
12.25342713662515
 40
12.57939527876098
 40
13.17332196394598
 40
13.76724687813828
 40
13.76724687813828
 40
13.76724687813828
 40
13.76724687813828
 10
79.82409254803226
 20
329.2388930010698
 30
0.0
 10
79.99628074325052
 20
329.3366166322899
 30
0.0
 10
80.3406576471258
 20
329.5320641861266
 30
0.0
 10
80.78818019039704
 20
329.7654515786245
 30
0.0
 10
81.16066740593274
 20
329.9491024149034
 30
0.0
 10
81.46491775242349
 20
330.0920951800958
 30
0.0
 10
81.78130933541898
 20
330.2330546667675
 30
0.0
 10
82.12521680173695
 20
330.3770486499581
 30
0.0
 10
82.48787659765252
 20
330.5181102291149
 30
0.0
 10
82.89953316515415
 20
330.6646372139462
 30
0.0
 10
83.34616239957616
 20
330.806502300843
 30
0.0
 10
83.94461321601168
 20
330.9699248118897
 30
0.0
 10
84.66999611434321
 20
331.1221340339652
 30
0.0
 10
85.50439118234144
 20
331.2273695265516
 30
0.0
 10
86.32409254803224
 20
331.2607293279258
 30
0.0
 10
87.14379391372303
 20
331.2273695265516
 30
0.0
 10
87.97818898172122
 20
331.1221340339653
 30
0.0
 10
88.70357188005275
 20
330.9699248118897
 30
0.0
 10
89.30202269648838
 20
330.8065023008432
 30
0.0
 10
89.74865193091033
 20
330.6646372139461
 30
0.0
 10
90.16030849841206
 20
330.5181102291149
 30
0.0
 10
90.52296829432751
 20
330.3770486499581
 30
0.0
 10
90.86687576064537
 20
330.2330546667675
 30
0.0
 10
91.18326734364082
 20
330.0920951800957
 30
0.0
 10
91.48751769013163
 20
329.9491024149035
 30
0.0
 10
91.86000490566735
 20
329.7654515786244
 30
0.0
 10
92.30752744893871
 20
329.5320641861268
 30
0.0
 10
92.65190435281397
 20
329.3366166322898
 30
0.0
 10
92.82409254803226
 20
329.2388930010698
 30
0.0
 11
79.82409254803226
 21
329.2388930010698
 31
0.0
 11
80.34235247796784
 21
329.5289851394007
 31
0.0
 11
80.86868159270753
 21
329.8041697508023
 31
0.0
 11
81.16110986171258
 21
329.9481868927476
 31
0.0
 11
81.45613578447659
 21
330.0868081256686
 31
0.0
 11
81.78184052563393
 21
330.2318210477021
 31
0.0
 11
82.11074185189553
 21
330.3694465005349
 31
0.0
 11
82.48856203795847
 21
330.5162749888592
 31
0.0
 11
82.8704753425728
 21
330.6520848754012
 31
0.0
 11
83.34708944261743
 21
330.8032141753798
 31
0.0
 11
83.82960939686109
 21
330.9347232502675
 31
0.0
 11
84.67193795261061
 21
331.1106160768161
 31
0.0
 11
85.52581486606422
 21
331.2173616251338
 31
0.0
 11
86.32409254803224
 21
331.249887949653
 31
0.0
 11
87.12237023000024
 21
331.2173616251338
 31
0.0
 11
87.97624714345382
 21
331.1106160768161
 31
0.0
 11
88.81857569920332
 21
330.9347232502675
 31
0.0
 11
89.30109565344706
 21
330.8032141753799
 31
0.0
 11
89.77770975349176
 21
330.6520848754012
 31
0.0
 11
90.15962305810608
 21
330.5162749888592
 31
0.0
 11
90.53744324416894
 21
330.3694465005349
 31
0.0
 11
90.86634457043043
 21
330.2318210477021
 31
0.0
 11
91.19204931158768
 21
330.0868081256685
 31
0.0
 11
91.48707523435176
 21
329.9481868927477
 31
0.0
 11
91.77950350335694
 21
329.8041697508023
 31
0.0
 11
92.30583261809662
 21
329.5289851394008
 31
0.0
 11
92.82409254803226
 21
329.2388930010698
 31
0.0
  0
SPLINE
  5
176
330
48
100
AcDbEntity
  8
1
  6
Continuous
 62
     7
100
AcDbSpline
210
0.0
220
0.0
230
1.0
 70
     8
 71
     3
 72
    33
 73
    29
 74
    27
 42
0.0000000001
 43
0.0000000001
 44
0.00000001
 40
0.0
 40
0.0
 40
0.0
 40
0.0
 40
0.5939249141922353
 40
1.187851599377281
 40
1.513819741513068
 40
1.839789281990911
 40
2.19631743791838
 40
2.552851935104892
 40
2.958199561199001
 40
3.363541512548689
 40
3.863542578220901
 40
4.363662706811136
 40
5.224160052688721
 40
6.084683379167867
 40
6.88362343906914
 40
7.682563498970374
 40
8.543086825449448
 40
9.40358417132706
 40
9.903704299917321
 40
10.40370536558963
 40
10.80904731693928
 40
11.21439494303347
 40
11.57092944021998
 40
11.92745759614745
 40
12.25342713662523
 40
12.57939527876105
 40
13.17332196394603
 40
13.76724687813828
 40
13.76724687813828
 40
13.76724687813828
 40
13.76724687813828
 10
79.82409254803226
 20
329.2388930010698
 30
0.0
 10
79.651904352814
 20
329.3366166322899
 30
0.0
 10
79.30752744893869
 20
329.5320641861266
 30
0.0
 10
78.86000490566744
 20
329.7654515786244
 30
0.0
 10
78.48751769013161
 20
329.9491024149035
 30
0.0
 10
78.18326734364086
 20
330.0920951800957
 30
0.0
 10
77.8668757606453
 20
330.2330546667675
 30
0.0
 10
77.52296829432748
 20
330.3770486499581
 30
0.0
 10
77.16030849841198
 20
330.5181102291149
 30
0.0
 10
76.74865193091036
 20
330.6646372139462
 30
0.0
 10
76.30202269648842
 20
330.8065023008431
 30
0.0
 10
75.70357188005289
 20
330.9699248118899
 30
0.0
 10
74.97818898172136
 20
331.1221340339652
 30
0.0
 10
74.14379391372307
 20
331.2273695265516
 30
0.0
 10
73.32409254803227
 20
331.2607293279258
 30
0.0
 10
72.50439118234148
 20
331.2273695265515
 30
0.0
 10
71.66999611434322
 20
331.1221340339653
 30
0.0
 10
70.94461321601173
 20
330.9699248118898
 30
0.0
 10
70.34616239957607
 20
330.8065023008431
 30
0.0
 10
69.8995331651542
 20
330.6646372139462
 30
0.0
 10
69.48787659765245
 20
330.5181102291149
 30
0.0
 10
69.125216801737
 20
330.3770486499581
 30
0.0
 10
68.78130933541908
 20
330.2330546667674
 30
0.0
 10
68.46491775242365
 20
330.0920951800956
 30
0.0
 10
68.1606674059328
 20
329.9491024149036
 30
0.0
 10
67.78818019039706
 20
329.7654515786244
 30
0.0
 10
67.34065764712577
 20
329.5320641861268
 30
0.0
 10
66.99628074325052
 20
329.3366166322898
 30
0.0
 10
66.82409254803226
 20
329.2388930010698
 30
0.0
 11
79.82409254803226
 21
329.2388930010698
 31
0.0
 11
79.30583261809666
 21
329.5289851394007
 31
0.0
 11
78.77950350335695
 21
329.8041697508023
 31
0.0
 11
78.48707523435181
 21
329.9481868927476
 31
0.0
 11
78.19204931158771
 21
330.0868081256686
 31
0.0
 11
77.86634457043039
 21
330.2318210477021
 31
0.0
 11
77.53744324416887
 21
330.3694465005349
 31
0.0
 11
77.15962305810604
 21
330.5162749888592
 31
0.0
 11
76.77770975349175
 21
330.6520848754012
 31
0.0
 11
76.30109565344715
 21
330.8032141753798
 31
0.0
 11
75.81857569920349
 21
330.9347232502675
 31
0.0
 11
74.97624714345395
 21
331.1106160768161
 31
0.0
 11
74.12237023000033
 21
331.2173616251338
 31
0.0
 11
73.32409254803226
 21
331.249887949653
 31
0.0
 11
72.52581486606422
 21
331.2173616251338
 31
0.0
 11
71.67193795261066
 21
331.1106160768161
 31
0.0
 11
70.8296093968611
 21
330.9347232502675
 31
0.0
 11
70.3470894426174
 21
330.8032141753799
 31
0.0
 11
69.87047534257273
 21
330.6520848754012
 31
0.0
 11
69.48856203795845
 21
330.5162749888592
 31
0.0
 11
69.11074185189555
 21
330.3694465005349
 31
0.0
 11
68.78184052563404
 21
330.2318210477021
 31
0.0
 11
68.45613578447674
 21
330.0868081256685
 31
0.0
 11
68.16110986171266
 21
329.9481868927477
 31
0.0
 11
67.8686815927075
 21
329.8041697508023
 31
0.0
 11
67.34235247796784
 21
329.5289851394008
 31
0.0
 11
66.82409254803226
 21
329.2388930010698
 31
0.0
  0
SPLINE
  5
177
330
48
100
AcDbEntity
  8
1
  6
Continuous
 62
     7
100
AcDbSpline
210
0.0
220
0.0
230
1.0
 70
     8
 71
     3
 72
    33
 73
    29
 74
    27
 42
0.0000000001
 43
0.0000000001
 44
0.00000001
 40
0.0
 40
0.0
 40
0.0
 40
0.0
 40
0.4133569006801325
 40
0.8267148991713142
 40
1.047477429691612
 40
1.268240273686134
 40
1.5042273695352
 40
1.740225682305982
 40
2.001195139144863
 40
2.262139231593097
 40
2.573023665195316
 40
2.884147975817143
 40
3.395079514214205
 40
3.905704156216129
 40
4.367715781294384
 40
4.829727406372691
 40
5.340352048374601
 40
5.851283586771689
 40
6.162407897393528
 40
6.473292330995734
 40
6.734236423443991
 40
6.995205880282919
 40
7.231204193053707
 40
7.467191288902717
 40
7.687954132897124
 40
7.908716663417375
 40
8.322074661908514
 40
8.735431562588689
 40
8.735431562588689
 40
8.735431562588689
 40
8.735431562588689
 10
219.2763941135896
 20
184.3309226474762
 30
0.0
 10
219.3730105673089
 20
184.2326724457716
 30
0.0
 10
219.5662437313456
 20
184.0361717814251
 30
0.0
 10
219.800520686677
 20
183.777117912812
 30
0.0
 10
219.9856137644568
 20
183.5604351063128
 30
0.0
 10
220.1282356443089
 20
183.3853001090039
 30
0.0
 10
220.2693800464693
 20
183.2025034204162
 30
0.0
 10
220.4128884419779
 20
183.0047271371183
 30
0.0
 10
220.5541713314229
 20
182.7952110917703
 30
0.0
 10
220.7000021349122
 20
182.5589126813985
 30
0.0
 10
220.8422242451526
 20
182.301042129545
 30
0.0
 10
221.0040505407802
 20
181.9595763456289
 30
0.0
 10
221.1572146092132
 20
181.5413695394591
 30
0.0
 10
221.2645092685862
 20
181.0567853709577
 30
0.0
 10
221.2978250528706
 20
180.5781458977436
 30
0.0
 10
221.2645092685863
 20
180.0995064245296
 30
0.0
 10
221.1572146092133
 20
179.6149222560281
 30
0.0
 10
221.0040505407802
 20
179.1967154498583
 30
0.0
 10
220.8422242451526
 20
178.8552496659423
 30
0.0
 10
220.7000021349121
 20
178.5973791140887
 30
0.0
 10
220.554171331423
 20
178.3610807037169
 30
0.0
 10
220.4128884419779
 20
178.1515646583688
 30
0.0
 10
220.2693800464694
 20
177.953788375071
 30
0.0
 10
220.1282356443088
 20
177.7709916864832
 30
0.0
 10
219.9856137644569
 20
177.5958566891746
 30
0.0
 10
219.8005206866771
 20
177.3791738826753
 30
0.0
 10
219.5662437313457
 20
177.1201200140624
 30
0.0
 10
219.373010567309
 20
176.9236193497158
 30
0.0
 10
219.2763941135897
 20
176.8253691480111
 30
0.0
 11
219.2763941135896
 21
184.3309226474762
 31
0.0
 11
219.5641605885043
 21
184.034183059192
 31
0.0
 11
219.8416708633222
 21
183.7278288813405
 31
0.0
 11
219.9849509082871
 21
183.5598797116593
 31
0.0
 11
220.1243092381885
 21
183.3886620455859
 31
0.0
 11
220.2684395840507
 21
183.2018028664992
 31
0.0
 11
220.4069476130548
 21
183.0107250563484
 31
0.0
 11
220.552701346973
 21
182.7942512555048
 31
0.0
 11
220.6895859879211
 21
182.5720927209936
 31
0.0
 11
220.8393517293318
 21
182.2996604289358
 31
0.0
 11
220.9722243627874
 21
182.0183364165613
 31
0.0
 11
221.1463619095313
 21
181.5379957543821
 31
0.0
 11
221.2548627376536
 21
181.039031732316
 31
0.0
 11
221.2870960930178
 21
180.5781458977436
 31
0.0
 11
221.2548627376536
 21
180.1172600631713
 31
0.0
 11
221.1463619095313
 21
179.6182960411052
 31
0.0
 11
220.9722243627874
 21
179.1379553789259
 31
0.0
 11
220.8393517293318
 21
178.8566313665514
 31
0.0
 11
220.6895859879211
 21
178.5841990744936
 31
0.0
 11
220.552701346973
 21
178.3620405399824
 31
0.0
 11
220.4069476130548
 21
178.1455667391388
 31
0.0
 11
220.2684395840507
 21
177.9544889289879
 31
0.0
 11
220.1243092381885
 21
177.7676297499014
 31
0.0
 11
219.9849509082872
 21
177.5964120838279
 31
0.0
 11
219.8416708633223
 21
177.4284629141469
 31
0.0
 11
219.5641605885043
 21
177.1221087362954
 31
0.0
 11
219.2763941135897
 21
176.8253691480111
 31
0.0
  0
SPLINE
  5
178
330
48
100
AcDbEntity
  8
1
  6
Continuous
 62
     7
100
AcDbSpline
210
0.0
220
0.0
230
1.0
 70
     8
 71
     3
 72
    33
 73
    29
 74
    27
 42
0.0000000001
 43
0.0000000001
 44
0.00000001
 40
0.0
 40
0.0
 40
0.0
 40
0.0
 40
0.4133569006800533
 40
0.8267148991712541
 40
1.04747742969157
 40
1.268240273686093
 40
1.504227369535158
 40
1.740225682305907
 40
2.001195139144804
 40
2.262139231593022
 40
2.573023665195242
 40
2.884147975817044
 40
3.395079514214096
 40
3.905704156216045
 40
4.367715781294293
 40
4.829727406372598
 40
5.340352048374525
 40
5.851283586771594
 40
6.162407897393396
 40
6.473292330995616
 40
6.734236423443873
 40
6.995205880282801
 40
7.231204193053573
 40
7.467191288902566
 40
7.687954132897027
 40
7.908716663417279
 40
8.322074661908456
 40
8.735431562588572
 40
8.735431562588572
 40
8.735431562588572
 40
8.735431562588572
 10
214.5375011125199
 20
184.3309226474762
 30
0.0
 10
214.4408846588006
 20
184.2326724457715
 30
0.0
 10
214.247651494764
 20
184.036171781425
 30
0.0
 10
214.0133745394325
 20
183.7771179128121
 30
0.0
 10
213.8282814616528
 20
183.5604351063127
 30
0.0
 10
213.6856595818005
 20
183.385300109004
 30
0.0
 10
213.5445151796403
 20
183.2025034204162
 30
0.0
 10
213.4010067841316
 20
183.0047271371183
 30
0.0
 10
213.2597238946867
 20
182.7952110917703
 30
0.0
 10
213.1138930911974
 20
182.5589126813985
 30
0.0
 10
212.971670980957
 20
182.301042129545
 30
0.0
 10
212.8098446853294
 20
181.9595763456288
 30
0.0
 10
212.6566806168965
 20
181.5413695394592
 30
0.0
 10
212.5493859575232
 20
181.0567853709576
 30
0.0
 10
212.5160701732391
 20
180.5781458977436
 30
0.0
 10
212.5493859575233
 20
180.0995064245296
 30
0.0
 10
212.6566806168965
 20
179.6149222560281
 30
0.0
 10
212.8098446853294
 20
179.1967154498584
 30
0.0
 10
212.971670980957
 20
178.8552496659422
 30
0.0
 10
213.1138930911974
 20
178.5973791140887
 30
0.0
 10
213.2597238946867
 20
178.3610807037169
 30
0.0
 10
213.4010067841316
 20
178.1515646583688
 30
0.0
 10
213.5445151796402
 20
177.9537883750709
 30
0.0
 10
213.6856595818007
 20
177.7709916864832
 30
0.0
 10
213.8282814616527
 20
177.5958566891746
 30
0.0
 10
214.0133745394325
 20
177.3791738826753
 30
0.0
 10
214.2476514947641
 20
177.1201200140624
 30
0.0
 10
214.4408846588006
 20
176.9236193497158
 30
0.0
 10
214.5375011125199
 20
176.8253691480111
 30
0.0
 11
214.5375011125199
 21
184.3309226474762
 31
0.0
 11
214.2497346376053
 21
184.034183059192
 31
0.0
 11
213.9722243627874
 21
183.7278288813405
 31
0.0
 11
213.8289443178224
 21
183.5598797116593
 31
0.0
 11
213.689585987921
 21
183.3886620455859
 31
0.0
 11
213.5454556420589
 21
183.2018028664992
 31
0.0
 11
213.4069476130548
 21
183.0107250563484
 31
0.0
 11
213.2611938791366
 21
182.7942512555048
 31
0.0
 11
213.1243092381885
 21
182.5720927209936
 31
0.0
 11
212.9745434967778
 21
182.2996604289358
 31
0.0
 11
212.8416708633223
 21
182.0183364165613
 31
0.0
 11
212.6675333165784
 21
181.5379957543821
 31
0.0
 11
212.559032488456
 21
181.039031732316
 31
0.0
 11
212.5267991330919
 21
180.5781458977436
 31
0.0
 11
212.559032488456
 21
180.1172600631713
 31
0.0
 11
212.6675333165784
 21
179.6182960411052
 31
0.0
 11
212.8416708633223
 21
179.1379553789259
 31
0.0
 11
212.9745434967778
 21
178.8566313665514
 31
0.0
 11
213.1243092381885
 21
178.5841990744936
 31
0.0
 11
213.2611938791366
 21
178.3620405399824
 31
0.0
 11
213.4069476130548
 21
178.1455667391388
 31
0.0
 11
213.5454556420589
 21
177.9544889289879
 31
0.0
 11
213.6895859879211
 21
177.7676297499014
 31
0.0
 11
213.8289443178224
 21
177.5964120838279
 31
0.0
 11
213.9722243627874
 21
177.4284629141469
 31
0.0
 11
214.2497346376053
 21
177.1221087362954
 31
0.0
 11
214.5375011125199
 21
176.8253691480111
 31
0.0
  0
SPLINE
  5
179
330
48
100
AcDbEntity
  8
1
  6
Continuous
 62
     7
100
AcDbSpline
210
0.0
220
0.0
230
1.0
 70
     8
 71
     3
 72
    33
 73
    29
 74
    27
 42
0.0000000001
 43
0.0000000001
 44
0.00000001
 40
0.0
 40
0.0
 40
0.0
 40
0.0
 40
0.6660942076092064
 40
1.332190222770937
 40
1.699632944385127
 40
2.067077053321519
 40
2.470589213764528
 40
2.874107007989179
 40
3.334983200372768
 40
3.795855500931719
 40
4.367402403401262
 40
4.939051291210303
 40
5.929102491977454
 40
6.919199823136869
 40
7.841546055180261
 40
8.763892287223653
 40
9.753989618383232
 40
10.7440408191504
 40
11.31568970695945
 40
11.88723660942903
 40
12.34810890998792
 40
12.80898510237147
 40
13.21250289659618
 40
13.61601505703916
 40
13.98345916597555
 40
14.3509018875897
 40
15.01699790275137
 40
15.68309211036064
 40
15.68309211036064
 40
15.68309211036064
 40
15.68309211036064
 10
214.5375011125199
 20
176.8253691480111
 30
0.0
 10
214.4395631988763
 20
176.6260928695784
 30
0.0
 10
214.243687105819
 20
176.2275397719451
 30
0.0
 10
214.0104916395042
 20
175.711092838787
 30
0.0
 10
213.8271127898533
 20
175.2815974565965
 30
0.0
 10
213.6840598408226
 20
174.9301061526091
 30
0.0
 10
213.5431383529133
 20
174.5648302788126
 30
0.0
 10
213.3990701117048
 20
174.167476349154
 30
0.0
 10
213.2580526888468
 20
173.7487821253677
 30
0.0
 10
213.1114283418105
 20
173.2730454358925
 30
0.0
 10
212.9696296496705
 20
172.7573790751026
 30
0.0
 10
212.8059964534812
 20
172.0652373709412
 30
0.0
 10
212.6539208379295
 20
171.2276216673362
 30
0.0
 10
212.5489790918704
 20
170.2649465487269
 30
0.0
 10
212.5156313256697
 20
169.319815648546
 30
0.0
 10
212.5489790918704
 20
168.3746847483651
 30
0.0
 10
212.6539208379293
 20
167.4120096297556
 30
0.0
 10
212.8059964534813
 20
166.5743939261507
 30
0.0
 10
212.9696296496705
 20
165.8822522219893
 30
0.0
 10
213.1114283418107
 20
165.3665858611994
 30
0.0
 10
213.2580526888466
 20
164.8908491717241
 30
0.0
 10
213.3990701117049
 20
164.472154947938
 30
0.0
 10
213.5431383529133
 20
164.0748010182792
 30
0.0
 10
213.6840598408226
 20
163.7095251444827
 30
0.0
 10
213.8271127898533
 20
163.3580338404954
 30
0.0
 10
214.0104916395044
 20
162.928538458305
 30
0.0
 10
214.2436871058191
 20
162.4120915251468
 30
0.0
 10
214.4395631988764
 20
162.0135384275135
 30
0.0
 10
214.5375011125199
 20
161.8142621490808
 30
0.0
 11
214.5375011125199
 21
176.8253691480111
 31
0.0
 11
214.2469611196409
 21
176.2259794534481
 31
0.0
 11
213.9722243627873
 21
175.6191816157394
 31
0.0
 11
213.8280741042851
 21
175.281195141689
 31
0.0
 11
213.6895859879211
 21
174.9408479442303
 31
0.0
 11
213.5444221867816
 21
174.5643515505369
 31
0.0
 11
213.4069476130548
 21
174.1849739657555
 31
0.0
 11
213.2599461192746
 21
173.748170319328
 31
0.0
 11
213.1243092381885
 21
173.3077092950458
 31
0.0
 11
212.9729799893589
 21
172.7565602043533
 31
0.0
 11
212.8416708633223
 21
172.2001966861812
 31
0.0
 11
212.6655266097463
 21
171.2259407741783
 31
0.0
 11
212.559032488456
 21
170.2415873176904
 31
0.0
 11
212.5264815786775
 21
169.319815648546
 31
0.0
 11
212.559032488456
 21
168.3980439794016
 31
0.0
 11
212.6655266097462
 21
167.4136905229136
 31
0.0
 11
212.8416708633223
 21
166.4394346109107
 31
0.0
 11
212.9729799893589
 21
165.8830710927386
 31
0.0
 11
213.1243092381885
 21
165.331922002046
 31
0.0
 11
213.2599461192745
 21
164.8914609777638
 31
0.0
 11
213.4069476130549
 21
164.4546573313364
 31
0.0
 11
213.5444221867817
 21
164.0752797465549
 31
0.0
 11
213.6895859879211
 21
163.6987833528616
 31
0.0
 11
213.8280741042852
 21
163.3584361554029
 31
0.0
 11
213.9722243627874
 21
163.0204496813526
 31
0.0
 11
214.2469611196409
 21
162.413651843644
 31
0.0
 11
214.5375011125199
 21
161.8142621490808
 31
0.0
  0
SPLINE
  5
17A
330
48
100
AcDbEntity
  8
1
  6
Continuous
 62
     7
100
AcDbSpline
210
0.0
220
0.0
230
1.0
 70
     8
 71
     3
 72
    33
 73
    29
 74
    27
 42
0.0000000001
 43
0.0000000001
 44
0.00000001
 40
0.0
 40
0.0
 40
0.0
 40
0.0
 40
0.6660942076091939
 40
1.332190222770924
 40
1.699632944385126
 40
2.067077053321507
 40
2.470589213764526
 40
2.874107007989206
 40
3.334983200372805
 40
3.79585550093173
 40
4.367402403401281
 40
4.939051291210308
 40
5.929102491977459
 40
6.919199823136878
 40
7.841546055180271
 40
8.763892287223666
 40
9.753989618383253
 40
10.7440408191504
 40
11.31568970695946
 40
11.88723660942904
 40
12.34810890998794
 40
12.80898510237146
 40
13.21250289659619
 40
13.61601505703917
 40
13.98345916597556
 40
14.35090188758969
 40
15.01699790275137
 40
15.68309211036065
 40
15.68309211036065
 40
15.68309211036065
 40
15.68309211036065
 10
219.2763941135897
 20
176.8253691480111
 30
0.0
 10
219.3743320272333
 20
176.6260928695784
 30
0.0
 10
219.5702081202905
 20
176.2275397719451
 30
0.0
 10
219.8034035866053
 20
175.711092838787
 30
0.0
 10
219.9867824362563
 20
175.2815974565966
 30
0.0
 10
220.129835385287
 20
174.9301061526091
 30
0.0
 10
220.2707568731963
 20
174.5648302788126
 30
0.0
 10
220.4148251144049
 20
174.1674763491539
 30
0.0
 10
220.555842537263
 20
173.7487821253677
 30
0.0
 10
220.702466884299
 20
173.2730454358925
 30
0.0
 10
220.8442655764391
 20
172.7573790751025
 30
0.0
 10
221.0078987726284
 20
172.0652373709412
 30
0.0
 10
221.1599743881802
 20
171.2276216673363
 30
0.0
 10
221.2649161342392
 20
170.2649465487269
 30
0.0
 10
221.2982639004399
 20
169.319815648546
 30
0.0
 10
221.2649161342392
 20
168.374684748365
 30
0.0
 10
221.1599743881801
 20
167.4120096297557
 30
0.0
 10
221.0078987726283
 20
166.5743939261506
 30
0.0
 10
220.8442655764392
 20
165.8822522219893
 30
0.0
 10
220.7024668842991
 20
165.3665858611994
 30
0.0
 10
220.5558425372628
 20
164.8908491717242
 30
0.0
 10
220.4148251144048
 20
164.4721549479379
 30
0.0
 10
220.2707568731963
 20
164.0748010182793
 30
0.0
 10
220.1298353852869
 20
163.7095251444827
 30
0.0
 10
219.9867824362563
 20
163.3580338404954
 30
0.0
 10
219.8034035866053
 20
162.9285384583049
 30
0.0
 10
219.5702081202906
 20
162.4120915251469
 30
0.0
 10
219.3743320272333
 20
162.0135384275135
 30
0.0
 10
219.2763941135897
 20
161.8142621490808
 30
0.0
 11
219.2763941135897
 21
176.8253691480111
 31
0.0
 11
219.5669341064687
 21
176.2259794534481
 31
0.0
 11
219.8416708633222
 21
175.6191816157394
 31
0.0
 11
219.9858211218245
 21
175.281195141689
 31
0.0
 11
220.1243092381885
 21
174.9408479442303
 31
0.0
 11
220.269473039328
 21
174.5643515505369
 31
0.0
 11
220.4069476130549
 21
174.1849739657555
 31
0.0
 11
220.5539491068352
 21
173.748170319328
 31
0.0
 11
220.6895859879211
 21
173.3077092950458
 31
0.0
 11
220.8409152367508
 21
172.7565602043533
 31
0.0
 11
220.9722243627873
 21
172.2001966861812
 31
0.0
 11
221.1483686163633
 21
171.2259407741783
 31
0.0
 11
221.2548627376536
 21
170.2415873176904
 31
0.0
 11
221.2874136474321
 21
169.319815648546
 31
0.0
 11
221.2548627376536
 21
168.3980439794016
 31
0.0
 11
221.1483686163633
 21
167.4136905229136
 31
0.0
 11
220.9722243627873
 21
166.4394346109107
 31
0.0
 11
220.8409152367508
 21
165.8830710927386
 31
0.0
 11
220.6895859879211
 21
165.331922002046
 31
0.0
 11
220.553949106835
 21
164.8914609777638
 31
0.0
 11
220.4069476130548
 21
164.4546573313364
 31
0.0
 11
220.269473039328
 21
164.0752797465549
 31
0.0
 11
220.1243092381885
 21
163.6987833528616
 31
0.0
 11
219.9858211218244
 21
163.3584361554029
 31
0.0
 11
219.8416708633223
 21
163.0204496813526
 31
0.0
 11
219.5669341064687
 21
162.413651843644
 31
0.0
 11
219.2763941135897
 21
161.8142621490808
 31
0.0
  0
SPLINE
  5
17B
330
48
100
AcDbEntity
  8
1
  6
Continuous
 62
     7
100
AcDbSpline
210
0.0
220
0.0
230
1.0
 70
     8
 71
     3
 72
    33
 73
    29
 74
    27
 42
0.0000000001
 43
0.0000000001
 44
0.00000001
 40
0.0
 40
0.0
 40
0.0
 40
0.0
 40
0.4133569006801529
 40
0.8267148991713347
 40
1.047477429691589
 40
1.268240273686112
 40
1.504227369535155
 40
1.740225682305937
 40
2.001195139144865
 40
2.262139231593074
 40
2.573023665195318
 40
2.884147975817196
 40
3.395079514214258
 40
3.905704156216072
 40
4.367715781294383
 40
4.829727406372718
 40
5.340352048374627
 40
5.851283586771689
 40
6.162407897393502
 40
6.473292330995708
 40
6.734236423443989
 40
6.995205880282917
 40
7.231204193053637
 40
7.467191288902715
 40
7.687954132897144
 40
7.908716663417416
 40
8.322074661908598
 40
8.735431562588691
 40
8.735431562588691
 40
8.735431562588691
 40
8.735431562588691
 10
219.2763941135896
 20
154.3087086496157
 30
0.0
 10
219.3730105673089
 20
154.4069588513204
 30
0.0
 10
219.5662437313457
 20
154.6034595156668
 30
0.0
 10
219.800520686677
 20
154.8625133842799
 30
0.0
 10
219.9856137644567
 20
155.0791961907792
 30
0.0
 10
220.1282356443089
 20
155.2543311880879
 30
0.0
 10
220.2693800464692
 20
155.4371278766757
 30
0.0
 10
220.412888441978
 20
155.6349041599735
 30
0.0
 10
220.5541713314229
 20
155.8444202053217
 30
0.0
 10
220.7000021349122
 20
156.0807186156933
 30
0.0
 10
220.8422242451526
 20
156.3385891675469
 30
0.0
 10
221.0040505407803
 20
156.6800549514631
 30
0.0
 10
221.1572146092132
 20
157.0982617576328
 30
0.0
 10
221.2645092685863
 20
157.5828459261342
 30
0.0
 10
221.2978250528706
 20
158.0614853993483
 30
0.0
 10
221.2645092685864
 20
158.5401248725624
 30
0.0
 10
221.1572146092132
 20
159.0247090410638
 30
0.0
 10
221.0040505407803
 20
159.4429158472336
 30
0.0
 10
220.8422242451526
 20
159.7843816311496
 30
0.0
 10
220.7000021349121
 20
160.0422521830032
 30
0.0
 10
220.5541713314229
 20
160.2785505933749
 30
0.0
 10
220.412888441978
 20
160.4880666387231
 30
0.0
 10
220.2693800464693
 20
160.6858429220209
 30
0.0
 10
220.1282356443089
 20
160.8686396106086
 30
0.0
 10
219.9856137644569
 20
161.0437746079174
 30
0.0
 10
219.800520686677
 20
161.2604574144166
 30
0.0
 10
219.5662437313458
 20
161.5195112830297
 30
0.0
 10
219.373010567309
 20
161.7160119473761
 30
0.0
 10
219.2763941135897
 20
161.8142621490808
 30
0.0
 11
219.2763941135896
 21
154.3087086496157
 31
0.0
 11
219.5641605885043
 21
154.6054482378999
 31
0.0
 11
219.8416708633222
 21
154.9118024157515
 31
0.0
 11
219.9849509082871
 21
155.0797515854326
 31
0.0
 11
220.1243092381885
 21
155.250969251506
 31
0.0
 11
220.2684395840507
 21
155.4378284305926
 31
0.0
 11
220.4069476130548
 21
155.6289062407435
 31
0.0
 11
220.552701346973
 21
155.8453800415872
 31
0.0
 11
220.6895859879211
 21
156.0675385760983
 31
0.0
 11
220.8393517293318
 21
156.3399708681561
 31
0.0
 11
220.9722243627874
 21
156.6212948805307
 31
0.0
 11
221.1463619095313
 21
157.1016355427099
 31
0.0
 11
221.2548627376536
 21
157.6005995647759
 31
0.0
 11
221.2870960930178
 21
158.0614853993483
 31
0.0
 11
221.2548627376536
 21
158.5223712339207
 31
0.0
 11
221.1463619095313
 21
159.0213352559867
 31
0.0
 11
220.9722243627874
 21
159.501675918166
 31
0.0
 11
220.8393517293318
 21
159.7829999305405
 31
0.0
 11
220.6895859879211
 21
160.0554322225983
 31
0.0
 11
220.552701346973
 21
160.2775907571095
 31
0.0
 11
220.4069476130548
 21
160.4940645579532
 31
0.0
 11
220.2684395840507
 21
160.685142368104
 31
0.0
 11
220.1243092381885
 21
160.8720015471906
 31
0.0
 11
219.9849509082872
 21
161.043219213264
 31
0.0
 11
219.8416708633223
 21
161.2111683829451
 31
0.0
 11
219.5641605885043
 21
161.5175225607966
 31
0.0
 11
219.2763941135897
 21
161.8142621490808
 31
0.0
  0
SPLINE
  5
17C
330
48
100
AcDbEntity
  8
1
  6
Continuous
 62
     7
100
AcDbSpline
210
0.0
220
0.0
230
1.0
 70
     8
 71
     3
 72
    33
 73
    29
 74
    27
 42
0.0000000001
 43
0.0000000001
 44
0.00000001
 40
0.0
 40
0.0
 40
0.0
 40
0.0
 40
0.4133569006800738
 40
0.8267148991712745
 40
1.047477429691547
 40
1.26824027368607
 40
1.504227369535113
 40
1.740225682305862
 40
2.001195139144806
 40
2.262139231593
 40
2.573023665195245
 40
2.884147975817099
 40
3.39507951421415
 40
3.905704156215988
 40
4.367715781294294
 40
4.829727406372627
 40
5.340352048374554
 40
5.851283586771596
 40
6.162407897393373
 40
6.473292330995593
 40
6.734236423443874
 40
6.995205880282802
 40
7.231204193053505
 40
7.467191288902566
 40
7.687954132897048
 40
7.90871666341732
 40
8.322074661908541
 40
8.735431562588575
 40
8.735431562588575
 40
8.735431562588575
 40
8.735431562588575
 10
214.5375011125199
 20
154.3087086496157
 30
0.0
 10
214.4408846588006
 20
154.4069588513204
 30
0.0
 10
214.2476514947639
 20
154.6034595156669
 30
0.0
 10
214.0133745394327
 20
154.8625133842799
 30
0.0
 10
213.8282814616527
 20
155.0791961907792
 30
0.0
 10
213.6856595818006
 20
155.2543311880879
 30
0.0
 10
213.5445151796402
 20
155.4371278766757
 30
0.0
 10
213.4010067841317
 20
155.6349041599736
 30
0.0
 10
213.2597238946866
 20
155.8444202053216
 30
0.0
 10
213.1138930911974
 20
156.0807186156934
 30
0.0
 10
212.9716709809569
 20
156.3385891675469
 30
0.0
 10
212.8098446853294
 20
156.6800549514631
 30
0.0
 10
212.6566806168965
 20
157.0982617576328
 30
0.0
 10
212.5493859575232
 20
157.5828459261343
 30
0.0
 10
212.5160701732391
 20
158.0614853993483
 30
0.0
 10
212.5493859575232
 20
158.5401248725624
 30
0.0
 10
212.6566806168966
 20
159.0247090410638
 30
0.0
 10
212.8098446853294
 20
159.4429158472336
 30
0.0
 10
212.971670980957
 20
159.7843816311496
 30
0.0
 10
213.1138930911975
 20
160.0422521830032
 30
0.0
 10
213.2597238946867
 20
160.278550593375
 30
0.0
 10
213.4010067841316
 20
160.4880666387231
 30
0.0
 10
213.5445151796402
 20
160.6858429220209
 30
0.0
 10
213.6856595818007
 20
160.8686396106087
 30
0.0
 10
213.8282814616528
 20
161.0437746079173
 30
0.0
 10
214.0133745394325
 20
161.2604574144167
 30
0.0
 10
214.2476514947639
 20
161.5195112830296
 30
0.0
 10
214.4408846588006
 20
161.7160119473761
 30
0.0
 10
214.5375011125199
 20
161.8142621490808
 30
0.0
 11
214.5375011125199
 21
154.3087086496157
 31
0.0
 11
214.2497346376053
 21
154.6054482378999
 31
0.0
 11
213.9722243627874
 21
154.9118024157515
 31
0.0
 11
213.8289443178224
 21
155.0797515854326
 31
0.0
 11
213.689585987921
 21
155.250969251506
 31
0.0
 11
213.5454556420589
 21
155.4378284305926
 31
0.0
 11
213.4069476130548
 21
155.6289062407435
 31
0.0
 11
213.2611938791366
 21
155.8453800415872
 31
0.0
 11
213.1243092381885
 21
156.0675385760983
 31
0.0
 11
212.9745434967778
 21
156.3399708681561
 31
0.0
 11
212.8416708633223
 21
156.6212948805307
 31
0.0
 11
212.6675333165784
 21
157.1016355427099
 31
0.0
 11
212.559032488456
 21
157.6005995647759
 31
0.0
 11
212.5267991330919
 21
158.0614853993483
 31
0.0
 11
212.559032488456
 21
158.5223712339207
 31
0.0
 11
212.6675333165784
 21
159.0213352559867
 31
0.0
 11
212.8416708633223
 21
159.501675918166
 31
0.0
 11
212.9745434967778
 21
159.7829999305405
 31
0.0
 11
213.1243092381885
 21
160.0554322225983
 31
0.0
 11
213.2611938791366
 21
160.2775907571095
 31
0.0
 11
213.4069476130548
 21
160.4940645579532
 31
0.0
 11
213.5454556420589
 21
160.685142368104
 31
0.0
 11
213.6895859879211
 21
160.8720015471906
 31
0.0
 11
213.8289443178224
 21
161.043219213264
 31
0.0
 11
213.9722243627874
 21
161.2111683829451
 31
0.0
 11
214.2497346376053
 21
161.5175225607966
 31
0.0
 11
214.5375011125199
 21
161.8142621490808
 31
0.0
  0
ARC
  5
17D
330
48
100
AcDbEntity
  8
1
  6
Continuous
 62
     7
100
AcDbCircle
 10
62.32409254803213
 20
319.9178251892043
 30
0.0
 40
5.000000000000028
100
AcDbArc
 50
0.0
 51
25.84193276316653
  0
ARC
  5
17E
330
48
100
AcDbEntity
  8
1
  6
Continuous
 62
     7
100
AcDbCircle
 10
97.32409254803226
 20
319.9178251892043
 30
0.0
 40
5.000000000000104
100
AcDbArc
 50
154.1580672368334
 51
180.0
  0
ARC
  5
17F
330
48
100
AcDbEntity
  8
1
  6
Continuous
 62
     7
100
AcDbCircle
 10
209.9553263017242
 20
151.819815648546
 30
0.0
 40
4.99999999999994
100
AcDbArc
 50
44.99999999999839
 51
90.0
  0
ARC
  5
180
330
48
100
AcDbEntity
  8
1
  6
Continuous
 62
     7
100
AcDbCircle
 10
209.0375011125199
 20
186.8198156485461
 30
0.0
 40
5.0
100
AcDbArc
 50
180.0
 51
-90.0
  0
ARC
  5
181
330
48
100
AcDbEntity
  8
1
  6
Continuous
 62
     7
100
AcDbCircle
 10
209.9553263017242
 20
186.8198156485461
 30
0.0
 40
5.0
100
AcDbArc
 50
-90.0
 51
-45.0000000000007
  0
ENDBLK
  5
4A
330
48
100
AcDbEntity
  8
0
100
AcDbBlockEnd
  0
BLOCK
  5
4C
330
4B
100
AcDbEntity
  8
0
100
AcDbBlockBegin
  2
_J__A4
 70
     0
 71
     0
 10
0.00000000000003
 20
0.0
 30
0.0
  3
_J__A4
  1

  0
POINT
  5
182
330
4B
100
AcDbEntity
  8
1
 62
     4
100
AcDbPoint
 10
93.75000000000006
 20
17.0
 30
0.0
  0
POINT
  5
183
330
4B
100
AcDbEntity
  8
1
 62
     4
100
AcDbPoint
 10
85.25000000000006
 20
17.0
 30
0.0
  0
POINT
  5
184
330
4B
100
AcDbEntity
  8
1
 62
     4
100
AcDbPoint
 10
106.5000000000001
 20
19.00000000000001
 30
0.0
  0
POINT
  5
185
330
4B
100
AcDbEntity
  8
1
 62
     4
100
AcDbPoint
 10
106.5000000000001
 20
12.5
 30
0.0
  0
POINT
  5
186
330
4B
100
AcDbEntity
  8
1
 62
     4
100
AcDbPoint
 10
112.2500000000001
 20
12.5
 30
0.0
  0
POINT
  5
187
330
4B
100
AcDbEntity
  8
1
 62
     4
100
AcDbPoint
 10
100.7500000000001
 20
12.5
 30
0.0
  0
POINT
  5
188
330
4B
100
AcDbEntity
  8
1
 62
     4
100
AcDbPoint
 10
123.5000000000001
 20
19.00000000000001
 30
0.0
  0
POINT
  5
189
330
4B
100
AcDbEntity
  8
1
 62
     4
100
AcDbPoint
 10
123.5000000000001
 20
12.5
 30
0.0
  0
POINT
  5
18A
330
4B
100
AcDbEntity
  8
1
 62
     4
100
AcDbPoint
 10
129.2500000000001
 20
12.5
 30
0.0
  0
POINT
  5
18B
330
4B
100
AcDbEntity
  8
1
 62
     4
100
AcDbPoint
 10
117.7500000000001
 20
12.5
 30
0.0
  0
POINT
  5
18C
330
4B
100
AcDbEntity
  8
1
 62
     4
100
AcDbPoint
 10
140.5000000000001
 20
19.00000000000001
 30
0.0
  0
POINT
  5
18D
330
4B
100
AcDbEntity
  8
1
 62
     4
100
AcDbPoint
 10
140.5000000000001
 20
12.5
 30
0.0
  0
POINT
  5
18E
330
4B
100
AcDbEntity
  8
1
 62
     4
100
AcDbPoint
 10
146.2500000000001
 20
12.5
 30
0.0
  0
POINT
  5
18F
330
4B
100
AcDbEntity
  8
1
 62
     4
100
AcDbPoint
 10
134.7500000000001
 20
12.5
 30
0.0
  0
POINT
  5
190
330
4B
100
AcDbEntity
  8
1
 62
     4
100
AcDbPoint
 10
151.7500000000001
 20
12.5
 30
0.0
  0
POINT
  5
191
330
4B
100
AcDbEntity
  8
1
 62
     4
100
AcDbPoint
 10
163.2500000000001
 20
12.5
 30
0.0
  0
POINT
  5
192
330
4B
100
AcDbEntity
  8
1
 62
     4
100
AcDbPoint
 10
157.5000000000001
 20
12.5
 30
0.0
  0
POINT
  5
193
330
4B
100
AcDbEntity
  8
1
 62
     4
100
AcDbPoint
 10
57.00000000000006
 20
14.25
 30
0.0
  0
POINT
  5
194
330
4B
100
AcDbEntity
  8
1
 62
     4
100
AcDbPoint
 10
57.00000000000006
 20
22.75000000000001
 30
0.0
  0
POINT
  5
195
330
4B
100
AcDbEntity
  8
1
 62
     4
100
AcDbPoint
 10
47.50000000000006
 20
282.0000000000003
 30
0.0
  0
POINT
  5
196
330
4B
100
AcDbEntity
  8
1
 62
     4
100
AcDbPoint
 10
157.5000000000001
 20
19.00000000000001
 30
0.0
  0
POINT
  5
197
330
4B
100
AcDbEntity
  8
1
 62
     4
100
AcDbPoint
 10
57.00000000000006
 20
16.25
 30
0.0
  0
POINT
  5
198
330
4B
100
AcDbEntity
  8
1
 62
     4
100
AcDbPoint
 10
57.00000000000006
 20
24.75000000000001
 30
0.0
  0
POINT
  5
199
330
4B
100
AcDbEntity
  8
1
 62
     4
100
AcDbPoint
 10
57.00000000000006
 20
20.75000000000001
 30
0.0
  0
POINT
  5
19A
330
4B
100
AcDbEntity
  8
1
 62
     4
100
AcDbPoint
 10
57.00000000000006
 20
12.25
 30
0.0
  0
POINT
  5
19B
330
4B
100
AcDbEntity
  8
1
 62
     4
100
AcDbPoint
 10
34.00000000000003
 20
34.00000000000001
 30
0.0
  0
LINE
  5
19C
330
4B
100
AcDbEntity
  8
1
  6
Continuous
 62
     7
100
AcDbLine
 10
105.0000000000001
 20
10.0
 30
0.0
 11
200.0000000000001
 21
10.0
 31
0.0
  0
LINE
  5
19D
330
4B
100
AcDbEntity
  8
1
  6
Continuous
 62
     2
100
AcDbLine
 10
105.0000000000001
 20
10.0
 30
0.0
 11
105.0000000000001
 21
5.0
 31
0.0
  0
LINE
  5
19E
330
4B
100
AcDbEntity
  8
1
  6
Continuous
 62
     7
100
AcDbLine
 10
200.0000000000001
 20
148.5
 30
0.0
 11
200.0000000000001
 21
287.0000000000003
 31
0.0
  0
LINE
  5
19F
330
4B
100
AcDbEntity
  8
1
  6
Continuous
 62
     2
100
AcDbLine
 10
200.0000000000001
 20
148.5
 30
0.0
 11
205.0000000000001
 21
148.5
 31
0.0
  0
LINE
  5
1A0
330
4B
100
AcDbEntity
  8
1
  6
Continuous
 62
     7
100
AcDbLine
 10
25.00000000000003
 20
148.5
 30
0.0
 11
25.00000000000003
 21
287.0000000000003
 31
0.0
  0
LINE
  5
1A1
330
4B
100
AcDbEntity
  8
1
  6
Continuous
 62
     2
100
AcDbLine
 10
25.00000000000003
 20
148.5
 30
0.0
 11
20.00000000000003
 21
148.5
 31
0.0
  0
LINE
  5
1A2
330
4B
100
AcDbEntity
  8
1
  6
Continuous
 62
     7
100
AcDbLine
 10
105.0000000000001
 20
287.0000000000003
 30
0.0
 11
25.00000000000003
 21
287.0000000000003
 31
0.0
  0
LINE
  5
1A3
330
4B
100
AcDbEntity
  8
1
  6
Continuous
 62
     2
100
AcDbLine
 10
105.0000000000001
 20
287.0000000000003
 30
0.0
 11
105.0000000000001
 21
292.0000000000003
 31
0.0
  0
LINE
  5
1A4
330
4B
100
AcDbEntity
  8
1
  6
Continuous
 62
     2
100
AcDbLine
 10
166.0000000000001
 20
20.00000000000001
 30
0.0
 11
200.0000000000001
 21
20.00000000000001
 31
0.0
  0
LINE
  5
1A5
330
4B
100
AcDbEntity
  8
1
  6
Continuous
 62
     2
100
AcDbLine
 10
98.00000000000006
 20
27.00000000000001
 30
0.0
 11
98.00000000000006
 21
9.99999999999999
 31
0.0
  0
LINE
  5
1A6
330
4B
100
AcDbEntity
  8
1
  6
Continuous
 62
     2
100
AcDbLine
 10
115.0000000000001
 20
27.00000000000001
 30
0.0
 11
115.0000000000001
 21
9.99999999999999
 31
0.0
  0
LINE
  5
1A7
330
4B
100
AcDbEntity
  8
1
  6
Continuous
 62
     2
100
AcDbLine
 10
149.0000000000001
 20
27.00000000000001
 30
0.0
 11
149.0000000000001
 21
10.0
 31
0.0
  0
LINE
  5
1A8
330
4B
100
AcDbEntity
  8
1
  6
Continuous
 62
     2
100
AcDbLine
 10
132.0000000000001
 20
27.00000000000001
 30
0.0
 11
132.0000000000001
 21
9.99999999999999
 31
0.0
  0
LINE
  5
1A9
330
4B
100
AcDbEntity
  8
1
  6
Continuous
 62
     2
100
AcDbLine
 10
166.0000000000001
 20
27.00000000000001
 30
0.0
 11
166.0000000000001
 21
10.0
 31
0.0
  0
LINE
  5
1AA
330
4B
100
AcDbEntity
  8
1
  6
Continuous
 62
     2
100
AcDbLine
 10
55.00000000000006
 20
277.0000000000003
 30
0.0
 11
25.00000000000003
 21
277.0000000000003
 31
0.0
  0
LINE
  5
1AB
330
4B
100
AcDbEntity
  8
1
  6
Continuous
 62
     7
100
AcDbLine
 10
25.00000000000003
 20
10.0
 30
0.0
 11
25.00000000000003
 21
148.5
 31
0.0
  0
LINE
  5
1AC
330
4B
100
AcDbEntity
  8
1
  6
Continuous
 62
     2
100
AcDbLine
 10
40.00000000000003
 20
287.0000000000003
 30
0.0
 11
40.00000000000003
 21
277.0000000000003
 31
0.0
  0
LINE
  5
1AD
330
4B
100
AcDbEntity
  8
1
  6
Continuous
 62
     2
100
AcDbLine
 10
55.00000000000006
 20
287.0000000000003
 30
0.0
 11
55.00000000000006
 21
277.0000000000003
 31
0.0
  0
LINE
  5
1AE
330
4B
100
AcDbEntity
  8
1
  6
Continuous
 62
     2
100
AcDbLine
 10
33.00000000000003
 20
41.00000000000001
 30
0.0
 11
33.00000000000003
 21
27.0
 31
0.0
  0
LINE
  5
1AF
330
4B
100
AcDbEntity
  8
1
  6
Continuous
 62
     7
100
AcDbLine
 10
200.0000000000001
 20
27.00000000000001
 30
0.0
 11
25.00000000000003
 21
27.00000000000001
 31
0.0
  0
LINE
  5
1B0
330
4B
100
AcDbEntity
  8
1
  6
Continuous
 62
     7
100
AcDbLine
 10
25.00000000000003
 20
41.0
 30
0.0
 11
200.0000000000001
 21
41.0
 31
0.0
  0
LINE
  5
1B1
330
4B
100
AcDbEntity
  8
1
  6
PHANTOM
 62
     4
100
AcDbLine
 10
0.00000000000003
 20
0.0
 30
0.0
 11
210.0000000000001
 21
0.0
 31
0.0
  0
LINE
  5
1B2
330
4B
100
AcDbEntity
  8
1
  6
PHANTOM
 62
     4
100
AcDbLine
 10
210.0000000000001
 20
0.0
 30
0.0
 11
210.0000000000001
 21
297.0
 31
0.0
  0
LINE
  5
1B3
330
4B
100
AcDbEntity
  8
1
  6
PHANTOM
 62
     4
100
AcDbLine
 10
210.0000000000001
 20
297.0
 30
0.0
 11
0.00000000000003
 21
297.0
 31
0.0
  0
LINE
  5
1B4
330
4B
100
AcDbEntity
  8
1
  6
PHANTOM
 62
     4
100
AcDbLine
 10
0.00000000000003
 20
297.0
 30
0.0
 11
0.00000000000003
 21
0.0
 31
0.0
  0
LINE
  5
1B5
330
4B
100
AcDbEntity
  8
1
  6
Continuous
 62
     7
100
AcDbLine
 10
25.00000000000003
 20
10.0
 30
0.0
 11
105.0000000000001
 21
10.0
 31
0.0
  0
LINE
  5
1B6
330
4B
100
AcDbEntity
  8
1
  6
Continuous
 62
     7
100
AcDbLine
 10
200.0000000000001
 20
10.0
 30
0.0
 11
200.0000000000001
 21
148.5
 31
0.0
  0
LINE
  5
1B7
330
4B
100
AcDbEntity
  8
1
  6
Continuous
 62
     7
100
AcDbLine
 10
200.0000000000001
 20
287.0000000000003
 30
0.0
 11
105.0000000000001
 21
287.0000000000003
 31
0.0
  0
LINE
  5
1B8
330
4B
100
AcDbEntity
  8
1
  6
Continuous
 62
     2
100
AcDbLine
 10
25.00000000000003
 20
18.50000000000001
 30
0.0
 11
81.00000000000006
 21
18.50000000000001
 31
0.0
  0
LINE
  5
1B9
330
4B
100
AcDbEntity
  8
1
  6
Continuous
 62
     2
100
AcDbLine
 10
33.00000000000003
 20
27.0
 30
0.0
 11
33.00000000000003
 21
10.0
 31
0.0
  0
LINE
  5
1BA
330
4B
100
AcDbEntity
  8
1
  6
Continuous
 62
     7
100
AcDbLine
 10
191.0000000000001
 20
24.70000000000001
 30
0.0
 11
191.0000000000001
 21
22.30000000000001
 31
0.0
  0
LINE
  5
1BB
330
4B
100
AcDbEntity
  8
1
  6
Continuous
 62
     7
100
AcDbLine
 10
191.0000000000001
 20
24.70000000000001
 30
0.0
 11
196.0000000000001
 21
25.50000000000001
 31
0.0
  0
LINE
  5
1BC
330
4B
100
AcDbEntity
  8
1
  6
Continuous
 62
     7
100
AcDbLine
 10
196.0000000000001
 20
25.50000000000001
 30
0.0
 11
196.0000000000001
 21
21.50000000000001
 31
0.0
  0
LINE
  5
1BD
330
4B
100
AcDbEntity
  8
1
  6
Continuous
 62
     7
100
AcDbLine
 10
196.0000000000001
 20
21.50000000000001
 30
0.0
 11
191.0000000000001
 21
22.30000000000001
 31
0.0
  0
LINE
  5
1BE
330
4B
100
AcDbEntity
  8
1
  6
DOT_CENTER
 62
     2
100
AcDbLine
 10
184.0000000000001
 20
23.50000000000001
 30
0.0
 11
197.0000000000001
 21
23.50000000000001
 31
0.0
  0
LINE
  5
1BF
330
4B
100
AcDbEntity
  8
1
  6
DOT_CENTER
 62
     2
100
AcDbLine
 10
187.0000000000001
 20
26.50000000000001
 30
0.0
 11
187.0000000000001
 21
20.50000000000001
 31
0.0
  0
LINE
  5
1C0
330
4B
100
AcDbEntity
  8
1
  6
Continuous
 62
     2
100
AcDbLine
 10
81.00000000000006
 20
27.00000000000001
 30
0.0
 11
81.00000000000006
 21
10.0
 31
0.0
  0
CIRCLE
  5
1C1
330
4B
100
AcDbEntity
  8
1
  6
Continuous
 62
     7
100
AcDbCircle
 10
103.5000000000001
 20
12.5
 30
0.0
 40
0.2999999999998977
  0
CIRCLE
  5
1C2
330
4B
100
AcDbEntity
  8
1
  6
Continuous
 62
     7
100
AcDbCircle
 10
109.5000000000001
 20
12.5
 30
0.0
 40
0.2999999999998977
  0
CIRCLE
  5
1C3
330
4B
100
AcDbEntity
  8
1
  6
Continuous
 62
     7
100
AcDbCircle
 10
120.5000000000001
 20
12.5
 30
0.0
 40
0.2999999999998977
  0
CIRCLE
  5
1C4
330
4B
100
AcDbEntity
  8
1
  6
Continuous
 62
     7
100
AcDbCircle
 10
126.5000000000001
 20
12.5
 30
0.0
 40
0.2999999999998977
  0
CIRCLE
  5
1C5
330
4B
100
AcDbEntity
  8
1
  6
Continuous
 62
     7
100
AcDbCircle
 10
137.5000000000001
 20
12.5
 30
0.0
 40
0.2999999999998977
  0
CIRCLE
  5
1C6
330
4B
100
AcDbEntity
  8
1
  6
Continuous
 62
     7
100
AcDbCircle
 10
143.5000000000001
 20
12.5
 30
0.0
 40
0.2999999999998977
  0
CIRCLE
  5
1C7
330
4B
100
AcDbEntity
  8
1
  6
Continuous
 62
     7
100
AcDbCircle
 10
160.5000000000001
 20
12.5
 30
0.0
 40
0.2999999999998977
  0
CIRCLE
  5
1C8
330
4B
100
AcDbEntity
  8
1
  6
Continuous
 62
     7
100
AcDbCircle
 10
154.5000000000001
 20
12.5
 30
0.0
 40
0.2999999999998977
  0
CIRCLE
  5
1C9
330
4B
100
AcDbEntity
  8
1
  6
Continuous
 62
     7
100
AcDbCircle
 10
187.0000000000001
 20
23.50000000000001
 30
0.0
 40
1.199999999999989
  0
CIRCLE
  5
1CA
330
4B
100
AcDbEntity
  8
1
  6
Continuous
 62
     7
100
AcDbCircle
 10
187.0000000000001
 20
23.50000000000001
 30
0.0
 40
2.0
  0
CIRCLE
  5
1CB
330
4B
100
AcDbEntity
  8
1
  6
DOT_CENTER
 62
     7
100
AcDbCircle
 10
89.50000000000006
 20
16.0
 30
0.0
 40
0.1000000000000227
  0
CIRCLE
  5
1CC
330
4B
100
AcDbEntity
  8
1
  6
DOT_CENTER
 62
     7
100
AcDbCircle
 10
89.50000000000006
 20
18.0
 30
0.0
 40
0.1000000000000227
  0
MTEXT
  5
1CE
330
4B
100
AcDbEntity
  8
1
 62
     7
100
AcDbMText
 10
188.5000000000001
 20
15.0
 30
0.0
 40
3.0
 41
0.0
 71
     5
 72
     1
  1
三栄水栓製作所
  7
CONVERTER_1
 73
     1
 44
1.32052821128451
  0
MTEXT
  5
1CF
330
4B
100
AcDbEntity
  8
1
 62
     7
100
AcDbMText
 10
171.5000000000001
 20
15.0
 30
0.0
 40
2.5
 41
0.0
 71
     5
 72
     1
  1
株式会社
  7
CONVERTER_1
 73
     1
 44
1.32052821128451
  0
MTEXT
  5
1D0
330
4B
100
AcDbEntity
  8
1
 62
     2
100
AcDbMText
 10
32.50000000000003
 20
282.0000000000003
 30
0.0
 40
5.0
 41
0.0
 71
     5
 72
     1
  1
図番
  7
CONVERTER_1
 73
     1
 44
0.60024009603842
  0
MTEXT
  5
1D1
330
4B
100
AcDbEntity
  8
1
 62
     2
100
AcDbMText
 10
29.00000000000003
 20
34.00000000000001
 30
0.0
 40
3.5
 41
0.0
 71
     5
 72
     1
  1
備考
  7
CONVERTER_1
 73
     1
 44
0.60024009603842
  0
MTEXT
  5
1D2
330
4B
100
AcDbEntity
  8
1
 62
     2
100
AcDbMText
 10
29.00000000000003
 20
22.75
 30
0.0
 40
3.5
 41
0.0
 71
     5
 72
     1
  1
品名
  7
CONVERTER_1
 73
     1
 44
0.96038415366146
  0
MTEXT
  5
1D3
330
4B
100
AcDbEntity
  8
1
 62
     2
100
AcDbMText
 10
29.00000000000003
 20
14.25
 30
0.0
 40
3.5
 41
0.0
 71
     5
 72
     1
  1
品番
  7
CONVERTER_1
 73
     1
 44
0.96038415366146
  0
MTEXT
  5
1D4
330
4B
100
AcDbEntity
  8
1
 62
     2
100
AcDbMText
 10
101.5000000000001
 20
25.00000000000001
 30
0.0
 40
3.0
 41
0.0
 71
     5
 72
     1
  1
承認
  7
CONVERTER_1
 73
     1
 44
0.78031212484994
  0
MTEXT
  5
1D5
330
4B
100
AcDbEntity
  8
1
 62
     2
100
AcDbMText
 10
175.0000000000001
 20
23.50000000000001
 30
0.0
 40
3.5
 41
0.0
 71
     5
 72
     1
  1
第三角法
  7
CONVERTER_1
 73
     1
 44
0.7202881152461
  0
MTEXT
  5
1D6
330
4B
100
AcDbEntity
  8
1
 62
     2
100
AcDbMText
 10
118.5000000000001
 20
25.00000000000001
 30
0.0
 40
3.0
 41
0.0
 71
     5
 72
     1
  1
検図
  7
CONVERTER_1
 73
     1
 44
0.78031212484994
  0
MTEXT
  5
1D7
330
4B
100
AcDbEntity
  8
1
 62
     2
100
AcDbMText
 10
152.5000000000001
 20
25.00000000000001
 30
0.0
 40
3.0
 41
0.0
 71
     5
 72
     1
  1
設計
  7
CONVERTER_1
 73
     1
 44
0.78031212484994
  0
MTEXT
  5
1D8
330
4B
100
AcDbEntity
  8
1
 62
     2
100
AcDbMText
 10
135.5000000000001
 20
25.00000000000001
 30
0.0
 40
3.0
 41
0.0
 71
     5
 72
     1
  1
製図
  7
CONVERTER_1
 73
     1
 44
0.78031212484994
  0
MTEXT
  5
1D9
330
4B
100
AcDbEntity
  8
1
 62
     2
100
AcDbMText
 10
89.50000000000006
 20
24.00000000000001
 30
0.0
 40
3.5
 41
0.0
 71
     5
 72
     1
  1
尺度
  7
CONVERTER_1
 73
     1
 44
0.7202881152461
  0
MTEXT
  5
1DA
330
4B
100
AcDbEntity
  8
1
 62
   250
100
AcDbMText
 10
25.00000000000003
 20
5.0
 30
0.0
 40
3.5
 41
0.0
 71
     4
 72
     1
  1
備考欄の文字列 原点位置=4
  7
CONVERTER_1
 73
     1
 44
0.7202881152461
  0
ENDBLK
  5
4D
330
4B
100
AcDbEntity
  8
0
100
AcDbBlockEnd
  0
BLOCK
  5
1F5
330
1EE
100
AcDbEntity
  8
0
100
AcDbBlockBegin
  2
*D09
 70
     1
 71
     0
 10
0.0
 20
0.0
 30
0.0
  3
*D09
  1

  0
LINE
  5
1EF
330
1EE
100
AcDbEntity
  8
1
  6
Continuous
 62
     2
100
AcDbLine
 10
68.49999999999875
 20
220.8198156485459
 30
0.0
 11
91.49999999999875
 21
220.8198156485459
 31
0.0
  0
LINE
  5
1F0
330
1EE
100
AcDbEntity
  8
1
  6
Continuous
 62
     2
100
AcDbLine
 10
91.49999999999875
 20
204.6942740636338
 30
0.0
 11
91.49999999999875
 21
222.3198156485459
 31
0.0
  0
LINE
  5
1F1
330
1EE
100
AcDbEntity
  8
1
  6
Continuous
 62
     2
100
AcDbLine
 10
68.49999999999875
 20
204.6942740636338
 30
0.0
 11
68.49999999999875
 21
222.3198156485459
 31
0.0
  0
SOLID
  5
1F2
330
1EE
100
AcDbEntity
  8
1
 62
     2
100
AcDbTrace
 10
73.74999999999875
 20
221.5109912608797
 30
0.0
 11
73.74999999999875
 21
220.1286400362121
 31
0.0
 12
68.49999999999875
 22
220.8198156485459
 32
0.0
 13
68.49999999999875
 23
220.8198156485459
 33
0.0
  0
SOLID
  5
1F3
330
1EE
100
AcDbEntity
  8
1
 62
     2
100
AcDbTrace
 10
86.24999999999875
 20
220.1286400362121
 30
0.0
 11
86.24999999999875
 21
221.5109912608797
 31
0.0
 12
91.49999999999875
 22
220.8198156485459
 32
0.0
 13
91.49999999999875
 23
220.8198156485459
 33
0.0
  0
MTEXT
  5
1F4
330
1EE
100
AcDbEntity
  8
1
 62
     7
100
AcDbMText
 10
76.06249999999875
 20
222.3198156485459
 30
0.0
 40
5.25
 41
0.0
 71
     7
 72
     1
  1
23
  7
CONVERTER_2
 11
0.9999999999970621
 21
2.424068405545307E-6
 31
0.0
 73
     1
 44
0.60024009603842
  0
ENDBLK
  5
1F6
330
1EE
100
AcDbEntity
  8
0
100
AcDbBlockEnd
  0
BLOCK
  5
201
330
1F9
100
AcDbEntity
  8
0
100
AcDbBlockBegin
  2
*D110
 70
     1
 71
     0
 10
0.0
 20
0.0
 30
0.0
  3
*D110
  1

  0
LINE
  5
1FA
330
1F9
100
AcDbEntity
  8
1
  6
Continuous
 62
     2
100
AcDbLine
 10
42.01263270791345
 20
340.5237882725251
 30
0.0
 11
61.46986839248234
 21
340.5237882725251
 31
0.0
  0
LINE
  5
1FB
330
1F9
100
AcDbEntity
  8
1
  6
Continuous
 62
     2
100
AcDbLine
 10
61.46986839248234
 20
340.5237882725251
 30
0.0
 11
87.46986839248234
 21
340.5237882725251
 31
0.0
  0
LINE
  5
1FC
330
1F9
100
AcDbEntity
  8
1
  6
Continuous
 62
     2
100
AcDbLine
 10
92.82409254803213
 20
331.2500000000003
 30
0.0
 11
86.71986839248234
 21
341.8228263782018
 31
0.0
  0
LINE
  5
1FD
330
1F9
100
AcDbEntity
  8
1
  6
Continuous
 62
     2
100
AcDbLine
 10
66.82409254803224
 20
331.2500000000001
 30
0.0
 11
60.71986839248232
 21
341.8228263782018
 31
0.0
  0
SOLID
  5
1FE
330
1F9
100
AcDbEntity
  8
1
 62
     2
100
AcDbTrace
 10
66.71986839248234
 20
341.214963884859
 30
0.0
 11
66.71986839248234
 21
339.8326126601913
 31
0.0
 12
61.46986839248234
 22
340.5237882725251
 32
0.0
 13
61.46986839248234
 23
340.5237882725251
 33
0.0
  0
SOLID
  5
1FF
330
1F9
100
AcDbEntity
  8
1
 62
     2
100
AcDbTrace
 10
82.21986839248234
 20
339.8326126601913
 30
0.0
 11
82.21986839248234
 21
341.214963884859
 31
0.0
 12
87.46986839248234
 22
340.5237882725251
 32
0.0
 13
87.46986839248234
 23
340.5237882725251
 33
0.0
  0
MTEXT
  5
200
330
1F9
100
AcDbEntity
  8
1
 62
     7
100
AcDbMText
 10
42.01263270791345
 20
342.0237882725251
 30
0.0
 40
5.25
 41
0.0
 71
     7
 72
     1
  1
26
  7
CONVERTER_2
 11
0.9999999999970621
 21
2.424068405545307E-6
 31
0.0
 73
     1
 44
0.60024009603842
  0
ENDBLK
  5
202
330
1F9
100
AcDbEntity
  8
0
100
AcDbBlockEnd
  0
BLOCK
  5
20C
330
205
100
AcDbEntity
  8
0
100
AcDbBlockBegin
  2
*D211
 70
     1
 71
     0
 10
0.0
 20
0.0
 30
0.0
  3
*D211
  1

  0
LINE
  5
206
330
205
100
AcDbEntity
  8
1
  6
Continuous
 62
     2
100
AcDbLine
 10
160.5375011125199
 20
124.319815648546
 30
0.0
 11
193.5375011125198
 21
124.319815648546
 31
0.0
  0
LINE
  5
207
330
205
100
AcDbEntity
  8
1
  6
Continuous
 62
     2
100
AcDbLine
 10
160.5375011125199
 20
165.5698156485459
 30
0.0
 11
160.5375011125199
 21
122.819815648546
 31
0.0
  0
LINE
  5
208
330
205
100
AcDbEntity
  8
1
  6
Continuous
 62
     2
100
AcDbLine
 10
193.5375011125198
 20
152.319815648546
 30
0.0
 11
193.5375011125198
 21
122.819815648546
 31
0.0
  0
SOLID
  5
209
330
205
100
AcDbEntity
  8
1
 62
     2
100
AcDbTrace
 10
165.7875011125199
 20
125.0109912608798
 30
0.0
 11
165.7875011125199
 21
123.6286400362122
 31
0.0
 12
160.5375011125199
 22
124.319815648546
 32
0.0
 13
160.5375011125199
 23
124.319815648546
 33
0.0
  0
SOLID
  5
20A
330
205
100
AcDbEntity
  8
1
 62
     2
100
AcDbTrace
 10
188.2875011125198
 20
123.6286400362122
 30
0.0
 11
188.2875011125198
 21
125.0109912608798
 31
0.0
 12
193.5375011125198
 22
124.319815648546
 32
0.0
 13
193.5375011125198
 23
124.319815648546
 33
0.0
  0
MTEXT
  5
20B
330
205
100
AcDbEntity
  8
1
 62
     7
100
AcDbMText
 10
162.01860851066
 20
125.819815648546
 30
0.0
 40
5.25
 41
0.0
 71
     7
 72
     1
  1
33リフト5
  7
CONVERTER_1
 11
0.9999999999970621
 21
2.424068405545307E-6
 31
0.0
 73
     1
 44
0.60024009603842
  0
ENDBLK
  5
20D
330
205
100
AcDbEntity
  8
0
100
AcDbBlockEnd
  0
BLOCK
  5
217
330
210
100
AcDbEntity
  8
0
100
AcDbBlockBegin
  2
*D312
 70
     1
 71
     0
 10
0.0
 20
0.0
 30
0.0
  3
*D312
  1

  0
LINE
  5
211
330
210
100
AcDbEntity
  8
1
  6
Continuous
 62
     2
100
AcDbLine
 10
193.5375011125199
 20
124.319815648546
 30
0.0
 11
264.5375011125199
 21
124.319815648546
 31
0.0
  0
LINE
  5
212
330
210
100
AcDbEntity
  8
1
  6
Continuous
 62
     2
100
AcDbLine
 10
264.5375011125199
 20
160.2178034292577
 30
0.0
 11
264.5375011125199
 21
122.819815648546
 31
0.0
  0
LINE
  5
213
330
210
100
AcDbEntity
  8
1
  6
Continuous
 62
     2
100
AcDbLine
 10
193.5375011125199
 20
152.319815648546
 30
0.0
 11
193.5375011125199
 21
122.819815648546
 31
0.0
  0
SOLID
  5
214
330
210
100
AcDbEntity
  8
1
 62
     2
100
AcDbTrace
 10
198.7875011125199
 20
125.0109912608798
 30
0.0
 11
198.7875011125199
 21
123.6286400362122
 31
0.0
 12
193.5375011125199
 22
124.319815648546
 32
0.0
 13
193.5375011125199
 23
124.319815648546
 33
0.0
  0
SOLID
  5
215
330
210
100
AcDbEntity
  8
1
 62
     2
100
AcDbTrace
 10
259.2875011125199
 20
123.6286400362122
 30
0.0
 11
259.2875011125199
 21
125.0109912608798
 31
0.0
 12
264.5375011125199
 22
124.319815648546
 32
0.0
 13
264.5375011125199
 23
124.319815648546
 33
0.0
  0
MTEXT
  5
216
330
210
100
AcDbEntity
  8
1
 62
     7
100
AcDbMText
 10
225.434268364322
 20
125.819815648546
 30
0.0
 40
5.25
 41
0.0
 71
     7
 72
     1
  1
71
  7
CONVERTER_2
 11
0.9999999999970621
 21
2.424068405545307E-6
 31
0.0
 73
     1
 44
0.60024009603842
  0
ENDBLK
  5
218
330
210
100
AcDbEntity
  8
0
100
AcDbBlockEnd
  0
BLOCK
  5
222
330
21B
100
AcDbEntity
  8
0
100
AcDbBlockBegin
  2
*D413
 70
     1
 71
     0
 10
0.0
 20
0.0
 30
0.0
  3
*D413
  1

  0
LINE
  5
21C
330
21B
100
AcDbEntity
  8
1
  6
Continuous
 62
     2
100
AcDbLine
 10
279.5375011125199
 20
199.3198156485459
 30
0.0
 11
279.5375011125199
 21
139.319815648546
 31
0.0
  0
LINE
  5
21D
330
21B
100
AcDbEntity
  8
1
  6
Continuous
 62
     2
100
AcDbLine
 10
249.039858270159
 20
139.319815648546
 30
0.0
 11
281.0375011125199
 21
139.319815648546
 31
0.0
  0
LINE
  5
21E
330
21B
100
AcDbEntity
  8
1
  6
Continuous
 62
     2
100
AcDbLine
 10
249.039858270159
 20
199.3198156485459
 30
0.0
 11
281.0375011125199
 21
199.3198156485459
 31
0.0
  0
SOLID
  5
21F
330
21B
100
AcDbEntity
  8
1
 62
     2
100
AcDbTrace
 10
280.2286767248538
 20
194.0698156485459
 30
0.0
 11
278.8463255001861
 21
194.0698156485459
 31
0.0
 12
279.5375011125199
 22
199.3198156485459
 32
0.0
 13
279.5375011125199
 23
199.3198156485459
 33
0.0
  0
SOLID
  5
220
330
21B
100
AcDbEntity
  8
1
 62
     2
100
AcDbTrace
 10
278.8463255001861
 20
144.569815648546
 30
0.0
 11
280.2286767248538
 21
144.569815648546
 31
0.0
 12
279.5375011125199
 22
139.319815648546
 32
0.0
 13
279.5375011125199
 23
139.319815648546
 33
0.0
  0
MTEXT
  5
221
330
21B
100
AcDbEntity
  8
1
 62
     7
100
AcDbMText
 10
278.0375011125199
 20
162.757315648546
 30
0.0
 40
5.25
 41
0.0
 71
     7
 72
     1
  1
{\Fgdt;n}60
  7
CONVERTER_2
 11
0.0
 21
1.0
 31
0.0
 73
     1
 44
0.60024009603842
  0
ENDBLK
  5
223
330
21B
100
AcDbEntity
  8
0
100
AcDbBlockEnd
  0
BLOCK
  5
22D
330
226
100
AcDbEntity
  8
0
100
AcDbBlockBegin
  2
*D514
 70
     1
 71
     0
 10
0.0
 20
0.0
 30
0.0
  3
*D514
  1

  0
LINE
  5
227
330
226
100
AcDbEntity
  8
1
  6
Continuous
 62
     2
100
AcDbLine
 10
124.8240925480322
 20
359.0023571576391
 30
0.0
 11
124.8240925480322
 21
343.0023571576391
 31
0.0
  0
LINE
  5
228
330
226
100
AcDbEntity
  8
1
  6
Continuous
 62
     2
100
AcDbLine
 10
91.9453192200743
 20
343.0023571576391
 30
0.0
 11
126.3240925480322
 21
343.0023571576391
 31
0.0
  0
LINE
  5
229
330
226
100
AcDbEntity
  8
1
  6
Continuous
 62
     2
100
AcDbLine
 10
109.8240925480322
 20
359.0023571576391
 30
0.0
 11
126.3240925480322
 21
359.0023571576391
 31
0.0
  0
SOLID
  5
22A
330
226
100
AcDbEntity
  8
1
 62
     2
100
AcDbTrace
 10
125.515268160366
 20
353.7523571576391
 30
0.0
 11
124.1329169356984
 21
353.7523571576391
 31
0.0
 12
124.8240925480322
 22
359.0023571576391
 32
0.0
 13
124.8240925480322
 23
359.0023571576391
 33
0.0
  0
SOLID
  5
22B
330
226
100
AcDbEntity
  8
1
 62
     2
100
AcDbTrace
 10
124.1329169356984
 20
348.2523571576391
 30
0.0
 11
125.515268160366
 21
348.2523571576391
 31
0.0
 12
124.8240925480322
 22
343.0023571576391
 32
0.0
 13
124.8240925480322
 23
343.0023571576391
 33
0.0
  0
MTEXT
  5
22C
330
226
100
AcDbEntity
  8
1
 62
     7
100
AcDbMText
 10
123.3240925480322
 20
348.5435661335091
 30
0.0
 40
5.25
 41
0.0
 71
     7
 72
     1
  1
16
  7
CONVERTER_2
 11
0.0
 21
1.0
 31
0.0
 73
     1
 44
0.60024009603842
  0
ENDBLK
  5
22E
330
226
100
AcDbEntity
  8
0
100
AcDbBlockEnd
  0
BLOCK
  5
238
330
231
100
AcDbEntity
  8
0
100
AcDbBlockBegin
  2
*D615
 70
     1
 71
     0
 10
0.0
 20
0.0
 30
0.0
  3
*D615
  1

  0
LINE
  5
232
330
231
100
AcDbEntity
  8
1
  6
Continuous
 62
     2
100
AcDbLine
 10
145.5375011125199
 20
169.319815648546
 30
0.0
 11
145.5375011125199
 21
199.3198156485459
 31
0.0
  0
LINE
  5
233
330
231
100
AcDbEntity
  8
1
  6
Continuous
 62
     2
100
AcDbLine
 10
181.0402271496497
 20
199.3198156485459
 30
0.0
 11
144.0375011125199
 21
199.3198156485459
 31
0.0
  0
LINE
  5
234
330
231
100
AcDbEntity
  8
1
  6
Continuous
 62
     2
100
AcDbLine
 10
156.0375011125199
 20
169.319815648546
 30
0.0
 11
144.0375011125199
 21
169.319815648546
 31
0.0
  0
SOLID
  5
235
330
231
100
AcDbEntity
  8
1
 62
     2
100
AcDbTrace
 10
144.8463255001861
 20
174.569815648546
 30
0.0
 11
146.2286767248537
 21
174.569815648546
 31
0.0
 12
145.5375011125199
 22
169.319815648546
 32
0.0
 13
145.5375011125199
 23
169.319815648546
 33
0.0
  0
SOLID
  5
236
330
231
100
AcDbEntity
  8
1
 62
     2
100
AcDbTrace
 10
146.2286767248537
 20
194.0698156485459
 30
0.0
 11
144.8463255001861
 21
194.0698156485459
 31
0.0
 12
145.5375011125199
 22
199.3198156485459
 32
0.0
 13
145.5375011125199
 23
199.3198156485459
 33
0.0
  0
MTEXT
  5
237
330
231
100
AcDbEntity
  8
1
 62
     7
100
AcDbMText
 10
144.0375011125199
 20
182.106036009458
 30
0.0
 40
5.25
 41
0.0
 71
     7
 72
     1
  1
30
  7
CONVERTER_2
 11
0.0
 21
1.0
 31
0.0
 73
     1
 44
0.60024009603842
  0
ENDBLK
  5
239
330
231
100
AcDbEntity
  8
0
100
AcDbBlockEnd
  0
ENDSEC
  0
SECTION
  2
ENTITIES
  0
INSERT
  5
4E
330
1F
100
AcDbEntity
  8
0
100
AcDbBlockReference
  2
32-12
 10
181.0375011125199
 20
173.1303292860237
 30
0.0
  0
INSERT
  5
4F
330
1F
100
AcDbEntity
  8
0
100
AcDbBlockReference
  2
37-1-13
 10
1654.710563554359
 20
-358.5466441246866
 30
0.0
  0
INSERT
  5
50
330
1F
100
AcDbEntity
  8
1
100
AcDbBlockReference
  2
36-3-13
 10
-406.4359515521381
 20
164.6072077003502
 30
0.0
  0
INSERT
  5
51
330
1F
100
AcDbEntity
  8
1
100
AcDbBlockReference
  2
V22-0A-13-__________
 10
0.00000000000004
 20
1039.5
 30
0.0
  0
INSERT
  5
52
330
1F
100
AcDbEntity
  8
0
100
AcDbBlockReference
  2
78-167
 10
297.1335982707208
 20
-36.92244694433663
 30
0.0
  0
INSERT
  5
53
330
1F
100
AcDbEntity
  8
0
100
AcDbBlockReference
  2
64-7-13-55
 10
381.286758560684
 20
32.02593046409051
 30
0.0
  0
INSERT
  5
54
330
1F
100
AcDbEntity
  8
1
100
AcDbBlockReference
  2
V22-0A-13
 10
133.7385709387331
 20
1165.277740897449
 30
0.0
  0
INSERT
  5
55
330
1F
100
AcDbEntity
  8
1
100
AcDbBlockReference
  2
_J__A4
 10
0.00000000000004
 20
0.0
 30
0.0
 41
1.5
 42
1.5
 43
1.5
  0
LINE
  5
1DB
330
1F
100
AcDbEntity
  8
1
  6
DASH_CENTER
 62
     2
100
AcDbLine
 10
193.5375011125198
 20
210.3198156485459
 30
0.0
 11
193.5375011125198
 21
152.319815648546
 31
0.0
  0
LINE
  5
1DC
330
1F
100
AcDbEntity
  8
1
  6
DASH_CENTER
 62
     2
100
AcDbLine
 10
156.0375011125199
 20
169.319815648546
 30
0.0
 11
269.0375011125199
 21
169.319815648546
 31
0.0
  0
LINE
  5
1DD
330
1F
100
AcDbEntity
  8
1
  6
DASH_CENTER
 62
     2
100
AcDbLine
 10
79.82409254803224
 20
132.7537109266373
 30
0.0
 11
79.82409254803224
 21
210.3198156485459
 31
0.0
  0
LINE
  5
1DE
330
1F
100
AcDbEntity
  8
1
  6
DASH_CENTER
 62
     2
100
AcDbLine
 10
43.25798782612341
 20
169.319815648546
 30
0.0
 11
116.3901972699408
 21
169.319815648546
 31
0.0
  0
LINE
  5
1DF
330
1F
100
AcDbEntity
  8
1
  6
DASH_CENTER
 62
     2
100
AcDbLine
 10
79.82409254803224
 20
265.9999999999999
 30
0.0
 11
79.82409254803224
 21
379.0
 31
0.0
  0
LINE
  5
1E0
330
1F
100
AcDbEntity
  8
1
  6
DASH_CENTER
 62
     2
100
AcDbLine
 10
62.82409254803221
 20
303.5
 30
0.0
 11
96.82409254803224
 21
303.5
 31
0.0
  0
SOLID
  5
1E1
330
1F
100
AcDbEntity
  8
0
 62
     2
100
AcDbTrace
 10
259.7142706731824
 20
184.6728572476486
 30
0.0
 11
260.9114219506971
 21
183.9816816353148
 31
0.0
 12
257.6878463119398
 22
179.7806360716134
 32
0.0
 13
257.6878463119398
 23
179.7806360716134
 33
0.0
  0
LEADER
  5
1E2
330
1F
100
AcDbEntity
  8
0
  6
Continuous
 62
     2
100
AcDbLeader
  3
Standard
 71
     0
 76
     3
 10
257.6878463119398
 20
179.7806360716134
 30
0.0
 10
273.9685912517251
 20
207.9797134923917
 30
0.0
 10
291.1189147555223
 20
207.9797134923917
 30
0.0
  0
SOLID
  5
1E3
330
1F
100
AcDbEntity
  8
1
 62
     2
100
AcDbTrace
 10
179.8139254737625
 20
196.107161898495
 30
0.0
 11
181.0110767512772
 21
196.7983375108288
 31
0.0
 12
183.0375011125198
 22
191.9061163347936
 32
0.0
 13
183.0375011125198
 23
191.9061163347936
 33
0.0
  0
LEADER
  5
1E4
330
1F
100
AcDbEntity
  8
1
  6
Continuous
 62
     2
100
AcDbLeader
  3
Standard
 71
     0
 76
     3
 10
183.0375011125198
 20
191.9061163347936
 30
0.0
 10
173.757405466735
 20
207.9797134923917
 30
0.0
 10
151.6708576853908
 20
207.9797134923917
 30
0.0
  0
MTEXT
  5
1E5
330
1F
100
AcDbEntity
  8
1
 62
     7
100
AcDbMText
 10
51.00000000000004
 20
45.75000000000001
 30
0.0
 40
5.25
 41
0.0
 71
     4
 72
     1
  1
共用形
  7
CONVERTER_1
 73
     1
 44
0.7202881152461
  0
MTEXT
  5
1E7
330
1F
100
AcDbEntity
  8
0
 62
     7
100
AcDbMText
 10
282.5437530036237
 20
212.4797134923917
 30
0.0
 40
5.25
 41
0.0
 71
     5
 72
     1
  1
R1/2
  7
CONVERTER_2
 73
     1
 44
1.32052821128451
  0
MTEXT
  5
1E8
330
1F
100
AcDbEntity
  8
1
 62
     7
100
AcDbMText
 10
162.714131576063
 20
212.4797134923917
 30
0.0
 40
5.25
 41
0.0
 71
     5
 72
     1
  1
PJ1/2
  7
CONVERTER_2
 73
     1
 44
0.7202881152461
  0
MTEXT
  5
1E9
330
1F
100
AcDbEntity
  8
0
 62
     7
100
AcDbMText
 10
127.8750000001278
 20
25.5000000000255
 30
0.0
 40
5.25
 41
0.0
 71
     5
 72
     1
  1
1
  7
CONVERTER_2
 73
     1
 44
0.7202881152461
  0
MTEXT
  5
1EA
330
1F
100
AcDbEntity
  8
0
 62
     7
100
AcDbMText
 10
140.6250000001406
 20
25.5000000000255
 30
0.0
 40
5.25
 41
0.0
 71
     5
 72
     1
  1
1,5
  7
CONVERTER_2
 73
     1
 44
0.7202881152461
  0
MTEXT
  5
1EB
330
1F
100
AcDbEntity
  8
1
 62
     7
100
AcDbMText
 10
85.50000000000009
 20
34.12500000000002
 30
0.0
 40
5.25
 41
0.0
 71
     5
 72
     1
  1
D式止水栓本体
  7
CONVERTER_1
 73
     1
 44
0.7202881152461
  0
MTEXT
  5
1EC
330
1F
100
AcDbEntity
  8
1
 62
     7
100
AcDbMText
 10
85.50000000008549
 20
21.37500000002138
 30
0.0
 40
5.25
 41
0.0
 71
     5
 72
     1
  1
V22AD-X-13
  7
CONVERTER_2
 73
     1
 44
0.78031212484994
  0
MTEXT
  5
1ED
330
1F
100
AcDbEntity
  8
1
 62
     7
100
AcDbMText
 10
51.00000000000004
 20
56.25
 30
0.0
 40
5.25
 41
0.0
 71
     4
 72
     1
  1
JIS
  7
CONVERTER_2
 73
     1
 44
1.32052821128451
  0
DIMENSION
  5
1F8
330
1F
100
AcDbEntity
  8
1
100
AcDbDimension
  2
*D09
 10
68.49999999999875
 20
220.8198156485459
 30
0.0
 11
79.99999999999875
 21
224.9448156485459
 31
0.0
  1
<>
 71
     5
 42
0.0
 53
0.00013888888889
  3
ME10_DIM_0
100
AcDbAlignedDimension
 13
91.49999999999875
 23
204.6942740636338
 33
0.0
 14
68.49999999999875
 24
204.6942740636338
 34
0.0
100
AcDbRotatedDimension
  0
DIMENSION
  5
204
330
1F
100
AcDbEntity
  8
1
100
AcDbDimension
  2
*D110
 10
61.46986839248234
 20
340.5237882725251
 30
0.0
 11
45.95013270791345
 21
344.6487882725251
 31
0.0
 70
     1
  1
<>
 71
     5
 42
0.0
 52
120.0
 53
0.00013888888889
  3
ME10_DIM_1
100
AcDbAlignedDimension
 13
92.82409254803214
 23
331.2500000000002
 33
0.0
 14
66.82409254803226
 24
331.25
 34
0.0
  0
DIMENSION
  5
20F
330
1F
100
AcDbEntity
  8
1
100
AcDbDimension
  2
*D211
 10
160.5375011125199
 20
124.319815648546
 30
0.0
 11
176.19360851066
 21
128.444815648546
 31
0.0
  1
33リフト5
 71
     5
 42
0.0
 53
0.00013888888889
  3
ME10_DIM_2
100
AcDbAlignedDimension
 13
193.5375011125198
 23
152.319815648546
 33
0.0
 14
160.5375011125199
 24
165.5698156485459
 34
0.0
100
AcDbRotatedDimension
  0
DIMENSION
  5
21A
330
1F
100
AcDbEntity
  8
1
100
AcDbDimension
  2
*D312
 10
193.5375011125199
 20
124.319815648546
 30
0.0
 11
228.584268364322
 21
128.444815648546
 31
0.0
  1
<>
 71
     5
 42
0.0
 53
0.00013888888889
  3
ME10_DIM_3
100
AcDbAlignedDimension
 13
264.5375011125199
 23
160.2178034292577
 33
0.0
 14
193.5375011125198
 24
152.319815648546
 34
0.0
100
AcDbRotatedDimension
  0
DIMENSION
  5
225
330
1F
100
AcDbEntity
  8
1
100
AcDbDimension
  2
*D413
 10
279.5375011125199
 20
199.3198156485459
 30
0.0
 11
275.4125011125199
 21
169.319815648546
 31
0.0
  1
^N1^O60
 71
     5
 42
0.0
 53
90.0
  3
ME10_DIM_4
100
AcDbAlignedDimension
 13
249.0398582701589
 23
139.319815648546
 33
0.0
 14
249.0398582701589
 24
199.3198156485459
 34
0.0
 50
90.0
100
AcDbRotatedDimension
  0
DIMENSION
  5
230
330
1F
100
AcDbEntity
  8
1
100
AcDbDimension
  2
*D514
 10
124.8240925480322
 20
359.0023571576391
 30
0.0
 11
120.6990925480322
 21
351.693566133509
 31
0.0
  1
<>
 71
     5
 42
0.0
 53
90.0
  3
ME10_DIM_5
100
AcDbAlignedDimension
 13
91.94531922007428
 23
343.002357157639
 33
0.0
 14
109.8240925480322
 24
359.002357157639
 34
0.0
 50
90.0
100
AcDbRotatedDimension
  0
DIMENSION
  5
23B
330
1F
100
AcDbEntity
  8
1
100
AcDbDimension
  2
*D615
 10
145.5375011125199
 20
169.319815648546
 30
0.0
 11
141.4125011125199
 21
186.043536009458
 31
0.0
  1
<>
 71
     5
 42
0.0
 53
90.0
  3
ME10_DIM_6
100
AcDbAlignedDimension
 13
181.0402271496497
 23
199.3198156485459
 33
0.0
 14
156.0375011125199
 24
169.319815648546
 34
0.0
 50
90.0
100
AcDbRotatedDimension
  0
ENDSEC
  0
SECTION
  2
OBJECTS
  0
DICTIONARY
  5
C
330
0
100
AcDbDictionary
281
     1
  3
ACAD_GROUP
350
D
  3
ACAD_LAYOUT
350
1A
  3
ACAD_MLINESTYLE
350
17
  3
ACAD_PLOTSETTINGS
350
19
  3
ACAD_PLOTSTYLENAME
350
E
  3
ACAD_TABLESTYLE
350
2A
  3
AcDbVariableDictionary
350
2C
  0
DICTIONARY
  5
D
102
{ACAD_REACTORS
330
C
102
}
330
C
100
AcDbDictionary
281
     1
  0
DICTIONARY
  5
1A
102
{ACAD_REACTORS
330
C
102
}
330
C
100
AcDbDictionary
281
     1
  3
Layout1
350
1E
  3
Layout2
350
26
  3
Model
350
22
  0
DICTIONARY
  5
17
102
{ACAD_REACTORS
330
C
102
}
330
C
100
AcDbDictionary
281
     1
  3
Standard
350
18
  0
DICTIONARY
  5
19
102
{ACAD_REACTORS
330
C
102
}
330
C
100
AcDbDictionary
281
     1
  0
ACDBDICTIONARYWDFLT
  5
E
102
{ACAD_REACTORS
330
C
102
}
330
C
100
AcDbDictionary
281
     1
  3
Normal
350
F
100
AcDbDictionaryWithDefault
340
F
  0
DICTIONARY
  5
2A
102
{ACAD_REACTORS
330
C
102
}
330
C
100
AcDbDictionary
281
     1
  3
Standard
350
2B
  0
DICTIONARY
  5
2C
102
{ACAD_REACTORS
330
C
102
}
330
C
100
AcDbDictionary
281
     1
  3
CTABLESTYLE
350
2D
  0
LAYOUT
  5
1E
102
{ACAD_REACTORS
330
1A
102
}
330
1A
100
AcDbPlotSettings
  1

  2

  4

  6

 40
0.0
 41
0.0
 42
0.0
 43
0.0
 44
0.0
 45
0.0
 46
0.0
 47
0.0
 48
0.0
 49
0.0
140
0.0
141
0.0
142
1.0
143
1.0
 70
   688
 72
     0
 73
     0
 74
     5
  7

 75
    16
147
1.0
148
0.0
149
0.0
100
AcDbLayout
  1
Layout1
 70
     1
 71
     1
 10
0.0
 20
0.0
 11
12.0
 21
9.0
 12
0.0
 22
0.0
 32
0.0
 14
1.00000000000000E+20
 24
1.00000000000000E+20
 34
1.00000000000000E+20
 15
-1.00000000000000E+20
 25
-1.00000000000000E+20
 35
-1.00000000000000E+20
146
0.0
 13
0.0
 23
0.0
 33
0.0
 16
1.0
 26
0.0
 36
0.0
 17
0.0
 27
1.0
 37
0.0
 76
     0
330
1B
  0
LAYOUT
  5
26
102
{ACAD_REACTORS
330
1A
102
}
330
1A
100
AcDbPlotSettings
  1

  2

  4

  6

 40
0.0
 41
0.0
 42
0.0
 43
0.0
 44
0.0
 45
0.0
 46
0.0
 47
0.0
 48
0.0
 49
0.0
140
0.0
141
0.0
142
1.0
143
1.0
 70
   688
 72
     0
 73
     0
 74
     5
  7

 75
    16
147
1.0
148
0.0
149
0.0
100
AcDbLayout
  1
Layout2
 70
     1
 71
     2
 10
0.0
 20
0.0
 11
0.0
 21
0.0
 12
0.0
 22
0.0
 32
0.0
 14
0.0
 24
0.0
 34
0.0
 15
0.0
 25
0.0
 35
0.0
146
0.0
 13
0.0
 23
0.0
 33
0.0
 16
1.0
 26
0.0
 36
0.0
 17
0.0
 27
1.0
 37
0.0
 76
     0
330
23
  0
LAYOUT
  5
22
102
{ACAD_REACTORS
330
1A
102
}
330
1A
100
AcDbPlotSettings
  1

  2

  4

  6

 40
0.0
 41
0.0
 42
0.0
 43
0.0
 44
0.0
 45
0.0
 46
0.0
 47
0.0
 48
0.0
 49
0.0
140
0.0
141
0.0
142
1.0
143
1.0
 70
  1712
 72
     0
 73
     0
 74
     0
  7

 75
     0
147
1.0
148
0.0
149
0.0
100
AcDbLayout
  1
Model
 70
     1
 71
     0
 10
0.0
 20
0.0
 11
0.0
 21
0.0
 12
0.0
 22
0.0
 32
0.0
 14
0.00000000000004
 24
0.0
 34
0.0
 15
315.0000000000002
 25
445.5
 35
0.0
146
0.0
 13
0.0
 23
0.0
 33
0.0
 16
1.0
 26
0.0
 36
0.0
 17
0.0
 27
1.0
 37
0.0
 76
     0
330
1F
  0
MLINESTYLE
  5
18
102
{ACAD_REACTORS
330
17
102
}
330
17
100
AcDbMlineStyle
  2
Standard
 70
     0
  3

 62
   256
 51
90.0
 52
90.0
 71
     2
 49
0.5
 62
   256
  6
BYLAYER
 49
-0.5
 62
   256
  6
BYLAYER
  0
ACDBPLACEHOLDER
  5
F
102
{ACAD_REACTORS
330
E
102
}
330
E
  0
TABLESTYLE
  5
2B
102
{ACAD_REACTORS
330
2A
102
}
330
2A
100
AcDbTableStyle
  3
Standard
 70
     0
 71
     0
 40
0.06
 41
0.06
280
     0
281
     0
  7
Standard
140
0.18
170
     2
 62
     0
 63
     7
283
     0
274
    -2
284
     1
 64
     0
275
    -2
285
     1
 65
     0
276
    -2
286
     1
 66
     0
277
    -2
287
     1
 67
     0
278
    -2
288
     1
 68
     0
279
    -2
289
     1
 69
     0
  7
Standard
140
0.25
170
     5
 62
     0
 63
     7
283
     0
274
    -2
284
     1
 64
     0
275
    -2
285
     1
 65
     0
276
    -2
286
     1
 66
     0
277
    -2
287
     1
 67
     0
278
    -2
288
     1
 68
     0
279
    -2
289
     1
 69
     0
  7
Standard
140
0.18
170
     5
 62
     0
 63
     7
283
     0
274
    -2
284
     1
 64
     0
275
    -2
285
     1
 65
     0
276
    -2
286
     1
 66
     0
277
    -2
287
     1
 67
     0
278
    -2
288
     1
 68
     0
279
    -2
289
     1
 69
     0
  0
DICTIONARYVAR
  5
2D
102
{ACAD_REACTORS
330
2C
102
}
330
2C
100
DictionaryVariables
280
     0
  1
Standard
  0
ENDSEC
  0
EOF
