  0
SECTION
  2
HEADER
  9
$ACADVER
  1
AC1015
  9
$ACADMAINTVER
 70
     6
  9
$DWGCODEPAGE
  3
DOS932
  9
$INSBASE
 10
0.0
 20
0.0
 30
0.0
  9
$EXTMIN
 10
0.0
 20
0.0
 30
0.0
  9
$EXTMAX
 10
315.0
 20
445.5
 30
0.0
  9
$LIMMIN
 10
0.0
 20
0.0
  9
$LIMMAX
 10
12.0
 20
9.0
  9
$ORTHOMODE
 70
     0
  9
$REGENMODE
 70
     1
  9
$FILLMODE
 70
     1
  9
$QTEXTMODE
 70
     0
  9
$MIRRTEXT
 70
     1
  9
$LTSCALE
 40
1.0
  9
$ATTMODE
 70
     1
  9
$TEXTSIZE
 40
0.2
  9
$TRACEWID
 40
0.05
  9
$TEXTSTYLE
  7
Standard
  9
$CLAYER
  8
0
  9
$CELTYPE
  6
ByLayer
  9
$CECOLOR
 62
   256
  9
$CELTSCALE
 40
1.0
  9
$DISPSILH
 70
     0
  9
$DIMSCALE
 40
1.0
  9
$DIMASZ
 40
0.18
  9
$DIMEXO
 40
0.0625
  9
$DIMDLI
 40
0.38
  9
$DIMRND
 40
0.0
  9
$DIMDLE
 40
0.0
  9
$DIMEXE
 40
0.18
  9
$DIMTP
 40
0.0
  9
$DIMTM
 40
0.0
  9
$DIMTXT
 40
0.18
  9
$DIMCEN
 40
0.09
  9
$DIMTSZ
 40
0.0
  9
$DIMTOL
 70
     0
  9
$DIMLIM
 70
     0
  9
$DIMTIH
 70
     1
  9
$DIMTOH
 70
     1
  9
$DIMSE1
 70
     0
  9
$DIMSE2
 70
     0
  9
$DIMTAD
 70
     0
  9
$DIMZIN
 70
     0
  9
$DIMBLK
  1

  9
$DIMASO
 70
     1
  9
$DIMSHO
 70
     1
  9
$DIMPOST
  1

  9
$DIMAPOST
  1

  9
$DIMALT
 70
     0
  9
$DIMALTD
 70
     2
  9
$DIMALTF
 40
25.4
  9
$DIMLFAC
 40
1.0
  9
$DIMTOFL
 70
     0
  9
$DIMTVP
 40
0.0
  9
$DIMTIX
 70
     0
  9
$DIMSOXD
 70
     0
  9
$DIMSAH
 70
     0
  9
$DIMBLK1
  1

  9
$DIMBLK2
  1

  9
$DIMSTYLE
  2
Standard
  9
$DIMCLRD
 70
     0
  9
$DIMCLRE
 70
     0
  9
$DIMCLRT
 70
     0
  9
$DIMTFAC
 40
1.0
  9
$DIMGAP
 40
0.09
  9
$DIMJUST
 70
     0
  9
$DIMSD1
 70
     0
  9
$DIMSD2
 70
     0
  9
$DIMTOLJ
 70
     1
  9
$DIMTZIN
 70
     0
  9
$DIMALTZ
 70
     0
  9
$DIMALTTZ
 70
     0
  9
$DIMUPT
 70
     0
  9
$DIMDEC
 70
     4
  9
$DIMTDEC
 70
     4
  9
$DIMALTU
 70
     2
  9
$DIMALTTD
 70
     2
  9
$DIMTXSTY
  7
Standard
  9
$DIMAUNIT
 70
     0
  9
$DIMADEC
 70
     0
  9
$DIMALTRND
 40
0.0
  9
$DIMAZIN
 70
     0
  9
$DIMDSEP
 70
    46
  9
$DIMATFIT
 70
     3
  9
$DIMFRAC
 70
     0
  9
$DIMLDRBLK
  1

  9
$DIMLUNIT
 70
     2
  9
$DIMLWD
 70
    -2
  9
$DIMLWE
 70
    -2
  9
$DIMTMOVE
 70
     0
  9
$LUNITS
 70
     2
  9
$LUPREC
 70
     4
  9
$SKETCHINC
 40
0.1
  9
$FILLETRAD
 40
0.5
  9
$AUNITS
 70
     0
  9
$AUPREC
 70
     0
  9
$MENU
  1
.
  9
$ELEVATION
 40
0.0
  9
$PELEVATION
 40
0.0
  9
$THICKNESS
 40
0.0
  9
$LIMCHECK
 70
     0
  9
$CHAMFERA
 40
0.5
  9
$CHAMFERB
 40
0.5
  9
$CHAMFERC
 40
1.0
  9
$CHAMFERD
 40
0.0
  9
$SKPOLY
 70
     0
  9
$TDCREATE
 40
2456143.42357566
  9
$TDUCREATE
 40
2456143.04857566
  9
$TDUPDATE
 40
2456143.423575671
  9
$TDUUPDATE
 40
2456143.048575671
  9
$TDINDWG
 40
0.0000000116
  9
$TDUSRTIMER
 40
0.0000000116
  9
$USRTIMER
 70
     1
  9
$ANGBASE
 50
0.0
  9
$ANGDIR
 70
     0
  9
$PDMODE
 70
     0
  9
$PDSIZE
 40
0.0
  9
$PLINEWID
 40
0.0
  9
$SPLFRAME
 70
     0
  9
$SPLINETYPE
 70
     6
  9
$SPLINESEGS
 70
     8
  9
$HANDSEED
  5
1F9
  9
$SURFTAB1
 70
     6
  9
$SURFTAB2
 70
     6
  9
$SURFTYPE
 70
     6
  9
$SURFU
 70
     6
  9
$SURFV
 70
     6
  9
$UCSBASE
  2

  9
$UCSNAME
  2

  9
$UCSORG
 10
0.0
 20
0.0
 30
0.0
  9
$UCSXDIR
 10
1.0
 20
0.0
 30
0.0
  9
$UCSYDIR
 10
0.0
 20
1.0
 30
0.0
  9
$UCSORTHOREF
  2

  9
$UCSORTHOVIEW
 70
     0
  9
$UCSORGTOP
 10
0.0
 20
0.0
 30
0.0
  9
$UCSORGBOTTOM
 10
0.0
 20
0.0
 30
0.0
  9
$UCSORGLEFT
 10
0.0
 20
0.0
 30
0.0
  9
$UCSORGRIGHT
 10
0.0
 20
0.0
 30
0.0
  9
$UCSORGFRONT
 10
0.0
 20
0.0
 30
0.0
  9
$UCSORGBACK
 10
0.0
 20
0.0
 30
0.0
  9
$PUCSBASE
  2

  9
$PUCSNAME
  2

  9
$PUCSORG
 10
0.0
 20
0.0
 30
0.0
  9
$PUCSXDIR
 10
1.0
 20
0.0
 30
0.0
  9
$PUCSYDIR
 10
0.0
 20
1.0
 30
0.0
  9
$PUCSORTHOREF
  2

  9
$PUCSORTHOVIEW
 70
     0
  9
$PUCSORGTOP
 10
0.0
 20
0.0
 30
0.0
  9
$PUCSORGBOTTOM
 10
0.0
 20
0.0
 30
0.0
  9
$PUCSORGLEFT
 10
0.0
 20
0.0
 30
0.0
  9
$PUCSORGRIGHT
 10
0.0
 20
0.0
 30
0.0
  9
$PUCSORGFRONT
 10
0.0
 20
0.0
 30
0.0
  9
$PUCSORGBACK
 10
0.0
 20
0.0
 30
0.0
  9
$USERI1
 70
     0
  9
$USERI2
 70
     0
  9
$USERI3
 70
     0
  9
$USERI4
 70
     0
  9
$USERI5
 70
     0
  9
$USERR1
 40
13.2
  9
$USERR2
 40
0.0
  9
$USERR3
 40
0.0
  9
$USERR4
 40
0.0
  9
$USERR5
 40
0.0
  9
$WORLDVIEW
 70
     1
  9
$SHADEDGE
 70
     3
  9
$SHADEDIF
 70
    70
  9
$TILEMODE
 70
     1
  9
$MAXACTVP
 70
    64
  9
$PINSBASE
 10
0.0
 20
0.0
 30
0.0
  9
$PLIMCHECK
 70
     0
  9
$PEXTMIN
 10
1.00000000000000E+20
 20
1.00000000000000E+20
 30
1.00000000000000E+20
  9
$PEXTMAX
 10
-1.00000000000000E+20
 20
-1.00000000000000E+20
 30
-1.00000000000000E+20
  9
$PLIMMIN
 10
0.0
 20
0.0
  9
$PLIMMAX
 10
12.0
 20
9.0
  9
$UNITMODE
 70
     0
  9
$VISRETAIN
 70
     1
  9
$PLINEGEN
 70
     0
  9
$PSLTSCALE
 70
     1
  9
$TREEDEPTH
 70
  3020
  9
$CMLSTYLE
  2
Standard
  9
$CMLJUST
 70
     0
  9
$CMLSCALE
 40
1.0
  9
$PROXYGRAPHICS
 70
     1
  9
$MEASUREMENT
 70
     1
  9
$CELWEIGHT
370
    -1
  9
$ENDCAPS
280
     0
  9
$JOINSTYLE
280
     0
  9
$LWDISPLAY
290
     0
  9
$INSUNITS
 70
     1
  9
$HYPERLINKBASE
  1

  9
$STYLESHEET
  1

  9
$XEDIT
290
     1
  9
$CEPSNTYPE
380
     0
  9
$PSTYLEMODE
290
     0
  9
$FINGERPRINTGUID
  2
{FAEB1C30-E019-11D5-929B-00C0DF256EC4}
  9
$VERSIONGUID
  2
{FAEB1C32-E019-11D5-929B-00C0DF256EC4}
  9
$EXTNAMES
290
     1
  9
$PSVPSCALE
 40
0.0
  9
$OLESTARTUP
290
     0
  0
ENDSEC
  0
SECTION
  2
CLASSES
  0
CLASS
  1
ACDBDICTIONARYWDFLT
  2
AcDbDictionaryWithDefault
  3
ObjectDBX Classes
 90
        0
280
     0
281
     0
  0
CLASS
  1
TABLESTYLE
  2
AcDbTableStyle
  3
ObjectDBX Classes
 90
     2047
280
     0
281
     0
  0
CLASS
  1
DICTIONARYVAR
  2
AcDbDictionaryVar
  3
ObjectDBX Classes
 90
        0
280
     0
281
     0
  0
CLASS
  1

  2
exOdDbCircle
  3

 90
        0
280
     0
281
     1
  0
CLASS
  1

  2
exOdDbSpline
  3

 90
        0
280
     0
281
     1
  0
CLASS
  1
ACDBPLACEHOLDER
  2
AcDbPlaceHolder
  3
ObjectDBX Classes
 90
        0
280
     0
281
     0
  0
CLASS
  1
LAYOUT
  2
AcDbLayout
  3
ObjectDBX Classes
 90
        0
280
     0
281
     0
  0
ENDSEC
  0
SECTION
  2
TABLES
  0
TABLE
  2
VPORT
  5
8
330
0
100
AcDbSymbolTable
 70
     2
  0
VPORT
  5
29
330
8
100
AcDbSymbolTableRecord
100
AcDbViewportTableRecord
  2
*Active
 70
     0
 10
0.0
 20
0.0
 11
1.0
 21
1.0
 12
157.5
 22
222.75
 13
0.0
 23
0.0
 14
0.5
 24
0.5
 15
0.5
 25
0.5
 16
0.0
 26
0.0
 36
1.0
 17
0.0
 27
0.0
 37
0.0
 40
490.05
 41
1.60267857142857
 42
50.0
 43
0.0
 44
0.0
 50
0.0
 51
0.0
 71
     0
 72
   100
 73
     1
 74
     3
 75
     0
 76
     0
 77
     0
 78
     0
281
     0
 65
     1
110
0.0
120
0.0
130
0.0
111
1.0
121
0.0
131
0.0
112
0.0
122
1.0
132
0.0
 79
     0
146
0.0
  0
ENDTAB
  0
TABLE
  2
LTYPE
  5
5
330
0
100
AcDbSymbolTable
 70
     8
  0
LTYPE
  5
14
330
5
100
AcDbSymbolTableRecord
100
AcDbLinetypeTableRecord
  2
ByBlock
 70
     0
  3

 72
    65
 73
     0
 40
0.0
  0
LTYPE
  5
15
330
5
100
AcDbSymbolTableRecord
100
AcDbLinetypeTableRecord
  2
ByLayer
 70
     0
  3

 72
    65
 73
     0
 40
0.0
  0
LTYPE
  5
16
330
5
100
AcDbSymbolTableRecord
100
AcDbLinetypeTableRecord
  2
Continuous
 70
     0
  3
Solid line
 72
    65
 73
     0
 40
0.0
  0
LTYPE
  5
2E
330
5
100
AcDbSymbolTableRecord
100
AcDbLinetypeTableRecord
  2
DASHED
 70
     0
  3
Dashed
 72
    65
 73
     2
 40
15.0
 49
7.0
 74
     0
 49
-8.0
 74
     0
  0
LTYPE
  5
2F
330
5
100
AcDbSymbolTableRecord
100
AcDbLinetypeTableRecord
  2
DOTTED
 70
     0
  3
Dotted
 72
    65
 73
     2
 40
1.0
 49
0.0
 74
     0
 49
-1.0
 74
     0
  0
LTYPE
  5
30
330
5
100
AcDbSymbolTableRecord
100
AcDbLinetypeTableRecord
  2
DOT_CENTER
 70
     0
  3
Dot_Center
 72
    65
 73
     4
 40
14.0
 49
12.0
 74
     0
 49
-1.0
 74
     0
 49
0.0
 74
     0
 49
-1.0
 74
     0
  0
LTYPE
  5
31
330
5
100
AcDbSymbolTableRecord
100
AcDbLinetypeTableRecord
  2
LONG_DASHED
 70
     0
  3
Long_Dashed
 72
    65
 73
     2
 40
15.0
 49
10.0
 74
     0
 49
-5.0
 74
     0
  0
LTYPE
  5
32
330
5
100
AcDbSymbolTableRecord
100
AcDbLinetypeTableRecord
  2
DASH_CENTER
 70
     0
  3
Dash_Center
 72
    65
 73
     4
 40
14.0
 49
11.0
 74
     0
 49
-1.0
 74
     0
 49
1.0
 74
     0
 49
-1.0
 74
     0
  0
LTYPE
  5
33
330
5
100
AcDbSymbolTableRecord
100
AcDbLinetypeTableRecord
  2
PHANTOM
 70
     0
  3
Phantom
 72
    65
 73
     6
 40
13.0
 49
10.0
 74
     0
 49
-1.0
 74
     0
 49
0.0
 74
     0
 49
-1.0
 74
     0
 49
0.0
 74
     0
 49
-1.0
 74
     0
  0
LTYPE
  5
34
330
5
100
AcDbSymbolTableRecord
100
AcDbLinetypeTableRecord
  2
CENTER_DASH_DASH
 70
     0
  3
Center_Dash_Dash
 72
    65
 73
     6
 40
14.0
 49
9.0
 74
     0
 49
-1.0
 74
     0
 49
1.0
 74
     0
 49
-1.0
 74
     0
 49
1.0
 74
     0
 49
-1.0
 74
     0
  0
ENDTAB
  0
TABLE
  2
LAYER
  5
2
330
0
100
AcDbSymbolTable
 70
     2
  0
LAYER
  5
10
330
2
100
AcDbSymbolTableRecord
100
AcDbLayerTableRecord
  2
0
 70
     0
 62
     7
  6
Continuous
370
    -3
390
F
  0
LAYER
  5
35
330
2
100
AcDbSymbolTableRecord
100
AcDbLayerTableRecord
  2
1
 70
     0
 62
     7
  6
Continuous
370
    -3
390
F
  0
ENDTAB
  0
TABLE
  2
STYLE
  5
3
330
0
100
AcDbSymbolTable
 70
     3
  0
STYLE
  5
11
330
3
100
AcDbSymbolTableRecord
100
AcDbTextStyleTableRecord
  2
Standard
 70
     0
 40
0.0
 41
1.0
 50
0.0
 71
     0
 42
0.2
  3
txt
  4

  0
STYLE
  5
192
330
3
100
AcDbSymbolTableRecord
100
AcDbTextStyleTableRecord
  2
CONVERTER_1
 70
     0
 40
0.0
 41
0.89
 50
0.0
 71
     0
 42
0.2
  3
msmincho.ttc
  4

1001
ACAD
1000
MS Mincho
1071
    32785
  0
STYLE
  5
1BE
330
3
100
AcDbSymbolTableRecord
100
AcDbTextStyleTableRecord
  2
CONVERTER_2
 70
     0
 40
0.0
 41
0.9
 50
0.0
 71
     0
 42
0.2
  3
txt.shx
  4

  0
ENDTAB
  0
TABLE
  2
VIEW
  5
6
330
0
100
AcDbSymbolTable
 70
     0
  0
ENDTAB
  0
TABLE
  2
UCS
  5
7
330
0
100
AcDbSymbolTable
 70
     0
  0
ENDTAB
  0
TABLE
  2
APPID
  5
9
330
0
100
AcDbSymbolTable
 70
     1
  0
APPID
  5
12
330
9
100
AcDbSymbolTableRecord
100
AcDbRegAppTableRecord
  2
ACAD
 70
     0
  0
ENDTAB
  0
TABLE
  2
DIMSTYLE
  5
A
330
0
100
AcDbSymbolTable
 70
     5
100
AcDbDimStyleTable
  0
DIMSTYLE
105
27
330
A
100
AcDbSymbolTableRecord
100
AcDbDimStyleTableRecord
  2
Standard
 70
     0
340
11
  0
DIMSTYLE
105
1D6
102
{ACAD_REACTORS
330
1D7
102
}
330
A
100
AcDbSymbolTableRecord
100
AcDbDimStyleTableRecord
  2
ME10_DIM_0
 70
     0
 41
5.25
 42
0.0
 44
1.5
 73
     0
 74
     0
 77
     1
 78
     8
140
5.25
147
0.625
172
     1
173
     1
176
     2
177
     2
178
     7
271
     2
340
192
  0
DIMSTYLE
105
1E1
102
{ACAD_REACTORS
330
1E2
102
}
330
A
100
AcDbSymbolTableRecord
100
AcDbDimStyleTableRecord
  2
ME10_DIM_1
 70
     0
 41
5.25
 42
0.0
 44
1.5
 73
     0
 74
     0
 77
     1
 78
     8
140
5.25
147
0.625
172
     1
173
     1
176
     2
177
     2
178
     7
271
     2
340
1BE
  0
DIMSTYLE
105
1EC
102
{ACAD_REACTORS
330
1ED
102
}
330
A
100
AcDbSymbolTableRecord
100
AcDbDimStyleTableRecord
  2
ME10_DIM_2
 70
     0
 41
5.25
 42
0.0
 44
1.5
 73
     0
 74
     0
 77
     1
 78
     8
140
5.25
147
0.625
172
     1
173
     1
176
     2
177
     2
178
     7
271
     2
340
1BE
  0
DIMSTYLE
105
1F7
102
{ACAD_REACTORS
330
1F8
102
}
330
A
100
AcDbSymbolTableRecord
100
AcDbDimStyleTableRecord
  2
ME10_DIM_3
 70
     0
 41
5.25
 42
0.0
 44
1.5
 73
     0
 74
     0
 77
     1
 78
     8
140
5.25
147
0.625
172
     1
173
     1
176
     2
177
     2
178
     7
271
     2
340
1BE
  0
ENDTAB
  0
TABLE
  2
BLOCK_RECORD
  5
1
330
0
100
AcDbSymbolTable
 70
    13
  0
BLOCK_RECORD
  5
1F
330
1
100
AcDbSymbolTableRecord
100
AcDbBlockTableRecord
  2
*Model_Space
340
22
  0
BLOCK_RECORD
  5
1B
330
1
100
AcDbSymbolTableRecord
100
AcDbBlockTableRecord
  2
*Paper_Space
340
1E
  0
BLOCK_RECORD
  5
23
330
1
100
AcDbSymbolTableRecord
100
AcDbBlockTableRecord
  2
*Paper_Space0
340
26
  0
BLOCK_RECORD
  5
36
330
1
100
AcDbSymbolTableRecord
100
AcDbBlockTableRecord
  2
51-1
340
0
102
{BLKREFS
331
46
102
}
  0
BLOCK_RECORD
  5
39
330
1
100
AcDbSymbolTableRecord
100
AcDbBlockTableRecord
  2
42-1
340
0
102
{BLKREFS
331
47
102
}
  0
BLOCK_RECORD
  5
3C
330
1
100
AcDbSymbolTableRecord
100
AcDbBlockTableRecord
  2
37-1-13
340
0
102
{BLKREFS
331
48
102
}
  0
BLOCK_RECORD
  5
3F
330
1
100
AcDbSymbolTableRecord
100
AcDbBlockTableRecord
  2
36-1A-13-M4
340
0
102
{BLKREFS
331
49
102
}
  0
BLOCK_RECORD
  5
42
330
1
100
AcDbSymbolTableRecord
100
AcDbBlockTableRecord
  2
41-1-15
340
0
102
{BLKREFS
331
4A
102
}
  0
BLOCK_RECORD
  5
45
330
1
100
AcDbSymbolTableRecord
100
AcDbBlockTableRecord
  2
R10A
340
0
102
{BLKREFS
331
53
102
}
  0
BLOCK_RECORD
  5
4D
330
1
100
AcDbSymbolTableRecord
100
AcDbBlockTableRecord
  2
V23-0-13
340
0
102
{BLKREFS
331
54
102
}
  0
BLOCK_RECORD
  5
50
330
1
100
AcDbSymbolTableRecord
100
AcDbBlockTableRecord
  2
_J__A4
340
0
102
{BLKREFS
331
55
102
}
  0
BLOCK_RECORD
  5
1CD
330
1
100
AcDbSymbolTableRecord
100
AcDbBlockTableRecord
  2
*D09
340
0
  0
BLOCK_RECORD
  5
1D8
330
1
100
AcDbSymbolTableRecord
100
AcDbBlockTableRecord
  2
*D110
340
0
  0
BLOCK_RECORD
  5
1E3
330
1
100
AcDbSymbolTableRecord
100
AcDbBlockTableRecord
  2
*D211
340
0
  0
BLOCK_RECORD
  5
1EE
330
1
100
AcDbSymbolTableRecord
100
AcDbBlockTableRecord
  2
*D312
340
0
  0
ENDTAB
  0
ENDSEC
  0
SECTION
  2
BLOCKS
  0
BLOCK
  5
20
330
1F
100
AcDbEntity
  8
0
100
AcDbBlockBegin
  2
*Model_Space
 70
     0
 71
     0
 10
0.0
 20
0.0
 30
0.0
  3
*Model_Space
  1

  0
ENDBLK
  5
21
330
1F
100
AcDbEntity
  8
0
100
AcDbBlockEnd
  0
BLOCK
  5
1C
330
1B
100
AcDbEntity
 67
     1
  8
0
100
AcDbBlockBegin
  2
*Paper_Space
 70
     0
 71
     0
 10
0.0
 20
0.0
 30
0.0
  3
*Paper_Space
  1

  0
ENDBLK
  5
1D
330
1B
100
AcDbEntity
 67
     1
  8
0
100
AcDbBlockEnd
  0
BLOCK
  5
24
330
23
100
AcDbEntity
  8
0
100
AcDbBlockBegin
  2
*Paper_Space0
 70
     0
 71
     0
 10
0.0
 20
0.0
 30
0.0
  3
*Paper_Space0
  1

  0
ENDBLK
  5
25
330
23
100
AcDbEntity
  8
0
100
AcDbBlockEnd
  0
BLOCK
  5
37
330
36
100
AcDbEntity
  8
0
100
AcDbBlockBegin
  2
51-1
 70
     0
 71
     0
 10
786.065255658842
 20
129.9711572789441
 30
0.0
  3
51-1
  1

  0
LINE
  5
56
330
36
100
AcDbEntity
  8
1
  6
Continuous
 62
     7
100
AcDbLine
 10
74.54172639098152
 20
315.6454199536286
 30
0.0
 11
84.51756187594404
 21
305.6695844686663
 31
0.0
  0
LINE
  5
57
330
36
100
AcDbEntity
  8
1
  6
Continuous
 62
     7
100
AcDbLine
 10
80.33728134871595
 20
325.6836155984823
 30
0.0
 11
93.96452604514883
 21
322.0322063870118
 31
0.0
  0
LINE
  5
58
330
36
100
AcDbEntity
  8
1
  6
Continuous
 62
     7
100
AcDbLine
 10
121.2932278993283
 20
325.8873922729794
 30
0.0
 11
106.905478300275
 21
322.0322063870118
 31
0.0
  0
LINE
  5
59
330
36
100
AcDbEntity
  8
1
  6
Continuous
 62
     7
100
AcDbLine
 10
126.3282779544421
 20
315.6454199536286
 30
0.0
 11
116.3524424694797
 21
305.6695844686663
 31
0.0
  0
LINE
  5
5A
330
36
100
AcDbEntity
  8
1
  6
Continuous
 62
     7
100
AcDbLine
 10
106.2305571304462
 20
280.8351463701328
 30
0.0
 11
109.8819663419168
 21
294.4623910665656
 31
0.0
  0
LINE
  5
5B
330
36
100
AcDbEntity
  8
1
  6
Continuous
 62
     7
100
AcDbLine
 10
94.63944721497754
 20
280.8351463701328
 30
0.0
 11
90.98803800350694
 21
294.4623910665656
 31
0.0
  0
LINE
  5
5C
330
36
100
AcDbEntity
  8
1
  6
Continuous
 62
     7
100
AcDbLine
 10
188.321175521721
 20
200.6721741048289
 30
0.0
 11
187.8692674227286
 21
196.956680899958
 31
0.0
  0
LINE
  5
5D
330
36
100
AcDbEntity
  8
1
  6
Continuous
 62
     7
100
AcDbLine
 10
236.7139915414146
 20
196.3870943494781
 30
0.0
 11
188.3644014570994
 21
196.3870943494781
 31
0.0
  0
LINE
  5
5E
330
36
100
AcDbEntity
  8
1
  6
Continuous
 62
     7
100
AcDbLine
 10
236.5919031078401
 20
201.8461709552219
 30
0.0
 11
237.2091206018477
 21
196.9567162821907
 31
0.0
  0
LINE
  5
5F
330
36
100
AcDbEntity
  8
1
  6
Continuous
 62
     7
100
AcDbLine
 10
205.8635476793066
 20
198.8253091359067
 30
0.0
 11
205.8635476793066
 21
205.1523202287833
 31
0.0
  0
LINE
  5
60
330
36
100
AcDbEntity
  8
1
  6
Continuous
 62
     7
100
AcDbLine
 10
217.0707410814073
 20
199.1642561587394
 30
0.0
 11
217.0707410814073
 21
205.491267251616
 31
0.0
  0
LINE
  5
61
330
36
100
AcDbEntity
  8
1
  6
Continuous
 62
     7
100
AcDbLine
 10
128.0806337091887
 20
196.9566808999582
 30
0.0
 11
127.6287256101964
 21
200.6721741048289
 31
0.0
  0
LINE
  5
62
330
36
100
AcDbEntity
  8
1
  6
Continuous
 62
     7
100
AcDbLine
 10
128.0806337091887
 20
196.9566808999582
 30
0.0
 11
127.6287256101964
 21
200.6721741048289
 31
0.0
  0
LINE
  5
63
330
36
100
AcDbEntity
  8
1
  6
Continuous
 62
     7
100
AcDbLine
 10
73.28422948559592
 20
196.3870943494781
 30
0.0
 11
127.5854996748181
 21
196.3870943494781
 31
0.0
  0
LINE
  5
64
330
36
100
AcDbEntity
  8
1
  6
Continuous
 62
     7
100
AcDbLine
 10
73.24100355021764
 20
200.6721741048289
 30
0.0
 11
72.78909545122514
 21
196.9566808999582
 31
0.0
  0
LINE
  5
65
330
36
100
AcDbEntity
  8
1
  6
Continuous
 62
     7
100
AcDbLine
 10
94.63930962247244
 20
200.5145520256233
 30
0.0
 11
93.66733526757133
 21
196.3870943494781
 31
0.0
  0
LINE
  5
66
330
36
100
AcDbEntity
  8
1
  6
Continuous
 62
     7
100
AcDbLine
 10
106.2304195379411
 20
200.5145520256233
 30
0.0
 11
107.2023938928423
 21
196.3870943494781
 31
0.0
  0
ARC
  5
67
330
36
100
AcDbEntity
  8
1
  6
Continuous
 62
     7
100
AcDbCircle
 10
78.78436707810084
 20
319.8880606407479
 30
0.0
 40
5.999999999999981
100
AcDbArc
 50
75.00000000000014
 51
-135.0000000000004
  0
ARC
  5
68
330
36
100
AcDbEntity
  8
1
  6
Continuous
 62
     7
100
AcDbCircle
 10
122.0856372673227
 20
319.8880606407479
 30
0.0
 40
6.000000000000068
100
AcDbArc
 50
-44.99999999999904
 51
97.52424107894032
  0
ARC
  5
69
330
36
100
AcDbEntity
  8
1
  6
Continuous
 62
     7
100
AcDbCircle
 10
100.4350021727119
 20
282.3880606407479
 30
0.0
 40
6.0
100
AcDbArc
 50
-90.0
 51
-14.99999999999984
  0
ARC
  5
6A
330
36
100
AcDbEntity
  8
1
  6
Continuous
 62
     7
100
AcDbCircle
 10
100.4350021727119
 20
282.3880606407479
 30
0.0
 40
5.999999999999947
100
AcDbArc
 50
-165.0000000000003
 51
-90.0
  0
ARC
  5
6B
330
36
100
AcDbEntity
  8
1
  6
Continuous
 62
     7
100
AcDbCircle
 10
218.7892172534889
 20
57.88709434947814
 30
0.0
 40
150.0533238552216
100
AcDbArc
 50
91.52752544221293
 51
99.80290179376779
  0
ARC
  5
6C
330
36
100
AcDbEntity
  8
1
  6
Continuous
 62
     7
100
AcDbCircle
 10
219.1534129187357
 20
132.975273340779
 30
0.0
 40
75.00000000000009
100
AcDbArc
 50
80.40850751733491
 51
87.22136103403746
  0
ARC
  5
6D
330
36
100
AcDbEntity
  8
1
  6
Continuous
 62
     7
100
AcDbCircle
 10
98.79777422931781
 20
80.51694180915385
 30
0.0
 40
127.4948334081409
100
AcDbArc
 50
79.19050675364785
 51
87.46588310520275
  0
ARC
  5
6E
330
36
100
AcDbEntity
  8
1
  6
Continuous
 62
     7
100
AcDbCircle
 10
102.0719549310961
 20
80.51694180915385
 30
0.0
 40
127.4948334081408
100
AcDbArc
 50
92.53411689479739
 51
100.8094932463522
  0
ARC
  5
6F
330
36
100
AcDbEntity
  8
1
  6
Continuous
 62
     7
100
AcDbCircle
 10
100.4348645802068
 20
198.9616377550082
 30
0.0
 40
6.0
100
AcDbArc
 50
90.0
 51
165.0000000000003
  0
ARC
  5
70
330
36
100
AcDbEntity
  8
1
  6
Continuous
 62
     7
100
AcDbCircle
 10
100.4348645802068
 20
198.9616377550082
 30
0.0
 40
5.999999999999878
100
AcDbArc
 50
14.99999999999984
 51
90.0
  0
ARC
  5
71
330
36
100
AcDbEntity
  8
1
  6
Continuous
 62
     7
100
AcDbCircle
 10
66.83989234628012
 20
287.9919149390026
 30
0.0
 40
25.00000000000011
100
AcDbArc
 50
14.99999999999993
 51
44.99999999999968
  0
ARC
  5
72
330
36
100
AcDbEntity
  8
1
  6
Continuous
 62
     7
100
AcDbCircle
 10
100.4350021727119
 20
346.1803520442385
 30
0.0
 40
24.99999999999999
100
AcDbArc
 50
-105.0000000000001
 51
-74.9999999999998
  0
ARC
  5
73
330
36
100
AcDbEntity
  8
1
  6
Continuous
 62
     7
100
AcDbCircle
 10
134.0301119991435
 20
287.9919149390026
 30
0.0
 40
25.00000000000009
100
AcDbArc
 50
135.0000000000001
 51
165.0
  0
ARC
  5
74
330
36
100
AcDbEntity
  8
1
  6
Continuous
 62
     7
100
AcDbCircle
 10
194.2627839341704
 20
199.8371354990685
 30
0.0
 40
6.000000000000131
100
AcDbArc
 50
99.8029017937676
 51
171.9999999999997
  0
ARC
  5
75
330
36
100
AcDbEntity
  8
1
  6
Continuous
 62
     7
100
AcDbCircle
 10
188.3644014570994
 20
196.8870943494782
 30
0.0
 40
0.4999999999999907
100
AcDbArc
 50
172.0000000000254
 51
-90.0
  0
ARC
  5
76
330
36
100
AcDbEntity
  8
1
  6
Continuous
 62
     7
100
AcDbCircle
 10
230.650354382643
 20
201.0107077626705
 30
0.0
 40
5.99999999999995
100
AcDbArc
 50
8.00409437170106
 51
80.4085075173346
  0
ARC
  5
77
330
36
100
AcDbEntity
  8
1
  6
Continuous
 62
     7
100
AcDbCircle
 10
236.7139915414146
 20
196.8870943494782
 30
0.0
 40
0.5000000000000853
100
AcDbArc
 50
-90.0
 51
8.00409437169016
  0
ARC
  5
78
330
36
100
AcDbEntity
  8
1
  6
Continuous
 62
     7
100
AcDbCircle
 10
121.687117197747
 20
199.8371354990686
 30
0.0
 40
5.999999999999964
100
AcDbArc
 50
7.99999999999919
 51
80.19709820623282
  0
ARC
  5
79
330
36
100
AcDbEntity
  8
1
  6
Continuous
 62
     7
100
AcDbCircle
 10
127.5854996748181
 20
196.8870943494782
 30
0.0
 40
0.5000000000000853
100
AcDbArc
 50
-90.0
 51
8.00000000000037
  0
ARC
  5
7A
330
36
100
AcDbEntity
  8
1
  6
Continuous
 62
     7
100
AcDbCircle
 10
79.18261196266704
 20
199.8371354990686
 30
0.0
 40
5.999999999999925
100
AcDbArc
 50
99.80290179376905
 51
172.0000000000008
  0
ARC
  5
7B
330
36
100
AcDbEntity
  8
1
  6
Continuous
 62
     7
100
AcDbCircle
 10
73.28422948559592
 20
196.8870943494782
 30
0.0
 40
0.4999999999999903
100
AcDbArc
 50
172.0000000000024
 51
-90.0
  0
ENDBLK
  5
38
330
36
100
AcDbEntity
  8
0
100
AcDbBlockEnd
  0
BLOCK
  5
3A
330
39
100
AcDbEntity
  8
0
100
AcDbBlockBegin
  2
42-1
 70
     0
 71
     0
 10
130.6849571668853
 20
4.09744533989335
 30
0.0
  3
42-1
  1

  0
LINE
  5
7C
330
39
100
AcDbEntity
  8
1
  6
Continuous
 62
     7
100
AcDbLine
 10
218.7892172534888
 20
211.2168600696819
 30
0.0
 11
224.5392172534888
 21
211.2168600696819
 31
0.0
  0
LINE
  5
7D
330
39
100
AcDbEntity
  8
1
  6
Continuous
 62
     2
100
AcDbLine
 10
219.7892172534888
 20
208.8641933610389
 30
0.0
 11
219.7892172534888
 21
210.1294324516494
 31
0.0
  0
LINE
  5
7E
330
39
100
AcDbEntity
  8
1
  6
Continuous
 62
     2
100
AcDbLine
 10
220.7892172534888
 20
208.604657137324
 30
0.0
 11
220.7892172534888
 21
210.3727476613821
 31
0.0
  0
LINE
  5
7F
330
39
100
AcDbEntity
  8
1
  6
Continuous
 62
     2
100
AcDbLine
 10
221.7892172534888
 20
208.2477948297159
 30
0.0
 11
221.7892172534888
 21
210.5836208431505
 31
0.0
  0
LINE
  5
80
330
39
100
AcDbEntity
  8
1
  6
Continuous
 62
     2
100
AcDbLine
 10
222.7892172534888
 20
208.0531426619297
 30
0.0
 11
222.7892172534888
 21
210.6971679410259
 31
0.0
  0
LINE
  5
81
330
39
100
AcDbEntity
  8
1
  6
Continuous
 62
     7
100
AcDbLine
 10
221.0892172534888
 20
207.8870943494782
 30
0.0
 11
223.7892172534888
 21
207.8870943494782
 31
0.0
  0
LINE
  5
82
330
39
100
AcDbEntity
  8
1
  6
Continuous
 62
     2
100
AcDbLine
 10
223.7892172534888
 20
207.8870943494782
 30
0.0
 11
223.7892172534888
 21
210.8870943494782
 31
0.0
  0
LINE
  5
83
330
39
100
AcDbEntity
  8
1
  6
Continuous
 62
     7
100
AcDbLine
 10
223.7892172534888
 20
207.8870943494782
 30
0.0
 11
224.7892172534888
 21
207.8870943494782
 31
0.0
  0
LINE
  5
84
330
39
100
AcDbEntity
  8
1
  6
Continuous
 62
     7
100
AcDbLine
 10
223.7892172534888
 20
210.8870943494782
 30
0.0
 11
224.7892172534888
 21
210.8870943494782
 31
0.0
  0
LINE
  5
85
330
39
100
AcDbEntity
  8
1
  6
Continuous
 62
     2
100
AcDbLine
 10
224.7892172534888
 20
207.8870943494782
 30
0.0
 11
224.7892172534888
 21
210.8870943494782
 31
0.0
  0
LINE
  5
86
330
39
100
AcDbEntity
  8
1
  6
Continuous
 62
     7
100
AcDbLine
 10
224.7892172534888
 20
210.8870943494782
 30
0.0
 11
225.7892172534888
 21
210.8870943494782
 31
0.0
  0
LINE
  5
87
330
39
100
AcDbEntity
  8
1
  6
Continuous
 62
     7
100
AcDbLine
 10
224.7892172534889
 20
211.1564165485013
 30
0.0
 11
225.7892172534888
 21
210.8870943494782
 31
0.0
  0
LINE
  5
88
330
39
100
AcDbEntity
  8
1
  6
Continuous
 62
     7
100
AcDbLine
 10
224.7892172534888
 20
207.8870943494782
 30
0.0
 11
225.7892172534888
 21
207.8870943494782
 31
0.0
  0
LINE
  5
89
330
39
100
AcDbEntity
  8
1
  6
Continuous
 62
     7
100
AcDbLine
 10
225.7892172534888
 20
210.8870943494782
 30
0.0
 11
225.7892172534888
 21
207.8870943494782
 31
0.0
  0
LINE
  5
8A
330
39
100
AcDbEntity
  8
1
  6
Continuous
 62
     7
100
AcDbLine
 10
213.7892172534888
 20
207.8870943494782
 30
0.0
 11
221.0892172534888
 21
207.8870943494782
 31
0.0
  0
LINE
  5
8B
330
39
100
AcDbEntity
  8
1
  6
Continuous
 62
     7
100
AcDbLine
 10
211.7892172534888
 20
207.8870943494782
 30
0.0
 11
211.7892172534888
 21
210.8870943494782
 31
0.0
  0
LINE
  5
8C
330
39
100
AcDbEntity
  8
1
  6
Continuous
 62
     7
100
AcDbLine
 10
211.7892172534888
 20
207.8870943494782
 30
0.0
 11
212.7892172534888
 21
207.8870943494782
 31
0.0
  0
LINE
  5
8D
330
39
100
AcDbEntity
  8
1
  6
Continuous
 62
     7
100
AcDbLine
 10
211.7892172534888
 20
210.8870943494782
 30
0.0
 11
212.7892172534887
 21
211.1564165485013
 31
0.0
  0
LINE
  5
8E
330
39
100
AcDbEntity
  8
1
  6
Continuous
 62
     7
100
AcDbLine
 10
211.7892172534888
 20
210.8870943494782
 30
0.0
 11
212.7892172534888
 21
210.8870943494782
 31
0.0
  0
LINE
  5
8F
330
39
100
AcDbEntity
  8
1
  6
Continuous
 62
     2
100
AcDbLine
 10
212.7892172534888
 20
210.8870943494782
 30
0.0
 11
212.7892172534888
 21
207.8870943494782
 31
0.0
  0
LINE
  5
90
330
39
100
AcDbEntity
  8
1
  6
Continuous
 62
     7
100
AcDbLine
 10
212.7892172534888
 20
210.8870943494782
 30
0.0
 11
213.7892172534888
 21
210.8870943494782
 31
0.0
  0
LINE
  5
91
330
39
100
AcDbEntity
  8
1
  6
Continuous
 62
     7
100
AcDbLine
 10
212.7892172534888
 20
207.8870943494782
 30
0.0
 11
213.7892172534888
 21
207.8870943494782
 31
0.0
  0
LINE
  5
92
330
39
100
AcDbEntity
  8
1
  6
Continuous
 62
     2
100
AcDbLine
 10
213.7892172534888
 20
210.8870943494782
 30
0.0
 11
213.7892172534888
 21
207.8870943494782
 31
0.0
  0
LINE
  5
93
330
39
100
AcDbEntity
  8
1
  6
Continuous
 62
     2
100
AcDbLine
 10
214.7892172534888
 20
210.6971679410259
 30
0.0
 11
214.7892172534888
 21
208.0531426619297
 31
0.0
  0
LINE
  5
94
330
39
100
AcDbEntity
  8
1
  6
Continuous
 62
     2
100
AcDbLine
 10
215.7892172534888
 20
210.5836208431505
 30
0.0
 11
215.7892172534888
 21
208.2477948297159
 31
0.0
  0
LINE
  5
95
330
39
100
AcDbEntity
  8
1
  6
Continuous
 62
     2
100
AcDbLine
 10
216.7892172534888
 20
210.3727476613821
 30
0.0
 11
216.7892172534888
 21
208.604657137324
 31
0.0
  0
LINE
  5
96
330
39
100
AcDbEntity
  8
1
  6
Continuous
 62
     2
100
AcDbLine
 10
217.7892172534888
 20
210.1294324516494
 30
0.0
 11
217.7892172534888
 21
208.8641933610389
 31
0.0
  0
LINE
  5
97
330
39
100
AcDbEntity
  8
1
  6
Continuous
 62
     7
100
AcDbLine
 10
213.0392172534888
 20
211.2168600696819
 30
0.0
 11
218.7892172534888
 21
211.2168600696819
 31
0.0
  0
LINE
  5
98
330
39
100
AcDbEntity
  8
1
  6
Continuous
 62
     7
100
AcDbLine
 10
213.7892172534888
 20
210.8870943494782
 30
0.0
 11
223.7892172534888
 21
210.8870943494782
 31
0.0
  0
LINE
  5
99
330
39
100
AcDbEntity
  8
1
  6
Continuous
 62
     7
100
AcDbLine
 10
100.4348645802068
 20
211.2168600696819
 30
0.0
 11
106.1848645802068
 21
211.2168600696819
 31
0.0
  0
LINE
  5
9A
330
39
100
AcDbEntity
  8
1
  6
Continuous
 62
     2
100
AcDbLine
 10
101.4348645802068
 20
208.8641933610389
 30
0.0
 11
101.4348645802068
 21
210.1294324516494
 31
0.0
  0
LINE
  5
9B
330
39
100
AcDbEntity
  8
1
  6
Continuous
 62
     2
100
AcDbLine
 10
102.4348645802068
 20
208.604657137324
 30
0.0
 11
102.4348645802068
 21
210.3727476613821
 31
0.0
  0
LINE
  5
9C
330
39
100
AcDbEntity
  8
1
  6
Continuous
 62
     2
100
AcDbLine
 10
103.4348645802068
 20
208.2477948297159
 30
0.0
 11
103.4348645802068
 21
210.5836208431505
 31
0.0
  0
LINE
  5
9D
330
39
100
AcDbEntity
  8
1
  6
Continuous
 62
     2
100
AcDbLine
 10
104.4348645802068
 20
208.0531426619297
 30
0.0
 11
104.4348645802068
 21
210.6971679410259
 31
0.0
  0
LINE
  5
9E
330
39
100
AcDbEntity
  8
1
  6
Continuous
 62
     7
100
AcDbLine
 10
102.7348645802068
 20
207.8870943494782
 30
0.0
 11
105.4348645802068
 21
207.8870943494782
 31
0.0
  0
LINE
  5
9F
330
39
100
AcDbEntity
  8
1
  6
Continuous
 62
     2
100
AcDbLine
 10
105.4348645802068
 20
207.8870943494782
 30
0.0
 11
105.4348645802068
 21
210.8870943494782
 31
0.0
  0
LINE
  5
A0
330
39
100
AcDbEntity
  8
1
  6
Continuous
 62
     7
100
AcDbLine
 10
105.4348645802068
 20
207.8870943494782
 30
0.0
 11
106.4348645802068
 21
207.8870943494782
 31
0.0
  0
LINE
  5
A1
330
39
100
AcDbEntity
  8
1
  6
Continuous
 62
     7
100
AcDbLine
 10
105.4348645802068
 20
210.8870943494782
 30
0.0
 11
106.4348645802068
 21
210.8870943494782
 31
0.0
  0
LINE
  5
A2
330
39
100
AcDbEntity
  8
1
  6
Continuous
 62
     2
100
AcDbLine
 10
106.4348645802068
 20
207.8870943494782
 30
0.0
 11
106.4348645802068
 21
210.8870943494782
 31
0.0
  0
LINE
  5
A3
330
39
100
AcDbEntity
  8
1
  6
Continuous
 62
     7
100
AcDbLine
 10
106.4348645802068
 20
210.8870943494782
 30
0.0
 11
107.4348645802068
 21
210.8870943494782
 31
0.0
  0
LINE
  5
A4
330
39
100
AcDbEntity
  8
1
  6
Continuous
 62
     7
100
AcDbLine
 10
106.4348645802068
 20
211.1564165485013
 30
0.0
 11
107.4348645802068
 21
210.8870943494782
 31
0.0
  0
LINE
  5
A5
330
39
100
AcDbEntity
  8
1
  6
Continuous
 62
     7
100
AcDbLine
 10
106.4348645802068
 20
207.8870943494782
 30
0.0
 11
107.4348645802068
 21
207.8870943494782
 31
0.0
  0
LINE
  5
A6
330
39
100
AcDbEntity
  8
1
  6
Continuous
 62
     7
100
AcDbLine
 10
107.4348645802068
 20
210.8870943494782
 30
0.0
 11
107.4348645802068
 21
207.8870943494782
 31
0.0
  0
LINE
  5
A7
330
39
100
AcDbEntity
  8
1
  6
Continuous
 62
     7
100
AcDbLine
 10
95.43486458020681
 20
207.8870943494782
 30
0.0
 11
102.7348645802068
 21
207.8870943494782
 31
0.0
  0
LINE
  5
A8
330
39
100
AcDbEntity
  8
1
  6
Continuous
 62
     7
100
AcDbLine
 10
93.43486458020681
 20
207.8870943494782
 30
0.0
 11
93.43486458020681
 21
210.8870943494782
 31
0.0
  0
LINE
  5
A9
330
39
100
AcDbEntity
  8
1
  6
Continuous
 62
     7
100
AcDbLine
 10
93.43486458020681
 20
207.8870943494782
 30
0.0
 11
94.43486458020681
 21
207.8870943494782
 31
0.0
  0
LINE
  5
AA
330
39
100
AcDbEntity
  8
1
  6
Continuous
 62
     7
100
AcDbLine
 10
93.43486458020681
 20
210.8870943494782
 30
0.0
 11
94.43486458020675
 21
211.1564165485013
 31
0.0
  0
LINE
  5
AB
330
39
100
AcDbEntity
  8
1
  6
Continuous
 62
     7
100
AcDbLine
 10
93.43486458020681
 20
210.8870943494782
 30
0.0
 11
94.43486458020681
 21
210.8870943494782
 31
0.0
  0
LINE
  5
AC
330
39
100
AcDbEntity
  8
1
  6
Continuous
 62
     2
100
AcDbLine
 10
94.43486458020681
 20
210.8870943494782
 30
0.0
 11
94.43486458020681
 21
207.8870943494782
 31
0.0
  0
LINE
  5
AD
330
39
100
AcDbEntity
  8
1
  6
Continuous
 62
     7
100
AcDbLine
 10
94.43486458020681
 20
210.8870943494782
 30
0.0
 11
95.43486458020681
 21
210.8870943494782
 31
0.0
  0
LINE
  5
AE
330
39
100
AcDbEntity
  8
1
  6
Continuous
 62
     7
100
AcDbLine
 10
94.43486458020681
 20
207.8870943494782
 30
0.0
 11
95.43486458020681
 21
207.8870943494782
 31
0.0
  0
LINE
  5
AF
330
39
100
AcDbEntity
  8
1
  6
Continuous
 62
     2
100
AcDbLine
 10
95.43486458020681
 20
210.8870943494782
 30
0.0
 11
95.43486458020681
 21
207.8870943494782
 31
0.0
  0
LINE
  5
B0
330
39
100
AcDbEntity
  8
1
  6
Continuous
 62
     2
100
AcDbLine
 10
96.43486458020681
 20
210.6971679410259
 30
0.0
 11
96.43486458020681
 21
208.0531426619297
 31
0.0
  0
LINE
  5
B1
330
39
100
AcDbEntity
  8
1
  6
Continuous
 62
     2
100
AcDbLine
 10
97.43486458020681
 20
210.5836208431505
 30
0.0
 11
97.43486458020681
 21
208.2477948297159
 31
0.0
  0
LINE
  5
B2
330
39
100
AcDbEntity
  8
1
  6
Continuous
 62
     2
100
AcDbLine
 10
98.43486458020684
 20
210.3727476613821
 30
0.0
 11
98.43486458020684
 21
208.604657137324
 31
0.0
  0
LINE
  5
B3
330
39
100
AcDbEntity
  8
1
  6
Continuous
 62
     2
100
AcDbLine
 10
99.43486458020684
 20
210.1294324516494
 30
0.0
 11
99.43486458020684
 21
208.8641933610389
 31
0.0
  0
LINE
  5
B4
330
39
100
AcDbEntity
  8
1
  6
Continuous
 62
     7
100
AcDbLine
 10
94.68486458020681
 20
211.2168600696819
 30
0.0
 11
100.4348645802068
 21
211.2168600696819
 31
0.0
  0
LINE
  5
B5
330
39
100
AcDbEntity
  8
1
  6
Continuous
 62
     7
100
AcDbLine
 10
95.43486458020681
 20
210.8870943494782
 30
0.0
 11
105.4348645802068
 21
210.8870943494782
 31
0.0
  0
ARC
  5
B6
330
39
100
AcDbEntity
  8
1
  6
Continuous
 62
     7
100
AcDbCircle
 10
218.7892172534888
 20
186.8870943494782
 30
0.0
 40
24.99999999999996
100
AcDbArc
 50
76.11345963737071
 51
76.70292825279094
  0
ARC
  5
B7
330
39
100
AcDbEntity
  8
1
  6
Continuous
 62
     7
100
AcDbCircle
 10
218.7892172534888
 20
186.8870943494782
 30
0.0
 40
24.99999999999999
100
AcDbArc
 50
103.2970717472091
 51
103.8865403626293
  0
ARC
  5
B8
330
39
100
AcDbEntity
  8
1
  6
Continuous
 62
     7
100
AcDbCircle
 10
218.7892172534888
 20
186.8870943494782
 30
0.0
 40
24.99999999999999
100
AcDbArc
 50
76.70292825279094
 51
103.2970717472091
  0
ARC
  5
B9
330
39
100
AcDbEntity
  8
1
  6
Continuous
 62
     7
100
AcDbCircle
 10
100.4348645802068
 20
186.8870943494782
 30
0.0
 40
24.99999999999993
100
AcDbArc
 50
76.11345963737097
 51
76.70292825279094
  0
ARC
  5
BA
330
39
100
AcDbEntity
  8
1
  6
Continuous
 62
     7
100
AcDbCircle
 10
100.4348645802068
 20
186.8870943494782
 30
0.0
 40
24.99999999999999
100
AcDbArc
 50
103.2970717472091
 51
103.8865403626292
  0
ARC
  5
BB
330
39
100
AcDbEntity
  8
1
  6
Continuous
 62
     7
100
AcDbCircle
 10
100.4348645802068
 20
186.8870943494782
 30
0.0
 40
24.99999999999999
100
AcDbArc
 50
76.70292825279094
 51
103.2970717472091
  0
CIRCLE
  5
BC
330
39
100
AcDbEntity
  8
1
  6
Continuous
 62
     7
100
AcDbCircle
 10
100.4350021727118
 20
307.388060640748
 30
0.0
 40
7.0
  0
CIRCLE
  5
BD
330
39
100
AcDbEntity
  8
1
  6
Continuous
 62
     7
100
AcDbCircle
 10
100.4350021727118
 20
307.388060640748
 30
0.0
 40
5.749999999999901
  0
ENDBLK
  5
3B
330
39
100
AcDbEntity
  8
0
100
AcDbBlockEnd
  0
BLOCK
  5
3D
330
3C
100
AcDbEntity
  8
0
100
AcDbBlockBegin
  2
37-1-13
 70
     0
 71
     0
 10
126.9879870367178
 20
35.89138845933363
 30
0.0
  3
37-1-13
  1

  0
LINE
  5
BE
330
3C
100
AcDbEntity
  8
0
  6
Continuous
 62
     7
100
AcDbLine
 10
213.943870474592
 20
185.9578085637495
 30
0.0
 11
210.1139344469449
 21
185.9578085637495
 31
0.0
  0
LINE
  5
BF
330
3C
100
AcDbEntity
  8
1
  6
Continuous
 62
     7
100
AcDbLine
 10
224.7892172534888
 20
192.8870943494781
 30
0.0
 11
212.7892172534889
 21
192.8870943494781
 31
0.0
  0
LINE
  5
C0
330
3C
100
AcDbEntity
  8
0
  6
Continuous
 62
     7
100
AcDbLine
 10
227.4645000600329
 20
185.9578085637495
 30
0.0
 11
223.6345640323858
 21
185.9578085637495
 31
0.0
  0
LINE
  5
C1
330
3C
100
AcDbEntity
  8
1
  6
Continuous
 62
     7
100
AcDbLine
 10
205.7185030392174
 20
178.8870943494781
 30
0.0
 11
231.8599314677602
 21
178.8870943494781
 31
0.0
  0
LINE
  5
C2
330
3C
100
AcDbEntity
  8
1
  6
Continuous
 62
     7
100
AcDbLine
 10
87.43500217271165
 20
185.649955747987
 30
0.0
 11
87.43500217271165
 21
178.8870943494781
 31
0.0
  0
LINE
  5
C3
330
3C
100
AcDbEntity
  8
1
  6
Continuous
 62
     7
100
AcDbLine
 10
87.93500217271193
 20
186.3870943494782
 30
0.0
 11
100.4350021727118
 21
186.3870943494781
 31
0.0
  0
LINE
  5
C4
330
3C
100
AcDbEntity
  8
1
  6
Continuous
 62
     7
100
AcDbLine
 10
87.43500217271165
 20
185.9578085637494
 30
0.0
 11
87.43500217271165
 21
185.649955747987
 31
0.0
  0
LINE
  5
C5
330
3C
100
AcDbEntity
  8
1
  6
Continuous
 62
     7
100
AcDbLine
 10
94.43500217271185
 20
192.8870943494781
 30
0.0
 11
106.4350021727118
 21
192.8870943494781
 31
0.0
  0
LINE
  5
C6
330
3C
100
AcDbEntity
  8
1
  6
Continuous
 62
     7
100
AcDbLine
 10
100.4350021727118
 20
186.3870943494781
 30
0.0
 11
112.9350021727116
 21
186.3870943494782
 31
0.0
  0
LINE
  5
C7
330
3C
100
AcDbEntity
  8
1
  6
Continuous
 62
     7
100
AcDbLine
 10
113.4350021727115
 20
185.6498451107215
 30
0.0
 11
113.4350021727115
 21
178.8870943494781
 31
0.0
  0
LINE
  5
C8
330
3C
100
AcDbEntity
  8
1
  6
Continuous
 62
     7
100
AcDbLine
 10
113.4350021727115
 20
178.8870943494781
 30
0.0
 11
87.43500217271165
 21
178.8870943494781
 31
0.0
  0
LINE
  5
C9
330
3C
100
AcDbEntity
  8
1
  6
Continuous
 62
     7
100
AcDbLine
 10
113.4350021727115
 20
185.9578085637498
 30
0.0
 11
113.4350021727115
 21
185.6498451107215
 31
0.0
  0
ARC
  5
CA
330
3C
100
AcDbEntity
  8
1
  6
Continuous
 62
     7
100
AcDbCircle
 10
192.882762048374
 20
206.293549554593
 30
0.0
 40
24.00000000000003
100
AcDbArc
 50
-56.0408074999023
 51
-33.95919250009744
  0
ARC
  5
CB
330
3C
100
AcDbEntity
  8
1
  6
Continuous
 62
     7
100
AcDbCircle
 10
209.2892172534889
 20
182.3870943494781
 30
0.0
 40
4.999999999999949
100
AcDbArc
 50
126.8698976458433
 51
-135.5729959991949
  0
ARC
  5
CC
330
3C
100
AcDbEntity
  8
1
  6
Continuous
 62
     7
100
AcDbCircle
 10
244.6956724586037
 20
206.293549554593
 30
0.0
 40
23.99999999999996
100
AcDbArc
 50
-146.0408074999025
 51
-123.9591925000977
  0
ARC
  5
CD
330
3C
100
AcDbEntity
  8
1
  6
Continuous
 62
     7
100
AcDbCircle
 10
228.2892172534888
 20
182.3870943494781
 30
0.0
 40
4.999999999999975
100
AcDbArc
 50
-44.42700400080598
 51
53.13010235415703
  0
ARC
  5
CE
330
3C
100
AcDbEntity
  8
1
  6
Continuous
 62
     7
100
AcDbCircle
 10
74.52854696759673
 20
206.293549554593
 30
0.0
 40
24.00000000000007
100
AcDbArc
 50
-56.04080749990179
 51
-33.95919250009718
  0
ARC
  5
CF
330
3C
100
AcDbEntity
  8
1
  6
Continuous
 62
     7
100
AcDbCircle
 10
90.93500217271185
 20
182.3870943494781
 30
0.0
 40
5.000000000000017
100
AcDbArc
 50
126.8698976458427
 51
134.4270040008083
  0
ARC
  5
D0
330
3C
100
AcDbEntity
  8
1
  6
Continuous
 62
     7
100
AcDbCircle
 10
126.3414573778265
 20
206.293549554593
 30
0.0
 40
23.9999999999998
100
AcDbArc
 50
-146.0408074999023
 51
-123.9591925000976
  0
ARC
  5
D1
330
3C
100
AcDbEntity
  8
1
  6
Continuous
 62
     7
100
AcDbCircle
 10
109.9350021727118
 20
182.3870943494782
 30
0.0
 40
4.999999999999929
100
AcDbArc
 50
45.57299599919829
 51
53.13010235415781
  0
SPLINE
  5
D2
330
3C
100
AcDbEntity
  8
1
  6
Continuous
 62
     7
100
AcDbSpline
210
0.0
220
0.0
230
1.0
 70
    11
 71
     3
 72
    79
 73
    75
 74
    73
 42
0.0000000001
 43
0.0000000001
 44
0.00000001
 40
0.0
 40
0.0
 40
0.0
 40
0.0
 40
0.314265065970527
 40
0.6282865583860218
 40
0.9611940750941465
 40
1.293759071489196
 40
1.653345631090615
 40
2.012624930760597
 40
2.402527484666893
 40
2.792202156791545
 40
3.212046604562177
 40
3.631735870026655
 40
4.077938487430458
 40
4.524041249095303
 40
4.990653914337369
 40
5.457207554045803
 40
5.936678586743463
 40
6.416122255864012
 40
6.8999719601512
 40
7.383821664438372
 40
7.86326533355893
 40
8.34273636625656
 40
8.809290005965041
 40
9.275902671207133
 40
9.722005432872001
 40
10.16820805027579
 40
10.58789731574029
 40
11.0077417635109
 40
11.39741643563556
 40
11.78731898954187
 40
12.14659828921181
 40
12.50618484881315
 40
12.83874984520822
 40
13.17165736191634
 40
13.48567885433182
 40
13.79994392030241
 40
14.10737582563236
 40
14.41480773096228
 40
14.72907279693285
 40
15.04309428934834
 40
15.37600180605648
 40
15.70856680245153
 40
16.06815336205289
 40
16.42743266172284
 40
16.8173352156291
 40
17.20700988775375
 40
17.62685433552438
 40
18.04654360098886
 40
18.49274621839267
 40
18.93884898005754
 40
19.40546164529963
 40
19.87201528500811
 40
20.35148631770577
 40
20.83092998682631
 40
21.31477969111347
 40
21.79862939540063
 40
22.2780730645212
 40
22.75754409721882
 40
23.22409773692723
 40
23.69071040216929
 40
24.13681316383417
 40
24.58301578123802
 40
25.00270504670255
 40
25.42254949447321
 40
25.81222416659788
 40
26.20212672050415
 40
26.56140602017409
 40
26.92099257977551
 40
27.25355757617059
 40
27.58646509287863
 40
27.9004865852941
 40
28.21475165126466
 40
28.52218355659464
 40
28.82961546192456
 40
28.82961546192456
 40
28.82961546192456
 40
28.82961546192456
 10
101.3945444235627
 20
182.0802774188916
 30
0.0
 10
101.4131369592412
 20
181.9770100403371
 30
0.0
 10
101.4503076203107
 20
181.7705553214034
 30
0.0
 10
101.5612542771931
 20
181.4684831155978
 30
0.0
 10
101.7083193118051
 20
181.1763008694265
 30
0.0
 10
101.8984742215036
 20
180.8914586306905
 30
0.0
 10
102.1236089771784
 20
180.6220296752574
 30
0.0
 10
102.3882452672451
 20
180.3632434876358
 30
0.0
 10
102.6833053352539
 20
180.1235765563254
 30
0.0
 10
103.0140714822968
 20
179.8982481024359
 30
0.0
 10
103.3701385515004
 20
179.6946936815324
 30
0.0
 10
103.7568716405665
 20
179.5092094915233
 30
0.0
 10
104.1635448273809
 20
179.3474465758645
 30
0.0
 10
104.5945209827935
 20
179.2070851342625
 30
0.0
 10
105.0398944187724
 20
179.0918471796361
 30
0.0
 10
105.5021072831447
 20
179.0005978210636
 30
0.0
 10
105.9730256656979
 20
178.9353931593573
 30
0.0
 10
106.4525571031491
 20
178.8958044158483
 30
0.0
 10
106.9350021727094
 20
178.8827193966824
 30
0.0
 10
107.4174472422848
 20
178.8958044158471
 30
0.0
 10
107.896978679691
 20
178.9353931593621
 30
0.0
 10
108.3678970624077
 20
179.0005978210453
 30
0.0
 10
108.8301099261862
 20
179.0918471797019
 30
0.0
 10
109.2754833643361
 20
179.2070851340205
 30
0.0
 10
109.7064595119871
 20
179.3474465767229
 30
0.0
 10
110.1131327269294
 20
179.5092094883944
 30
0.0
 10
110.4998657169597
 20
179.6946936924418
 30
0.0
 10
110.8559331423255
 20
179.8982480628603
 30
0.0
 10
111.1866980508226
 20
180.1235766923103
 30
0.0
 10
111.4817625506346
 20
180.3632429954249
 30
0.0
 10
111.7463835305433
 20
180.6220313532186
 30
0.0
 10
111.9715730586447
 20
180.8914525448134
 30
0.0
 10
112.1615380558098
 20
181.1763217031202
 30
0.0
 10
112.3092874704967
 20
181.4684069403288
 30
0.0
 10
112.4178164558968
 20
181.7708218443084
 30
0.0
 10
112.4820281087152
 20
182.0770437196657
 30
0.0
 10
112.5046293935498
 20
182.3869431520507
 30
0.0
 10
112.4820281087152
 20
182.6968425844356
 30
0.0
 10
112.4178164558967
 20
183.0030644597929
 30
0.0
 10
112.3092874704966
 20
183.3054793637726
 30
0.0
 10
112.1615380558097
 20
183.5975646009813
 30
0.0
 10
111.9715730586447
 20
183.8824337592882
 30
0.0
 10
111.7463835305433
 20
184.1518549508829
 30
0.0
 10
111.4817625506346
 20
184.4106433086766
 30
0.0
 10
111.1866980508225
 20
184.6503096117912
 30
0.0
 10
110.8559331423254
 20
184.8756382412411
 30
0.0
 10
110.4998657169598
 20
185.0791926116596
 30
0.0
 10
110.1131327269293
 20
185.2646768157069
 30
0.0
 10
109.7064595119871
 20
185.4264397273786
 30
0.0
 10
109.2754833643361
 20
185.5668011700809
 30
0.0
 10
108.8301099261863
 20
185.6820391243994
 30
0.0
 10
108.3678970624076
 20
185.7732884830561
 30
0.0
 10
107.8969786796911
 20
185.8384931447391
 30
0.0
 10
107.4174472422841
 20
185.8780818882544
 30
0.0
 10
106.9350021727117
 20
185.8911669074186
 30
0.0
 10
106.4525571031403
 20
185.8780818882545
 30
0.0
 10
105.9730256657302
 20
185.8384931447388
 30
0.0
 10
105.5021072830253
 20
185.7732884830575
 30
0.0
 10
105.0398944192045
 20
185.682039124395
 30
0.0
 10
104.5945209812089
 20
185.5668011700981
 30
0.0
 10
104.1635448330068
 20
185.4264397273176
 30
0.0
 10
103.7568716200617
 20
185.2646768159291
 30
0.0
 10
103.3701386229994
 20
185.079192610885
 30
0.0
 10
103.0140712229222
 20
184.8756382440511
 30
0.0
 10
102.6833062264848
 20
184.6503096021359
 30
0.0
 10
102.3882420413434
 20
184.4106433436249
 30
0.0
 10
102.12361997437
 20
184.1518548317427
 30
0.0
 10
101.8984343352666
 20
183.8824341914026
 30
0.0
 10
101.7084558537716
 20
183.5975631217298
 30
0.0
 10
101.5607550320159
 20
183.3054847724332
 30
0.0
 10
101.4520543850668
 20
183.0030455359089
 30
0.0
 10
101.388471300482
 20
182.6969127583415
 30
0.0
 10
101.3635718101109
 20
182.3866875617466
 30
0.0
 10
101.3842202190787
 20
182.1824141331767
 30
0.0
 10
101.3945444235627
 20
182.0802774188916
 30
0.0
 11
101.3945444235627
 21
182.0802774188916
 31
0.0
 11
101.4591663486176
 21
181.772728173255
 31
0.0
 11
101.5643663078089
 21
181.4768524116844
 31
0.0
 11
101.7142599747815
 21
181.1795994835537
 31
0.0
 11
101.8980341213336
 21
180.902423474696
 31
0.0
 11
102.1280912325055
 21
180.626060996336
 31
0.0
 11
102.3844525711668
 21
180.3743459208814
 31
0.0
 11
102.6866184525746
 21
180.1279320786248
 31
0.0
 11
103.0083589205844
 21
179.9080925431898
 31
0.0
 11
103.3725173028811
 21
179.6991474955649
 31
0.0
 11
103.7507638133676
 21
179.5172996007439
 31
0.0
 11
104.1651780390053
 21
179.3518981939568
 31
0.0
 11
104.5892719957228
 21
179.2135074795258
 31
0.0
 11
105.040915155811
 21
179.0962648451736
 31
0.0
 11
105.4986082647662
 21
179.0057700014529
 31
0.0
 11
105.973516448518
 21
178.9397799400669
 31
0.0
 11
106.4513331337645
 21
178.9003154350037
 31
0.0
 11
106.9350021727119
 21
178.8870943494782
 31
0.0
 11
107.4186712116593
 21
178.9003154350037
 31
0.0
 11
107.8964878969058
 21
178.9397799400668
 31
0.0
 11
108.3713960806576
 21
179.0057700014527
 31
0.0
 11
108.8290891896129
 21
179.0962648451734
 31
0.0
 11
109.2807323497011
 21
179.2135074795256
 31
0.0
 11
109.7048263064186
 21
179.3518981939567
 31
0.0
 11
110.1192405320562
 21
179.5172996007438
 31
0.0
 11
110.4974870425428
 21
179.6991474955649
 31
0.0
 11
110.8616454248394
 21
179.9080925431898
 31
0.0
 11
111.1833858928492
 21
180.1279320786248
 31
0.0
 11
111.485551774257
 21
180.3743459208815
 31
0.0
 11
111.7419131129182
 21
180.6260609963361
 31
0.0
 11
111.97197022409
 21
180.902423474696
 31
0.0
 11
112.1557443706422
 21
181.1795994835537
 31
0.0
 11
112.3056380376148
 21
181.4768524116844
 31
0.0
 11
112.4108379968061
 21
181.772728173255
 31
0.0
 11
112.4754599218611
 21
182.0802774188917
 31
0.0
 11
112.4971510380338
 21
182.3869431520507
 31
0.0
 11
112.4754599218611
 21
182.6936088852098
 31
0.0
 11
112.410837996806
 21
183.0011581308464
 31
0.0
 11
112.3056380376147
 21
183.297033892417
 31
0.0
 11
112.1557443706422
 21
183.5942868205478
 31
0.0
 11
111.97197022409
 21
183.8714628294055
 31
0.0
 11
111.7419131129183
 21
184.1478253077654
 31
0.0
 11
111.485551774257
 21
184.39954038322
 31
0.0
 11
111.1833858928492
 21
184.6459542254766
 31
0.0
 11
110.8616454248394
 21
184.8657937609116
 31
0.0
 11
110.4974870425427
 21
185.0747388085364
 31
0.0
 11
110.1192405320562
 21
185.2565867033576
 31
0.0
 11
109.7048263064186
 21
185.4219881101447
 31
0.0
 11
109.2807323497011
 21
185.5603788245758
 31
0.0
 11
108.8290891896129
 21
185.6776214589279
 31
0.0
 11
108.3713960806575
 21
185.7681163026486
 31
0.0
 11
107.8964878969057
 21
185.8341063640345
 31
0.0
 11
107.4186712116593
 21
185.8735708690977
 31
0.0
 11
106.9350021727119
 21
185.8867919546232
 31
0.0
 11
106.4513331337645
 21
185.8735708690977
 31
0.0
 11
105.973516448518
 21
185.8341063640345
 31
0.0
 11
105.4986082647662
 21
185.7681163026487
 31
0.0
 11
105.040915155811
 21
185.6776214589281
 31
0.0
 11
104.5892719957228
 21
185.5603788245758
 31
0.0
 11
104.1651780390053
 21
185.4219881101447
 31
0.0
 11
103.7507638133676
 21
185.2565867033576
 31
0.0
 11
103.3725173028811
 21
185.0747388085364
 31
0.0
 11
103.0083589205844
 21
184.8657937609116
 31
0.0
 11
102.6866184525746
 21
184.6459542254766
 31
0.0
 11
102.3844525711668
 21
184.3995403832199
 31
0.0
 11
102.1280912325055
 21
184.1478253077653
 31
0.0
 11
101.8980341213337
 21
183.8714628294054
 31
0.0
 11
101.7142599747815
 21
183.5942868205477
 31
0.0
 11
101.564366307809
 21
183.297033892417
 31
0.0
 11
101.4591663486177
 21
183.0011581308464
 31
0.0
 11
101.3945444235627
 21
182.6936088852098
 31
0.0
 11
101.37285330739
 21
182.3869431520507
 31
0.0
 11
101.3945444235627
 21
182.0802774188916
 31
0.0
  0
SPLINE
  5
D3
330
3C
100
AcDbEntity
  8
1
  6
Continuous
 62
     7
100
AcDbSpline
210
0.0
220
0.0
230
1.0
 70
    11
 71
     3
 72
    79
 73
    75
 74
    73
 42
0.0000000001
 43
0.0000000001
 44
0.00000001
 40
0.0
 40
0.0
 40
0.0
 40
0.0
 40
0.314265065970527
 40
0.628286558386017
 40
0.9611940750941225
 40
1.293759071489196
 40
1.653345631090597
 40
2.012624930760589
 40
2.402527484666851
 40
2.792202156791515
 40
3.212046604562147
 40
3.631735870026625
 40
4.077938487430428
 40
4.5240412490953
 40
4.99065391433738
 40
5.4572075540458
 40
5.936678586743461
 40
6.416122255864038
 40
6.899971960151226
 40
7.383821664438384
 40
7.863265333558914
 40
8.342736366256558
 40
8.809290005965025
 40
9.275902671207117
 40
9.722005432871971
 40
10.16820805027576
 40
10.58789731574025
 40
11.00774176351088
 40
11.39741643563553
 40
11.78731898954185
 40
12.14659828921182
 40
12.50618484881315
 40
12.83874984520823
 40
13.17165736191633
 40
13.4856788543318
 40
13.79994392030239
 40
14.10737582563235
 40
14.41480773096227
 40
14.72907279693284
 40
15.04309428934833
 40
15.37600180605646
 40
15.70856680245152
 40
16.0681533620529
 40
16.42743266172283
 40
16.81733521562908
 40
17.20700988775375
 40
17.62685433552439
 40
18.04654360098885
 40
18.49274621839264
 40
18.93884898005749
 40
19.4054616452996
 40
19.87201528500808
 40
20.35148631770574
 40
20.83092998682628
 40
21.31477969111344
 40
21.79862939540061
 40
22.27807306452115
 40
22.7575440972188
 40
23.22409773692723
 40
23.69071040216932
 40
24.13681316383421
 40
24.58301578123803
 40
25.00270504670254
 40
25.42254949447318
 40
25.81222416659785
 40
26.20212672050416
 40
26.56140602017412
 40
26.92099257977554
 40
27.25355757617061
 40
27.58646509287867
 40
27.90048658529413
 40
28.21475165126469
 40
28.52218355659466
 40
28.82961546192458
 40
28.82961546192458
 40
28.82961546192458
 40
28.82961546192458
 10
99.47518473685091
 20
182.0802774188916
 30
0.0
 10
99.45659220117236
 20
181.9770100403371
 30
0.0
 10
99.41942154010286
 20
181.7705553214035
 30
0.0
 10
99.30847488322048
 20
181.4684831155977
 30
0.0
 10
99.16140984860849
 20
181.1763008694265
 30
0.0
 10
98.97125493891001
 20
180.8914586306905
 30
0.0
 10
98.74612018323523
 20
180.6220296752574
 30
0.0
 10
98.48148389316845
 20
180.3632434876358
 30
0.0
 10
98.18642382515976
 20
180.1235765563254
 30
0.0
 10
97.85565767811684
 20
179.8982481024359
 30
0.0
 10
97.49959060891312
 20
179.6946936815324
 30
0.0
 10
97.11285751984714
 20
179.5092094915232
 30
0.0
 10
96.70618433303268
 20
179.3474465758645
 30
0.0
 10
96.27520817762013
 20
179.2070851342626
 30
0.0
 10
95.82983474164125
 20
179.0918471796361
 30
0.0
 10
95.36762187726887
 20
179.0005978210636
 30
0.0
 10
94.89670349471572
 20
178.9353931593573
 30
0.0
 10
94.41717205726449
 20
178.8958044158483
 30
0.0
 10
93.9347269877042
 20
178.8827193966824
 30
0.0
 10
93.45228191812873
 20
178.895804415847
 30
0.0
 10
92.97275048072265
 20
178.9353931593621
 30
0.0
 10
92.50183209800593
 20
179.0005978210452
 30
0.0
 10
92.03961923422735
 20
179.091847179702
 30
0.0
 10
91.59424579607753
 20
179.2070851340205
 30
0.0
 10
91.16326964842651
 20
179.3474465767228
 30
0.0
 10
90.75659643348425
 20
179.5092094883945
 30
0.0
 10
90.36986344345388
 20
179.6946936924419
 30
0.0
 10
90.01379601808816
 20
179.8982480628603
 30
0.0
 10
89.68303110959106
 20
180.1235766923103
 30
0.0
 10
89.38796660977901
 20
180.3632429954249
 30
0.0
 10
89.12334562987027
 20
180.6220313532186
 30
0.0
 10
88.89815610176891
 20
180.8914525448134
 30
0.0
 10
88.70819110460383
 20
181.1763217031201
 30
0.0
 10
88.56044168991693
 20
181.4684069403289
 30
0.0
 10
88.45191270451682
 20
181.7708218443084
 30
0.0
 10
88.38770105169837
 20
182.0770437196658
 30
0.0
 10
88.36509976686385
 20
182.3869431520507
 30
0.0
 10
88.38770105169837
 20
182.6968425844356
 30
0.0
 10
88.45191270451687
 20
183.003064459793
 30
0.0
 10
88.56044168991687
 20
183.3054793637726
 30
0.0
 10
88.70819110460381
 20
183.5975646009813
 30
0.0
 10
88.89815610176885
 20
183.8824337592881
 30
0.0
 10
89.12334562987029
 20
184.1518549508828
 30
0.0
 10
89.38796660977899
 20
184.4106433086765
 30
0.0
 10
89.68303110959106
 20
184.6503096117912
 30
0.0
 10
90.01379601808814
 20
184.8756382412411
 30
0.0
 10
90.36986344345384
 20
185.0791926116596
 30
0.0
 10
90.75659643348426
 20
185.2646768157069
 30
0.0
 10
91.16326964842644
 20
185.4264397273786
 30
0.0
 10
91.5942457960775
 20
185.5668011700809
 30
0.0
 10
92.03961923422727
 20
185.6820391243994
 30
0.0
 10
92.50183209800599
 20
185.7732884830561
 30
0.0
 10
92.9727504807225
 20
185.8384931447391
 30
0.0
 10
93.4522819181294
 20
185.8780818882544
 30
0.0
 10
93.93472698770189
 20
185.8911669074187
 30
0.0
 10
94.41717205727326
 20
185.8780818882545
 30
0.0
 10
94.89670349468335
 20
185.8384931447388
 30
0.0
 10
95.36762187738826
 20
185.7732884830575
 30
0.0
 10
95.82983474120908
 20
185.682039124395
 30
0.0
 10
96.2752081792047
 20
185.5668011700981
 30
0.0
 10
96.70618432740685
 20
185.4264397273177
 30
0.0
 10
97.11285754035194
 20
185.2646768159291
 30
0.0
 10
97.49959053741414
 20
185.079192610885
 30
0.0
 10
97.85565793749139
 20
184.8756382440511
 30
0.0
 10
98.18642293392874
 20
184.6503096021359
 30
0.0
 10
98.4814871190702
 20
184.4106433436249
 30
0.0
 10
98.74610918604361
 20
184.1518548317427
 30
0.0
 10
98.97129482514708
 20
183.8824341914026
 30
0.0
 10
99.16127330664193
 20
183.5975631217298
 30
0.0
 10
99.30897412839779
 20
183.3054847724333
 30
0.0
 10
99.41767477534683
 20
183.0030455359089
 30
0.0
 10
99.48125785993162
 20
182.6969127583415
 30
0.0
 10
99.5061573503027
 20
182.3866875617467
 30
0.0
 10
99.48550894133483
 20
182.1824141331766
 30
0.0
 10
99.47518473685091
 20
182.0802774188916
 30
0.0
 11
99.47518473685091
 21
182.0802774188916
 31
0.0
 11
99.41056281179591
 21
181.772728173255
 31
0.0
 11
99.30536285260465
 21
181.4768524116844
 31
0.0
 11
99.15546918563211
 21
181.1795994835537
 31
0.0
 11
98.97169503907993
 21
180.902423474696
 31
0.0
 11
98.74163792790812
 21
180.626060996336
 31
0.0
 11
98.48527658924678
 21
180.3743459208814
 31
0.0
 11
98.18311070783901
 21
180.1279320786248
 31
0.0
 11
97.86137023982917
 21
179.9080925431898
 31
0.0
 11
97.49721185753255
 21
179.6991474955649
 31
0.0
 11
97.11896534704597
 21
179.5172996007439
 31
0.0
 11
96.70455112140832
 21
179.3518981939568
 31
0.0
 11
96.28045716469083
 21
179.2135074795258
 31
0.0
 11
95.82881400460262
 21
179.0962648451736
 31
0.0
 11
95.37112089564735
 21
179.0057700014529
 31
0.0
 11
94.89621271189554
 21
178.9397799400669
 31
0.0
 11
94.41839602664908
 21
178.9003154350037
 31
0.0
 11
93.93472698770165
 21
178.8870943494782
 31
0.0
 11
93.45105794875425
 21
178.9003154350037
 31
0.0
 11
92.97324126350783
 21
178.9397799400668
 31
0.0
 11
92.49833307975604
 21
179.0057700014527
 31
0.0
 11
92.04063997080073
 21
179.0962648451734
 31
0.0
 11
91.58899681071249
 21
179.2135074795256
 31
0.0
 11
91.16490285399503
 21
179.3518981939567
 31
0.0
 11
90.7504886283574
 21
179.5172996007438
 31
0.0
 11
90.37224211787087
 21
179.6991474955649
 31
0.0
 11
90.00808373557425
 21
179.9080925431898
 31
0.0
 11
89.68634326756443
 21
180.1279320786248
 31
0.0
 11
89.38417738615662
 21
180.3743459208815
 31
0.0
 11
89.12781604749533
 21
180.6260609963361
 31
0.0
 11
88.89775893632354
 21
180.902423474696
 31
0.0
 11
88.71398478977136
 21
181.1795994835537
 31
0.0
 11
88.56409112279883
 21
181.4768524116844
 31
0.0
 11
88.45889116360755
 21
181.772728173255
 31
0.0
 11
88.39426923855251
 21
182.0802774188917
 31
0.0
 11
88.37257812237979
 21
182.3869431520507
 31
0.0
 11
88.39426923855251
 21
182.6936088852098
 31
0.0
 11
88.45889116360756
 21
183.0011581308464
 31
0.0
 11
88.56409112279883
 21
183.297033892417
 31
0.0
 11
88.71398478977136
 21
183.5942868205478
 31
0.0
 11
88.89775893632353
 21
183.8714628294055
 31
0.0
 11
89.12781604749534
 21
184.1478253077654
 31
0.0
 11
89.38417738615662
 21
184.39954038322
 31
0.0
 11
89.68634326756438
 21
184.6459542254766
 31
0.0
 11
90.00808373557422
 21
184.8657937609116
 31
0.0
 11
90.37224211787085
 21
185.0747388085364
 31
0.0
 11
90.75048862835737
 21
185.2565867033576
 31
0.0
 11
91.16490285399499
 21
185.4219881101447
 31
0.0
 11
91.58899681071245
 21
185.5603788245758
 31
0.0
 11
92.0406399708007
 21
185.6776214589279
 31
0.0
 11
92.49833307975604
 21
185.7681163026486
 31
0.0
 11
92.97324126350786
 21
185.8341063640345
 31
0.0
 11
93.45105794875428
 21
185.8735708690977
 31
0.0
 11
93.93472698770168
 21
185.8867919546232
 31
0.0
 11
94.41839602664909
 21
185.8735708690977
 31
0.0
 11
94.89621271189552
 21
185.8341063640345
 31
0.0
 11
95.37112089564734
 21
185.7681163026487
 31
0.0
 11
95.82881400460263
 21
185.6776214589281
 31
0.0
 11
96.28045716469083
 21
185.5603788245758
 31
0.0
 11
96.70455112140832
 21
185.4219881101447
 31
0.0
 11
97.11896534704596
 21
185.2565867033576
 31
0.0
 11
97.49721185753253
 21
185.0747388085364
 31
0.0
 11
97.86137023982917
 21
184.8657937609116
 31
0.0
 11
98.18311070783901
 21
184.6459542254766
 31
0.0
 11
98.48527658924679
 21
184.3995403832199
 31
0.0
 11
98.74163792790809
 21
184.1478253077653
 31
0.0
 11
98.97169503907993
 21
183.8714628294054
 31
0.0
 11
99.15546918563211
 21
183.5942868205477
 31
0.0
 11
99.30536285260465
 21
183.297033892417
 31
0.0
 11
99.4105628117959
 21
183.0011581308464
 31
0.0
 11
99.47518473685091
 21
182.6936088852098
 31
0.0
 11
99.49687585302357
 21
182.3869431520507
 31
0.0
 11
99.47518473685091
 21
182.0802774188916
 31
0.0
  0
SPLINE
  5
D4
330
3C
100
AcDbEntity
  8
1
  6
Continuous
 62
     7
100
AcDbSpline
210
0.0
220
0.0
230
1.0
 70
    11
 71
     3
 72
    79
 73
    75
 74
    73
 42
0.0000000001
 43
0.0000000001
 44
0.00000001
 40
0.0
 40
0.0
 40
0.0
 40
0.0
 40
0.3219191133369684
 40
0.6433817983663035
 40
0.9928750068868621
 40
1.341795140507034
 40
1.729749028413402
 40
2.117262757272392
 40
2.547908615556927
 40
2.978266915974157
 40
3.450266276154635
 40
3.922086452275988
 40
4.429962878428785
 40
4.937730797563095
 40
5.473111501542476
 40
6.008430500180131
 40
6.561033308980244
 40
7.113608122002614
 40
7.672061093536107
 40
8.230514065069656
 40
8.783088878092054
 40
9.335691686892233
 40
9.871010685529976
 40
10.40639138950935
 40
10.91415930864365
 40
11.42203573479643
 40
11.89385591091775
 40
12.36585527109821
 40
12.79621357151537
 40
13.22685942979999
 40
13.61437315865902
 40
14.00232704656537
 40
14.35124718018557
 40
14.70074038870612
 40
15.02220307373546
 40
15.34412218707237
 40
15.65570035748478
 40
15.96727852789715
 40
16.2891976412341
 40
16.61066032626348
 40
16.96015353478412
 40
17.30907366840431
 40
17.69702755631059
 40
18.08454128516958
 40
18.51518714345419
 40
18.94554544387145
 40
19.41754480405186
 40
19.88936498017328
 40
20.39724140632609
 40
20.90500932546037
 40
21.44039002943973
 40
21.97570902807749
 40
22.52831183687763
 40
23.08088664989997
 40
23.63933962143341
 40
24.19779259296702
 40
24.75036740598938
 40
25.30297021478955
 40
25.83828921342719
 40
26.37366991740655
 40
26.88143783654088
 40
27.38931426269372
 40
27.86113443881518
 40
28.33313379899558
 40
28.76349209941277
 40
29.19413795769733
 40
29.58165168655634
 40
29.96960557446267
 40
30.3185257080829
 40
30.66801891660345
 40
30.98948160163282
 40
31.3114007149697
 40
31.62297888538211
 40
31.93455705579451
 40
31.93455705579451
 40
31.93455705579451
 40
31.93455705579451
 10
225.1865114678531
 20
182.7329989550691
 30
0.0
 10
225.1647874509038
 20
182.8383178807289
 30
0.0
 10
225.1213702180849
 20
183.0488064071498
 30
0.0
 10
224.9917767641339
 20
183.3552995540932
 30
0.0
 10
224.8212616562492
 20
183.6502192640002
 30
0.0
 10
224.6004827751109
 20
183.9384183304696
 30
0.0
 10
224.3405252371706
 20
184.2093732611781
 30
0.0
 10
224.0342934241017
 20
184.4707438833668
 30
0.0
 10
223.6942427777228
 20
184.7115916909281
 30
0.0
 10
223.3120522537172
 20
184.9390136013348
 30
0.0
 10
222.9018200032988
 20
185.1436918277368
 30
0.0
 10
222.4552491713024
 20
185.3308597909325
 30
0.0
 10
221.9865845496552
 20
185.4936527073711
 30
0.0
 10
221.489086673567
 20
185.635279469265
 30
0.0
 10
220.9756244503595
 20
185.7513313909536
 30
0.0
 10
220.4421848697992
 20
185.8434020592835
 30
0.0
 10
219.8990838920294
 20
185.9090931267431
 30
0.0
 10
219.3457681885449
 20
185.9490460614942
 30
0.0
 10
218.7892172534925
 20
185.9622129949347
 30
0.0
 10
218.232666318419
 20
185.9490460614964
 30
0.0
 10
217.6793506149967
 20
185.9090931267354
 30
0.0
 10
217.1362496370019
 20
185.8434020593124
 30
0.0
 10
216.6028100572548
 20
185.7513313908493
 30
0.0
 10
216.0893478310842
 20
185.6352794696463
 30
0.0
 10
215.5918499655094
 20
185.4936527060288
 30
0.0
 10
215.1231853059788
 20
185.3308597958017
 30
0.0
 10
214.6766146058141
 20
185.14369181099
 30
0.0
 10
214.2663818852319
 20
184.9390136616792
 30
0.0
 10
213.8841929691233
 20
184.7115914876313
 30
0.0
 10
213.544136634348
 20
184.4707446127766
 30
0.0
 10
213.2379240419238
 20
184.2093708390454
 30
0.0
 10
212.9778986904254
 20
183.938427027491
 30
0.0
 10
212.7573489243714
 20
183.6501903938149
 30
0.0
 10
212.5860194615753
 20
183.3554042108617
 30
0.0
 10
212.4592364359664
 20
183.0484502477189
 30
0.0
 10
212.3845891782534
 20
182.7376990232832
 30
0.0
 10
212.3577536731243
 20
182.4224514566139
 30
0.0
 10
212.3845891782534
 20
182.1072038899446
 30
0.0
 10
212.4592364359665
 20
181.7964526655088
 30
0.0
 10
212.5860194615753
 20
181.489498702366
 30
0.0
 10
212.7573489243713
 20
181.1947125194126
 30
0.0
 10
212.9778986904253
 20
180.9064758857367
 30
0.0
 10
213.2379240419237
 20
180.6355320741823
 30
0.0
 10
213.5441366343479
 20
180.3741583004511
 30
0.0
 10
213.884192969123
 20
180.1333114255963
 30
0.0
 10
214.266381885232
 20
179.9058892515485
 30
0.0
 10
214.6766146058141
 20
179.7012111022378
 30
0.0
 10
215.1231853059788
 20
179.514043117426
 30
0.0
 10
215.5918499655093
 20
179.3512502071989
 30
0.0
 10
216.0893478310844
 20
179.2096234435813
 30
0.0
 10
216.6028100572548
 20
179.0935715223785
 30
0.0
 10
217.1362496370021
 20
179.0015008539153
 30
0.0
 10
217.6793506149963
 20
178.9358097864921
 30
0.0
 10
218.2326663184199
 20
178.8958568517311
 30
0.0
 10
218.7892172534891
 20
178.8826899182934
 30
0.0
 10
219.3457681885569
 20
178.895856851731
 30
0.0
 10
219.8990838919848
 20
178.9358097864928
 30
0.0
 10
220.4421848699633
 20
179.0015008539133
 30
0.0
 10
220.9756244497678
 20
179.0935715223859
 30
0.0
 10
221.4890866757291
 20
179.2096234435545
 30
0.0
 10
221.9865845420466
 20
179.3512502072935
 30
0.0
 10
222.4552491989018
 20
179.5140431170821
 30
0.0
 10
222.9018199083764
 20
179.7012111034204
 30
0.0
 10
223.3120525957561
 20
179.9058892472871
 30
0.0
 10
223.6942416254129
 20
180.1333114399528
 30
0.0
 10
224.0342975584795
 20
180.374158248941
 30
0.0
 10
224.3405115082448
 20
180.6355322452307
 30
0.0
 10
224.6005320708236
 20
180.9064752715626
 30
0.0
 10
224.8210980167353
 20
181.1947145581937
 30
0.0
 10
224.9923699706743
 20
181.4894913116191
 30
0.0
 10
225.119351465672
 20
181.7964778170999
 30
0.0
 10
225.1932781390225
 20
182.107110889814
 30
0.0
 10
225.22272236839
 20
182.4227861999595
 30
0.0
 10
225.1985817680321
 20
182.6295947033659
 30
0.0
 10
225.1865114678531
 20
182.7329989550691
 30
0.0
 11
225.1865114678531
 21
182.7329989550691
 31
0.0
 11
225.1111852331677
 21
183.0459811812414
 31
0.0
 11
224.9897878417034
 21
183.3436402667939
 31
0.0
 11
224.814863724848
 21
183.6462077074486
 31
0.0
 11
224.6037939118911
 21
183.9240472181447
 31
0.0
 11
224.336017603821
 21
184.2047678407893
 31
0.0
 11
224.041855771842
 21
184.4570290281745
 31
0.0
 11
223.6910734641375
 21
184.7068442155814
 31
0.0
 11
223.321566215417
 21
184.9274630268397
 31
0.0
 11
222.8996206658021
 21
185.1389939918802
 31
0.0
 11
222.4646465682132
 21
185.321782976838
 31
0.0
 11
221.985108325726
 21
185.4890598079714
 31
0.0
 11
221.4968221298022
 21
185.6283611021947
 31
0.0
 11
220.9747150043841
 21
185.746837461782
 31
0.0
 11
220.4472205114969
 21
185.8380295133876
 31
0.0
 11
219.8986501008138
 21
185.904665605836
 31
0.0
 11
219.347510963035
 21
185.9444723238004
 31
0.0
 11
218.789217253489
 21
185.9578085637495
 31
0.0
 11
218.2309235439429
 21
185.9444723238005
 31
0.0
 11
217.6797844061641
 21
185.9046656058361
 31
0.0
 11
217.131213995481
 21
185.8380295133876
 31
0.0
 11
216.6037195025936
 21
185.746837461782
 31
0.0
 11
216.0816123771755
 21
185.6283611021946
 31
0.0
 11
215.5933261812517
 21
185.4890598079714
 31
0.0
 11
215.1137879387646
 21
185.3217829768379
 31
0.0
 11
214.6788138411757
 21
185.1389939918802
 31
0.0
 11
214.2568682915608
 21
184.9274630268398
 31
0.0
 11
213.8873610428403
 21
184.7068442155815
 31
0.0
 11
213.5365787351357
 21
184.4570290281746
 31
0.0
 11
213.2424169031567
 21
184.2047678407894
 31
0.0
 11
212.9746405950866
 21
183.9240472181448
 31
0.0
 11
212.7635707821297
 21
183.6462077074486
 31
0.0
 11
212.5886466652743
 21
183.3436402667939
 31
0.0
 11
212.46724927381
 21
183.0459811812414
 31
0.0
 11
212.3919230391246
 21
182.7329989550692
 31
0.0
 11
212.3666009641563
 21
182.4224514566139
 31
0.0
 11
212.3919230391246
 21
182.1119039581586
 31
0.0
 11
212.46724927381
 21
181.7989217319863
 31
0.0
 11
212.5886466652743
 21
181.5012626464338
 31
0.0
 11
212.7635707821296
 21
181.1986952057789
 31
0.0
 11
212.9746405950866
 21
180.9208556950828
 31
0.0
 11
213.2424169031567
 21
180.6401350724383
 31
0.0
 11
213.5365787351356
 21
180.3878738850531
 31
0.0
 11
213.8873610428402
 21
180.1380586976461
 31
0.0
 11
214.2568682915608
 21
179.917439886388
 31
0.0
 11
214.6788138411757
 21
179.7059089213477
 31
0.0
 11
215.1137879387646
 21
179.5231199363898
 31
0.0
 11
215.5933261812517
 21
179.3558431052562
 31
0.0
 11
216.0816123771755
 21
179.2165418110331
 31
0.0
 11
216.6037195025937
 21
179.0980654514458
 31
0.0
 11
217.131213995481
 21
179.0068733998401
 31
0.0
 11
217.6797844061641
 21
178.9402373073914
 31
0.0
 11
218.2309235439429
 21
178.9004305894271
 31
0.0
 11
218.7892172534888
 21
178.887094349478
 31
0.0
 11
219.3475109630349
 21
178.9004305894272
 31
0.0
 11
219.8986501008137
 21
178.9402373073915
 31
0.0
 11
220.4472205114968
 21
179.0068733998401
 31
0.0
 11
220.9747150043841
 21
179.0980654514458
 31
0.0
 11
221.4968221298022
 21
179.2165418110331
 31
0.0
 11
221.985108325726
 21
179.3558431052562
 31
0.0
 11
222.4646465682132
 21
179.5231199363898
 31
0.0
 11
222.8996206658022
 21
179.7059089213476
 31
0.0
 11
223.3215662154171
 21
179.917439886388
 31
0.0
 11
223.6910734641376
 21
180.1380586976461
 31
0.0
 11
224.0418557718421
 21
180.3878738850531
 31
0.0
 11
224.336017603821
 21
180.6401350724383
 31
0.0
 11
224.6037939118912
 21
180.9208556950829
 31
0.0
 11
224.8148637248481
 21
181.198695205779
 31
0.0
 11
224.9897878417034
 21
181.5012626464338
 31
0.0
 11
225.1111852331678
 21
181.7989217319863
 31
0.0
 11
225.1865114678531
 21
182.1119039581585
 31
0.0
 11
225.2118335428214
 21
182.4224514566138
 31
0.0
 11
225.1865114678531
 21
182.7329989550691
 31
0.0
  0
SPLINE
  5
D5
330
3C
100
AcDbEntity
  8
1
  6
Continuous
 62
     7
100
AcDbSpline
210
0.0
220
0.0
230
1.0
 70
    11
 71
     3
 72
    79
 73
    75
 74
    73
 42
0.0000000001
 43
0.0000000001
 44
0.00000001
 40
0.0
 40
0.0
 40
0.0
 40
0.0
 40
0.2813091385367306
 40
0.5626019606351411
 40
0.8464226525142999
 40
1.130214060738653
 40
1.417835711262208
 40
1.705420542401946
 40
1.997635978226908
 40
2.28981285437121
 40
2.586839035183123
 40
2.883829792124839
 40
3.185307045384561
 40
3.486755461402743
 40
3.791812980111094
 40
4.0968503656897
 40
4.40422079942873
 40
4.711580931801292
 40
5.019747232346012
 40
5.327913532890791
 40
5.635273665263409
 40
5.942644099002405
 40
6.247681484581058
 40
6.552739003289409
 40
6.854187419307628
 40
7.155664672567326
 40
7.452655429509056
 40
7.749681610321009
 40
8.041858486465332
 40
8.334073922290326
 40
8.621658753430127
 40
8.909280403953606
 40
9.19307181217796
 40
9.476892504057128
 40
9.758185326155559
 40
10.03949446469226
 40
10.31992040211367
 40
10.60034633953507
 40
10.88165547807183
 40
11.16294830017028
 40
11.44676899204943
 40
11.73056040027379
 40
12.01818205079729
 40
12.30576688193708
 40
12.5979823177621
 40
12.89015919390638
 40
13.18718537471833
 40
13.48417613165999
 40
13.7856533849197
 40
14.08710180093785
 40
14.39215931964617
 40
14.69719670522487
 40
15.00456713896389
 40
15.31192727133651
 40
15.62009357188126
 40
15.92825987242601
 40
16.23562000479859
 40
16.54299043853756
 40
16.84802782411624
 40
17.15308534282454
 40
17.45453375884274
 40
17.75601101210247
 40
18.05300176904419
 40
18.3500279498561
 40
18.6422048260004
 40
18.93442026182535
 40
19.22200509296513
 40
19.50962674348861
 40
19.79341815171298
 40
20.07723884359213
 40
20.35853166569064
 40
20.63984080422734
 40
20.92026674164872
 40
21.2006926790701
 40
21.2006926790701
 40
21.2006926790701
 40
21.2006926790701
 10
207.2507872679479
 20
185.9442865787216
 30
0.0
 10
207.157660316927
 20
185.9327151752347
 30
0.0
 10
206.9714118164166
 20
185.9095730394231
 30
0.0
 10
206.6971102313105
 20
185.8408108990554
 30
0.0
 10
206.4293663027337
 20
185.7482427722211
 30
0.0
 10
206.169753666728
 20
185.6293904363905
 30
0.0
 10
205.9210365698094
 20
185.4867285207571
 30
0.0
 10
205.6841926544336
 20
185.3201856198232
 30
0.0
 10
205.4619772351173
 20
185.1322279004999
 30
0.0
 10
205.2551141831144
 20
184.9230656886928
 30
0.0
 10
205.066055448243
 20
184.69561311221
 30
0.0
 10
204.8954155035818
 20
184.450267527857
 30
0.0
 10
204.7451517747157
 20
184.1902389695171
 30
0.0
 10
204.615844422589
 20
183.9162162234607
 30
0.0
 10
204.5088536206412
 20
183.6314685380775
 30
0.0
 10
204.4247212814652
 20
183.3371056885286
 30
0.0
 10
204.3642022972602
 20
183.0362152085599
 30
0.0
 10
204.3277211592656
 20
182.7304288866023
 30
0.0
 10
204.3155023777324
 20
182.4224514566148
 30
0.0
 10
204.3277211592652
 20
182.1144740266217
 30
0.0
 10
204.3642022972616
 20
181.8086877046814
 30
0.0
 10
204.4247212814603
 20
181.5077972246492
 30
0.0
 10
204.508853620659
 20
181.2134343753347
 30
0.0
 10
204.6158444225228
 20
180.928686689082
 30
0.0
 10
204.7451517749593
 20
180.6546639462336
 30
0.0
 10
204.8954155026781
 20
180.394635376009
 30
0.0
 10
205.06605545156
 20
180.1492898353802
 30
0.0
 10
205.2551141708127
 20
179.9218370970958
 30
0.0
 10
205.4619772801979
 20
179.7126754797412
 30
0.0
 10
205.6841924872005
 20
179.5247155609493
 30
0.0
 10
205.9210371829861
 20
179.3581807446907
 30
0.0
 10
206.1697513896581
 20
179.2154888874701
 30
0.0
 10
206.4293746756355
 20
179.096746880308
 30
0.0
 10
206.6970790832669
 20
179.0037693351746
 30
0.0
 10
206.9715269166112
 20
178.9365222573672
 30
0.0
 10
207.25006573927
 20
178.8962069112728
 30
0.0
 10
207.5308870042912
 20
178.8825452322999
 30
0.0
 10
207.8117082693126
 20
178.8962069112728
 30
0.0
 10
208.0902470919713
 20
178.9365222573673
 30
0.0
 10
208.3646949253157
 20
179.0037693351746
 30
0.0
 10
208.6323993329471
 20
179.096746880308
 30
0.0
 10
208.8920226189244
 20
179.2154888874702
 30
0.0
 10
209.1407368255964
 20
179.3581807446907
 30
0.0
 10
209.3775815213821
 20
179.5247155609494
 30
0.0
 10
209.5997967283845
 20
179.7126754797413
 30
0.0
 10
209.8066598377699
 20
179.9218370970959
 30
0.0
 10
209.9957185570225
 20
180.1492898353802
 30
0.0
 10
210.1663585059044
 20
180.3946353760091
 30
0.0
 10
210.316622233623
 20
180.6546639462337
 30
0.0
 10
210.4459295860596
 20
180.928686689082
 30
0.0
 10
210.5529203879234
 20
181.2134343753346
 30
0.0
 10
210.6370527271221
 20
181.5077972246492
 30
0.0
 10
210.697571711321
 20
181.8086877046813
 30
0.0
 10
210.7340528493173
 20
182.1144740266219
 30
0.0
 10
210.7462716308498
 20
182.4224514566139
 30
0.0
 10
210.7340528493174
 20
182.7304288866056
 30
0.0
 10
210.6975717113208
 20
183.0362152085474
 30
0.0
 10
210.6370527271226
 20
183.3371056885749
 30
0.0
 10
210.5529203879221
 20
183.6314685379063
 30
0.0
 10
210.4459295860644
 20
183.9162162240966
 30
0.0
 10
210.3166222336056
 20
184.1902389671749
 30
0.0
 10
210.1663585059691
 20
184.4502675365475
 30
0.0
 10
209.9957185567847
 20
184.6956130803108
 30
0.0
 10
209.8066598386516
 20
184.9230658069967
 30
0.0
 10
209.5997967251531
 20
185.1322274669633
 30
0.0
 10
209.3775815333696
 20
185.3201872280907
 30
0.0
 10
209.1407367816422
 20
185.4867226238828
 30
0.0
 10
208.8920227821514
 20
185.6294123348018
 30
0.0
 10
208.6323987327527
 20
185.7481622506492
 30
0.0
 10
208.3646971580995
 20
185.8411104474683
 30
0.0
 10
208.090238841249
 20
185.9084661294398
 30
0.0
 10
207.8117390317902
 20
185.9483773172392
 30
0.0
 10
207.5307725961179
 20
185.9635428954777
 30
0.0
 10
207.3441157106713
 20
185.9507053509736
 30
0.0
 10
207.2507872679479
 20
185.9442865787216
 30
0.0
 11
207.2507872679479
 21
185.9442865787216
 31
0.0
 11
206.9723877605944
 21
185.9039313345817
 31
0.0
 11
206.6991437357218
 21
185.8371229920227
 31
0.0
 11
206.4310376095571
 21
185.7439924908336
 31
0.0
 11
206.1728915914595
 21
185.626101877457
 31
0.0
 11
205.9233989131112
 21
185.4829948640003
 31
0.0
 11
205.6880535060115
 21
185.3177145734066
 31
0.0
 11
205.4649113129966
 21
185.1290417809036
 31
0.0
 11
205.2593463879114
 21
184.9214113676011
 31
0.0
 11
205.0694318106425
 21
184.6930322848714
 31
0.0
 11
204.8997455079517
 21
184.4492904780594
 31
0.0
 11
204.7488498183911
 21
184.1882942614105
 31
0.0
 11
204.6201098313932
 21
183.9157192015322
 31
0.0
 11
204.5127671681034
 21
183.6301712329554
 31
0.0
 11
204.4288708248642
 21
183.336897964157
 31
0.0
 11
204.3682388682247
 21
183.035567000977
 31
0.0
 11
204.3317896342382
 21
182.7303757423966
 31
0.0
 11
204.3195788596249
 21
182.4224514566139
 31
0.0
 11
204.3317896342383
 21
182.1145271708312
 31
0.0
 11
204.3682388682248
 21
181.8093359122508
 31
0.0
 11
204.4288708248643
 21
181.5080049490708
 31
0.0
 11
204.5127671681034
 21
181.2147316802723
 31
0.0
 11
204.6201098313932
 21
180.9291837116955
 31
0.0
 11
204.7488498183911
 21
180.6566086518172
 31
0.0
 11
204.8997455079517
 21
180.3956124351683
 31
0.0
 11
205.0694318106425
 21
180.1518706283563
 31
0.0
 11
205.2593463879114
 21
179.9234915456265
 31
0.0
 11
205.4649113129966
 21
179.715861132324
 31
0.0
 11
205.6880535060115
 21
179.5271883398209
 31
0.0
 11
205.9233989131113
 21
179.3619080492272
 31
0.0
 11
206.1728915914595
 21
179.2188010357705
 31
0.0
 11
206.4310376095571
 21
179.100910422394
 31
0.0
 11
206.6991437357218
 21
179.0077799212048
 31
0.0
 11
206.9723877605944
 21
178.9409715786458
 31
0.0
 11
207.2507872679479
 21
178.9006163345059
 31
0.0
 11
207.5308870042912
 21
178.8870943494781
 31
0.0
 11
207.8109867406345
 21
178.900616334506
 31
0.0
 11
208.0893862479881
 21
178.9409715786459
 31
0.0
 11
208.3626302728608
 21
179.0077799212049
 31
0.0
 11
208.6307363990254
 21
179.1009104223941
 31
0.0
 11
208.8888824171231
 21
179.2188010357706
 31
0.0
 11
209.1383750954713
 21
179.3619080492273
 31
0.0
 11
209.3737205025711
 21
179.527188339821
 31
0.0
 11
209.596862695586
 21
179.7158611323241
 31
0.0
 11
209.8024276206712
 21
179.9234915456265
 31
0.0
 11
209.9923421979401
 21
180.1518706283563
 31
0.0
 11
210.1620285006307
 21
180.3956124351683
 31
0.0
 11
210.3129241901912
 21
180.6566086518172
 31
0.0
 11
210.4416641771892
 21
180.9291837116955
 31
0.0
 11
210.5490068404791
 21
181.2147316802722
 31
0.0
 11
210.6329031837183
 21
181.5080049490708
 31
0.0
 11
210.6935351403578
 21
181.8093359122508
 31
0.0
 11
210.7299843743443
 21
182.1145271708312
 31
0.0
 11
210.7421951489575
 21
182.4224514566139
 31
0.0
 11
210.7299843743443
 21
182.7303757423966
 31
0.0
 11
210.6935351403578
 21
183.035567000977
 31
0.0
 11
210.6329031837183
 21
183.3368979641569
 31
0.0
 11
210.5490068404791
 21
183.6301712329554
 31
0.0
 11
210.4416641771892
 21
183.9157192015322
 31
0.0
 11
210.3129241901912
 21
184.1882942614105
 31
0.0
 11
210.1620285006307
 21
184.4492904780594
 31
0.0
 11
209.99234219794
 21
184.6930322848714
 31
0.0
 11
209.8024276206712
 21
184.9214113676012
 31
0.0
 11
209.5968626955859
 21
185.1290417809037
 31
0.0
 11
209.373720502571
 21
185.3177145734066
 31
0.0
 11
209.1383750954712
 21
185.4829948640003
 31
0.0
 11
208.888882417123
 21
185.626101877457
 31
0.0
 11
208.6307363990254
 21
185.7439924908335
 31
0.0
 11
208.3626302728607
 21
185.8371229920227
 31
0.0
 11
208.089386247988
 21
185.9039313345817
 31
0.0
 11
207.8109867406345
 21
185.9442865787216
 31
0.0
 11
207.5308870042912
 21
185.9578085637495
 31
0.0
 11
207.2507872679479
 21
185.9442865787216
 31
0.0
  0
SPLINE
  5
D6
330
3C
100
AcDbEntity
  8
1
  6
Continuous
 62
     7
100
AcDbSpline
210
0.0
220
0.0
230
1.0
 70
    11
 71
     3
 72
    79
 73
    75
 74
    73
 42
0.0000000001
 43
0.0000000001
 44
0.00000001
 40
0.0
 40
0.0
 40
0.0
 40
0.0
 40
0.2813091385367024
 40
0.5626019606351129
 40
0.846422652514245
 40
1.130214060738624
 40
1.417835711262129
 40
1.705420542401915
 40
1.997635978226898
 40
2.28981285437122
 40
2.586839035183151
 40
2.883829792124835
 40
3.185307045384557
 40
3.486755461402751
 40
3.791812980111092
 40
4.096850365689698
 40
4.404220799428723
 40
4.711580931801288
 40
5.019747232346008
 40
5.327913532890787
 40
5.635273665263409
 40
5.942644099002394
 40
6.247681484581039
 40
6.55273900328942
 40
6.854187419307652
 40
7.155664672567322
 40
7.452655429509068
 40
7.749681610321002
 40
8.041858486465305
 40
8.334073922290365
 40
8.621658753430143
 40
8.90928040395367
 40
9.193071812177973
 40
9.476892504057114
 40
9.758185326155545
 40
10.03949446469225
 40
10.31992040211365
 40
10.60034633953503
 40
10.88165547807179
 40
11.16294830017024
 40
11.44676899204942
 40
11.73056040027375
 40
12.0181820507973
 40
12.30576688193707
 40
12.59798231776206
 40
12.89015919390637
 40
13.18718537471828
 40
13.48417613165999
 40
13.78565338491971
 40
14.08710180093785
 40
14.39215931964617
 40
14.69719670522487
 40
15.00456713896389
 40
15.31192727133651
 40
15.62009357188126
 40
15.92825987242601
 40
16.23562000479859
 40
16.54299043853756
 40
16.84802782411623
 40
17.15308534282457
 40
17.45453375884274
 40
17.75601101210245
 40
18.05300176904417
 40
18.3500279498561
 40
18.64220482600041
 40
18.93442026182537
 40
19.22200509296516
 40
19.50962674348863
 40
19.79341815171298
 40
20.07723884359219
 40
20.35853166569064
 40
20.6398408042274
 40
20.92026674164875
 40
21.2006926790701
 40
21.2006926790701
 40
21.2006926790701
 40
21.2006926790701
 10
230.3276472390295
 20
185.9442865787216
 30
0.0
 10
230.4207741900504
 20
185.9327151752347
 30
0.0
 10
230.6070226905607
 20
185.9095730394231
 30
0.0
 10
230.8813242756668
 20
185.8408108990555
 30
0.0
 10
231.1490682042437
 20
185.748242772221
 30
0.0
 10
231.4086808402494
 20
185.6293904363905
 30
0.0
 10
231.6573979371679
 20
185.486728520757
 30
0.0
 10
231.8942418525438
 20
185.3201856198232
 30
0.0
 10
232.1164572718601
 20
185.1322279005
 30
0.0
 10
232.3233203238631
 20
184.9230656886928
 30
0.0
 10
232.5123790587343
 20
184.69561311221
 30
0.0
 10
232.6830190033957
 20
184.4502675278569
 30
0.0
 10
232.8332827322616
 20
184.1902389695171
 30
0.0
 10
232.9625900843885
 20
183.9162162234607
 30
0.0
 10
233.0695808863362
 20
183.6314685380775
 30
0.0
 10
233.1537132255123
 20
183.3371056885286
 30
0.0
 10
233.2142322097171
 20
183.0362152085599
 30
0.0
 10
233.250713347712
 20
182.7304288866022
 30
0.0
 10
233.2629321292449
 20
182.4224514566149
 30
0.0
 10
233.2507133477122
 20
182.1144740266217
 30
0.0
 10
233.2142322097157
 20
181.8086877046814
 30
0.0
 10
233.1537132255171
 20
181.5077972246493
 30
0.0
 10
233.0695808863185
 20
181.2134343753347
 30
0.0
 10
232.9625900844545
 20
180.928686689082
 30
0.0
 10
232.833282732018
 20
180.6546639462336
 30
0.0
 10
232.6830190042992
 20
180.394635376009
 30
0.0
 10
232.5123790554174
 20
180.1492898353802
 30
0.0
 10
232.3233203361647
 20
179.9218370970958
 30
0.0
 10
232.1164572267794
 20
179.7126754797412
 30
0.0
 10
231.8942420197769
 20
179.5247155609493
 30
0.0
 10
231.6573973239912
 20
179.3581807446907
 30
0.0
 10
231.4086831173193
 20
179.2154888874701
 30
0.0
 10
231.1490598313418
 20
179.096746880308
 30
0.0
 10
230.8813554237105
 20
179.0037693351746
 30
0.0
 10
230.6069075903662
 20
178.9365222573672
 30
0.0
 10
230.3283687677076
 20
178.8962069112727
 30
0.0
 10
230.0475475026862
 20
178.8825452323
 30
0.0
 10
229.7667262376648
 20
178.8962069112727
 30
0.0
 10
229.4881874150061
 20
178.9365222573673
 30
0.0
 10
229.2137395816617
 20
179.0037693351746
 30
0.0
 10
228.9460351740304
 20
179.096746880308
 30
0.0
 10
228.686411888053
 20
179.2154888874702
 30
0.0
 10
228.437697681381
 20
179.3581807446907
 30
0.0
 10
228.2008529855954
 20
179.5247155609494
 30
0.0
 10
227.9786377785929
 20
179.7126754797413
 30
0.0
 10
227.7717746692076
 20
179.9218370970959
 30
0.0
 10
227.5827159499551
 20
180.1492898353803
 30
0.0
 10
227.412076001073
 20
180.394635376009
 30
0.0
 10
227.2618122733544
 20
180.6546639462337
 30
0.0
 10
227.1325049209178
 20
180.928686689082
 30
0.0
 10
227.025514119054
 20
181.2134343753346
 30
0.0
 10
226.9413817798553
 20
181.5077972246492
 30
0.0
 10
226.8808627956564
 20
181.8086877046812
 30
0.0
 10
226.8443816576601
 20
182.1144740266219
 30
0.0
 10
226.8321628761275
 20
182.4224514566139
 30
0.0
 10
226.8443816576602
 20
182.7304288866056
 30
0.0
 10
226.8808627956564
 20
183.0362152085474
 30
0.0
 10
226.9413817798549
 20
183.3371056885749
 30
0.0
 10
227.0255141190552
 20
183.6314685379064
 30
0.0
 10
227.1325049209131
 20
183.9162162240965
 30
0.0
 10
227.2618122733718
 20
184.1902389671749
 30
0.0
 10
227.4120760010083
 20
184.4502675365476
 30
0.0
 10
227.5827159501926
 20
184.6956130803108
 30
0.0
 10
227.7717746683258
 20
184.9230658069967
 30
0.0
 10
227.9786377818244
 20
185.1322274669634
 30
0.0
 10
228.2008529736077
 20
185.3201872280907
 30
0.0
 10
228.4376977253354
 20
185.4867226238827
 30
0.0
 10
228.6864117248259
 20
185.6294123348018
 30
0.0
 10
228.9460357742248
 20
185.7481622506493
 30
0.0
 10
229.2137373488778
 20
185.8411104474683
 30
0.0
 10
229.4881956657285
 20
185.9084661294398
 30
0.0
 10
229.7666954751872
 20
185.9483773172392
 30
0.0
 10
230.0476619108595
 20
185.9635428954776
 30
0.0
 10
230.2343187963061
 20
185.9507053509736
 30
0.0
 10
230.3276472390294
 20
185.9442865787216
 30
0.0
 11
230.3276472390295
 21
185.9442865787216
 31
0.0
 11
230.606046746383
 21
185.9039313345817
 31
0.0
 11
230.8792907712556
 21
185.8371229920227
 31
0.0
 11
231.1473968974203
 21
185.7439924908336
 31
0.0
 11
231.4055429155179
 21
185.626101877457
 31
0.0
 11
231.6550355938661
 21
185.4829948640003
 31
0.0
 11
231.8903810009659
 21
185.3177145734066
 31
0.0
 11
232.1135231939809
 21
185.1290417809036
 31
0.0
 11
232.3190881190661
 21
184.9214113676011
 31
0.0
 11
232.509002696335
 21
184.6930322848714
 31
0.0
 11
232.6786889990257
 21
184.4492904780594
 31
0.0
 11
232.8295846885863
 21
184.1882942614105
 31
0.0
 11
232.9583246755842
 21
183.9157192015322
 31
0.0
 11
233.0656673388741
 21
183.6301712329554
 31
0.0
 11
233.1495636821132
 21
183.336897964157
 31
0.0
 11
233.2101956387527
 21
183.035567000977
 31
0.0
 11
233.2466448727392
 21
182.7303757423966
 31
0.0
 11
233.2588556473525
 21
182.4224514566139
 31
0.0
 11
233.2466448727392
 21
182.1145271708312
 31
0.0
 11
233.2101956387526
 21
181.8093359122508
 31
0.0
 11
233.1495636821132
 21
181.5080049490708
 31
0.0
 11
233.0656673388741
 21
181.2147316802723
 31
0.0
 11
232.9583246755842
 21
180.9291837116955
 31
0.0
 11
232.8295846885862
 21
180.6566086518172
 31
0.0
 11
232.6786889990257
 21
180.3956124351683
 31
0.0
 11
232.5090026963349
 21
180.1518706283563
 31
0.0
 11
232.319088119066
 21
179.9234915456265
 31
0.0
 11
232.1135231939809
 21
179.715861132324
 31
0.0
 11
231.8903810009659
 21
179.5271883398209
 31
0.0
 11
231.6550355938661
 21
179.3619080492272
 31
0.0
 11
231.4055429155179
 21
179.2188010357705
 31
0.0
 11
231.1473968974203
 21
179.100910422394
 31
0.0
 11
230.8792907712556
 21
179.0077799212048
 31
0.0
 11
230.606046746383
 21
178.9409715786458
 31
0.0
 11
230.3276472390295
 21
178.9006163345059
 31
0.0
 11
230.0475475026862
 21
178.8870943494781
 31
0.0
 11
229.7674477663429
 21
178.900616334506
 31
0.0
 11
229.4890482589894
 21
178.9409715786459
 31
0.0
 11
229.2158042341167
 21
179.0077799212049
 31
0.0
 11
228.947698107952
 21
179.1009104223941
 31
0.0
 11
228.6895520898544
 21
179.2188010357706
 31
0.0
 11
228.4400594115061
 21
179.3619080492273
 31
0.0
 11
228.2047140044064
 21
179.527188339821
 31
0.0
 11
227.9815718113915
 21
179.7158611323241
 31
0.0
 11
227.7760068863063
 21
179.9234915456265
 31
0.0
 11
227.5860923090374
 21
180.1518706283563
 31
0.0
 11
227.4164060063467
 21
180.3956124351683
 31
0.0
 11
227.2655103167861
 21
180.6566086518172
 31
0.0
 11
227.1367703297882
 21
180.9291837116955
 31
0.0
 11
227.0294276664983
 21
181.2147316802722
 31
0.0
 11
226.9455313232591
 21
181.5080049490708
 31
0.0
 11
226.8848993666196
 21
181.8093359122508
 31
0.0
 11
226.8484501326331
 21
182.1145271708312
 31
0.0
 11
226.8362393580199
 21
182.4224514566139
 31
0.0
 11
226.8484501326331
 21
182.7303757423966
 31
0.0
 11
226.8848993666196
 21
183.035567000977
 31
0.0
 11
226.9455313232591
 21
183.3368979641569
 31
0.0
 11
227.0294276664983
 21
183.6301712329554
 31
0.0
 11
227.1367703297883
 21
183.9157192015322
 31
0.0
 11
227.2655103167861
 21
184.1882942614105
 31
0.0
 11
227.4164060063467
 21
184.4492904780594
 31
0.0
 11
227.5860923090373
 21
184.6930322848714
 31
0.0
 11
227.7760068863062
 21
184.9214113676012
 31
0.0
 11
227.9815718113915
 21
185.1290417809037
 31
0.0
 11
228.2047140044064
 21
185.3177145734066
 31
0.0
 11
228.4400594115062
 21
185.4829948640003
 31
0.0
 11
228.6895520898544
 21
185.626101877457
 31
0.0
 11
228.947698107952
 21
185.7439924908335
 31
0.0
 11
229.2158042341167
 21
185.8371229920227
 31
0.0
 11
229.4890482589894
 21
185.9039313345817
 31
0.0
 11
229.767447766343
 21
185.9442865787216
 31
0.0
 11
230.0475475026862
 21
185.9578085637495
 31
0.0
 11
230.3276472390294
 21
185.9442865787216
 31
0.0
  0
ENDBLK
  5
3E
330
3C
100
AcDbEntity
  8
0
100
AcDbBlockEnd
  0
BLOCK
  5
40
330
3F
100
AcDbEntity
  8
0
100
AcDbBlockBegin
  2
36-1A-13-M4
 70
     0
 71
     0
 10
116.4070912440526
 20
54.81796834004195
 30
0.0
  3
36-1A-13-M4
  1

  0
LINE
  5
D7
330
3F
100
AcDbEntity
  8
0
  6
Continuous
 62
     7
100
AcDbLine
 10
214.0392172534888
 20
192.8870943494781
 30
0.0
 11
214.0392172534888
 21
196.3870943494781
 31
0.0
  0
LINE
  5
D8
330
3F
100
AcDbEntity
  8
0
  6
Continuous
 62
     7
100
AcDbLine
 10
223.5392172534889
 20
196.3870943494781
 30
0.0
 11
223.5392172534889
 21
192.8870943494781
 31
0.0
  0
LINE
  5
D9
330
3F
100
AcDbEntity
  8
0
  6
Continuous
 62
     7
100
AcDbLine
 10
95.68486458020681
 20
192.8870943494781
 30
0.0
 11
95.68486458020681
 21
196.3870943494781
 31
0.0
  0
LINE
  5
DA
330
3F
100
AcDbEntity
  8
0
  6
Continuous
 62
     7
100
AcDbLine
 10
105.1848645802069
 20
196.3870943494781
 30
0.0
 11
105.1848645802069
 21
192.8870943494781
 31
0.0
  0
ENDBLK
  5
41
330
3F
100
AcDbEntity
  8
0
100
AcDbBlockEnd
  0
BLOCK
  5
43
330
42
100
AcDbEntity
  8
0
100
AcDbBlockBegin
  2
41-1-15
 70
     0
 71
     0
 10
223.6654342374312
 20
-8.90055176900822
 30
0.0
  3
41-1-15
  1

  0
LINE
  5
DB
330
42
100
AcDbEntity
  8
1
  6
Continuous
 62
     7
100
AcDbLine
 10
96.66144319993103
 20
161.8870943494781
 30
0.0
 11
104.2082859604826
 21
161.8870943494781
 31
0.0
  0
LINE
  5
DC
330
42
100
AcDbEntity
  8
1
  6
Continuous
 62
     7
100
AcDbLine
 10
91.81867581062183
 20
156.8870943494781
 30
0.0
 11
109.0510533497918
 21
156.8870943494781
 31
0.0
  0
ENDBLK
  5
44
330
42
100
AcDbEntity
  8
0
100
AcDbBlockEnd
  0
BLOCK
  5
4B
330
45
100
AcDbEntity
  8
0
100
AcDbBlockBegin
  2
R10A
 70
     0
 71
     0
 10
263.7892172534889
 20
153.3870943494781
 30
0.0
  3
R10A
  1

  0
INSERT
  5
46
330
45
100
AcDbEntity
  8
1
100
AcDbBlockReference
  2
51-1
 10
786.065255658842
 20
129.9711572789441
 30
0.0
  0
INSERT
  5
47
330
45
100
AcDbEntity
  8
0
100
AcDbBlockReference
  2
42-1
 10
130.6849571668853
 20
4.09744533989335
 30
0.0
  0
INSERT
  5
48
330
45
100
AcDbEntity
  8
0
100
AcDbBlockReference
  2
37-1-13
 10
126.9879870367178
 20
35.89138845933363
 30
0.0
  0
INSERT
  5
49
330
45
100
AcDbEntity
  8
0
100
AcDbBlockReference
  2
36-1A-13-M4
 10
116.4070912440526
 20
54.81796834004195
 30
0.0
  0
INSERT
  5
4A
330
45
100
AcDbEntity
  8
0
100
AcDbBlockReference
  2
41-1-15
 10
223.6654342374312
 20
-8.90055176900822
 30
0.0
  0
ENDBLK
  5
4C
330
45
100
AcDbEntity
  8
0
100
AcDbBlockEnd
  0
BLOCK
  5
4E
330
4D
100
AcDbEntity
  8
0
100
AcDbBlockBegin
  2
V23-0-13
 70
     0
 71
     0
 10
163.4892172534888
 20
108.0724587560823
 30
0.0
  3
V23-0-13
  1

  0
LINE
  5
DD
330
4D
100
AcDbEntity
  8
0
  6
Continuous
 62
     2
100
AcDbLine
 10
218.7892172534888
 20
211.8870943494782
 30
0.0
 11
218.1728945768913
 21
211.8870943494782
 31
0.0
  0
LINE
  5
DE
330
4D
100
AcDbEntity
  8
1
  6
Continuous
 62
     7
100
AcDbLine
 10
183.7892172534888
 20
165.8870943494781
 30
0.0
 11
183.7892172534888
 21
163.8870943494781
 31
0.0
  0
LINE
  5
DF
330
4D
100
AcDbEntity
  8
1
  6
Continuous
 62
     7
100
AcDbLine
 10
200.7892172534888
 20
165.8870943494781
 30
0.0
 11
192.789217253489
 21
165.8870943494781
 31
0.0
  0
LINE
  5
E0
330
4D
100
AcDbEntity
  8
1
  6
Continuous
 62
     7
100
AcDbLine
 10
206.7892172534888
 20
175.9789370429247
 30
0.0
 11
206.7892172534888
 21
171.8870943494782
 31
0.0
  0
LINE
  5
E1
330
4D
100
AcDbEntity
  8
1
  6
Continuous
 62
     2
100
AcDbLine
 10
207.6022172534888
 20
177.3870943494782
 30
0.0
 11
206.7892172534888
 21
175.9789370429247
 31
0.0
  0
LINE
  5
E2
330
4D
100
AcDbEntity
  8
1
  6
Continuous
 62
     2
100
AcDbLine
 10
207.6022172534888
 20
177.3870943494782
 30
0.0
 11
207.6022172534888
 21
178.959802747612
 31
0.0
  0
LINE
  5
E3
330
4D
100
AcDbEntity
  8
1
  6
Continuous
 62
     7
100
AcDbLine
 10
183.7892172534888
 20
142.8870943494782
 30
0.0
 11
183.7892172534888
 21
140.8870943494782
 31
0.0
  0
LINE
  5
E4
330
4D
100
AcDbEntity
  8
1
  6
Continuous
 62
     7
100
AcDbLine
 10
253.7892172534889
 20
140.8870943494782
 30
0.0
 11
253.7892172534889
 21
142.8870943494782
 31
0.0
  0
LINE
  5
E5
330
4D
100
AcDbEntity
  8
1
  6
Continuous
 62
     2
100
AcDbLine
 10
230.7892172534888
 20
175.9789370429247
 30
0.0
 11
229.9762172534888
 21
177.3870943494782
 31
0.0
  0
LINE
  5
E6
330
4D
100
AcDbEntity
  8
1
  6
Continuous
 62
     7
100
AcDbLine
 10
230.7892172534888
 20
175.9789370429247
 30
0.0
 11
230.7892172534888
 21
171.8870943494782
 31
0.0
  0
LINE
  5
E7
330
4D
100
AcDbEntity
  8
1
  6
Continuous
 62
     7
100
AcDbLine
 10
244.7892172534886
 20
165.8870943494781
 30
0.0
 11
236.7892172534888
 21
165.8870943494781
 31
0.0
  0
LINE
  5
E8
330
4D
100
AcDbEntity
  8
1
  6
Continuous
 62
     7
100
AcDbLine
 10
253.7892172534889
 20
165.8870943494781
 30
0.0
 11
253.7892172534889
 21
163.8870943494782
 31
0.0
  0
LINE
  5
E9
330
4D
100
AcDbEntity
  8
1
  6
Continuous
 62
     7
100
AcDbLine
 10
230.7892172534888
 20
177.3870943494782
 30
0.0
 11
230.7892172534888
 21
178.9589273008264
 31
0.0
  0
LINE
  5
EA
330
4D
100
AcDbEntity
  8
1
  6
Continuous
 62
     7
100
AcDbLine
 10
229.9762172534888
 20
177.3870943494782
 30
0.0
 11
230.7892172534888
 21
177.3870943494782
 31
0.0
  0
LINE
  5
EB
330
4D
100
AcDbEntity
  8
1
  6
Continuous
 62
     7
100
AcDbLine
 10
230.7892172534888
 20
175.9789370429247
 30
0.0
 11
230.7892172534888
 21
177.3870943494782
 31
0.0
  0
LINE
  5
EC
330
4D
100
AcDbEntity
  8
1
  6
Continuous
 62
     7
100
AcDbLine
 10
206.7892172534888
 20
177.3870943494782
 30
0.0
 11
206.7892172534888
 21
175.9789370429247
 31
0.0
  0
LINE
  5
ED
330
4D
100
AcDbEntity
  8
1
  6
Continuous
 62
     7
100
AcDbLine
 10
206.7892172534888
 20
177.3870943494782
 30
0.0
 11
229.9762172534888
 21
177.3870943494782
 31
0.0
  0
LINE
  5
EE
330
4D
100
AcDbEntity
  8
1
  6
Continuous
 62
     7
100
AcDbLine
 10
253.7892172534889
 20
163.8870943494782
 30
0.0
 11
253.7892172534889
 21
165.8870943494781
 31
0.0
  0
LINE
  5
EF
330
4D
100
AcDbEntity
  8
1
  6
Continuous
 62
     7
100
AcDbLine
 10
253.7892172534889
 20
142.8870943494782
 30
0.0
 11
253.7892172534889
 21
163.8870943494782
 31
0.0
  0
LINE
  5
F0
330
4D
100
AcDbEntity
  8
1
  6
Continuous
 62
     7
100
AcDbLine
 10
183.7892172534888
 20
163.8870943494781
 30
0.0
 11
183.7892172534888
 21
142.8870943494782
 31
0.0
  0
LINE
  5
F1
330
4D
100
AcDbEntity
  8
1
  6
Continuous
 62
     7
100
AcDbLine
 10
183.7892172534888
 20
163.8870943494781
 30
0.0
 11
183.7892172534888
 21
165.8870943494781
 31
0.0
  0
LINE
  5
F2
330
4D
100
AcDbEntity
  8
1
  6
Continuous
 62
     2
100
AcDbLine
 10
218.7892172534888
 20
137.7966421317691
 30
0.0
 11
218.7892172534888
 21
137.6021396314697
 31
0.0
  0
LINE
  5
F3
330
4D
100
AcDbEntity
  8
1
  6
Continuous
 62
     2
100
AcDbLine
 10
111.6218645802068
 20
177.3870943494782
 30
0.0
 11
111.6218645802068
 21
178.8870943494782
 31
0.0
  0
LINE
  5
F4
330
4D
100
AcDbEntity
  8
1
  6
Continuous
 62
     2
100
AcDbLine
 10
89.24786458020682
 20
177.3870943494782
 30
0.0
 11
89.24786458020682
 21
178.8870943494782
 31
0.0
  0
LINE
  5
F5
330
4D
100
AcDbEntity
  8
1
  6
Continuous
 62
     2
100
AcDbLine
 10
89.24786458020682
 20
177.3870943494782
 30
0.0
 11
88.43486458020681
 21
175.9789370429249
 31
0.0
  0
LINE
  5
F6
330
4D
100
AcDbEntity
  8
1
  6
Continuous
 62
     2
100
AcDbLine
 10
112.4348645802068
 20
175.9789370429249
 30
0.0
 11
111.6218645802068
 21
177.3870943494782
 31
0.0
  0
LINE
  5
F7
330
4D
100
AcDbEntity
  8
1
  6
Continuous
 62
     7
100
AcDbLine
 10
88.43486458020681
 20
177.3870943494782
 30
0.0
 11
112.4348645802068
 21
177.3870943494782
 31
0.0
  0
LINE
  5
F8
330
4D
100
AcDbEntity
  8
1
  6
Continuous
 62
     7
100
AcDbLine
 10
112.4348645802068
 20
161.072307423948
 30
0.0
 11
112.4348645802068
 21
178.8870943494782
 31
0.0
  0
LINE
  5
F9
330
4D
100
AcDbEntity
  8
1
  6
Continuous
 62
     7
100
AcDbLine
 10
101.8804729254181
 20
167.563578981158
 30
0.0
 11
111.9892562349956
 21
161.7272702161941
 31
0.0
  0
LINE
  5
FA
330
4D
100
AcDbEntity
  8
1
  6
Continuous
 62
     7
100
AcDbLine
 10
111.9892562349956
 20
145.0469184827619
 30
0.0
 11
101.8804729254181
 21
139.2106097177981
 31
0.0
  0
LINE
  5
FB
330
4D
100
AcDbEntity
  8
1
  6
Continuous
 62
     7
100
AcDbLine
 10
98.98925623499551
 20
139.2106097177981
 30
0.0
 11
88.88047292541805
 21
145.0469184827619
 31
0.0
  0
LINE
  5
FC
330
4D
100
AcDbEntity
  8
1
  6
Continuous
 62
     7
100
AcDbLine
 10
87.43486458020681
 20
147.5507855845141
 30
0.0
 11
87.43486458020681
 21
159.223403114442
 31
0.0
  0
LINE
  5
FD
330
4D
100
AcDbEntity
  8
1
  6
Continuous
 62
     7
100
AcDbLine
 10
88.88047292541805
 20
161.7272702161941
 30
0.0
 11
98.98925623499551
 21
167.563578981158
 31
0.0
  0
LINE
  5
FE
330
4D
100
AcDbEntity
  8
1
  6
Continuous
 62
     7
100
AcDbLine
 10
91.63209746337802
 20
156.3870943494781
 30
0.0
 11
109.2376316970356
 21
156.3870943494781
 31
0.0
  0
LINE
  5
FF
330
4D
100
AcDbEntity
  8
1
  6
Continuous
 62
     7
100
AcDbLine
 10
192.789217253489
 20
165.8870943494781
 30
0.0
 11
192.789217253489
 21
140.8870943494781
 31
0.0
  0
LINE
  5
100
330
4D
100
AcDbEntity
  8
1
  6
Continuous
 62
     7
100
AcDbLine
 10
244.7892172534886
 20
140.8870943494781
 30
0.0
 11
244.7892172534886
 21
165.8870943494781
 31
0.0
  0
LINE
  5
101
330
4D
100
AcDbEntity
  8
1
  6
Continuous
 62
     7
100
AcDbLine
 10
87.93500217271185
 20
272.3880606407479
 30
0.0
 11
89.93500217271185
 21
272.3880606407479
 31
0.0
  0
LINE
  5
102
330
4D
100
AcDbEntity
  8
1
  6
Continuous
 62
     7
100
AcDbLine
 10
110.9350021727119
 20
272.3880606407479
 30
0.0
 11
112.9350021727119
 21
272.3880606407479
 31
0.0
  0
LINE
  5
103
330
4D
100
AcDbEntity
  8
1
  6
Continuous
 62
     7
100
AcDbLine
 10
89.93500217271185
 20
272.3880606407479
 30
0.0
 11
110.9350021727119
 21
272.3880606407479
 31
0.0
  0
LINE
  5
104
330
4D
100
AcDbEntity
  8
1
  6
Continuous
 62
     7
100
AcDbLine
 10
89.93500217271185
 20
272.3880606407479
 30
0.0
 11
87.93500217271185
 21
272.3880606407479
 31
0.0
  0
LINE
  5
105
330
4D
100
AcDbEntity
  8
1
  6
Continuous
 62
     2
100
AcDbLine
 10
116.0254543904209
 20
307.3880606407479
 30
0.0
 11
116.2199568907202
 21
307.3880606407479
 31
0.0
  0
LINE
  5
106
330
4D
100
AcDbEntity
  8
1
  6
Continuous
 62
     7
100
AcDbLine
 10
87.93500217271185
 20
281.3880606407481
 30
0.0
 11
94.49129428268253
 21
281.3880606407481
 31
0.0
  0
LINE
  5
107
330
4D
100
AcDbEntity
  8
1
  6
Continuous
 62
     7
100
AcDbLine
 10
112.9350021727119
 20
333.3880606407477
 30
0.0
 11
87.93500217271185
 21
333.3880606407477
 31
0.0
  0
LINE
  5
108
330
4D
100
AcDbEntity
  8
1
  6
Continuous
 62
     7
100
AcDbLine
 10
106.3787100627413
 20
281.3880606407481
 30
0.0
 11
112.9350021727119
 21
281.3880606407481
 31
0.0
  0
LINE
  5
109
330
4D
100
AcDbEntity
  8
1
  6
Continuous
 62
     7
100
AcDbLine
 10
88.43486458020681
 20
178.8870943494782
 30
0.0
 11
88.43486458020681
 21
161.072307423948
 31
0.0
  0
LINE
  5
10A
330
4D
100
AcDbEntity
  8
1
  6
Continuous
 62
     2
100
AcDbLine
 10
229.9762172534888
 20
178.959802747612
 30
0.0
 11
229.9762172534888
 21
177.3870943494782
 31
0.0
  0
LINE
  5
10B
330
4D
100
AcDbEntity
  8
1
  6
Continuous
 62
     7
100
AcDbLine
 10
206.7892172534888
 20
178.9589273008264
 30
0.0
 11
206.7892172534888
 21
177.3870943494782
 31
0.0
  0
LINE
  5
10C
330
4D
100
AcDbEntity
  8
1
  6
Continuous
 62
     7
100
AcDbLine
 10
87.43500217271185
 20
273.0035676604111
 30
0.0
 11
87.43500217271185
 21
280.7725536210849
 31
0.0
  0
LINE
  5
10D
330
4D
100
AcDbEntity
  8
1
  6
Continuous
 62
     7
100
AcDbLine
 10
113.4350021727119
 20
273.0035676604112
 30
0.0
 11
113.4350021727119
 21
280.7725536210849
 31
0.0
  0
LINE
  5
10E
330
4D
100
AcDbEntity
  8
1
  6
Continuous
 62
     7
100
AcDbLine
 10
89.93500217271185
 20
342.388060640748
 30
0.0
 11
87.93500217271185
 21
342.388060640748
 31
0.0
  0
LINE
  5
10F
330
4D
100
AcDbEntity
  8
1
  6
Continuous
 62
     7
100
AcDbLine
 10
112.9350021727119
 20
342.388060640748
 30
0.0
 11
110.9350021727119
 21
342.388060640748
 31
0.0
  0
LINE
  5
110
330
4D
100
AcDbEntity
  8
1
  6
Continuous
 62
     7
100
AcDbLine
 10
110.9350021727119
 20
342.388060640748
 30
0.0
 11
89.93500217271185
 21
342.388060640748
 31
0.0
  0
LINE
  5
111
330
4D
100
AcDbEntity
  8
1
  6
Continuous
 62
     7
100
AcDbLine
 10
87.93500217271185
 20
342.388060640748
 30
0.0
 11
89.93500217271185
 21
342.388060640748
 31
0.0
  0
LINE
  5
112
330
4D
100
AcDbEntity
  8
1
  6
Continuous
 62
     7
100
AcDbLine
 10
87.43500217271185
 20
334.0035676604109
 30
0.0
 11
87.43500217271185
 21
341.7725536210848
 31
0.0
  0
LINE
  5
113
330
4D
100
AcDbEntity
  8
1
  6
Continuous
 62
     7
100
AcDbLine
 10
113.4350021727119
 20
334.003567660411
 30
0.0
 11
113.4350021727119
 21
341.7725536210847
 31
0.0
  0
LINE
  5
114
330
4D
100
AcDbEntity
  8
1
  6
Continuous
 62
     7
100
AcDbLine
 10
87.43500217271185
 20
334.0035676604109
 30
0.0
 11
87.43500217271185
 21
341.7725536210848
 31
0.0
  0
LINE
  5
115
330
4D
100
AcDbEntity
  8
1
  6
Continuous
 62
     7
100
AcDbLine
 10
113.4350021727119
 20
334.003567660411
 30
0.0
 11
113.4350021727119
 21
341.7725536210847
 31
0.0
  0
LINE
  5
116
330
4D
100
AcDbEntity
  8
1
  6
Continuous
 62
     7
100
AcDbLine
 10
113.4348645802068
 20
159.223403114442
 30
0.0
 11
113.4348645802068
 21
147.5507855845141
 31
0.0
  0
ARC
  5
117
330
4D
100
AcDbEntity
  8
1
  6
Continuous
 62
     7
100
AcDbCircle
 10
188.2892172534889
 20
160.9763800637636
 30
0.0
 40
6.660714285714505
100
AcDbArc
 50
47.49898898573426
 51
132.5010110142659
  0
ARC
  5
118
330
4D
100
AcDbEntity
  8
1
  6
Continuous
 62
     7
100
AcDbCircle
 10
249.2892172534887
 20
145.7978086351927
 30
0.0
 40
6.660714285714568
100
AcDbArc
 50
-132.5010110142653
 51
-47.49898898573336
  0
ARC
  5
119
330
4D
100
AcDbEntity
  8
1
  6
Continuous
 62
     7
100
AcDbCircle
 10
218.7892172534888
 20
761.310910287683
 30
0.0
 40
620.9683658475071
100
AcDbArc
 50
-92.39968081589326
 51
-87.60031918410674
  0
ARC
  5
11A
330
4D
100
AcDbEntity
  8
1
  6
Continuous
 62
     7
100
AcDbCircle
 10
188.2892172534889
 20
145.7978086351927
 30
0.0
 40
6.660714285714524
100
AcDbArc
 50
-132.5010110142659
 51
-47.49898898573476
  0
ARC
  5
11B
330
4D
100
AcDbEntity
  8
1
  6
Continuous
 62
     7
100
AcDbCircle
 10
249.2892172534887
 20
160.9763800637636
 30
0.0
 40
6.660714285714601
100
AcDbArc
 50
47.49898898573336
 51
132.5010110142658
  0
ARC
  5
11C
330
4D
100
AcDbEntity
  8
1
  6
Continuous
 62
     7
100
AcDbCircle
 10
188.2892172534889
 20
145.7978086351927
 30
0.0
 40
6.660714285714524
100
AcDbArc
 50
-132.5010110142659
 51
-47.49898898573476
  0
ARC
  5
11D
330
4D
100
AcDbEntity
  8
1
  6
Continuous
 62
     7
100
AcDbCircle
 10
100.4348645802068
 20
153.3870943494781
 30
0.0
 40
14.2499999999998
100
AcDbArc
 50
24.17754483363348
 51
35.82245516636669
  0
ARC
  5
11E
330
4D
100
AcDbEntity
  8
1
  6
Continuous
 62
     7
100
AcDbCircle
 10
100.4348645802068
 20
153.3870943494781
 30
0.0
 40
14.25
100
AcDbArc
 50
-90.0
 51
-84.1775448336344
  0
ARC
  5
11F
330
4D
100
AcDbEntity
  8
1
  6
Continuous
 62
     7
100
AcDbCircle
 10
100.4348645802068
 20
153.3870943494781
 30
0.0
 40
14.25000000000014
100
AcDbArc
 50
-95.8224551663656
 51
-90.0
  0
ARC
  5
120
330
4D
100
AcDbEntity
  8
1
  6
Continuous
 62
     7
100
AcDbCircle
 10
100.4348645802068
 20
153.3870943494781
 30
0.0
 40
14.24999999999985
100
AcDbArc
 50
-155.8224551663661
 51
-144.1775448336326
  0
ARC
  5
121
330
4D
100
AcDbEntity
  8
1
  6
Continuous
 62
     7
100
AcDbCircle
 10
100.4348645802068
 20
153.3870943494781
 30
0.0
 40
14.25000000000015
100
AcDbArc
 50
144.1775448336333
 51
155.8224551663665
  0
ARC
  5
122
330
4D
100
AcDbEntity
  8
1
  6
Continuous
 62
     7
100
AcDbCircle
 10
100.4348645802068
 20
153.3870943494781
 30
0.0
 40
14.25000000000009
100
AcDbArc
 50
90.0
 51
95.82245516636564
  0
ARC
  5
123
330
4D
100
AcDbEntity
  8
1
  6
Continuous
 62
     7
100
AcDbCircle
 10
100.4348645802068
 20
153.3870943494781
 30
0.0
 40
14.25000000000003
100
AcDbArc
 50
84.17754483363434
 51
90.0
  0
ARC
  5
124
330
4D
100
AcDbEntity
  8
1
  6
Continuous
 62
     7
100
AcDbCircle
 10
100.4348645802068
 20
153.3870943494781
 30
0.0
 40
9.299930586467957
100
AcDbArc
 50
161.1807908886911
 51
18.81920911130893
  0
ARC
  5
125
330
4D
100
AcDbEntity
  8
1
  6
Continuous
 62
     7
100
AcDbCircle
 10
100.4348645802068
 20
153.3870943494781
 30
0.0
 40
9.299930586467957
100
AcDbArc
 50
18.81920911130893
 51
161.1807908886911
  0
ARC
  5
126
330
4D
100
AcDbEntity
  8
1
  6
Continuous
 62
     7
100
AcDbCircle
 10
92.8457164584263
 20
276.888060640748
 30
0.0
 40
6.660714285714497
100
AcDbArc
 50
-144.3244470960527
 51
-137.4989889857338
  0
ARC
  5
127
330
4D
100
AcDbEntity
  8
1
  6
Continuous
 62
     7
100
AcDbCircle
 10
-507.488813765493
 20
307.3880606407479
 30
0.0
 40
620.9683658475072
100
AcDbArc
 50
1.50857799183668
 51
2.39968081589326
  0
ARC
  5
128
330
4D
100
AcDbEntity
  8
1
  6
Continuous
 62
     7
100
AcDbCircle
 10
108.0242878869973
 20
276.888060640748
 30
0.0
 40
6.660714285714624
100
AcDbArc
 50
35.67555290394656
 51
42.50101101426535
  0
ARC
  5
129
330
4D
100
AcDbEntity
  8
1
  6
Continuous
 62
     7
100
AcDbCircle
 10
108.0242878869973
 20
276.888060640748
 30
0.0
 40
6.660714285714624
100
AcDbArc
 50
35.67555290394656
 51
42.50101101426535
  0
ARC
  5
12A
330
4D
100
AcDbEntity
  8
1
  6
Continuous
 62
     7
100
AcDbCircle
 10
708.3588181109167
 20
307.3880606407479
 30
0.0
 40
620.9683658475071
100
AcDbArc
 50
-179.5210160181157
 51
-177.6003191841068
  0
ARC
  5
12B
330
4D
100
AcDbEntity
  8
1
  6
Continuous
 62
     7
100
AcDbCircle
 10
-507.488813765493
 20
307.3880606407479
 30
0.0
 40
620.9683658475071
100
AcDbArc
 50
-2.39968081589326
 51
-0.47898398188434
  0
ARC
  5
12C
330
4D
100
AcDbEntity
  8
1
  6
Continuous
 62
     7
100
AcDbCircle
 10
708.3588181109167
 20
307.3880606407479
 30
0.0
 40
620.9683658475071
100
AcDbArc
 50
177.6003191841068
 51
178.4914220081633
  0
ARC
  5
12D
330
4D
100
AcDbEntity
  8
1
  6
Continuous
 62
     7
100
AcDbCircle
 10
92.8457164584263
 20
276.888060640748
 30
0.0
 40
6.660714285714483
100
AcDbArc
 50
137.4989889857338
 51
144.3244470960527
  0
ARC
  5
12E
330
4D
100
AcDbEntity
  8
1
  6
Continuous
 62
     7
100
AcDbCircle
 10
108.0242878869973
 20
276.888060640748
 30
0.0
 40
6.660714285714597
100
AcDbArc
 50
-42.50101101426535
 51
-35.67555290394576
  0
ARC
  5
12F
330
4D
100
AcDbEntity
  8
1
  6
Continuous
 62
     7
100
AcDbCircle
 10
108.0242878869973
 20
276.888060640748
 30
0.0
 40
6.660714285714597
100
AcDbArc
 50
-42.50101101426535
 51
-35.67555290394576
  0
ARC
  5
130
330
4D
100
AcDbEntity
  8
1
  6
Continuous
 62
     7
100
AcDbCircle
 10
92.8457164584263
 20
337.8880606407479
 30
0.0
 40
6.660714285714483
100
AcDbArc
 50
137.4989889857338
 51
144.3244470960527
  0
ARC
  5
131
330
4D
100
AcDbEntity
  8
1
  6
Continuous
 62
     7
100
AcDbCircle
 10
108.0242878869973
 20
337.8880606407479
 30
0.0
 40
6.660714285714557
100
AcDbArc
 50
35.67555290394576
 51
42.50101101426535
  0
ARC
  5
132
330
4D
100
AcDbEntity
  8
1
  6
Continuous
 62
     7
100
AcDbCircle
 10
108.0242878869973
 20
337.8880606407479
 30
0.0
 40
6.660714285714557
100
AcDbArc
 50
35.67555290394576
 51
42.50101101426535
  0
ARC
  5
133
330
4D
100
AcDbEntity
  8
1
  6
Continuous
 62
     7
100
AcDbCircle
 10
92.8457164584263
 20
337.8880606407479
 30
0.0
 40
6.66071428571453
100
AcDbArc
 50
-144.3244470960523
 51
-137.4989889857334
  0
ARC
  5
134
330
4D
100
AcDbEntity
  8
1
  6
Continuous
 62
     7
100
AcDbCircle
 10
108.0242878869973
 20
337.8880606407479
 30
0.0
 40
6.660714285714636
100
AcDbArc
 50
-42.50101101426571
 51
-35.67555290394616
  0
ARC
  5
135
330
4D
100
AcDbEntity
  8
1
  6
Continuous
 62
     7
100
AcDbCircle
 10
108.0242878869973
 20
337.8880606407479
 30
0.0
 40
6.660714285714636
100
AcDbArc
 50
-42.50101101426571
 51
-35.67555290394616
  0
ARC
  5
136
330
4D
100
AcDbEntity
  8
1
  6
Continuous
 62
     7
100
AcDbCircle
 10
100.4348645802068
 20
153.3870943494781
 30
0.0
 40
14.25000000000029
100
AcDbArc
 50
-35.82245516636733
 51
-24.1775448336339
  0
ARC
  5
137
330
4D
100
AcDbEntity
  8
1
  6
Continuous
 62
     7
100
AcDbCircle
 10
220.4282001920341
 20
177.2641643506499
 30
0.0
 40
18.99999999999993
100
AcDbArc
 50
-145.3537682862241
 51
-111.6939826370736
  0
ARC
  5
138
330
4D
100
AcDbEntity
  8
1
  6
Continuous
 62
     7
100
AcDbCircle
 10
213.6073805950993
 20
181.7143342670396
 30
0.0
 40
24.49999999999998
100
AcDbArc
 50
-64.4516260943831
 51
-38.50062298231908
  0
CIRCLE
  5
139
330
4D
100
AcDbEntity
  8
1
  6
Continuous
 62
     2
100
AcDbCircle
 10
100.4348645802068
 20
153.3870943494781
 30
0.0
 40
10.5
  0
CIRCLE
  5
13A
330
4D
100
AcDbEntity
  8
1
  6
Continuous
 62
     7
100
AcDbCircle
 10
100.4348645802068
 20
153.3870943494781
 30
0.0
 40
12.5
  0
SPLINE
  5
13B
330
4D
100
AcDbEntity
  8
1
  6
Continuous
 62
     7
100
AcDbSpline
210
0.0
220
0.0
230
1.0
 70
    11
 71
     3
 72
    79
 73
    75
 74
    73
 42
0.0000000001
 43
0.0000000001
 44
0.00000001
 40
0.0
 40
0.0
 40
0.0
 40
0.0
 40
0.3410695114164489
 40
0.6820479275222209
 40
1.033107169076473
 40
1.384018866065889
 40
1.749840718192028
 40
2.115502197753324
 40
2.498669621141202
 40
2.88169389090381
 40
3.282517417078783
 40
3.683227704646717
 40
4.099978638365232
 40
4.516648167380842
 40
4.945955195014392
 40
5.375210360128436
 40
5.812518916993642
 40
6.249802372564653
 40
6.689848561150945
 40
7.129894749737251
 40
7.567178205308276
 40
8.00448676217351
 40
8.433741927287541
 40
8.863048954921053
 40
9.279718483936623
 40
9.696469417655139
 40
10.09717970522309
 40
10.49800323139808
 40
10.8810275011608
 40
11.26419492454864
 40
11.62985640410985
 40
11.99567825623608
 40
12.34658995322551
 40
12.69764919477976
 40
13.03862761088552
 40
13.37969712230203
 40
13.71719546610156
 40
14.05469380990109
 40
14.39576332131749
 40
14.73674173742326
 40
15.0878009789774
 40
15.43871267596682
 40
15.804534528093
 40
16.17019600765427
 40
16.55336343104216
 40
16.93638770080484
 40
17.33721122697981
 40
17.73792151454774
 40
18.15467244826625
 40
18.57134197728181
 40
19.00064900491532
 40
19.42990417002938
 40
19.86721272689465
 40
20.30449618246569
 40
20.744542371052
 40
21.18458855963829
 40
21.62187201520927
 40
22.05918057207451
 40
22.48843573718856
 40
22.91774276482213
 40
23.33441229383777
 40
23.75116322755621
 40
24.15187351512413
 40
24.55269704129916
 40
24.9357213110619
 40
25.31888873444972
 40
25.68455021401099
 40
26.05037206613713
 40
26.4012837631265
 40
26.75234300468069
 40
27.09332142078663
 40
27.43439093220297
 40
27.77188927600244
 40
28.10938761980203
 40
28.10938761980203
 40
28.10938761980203
 40
28.10938761980203
 10
101.9002261569913
 20
337.5796880068725
 30
0.0
 10
101.9169056549911
 20
337.4670997729596
 30
0.0
 10
101.9502601961099
 20
337.2419533760133
 30
0.0
 10
102.0496204036393
 20
336.9110996275442
 30
0.0
 10
102.1825191422985
 20
336.5892953344032
 30
0.0
 10
102.3537968330244
 20
336.2764980546226
 30
0.0
 10
102.5581242994536
 20
335.9784249857847
 30
0.0
 10
102.7974952622173
 20
335.6935401131131
 30
0.0
 10
103.0660738297719
 20
335.4278250193314
 30
0.0
 10
103.3660258127054
 20
335.1793964122096
 30
0.0
 10
103.6905262940768
 20
334.9536350204359
 30
0.0
 10
104.0417453673624
 20
334.7489690657644
 30
0.0
 10
104.4124235025314
 20
334.5696410206734
 30
0.0
 10
104.8041667966528
 20
334.4146961126359
 30
0.0
 10
105.2099974198668
 20
334.2870278175242
 30
0.0
 10
105.6303863461661
 20
334.186275432894
 30
0.0
 10
106.0593019875044
 20
334.1140668344876
 30
0.0
 10
106.4956559740842
 20
334.0703686283192
 30
0.0
 10
106.934864580205
 20
334.0558414574338
 30
0.0
 10
107.3740731863365
 20
334.0703686283185
 30
0.0
 10
107.8104271728848
 20
334.1140668344904
 30
0.0
 10
108.2393428143379
 20
334.1862754328835
 30
0.0
 10
108.659731740217
 20
334.2870278175623
 30
0.0
 10
109.0655623649776
 20
334.4146961124951
 30
0.0
 10
109.4573056534893
 20
334.5696410211815
 30
0.0
 10
109.827983809199
 20
334.7489690638972
 30
0.0
 10
110.1792028086384
 20
334.9536350271069
 30
0.0
 10
110.5037035593459
 20
335.1793963877408
 30
0.0
 10
110.8036545795624
 20
335.4278251061679
 30
0.0
 10
111.0722366524816
 20
335.6935397946745
 30
0.0
 10
111.3115951004966
 20
335.9784261142477
 30
0.0
 10
111.5159682002599
 20
336.2764939071541
 30
0.0
 10
111.6870821638004
 20
336.5893101163749
 30
0.0
 10
111.8205810048872
 20
336.9110450282265
 30
0.0
 10
111.9177624194013
 20
337.2421506794747
 30
0.0
 10
111.975677183369
 20
337.5777751281425
 30
0.0
 10
111.9955980319272
 20
337.9166238112941
 30
0.0
 10
111.9756771833691
 20
338.2554724944459
 30
0.0
 10
111.9177624194014
 20
338.5910969431135
 30
0.0
 10
111.8205810048872
 20
338.9222025943618
 30
0.0
 10
111.6870821638005
 20
339.2439375062132
 30
0.0
 10
111.5159682002599
 20
339.5567537154342
 30
0.0
 10
111.3115951004965
 20
339.8548215083404
 30
0.0
 10
111.0722366524816
 20
340.1397078279136
 30
0.0
 10
110.8036545795625
 20
340.4054225164203
 30
0.0
 10
110.5037035593458
 20
340.6538512348473
 30
0.0
 10
110.1792028086384
 20
340.8796125954814
 30
0.0
 10
109.827983809199
 20
341.0842785586908
 30
0.0
 10
109.4573056534893
 20
341.2636066014069
 30
0.0
 10
109.0655623649777
 20
341.4185515100929
 30
0.0
 10
108.6597317402171
 20
341.5462198050259
 30
0.0
 10
108.2393428143379
 20
341.6469721897049
 30
0.0
 10
107.8104271728849
 20
341.7191807880977
 30
0.0
 10
107.3740731863361
 20
341.7628789942697
 30
0.0
 10
106.9348645802067
 20
341.7774061651542
 30
0.0
 10
106.4956559740782
 20
341.7628789942698
 30
0.0
 10
106.059301987527
 20
341.7191807880976
 30
0.0
 10
105.6303863460823
 20
341.6469721897054
 30
0.0
 10
105.2099974201731
 20
341.5462198050233
 30
0.0
 10
104.8041667955229
 20
341.418551510103
 30
0.0
 10
104.4124235066106
 20
341.2636066013704
 30
0.0
 10
104.0417453523679
 20
341.0842785588242
 30
0.0
 10
103.6905263476546
 20
340.879612595005
 30
0.0
 10
103.3660256161821
 20
340.6538512365947
 30
0.0
 10
103.0660745272121
 20
340.4054225102189
 30
0.0
 10
102.7974927046324
 20
340.1397078506552
 30
0.0
 10
102.5581333628626
 20
339.8548214277498
 30
0.0
 10
102.3537635220558
 20
339.5567540116305
 30
0.0
 10
102.1826378657513
 20
339.2439364505419
 30
0.0
 10
102.049181881665
 20
338.9222064936344
 30
0.0
 10
101.9518448661584
 20
338.5910828524613
 30
0.0
 10
101.8945053854638
 20
338.2555249155982
 30
0.0
 10
101.8724585954562
 20
337.9164304401406
 30
0.0
 10
101.8909703031463
 20
337.6919354846284
 30
0.0
 10
101.9002261569913
 20
337.5796880068724
 30
0.0
 11
101.9002261569913
 21
337.5796880068725
 31
0.0
 11
101.9583273446356
 21
337.2436036965987
 31
0.0
 11
102.0539010125092
 21
336.9162935160983
 31
0.0
 11
102.1883277075372
 21
336.591991103612
 31
0.0
 11
102.3562793207927
 21
336.2838819108104
 31
0.0
 11
102.5629069591572
 21
335.9820033813371
 31
0.0
 11
102.7977607542274
 21
335.7017320617625
 31
0.0
 11
103.0698892017576
 21
335.4319851759779
 31
0.0
 11
103.3646172625031
 21
335.1873569653471
 31
0.0
 11
103.6934331443814
 21
334.9581417499711
 31
0.0
 11
104.0394910286569
 21
334.7561202776134
 31
0.0
 11
104.4145069397537
 21
334.5743390707203
 31
0.0
 11
104.8018889727934
 21
334.4208833543456
 31
0.0
 11
105.2113375226277
 21
334.291823643304
 31
0.0
 11
105.6287423304088
 21
334.1916576649566
 31
0.0
 11
106.0599570117143
 21
334.1189069087118
 31
0.0
 11
106.4950609163191
 21
334.0753017173489
 31
0.0
 11
106.9348645802068
 21
334.0606940029413
 31
0.0
 11
107.3746682440946
 21
334.0753017173489
 31
0.0
 11
107.8097721486994
 21
334.1189069087118
 31
0.0
 11
108.2409868300049
 21
334.1916576649566
 31
0.0
 11
108.658391637786
 21
334.291823643304
 31
0.0
 11
109.0678401876202
 21
334.4208833543456
 31
0.0
 11
109.4552222206599
 21
334.5743390707203
 31
0.0
 11
109.8302381317568
 21
334.7561202776133
 31
0.0
 11
110.1762960160322
 21
334.958141749971
 31
0.0
 11
110.5051118979107
 21
335.187356965347
 31
0.0
 11
110.7998399586561
 21
335.431985175978
 31
0.0
 11
111.0719684061863
 21
335.7017320617625
 31
0.0
 11
111.3068222012565
 21
335.982003381337
 31
0.0
 11
111.513449839621
 21
336.2838819108104
 31
0.0
 11
111.6814014528765
 21
336.591991103612
 31
0.0
 11
111.8158281479046
 21
336.9162935160983
 31
0.0
 11
111.9114018157781
 21
337.2436036965987
 31
0.0
 11
111.9695030034224
 21
337.5796880068725
 31
0.0
 11
111.988981087675
 21
337.9166238112942
 31
0.0
 11
111.9695030034224
 21
338.2535596157159
 31
0.0
 11
111.9114018157782
 21
338.5896439259896
 31
0.0
 11
111.8158281479046
 21
338.9169541064899
 31
0.0
 11
111.6814014528765
 21
339.2412565189762
 31
0.0
 11
111.513449839621
 21
339.5493657117778
 31
0.0
 11
111.3068222012565
 21
339.8512442412511
 31
0.0
 11
111.0719684061863
 21
340.1315155608256
 31
0.0
 11
110.7998399586561
 21
340.4012624466103
 31
0.0
 11
110.5051118979106
 21
340.6458906572411
 31
0.0
 11
110.1762960160323
 21
340.8751058726172
 31
0.0
 11
109.8302381317568
 21
341.0771273449748
 31
0.0
 11
109.45522222066
 21
341.2589085518678
 31
0.0
 11
109.0678401876203
 21
341.4123642682426
 31
0.0
 11
108.658391637786
 21
341.5414239792842
 31
0.0
 11
108.2409868300049
 21
341.6415899576317
 31
0.0
 11
107.8097721486994
 21
341.7143407138764
 31
0.0
 11
107.3746682440946
 21
341.7579459052394
 31
0.0
 11
106.9348645802068
 21
341.7725536196469
 31
0.0
 11
106.4950609163191
 21
341.7579459052394
 31
0.0
 11
106.0599570117143
 21
341.7143407138765
 31
0.0
 11
105.6287423304088
 21
341.6415899576317
 31
0.0
 11
105.2113375226277
 21
341.5414239792842
 31
0.0
 11
104.8018889727934
 21
341.4123642682426
 31
0.0
 11
104.4145069397537
 21
341.2589085518678
 31
0.0
 11
104.0394910286569
 21
341.0771273449749
 31
0.0
 11
103.6934331443814
 21
340.8751058726172
 31
0.0
 11
103.364617262503
 21
340.6458906572411
 31
0.0
 11
103.0698892017575
 21
340.4012624466102
 31
0.0
 11
102.7977607542273
 21
340.1315155608256
 31
0.0
 11
102.5629069591572
 21
339.851244241251
 31
0.0
 11
102.3562793207927
 21
339.5493657117778
 31
0.0
 11
102.1883277075372
 21
339.2412565189762
 31
0.0
 11
102.0539010125092
 21
338.9169541064899
 31
0.0
 11
101.9583273446356
 21
338.5896439259894
 31
0.0
 11
101.9002261569913
 21
338.2535596157157
 31
0.0
 11
101.8807480727388
 21
337.9166238112941
 31
0.0
 11
101.9002261569913
 21
337.5796880068724
 31
0.0
  0
SPLINE
  5
13C
330
4D
100
AcDbEntity
  8
1
  6
Continuous
 62
     7
100
AcDbSpline
210
0.0
220
0.0
230
1.0
 70
    11
 71
     3
 72
    79
 73
    75
 74
    73
 42
0.0000000001
 43
0.0000000001
 44
0.00000001
 40
0.0
 40
0.0
 40
0.0
 40
0.0
 40
0.3410695114164514
 40
0.6820479275222193
 40
1.033107169076466
 40
1.384018866065876
 40
1.749840718192006
 40
2.115502197753311
 40
2.49866962114121
 40
2.881693890903828
 40
3.282517417078801
 40
3.683227704646748
 40
4.099978638365262
 40
4.516648167380845
 40
4.945955195014369
 40
5.37521036012844
 40
5.812518916993646
 40
6.249802372564657
 40
6.689848561150964
 40
7.129894749737284
 40
7.567178205308295
 40
8.004486762173501
 40
8.433741927287546
 40
8.863048954921087
 40
9.279718483936657
 40
9.696469417655134
 40
10.09717970522311
 40
10.49800323139809
 40
10.88102750116081
 40
11.26419492454867
 40
11.62985640410988
 40
11.99567825623609
 40
12.34658995322551
 40
12.69764919477976
 40
13.03862761088553
 40
13.37969712230204
 40
13.71719546610157
 40
14.0546938099011
 40
14.39576332131749
 40
14.73674173742327
 40
15.0878009789774
 40
15.43871267596683
 40
15.80453452809302
 40
16.17019600765426
 40
16.55336343104213
 40
16.93638770080482
 40
17.33721122697979
 40
17.73792151454774
 40
18.15467244826627
 40
18.57134197728184
 40
19.00064900491534
 40
19.4299041700294
 40
19.86721272689461
 40
20.30449618246566
 40
20.74454237105197
 40
21.18458855963828
 40
21.62187201520931
 40
22.05918057207451
 40
22.48843573718861
 40
22.91774276482216
 40
23.33441229383777
 40
23.75116322755619
 40
24.15187351512412
 40
24.55269704129914
 40
24.93572131106187
 40
25.31888873444971
 40
25.68455021401099
 40
26.05037206613712
 40
26.40128376312649
 40
26.75234300468069
 40
27.09332142078663
 40
27.43439093220297
 40
27.77188927600244
 40
28.10938761980204
 40
28.10938761980204
 40
28.10938761980204
 40
28.10938761980204
 10
98.96977818843229
 20
337.5796880068725
 30
0.0
 10
98.95309869043246
 20
337.4670997729596
 30
0.0
 10
98.91974414931369
 20
337.2419533760134
 30
0.0
 10
98.82038394178429
 20
336.9110996275442
 30
0.0
 10
98.68748520312515
 20
336.5892953344031
 30
0.0
 10
98.51620751239926
 20
336.2764980546226
 30
0.0
 10
98.31188004596999
 20
335.9784249857846
 30
0.0
 10
98.0725090832063
 20
335.6935401131132
 30
0.0
 10
97.80393051565171
 20
335.4278250193313
 30
0.0
 10
97.50397853271814
 20
335.1793964122096
 30
0.0
 10
97.17947805134679
 20
334.953635020436
 30
0.0
 10
96.82825897806113
 20
334.7489690657644
 30
0.0
 10
96.45758084289223
 20
334.5696410206735
 30
0.0
 10
96.06583754877082
 20
334.4146961126359
 30
0.0
 10
95.66000692555681
 20
334.2870278175242
 30
0.0
 10
95.23961799925755
 20
334.1862754328939
 30
0.0
 10
94.81070235791918
 20
334.1140668344876
 30
0.0
 10
94.37434837133938
 20
334.0703686283193
 30
0.0
 10
93.93513976521851
 20
334.0558414574338
 30
0.0
 10
93.49593115908708
 20
334.0703686283187
 30
0.0
 10
93.05957717253872
 20
334.1140668344904
 30
0.0
 10
92.63066153108572
 20
334.1862754328837
 30
0.0
 10
92.21027260520651
 20
334.2870278175622
 30
0.0
 10
91.80444198044593
 20
334.4146961124952
 30
0.0
 10
91.4126986919343
 20
334.5696410211814
 30
0.0
 10
91.04202053622456
 20
334.7489690638972
 30
0.0
 10
90.69080153678522
 20
334.9536350271068
 30
0.0
 10
90.36630078607766
 20
335.1793963877408
 30
0.0
 10
90.06634976586118
 20
335.427825106168
 30
0.0
 10
89.79776769294196
 20
335.6935397946745
 30
0.0
 10
89.55840924492696
 20
335.9784261142477
 30
0.0
 10
89.35403614516369
 20
336.2764939071539
 30
0.0
 10
89.18292218162313
 20
336.589310116375
 30
0.0
 10
89.04942334053642
 20
336.9110450282265
 30
0.0
 10
88.95224192602223
 20
337.2421506794747
 30
0.0
 10
88.89432716205452
 20
337.5777751281424
 30
0.0
 10
88.87440631349641
 20
337.9166238112942
 30
0.0
 10
88.89432716205451
 20
338.2554724944459
 30
0.0
 10
88.95224192602223
 20
338.5910969431135
 30
0.0
 10
89.04942334053639
 20
338.9222025943618
 30
0.0
 10
89.18292218162314
 20
339.2439375062132
 30
0.0
 10
89.35403614516372
 20
339.5567537154342
 30
0.0
 10
89.55840924492705
 20
339.8548215083403
 30
0.0
 10
89.79776769294196
 20
340.1397078279138
 30
0.0
 10
90.06634976586108
 20
340.4054225164202
 30
0.0
 10
90.36630078607773
 20
340.6538512348474
 30
0.0
 10
90.6908015367851
 20
340.8796125954813
 30
0.0
 10
91.04202053622461
 20
341.0842785586909
 30
0.0
 10
91.41269869193425
 20
341.2636066014067
 30
0.0
 10
91.80444198044589
 20
341.4185515100929
 30
0.0
 10
92.21027260520653
 20
341.546219805026
 30
0.0
 10
92.63066153108566
 20
341.6469721897048
 30
0.0
 10
93.05957717253861
 20
341.7191807880976
 30
0.0
 10
93.49593115908748
 20
341.7628789942698
 30
0.0
 10
93.93513976521686
 20
341.7774061651542
 30
0.0
 10
94.37434837134543
 20
341.7628789942698
 30
0.0
 10
94.8107023578966
 20
341.7191807880977
 30
0.0
 10
95.23961799934133
 20
341.6469721897055
 30
0.0
 10
95.6600069252505
 20
341.5462198050233
 30
0.0
 10
96.06583754990076
 20
341.418551510103
 30
0.0
 10
96.4575808388129
 20
341.2636066013704
 30
0.0
 10
96.82825899305571
 20
341.0842785588242
 30
0.0
 10
97.17947799776893
 20
340.879612595005
 30
0.0
 10
97.50397872924143
 20
340.6538512365947
 30
0.0
 10
97.80392981821154
 20
340.4054225102188
 30
0.0
 10
98.07251164079112
 20
340.1397078506553
 30
0.0
 10
98.31187098256106
 20
339.8548214277498
 30
0.0
 10
98.51624082336771
 20
339.5567540116304
 30
0.0
 10
98.68736647967228
 20
339.2439364505419
 30
0.0
 10
98.82082246375857
 20
338.9222064936344
 30
0.0
 10
98.91815947926509
 20
338.5910828524613
 30
0.0
 10
98.97549895995982
 20
338.2555249155981
 30
0.0
 10
98.99754574996742
 20
337.9164304401406
 30
0.0
 10
98.97903404227733
 20
337.6919354846285
 30
0.0
 10
98.96977818843229
 20
337.5796880068724
 30
0.0
 11
98.96977818843229
 21
337.5796880068725
 31
0.0
 11
98.911677000788
 21
337.2436036965987
 31
0.0
 11
98.81610333291442
 21
336.9162935160983
 31
0.0
 11
98.68167663788636
 21
336.591991103612
 31
0.0
 11
98.51372502463087
 21
336.2838819108104
 31
0.0
 11
98.30709738626644
 21
335.9820033813371
 31
0.0
 11
98.07224359119621
 21
335.7017320617625
 31
0.0
 11
97.80011514366598
 21
335.4319851759779
 31
0.0
 11
97.50538708292052
 21
335.1873569653471
 31
0.0
 11
97.17657120104214
 21
334.9581417499711
 31
0.0
 11
96.83051331676668
 21
334.7561202776134
 31
0.0
 11
96.45549740566989
 21
334.5743390707203
 31
0.0
 11
96.06811537263016
 21
334.4208833543456
 31
0.0
 11
95.65866682279588
 21
334.291823643304
 31
0.0
 11
95.24126201501474
 21
334.1916576649566
 31
0.0
 11
94.81004733370932
 21
334.1189069087118
 31
0.0
 11
94.37494342910453
 21
334.0753017173489
 31
0.0
 11
93.93513976521675
 21
334.0606940029413
 31
0.0
 11
93.49533610132895
 21
334.0753017173489
 31
0.0
 11
93.06023219672416
 21
334.1189069087118
 31
0.0
 11
92.62901751541874
 21
334.1916576649566
 31
0.0
 11
92.21161270763761
 21
334.291823643304
 31
0.0
 11
91.80216415780333
 21
334.4208833543456
 31
0.0
 11
91.41478212476362
 21
334.5743390707203
 31
0.0
 11
91.03976621366681
 21
334.7561202776133
 31
0.0
 11
90.69370832939133
 21
334.958141749971
 31
0.0
 11
90.36489244751293
 21
335.187356965347
 31
0.0
 11
90.07016438676749
 21
335.431985175978
 31
0.0
 11
89.79803593923725
 21
335.7017320617625
 31
0.0
 11
89.56318214416704
 21
335.982003381337
 31
0.0
 11
89.35655450580262
 21
336.2838819108104
 31
0.0
 11
89.18860289254711
 21
336.591991103612
 31
0.0
 11
89.05417619751904
 21
336.9162935160983
 31
0.0
 11
88.95860252964545
 21
337.2436036965987
 31
0.0
 11
88.90050134200118
 21
337.5796880068725
 31
0.0
 11
88.88102325774862
 21
337.9166238112942
 31
0.0
 11
88.90050134200118
 21
338.2535596157159
 31
0.0
 11
88.95860252964545
 21
338.5896439259896
 31
0.0
 11
89.05417619751904
 21
338.9169541064899
 31
0.0
 11
89.1886028925471
 21
339.2412565189762
 31
0.0
 11
89.35655450580262
 21
339.5493657117778
 31
0.0
 11
89.56318214416707
 21
339.8512442412511
 31
0.0
 11
89.79803593923727
 21
340.1315155608256
 31
0.0
 11
90.07016438676746
 21
340.4012624466103
 31
0.0
 11
90.36489244751292
 21
340.6458906572411
 31
0.0
 11
90.6937083293913
 21
340.8751058726172
 31
0.0
 11
91.03976621366678
 21
341.0771273449748
 31
0.0
 11
91.41478212476362
 21
341.2589085518678
 31
0.0
 11
91.80216415780332
 21
341.4123642682426
 31
0.0
 11
92.21161270763756
 21
341.5414239792842
 31
0.0
 11
92.62901751541868
 21
341.6415899576317
 31
0.0
 11
93.06023219672412
 21
341.7143407138764
 31
0.0
 11
93.49533610132893
 21
341.7579459052394
 31
0.0
 11
93.93513976521673
 21
341.7725536196469
 31
0.0
 11
94.37494342910452
 21
341.7579459052394
 31
0.0
 11
94.81004733370932
 21
341.7143407138765
 31
0.0
 11
95.24126201501474
 21
341.6415899576317
 31
0.0
 11
95.65866682279591
 21
341.5414239792842
 31
0.0
 11
96.06811537263019
 21
341.4123642682426
 31
0.0
 11
96.4554974056699
 21
341.2589085518678
 31
0.0
 11
96.83051331676668
 21
341.0771273449749
 31
0.0
 11
97.17657120104215
 21
340.8751058726172
 31
0.0
 11
97.50538708292055
 21
340.6458906572411
 31
0.0
 11
97.80011514366601
 21
340.4012624466102
 31
0.0
 11
98.07224359119621
 21
340.1315155608256
 31
0.0
 11
98.30709738626639
 21
339.851244241251
 31
0.0
 11
98.51372502463083
 21
339.5493657117778
 31
0.0
 11
98.68167663788634
 21
339.2412565189762
 31
0.0
 11
98.81610333291442
 21
338.9169541064899
 31
0.0
 11
98.91167700078802
 21
338.5896439259894
 31
0.0
 11
98.9697781884323
 21
338.2535596157157
 31
0.0
 11
98.98925627268484
 21
337.9166238112941
 31
0.0
 11
98.96977818843229
 21
337.5796880068724
 31
0.0
  0
SPLINE
  5
13D
330
4D
100
AcDbEntity
  8
1
  6
Continuous
 62
     7
100
AcDbSpline
210
0.0
220
0.0
230
1.0
 70
     8
 71
     3
 72
    65
 73
    61
 74
    59
 42
0.0000000001
 43
0.0000000001
 44
0.00000001
 40
0.0
 40
0.0
 40
0.0
 40
0.0
 40
0.155807104651114
 40
0.3117725454281475
 40
0.7518187340144378
 40
1.191864922600758
 40
1.629148378171775
 40
2.066456935036963
 40
2.49571210015102
 40
2.92501912778456
 40
3.34168865680013
 40
3.758439590518607
 40
4.159149878086579
 40
4.559973404261563
 40
4.942997674024243
 40
5.326165097412141
 40
5.691826576973393
 40
6.05764842909961
 40
6.408560126088982
 40
6.75961936764323
 40
7.100597783749056
 40
7.441667295165505
 40
7.779165638965039
 40
8.116663982764573
 40
8.457733494180966
 40
8.798711910286738
 40
9.149771151840927
 40
9.500682848830307
 40
9.866504700956492
 40
10.23216618051774
 40
10.61533360390564
 40
10.99835787366834
 40
11.39918139984331
 40
11.79989168741119
 40
12.21664262112972
 40
12.63331215014532
 40
13.06261917777882
 40
13.49187434289288
 40
13.9291828997581
 40
14.36646635532914
 40
14.80651254391546
 40
15.24655873250176
 40
15.68384218807279
 40
16.12115074493799
 40
16.55040591005209
 40
16.97971293768563
 40
17.39638246670122
 40
17.81313340041967
 40
18.21384368798757
 40
18.61466721416262
 40
18.99769148392535
 40
19.38085890731319
 40
19.74652038687442
 40
20.1123422390006
 40
20.46325393598993
 40
20.81431317754418
 40
21.15529159365012
 40
21.49636110506651
 40
21.51945992593868
 40
21.54253937579912
 40
21.54253937579912
 40
21.54253937579912
 40
21.54253937579912
 10
94.68542540203609
 20
280.6727277406581
 30
0.0
 10
94.63378522832028
 20
280.6782868297901
 30
0.0
 10
94.53045240250479
 20
280.6894106573771
 30
0.0
 10
94.28056199191759
 20
280.7086940260985
 30
0.0
 10
93.93513825902627
 20
280.7203390988752
 30
0.0
 10
93.49593155986757
 20
280.7057368808298
 30
0.0
 10
93.05957706536226
 20
280.662058664837
 30
0.0
 10
92.63066155921803
 20
280.5898447414915
 30
0.0
 10
92.21027259771932
 20
280.4890937585861
 30
0.0
 10
91.80444198238673
 20
280.3614250926212
 30
0.0
 10
91.41269869142008
 20
280.2064802805524
 30
0.0
 10
91.04202053635648
 20
280.0271522124069
 30
0.0
 10
90.69080153675039
 20
279.8224862557597
 30
0.0
 10
90.36630078608656
 20
279.596724893406
 30
0.0
 10
90.06634976585882
 20
279.3482961754202
 30
0.0
 10
89.7977676929425
 20
279.0825814867981
 30
0.0
 10
89.55840924492688
 20
278.7976951672544
 30
0.0
 10
89.35403614516375
 20
278.4996273743404
 30
0.0
 10
89.1829221816231
 20
278.1868111651214
 30
0.0
 10
89.04942334053642
 20
277.8650762532695
 30
0.0
 10
88.95224192602221
 20
277.5339706020212
 30
0.0
 10
88.89432716205454
 20
277.1983461533536
 30
0.0
 10
88.87440631349639
 20
276.8594974702018
 30
0.0
 10
88.89432716205454
 20
276.5206487870502
 30
0.0
 10
88.95224192602224
 20
276.1850243383825
 30
0.0
 10
89.04942334053641
 20
275.8539186871341
 30
0.0
 10
89.1829221816231
 20
275.5321837752829
 30
0.0
 10
89.35403614516372
 20
275.2193675660619
 30
0.0
 10
89.55840924492705
 20
274.9212997731556
 30
0.0
 10
89.79776769294197
 20
274.6364134535823
 30
0.0
 10
90.06634976586111
 20
274.3706987650756
 30
0.0
 10
90.3663007860777
 20
274.1222700466486
 30
0.0
 10
90.69080153678509
 20
273.8965086860146
 30
0.0
 10
91.04202053622461
 20
273.6918427228052
 30
0.0
 10
91.41269869193431
 20
273.5125146800893
 30
0.0
 10
91.80444198044586
 20
273.357569771403
 30
0.0
 10
92.21027260520653
 20
273.2299014764701
 30
0.0
 10
92.63066153108565
 20
273.1291490917911
 30
0.0
 10
93.05957717253862
 20
273.0569404933983
 30
0.0
 10
93.49593115908751
 20
273.0132422872263
 30
0.0
 10
93.93513976521676
 20
272.9987151163416
 30
0.0
 10
94.37434837134578
 20
273.0132422872264
 30
0.0
 10
94.81070235789539
 20
273.0569404933978
 30
0.0
 10
95.23961799934565
 20
273.1291490917931
 30
0.0
 10
95.6600069252348
 20
273.2299014764634
 30
0.0
 10
96.06583754995873
 20
273.3575697714275
 30
0.0
 10
96.45758083860342
 20
273.5125146800006
 30
0.0
 10
96.82825899382593
 20
273.691842723131
 30
0.0
 10
97.17947799501668
 20
273.8965086848501
 30
0.0
 10
97.5039787393369
 20
274.12227005092
 30
0.0
 10
97.80392978238366
 20
274.370698749917
 30
0.0
 10
98.07251177217552
 20
274.6364135091711
 30
0.0
 10
98.31187051696932
 20
274.9212995761637
 30
0.0
 10
98.51624253456842
 20
275.219368290071
 30
0.0
 10
98.68736038079064
 20
275.5321811948453
 30
0.0
 10
98.82084499084621
 20
275.8539282183469
 30
0.0
 10
98.91807807399209
 20
276.1849898958045
 30
0.0
 10
98.9580014262516
 20
276.417229605828
 30
0.0
 10
98.97237879883626
 20
276.5455072329191
 30
0.0
 10
98.97394304765473
 20
276.5608204688982
 30
0.0
 10
98.97472484397588
 20
276.5684738750645
 30
0.0
 11
94.68542540203609
 21
280.6727277406581
 31
0.0
 11
94.53043132916255
 21
280.6886240054344
 31
0.0
 11
94.37494342910452
 21
280.7008195641471
 31
0.0
 11
93.93513976521675
 21
280.7154272785547
 31
0.0
 11
93.49533610132895
 21
280.7008195641471
 31
0.0
 11
93.06023219672416
 21
280.6572143727842
 31
0.0
 11
92.62901751541874
 21
280.5844636165394
 31
0.0
 11
92.21161270763761
 21
280.484297638192
 31
0.0
 11
91.80216415780333
 21
280.3552379271504
 31
0.0
 11
91.41478212476362
 21
280.2017822107757
 31
0.0
 11
91.03976621366681
 21
280.0200010038827
 31
0.0
 11
90.69370832939133
 21
279.817979531525
 31
0.0
 11
90.36489244751293
 21
279.588764316149
 31
0.0
 11
90.07016438676749
 21
279.3441361055181
 31
0.0
 11
89.79803593923725
 21
279.0743892197335
 31
0.0
 11
89.56318214416704
 21
278.7941179001589
 31
0.0
 11
89.35655450580262
 21
278.4922393706856
 31
0.0
 11
89.18860289254711
 21
278.184130177884
 31
0.0
 11
89.05417619751904
 21
277.8598277653977
 31
0.0
 11
88.95860252964545
 21
277.5325175848972
 31
0.0
 11
88.90050134200118
 21
277.1964332746235
 31
0.0
 11
88.88102325774862
 21
276.8594974702018
 31
0.0
 11
88.90050134200118
 21
276.5225616657801
 31
0.0
 11
88.95860252964545
 21
276.1864773555064
 31
0.0
 11
89.05417619751904
 21
275.8591671750061
 31
0.0
 11
89.1886028925471
 21
275.5348647625198
 31
0.0
 11
89.35655450580262
 21
275.2267555697182
 31
0.0
 11
89.56318214416707
 21
274.9248770402449
 31
0.0
 11
89.79803593923727
 21
274.6446057206704
 31
0.0
 11
90.07016438676746
 21
274.3748588348857
 31
0.0
 11
90.36489244751292
 21
274.1302306242548
 31
0.0
 11
90.6937083293913
 21
273.9010154088788
 31
0.0
 11
91.03976621366678
 21
273.6989939365212
 31
0.0
 11
91.41478212476362
 21
273.5172127296282
 31
0.0
 11
91.80216415780332
 21
273.3637570132534
 31
0.0
 11
92.21161270763756
 21
273.2346973022118
 31
0.0
 11
92.62901751541868
 21
273.1345313238643
 31
0.0
 11
93.06023219672412
 21
273.0617805676195
 31
0.0
 11
93.49533610132893
 21
273.0181753762566
 31
0.0
 11
93.93513976521673
 21
273.0035676618491
 31
0.0
 11
94.37494342910452
 21
273.0181753762566
 31
0.0
 11
94.81004733370932
 21
273.0617805676196
 31
0.0
 11
95.24126201501474
 21
273.1345313238643
 31
0.0
 11
95.65866682279591
 21
273.2346973022118
 31
0.0
 11
96.06811537263019
 21
273.3637570132534
 31
0.0
 11
96.4554974056699
 21
273.5172127296282
 31
0.0
 11
96.83051331676668
 21
273.6989939365211
 31
0.0
 11
97.17657120104215
 21
273.9010154088787
 31
0.0
 11
97.50538708292055
 21
274.1302306242549
 31
0.0
 11
97.80011514366601
 21
274.3748588348858
 31
0.0
 11
98.07224359119621
 21
274.6446057206704
 31
0.0
 11
98.30709738626639
 21
274.9248770402449
 31
0.0
 11
98.51372502463083
 21
275.2267555697182
 31
0.0
 11
98.68167663788634
 21
275.5348647625197
 31
0.0
 11
98.81610333291442
 21
275.8591671750061
 31
0.0
 11
98.91167700078803
 21
276.1864773555066
 31
0.0
 11
98.9697781884323
 21
276.5225616657803
 31
0.0
 11
98.97234193283163
 21
276.5455177704224
 31
0.0
 11
98.97472484397588
 21
276.5684738750645
 31
0.0
  0
SPLINE
  5
13E
330
4D
100
AcDbEntity
  8
1
  6
Continuous
 62
     7
100
AcDbSpline
210
0.0
220
0.0
230
1.0
 70
     8
 71
     3
 72
    65
 73
    61
 74
    59
 42
0.0000000001
 43
0.0000000001
 44
0.00000001
 40
0.0
 40
0.0
 40
0.0
 40
0.0
 40
0.1558071046521376
 40
0.3117725454302001
 40
0.7518187340165066
 40
1.191864922602827
 40
1.629148378173858
 40
2.066456935039073
 40
2.495712100153117
 40
2.92501912778663
 40
3.3416886568022
 40
3.758439590520716
 40
4.159149878088663
 40
4.559973404263659
 40
4.942997674026339
 40
5.326165097414217
 40
5.691826576975469
 40
6.057648429101701
 40
6.408560126091081
 40
6.759619367645328
 40
7.100597783751151
 40
7.4416672951676
 40
7.779165638967133
 40
8.116663982766667
 40
8.457733494183058
 40
8.79871191028883
 40
9.149771151843025
 40
9.500682848832398
 40
9.866504700958574
 40
10.23216618051984
 40
10.61533360390777
 40
10.99835787367045
 40
11.39918139984543
 40
11.7998916874133
 40
12.2166426211318
 40
12.63331215014739
 40
13.0626191777809
 40
13.49187434289496
 40
13.92918289976023
 40
14.36646635533127
 40
14.80651254391758
 40
15.24655873250387
 40
15.68384218807486
 40
16.12115074494009
 40
16.55040591005414
 40
16.97971293768771
 40
17.39638246670333
 40
17.81313340042179
 40
18.21384368798968
 40
18.61466721416474
 40
18.99769148392749
 40
19.38085890731531
 40
19.74652038687653
 40
20.11234223900272
 40
20.46325393599204
 40
20.81431317754629
 40
21.15529159365222
 40
21.49636110506867
 40
21.51945992594336
 40
21.54253937580637
 40
21.54253937580637
 40
21.54253937580637
 40
21.54253937580637
 10
106.1845789433854
 20
280.6727277406579
 30
0.0
 10
106.2362191171016
 20
280.67828682979
 30
0.0
 10
106.3395519429177
 20
280.6894106573769
 30
0.0
 10
106.5894423535056
 20
280.7086940260984
 30
0.0
 10
106.9348660863973
 20
280.7203390988753
 30
0.0
 10
107.374072785556
 20
280.7057368808297
 30
0.0
 10
107.8104272800613
 20
280.6620586648372
 30
0.0
 10
108.2393427862056
 20
280.5898447414913
 30
0.0
 10
108.6597317477043
 20
280.4890937585862
 30
0.0
 10
109.0655623630368
 20
280.3614250926211
 30
0.0
 10
109.4573056540035
 20
280.2064802805523
 30
0.0
 10
109.8279838090671
 20
280.027152212407
 30
0.0
 10
110.1792028086732
 20
279.8224862557597
 30
0.0
 10
110.503703559337
 20
279.596724893406
 30
0.0
 10
110.8036545795648
 20
279.3482961754202
 30
0.0
 10
111.072236652481
 20
279.0825814867981
 30
0.0
 10
111.3115951004967
 20
278.7976951672544
 30
0.0
 10
111.5159682002598
 20
278.4996273743403
 30
0.0
 10
111.6870821638005
 20
278.1868111651215
 30
0.0
 10
111.8205810048872
 20
277.8650762532693
 30
0.0
 10
111.9177624194014
 20
277.5339706020213
 30
0.0
 10
111.9756771833691
 20
277.1983461533535
 30
0.0
 10
111.9955980319272
 20
276.8594974702019
 30
0.0
 10
111.9756771833691
 20
276.5206487870501
 30
0.0
 10
111.9177624194014
 20
276.1850243383825
 30
0.0
 10
111.8205810048872
 20
275.8539186871342
 30
0.0
 10
111.6870821638005
 20
275.5321837752828
 30
0.0
 10
111.5159682002599
 20
275.2193675660618
 30
0.0
 10
111.3115951004966
 20
274.9212997731556
 30
0.0
 10
111.0722366524816
 20
274.6364134535822
 30
0.0
 10
110.8036545795625
 20
274.3706987650757
 30
0.0
 10
110.5037035593458
 20
274.1222700466486
 30
0.0
 10
110.1792028086385
 20
273.8965086860146
 30
0.0
 10
109.8279838091989
 20
273.6918427228052
 30
0.0
 10
109.4573056534893
 20
273.5125146800894
 30
0.0
 10
109.0655623649777
 20
273.357569771403
 30
0.0
 10
108.6597317402171
 20
273.2299014764701
 30
0.0
 10
108.2393428143379
 20
273.1291490917913
 30
0.0
 10
107.810427172885
 20
273.0569404933982
 30
0.0
 10
107.374073186336
 20
273.0132422872263
 30
0.0
 10
106.9348645802068
 20
272.9987151163417
 30
0.0
 10
106.4956559740778
 20
273.0132422872264
 30
0.0
 10
106.0593019875282
 20
273.0569404933978
 30
0.0
 10
105.630386346078
 20
273.129149091793
 30
0.0
 10
105.2099974201888
 20
273.2299014764634
 30
0.0
 10
104.8041667954648
 20
273.3575697714276
 30
0.0
 10
104.4124235068202
 20
273.5125146800006
 30
0.0
 10
104.0417453515976
 20
273.691842723131
 30
0.0
 10
103.6905263504069
 20
273.89650868485
 30
0.0
 10
103.3660256060866
 20
274.1222700509201
 30
0.0
 10
103.0660745630399
 20
274.370698749917
 30
0.0
 10
102.797492573248
 20
274.636413509171
 30
0.0
 10
102.5581338284543
 20
274.9212995761638
 30
0.0
 10
102.3537618108551
 20
275.2193682900709
 30
0.0
 10
102.1826439646329
 20
275.5321811948455
 30
0.0
 10
102.0491593545774
 20
275.8539282183469
 30
0.0
 10
101.9519262714314
 20
276.1849898958046
 30
0.0
 10
101.9120029191721
 20
276.4172296058287
 30
0.0
 10
101.897625546587
 20
276.5455072329218
 30
0.0
 10
101.8960612977684
 20
276.5608204689024
 30
0.0
 10
101.8952795014472
 20
276.5684738750696
 30
0.0
 11
106.1845789433854
 21
280.6727277406579
 31
0.0
 11
106.33957301626
 21
280.6886240054342
 31
0.0
 11
106.495060916319
 21
280.7008195641471
 31
0.0
 11
106.9348645802068
 21
280.7154272785547
 31
0.0
 11
107.3746682440946
 21
280.7008195641471
 31
0.0
 11
107.8097721486994
 21
280.6572143727842
 31
0.0
 11
108.2409868300049
 21
280.5844636165394
 31
0.0
 11
108.658391637786
 21
280.484297638192
 31
0.0
 11
109.0678401876202
 21
280.3552379271504
 31
0.0
 11
109.4552222206599
 21
280.2017822107757
 31
0.0
 11
109.8302381317568
 21
280.0200010038827
 31
0.0
 11
110.1762960160322
 21
279.817979531525
 31
0.0
 11
110.5051118979107
 21
279.588764316149
 31
0.0
 11
110.7998399586561
 21
279.3441361055181
 31
0.0
 11
111.0719684061863
 21
279.0743892197335
 31
0.0
 11
111.3068222012565
 21
278.7941179001589
 31
0.0
 11
111.513449839621
 21
278.4922393706856
 31
0.0
 11
111.6814014528765
 21
278.184130177884
 31
0.0
 11
111.8158281479046
 21
277.8598277653977
 31
0.0
 11
111.9114018157781
 21
277.5325175848972
 31
0.0
 11
111.9695030034224
 21
277.1964332746235
 31
0.0
 11
111.988981087675
 21
276.8594974702018
 31
0.0
 11
111.9695030034224
 21
276.5225616657801
 31
0.0
 11
111.9114018157782
 21
276.1864773555064
 31
0.0
 11
111.8158281479046
 21
275.8591671750061
 31
0.0
 11
111.6814014528765
 21
275.5348647625198
 31
0.0
 11
111.513449839621
 21
275.2267555697182
 31
0.0
 11
111.3068222012565
 21
274.9248770402449
 31
0.0
 11
111.0719684061863
 21
274.6446057206704
 31
0.0
 11
110.7998399586561
 21
274.3748588348857
 31
0.0
 11
110.5051118979106
 21
274.1302306242548
 31
0.0
 11
110.1762960160323
 21
273.9010154088788
 31
0.0
 11
109.8302381317568
 21
273.6989939365212
 31
0.0
 11
109.45522222066
 21
273.5172127296282
 31
0.0
 11
109.0678401876203
 21
273.3637570132534
 31
0.0
 11
108.658391637786
 21
273.2346973022118
 31
0.0
 11
108.2409868300049
 21
273.1345313238643
 31
0.0
 11
107.8097721486994
 21
273.0617805676195
 31
0.0
 11
107.3746682440946
 21
273.0181753762566
 31
0.0
 11
106.9348645802068
 21
273.0035676618491
 31
0.0
 11
106.4950609163191
 21
273.0181753762566
 31
0.0
 11
106.0599570117143
 21
273.0617805676196
 31
0.0
 11
105.6287423304088
 21
273.1345313238643
 31
0.0
 11
105.2113375226277
 21
273.2346973022118
 31
0.0
 11
104.8018889727934
 21
273.3637570132534
 31
0.0
 11
104.4145069397537
 21
273.5172127296282
 31
0.0
 11
104.0394910286569
 21
273.6989939365211
 31
0.0
 11
103.6934331443814
 21
273.9010154088787
 31
0.0
 11
103.364617262503
 21
274.1302306242549
 31
0.0
 11
103.0698892017575
 21
274.3748588348858
 31
0.0
 11
102.7977607542273
 21
274.6446057206704
 31
0.0
 11
102.5629069591572
 21
274.9248770402449
 31
0.0
 11
102.3562793207927
 21
275.2267555697182
 31
0.0
 11
102.1883277075372
 21
275.5348647625197
 31
0.0
 11
102.0539010125092
 21
275.8591671750061
 31
0.0
 11
101.9583273446356
 21
276.1864773555066
 31
0.0
 11
101.9002261569913
 21
276.5225616657804
 31
0.0
 11
101.8976624125917
 21
276.545517770425
 31
0.0
 11
101.8952795014472
 21
276.5684738750696
 31
0.0
  0
SPLINE
  5
13F
330
4D
100
AcDbEntity
  8
1
  6
Continuous
 62
     7
100
AcDbSpline
210
0.0
220
0.0
230
1.0
 70
    11
 71
     3
 72
    81
 73
    77
 74
    75
 42
0.0000000001
 43
0.0000000001
 44
0.00000001
 40
0.0
 40
0.0
 40
0.0
 40
0.0
 40
0.3977539103296541
 40
0.7954208205176475
 40
1.204283537142857
 40
1.61298256324352
 40
2.038259758201952
 40
2.463359887454642
 40
2.907961718941863
 40
3.352403558792191
 40
3.816709040286032
 40
4.280886896650401
 40
4.762992789734152
 40
5.245006293661886
 40
5.741160418136512
 40
6.237255395822206
 40
6.742368488136404
 40
7.247452871294385
 40
7.755632102702832
 40
8.263811334111892
 40
8.76889571726799
 40
9.274008809566416
 40
9.7701037872733
 40
10.26625791190774
 40
10.74827141565233
 40
11.23037730745123
 40
11.69455516518307
 40
12.15886065590378
 40
12.60330248634763
 40
13.04790425605547
 40
13.47300444682094
 40
13.89828203583258
 40
14.30698067260286
 40
14.71584096375672
 40
15.11351028322727
 40
15.51127872094587
 40
15.90508653809117
 40
16.29889435523645
 40
16.69666279295512
 40
17.0943321124257
 40
17.50319240357942
 40
17.91189104034912
 40
18.33716862936133
 40
18.76226882012969
 40
19.20687058983478
 40
19.65131242026474
 40
20.11561791099836
 40
20.57979576879243
 40
21.06190166053726
 40
21.54391516404321
 40
22.04006928885438
 40
22.53616426715812
 40
23.04120929428904
 40
23.54622530713601
 40
24.05440422783612
 40
24.56258376995367
 40
25.06773652349363
 40
25.57291768088044
 40
26.06901265797075
 40
26.56516678227556
 40
27.04718028643568
 40
27.52928617953878
 40
27.99346403587114
 40
28.45776951751834
 40
28.90221135724387
 40
29.34681318799748
 40
29.77191331782946
 40
30.19719051564725
 40
30.60588953970325
 40
31.01475224814592
 40
31.41236695674096
 40
31.81006798337947
 40
32.00737086505161
 40
32.20405032474481
 40
32.40078213291975
 40
32.59813786235944
 40
32.59813786235944
 40
32.59813786235944
 40
32.59813786235944
 10
187.8958272594132
 20
159.2009083486324
 30
0.0
 10
187.764501497832
 20
159.1816536542341
 30
0.0
 10
187.5018786993649
 20
159.1431484769893
 30
0.0
 10
187.1158852291038
 20
159.0284795949079
 30
0.0
 10
186.7403514014615
 20
158.8750438866622
 30
0.0
 10
186.3753860231406
 20
158.6773424423521
 30
0.0
 10
186.0274779893823
 20
158.4414025642677
 30
0.0
 10
185.6950444768814
 20
158.1650557046462
 30
0.0
 10
185.384865600261
 20
157.8548819625801
 30
0.0
 10
185.0949493767603
 20
157.5085506315691
 30
0.0
 10
184.8313984905667
 20
157.1337657440105
 30
0.0
 10
184.5925424971754
 20
156.728204359884
 30
0.0
 10
184.3832004954418
 20
156.3000764057451
 30
0.0
 10
184.2023695256955
 20
155.8476941189195
 30
0.0
 10
184.0533417880832
 20
155.3789697923378
 30
0.0
 10
183.9357612857222
 20
154.8934878169841
 30
0.0
 10
183.8514811322975
 20
154.3981131405396
 30
0.0
 10
183.8004956806581
 20
153.8941781648171
 30
0.0
 10
183.7835516470822
 20
153.3869318295023
 30
0.0
 10
183.8005322735259
 20
152.8796867178438
 30
0.0
 10
183.8515540790429
 20
152.3757554215805
 30
0.0
 10
183.9358699685681
 20
151.8803868262672
 30
0.0
 10
184.0534854934783
 20
151.3949133348758
 30
0.0
 10
184.2025470450967
 20
150.9261997588577
 30
0.0
 10
184.3834106499857
 20
150.4738305253053
 30
0.0
 10
184.5927835302958
 20
150.0457176492613
 30
0.0
 10
184.8316687914617
 20
149.6401735785452
 30
0.0
 10
185.0952466949626
 20
149.2654074068151
 30
0.0
 10
185.3851880145226
 20
148.9190981124108
 30
0.0
 10
185.6953887384688
 20
148.6089426667112
 30
0.0
 10
186.0278439391549
 20
148.3326340784113
 30
0.0
 10
186.3757632454646
 20
148.0966671350594
 30
0.0
 10
186.7407636712218
 20
147.8991810057132
 30
0.0
 10
187.1162287239837
 20
147.7450790657813
 30
0.0
 10
187.502523004973
 20
147.6329525688163
 30
0.0
 10
187.8941154944681
 20
147.5661115605944
 30
0.0
 10
188.2894280452259
 20
147.543153845938
 30
0.0
 10
188.6847389387794
 20
147.5661400784907
 30
0.0
 10
189.0763266053266
 20
147.6330093361284
 30
0.0
 10
189.4626127964746
 20
147.7451637001772
 30
0.0
 10
189.8380667313029
 20
147.8992927258601
 30
0.0
 10
190.2030529094065
 20
148.0968051859239
 30
0.0
 10
190.5509551920912
 20
148.3327972276568
 30
0.0
 10
190.883390458938
 20
148.609129798644
 30
0.0
 10
191.193568807375
 20
148.9193076214976
 30
0.0
 10
191.4834851433129
 20
149.2656378314695
 30
0.0
 10
191.747036010377
 20
149.6404230168176
 30
0.0
 10
191.9858920151226
 20
150.0459843196454
 30
0.0
 10
192.1952340104415
 20
150.4741122986146
 30
0.0
 10
192.3760649805892
 20
150.9264945794749
 30
0.0
 10
192.5250927142924
 20
151.3952189061413
 30
0.0
 10
192.6426678961129
 20
151.8806788166788
 30
0.0
 10
192.7269426689611
 20
152.3760081259733
 30
0.0
 10
192.7779304301169
 20
152.879896908785
 30
0.0
 10
192.7948828635983
 20
153.3871201559811
 30
0.0
 10
192.7779106361982
 20
153.8943883562563
 30
0.0
 10
192.7268911381058
 20
154.3983658456204
 30
0.0
 10
192.6425698651493
 20
154.8937798079125
 30
0.0
 10
192.52494901806
 20
155.3792753632323
 30
0.0
 10
192.375887462722
 20
155.8479889409145
 30
0.0
 10
192.1950238575719
 20
156.3003581740809
 30
0.0
 10
191.9856509732687
 20
156.7284710485146
 30
0.0
 10
191.7467657145924
 20
157.1340151169157
 30
0.0
 10
191.4831878243684
 20
157.5087812963487
 30
0.0
 10
191.1932465020812
 20
157.855090618493
 30
0.0
 10
190.8830456693925
 20
158.1652459666301
 30
0.0
 10
190.5505907184071
 20
158.441554593356
 30
0.0
 10
190.2026711548866
 20
158.6775213942772
 30
0.0
 10
189.8376718033038
 20
158.8750095650414
 30
0.0
 10
189.4622153348043
 20
159.0290972855057
 30
0.0
 10
189.0759853228896
 20
159.141238116332
 30
0.0
 10
188.7490640654078
 20
159.1969701624198
 30
0.0
 10
188.4860279888286
 20
159.2196887363628
 30
0.0
 10
188.2891080156116
 20
159.2251467508549
 30
0.0
 10
188.0920894873375
 20
159.2201320343635
 30
0.0
 10
187.9613170152546
 20
159.2073230036489
 30
0.0
 10
187.8958272594132
 20
159.2009083486324
 30
0.0
 11
187.8958272594132
 21
159.2009083486324
 31
0.0
 11
187.5037695999178
 21
159.1338340255754
 31
0.0
 11
187.1217273277836
 21
159.0234588754692
 31
0.0
 11
186.7434432656646
 21
158.8683141385527
 31
0.0
 11
186.3837261721692
 21
158.6743076783951
 31
0.0
 11
186.0315998796225
 21
158.4358380437474
 31
0.0
 11
185.7043473886648
 21
158.1645154920627
 31
0.0
 11
185.3896770586597
 21
157.8504241486986
 31
0.0
 11
185.1040427286759
 21
157.5099221978316
 31
0.0
 11
184.8366288837275
 21
157.1303574264484
 31
0.0
 11
184.6007612399879
 21
156.7305730633529
 31
0.0
 11
184.3886675533172
 21
156.2976269232609
 31
0.0
 11
184.2095236194716
 21
155.8501400866556
 31
0.0
 11
184.0589330588308
 21
155.3773913179855
 31
0.0
 11
183.9420181864644
 21
154.8952698192899
 31
0.0
 11
183.8571301671707
 21
154.3973408482432
 31
0.0
 11
183.8062498692838
 21
153.8948257445926
 31
0.0
 11
183.789217258413
 21
153.3869320338599
 31
0.0
 11
183.8062865088501
 21
152.8790395531861
 31
0.0
 11
183.8572030581637
 21
152.3765281213617
 31
0.0
 11
183.9421269978762
 21
151.8786052754559
 31
0.0
 11
184.0590766504047
 21
151.3964922122856
 31
0.0
 11
184.2097013154028
 21
150.923754308489
 31
0.0
 11
184.3888775301157
 21
150.4762803965418
 31
0.0
 11
184.6010024461803
 21
150.0433495580794
 31
0.0
 11
184.8368989325412
 21
149.6435822115751
 31
0.0
 11
185.1043401746717
 21
149.2640367324542
 31
0.0
 11
185.3899990532179
 21
148.9235553882429
 31
0.0
 11
185.7046919539398
 21
148.6094867462828
 31
0.0
 11
186.0319640970908
 21
148.3381878032215
 31
0.0
 11
186.3841080672019
 21
148.0997435706849
 31
0.0
 11
186.7438387136128
 21
147.905763062049
 31
0.0
 11
187.1221313477259
 21
147.7506456205467
 31
0.0
 11
187.5041840876049
 21
147.6402980261048
 31
0.0
 11
187.8962613178246
 21
147.5732519554643
 31
0.0
 11
188.289427769948
 21
147.5507855857212
 31
0.0
 11
188.6825926003183
 21
147.5732803185418
 31
0.0
 11
189.0746649927959
 21
147.6403546735669
 31
0.0
 11
189.456709771175
 21
147.7507298291113
 31
0.0
 11
189.8349912140887
 21
147.9058745603446
 31
0.0
 11
190.1947078657557
 21
148.0998810195434
 31
0.0
 11
190.5468346335188
 21
148.3383506552222
 31
0.0
 11
190.8740872042421
 21
148.6096732070793
 31
0.0
 11
191.1887574471425
 21
148.923764550255
 31
0.0
 11
191.4743917625018
 21
149.264266501094
 31
0.0
 11
191.7418056234494
 21
149.6438312725079
 31
0.0
 11
191.9776732700307
 21
150.0436156355869
 31
0.0
 11
192.1897669536216
 21
150.4765617756967
 31
0.0
 11
192.3689108859901
 21
150.924048612439
 31
0.0
 11
192.5195014481922
 21
151.3967973809649
 31
0.0
 11
192.6364163266331
 21
151.8789188788234
 31
0.0
 11
192.7212951810223
 21
152.3767803650897
 31
0.0
 11
192.7721754599972
 21
152.8792267507303
 31
0.0
 11
192.7892172522646
 21
153.3871198425914
 31
0.0
 11
192.7721571831794
 21
153.8950129426327
 31
0.0
 11
192.7212406118429
 21
154.397593092631
 31
0.0
 11
192.6363075029837
 21
154.8955834226558
 31
0.0
 11
192.5193578565278
 21
155.3776964866648
 31
0.0
 11
192.368733193092
 21
155.8504343906132
 31
0.0
 11
192.1895569769011
 21
156.2979083024161
 31
0.0
 11
191.9774320577493
 21
156.7308391408182
 31
0.0
 11
191.741535574237
 21
157.1306064873785
 31
0.0
 11
191.4740943481472
 21
157.5101519667024
 31
0.0
 11
191.1884354549387
 21
157.8506333107281
 31
0.0
 11
190.8737424668857
 21
158.164701951601
 31
0.0
 11
190.5464704037077
 21
158.4360008956578
 31
0.0
 11
190.1943269100477
 21
158.6744451341218
 31
0.0
 11
189.8345958206604
 21
158.8684256372467
 31
0.0
 11
189.4563005605368
 21
159.0235430460796
 31
0.0
 11
189.0743012994131
 21
159.1338789921358
 31
0.0
 11
188.6822924430243
 21
159.200924969659
 31
0.0
 11
188.4857111738171
 21
159.2177841426231
 31
0.0
 11
188.2891119952594
 21
159.2234031154493
 31
0.0
 11
188.0924605978625
 21
159.2177788599739
 31
0.0
 11
187.8958272594132
 21
159.2009083486324
 31
0.0
  0
SPLINE
  5
140
330
4D
100
AcDbEntity
  8
1
  6
Continuous
 62
     7
100
AcDbSpline
210
0.0
220
0.0
230
1.0
 70
    11
 71
     3
 72
    81
 73
    77
 74
    75
 42
0.0000000001
 43
0.0000000001
 44
0.00000001
 40
0.0
 40
0.0
 40
0.0
 40
0.0
 40
0.2612987312549372
 40
0.5224450441092292
 40
0.7978950708580859
 40
1.073089813497056
 40
1.368851889787471
 40
1.664381554677745
 40
1.983354250388834
 40
2.302148899715244
 40
2.644149876597502
 40
2.986027006488542
 40
3.348372457292807
 40
3.710636961468075
 40
4.088775587148548
 40
4.466865879533131
 40
4.854969898682357
 40
5.243051382681528
 40
5.634551102828755
 40
6.026050822977275
 40
6.414132306972804
 40
6.802236326091278
 40
7.180326618516453
 40
7.558465244507879
 40
7.920729748335273
 40
8.283075196652664
 40
8.62495232910157
 40
8.966953323678567
 40
9.285747955731367
 40
9.604720534424862
 40
9.900250310290886
 40
10.19601312247143
 40
10.47120717011
 40
10.746652727628
 40
11.00780335627862
 40
11.26912861178509
 40
11.52530138902118
 40
11.78147416625721
 40
12.04279942176362
 40
12.30395005041426
 40
12.57939560793229
 40
12.85458965557079
 40
13.15035246775127
 40
13.44588224361731
 40
13.76485482231078
 40
14.08364945436336
 40
14.42565044894056
 40
14.76752758139072
 40
15.12987302970696
 40
15.49213753352952
 40
15.87027615952473
 40
16.24836645196406
 40
16.6364696448699
 40
17.02455030004233
 40
17.41605001751651
 40
17.80754974033811
 40
18.19563205316043
 40
18.5837368985222
 40
18.96182719089266
 40
19.33996581656936
 40
19.70223032074943
 40
20.06457577155458
 40
20.40645290144451
 40
20.74845387832705
 40
21.06724852765337
 40
21.38622122336342
 40
21.68175088825386
 40
21.97751296454
 40
22.25270770718772
 40
22.5281577340214
 40
22.78930351603174
 40
23.05060170599111
 40
23.17905893866259
 40
23.30695012915342
 40
23.43484185223608
 40
23.56329962477812
 40
23.56329962477812
 40
23.56329962477812
 40
23.56329962477812
 10
183.8067290893846
 20
141.8731227859726
 30
0.0
 10
183.8217372318017
 20
141.7871886930941
 30
0.0
 10
183.8517447622225
 20
141.615370633631
 30
0.0
 10
183.9412849202003
 20
141.3637551237105
 30
0.0
 10
184.0601558543227
 20
141.1201214620631
 30
0.0
 10
184.2137961431541
 20
140.882724513058
 30
0.0
 10
184.3959213662222
 20
140.6578909337979
 30
0.0
 10
184.6098939304477
 20
140.4421237318169
 30
0.0
 10
184.8486948672504
 20
140.2420710689627
 30
0.0
 10
185.1162379382225
 20
140.0541617394108
 30
0.0
 10
185.4044523108578
 20
139.884258975438
 30
0.0
 10
185.7173232219326
 20
139.7295641349945
 30
0.0
 10
186.0464925672517
 20
139.5945627133092
 30
0.0
 10
186.3951919358571
 20
139.4774963127273
 30
0.0
 10
186.755659953696
 20
139.3813362233685
 30
0.0
 10
187.129657964899
 20
139.3052300515942
 30
0.0
 10
187.5107715992611
 20
139.2508247915563
 30
0.0
 10
187.8988054061944
 20
139.217807770473
 30
0.0
 10
188.2892205690594
 20
139.2068867587051
 30
0.0
 10
188.6796357071475
 20
139.2178086565755
 30
0.0
 10
189.0676694390973
 20
139.2508265583079
 30
0.0
 10
189.4487829501526
 20
139.305232682963
 30
0.0
 10
189.8227807883059
 20
139.3813397035709
 30
0.0
 10
190.1832485892002
 20
139.4775006124089
 30
0.0
 10
190.531947685059
 20
139.5945678051253
 30
0.0
 10
190.8611167490386
 20
139.7295699626775
 30
0.0
 10
191.173987237841
 20
139.8842655257932
 30
0.0
 10
191.4622014844873
 20
140.054168943767
 30
0.0
 10
191.7297431141253
 20
140.2420789932547
 30
0.0
 10
191.9685472242514
 20
140.4421315522969
 30
0.0
 10
192.1825073158454
 20
140.6579010953724
 30
0.0
 10
192.3646750718962
 20
140.8827297090972
 30
0.0
 10
192.5181616776239
 20
141.1201465408754
 30
0.0
 10
192.6375855876652
 20
141.3637030647737
 30
0.0
 10
192.7251729884762
 20
141.6155961445776
 30
0.0
 10
192.7770534358304
 20
141.8706906996997
 30
0.0
 10
192.7952387526339
 20
142.128733289485
 30
0.0
 10
192.7770528502006
 20
142.3867758379979
 30
0.0
 10
192.7251718239073
 20
142.6418702753761
 30
0.0
 10
192.6375838514231
 20
142.8937631563991
 30
0.0
 10
192.5181593886284
 20
143.1373194092632
 30
0.0
 10
192.3646722440817
 20
143.3747358927016
 30
0.0
 10
192.182503977781
 20
143.5995640929945
 30
0.0
 10
191.9685433964966
 20
143.8153331504852
 30
0.0
 10
191.7297388323503
 20
144.0153851675589
 30
0.0
 10
191.4621967762491
 20
144.2032946098577
 30
0.0
 10
191.1739821440061
 20
144.3731973737263
 30
0.0
 10
190.8611113041235
 20
144.5278922267845
 30
0.0
 10
190.5319419337583
 20
144.6628936372807
 30
0.0
 10
190.1832425722035
 20
144.779960038609
 30
0.0
 10
189.8227745530787
 20
144.8761201292944
 30
0.0
 10
189.4487768122266
 20
144.9522262465833
 30
0.0
 10
189.0676637284456
 20
145.0066314515282
 30
0.0
 10
188.6796304793572
 20
145.0396484960693
 30
0.0
 10
188.2892155953169
 20
145.0505695938125
 30
0.0
 10
187.8988001783973
 20
145.0396477819185
 30
0.0
 10
187.5107658886356
 20
145.0066299036382
 30
0.0
 10
187.1296518268743
 20
144.9522237239046
 30
0.0
 10
186.755653718826
 20
144.8761166487533
 30
0.0
 10
186.3951859175496
 20
144.7799557414518
 30
0.0
 10
186.0464868206153
 20
144.6628885487313
 30
0.0
 10
185.7173177599969
 20
144.5278863827146
 30
0.0
 10
185.4044472765786
 20
144.3731908225904
 30
0.0
 10
185.1162330135827
 20
144.2032874391929
 30
0.0
 10
184.848691332601
 20
144.0153773813696
 30
0.0
 10
184.6098873929094
 20
143.8153246109546
 30
0.0
 10
184.3959273218828
 20
143.5995554149519
 30
0.0
 10
184.2137595338425
 20
143.3747268354097
 30
0.0
 10
184.0602699829849
 20
143.1373106630401
 30
0.0
 10
183.9408568489321
 20
142.8937451050714
 30
0.0
 10
183.8532440234098
 20
142.641887629087
 30
0.0
 10
183.8099514392407
 20
142.4285660922679
 30
0.0
 10
183.7921072010879
 20
142.2568322199142
 30
0.0
 10
183.7878595880048
 20
142.1287360572694
 30
0.0
 10
183.7917699842034
 20
142.0005670597643
 30
0.0
 10
183.8017353860693
 20
141.9156667005211
 30
0.0
 10
183.8067290893846
 20
141.8731227859726
 30
0.0
 11
183.8067290893846
 21
141.8731227859726
 31
0.0
 11
183.8589130664562
 21
141.6170879065275
 31
0.0
 11
183.944027584707
 21
141.3702014640072
 31
0.0
 11
184.065028269173
 21
141.122751364806
 31
0.0
 11
184.2138652370565
 21
140.8912784649508
 31
0.0
 11
184.3996506751354
 21
140.6611502902971
 31
0.0
 11
184.6073397628095
 21
140.4509051341311
 31
0.0
 11
184.8514842882901
 21
140.2456320689544
 31
0.0
 11
185.1121124322016
 21
140.0620483032222
 31
0.0
 11
185.4064721754101
 21
139.8879304989441
 31
0.0
 11
185.7127955898018
 21
139.7361216133743
 31
0.0
 11
186.0478875668929
 21
139.5982535873213
 31
0.0
 11
186.3912484065629
 21
139.4827594109901
 31
0.0
 11
186.7565351438058
 21
139.3850126983806
 31
0.0
 11
187.1270101134545
 21
139.3095106053016
 31
0.0
 11
187.5111933029559
 21
139.2544832795054
 31
0.0
 11
187.8978761834443
 21
139.2215653792048
 31
0.0
 11
188.2892205649176
 21
139.2105378697569
 31
0.0
 11
188.6805649213629
 21
139.2215662674084
 31
0.0
 11
189.0672477271429
 21
139.2544850452457
 31
0.0
 11
189.4514307917584
 21
139.3095132427316
 31
0.0
 11
189.8219055900534
 21
139.3850161768099
 31
0.0
 11
190.1871921054583
 21
139.4827637196436
 31
0.0
 11
190.5305526830125
 21
139.5982586741436
 31
0.0
 11
190.8656443472104
 21
139.7361274541536
 31
0.0
 11
191.1719674170695
 21
139.8879370406874
 31
0.0
 11
191.466326765114
 21
140.0620555477752
 31
0.0
 11
191.7269544923811
 21
140.2456398750072
 31
0.0
 11
191.9710985519999
 21
140.4509133124297
 31
0.0
 11
192.1787871625136
 21
140.6611590959458
 31
0.0
 11
192.3645720782738
 21
140.891288638041
 31
0.0
 11
192.5134085208627
 21
141.1227610493845
 31
0.0
 11
192.6344086439516
 21
141.3702064481473
 31
0.0
 11
192.7195226016955
 21
141.6170976489661
 31
0.0
 11
192.7717059965327
 21
141.8731597165763
 31
0.0
 11
192.7892172534878
 21
142.1287332826521
 31
0.0
 11
192.7717054165064
 21
142.3843068089852
 31
0.0
 11
192.7195214405342
 21
142.640368758164
 31
0.0
 11
192.6344069224689
 21
142.8872597658154
 31
0.0
 11
192.5134062378009
 21
143.1347048899668
 31
0.0
 11
192.3645692698838
 21
143.3661769635241
 31
0.0
 11
192.1787838318433
 21
143.5963060839782
 31
0.0
 11
191.9710947441755
 21
143.8065513961427
 31
0.0
 11
191.7269502186875
 21
144.0118242794776
 31
0.0
 11
191.4663220747748
 21
144.1954080152119
 31
0.0
 11
191.1719623315678
 21
144.3695258542489
 31
0.0
 11
190.8656389171766
 21
144.5213347455829
 31
0.0
 11
190.530546940085
 21
144.6592027650954
 31
0.0
 11
190.1871861004129
 21
144.7746969403145
 31
0.0
 11
189.8218993631721
 21
144.8724436541493
 31
0.0
 11
189.4514243935352
 21
144.9479457475599
 31
0.0
 11
189.0672420252399
 21
145.0029729793159
 31
0.0
 11
188.6805599765514
 21
145.0358908793262
 31
0.0
 11
188.2892156004006
 21
145.0469184827609
 31
0.0
 11
187.8978712386325
 21
145.0358901790963
 31
0.0
 11
187.5111876010526
 21
145.002971400967
 31
0.0
 11
187.1270037152313
 21
144.9479431094391
 31
0.0
 11
186.7565289169245
 21
144.8724401756923
 31
0.0
 11
186.3912424015175
 21
144.7746926340841
 31
0.0
 11
186.0478818239652
 21
144.6591976784721
 31
0.0
 11
185.7127901597683
 21
144.5213288919215
 31
0.0
 11
185.4064670899084
 21
144.3695193111522
 31
0.0
 11
185.112107741861
 21
144.1954008388245
 31
0.0
 11
184.8514800145964
 21
144.0118164815934
 31
0.0
 11
184.6073359549928
 21
143.8065428623219
 31
0.0
 11
184.399647344466
 21
143.5962972348104
 31
0.0
 11
184.2138624286264
 21
143.3661686385527
 31
0.0
 11
184.065025986107
 21
143.1346954008791
 31
0.0
 11
183.9440258634359
 21
142.8872450268719
 31
0.0
 11
183.8589120453845
 21
142.6403589044622
 31
0.0
 11
183.8067286539613
 21
142.3843244580773
 31
0.0
 11
183.7935950688001
 21
142.2565403840836
 31
0.0
 11
183.7892172534891
 21
142.128724143573
 31
0.0
 11
183.7935952472701
 21
142.0009073762711
 31
0.0
 11
183.8067290893846
 21
141.8731227859726
 31
0.0
  0
SPLINE
  5
141
330
4D
100
AcDbEntity
  8
1
  6
Continuous
 62
     7
100
AcDbSpline
210
0.0
220
0.0
230
1.0
 70
    11
 71
     3
 72
    81
 73
    77
 74
    75
 42
0.0000000001
 43
0.0000000001
 44
0.00000001
 40
0.0
 40
0.0
 40
0.0
 40
0.0
 40
0.2612987312549094
 40
0.5224450441092013
 40
0.7978950708581092
 40
1.073089813497055
 40
1.368851889787471
 40
1.664381554677724
 40
1.983354250388777
 40
2.302148899715203
 40
2.644149876597489
 40
2.98602700648853
 40
3.348372457292805
 40
3.710636961468047
 40
4.088775587148519
 40
4.466865879533103
 40
4.854969898682333
 40
5.243051382681506
 40
5.634551102828734
 40
6.026050822977256
 40
6.414132306972791
 40
6.802236326091252
 40
7.180326618516416
 40
7.558465244507849
 40
7.920729748335243
 40
8.283075196652623
 40
8.624952329101529
 40
8.966953323678512
 40
9.285747955731345
 40
9.604720534424859
 40
9.900250310290902
 40
10.1960131224714
 40
10.47120717010992
 40
10.74665272762795
 40
11.00780335627854
 40
11.26912861178504
 40
11.5253013890211
 40
11.78147416625713
 40
12.04279942176357
 40
12.30395005041418
 40
12.57939560793223
 40
12.85458965557076
 40
13.15035246775129
 40
13.4458822436173
 40
13.76485482231074
 40
14.08364945436333
 40
14.42565044894052
 40
14.76752758139068
 40
15.12987302970692
 40
15.49213753352948
 40
15.87027615952469
 40
16.24836645196404
 40
16.63646964486987
 40
17.0245503000423
 40
17.41605001751648
 40
17.80754974033808
 40
18.1956320531604
 40
18.58373689852217
 40
18.96182719089263
 40
19.33996581656933
 40
19.70223032074938
 40
20.06457577155456
 40
20.40645290144448
 40
20.74845387832701
 40
21.06724852765335
 40
21.38622122336338
 40
21.68175088825382
 40
21.97751296453992
 40
22.25270770718764
 40
22.52815773402129
 40
22.78930351603163
 40
23.05060170599106
 40
23.17905893866253
 40
23.3069501291534
 40
23.43484185223605
 40
23.5632996247781
 40
23.5632996247781
 40
23.5632996247781
 40
23.5632996247781
 10
183.8067290893846
 20
164.9010659129837
 30
0.0
 10
183.8217372318016
 20
164.9870000058622
 30
0.0
 10
183.8517447622224
 20
165.1588180653253
 30
0.0
 10
183.9412849202004
 20
165.4104335752459
 30
0.0
 10
184.0601558543226
 20
165.6540672368932
 30
0.0
 10
184.2137961431541
 20
165.8914641858983
 30
0.0
 10
184.3959213662222
 20
166.1162977651584
 30
0.0
 10
184.6098939304477
 20
166.3320649671394
 30
0.0
 10
184.8486948672504
 20
166.5321176299935
 30
0.0
 10
185.1162379382225
 20
166.7200269595454
 30
0.0
 10
185.4044523108578
 20
166.8899297235183
 30
0.0
 10
185.7173232219325
 20
167.0446245639618
 30
0.0
 10
186.0464925672517
 20
167.1796259856472
 30
0.0
 10
186.3951919358572
 20
167.2966923862289
 30
0.0
 10
186.755659953696
 20
167.3928524755877
 30
0.0
 10
187.129657964899
 20
167.4689586473621
 30
0.0
 10
187.5107715992612
 20
167.5233639073999
 30
0.0
 10
187.8988054061944
 20
167.5563809284833
 30
0.0
 10
188.2892205690594
 20
167.5673019402513
 30
0.0
 10
188.6796357071474
 20
167.5563800423807
 30
0.0
 10
189.0676694390974
 20
167.5233621406482
 30
0.0
 10
189.4487829501527
 20
167.4689560159932
 30
0.0
 10
189.8227807883059
 20
167.3928489953855
 30
0.0
 10
190.1832485892002
 20
167.2966880865474
 30
0.0
 10
190.531947685059
 20
167.1796208938309
 30
0.0
 10
190.8611167490386
 20
167.0446187362789
 30
0.0
 10
191.1739872378409
 20
166.889923173163
 30
0.0
 10
191.4622014844873
 20
166.7200197551893
 30
0.0
 10
191.7297431141253
 20
166.5321097057015
 30
0.0
 10
191.9685472242514
 20
166.3320571466593
 30
0.0
 10
192.1825073158454
 20
166.1162876035838
 30
0.0
 10
192.3646750718962
 20
165.8914589898591
 30
0.0
 10
192.5181616776239
 20
165.6540421580809
 30
0.0
 10
192.6375855876652
 20
165.4104856341826
 30
0.0
 10
192.7251729884763
 20
165.1585925543787
 30
0.0
 10
192.7770534358303
 20
164.9034979992567
 30
0.0
 10
192.795238752634
 20
164.6454554094713
 30
0.0
 10
192.7770528502005
 20
164.3874128609584
 30
0.0
 10
192.7251718239073
 20
164.1323184235802
 30
0.0
 10
192.6375838514231
 20
163.8804255425573
 30
0.0
 10
192.5181593886284
 20
163.6368692896932
 30
0.0
 10
192.3646722440816
 20
163.3994528062547
 30
0.0
 10
192.182503977781
 20
163.1746246059618
 30
0.0
 10
191.9685433964967
 20
162.958855548471
 30
0.0
 10
191.7297388323502
 20
162.7588035313974
 30
0.0
 10
191.4621967762491
 20
162.5708940890985
 30
0.0
 10
191.1739821440062
 20
162.40099132523
 30
0.0
 10
190.8611113041236
 20
162.2462964721718
 30
0.0
 10
190.5319419337583
 20
162.1112950616756
 30
0.0
 10
190.1832425722034
 20
161.9942286603474
 30
0.0
 10
189.8227745530787
 20
161.8980685696619
 30
0.0
 10
189.4487768122265
 20
161.8219624523729
 30
0.0
 10
189.0676637284458
 20
161.767557247428
 30
0.0
 10
188.6796304793572
 20
161.7345402028869
 30
0.0
 10
188.2892155953169
 20
161.7236191051438
 30
0.0
 10
187.8988001783973
 20
161.7345409170379
 30
0.0
 10
187.5107658886357
 20
161.7675587953181
 30
0.0
 10
187.1296518268743
 20
161.8219649750518
 30
0.0
 10
186.755653718826
 20
161.898072050203
 30
0.0
 10
186.3951859175497
 20
161.9942329575045
 30
0.0
 10
186.0464868206152
 20
162.111300150225
 30
0.0
 10
185.717317759997
 20
162.2463023162417
 30
0.0
 10
185.4044472765786
 20
162.400997876366
 30
0.0
 10
185.1162330135827
 20
162.5709012597634
 30
0.0
 10
184.8486913326009
 20
162.7588113175868
 30
0.0
 10
184.6098873929094
 20
162.9588640880017
 30
0.0
 10
184.3959273218828
 20
163.1746332840044
 30
0.0
 10
184.2137595338424
 20
163.3994618635466
 30
0.0
 10
184.060269982985
 20
163.6368780359161
 30
0.0
 10
183.940856848932
 20
163.8804435938848
 30
0.0
 10
183.8532440234098
 20
164.1323010698693
 30
0.0
 10
183.8099514392406
 20
164.3456226066884
 30
0.0
 10
183.792107201088
 20
164.517356479042
 30
0.0
 10
183.7878595880048
 20
164.6454526416869
 30
0.0
 10
183.7917699842034
 20
164.7736216391921
 30
0.0
 10
183.8017353860693
 20
164.8585219984353
 30
0.0
 10
183.8067290893846
 20
164.9010659129837
 30
0.0
 11
183.8067290893846
 21
164.9010659129837
 31
0.0
 11
183.8589130664562
 21
165.1571007924287
 31
0.0
 11
183.944027584707
 21
165.4039872349491
 31
0.0
 11
184.065028269173
 21
165.6514373341504
 31
0.0
 11
184.2138652370565
 21
165.8829102340055
 31
0.0
 11
184.3996506751354
 21
166.1130384086592
 31
0.0
 11
184.6073397628095
 21
166.3232835648252
 31
0.0
 11
184.8514842882901
 21
166.5285566300018
 31
0.0
 11
185.1121124322016
 21
166.7121403957341
 31
0.0
 11
185.4064721754101
 21
166.8862582000122
 31
0.0
 11
185.7127955898018
 21
167.038067085582
 31
0.0
 11
186.0478875668929
 21
167.175935111635
 31
0.0
 11
186.3912484065629
 21
167.2914292879661
 31
0.0
 11
186.7565351438058
 21
167.3891760005757
 31
0.0
 11
187.1270101134545
 21
167.4646780936546
 31
0.0
 11
187.5111933029559
 21
167.5197054194509
 31
0.0
 11
187.8978761834443
 21
167.5526233197515
 31
0.0
 11
188.2892205649176
 21
167.5636508291994
 31
0.0
 11
188.6805649213629
 21
167.5526224315478
 31
0.0
 11
189.0672477271429
 21
167.5197036537105
 31
0.0
 11
189.4514307917584
 21
167.4646754562247
 31
0.0
 11
189.8219055900534
 21
167.3891725221464
 31
0.0
 11
190.1871921054583
 21
167.2914249793126
 31
0.0
 11
190.5305526830125
 21
167.1759300248126
 31
0.0
 11
190.8656443472104
 21
167.0380612448027
 31
0.0
 11
191.1719674170695
 21
166.8862516582689
 31
0.0
 11
191.466326765114
 21
166.7121331511812
 31
0.0
 11
191.7269544923811
 21
166.5285488239491
 31
0.0
 11
191.9710985519999
 21
166.3232753865266
 31
0.0
 11
192.1787871625136
 21
166.1130296030104
 31
0.0
 11
192.3645720782738
 21
165.8829000609153
 31
0.0
 11
192.5134085208627
 21
165.6514276495718
 31
0.0
 11
192.6344086439516
 21
165.403982250809
 31
0.0
 11
192.7195226016955
 21
165.1570910499902
 31
0.0
 11
192.7717059965327
 21
164.90102898238
 31
0.0
 11
192.7892172534878
 21
164.6454554163042
 31
0.0
 11
192.7717054165064
 21
164.3898818899711
 31
0.0
 11
192.7195214405342
 21
164.1338199407923
 31
0.0
 11
192.6344069224689
 21
163.8869289331409
 31
0.0
 11
192.5134062378009
 21
163.6394838089895
 31
0.0
 11
192.3645692698838
 21
163.4080117354322
 31
0.0
 11
192.1787838318433
 21
163.177882614978
 31
0.0
 11
191.9710947441755
 21
162.9676373028135
 31
0.0
 11
191.7269502186875
 21
162.7623644194787
 31
0.0
 11
191.4663220747748
 21
162.5787806837444
 31
0.0
 11
191.1719623315678
 21
162.4046628447074
 31
0.0
 11
190.8656389171766
 21
162.2528539533734
 31
0.0
 11
190.530546940085
 21
162.1149859338609
 31
0.0
 11
190.1871861004129
 21
161.9994917586419
 31
0.0
 11
189.8218993631721
 21
161.901745044807
 31
0.0
 11
189.4514243935352
 21
161.8262429513963
 31
0.0
 11
189.0672420252399
 21
161.7712157196403
 31
0.0
 11
188.6805599765514
 21
161.73829781963
 31
0.0
 11
188.2892156004006
 21
161.7272702161954
 31
0.0
 11
187.8978712386325
 21
161.7382985198601
 31
0.0
 11
187.5111876010526
 21
161.7712172979893
 31
0.0
 11
187.1270037152313
 21
161.8262455895172
 31
0.0
 11
186.7565289169245
 21
161.901748523264
 31
0.0
 11
186.3912424015175
 21
161.9994960648722
 31
0.0
 11
186.0478818239652
 21
162.1149910204841
 31
0.0
 11
185.7127901597683
 21
162.2528598070348
 31
0.0
 11
185.4064670899084
 21
162.4046693878042
 31
0.0
 11
185.112107741861
 21
162.5787878601318
 31
0.0
 11
184.8514800145964
 21
162.7623722173629
 31
0.0
 11
184.6073359549928
 21
162.9676458366344
 31
0.0
 11
184.399647344466
 21
163.1778914641459
 31
0.0
 11
184.2138624286264
 21
163.4080200604036
 31
0.0
 11
184.065025986107
 21
163.6394932980772
 31
0.0
 11
183.9440258634359
 21
163.8869436720843
 31
0.0
 11
183.8589120453845
 21
164.133829794494
 31
0.0
 11
183.8067286539613
 21
164.389864240879
 31
0.0
 11
183.7935950688001
 21
164.5176483148726
 31
0.0
 11
183.7892172534891
 21
164.6454645553833
 31
0.0
 11
183.7935952472701
 21
164.7732813226852
 31
0.0
 11
183.8067290893846
 21
164.9010659129837
 31
0.0
  0
SPLINE
  5
142
330
4D
100
AcDbEntity
  8
1
  6
Continuous
 62
     7
100
AcDbSpline
210
0.0
220
0.0
230
1.0
 70
    11
 71
     3
 72
    81
 73
    77
 74
    75
 42
0.0000000001
 43
0.0000000001
 44
0.00000001
 40
0.0
 40
0.0
 40
0.0
 40
0.0
 40
0.2612987312549259
 40
0.5224450441092179
 40
0.7978950708580621
 40
1.073089813497032
 40
1.368851889787465
 40
1.664381554677739
 40
1.983354250388872
 40
2.302148899715259
 40
2.644149876597491
 40
2.986027006488557
 40
3.348372457292821
 40
3.710636961468117
 40
4.088775587148507
 40
4.46686587953309
 40
4.854969898682344
 40
5.243051382681544
 40
5.634551102828828
 40
6.02605082297729
 40
6.414132306972877
 40
6.802236326091294
 40
7.180326618516524
 40
7.55846524450795
 40
7.920729748335371
 40
8.283075196652735
 40
8.624952329101667
 40
8.966953323678567
 40
9.285747955731367
 40
9.604720534424928
 40
9.900250310290952
 40
10.19601312247146
 40
10.47120717011001
 40
10.74665272762801
 40
11.00780335627861
 40
11.2691286117851
 40
11.52530138902119
 40
11.78147416625721
 40
12.04279942176362
 40
12.30395005041428
 40
12.57939560793229
 40
12.85458965557078
 40
13.15035246775124
 40
13.44588224361723
 40
13.76485482231073
 40
14.08364945436331
 40
14.42565044894053
 40
14.7675275813907
 40
15.12987302970699
 40
15.49213753352952
 40
15.87027615952468
 40
16.24836645196404
 40
16.6364696448699
 40
17.02455030004239
 40
17.41605001751654
 40
17.80754974033817
 40
18.19563205316046
 40
18.58373689852223
 40
18.96182719089269
 40
19.33996581656934
 40
19.70223032074935
 40
20.06457577155455
 40
20.40645290144455
 40
20.7484538783271
 40
21.06724852765342
 40
21.38622122336347
 40
21.68175088825389
 40
21.97751296454001
 40
22.25270770718776
 40
22.52815773402143
 40
22.78930351603177
 40
23.05060170599112
 40
23.17905893866259
 40
23.30695012915343
 40
23.43484185223608
 40
23.56329962477813
 40
23.56329962477813
 40
23.56329962477813
 40
23.56329962477813
 10
253.771705417593
 20
141.8731227859726
 30
0.0
 10
253.756697275176
 20
141.787188693094
 30
0.0
 10
253.7266897447553
 20
141.6153706336309
 30
0.0
 10
253.6371495867774
 20
141.3637551237105
 30
0.0
 10
253.518278652655
 20
141.1201214620631
 30
0.0
 10
253.3646383638236
 20
140.882724513058
 30
0.0
 10
253.1825131407555
 20
140.6578909337979
 30
0.0
 10
252.96854057653
 20
140.4421237318169
 30
0.0
 10
252.7297396397272
 20
140.2420710689628
 30
0.0
 10
252.4621965687552
 20
140.0541617394108
 30
0.0
 10
252.1739821961199
 20
139.884258975438
 30
0.0
 10
251.8611112850452
 20
139.7295641349945
 30
0.0
 10
251.531941939726
 20
139.5945627133092
 30
0.0
 10
251.1832425711205
 20
139.4774963127273
 30
0.0
 10
250.8227745532818
 20
139.3813362233686
 30
0.0
 10
250.4487765420788
 20
139.3052300515942
 30
0.0
 10
250.0676629077165
 20
139.2508247915564
 30
0.0
 10
249.6796291007833
 20
139.217807770473
 30
0.0
 10
249.2892139379183
 20
139.206886758705
 30
0.0
 10
248.8987987998302
 20
139.2178086565755
 30
0.0
 10
248.5107650678803
 20
139.250826558308
 30
0.0
 10
248.129651556825
 20
139.305232682963
 30
0.0
 10
247.7556537186717
 20
139.3813397035709
 30
0.0
 10
247.3951859177774
 20
139.4775006124089
 30
0.0
 10
247.0464868219186
 20
139.5945678051253
 30
0.0
 10
246.717317757939
 20
139.7295699626775
 30
0.0
 10
246.4044472691365
 20
139.8842655257931
 30
0.0
 10
246.1162330224905
 20
140.0541689437671
 30
0.0
 10
245.8486913928523
 20
140.2420789932547
 30
0.0
 10
245.6098872827263
 20
140.4421315522969
 30
0.0
 10
245.3959271911321
 20
140.6579010953724
 30
0.0
 10
245.2137594350815
 20
140.8827297090972
 30
0.0
 10
245.0602728293538
 20
141.1201465408754
 30
0.0
 10
244.9408489193125
 20
141.3637030647737
 30
0.0
 10
244.8532615185016
 20
141.6155961445777
 30
0.0
 10
244.8013810711472
 20
141.8706906996997
 30
0.0
 10
244.7831957543438
 20
142.128733289485
 30
0.0
 10
244.801381656777
 20
142.3867758379979
 30
0.0
 10
244.8532626830704
 20
142.6418702753761
 30
0.0
 10
244.9408506555546
 20
142.8937631563991
 30
0.0
 10
245.0602751183494
 20
143.1373194092631
 30
0.0
 10
245.213762262896
 20
143.3747358927016
 30
0.0
 10
245.3959305291967
 20
143.5995640929945
 30
0.0
 10
245.6098911104809
 20
143.8153331504852
 30
0.0
 10
245.8486956746273
 20
144.0153851675589
 30
0.0
 10
246.1162377307284
 20
144.2032946098577
 30
0.0
 10
246.4044523629715
 20
144.3731973737263
 30
0.0
 10
246.7173232028541
 20
144.5278922267845
 30
0.0
 10
247.0464925732194
 20
144.6628936372807
 30
0.0
 10
247.3951919347742
 20
144.779960038609
 30
0.0
 10
247.7556599538989
 20
144.8761201292944
 30
0.0
 10
248.1296576947511
 20
144.9522262465833
 30
0.0
 10
248.510770778532
 20
145.0066314515282
 30
0.0
 10
248.8988040276205
 20
145.0396484960693
 30
0.0
 10
249.2892189116608
 20
145.0505695938126
 30
0.0
 10
249.6796343285805
 20
145.0396477819185
 30
0.0
 10
250.067668618342
 20
145.0066299036382
 30
0.0
 10
250.4487826801034
 20
144.9522237239046
 30
0.0
 10
250.8227807881517
 20
144.8761166487533
 30
0.0
 10
251.1832485894279
 20
144.7799557414518
 30
0.0
 10
251.5319476863624
 20
144.6628885487313
 30
0.0
 10
251.8611167469807
 20
144.5278863827146
 30
0.0
 10
252.1739872303991
 20
144.3731908225904
 30
0.0
 10
252.462201493395
 20
144.2032874391929
 30
0.0
 10
252.7297431743767
 20
144.0153773813695
 30
0.0
 10
252.9685471140684
 20
143.8153246109546
 30
0.0
 10
253.1825071850948
 20
143.5995554149519
 30
0.0
 10
253.3646749731352
 20
143.3747268354096
 30
0.0
 10
253.5181645239929
 20
143.1373106630402
 30
0.0
 10
253.6375776580456
 20
142.8937451050713
 30
0.0
 10
253.7251904835679
 20
142.641887629087
 30
0.0
 10
253.768483067737
 20
142.4285660922679
 30
0.0
 10
253.7863273058895
 20
142.2568322199142
 30
0.0
 10
253.7905749189729
 20
142.1287360572694
 30
0.0
 10
253.7866645227742
 20
142.0005670597643
 30
0.0
 10
253.7766991209084
 20
141.9156667005211
 30
0.0
 10
253.771705417593
 20
141.8731227859726
 30
0.0
 11
253.771705417593
 21
141.8731227859726
 31
0.0
 11
253.7195214405215
 21
141.6170879065275
 31
0.0
 11
253.6344069222707
 21
141.3702014640072
 31
0.0
 11
253.5134062378048
 21
141.122751364806
 31
0.0
 11
253.3645692699213
 21
140.8912784649508
 31
0.0
 11
253.1787838318423
 21
140.6611502902971
 31
0.0
 11
252.9710947441682
 21
140.4509051341311
 31
0.0
 11
252.7269502186875
 21
140.2456320689544
 31
0.0
 11
252.4663220747761
 21
140.0620483032222
 31
0.0
 11
252.1719623315676
 21
139.8879304989441
 31
0.0
 11
251.8656389171758
 21
139.7361216133743
 31
0.0
 11
251.5305469400848
 21
139.5982535873213
 31
0.0
 11
251.1871861004147
 21
139.4827594109901
 31
0.0
 11
250.8218993631719
 21
139.3850126983806
 31
0.0
 11
250.4514243935233
 21
139.3095106053016
 31
0.0
 11
250.0672412040218
 21
139.2544832795054
 31
0.0
 11
249.6805583235334
 21
139.2215653792048
 31
0.0
 11
249.28921394206
 21
139.2105378697569
 31
0.0
 11
248.8978695856147
 21
139.2215662674084
 31
0.0
 11
248.5111867798347
 21
139.2544850452457
 31
0.0
 11
248.1270037152193
 21
139.3095132427316
 31
0.0
 11
247.7565289169242
 21
139.3850161768099
 31
0.0
 11
247.3912424015193
 21
139.4827637196436
 31
0.0
 11
247.0478818239651
 21
139.5982586741436
 31
0.0
 11
246.7127901597672
 21
139.7361274541536
 31
0.0
 11
246.4064670899081
 21
139.8879370406874
 31
0.0
 11
246.1121077418637
 21
140.0620555477752
 31
0.0
 11
245.8514800145966
 21
140.2456398750072
 31
0.0
 11
245.6073359549777
 21
140.4509133124297
 31
0.0
 11
245.399647344464
 21
140.6611590959458
 31
0.0
 11
245.2138624287039
 21
140.891288638041
 31
0.0
 11
245.065025986115
 21
141.1227610493845
 31
0.0
 11
244.9440258630261
 21
141.3702064481473
 31
0.0
 11
244.8589119052823
 21
141.6170976489661
 31
0.0
 11
244.8067285104449
 21
141.8731597165763
 31
0.0
 11
244.7892172534899
 21
142.1287332826521
 31
0.0
 11
244.8067290904713
 21
142.3843068089852
 31
0.0
 11
244.8589130664435
 21
142.640368758164
 31
0.0
 11
244.9440275845088
 21
142.8872597658154
 31
0.0
 11
245.0650282691768
 21
143.1347048899668
 31
0.0
 11
245.2138652370938
 21
143.3661769635241
 31
0.0
 11
245.3996506751344
 21
143.5963060839782
 31
0.0
 11
245.6073397628021
 21
143.8065513961427
 31
0.0
 11
245.8514842882901
 21
144.0118242794776
 31
0.0
 11
246.1121124322028
 21
144.1954080152119
 31
0.0
 11
246.4064721754098
 21
144.3695258542489
 31
0.0
 11
246.712795589801
 21
144.5213347455829
 31
0.0
 11
247.0478875668927
 21
144.6592027650954
 31
0.0
 11
247.3912484065647
 21
144.7746969403145
 31
0.0
 11
247.7565351438055
 21
144.8724436541493
 31
0.0
 11
248.1270101134424
 21
144.9479457475599
 31
0.0
 11
248.5111924817377
 21
145.0029729793159
 31
0.0
 11
248.8978745304264
 21
145.0358908793262
 31
0.0
 11
249.2892189065771
 21
145.0469184827609
 31
0.0
 11
249.6805632683452
 21
145.0358901790963
 31
0.0
 11
250.0672469059251
 21
145.002971400967
 31
0.0
 11
250.4514307917464
 21
144.9479431094391
 31
0.0
 11
250.8219055900532
 21
144.8724401756923
 31
0.0
 11
251.1871921054601
 21
144.7746926340841
 31
0.0
 11
251.5305526830123
 21
144.6591976784721
 31
0.0
 11
251.8656443472093
 21
144.5213288919215
 31
0.0
 11
252.1719674170693
 21
144.3695193111522
 31
0.0
 11
252.4663267651167
 21
144.1954008388245
 31
0.0
 11
252.7269544923814
 21
144.0118164815934
 31
0.0
 11
252.9710985519849
 21
143.8065428623219
 31
0.0
 11
253.1787871625117
 21
143.5962972348104
 31
0.0
 11
253.3645720783513
 21
143.3661686385527
 31
0.0
 11
253.5134085208708
 21
143.1346954008791
 31
0.0
 11
253.6344086435418
 21
142.8872450268719
 31
0.0
 11
253.7195224615932
 21
142.6403589044622
 31
0.0
 11
253.7717058530163
 21
142.3843244580773
 31
0.0
 11
253.7848394381774
 21
142.2565403840836
 31
0.0
 11
253.7892172534885
 21
142.128724143573
 31
0.0
 11
253.7848392597076
 21
142.0009073762711
 31
0.0
 11
253.771705417593
 21
141.8731227859726
 31
0.0
  0
SPLINE
  5
143
330
4D
100
AcDbEntity
  8
1
  6
Continuous
 62
     7
100
AcDbSpline
210
0.0
220
0.0
230
1.0
 70
    11
 71
     3
 72
    81
 73
    77
 74
    75
 42
0.0000000001
 43
0.0000000001
 44
0.00000001
 40
0.0
 40
0.0
 40
0.0
 40
0.0
 40
0.3977539103296262
 40
0.7954208205175923
 40
1.204283537142776
 40
1.612982563243439
 40
2.038259758201917
 40
2.463359887454563
 40
2.907961718941784
 40
3.352403558792112
 40
3.816709040285937
 40
4.280886896650348
 40
4.762992789734062
 40
5.245006293661796
 40
5.741160418136431
 40
6.237255395822126
 40
6.742368488136334
 40
7.247452871294318
 40
7.755632102702765
 40
8.263811334111827
 40
8.768895717267926
 40
9.274008809566357
 40
9.770103787273241
 40
10.26625791190768
 40
10.74827141565224
 40
11.23037730745114
 40
11.69455516518297
 40
12.15886065590367
 40
12.6033024863475
 40
13.0479042560554
 40
13.4730044468209
 40
13.89828203583252
 40
14.30698067260273
 40
14.71584096375666
 40
15.11351028322719
 40
15.51127872094589
 40
15.90508653809119
 40
16.29889435523641
 40
16.696662792955
 40
17.09433211242558
 40
17.50319240357933
 40
17.91189104034903
 40
18.33716862936124
 40
18.7622688201296
 40
19.20687058983471
 40
19.65131242026469
 40
20.11561791099832
 40
20.57979576879241
 40
21.06190166053723
 40
21.54391516404318
 40
22.04006928885434
 40
22.53616426715808
 40
23.04120929428898
 40
23.54622530713595
 40
24.05440422783606
 40
24.56258376995361
 40
25.06773652349356
 40
25.57291768088037
 40
26.06901265797069
 40
26.56516678227549
 40
27.0471802864356
 40
27.52928617953871
 40
27.99346403587109
 40
28.45776951751826
 40
28.90221135724377
 40
29.3468131879974
 40
29.77191331782945
 40
30.19719051564724
 40
30.60588953970322
 40
31.01475224814583
 40
31.41236695674082
 40
31.8100679833793
 40
32.00737086505144
 40
32.2040503247447
 40
32.40078213291967
 40
32.59813786235938
 40
32.59813786235938
 40
32.59813786235938
 40
32.59813786235938
 10
249.6826072475646
 20
159.2009083486324
 30
0.0
 10
249.8139330091457
 20
159.1816536542342
 30
0.0
 10
250.0765558076128
 20
159.1431484769894
 30
0.0
 10
250.4625492778739
 20
159.0284795949078
 30
0.0
 10
250.8380831055161
 20
158.8750438866622
 30
0.0
 10
251.2030484838371
 20
158.6773424423521
 30
0.0
 10
251.5509565175954
 20
158.4414025642678
 30
0.0
 10
251.8833900300962
 20
158.1650557046461
 30
0.0
 10
252.1935689067166
 20
157.8548819625801
 30
0.0
 10
252.4834851302173
 20
157.5085506315692
 30
0.0
 10
252.7470360164109
 20
157.1337657440104
 30
0.0
 10
252.9858920098024
 20
156.7282043598841
 30
0.0
 10
253.1952340115358
 20
156.300076405745
 30
0.0
 10
253.3760649812821
 20
155.8476941189195
 30
0.0
 10
253.5250927188944
 20
155.3789697923377
 30
0.0
 10
253.6426732212555
 20
154.8934878169841
 30
0.0
 10
253.7269533746802
 20
154.3981131405396
 30
0.0
 10
253.7779388263196
 20
153.8941781648171
 30
0.0
 10
253.7948828598956
 20
153.3869318295023
 30
0.0
 10
253.7779022334519
 20
152.8796867178438
 30
0.0
 10
253.7268804279347
 20
152.3757554215805
 30
0.0
 10
253.6425645384095
 20
151.8803868262672
 30
0.0
 10
253.5249490134993
 20
151.3949133348758
 30
0.0
 10
253.3758874618809
 20
150.9261997588577
 30
0.0
 10
253.1950238569921
 20
150.4738305253053
 30
0.0
 10
252.9856509766818
 20
150.0457176492612
 30
0.0
 10
252.7467657155161
 20
149.6401735785451
 30
0.0
 10
252.4831878120151
 20
149.2654074068151
 30
0.0
 10
252.1932464924552
 20
148.9190981124108
 30
0.0
 10
251.8830457685089
 20
148.6089426667112
 30
0.0
 10
251.5505905678227
 20
148.3326340784113
 30
0.0
 10
251.2026712615131
 20
148.0966671350594
 30
0.0
 10
250.837670835756
 20
147.8991810057132
 30
0.0
 10
250.462205782994
 20
147.7450790657813
 30
0.0
 10
250.0759115020045
 20
147.6329525688163
 30
0.0
 10
249.6843190125096
 20
147.5661115605944
 30
0.0
 10
249.2890064617517
 20
147.543153845938
 30
0.0
 10
248.8936955681983
 20
147.5661400784906
 30
0.0
 10
248.5021079016511
 20
147.6330093361284
 30
0.0
 10
248.115821710503
 20
147.7451637001772
 30
0.0
 10
247.7403677756748
 20
147.8992927258601
 30
0.0
 10
247.3753815975713
 20
148.0968051859239
 30
0.0
 10
247.0274793148864
 20
148.3327972276568
 30
0.0
 10
246.6950440480398
 20
148.609129798644
 30
0.0
 10
246.3848656996026
 20
148.9193076214976
 30
0.0
 10
246.0949493636647
 20
149.2656378314696
 30
0.0
 10
245.8313984966006
 20
149.6404230168176
 30
0.0
 10
245.5925424918549
 20
150.0459843196455
 30
0.0
 10
245.3832004965362
 20
150.4741122986146
 30
0.0
 10
245.2023695263884
 20
150.9264945794748
 30
0.0
 10
245.0533417926853
 20
151.3952189061413
 30
0.0
 10
244.9357666108647
 20
151.8806788166788
 30
0.0
 10
244.8514918380165
 20
152.3760081259733
 30
0.0
 10
244.800504076861
 20
152.879896908785
 30
0.0
 10
244.7835516433794
 20
153.3871201559811
 30
0.0
 10
244.8005238707795
 20
153.8943883562563
 30
0.0
 10
244.8515433688718
 20
154.3983658456204
 30
0.0
 10
244.9358646418284
 20
154.8937798079125
 30
0.0
 10
245.0534854889178
 20
155.3792753632322
 30
0.0
 10
245.2025470442557
 20
155.8479889409145
 30
0.0
 10
245.3834106494059
 20
156.3003581740809
 30
0.0
 10
245.5927835337091
 20
156.7284710485147
 30
0.0
 10
245.8316687923853
 20
157.1340151169156
 30
0.0
 10
246.0952466826093
 20
157.5087812963487
 30
0.0
 10
246.3851880048965
 20
157.855090618493
 30
0.0
 10
246.695388837585
 20
158.1652459666301
 30
0.0
 10
247.0278437885708
 20
158.441554593356
 30
0.0
 10
247.375763352091
 20
158.6775213942772
 30
0.0
 10
247.740762703674
 20
158.8750095650414
 30
0.0
 10
248.1162191721734
 20
159.0290972855057
 30
0.0
 10
248.5024491840881
 20
159.1412381163321
 30
0.0
 10
248.8293704415699
 20
159.1969701624197
 30
0.0
 10
249.092406518149
 20
159.2196887363629
 30
0.0
 10
249.289326491366
 20
159.2251467508549
 30
0.0
 10
249.4863450196402
 20
159.2201320343635
 30
0.0
 10
249.6171174917231
 20
159.2073230036489
 30
0.0
 10
249.6826072475645
 20
159.2009083486324
 30
0.0
 11
249.6826072475646
 21
159.2009083486324
 31
0.0
 11
250.0746649070599
 21
159.1338340255754
 31
0.0
 11
250.4567071791941
 21
159.0234588754692
 31
0.0
 11
250.8349912413131
 21
158.8683141385527
 31
0.0
 11
251.1947083348085
 21
158.6743076783951
 31
0.0
 11
251.5468346273552
 21
158.4358380437474
 31
0.0
 11
251.8740871183128
 21
158.1645154920627
 31
0.0
 11
252.1887574483179
 21
157.8504241486986
 31
0.0
 11
252.4743917783018
 21
157.5099221978316
 31
0.0
 11
252.7418056232501
 21
157.1303574264484
 31
0.0
 11
252.9776732669898
 21
156.7305730633529
 31
0.0
 11
253.1897669536604
 21
156.2976269232609
 31
0.0
 11
253.368910887506
 21
155.8501400866556
 31
0.0
 11
253.5195014481468
 21
155.3773913179855
 31
0.0
 11
253.6364163205133
 21
154.8952698192899
 31
0.0
 11
253.721304339807
 21
154.3973408482432
 31
0.0
 11
253.772184637694
 21
153.8948257445926
 31
0.0
 11
253.7892172485647
 21
153.3869320338599
 31
0.0
 11
253.7721479981276
 21
152.8790395531861
 31
0.0
 11
253.7212314488139
 21
152.3765281213617
 31
0.0
 11
253.6363075091014
 21
151.8786052754559
 31
0.0
 11
253.5193578565729
 21
151.3964922122856
 31
0.0
 11
253.3687331915749
 21
150.923754308489
 31
0.0
 11
253.189556976862
 21
150.4762803965418
 31
0.0
 11
252.9774320607974
 21
150.0433495580794
 31
0.0
 11
252.7415355744366
 21
149.6435822115751
 31
0.0
 11
252.474094332306
 21
149.2640367324542
 31
0.0
 11
252.1884354537598
 21
148.9235553882429
 31
0.0
 11
251.8737425530379
 21
148.6094867462828
 31
0.0
 11
251.5464704098868
 21
148.3381878032215
 31
0.0
 11
251.1943264397758
 21
148.0997435706849
 31
0.0
 11
250.8345957933649
 21
147.905763062049
 31
0.0
 11
250.4563031592518
 21
147.7506456205467
 31
0.0
 11
250.0742504193728
 21
147.6402980261048
 31
0.0
 11
249.682173189153
 21
147.5732519554643
 31
0.0
 11
249.2890067370296
 21
147.5507855857212
 31
0.0
 11
248.8958419066594
 21
147.5732803185418
 31
0.0
 11
248.5037695141818
 21
147.6403546735669
 31
0.0
 11
248.1217247358027
 21
147.7507298291113
 31
0.0
 11
247.743443292889
 21
147.9058745603446
 31
0.0
 11
247.383726641222
 21
148.0998810195434
 31
0.0
 11
247.0315998734589
 21
148.3383506552222
 31
0.0
 11
246.7043473027356
 21
148.6096732070793
 31
0.0
 11
246.3896770598352
 21
148.923764550255
 31
0.0
 11
246.1040427444758
 21
149.264266501094
 31
0.0
 11
245.8366288835282
 21
149.6438312725079
 31
0.0
 11
245.6007612369469
 21
150.0436156355869
 31
0.0
 11
245.388667553356
 21
150.4765617756967
 31
0.0
 11
245.2095236209875
 21
150.924048612439
 31
0.0
 11
245.0589330587855
 21
151.3967973809649
 31
0.0
 11
244.9420181803446
 21
151.8789188788234
 31
0.0
 11
244.8571393259554
 21
152.3767803650897
 31
0.0
 11
244.8062590469806
 21
152.8792267507303
 31
0.0
 11
244.7892172547132
 21
153.3871198425914
 31
0.0
 11
244.8062773237983
 21
153.8950129426327
 31
0.0
 11
244.8571938951348
 21
154.397593092631
 31
0.0
 11
244.942127003994
 21
154.8955834226558
 31
0.0
 11
245.05907665045
 21
155.3776964866648
 31
0.0
 11
245.2097013138857
 21
155.8504343906132
 31
0.0
 11
245.3888775300765
 21
156.2979083024161
 31
0.0
 11
245.6010024492284
 21
156.7308391408182
 31
0.0
 11
245.8368989327408
 21
157.1306064873785
 31
0.0
 11
246.1043401588304
 21
157.5101519667024
 31
0.0
 11
246.389999052039
 21
157.8506333107281
 31
0.0
 11
246.7046920400919
 21
158.164701951601
 31
0.0
 11
247.0319641032701
 21
158.4360008956578
 31
0.0
 11
247.3841075969301
 21
158.6744451341218
 31
0.0
 11
247.7438386863173
 21
158.8684256372467
 31
0.0
 11
248.1221339464409
 21
159.0235430460796
 31
0.0
 11
248.5041332075645
 21
159.1338789921358
 31
0.0
 11
248.8961420639533
 21
159.200924969659
 31
0.0
 11
249.0927233331605
 21
159.2177841426231
 31
0.0
 11
249.2893225117183
 21
159.2234031154493
 31
0.0
 11
249.4859739091151
 21
159.2177788599739
 31
0.0
 11
249.6826072475645
 21
159.2009083486324
 31
0.0
  0
SPLINE
  5
144
330
4D
100
AcDbEntity
  8
1
  6
Continuous
 62
     7
100
AcDbSpline
210
0.0
220
0.0
230
1.0
 70
    11
 71
     3
 72
    81
 73
    77
 74
    75
 42
0.0000000001
 43
0.0000000001
 44
0.00000001
 40
0.0
 40
0.0
 40
0.0
 40
0.0
 40
0.2612987312548981
 40
0.52244504410919
 40
0.7978950708580854
 40
1.073089813497031
 40
1.368851889787465
 40
1.664381554677718
 40
1.983354250388814
 40
2.302148899715217
 40
2.644149876597479
 40
2.986027006488545
 40
3.34837245729282
 40
3.710636961468088
 40
4.088775587148478
 40
4.466865879533062
 40
4.854969898682319
 40
5.243051382681522
 40
5.634551102828805
 40
6.02605082297727
 40
6.414132306972861
 40
6.802236326091267
 40
7.180326618516486
 40
7.558465244507919
 40
7.92072974833534
 40
8.283075196652693
 40
8.624952329101625
 40
8.966953323678508
 40
9.285747955731342
 40
9.604720534424921
 40
9.900250310290964
 40
10.19601312247143
 40
10.47120717010993
 40
10.74665272762796
 40
11.00780335627853
 40
11.26912861178504
 40
11.5253013890211
 40
11.78147416625712
 40
12.04279942176356
 40
12.3039500504142
 40
12.57939560793223
 40
12.85458965557075
 40
13.15035246775126
 40
13.44588224361723
 40
13.76485482231069
 40
14.08364945436328
 40
14.42565044894049
 40
14.76752758139066
 40
15.12987302970695
 40
15.49213753352948
 40
15.87027615952463
 40
16.24836645196401
 40
16.63646964486987
 40
17.02455030004236
 40
17.4160500175165
 40
17.80754974033814
 40
18.19563205316043
 40
18.5837368985222
 40
18.96182719089266
 40
19.3399658165693
 40
19.7022303207493
 40
20.06457577155453
 40
20.40645290144453
 40
20.74845387832706
 40
21.06724852765339
 40
21.38622122336343
 40
21.68175088825385
 40
21.97751296453992
 40
22.25270770718768
 40
22.52815773402132
 40
22.78930351603166
 40
23.05060170599107
 40
23.17905893866253
 40
23.3069501291534
 40
23.43484185223606
 40
23.5632996247781
 40
23.5632996247781
 40
23.5632996247781
 40
23.5632996247781
 10
253.771705417593
 20
164.9010659129837
 30
0.0
 10
253.756697275176
 20
164.9870000058622
 30
0.0
 10
253.7266897447553
 20
165.1588180653253
 30
0.0
 10
253.6371495867774
 20
165.4104335752458
 30
0.0
 10
253.5182786526551
 20
165.6540672368933
 30
0.0
 10
253.3646383638235
 20
165.8914641858983
 30
0.0
 10
253.1825131407555
 20
166.1162977651584
 30
0.0
 10
252.96854057653
 20
166.3320649671394
 30
0.0
 10
252.7297396397273
 20
166.5321176299935
 30
0.0
 10
252.4621965687552
 20
166.7200269595455
 30
0.0
 10
252.1739821961199
 20
166.8899297235183
 30
0.0
 10
251.8611112850451
 20
167.0446245639618
 30
0.0
 10
251.531941939726
 20
167.1796259856471
 30
0.0
 10
251.1832425711205
 20
167.2966923862288
 30
0.0
 10
250.8227745532818
 20
167.3928524755877
 30
0.0
 10
250.4487765420787
 20
167.4689586473621
 30
0.0
 10
250.0676629077166
 20
167.5233639073999
 30
0.0
 10
249.6796291007832
 20
167.5563809284833
 30
0.0
 10
249.2892139379183
 20
167.5673019402513
 30
0.0
 10
248.8987987998302
 20
167.5563800423807
 30
0.0
 10
248.5107650678802
 20
167.5233621406481
 30
0.0
 10
248.129651556825
 20
167.4689560159932
 30
0.0
 10
247.7556537186717
 20
167.3928489953855
 30
0.0
 10
247.3951859177774
 20
167.2966880865474
 30
0.0
 10
247.0464868219186
 20
167.179620893831
 30
0.0
 10
246.717317757939
 20
167.0446187362788
 30
0.0
 10
246.4044472691366
 20
166.8899231731631
 30
0.0
 10
246.1162330224904
 20
166.7200197551893
 30
0.0
 10
245.8486913928523
 20
166.5321097057015
 30
0.0
 10
245.6098872827263
 20
166.3320571466594
 30
0.0
 10
245.3959271911322
 20
166.1162876035837
 30
0.0
 10
245.2137594350815
 20
165.8914589898592
 30
0.0
 10
245.0602728293538
 20
165.6540421580808
 30
0.0
 10
244.9408489193125
 20
165.4104856341827
 30
0.0
 10
244.8532615185015
 20
165.1585925543787
 30
0.0
 10
244.8013810711472
 20
164.9034979992567
 30
0.0
 10
244.7831957543439
 20
164.6454554094713
 30
0.0
 10
244.801381656777
 20
164.3874128609584
 30
0.0
 10
244.8532626830704
 20
164.1323184235802
 30
0.0
 10
244.9408506555547
 20
163.8804255425572
 30
0.0
 10
245.0602751183493
 20
163.6368692896932
 30
0.0
 10
245.2137622628961
 20
163.3994528062547
 30
0.0
 10
245.3959305291965
 20
163.1746246059617
 30
0.0
 10
245.6098911104809
 20
162.958855548471
 30
0.0
 10
245.8486956746274
 20
162.7588035313974
 30
0.0
 10
246.1162377307285
 20
162.5708940890986
 30
0.0
 10
246.4044523629715
 20
162.4009913252299
 30
0.0
 10
246.7173232028542
 20
162.2462964721718
 30
0.0
 10
247.0464925732194
 20
162.1112950616757
 30
0.0
 10
247.3951919347742
 20
161.9942286603474
 30
0.0
 10
247.7556599538989
 20
161.8980685696619
 30
0.0
 10
248.129657694751
 20
161.8219624523729
 30
0.0
 10
248.5107707785321
 20
161.767557247428
 30
0.0
 10
248.8988040276204
 20
161.7345402028869
 30
0.0
 10
249.2892189116609
 20
161.7236191051438
 30
0.0
 10
249.6796343285805
 20
161.7345409170379
 30
0.0
 10
250.067668618342
 20
161.7675587953181
 30
0.0
 10
250.4487826801034
 20
161.8219649750517
 30
0.0
 10
250.8227807881516
 20
161.898072050203
 30
0.0
 10
251.1832485894281
 20
161.9942329575045
 30
0.0
 10
251.5319476863623
 20
162.1113001502249
 30
0.0
 10
251.8611167469808
 20
162.2463023162418
 30
0.0
 10
252.173987230399
 20
162.4009978763659
 30
0.0
 10
252.4622014933951
 20
162.5709012597635
 30
0.0
 10
252.7297431743767
 20
162.7588113175868
 30
0.0
 10
252.9685471140684
 20
162.9588640880017
 30
0.0
 10
253.1825071850949
 20
163.1746332840044
 30
0.0
 10
253.3646749731353
 20
163.3994618635467
 30
0.0
 10
253.5181645239928
 20
163.6368780359161
 30
0.0
 10
253.6375776580456
 20
163.8804435938849
 30
0.0
 10
253.725190483568
 20
164.1323010698693
 30
0.0
 10
253.768483067737
 20
164.3456226066884
 30
0.0
 10
253.7863273058896
 20
164.517356479042
 30
0.0
 10
253.7905749189728
 20
164.645452641687
 30
0.0
 10
253.7866645227743
 20
164.773621639192
 30
0.0
 10
253.7766991209083
 20
164.8585219984353
 30
0.0
 10
253.771705417593
 20
164.9010659129837
 30
0.0
 11
253.771705417593
 21
164.9010659129837
 31
0.0
 11
253.7195214405215
 21
165.1571007924287
 31
0.0
 11
253.6344069222707
 21
165.4039872349491
 31
0.0
 11
253.5134062378048
 21
165.6514373341504
 31
0.0
 11
253.3645692699213
 21
165.8829102340055
 31
0.0
 11
253.1787838318423
 21
166.1130384086592
 31
0.0
 11
252.9710947441682
 21
166.3232835648252
 31
0.0
 11
252.7269502186875
 21
166.5285566300018
 31
0.0
 11
252.4663220747761
 21
166.7121403957341
 31
0.0
 11
252.1719623315676
 21
166.8862582000122
 31
0.0
 11
251.8656389171758
 21
167.038067085582
 31
0.0
 11
251.5305469400848
 21
167.175935111635
 31
0.0
 11
251.1871861004147
 21
167.2914292879661
 31
0.0
 11
250.8218993631719
 21
167.3891760005757
 31
0.0
 11
250.4514243935233
 21
167.4646780936546
 31
0.0
 11
250.0672412040218
 21
167.5197054194509
 31
0.0
 11
249.6805583235334
 21
167.5526233197515
 31
0.0
 11
249.28921394206
 21
167.5636508291994
 31
0.0
 11
248.8978695856147
 21
167.5526224315478
 31
0.0
 11
248.5111867798347
 21
167.5197036537105
 31
0.0
 11
248.1270037152193
 21
167.4646754562247
 31
0.0
 11
247.7565289169242
 21
167.3891725221464
 31
0.0
 11
247.3912424015193
 21
167.2914249793126
 31
0.0
 11
247.0478818239651
 21
167.1759300248126
 31
0.0
 11
246.7127901597672
 21
167.0380612448027
 31
0.0
 11
246.4064670899081
 21
166.8862516582689
 31
0.0
 11
246.1121077418637
 21
166.7121331511812
 31
0.0
 11
245.8514800145966
 21
166.5285488239491
 31
0.0
 11
245.6073359549777
 21
166.3232753865266
 31
0.0
 11
245.399647344464
 21
166.1130296030104
 31
0.0
 11
245.2138624287039
 21
165.8829000609153
 31
0.0
 11
245.065025986115
 21
165.6514276495718
 31
0.0
 11
244.9440258630261
 21
165.403982250809
 31
0.0
 11
244.8589119052823
 21
165.1570910499902
 31
0.0
 11
244.8067285104449
 21
164.90102898238
 31
0.0
 11
244.7892172534899
 21
164.6454554163042
 31
0.0
 11
244.8067290904713
 21
164.3898818899711
 31
0.0
 11
244.8589130664435
 21
164.1338199407923
 31
0.0
 11
244.9440275845088
 21
163.8869289331409
 31
0.0
 11
245.0650282691768
 21
163.6394838089895
 31
0.0
 11
245.2138652370938
 21
163.4080117354322
 31
0.0
 11
245.3996506751344
 21
163.177882614978
 31
0.0
 11
245.6073397628021
 21
162.9676373028135
 31
0.0
 11
245.8514842882901
 21
162.7623644194787
 31
0.0
 11
246.1121124322028
 21
162.5787806837444
 31
0.0
 11
246.4064721754098
 21
162.4046628447074
 31
0.0
 11
246.712795589801
 21
162.2528539533734
 31
0.0
 11
247.0478875668927
 21
162.1149859338609
 31
0.0
 11
247.3912484065647
 21
161.9994917586419
 31
0.0
 11
247.7565351438055
 21
161.901745044807
 31
0.0
 11
248.1270101134424
 21
161.8262429513963
 31
0.0
 11
248.5111924817377
 21
161.7712157196403
 31
0.0
 11
248.8978745304264
 21
161.73829781963
 31
0.0
 11
249.2892189065771
 21
161.7272702161954
 31
0.0
 11
249.6805632683452
 21
161.7382985198601
 31
0.0
 11
250.0672469059251
 21
161.7712172979893
 31
0.0
 11
250.4514307917464
 21
161.8262455895172
 31
0.0
 11
250.8219055900532
 21
161.901748523264
 31
0.0
 11
251.1871921054601
 21
161.9994960648722
 31
0.0
 11
251.5305526830123
 21
162.1149910204841
 31
0.0
 11
251.8656443472093
 21
162.2528598070348
 31
0.0
 11
252.1719674170693
 21
162.4046693878042
 31
0.0
 11
252.4663267651167
 21
162.5787878601318
 31
0.0
 11
252.7269544923814
 21
162.7623722173629
 31
0.0
 11
252.9710985519849
 21
162.9676458366344
 31
0.0
 11
253.1787871625117
 21
163.1778914641459
 31
0.0
 11
253.3645720783513
 21
163.4080200604036
 31
0.0
 11
253.5134085208708
 21
163.6394932980772
 31
0.0
 11
253.6344086435418
 21
163.8869436720843
 31
0.0
 11
253.7195224615932
 21
164.133829794494
 31
0.0
 11
253.7717058530163
 21
164.389864240879
 31
0.0
 11
253.7848394381774
 21
164.5176483148726
 31
0.0
 11
253.7892172534885
 21
164.6454645553833
 31
0.0
 11
253.7848392597076
 21
164.7732813226852
 31
0.0
 11
253.771705417593
 21
164.9010659129837
 31
0.0
  0
ARC
  5
145
330
4D
100
AcDbEntity
  8
1
  6
Continuous
 62
     7
100
AcDbCircle
 10
200.7892172534888
 20
171.8870943494782
 30
0.0
 40
6.000000000000085
100
AcDbArc
 50
-90.0
 51
0.0
  0
ARC
  5
146
330
4D
100
AcDbEntity
  8
1
  6
Continuous
 62
     7
100
AcDbCircle
 10
236.7892172534888
 20
171.8870943494782
 30
0.0
 40
6.0
100
AcDbArc
 50
180.0
 51
-90.0
  0
ENDBLK
  5
4F
330
4D
100
AcDbEntity
  8
0
100
AcDbBlockEnd
  0
BLOCK
  5
51
330
50
100
AcDbEntity
  8
0
100
AcDbBlockBegin
  2
_J__A4
 70
     0
 71
     0
 10
0.0
 20
0.0
 30
0.0
  3
_J__A4
  1

  0
POINT
  5
147
330
50
100
AcDbEntity
  8
1
 62
     4
100
AcDbPoint
 10
93.75
 20
17.0
 30
0.0
  0
POINT
  5
148
330
50
100
AcDbEntity
  8
1
 62
     4
100
AcDbPoint
 10
85.25
 20
17.0
 30
0.0
  0
POINT
  5
149
330
50
100
AcDbEntity
  8
1
 62
     4
100
AcDbPoint
 10
106.5
 20
19.00000000000001
 30
0.0
  0
POINT
  5
14A
330
50
100
AcDbEntity
  8
1
 62
     4
100
AcDbPoint
 10
106.5
 20
12.5
 30
0.0
  0
POINT
  5
14B
330
50
100
AcDbEntity
  8
1
 62
     4
100
AcDbPoint
 10
112.25
 20
12.5
 30
0.0
  0
POINT
  5
14C
330
50
100
AcDbEntity
  8
1
 62
     4
100
AcDbPoint
 10
100.75
 20
12.5
 30
0.0
  0
POINT
  5
14D
330
50
100
AcDbEntity
  8
1
 62
     4
100
AcDbPoint
 10
123.5
 20
19.00000000000001
 30
0.0
  0
POINT
  5
14E
330
50
100
AcDbEntity
  8
1
 62
     4
100
AcDbPoint
 10
123.5
 20
12.5
 30
0.0
  0
POINT
  5
14F
330
50
100
AcDbEntity
  8
1
 62
     4
100
AcDbPoint
 10
129.25
 20
12.5
 30
0.0
  0
POINT
  5
150
330
50
100
AcDbEntity
  8
1
 62
     4
100
AcDbPoint
 10
117.75
 20
12.5
 30
0.0
  0
POINT
  5
151
330
50
100
AcDbEntity
  8
1
 62
     4
100
AcDbPoint
 10
140.5
 20
19.00000000000001
 30
0.0
  0
POINT
  5
152
330
50
100
AcDbEntity
  8
1
 62
     4
100
AcDbPoint
 10
140.5
 20
12.5
 30
0.0
  0
POINT
  5
153
330
50
100
AcDbEntity
  8
1
 62
     4
100
AcDbPoint
 10
146.25
 20
12.5
 30
0.0
  0
POINT
  5
154
330
50
100
AcDbEntity
  8
1
 62
     4
100
AcDbPoint
 10
134.75
 20
12.5
 30
0.0
  0
POINT
  5
155
330
50
100
AcDbEntity
  8
1
 62
     4
100
AcDbPoint
 10
151.75
 20
12.5
 30
0.0
  0
POINT
  5
156
330
50
100
AcDbEntity
  8
1
 62
     4
100
AcDbPoint
 10
163.25
 20
12.5
 30
0.0
  0
POINT
  5
157
330
50
100
AcDbEntity
  8
1
 62
     4
100
AcDbPoint
 10
157.5
 20
12.5
 30
0.0
  0
POINT
  5
158
330
50
100
AcDbEntity
  8
1
 62
     4
100
AcDbPoint
 10
57.0
 20
14.25
 30
0.0
  0
POINT
  5
159
330
50
100
AcDbEntity
  8
1
 62
     4
100
AcDbPoint
 10
57.0
 20
22.75000000000001
 30
0.0
  0
POINT
  5
15A
330
50
100
AcDbEntity
  8
1
 62
     4
100
AcDbPoint
 10
47.5
 20
282.0000000000003
 30
0.0
  0
POINT
  5
15B
330
50
100
AcDbEntity
  8
1
 62
     4
100
AcDbPoint
 10
157.5
 20
19.00000000000001
 30
0.0
  0
POINT
  5
15C
330
50
100
AcDbEntity
  8
1
 62
     4
100
AcDbPoint
 10
57.0
 20
16.25
 30
0.0
  0
POINT
  5
15D
330
50
100
AcDbEntity
  8
1
 62
     4
100
AcDbPoint
 10
57.0
 20
24.75000000000001
 30
0.0
  0
POINT
  5
15E
330
50
100
AcDbEntity
  8
1
 62
     4
100
AcDbPoint
 10
57.0
 20
20.75000000000001
 30
0.0
  0
POINT
  5
15F
330
50
100
AcDbEntity
  8
1
 62
     4
100
AcDbPoint
 10
57.0
 20
12.25
 30
0.0
  0
POINT
  5
160
330
50
100
AcDbEntity
  8
1
 62
     4
100
AcDbPoint
 10
34.0
 20
34.00000000000001
 30
0.0
  0
LINE
  5
161
330
50
100
AcDbEntity
  8
1
  6
Continuous
 62
     7
100
AcDbLine
 10
105.0
 20
10.0
 30
0.0
 11
200.0
 21
10.0
 31
0.0
  0
LINE
  5
162
330
50
100
AcDbEntity
  8
1
  6
Continuous
 62
     2
100
AcDbLine
 10
105.0
 20
10.0
 30
0.0
 11
105.0
 21
5.0
 31
0.0
  0
LINE
  5
163
330
50
100
AcDbEntity
  8
1
  6
Continuous
 62
     7
100
AcDbLine
 10
200.0
 20
148.5
 30
0.0
 11
200.0
 21
287.0000000000003
 31
0.0
  0
LINE
  5
164
330
50
100
AcDbEntity
  8
1
  6
Continuous
 62
     2
100
AcDbLine
 10
200.0
 20
148.5
 30
0.0
 11
205.0
 21
148.5
 31
0.0
  0
LINE
  5
165
330
50
100
AcDbEntity
  8
1
  6
Continuous
 62
     7
100
AcDbLine
 10
25.0
 20
148.5
 30
0.0
 11
25.0
 21
287.0000000000003
 31
0.0
  0
LINE
  5
166
330
50
100
AcDbEntity
  8
1
  6
Continuous
 62
     2
100
AcDbLine
 10
25.0
 20
148.5
 30
0.0
 11
20.0
 21
148.5
 31
0.0
  0
LINE
  5
167
330
50
100
AcDbEntity
  8
1
  6
Continuous
 62
     7
100
AcDbLine
 10
105.0
 20
287.0000000000003
 30
0.0
 11
25.0
 21
287.0000000000003
 31
0.0
  0
LINE
  5
168
330
50
100
AcDbEntity
  8
1
  6
Continuous
 62
     2
100
AcDbLine
 10
105.0
 20
287.0000000000003
 30
0.0
 11
105.0
 21
292.0000000000003
 31
0.0
  0
LINE
  5
169
330
50
100
AcDbEntity
  8
1
  6
Continuous
 62
     2
100
AcDbLine
 10
166.0
 20
20.00000000000001
 30
0.0
 11
200.0
 21
20.00000000000001
 31
0.0
  0
LINE
  5
16A
330
50
100
AcDbEntity
  8
1
  6
Continuous
 62
     2
100
AcDbLine
 10
98.0
 20
27.00000000000001
 30
0.0
 11
98.0
 21
9.99999999999999
 31
0.0
  0
LINE
  5
16B
330
50
100
AcDbEntity
  8
1
  6
Continuous
 62
     2
100
AcDbLine
 10
115.0
 20
27.00000000000001
 30
0.0
 11
115.0
 21
9.99999999999999
 31
0.0
  0
LINE
  5
16C
330
50
100
AcDbEntity
  8
1
  6
Continuous
 62
     2
100
AcDbLine
 10
149.0
 20
27.00000000000001
 30
0.0
 11
149.0
 21
10.0
 31
0.0
  0
LINE
  5
16D
330
50
100
AcDbEntity
  8
1
  6
Continuous
 62
     2
100
AcDbLine
 10
132.0
 20
27.00000000000001
 30
0.0
 11
132.0
 21
9.99999999999999
 31
0.0
  0
LINE
  5
16E
330
50
100
AcDbEntity
  8
1
  6
Continuous
 62
     2
100
AcDbLine
 10
166.0
 20
27.00000000000001
 30
0.0
 11
166.0
 21
10.0
 31
0.0
  0
LINE
  5
16F
330
50
100
AcDbEntity
  8
1
  6
Continuous
 62
     2
100
AcDbLine
 10
55.0
 20
277.0000000000003
 30
0.0
 11
25.0
 21
277.0000000000003
 31
0.0
  0
LINE
  5
170
330
50
100
AcDbEntity
  8
1
  6
Continuous
 62
     7
100
AcDbLine
 10
25.0
 20
10.0
 30
0.0
 11
25.0
 21
148.5
 31
0.0
  0
LINE
  5
171
330
50
100
AcDbEntity
  8
1
  6
Continuous
 62
     2
100
AcDbLine
 10
40.0
 20
287.0000000000003
 30
0.0
 11
40.0
 21
277.0000000000003
 31
0.0
  0
LINE
  5
172
330
50
100
AcDbEntity
  8
1
  6
Continuous
 62
     2
100
AcDbLine
 10
55.0
 20
287.0000000000003
 30
0.0
 11
55.0
 21
277.0000000000003
 31
0.0
  0
LINE
  5
173
330
50
100
AcDbEntity
  8
1
  6
Continuous
 62
     2
100
AcDbLine
 10
33.0
 20
41.00000000000001
 30
0.0
 11
33.0
 21
27.0
 31
0.0
  0
LINE
  5
174
330
50
100
AcDbEntity
  8
1
  6
Continuous
 62
     7
100
AcDbLine
 10
200.0
 20
27.00000000000001
 30
0.0
 11
25.0
 21
27.00000000000001
 31
0.0
  0
LINE
  5
175
330
50
100
AcDbEntity
  8
1
  6
Continuous
 62
     7
100
AcDbLine
 10
25.0
 20
41.0
 30
0.0
 11
200.0
 21
41.0
 31
0.0
  0
LINE
  5
176
330
50
100
AcDbEntity
  8
1
  6
PHANTOM
 62
     4
100
AcDbLine
 10
0.0
 20
0.0
 30
0.0
 11
210.0
 21
0.0
 31
0.0
  0
LINE
  5
177
330
50
100
AcDbEntity
  8
1
  6
PHANTOM
 62
     4
100
AcDbLine
 10
210.0
 20
0.0
 30
0.0
 11
210.0
 21
297.0
 31
0.0
  0
LINE
  5
178
330
50
100
AcDbEntity
  8
1
  6
PHANTOM
 62
     4
100
AcDbLine
 10
210.0
 20
297.0
 30
0.0
 11
0.0
 21
297.0
 31
0.0
  0
LINE
  5
179
330
50
100
AcDbEntity
  8
1
  6
PHANTOM
 62
     4
100
AcDbLine
 10
0.0
 20
297.0
 30
0.0
 11
0.0
 21
0.0
 31
0.0
  0
LINE
  5
17A
330
50
100
AcDbEntity
  8
1
  6
Continuous
 62
     7
100
AcDbLine
 10
25.0
 20
10.0
 30
0.0
 11
105.0
 21
10.0
 31
0.0
  0
LINE
  5
17B
330
50
100
AcDbEntity
  8
1
  6
Continuous
 62
     7
100
AcDbLine
 10
200.0
 20
10.0
 30
0.0
 11
200.0
 21
148.5
 31
0.0
  0
LINE
  5
17C
330
50
100
AcDbEntity
  8
1
  6
Continuous
 62
     7
100
AcDbLine
 10
200.0
 20
287.0000000000003
 30
0.0
 11
105.0
 21
287.0000000000003
 31
0.0
  0
LINE
  5
17D
330
50
100
AcDbEntity
  8
1
  6
Continuous
 62
     2
100
AcDbLine
 10
25.0
 20
18.50000000000001
 30
0.0
 11
81.0
 21
18.50000000000001
 31
0.0
  0
LINE
  5
17E
330
50
100
AcDbEntity
  8
1
  6
Continuous
 62
     2
100
AcDbLine
 10
33.0
 20
27.0
 30
0.0
 11
33.0
 21
10.0
 31
0.0
  0
LINE
  5
17F
330
50
100
AcDbEntity
  8
1
  6
Continuous
 62
     7
100
AcDbLine
 10
191.0
 20
24.70000000000001
 30
0.0
 11
191.0
 21
22.30000000000001
 31
0.0
  0
LINE
  5
180
330
50
100
AcDbEntity
  8
1
  6
Continuous
 62
     7
100
AcDbLine
 10
191.0
 20
24.70000000000001
 30
0.0
 11
196.0
 21
25.50000000000001
 31
0.0
  0
LINE
  5
181
330
50
100
AcDbEntity
  8
1
  6
Continuous
 62
     7
100
AcDbLine
 10
196.0
 20
25.50000000000001
 30
0.0
 11
196.0
 21
21.50000000000001
 31
0.0
  0
LINE
  5
182
330
50
100
AcDbEntity
  8
1
  6
Continuous
 62
     7
100
AcDbLine
 10
196.0
 20
21.50000000000001
 30
0.0
 11
191.0
 21
22.30000000000001
 31
0.0
  0
LINE
  5
183
330
50
100
AcDbEntity
  8
1
  6
DOT_CENTER
 62
     2
100
AcDbLine
 10
184.0
 20
23.50000000000001
 30
0.0
 11
197.0
 21
23.50000000000001
 31
0.0
  0
LINE
  5
184
330
50
100
AcDbEntity
  8
1
  6
DOT_CENTER
 62
     2
100
AcDbLine
 10
187.0
 20
26.50000000000001
 30
0.0
 11
187.0
 21
20.50000000000001
 31
0.0
  0
LINE
  5
185
330
50
100
AcDbEntity
  8
1
  6
Continuous
 62
     2
100
AcDbLine
 10
81.0
 20
27.00000000000001
 30
0.0
 11
81.0
 21
10.0
 31
0.0
  0
CIRCLE
  5
186
330
50
100
AcDbEntity
  8
1
  6
Continuous
 62
     7
100
AcDbCircle
 10
103.5
 20
12.5
 30
0.0
 40
0.2999999999999972
  0
CIRCLE
  5
187
330
50
100
AcDbEntity
  8
1
  6
Continuous
 62
     7
100
AcDbCircle
 10
109.5
 20
12.5
 30
0.0
 40
0.2999999999999972
  0
CIRCLE
  5
188
330
50
100
AcDbEntity
  8
1
  6
Continuous
 62
     7
100
AcDbCircle
 10
120.5
 20
12.5
 30
0.0
 40
0.2999999999999972
  0
CIRCLE
  5
189
330
50
100
AcDbEntity
  8
1
  6
Continuous
 62
     7
100
AcDbCircle
 10
126.5
 20
12.5
 30
0.0
 40
0.2999999999999972
  0
CIRCLE
  5
18A
330
50
100
AcDbEntity
  8
1
  6
Continuous
 62
     7
100
AcDbCircle
 10
137.5
 20
12.5
 30
0.0
 40
0.3000000000000114
  0
CIRCLE
  5
18B
330
50
100
AcDbEntity
  8
1
  6
Continuous
 62
     7
100
AcDbCircle
 10
143.5
 20
12.5
 30
0.0
 40
0.3000000000000114
  0
CIRCLE
  5
18C
330
50
100
AcDbEntity
  8
1
  6
Continuous
 62
     7
100
AcDbCircle
 10
160.5
 20
12.5
 30
0.0
 40
0.3000000000000114
  0
CIRCLE
  5
18D
330
50
100
AcDbEntity
  8
1
  6
Continuous
 62
     7
100
AcDbCircle
 10
154.5
 20
12.5
 30
0.0
 40
0.3000000000000114
  0
CIRCLE
  5
18E
330
50
100
AcDbEntity
  8
1
  6
Continuous
 62
     7
100
AcDbCircle
 10
187.0
 20
23.50000000000001
 30
0.0
 40
1.200000000000102
  0
CIRCLE
  5
18F
330
50
100
AcDbEntity
  8
1
  6
Continuous
 62
     7
100
AcDbCircle
 10
187.0
 20
23.50000000000001
 30
0.0
 40
2.0
  0
CIRCLE
  5
190
330
50
100
AcDbEntity
  8
1
  6
DOT_CENTER
 62
     7
100
AcDbCircle
 10
89.5
 20
16.0
 30
0.0
 40
0.1000000000000227
  0
CIRCLE
  5
191
330
50
100
AcDbEntity
  8
1
  6
DOT_CENTER
 62
     7
100
AcDbCircle
 10
89.5
 20
18.0
 30
0.0
 40
0.1000000000000227
  0
MTEXT
  5
193
330
50
100
AcDbEntity
  8
1
 62
     7
100
AcDbMText
 10
188.5
 20
15.0
 30
0.0
 40
3.0
 41
0.0
 71
     5
 72
     1
  1
三栄水栓製作所
  7
CONVERTER_1
 73
     1
 44
1.32052821128451
  0
MTEXT
  5
194
330
50
100
AcDbEntity
  8
1
 62
     7
100
AcDbMText
 10
171.5
 20
15.0
 30
0.0
 40
2.5
 41
0.0
 71
     5
 72
     1
  1
株式会社
  7
CONVERTER_1
 73
     1
 44
1.32052821128451
  0
MTEXT
  5
195
330
50
100
AcDbEntity
  8
1
 62
     2
100
AcDbMText
 10
32.5
 20
282.0000000000003
 30
0.0
 40
5.0
 41
0.0
 71
     5
 72
     1
  1
図番
  7
CONVERTER_1
 73
     1
 44
0.60024009603842
  0
MTEXT
  5
196
330
50
100
AcDbEntity
  8
1
 62
     2
100
AcDbMText
 10
29.0
 20
34.00000000000001
 30
0.0
 40
3.5
 41
0.0
 71
     5
 72
     1
  1
備考
  7
CONVERTER_1
 73
     1
 44
0.60024009603842
  0
MTEXT
  5
197
330
50
100
AcDbEntity
  8
1
 62
     2
100
AcDbMText
 10
29.0
 20
22.75
 30
0.0
 40
3.5
 41
0.0
 71
     5
 72
     1
  1
品名
  7
CONVERTER_1
 73
     1
 44
0.96038415366146
  0
MTEXT
  5
198
330
50
100
AcDbEntity
  8
1
 62
     2
100
AcDbMText
 10
29.0
 20
14.25
 30
0.0
 40
3.5
 41
0.0
 71
     5
 72
     1
  1
品番
  7
CONVERTER_1
 73
     1
 44
0.96038415366146
  0
MTEXT
  5
199
330
50
100
AcDbEntity
  8
1
 62
     2
100
AcDbMText
 10
101.5
 20
25.00000000000001
 30
0.0
 40
3.0
 41
0.0
 71
     5
 72
     1
  1
承認
  7
CONVERTER_1
 73
     1
 44
0.78031212484994
  0
MTEXT
  5
19A
330
50
100
AcDbEntity
  8
1
 62
     2
100
AcDbMText
 10
175.0
 20
23.50000000000001
 30
0.0
 40
3.5
 41
0.0
 71
     5
 72
     1
  1
第三角法
  7
CONVERTER_1
 73
     1
 44
0.7202881152461
  0
MTEXT
  5
19B
330
50
100
AcDbEntity
  8
1
 62
     2
100
AcDbMText
 10
118.5
 20
25.00000000000001
 30
0.0
 40
3.0
 41
0.0
 71
     5
 72
     1
  1
検図
  7
CONVERTER_1
 73
     1
 44
0.78031212484994
  0
MTEXT
  5
19C
330
50
100
AcDbEntity
  8
1
 62
     2
100
AcDbMText
 10
152.5
 20
25.00000000000001
 30
0.0
 40
3.0
 41
0.0
 71
     5
 72
     1
  1
設計
  7
CONVERTER_1
 73
     1
 44
0.78031212484994
  0
MTEXT
  5
19D
330
50
100
AcDbEntity
  8
1
 62
     2
100
AcDbMText
 10
135.5
 20
25.00000000000001
 30
0.0
 40
3.0
 41
0.0
 71
     5
 72
     1
  1
製図
  7
CONVERTER_1
 73
     1
 44
0.78031212484994
  0
MTEXT
  5
19E
330
50
100
AcDbEntity
  8
1
 62
     2
100
AcDbMText
 10
89.5
 20
24.00000000000001
 30
0.0
 40
3.5
 41
0.0
 71
     5
 72
     1
  1
尺度
  7
CONVERTER_1
 73
     1
 44
0.7202881152461
  0
MTEXT
  5
19F
330
50
100
AcDbEntity
  8
1
 62
   250
100
AcDbMText
 10
25.0
 20
5.0
 30
0.0
 40
3.5
 41
0.0
 71
     4
 72
     1
  1
備考欄の文字列 原点位置=4
  7
CONVERTER_1
 73
     1
 44
0.7202881152461
  0
ENDBLK
  5
52
330
50
100
AcDbEntity
  8
0
100
AcDbBlockEnd
  0
BLOCK
  5
1D4
330
1CD
100
AcDbEntity
  8
0
100
AcDbBlockBegin
  2
*D09
 70
     1
 71
     0
 10
0.0
 20
0.0
 30
0.0
  3
*D09
  1

  0
LINE
  5
1CE
330
1CD
100
AcDbEntity
  8
0
  6
Continuous
 62
     2
100
AcDbLine
 10
168.7892172534888
 20
211.8870943494782
 30
0.0
 11
168.7892172534888
 21
153.3870943494781
 31
0.0
  0
LINE
  5
1CF
330
1CD
100
AcDbEntity
  8
0
  6
Continuous
 62
     2
100
AcDbLine
 10
218.1728945768913
 20
211.8870943494782
 30
0.0
 11
167.2892172534888
 21
211.8870943494782
 31
0.0
  0
LINE
  5
1D0
330
1CD
100
AcDbEntity
  8
0
  6
Continuous
 62
     2
100
AcDbLine
 10
180.7892172534888
 20
153.3870943494781
 30
0.0
 11
167.2892172534888
 21
153.3870943494781
 31
0.0
  0
SOLID
  5
1D1
330
1CD
100
AcDbEntity
  8
0
 62
     2
100
AcDbTrace
 10
169.4803928658226
 20
206.6370943494782
 30
0.0
 11
168.098041641155
 21
206.6370943494782
 31
0.0
 12
168.7892172534888
 22
211.8870943494782
 32
0.0
 13
168.7892172534888
 23
211.8870943494782
 33
0.0
  0
SOLID
  5
1D2
330
1CD
100
AcDbEntity
  8
0
 62
     2
100
AcDbTrace
 10
168.098041641155
 20
158.6370943494781
 30
0.0
 11
169.4803928658226
 21
158.6370943494781
 31
0.0
 12
168.7892172534888
 22
153.3870943494781
 32
0.0
 13
168.7892172534888
 23
153.3870943494781
 33
0.0
  0
MTEXT
  5
1D3
330
1CD
100
AcDbEntity
  8
0
 62
     7
100
AcDbMText
 10
167.2892172534888
 20
168.4620943494781
 30
0.0
 40
5.25
 41
0.0
 71
     7
 72
     1
  1
59リフト5
  7
CONVERTER_1
 11
0.0
 21
1.0
 31
0.0
 73
     1
 44
0.60024009603842
  0
ENDBLK
  5
1D5
330
1CD
100
AcDbEntity
  8
0
100
AcDbBlockEnd
  0
BLOCK
  5
1DF
330
1D8
100
AcDbEntity
  8
0
100
AcDbBlockBegin
  2
*D110
 70
     1
 71
     0
 10
0.0
 20
0.0
 30
0.0
  3
*D110
  1

  0
LINE
  5
1D9
330
1D8
100
AcDbEntity
  8
1
  6
Continuous
 62
     2
100
AcDbLine
 10
87.43500217271183
 20
357.388060640748
 30
0.0
 11
113.4350021727118
 21
357.388060640748
 31
0.0
  0
LINE
  5
1DA
330
1D8
100
AcDbEntity
  8
1
  6
Continuous
 62
     2
100
AcDbLine
 10
113.4350021727118
 20
341.7725536210847
 30
0.0
 11
113.4350021727118
 21
358.888060640748
 31
0.0
  0
LINE
  5
1DB
330
1D8
100
AcDbEntity
  8
1
  6
Continuous
 62
     2
100
AcDbLine
 10
87.43500217271183
 20
341.7725536210848
 30
0.0
 11
87.43500217271183
 21
358.888060640748
 31
0.0
  0
SOLID
  5
1DC
330
1D8
100
AcDbEntity
  8
1
 62
     2
100
AcDbTrace
 10
92.68500217271183
 20
358.0792362530818
 30
0.0
 11
92.68500217271183
 21
356.6968850284142
 31
0.0
 12
87.43500217271183
 22
357.388060640748
 32
0.0
 13
87.43500217271183
 23
357.388060640748
 33
0.0
  0
SOLID
  5
1DD
330
1D8
100
AcDbEntity
  8
1
 62
     2
100
AcDbTrace
 10
108.1850021727118
 20
356.6968850284142
 30
0.0
 11
108.1850021727118
 21
358.0792362530818
 31
0.0
 12
113.4350021727118
 22
357.388060640748
 32
0.0
 13
113.4350021727118
 23
357.388060640748
 33
0.0
  0
MTEXT
  5
1DE
330
1D8
100
AcDbEntity
  8
1
 62
     7
100
AcDbMText
 10
96.49750217271181
 20
358.888060640748
 30
0.0
 40
5.25
 41
0.0
 71
     7
 72
     1
  1
26
  7
CONVERTER_2
 11
0.9999999999970621
 21
2.424068405545307E-6
 31
0.0
 73
     1
 44
0.60024009603842
  0
ENDBLK
  5
1E0
330
1D8
100
AcDbEntity
  8
0
100
AcDbBlockEnd
  0
BLOCK
  5
1EA
330
1E3
100
AcDbEntity
  8
0
100
AcDbBlockBegin
  2
*D211
 70
     1
 71
     0
 10
0.0
 20
0.0
 30
0.0
  3
*D211
  1

  0
LINE
  5
1E4
330
1E3
100
AcDbEntity
  8
1
  6
Continuous
 62
     2
100
AcDbLine
 10
183.7892172534888
 20
113.3425444401759
 30
0.0
 11
253.7892172534889
 21
113.3425444401759
 31
0.0
  0
LINE
  5
1E5
330
1E3
100
AcDbEntity
  8
1
  6
Continuous
 62
     2
100
AcDbLine
 10
253.7892172534889
 20
140.8870943494782
 30
0.0
 11
253.7892172534889
 21
111.8425444401759
 31
0.0
  0
LINE
  5
1E6
330
1E3
100
AcDbEntity
  8
1
  6
Continuous
 62
     2
100
AcDbLine
 10
183.7892172534888
 20
140.8870943494782
 30
0.0
 11
183.7892172534888
 21
111.8425444401759
 31
0.0
  0
SOLID
  5
1E7
330
1E3
100
AcDbEntity
  8
1
 62
     2
100
AcDbTrace
 10
189.0392172534888
 20
114.0337200525097
 30
0.0
 11
189.0392172534888
 21
112.6513688278421
 31
0.0
 12
183.7892172534888
 22
113.3425444401759
 32
0.0
 13
183.7892172534888
 23
113.3425444401759
 33
0.0
  0
SOLID
  5
1E8
330
1E3
100
AcDbEntity
  8
1
 62
     2
100
AcDbTrace
 10
248.5392172534889
 20
112.6513688278421
 30
0.0
 11
248.5392172534889
 21
114.0337200525097
 31
0.0
 12
253.7892172534889
 22
113.3425444401759
 32
0.0
 13
253.7892172534889
 23
113.3425444401759
 33
0.0
  0
MTEXT
  5
1E9
330
1E3
100
AcDbEntity
  8
1
 62
     7
100
AcDbMText
 10
214.8517172534888
 20
114.8425444401759
 30
0.0
 40
5.25
 41
0.0
 71
     7
 72
     1
  1
70
  7
CONVERTER_2
 11
0.9999999999970621
 21
2.424068405545307E-6
 31
0.0
 73
     1
 44
0.60024009603842
  0
ENDBLK
  5
1EB
330
1E3
100
AcDbEntity
  8
0
100
AcDbBlockEnd
  0
BLOCK
  5
1F5
330
1EE
100
AcDbEntity
  8
0
100
AcDbBlockBegin
  2
*D312
 70
     1
 71
     0
 10
0.0
 20
0.0
 30
0.0
  3
*D312
  1

  0
LINE
  5
1EF
330
1EE
100
AcDbEntity
  8
0
  6
Continuous
 62
     2
100
AcDbLine
 10
183.7892172534888
 20
125.3425444401759
 30
0.0
 11
218.7892172534888
 21
125.3425444401759
 31
0.0
  0
LINE
  5
1F0
330
1EE
100
AcDbEntity
  8
0
  6
Continuous
 62
     2
100
AcDbLine
 10
218.7892172534888
 20
137.7966421317692
 30
0.0
 11
218.7892172534888
 21
123.8425444401759
 31
0.0
  0
LINE
  5
1F1
330
1EE
100
AcDbEntity
  8
0
  6
Continuous
 62
     2
100
AcDbLine
 10
183.7892172534888
 20
140.8870943494782
 30
0.0
 11
183.7892172534888
 21
123.8425444401759
 31
0.0
  0
SOLID
  5
1F2
330
1EE
100
AcDbEntity
  8
0
 62
     2
100
AcDbTrace
 10
189.0392172534888
 20
126.0337200525097
 30
0.0
 11
189.0392172534888
 21
124.6513688278421
 31
0.0
 12
183.7892172534888
 22
125.3425444401759
 32
0.0
 13
183.7892172534888
 23
125.3425444401759
 33
0.0
  0
SOLID
  5
1F3
330
1EE
100
AcDbEntity
  8
0
 62
     2
100
AcDbTrace
 10
213.5392172534888
 20
124.6513688278421
 30
0.0
 11
213.5392172534888
 21
126.0337200525097
 31
0.0
 12
218.7892172534888
 22
125.3425444401759
 32
0.0
 13
218.7892172534888
 23
125.3425444401759
 33
0.0
  0
MTEXT
  5
1F4
330
1EE
100
AcDbEntity
  8
0
 62
     7
100
AcDbMText
 10
197.3517172534888
 20
126.8425444401759
 30
0.0
 40
5.25
 41
0.0
 71
     7
 72
     1
  1
35
  7
CONVERTER_2
 11
0.9999999999970621
 21
2.424068405545307E-6
 31
0.0
 73
     1
 44
0.60024009603842
  0
ENDBLK
  5
1F6
330
1EE
100
AcDbEntity
  8
0
100
AcDbBlockEnd
  0
ENDSEC
  0
SECTION
  2
ENTITIES
  0
INSERT
  5
53
330
1F
100
AcDbEntity
  8
0
100
AcDbBlockReference
  2
R10A
 10
263.7892172534889
 20
153.3870943494781
 30
0.0
  0
INSERT
  5
54
330
1F
100
AcDbEntity
  8
0
100
AcDbBlockReference
  2
V23-0-13
 10
163.4892172534888
 20
108.0724587560823
 30
0.0
  0
INSERT
  5
55
330
1F
100
AcDbEntity
  8
1
100
AcDbBlockReference
  2
_J__A4
 10
0.0
 20
0.0
 30
0.0
 41
1.5
 42
1.5
 43
1.5
  0
LINE
  5
1A0
330
1F
100
AcDbEntity
  8
1
  6
Continuous
 62
     7
100
AcDbLine
 10
128.5330272207417
 20
171.4402350230827
 30
0.0
 11
128.5330272207417
 21
170.1902350230828
 31
0.0
  0
LINE
  5
1A1
330
1F
100
AcDbEntity
  8
1
  6
Continuous
 62
     7
100
AcDbLine
 10
128.5330272207417
 20
170.1902350230828
 30
0.0
 11
125.068925605604
 21
172.1902350230827
 31
0.0
  0
LINE
  5
1A2
330
1F
100
AcDbEntity
  8
1
  6
Continuous
 62
     7
100
AcDbLine
 10
128.5330272207417
 20
174.1902350230828
 30
0.0
 11
125.068925605604
 21
172.1902350230827
 31
0.0
  0
LINE
  5
1A3
330
1F
100
AcDbEntity
  8
1
  6
Continuous
 62
     7
100
AcDbLine
 10
134.5330272207417
 20
172.9402350230828
 30
0.0
 11
128.5330272207417
 21
172.9402350230828
 31
0.0
  0
LINE
  5
1A4
330
1F
100
AcDbEntity
  8
1
  6
Continuous
 62
     7
100
AcDbLine
 10
128.5330272207417
 20
171.4402350230827
 30
0.0
 11
134.5330272207417
 21
171.4402350230827
 31
0.0
  0
LINE
  5
1A5
330
1F
100
AcDbEntity
  8
1
  6
Continuous
 62
     7
100
AcDbLine
 10
128.5330272207417
 20
172.9402350230828
 30
0.0
 11
128.5330272207417
 21
174.1902350230828
 31
0.0
  0
LINE
  5
1A6
330
1F
100
AcDbEntity
  8
1
  6
Continuous
 62
     7
100
AcDbLine
 10
134.5330272207417
 20
171.4402350230827
 30
0.0
 11
134.5330272207417
 21
172.9402350230828
 31
0.0
  0
LINE
  5
1A7
330
1F
100
AcDbEntity
  8
1
  6
DASH_CENTER
 62
     2
100
AcDbLine
 10
87.43486458020681
 20
153.3870943494781
 30
0.0
 11
113.4348645802068
 21
153.3870943494781
 31
0.0
  0
LINE
  5
1A8
330
1F
100
AcDbEntity
  8
1
  6
DASH_CENTER
 62
     2
100
AcDbLine
 10
113.4348645802068
 20
153.3870943494781
 30
0.0
 11
116.4348645802068
 21
153.3870943494781
 31
0.0
  0
LINE
  5
1A9
330
1F
100
AcDbEntity
  8
1
  6
DASH_CENTER
 62
     2
100
AcDbLine
 10
256.7892172534889
 20
153.3870943494781
 30
0.0
 11
180.7892172534888
 21
153.3870943494781
 31
0.0
  0
LINE
  5
1AA
330
1F
100
AcDbEntity
  8
1
  6
DASH_CENTER
 62
     2
100
AcDbLine
 10
218.7892172534888
 20
137.7966421317691
 30
0.0
 11
218.7892172534888
 21
218.0742441452071
 31
0.0
  0
LINE
  5
1AB
330
1F
100
AcDbEntity
  8
1
  6
DASH_CENTER
 62
     2
100
AcDbLine
 10
100.4348645802068
 20
218.0742441452071
 30
0.0
 11
100.4348645802068
 21
136.1370943494781
 31
0.0
  0
LINE
  5
1AC
330
1F
100
AcDbEntity
  8
1
  6
DASH_CENTER
 62
     2
100
AcDbLine
 10
84.43486458020681
 20
153.3870943494781
 30
0.0
 11
87.43486458020681
 21
153.3870943494781
 31
0.0
  0
LINE
  5
1AD
330
1F
100
AcDbEntity
  8
1
  6
DASH_CENTER
 62
     2
100
AcDbLine
 10
100.4350021727118
 20
345.388060640748
 30
0.0
 11
100.4350021727118
 21
269.388060640748
 31
0.0
  0
LINE
  5
1AE
330
1F
100
AcDbEntity
  8
1
  6
DASH_CENTER
 62
     2
100
AcDbLine
 10
109.0952562105562
 20
302.388060640748
 30
0.0
 11
70.99013844404081
 21
324.388060640748
 31
0.0
  0
LINE
  5
1AF
330
1F
100
AcDbEntity
  8
1
  6
DASH_CENTER
 62
     2
100
AcDbLine
 10
129.8798659013826
 20
324.388060640748
 30
0.0
 11
91.77474813486742
 21
302.388060640748
 31
0.0
  0
LINE
  5
1B0
330
1F
100
AcDbEntity
  8
1
  6
DASH_CENTER
 62
     2
100
AcDbLine
 10
79.79908570386232
 20
307.388060640748
 30
0.0
 11
121.0709186415614
 21
307.388060640748
 31
0.0
  0
LINE
  5
1B1
330
1F
100
AcDbEntity
  8
1
  6
Continuous
 62
     7
100
AcDbLine
 10
181.0
 20
289.9999999999999
 30
0.0
 11
263.0
 21
289.9999999999999
 31
0.0
  0
LINE
  5
1B2
330
1F
100
AcDbEntity
  8
1
  6
Continuous
 62
     7
100
AcDbLine
 10
263.0
 20
289.9999999999999
 30
0.0
 11
263.0
 21
328.9999999999999
 31
0.0
  0
LINE
  5
1B3
330
1F
100
AcDbEntity
  8
1
  6
Continuous
 62
     7
100
AcDbLine
 10
263.0
 20
328.9999999999999
 30
0.0
 11
181.0
 21
328.9999999999999
 31
0.0
  0
LINE
  5
1B4
330
1F
100
AcDbEntity
  8
1
  6
Continuous
 62
     7
100
AcDbLine
 10
181.0
 20
328.9999999999999
 30
0.0
 11
181.0
 21
289.9999999999999
 31
0.0
  0
LINE
  5
1B5
330
1F
100
AcDbEntity
  8
1
  6
Continuous
 62
     2
100
AcDbLine
 10
263.0
 20
315.9999999999999
 30
0.0
 11
181.0
 21
315.9999999999999
 31
0.0
  0
LINE
  5
1B6
330
1F
100
AcDbEntity
  8
1
  6
Continuous
 62
     2
100
AcDbLine
 10
263.0
 20
302.9999999999999
 30
0.0
 11
181.0
 21
302.9999999999999
 31
0.0
  0
LINE
  5
1B7
330
1F
100
AcDbEntity
  8
1
  6
Continuous
 62
     2
100
AcDbLine
 10
241.0
 20
289.9999999999999
 30
0.0
 11
241.0
 21
328.9999999999999
 31
0.0
  0
SOLID
  5
1B8
330
1F
100
AcDbEntity
  8
1
 62
     2
100
AcDbTrace
 10
115.4612889414494
 20
158.2793155255133
 30
0.0
 11
116.6584402189642
 21
157.5881399131795
 31
0.0
 12
113.4348645802068
 22
153.3870943494781
 32
0.0
 13
113.4348645802068
 23
153.3870943494781
 33
0.0
  0
LEADER
  5
1B9
330
1F
100
AcDbEntity
  8
1
  6
Continuous
 62
     2
100
AcDbLeader
  3
Standard
 71
     0
 76
     3
 10
113.4348645802068
 20
153.3870943494781
 30
0.0
 10
121.6927866983696
 20
167.6902350230827
 30
0.0
 10
138.777388489596
 20
167.6902350230827
 30
0.0
  0
SOLID
  5
1BA
330
1F
100
AcDbEntity
  8
1
 62
     2
100
AcDbTrace
 10
181.7627928922462
 20
138.1697152931527
 30
0.0
 11
180.5656416147315
 21
138.8608909054865
 31
0.0
 12
183.7892172534888
 22
143.0619364691879
 32
0.0
 13
183.7892172534888
 23
143.0619364691879
 33
0.0
  0
LEADER
  5
1BB
330
1F
100
AcDbEntity
  8
1
  6
Continuous
 62
     2
100
AcDbLeader
  3
Standard
 71
     0
 76
     3
 10
183.7892172534888
 20
143.0619364691879
 30
0.0
 10
173.5589214956622
 20
125.3425444401759
 30
0.0
 10
151.200512810834
 20
125.3425444401759
 30
0.0
  0
SOLID
  5
1BC
330
1F
100
AcDbEntity
  8
1
 62
     2
100
AcDbTrace
 10
256.9947694792783
 20
138.8471222793544
 30
0.0
 11
255.794668752
 21
138.161080624113
 31
0.0
 12
253.7892172534889
 22
143.0619364691879
 32
0.0
 13
253.7892172534889
 23
143.0619364691879
 33
0.0
  0
LEADER
  5
1BD
330
1F
100
AcDbEntity
  8
1
  6
Continuous
 62
     2
100
AcDbLeader
  3
Standard
 71
     0
 76
     3
 10
253.7892172534889
 20
143.0619364691879
 30
0.0
 10
263.9185678664354
 20
125.3425444401759
 30
0.0
 10
287.015229528786
 20
125.3425444401759
 30
0.0
  0
MTEXT
  5
1BF
330
1F
100
AcDbEntity
  8
0
 62
     7
100
AcDbMText
 10
162.8797171532481
 20
129.8425444401759
 30
0.0
 40
5.25
 41
0.0
 71
     5
 72
     1
  1
Rc1/2
  7
CONVERTER_2
 73
     1
 44
1.32052821128451
  0
MTEXT
  5
1C0
330
1F
100
AcDbEntity
  8
0
 62
     7
100
AcDbMText
 10
274.9668986976107
 20
129.8425444401759
 30
0.0
 40
5.25
 41
0.0
 71
     5
 72
     1
  1
Rc1/2
  7
CONVERTER_2
 73
     1
 44
1.32052821128451
  0
MTEXT
  5
1C1
330
1F
100
AcDbEntity
  8
1
 62
     7
100
AcDbMText
 10
51.0
 20
56.25000000000001
 30
0.0
 40
5.25
 41
0.0
 71
     4
 72
     1
  1
JIS
  7
CONVERTER_2
 73
     1
 44
0.7202881152461
  0
MTEXT
  5
1C2
330
1F
100
AcDbEntity
  8
1
 62
     7
100
AcDbMText
 10
85.5
 20
34.12500000000001
 30
0.0
 40
5.25
 41
0.0
 71
     5
 72
     1
  1
メネジ化粧バルブ
  7
CONVERTER_1
 73
     1
 44
0.7202881152461
  0
MTEXT
  5
1C3
330
1F
100
AcDbEntity
  8
1
 62
     7
100
AcDbMText
 10
85.5
 20
21.375
 30
0.0
 40
5.25
 41
0.0
 71
     5
 72
     1
  1
V23A-13-色
  7
CONVERTER_1
 73
     1
 44
0.7202881152461
  0
MTEXT
  5
1C4
330
1F
100
AcDbEntity
  8
1
 62
     7
100
AcDbMText
 10
127.875
 20
25.5
 30
0.0
 40
5.25
 41
0.0
 71
     5
 72
     1
  1
1
  7
CONVERTER_2
 73
     1
 44
0.7202881152461
  0
MTEXT
  5
1C5
330
1F
100
AcDbEntity
  8
1
 62
     7
100
AcDbMText
 10
140.625
 20
25.5
 30
0.0
 40
5.25
 41
0.0
 71
     5
 72
     1
  1
1,5
  7
CONVERTER_2
 73
     1
 44
0.7202881152461
  0
MTEXT
  5
1C6
330
1F
100
AcDbEntity
  8
1
 62
     7
100
AcDbMText
 10
51.0
 20
45.75000000000001
 30
0.0
 40
5.25
 41
0.0
 71
     4
 72
     1
  1
共用形
  7
CONVERTER_1
 73
     1
 44
0.7202881152461
  0
MTEXT
  5
1C7
330
1F
100
AcDbEntity
  8
1
 62
     7
100
AcDbMText
 10
211.0
 20
322.4999999999999
 30
0.0
 40
5.25
 41
0.0
 71
     5
 72
     1
  1
品番
  7
CONVERTER_1
 73
     1
 44
0.7202881152461
  0
MTEXT
  5
1C8
330
1F
100
AcDbEntity
  8
1
 62
     7
100
AcDbMText
 10
211.0
 20
309.4999999999999
 30
0.0
 40
5.25
 41
0.0
 71
     5
 72
     1
  1
V23A-13
  7
CONVERTER_2
 73
     1
 44
0.7202881152461
  0
MTEXT
  5
1C9
330
1F
100
AcDbEntity
  8
1
 62
     7
100
AcDbMText
 10
211.0
 20
296.4999999999999
 30
0.0
 40
5.25
 41
0.0
 71
     5
 72
     1
  1
V23A-13-R
  7
CONVERTER_2
 73
     1
 44
0.7202881152461
  0
MTEXT
  5
1CA
330
1F
100
AcDbEntity
  8
1
 62
     7
100
AcDbMText
 10
252.0
 20
322.4999999999999
 30
0.0
 40
5.25
 41
0.0
 71
     5
 72
     1
  1
ビス色
  7
CONVERTER_1
 73
     1
 44
0.7202881152461
  0
MTEXT
  5
1CB
330
1F
100
AcDbEntity
  8
1
 62
     7
100
AcDbMText
 10
252.0
 20
309.4999999999999
 30
0.0
 40
5.25
 41
0.0
 71
     5
 72
     1
  1
青色
  7
CONVERTER_1
 73
     1
 44
0.7202881152461
  0
MTEXT
  5
1CC
330
1F
100
AcDbEntity
  8
1
 62
     7
100
AcDbMText
 10
252.0
 20
296.4999999999999
 30
0.0
 40
5.25
 41
0.0
 71
     5
 72
     1
  1
赤色
  7
CONVERTER_1
 73
     1
 44
0.7202881152461
  0
DIMENSION
  5
1D7
330
1F
100
AcDbEntity
  8
0
100
AcDbDimension
  2
*D09
 10
168.7892172534888
 20
211.8870943494782
 30
0.0
 11
164.6642172534888
 21
182.6370943494781
 31
0.0
  1
59リフト5
 71
     5
 42
0.0
 53
90.0
  3
ME10_DIM_0
100
AcDbAlignedDimension
 13
180.7892172534888
 23
153.3870943494781
 33
0.0
 14
218.1728945768913
 24
211.8870943494782
 34
0.0
 50
90.0
100
AcDbRotatedDimension
  0
DIMENSION
  5
1E2
330
1F
100
AcDbEntity
  8
1
100
AcDbDimension
  2
*D110
 10
87.43500217271183
 20
357.388060640748
 30
0.0
 11
100.4350021727118
 21
361.513060640748
 31
0.0
 70
     1
  1
<>
 71
     5
 42
0.0
 53
0.00013888888889
  3
ME10_DIM_1
100
AcDbAlignedDimension
 13
113.4350021727119
 23
341.7725536210846
 33
0.0
 14
87.43500217271185
 24
341.7725536210848
 34
0.0
  0
DIMENSION
  5
1ED
330
1F
100
AcDbEntity
  8
1
100
AcDbDimension
  2
*D211
 10
183.7892172534888
 20
113.3425444401759
 30
0.0
 11
218.7892172534888
 21
117.4675444401759
 31
0.0
 70
     1
  1
<>
 71
     5
 42
0.0
 53
0.00013888888889
  3
ME10_DIM_2
100
AcDbAlignedDimension
 13
253.7892172534889
 23
140.8870943494782
 33
0.0
 14
183.7892172534888
 24
140.8870943494782
 34
0.0
  0
DIMENSION
  5
1F8
330
1F
100
AcDbEntity
  8
0
100
AcDbDimension
  2
*D312
 10
183.7892172534888
 20
125.3425444401759
 30
0.0
 11
201.2892172534888
 21
129.4675444401759
 31
0.0
  1
<>
 71
     5
 42
0.0
 53
0.00013888888889
  3
ME10_DIM_3
100
AcDbAlignedDimension
 13
218.7892172534888
 23
137.7966421317691
 33
0.0
 14
183.7892172534888
 24
140.8870943494782
 34
0.0
100
AcDbRotatedDimension
  0
ENDSEC
  0
SECTION
  2
OBJECTS
  0
DICTIONARY
  5
C
330
0
100
AcDbDictionary
281
     1
  3
ACAD_GROUP
350
D
  3
ACAD_LAYOUT
350
1A
  3
ACAD_MLINESTYLE
350
17
  3
ACAD_PLOTSETTINGS
350
19
  3
ACAD_PLOTSTYLENAME
350
E
  3
ACAD_TABLESTYLE
350
2A
  3
AcDbVariableDictionary
350
2C
  0
DICTIONARY
  5
D
102
{ACAD_REACTORS
330
C
102
}
330
C
100
AcDbDictionary
281
     1
  0
DICTIONARY
  5
1A
102
{ACAD_REACTORS
330
C
102
}
330
C
100
AcDbDictionary
281
     1
  3
Layout1
350
1E
  3
Layout2
350
26
  3
Model
350
22
  0
DICTIONARY
  5
17
102
{ACAD_REACTORS
330
C
102
}
330
C
100
AcDbDictionary
281
     1
  3
Standard
350
18
  0
DICTIONARY
  5
19
102
{ACAD_REACTORS
330
C
102
}
330
C
100
AcDbDictionary
281
     1
  0
ACDBDICTIONARYWDFLT
  5
E
102
{ACAD_REACTORS
330
C
102
}
330
C
100
AcDbDictionary
281
     1
  3
Normal
350
F
100
AcDbDictionaryWithDefault
340
F
  0
DICTIONARY
  5
2A
102
{ACAD_REACTORS
330
C
102
}
330
C
100
AcDbDictionary
281
     1
  3
Standard
350
2B
  0
DICTIONARY
  5
2C
102
{ACAD_REACTORS
330
C
102
}
330
C
100
AcDbDictionary
281
     1
  3
CTABLESTYLE
350
2D
  0
LAYOUT
  5
1E
102
{ACAD_REACTORS
330
1A
102
}
330
1A
100
AcDbPlotSettings
  1

  2

  4

  6

 40
0.0
 41
0.0
 42
0.0
 43
0.0
 44
0.0
 45
0.0
 46
0.0
 47
0.0
 48
0.0
 49
0.0
140
0.0
141
0.0
142
1.0
143
1.0
 70
   688
 72
     0
 73
     0
 74
     5
  7

 75
    16
147
1.0
148
0.0
149
0.0
100
AcDbLayout
  1
Layout1
 70
     1
 71
     1
 10
0.0
 20
0.0
 11
12.0
 21
9.0
 12
0.0
 22
0.0
 32
0.0
 14
1.00000000000000E+20
 24
1.00000000000000E+20
 34
1.00000000000000E+20
 15
-1.00000000000000E+20
 25
-1.00000000000000E+20
 35
-1.00000000000000E+20
146
0.0
 13
0.0
 23
0.0
 33
0.0
 16
1.0
 26
0.0
 36
0.0
 17
0.0
 27
1.0
 37
0.0
 76
     0
330
1B
  0
LAYOUT
  5
26
102
{ACAD_REACTORS
330
1A
102
}
330
1A
100
AcDbPlotSettings
  1

  2

  4

  6

 40
0.0
 41
0.0
 42
0.0
 43
0.0
 44
0.0
 45
0.0
 46
0.0
 47
0.0
 48
0.0
 49
0.0
140
0.0
141
0.0
142
1.0
143
1.0
 70
   688
 72
     0
 73
     0
 74
     5
  7

 75
    16
147
1.0
148
0.0
149
0.0
100
AcDbLayout
  1
Layout2
 70
     1
 71
     2
 10
0.0
 20
0.0
 11
0.0
 21
0.0
 12
0.0
 22
0.0
 32
0.0
 14
0.0
 24
0.0
 34
0.0
 15
0.0
 25
0.0
 35
0.0
146
0.0
 13
0.0
 23
0.0
 33
0.0
 16
1.0
 26
0.0
 36
0.0
 17
0.0
 27
1.0
 37
0.0
 76
     0
330
23
  0
LAYOUT
  5
22
102
{ACAD_REACTORS
330
1A
102
}
330
1A
100
AcDbPlotSettings
  1

  2

  4

  6

 40
0.0
 41
0.0
 42
0.0
 43
0.0
 44
0.0
 45
0.0
 46
0.0
 47
0.0
 48
0.0
 49
0.0
140
0.0
141
0.0
142
1.0
143
1.0
 70
  1712
 72
     0
 73
     0
 74
     0
  7

 75
     0
147
1.0
148
0.0
149
0.0
100
AcDbLayout
  1
Model
 70
     1
 71
     0
 10
0.0
 20
0.0
 11
0.0
 21
0.0
 12
0.0
 22
0.0
 32
0.0
 14
0.0
 24
0.0
 34
0.0
 15
315.0
 25
445.5
 35
0.0
146
0.0
 13
0.0
 23
0.0
 33
0.0
 16
1.0
 26
0.0
 36
0.0
 17
0.0
 27
1.0
 37
0.0
 76
     0
330
1F
  0
MLINESTYLE
  5
18
102
{ACAD_REACTORS
330
17
102
}
330
17
100
AcDbMlineStyle
  2
Standard
 70
     0
  3

 62
   256
 51
90.0
 52
90.0
 71
     2
 49
0.5
 62
   256
  6
BYLAYER
 49
-0.5
 62
   256
  6
BYLAYER
  0
ACDBPLACEHOLDER
  5
F
102
{ACAD_REACTORS
330
E
102
}
330
E
  0
TABLESTYLE
  5
2B
102
{ACAD_REACTORS
330
2A
102
}
330
2A
100
AcDbTableStyle
  3
Standard
 70
     0
 71
     0
 40
0.06
 41
0.06
280
     0
281
     0
  7
Standard
140
0.18
170
     2
 62
     0
 63
     7
283
     0
274
    -2
284
     1
 64
     0
275
    -2
285
     1
 65
     0
276
    -2
286
     1
 66
     0
277
    -2
287
     1
 67
     0
278
    -2
288
     1
 68
     0
279
    -2
289
     1
 69
     0
  7
Standard
140
0.25
170
     5
 62
     0
 63
     7
283
     0
274
    -2
284
     1
 64
     0
275
    -2
285
     1
 65
     0
276
    -2
286
     1
 66
     0
277
    -2
287
     1
 67
     0
278
    -2
288
     1
 68
     0
279
    -2
289
     1
 69
     0
  7
Standard
140
0.18
170
     5
 62
     0
 63
     7
283
     0
274
    -2
284
     1
 64
     0
275
    -2
285
     1
 65
     0
276
    -2
286
     1
 66
     0
277
    -2
287
     1
 67
     0
278
    -2
288
     1
 68
     0
279
    -2
289
     1
 69
     0
  0
DICTIONARYVAR
  5
2D
102
{ACAD_REACTORS
330
2C
102
}
330
2C
100
DictionaryVariables
280
     0
  1
Standard
  0
ENDSEC
  0
EOF
