  0
SECTION
  2
HEADER
  9
$ACADVER
  1
AC1015
  9
$ACADMAINTVER
 70
     6
  9
$DWGCODEPAGE
  3
DOS932
  9
$INSBASE
 10
0.0
 20
0.0
 30
0.0
  9
$EXTMIN
 10
0.00000000000004
 20
0.0
 30
0.0
  9
$EXTMAX
 10
315.0000000000002
 20
445.5
 30
0.0
  9
$LIMMIN
 10
0.0
 20
0.0
  9
$LIMMAX
 10
12.0
 20
9.0
  9
$ORTHOMODE
 70
     0
  9
$REGENMODE
 70
     1
  9
$FILLMODE
 70
     1
  9
$QTEXTMODE
 70
     0
  9
$MIRRTEXT
 70
     1
  9
$LTSCALE
 40
1.0
  9
$ATTMODE
 70
     1
  9
$TEXTSIZE
 40
0.2
  9
$TRACEWID
 40
0.05
  9
$TEXTSTYLE
  7
Standard
  9
$CLAYER
  8
0
  9
$CELTYPE
  6
ByLayer
  9
$CECOLOR
 62
   256
  9
$CELTSCALE
 40
1.0
  9
$DISPSILH
 70
     0
  9
$DIMSCALE
 40
1.0
  9
$DIMASZ
 40
0.18
  9
$DIMEXO
 40
0.0625
  9
$DIMDLI
 40
0.38
  9
$DIMRND
 40
0.0
  9
$DIMDLE
 40
0.0
  9
$DIMEXE
 40
0.18
  9
$DIMTP
 40
0.0
  9
$DIMTM
 40
0.0
  9
$DIMTXT
 40
0.18
  9
$DIMCEN
 40
0.09
  9
$DIMTSZ
 40
0.0
  9
$DIMTOL
 70
     0
  9
$DIMLIM
 70
     0
  9
$DIMTIH
 70
     1
  9
$DIMTOH
 70
     1
  9
$DIMSE1
 70
     0
  9
$DIMSE2
 70
     0
  9
$DIMTAD
 70
     0
  9
$DIMZIN
 70
     0
  9
$DIMBLK
  1

  9
$DIMASO
 70
     1
  9
$DIMSHO
 70
     1
  9
$DIMPOST
  1

  9
$DIMAPOST
  1

  9
$DIMALT
 70
     0
  9
$DIMALTD
 70
     2
  9
$DIMALTF
 40
25.4
  9
$DIMLFAC
 40
1.0
  9
$DIMTOFL
 70
     0
  9
$DIMTVP
 40
0.0
  9
$DIMTIX
 70
     0
  9
$DIMSOXD
 70
     0
  9
$DIMSAH
 70
     0
  9
$DIMBLK1
  1

  9
$DIMBLK2
  1

  9
$DIMSTYLE
  2
Standard
  9
$DIMCLRD
 70
     0
  9
$DIMCLRE
 70
     0
  9
$DIMCLRT
 70
     0
  9
$DIMTFAC
 40
1.0
  9
$DIMGAP
 40
0.09
  9
$DIMJUST
 70
     0
  9
$DIMSD1
 70
     0
  9
$DIMSD2
 70
     0
  9
$DIMTOLJ
 70
     1
  9
$DIMTZIN
 70
     0
  9
$DIMALTZ
 70
     0
  9
$DIMALTTZ
 70
     0
  9
$DIMUPT
 70
     0
  9
$DIMDEC
 70
     4
  9
$DIMTDEC
 70
     4
  9
$DIMALTU
 70
     2
  9
$DIMALTTD
 70
     2
  9
$DIMTXSTY
  7
Standard
  9
$DIMAUNIT
 70
     0
  9
$DIMADEC
 70
     0
  9
$DIMALTRND
 40
0.0
  9
$DIMAZIN
 70
     0
  9
$DIMDSEP
 70
    46
  9
$DIMATFIT
 70
     3
  9
$DIMFRAC
 70
     0
  9
$DIMLDRBLK
  1

  9
$DIMLUNIT
 70
     2
  9
$DIMLWD
 70
    -2
  9
$DIMLWE
 70
    -2
  9
$DIMTMOVE
 70
     0
  9
$LUNITS
 70
     2
  9
$LUPREC
 70
     4
  9
$SKETCHINC
 40
0.1
  9
$FILLETRAD
 40
0.5
  9
$AUNITS
 70
     0
  9
$AUPREC
 70
     0
  9
$MENU
  1
.
  9
$ELEVATION
 40
0.0
  9
$PELEVATION
 40
0.0
  9
$THICKNESS
 40
0.0
  9
$LIMCHECK
 70
     0
  9
$CHAMFERA
 40
0.5
  9
$CHAMFERB
 40
0.5
  9
$CHAMFERC
 40
1.0
  9
$CHAMFERD
 40
0.0
  9
$SKPOLY
 70
     0
  9
$TDCREATE
 40
2456142.570365116
  9
$TDUCREATE
 40
2456142.195365116
  9
$TDUPDATE
 40
2456142.570365127
  9
$TDUUPDATE
 40
2456142.195365127
  9
$TDINDWG
 40
0.0000000116
  9
$TDUSRTIMER
 40
0.0000000116
  9
$USRTIMER
 70
     1
  9
$ANGBASE
 50
0.0
  9
$ANGDIR
 70
     0
  9
$PDMODE
 70
     0
  9
$PDSIZE
 40
0.0
  9
$PLINEWID
 40
0.0
  9
$SPLFRAME
 70
     0
  9
$SPLINETYPE
 70
     6
  9
$SPLINESEGS
 70
     8
  9
$HANDSEED
  5
252
  9
$SURFTAB1
 70
     6
  9
$SURFTAB2
 70
     6
  9
$SURFTYPE
 70
     6
  9
$SURFU
 70
     6
  9
$SURFV
 70
     6
  9
$UCSBASE
  2

  9
$UCSNAME
  2

  9
$UCSORG
 10
0.0
 20
0.0
 30
0.0
  9
$UCSXDIR
 10
1.0
 20
0.0
 30
0.0
  9
$UCSYDIR
 10
0.0
 20
1.0
 30
0.0
  9
$UCSORTHOREF
  2

  9
$UCSORTHOVIEW
 70
     0
  9
$UCSORGTOP
 10
0.0
 20
0.0
 30
0.0
  9
$UCSORGBOTTOM
 10
0.0
 20
0.0
 30
0.0
  9
$UCSORGLEFT
 10
0.0
 20
0.0
 30
0.0
  9
$UCSORGRIGHT
 10
0.0
 20
0.0
 30
0.0
  9
$UCSORGFRONT
 10
0.0
 20
0.0
 30
0.0
  9
$UCSORGBACK
 10
0.0
 20
0.0
 30
0.0
  9
$PUCSBASE
  2

  9
$PUCSNAME
  2

  9
$PUCSORG
 10
0.0
 20
0.0
 30
0.0
  9
$PUCSXDIR
 10
1.0
 20
0.0
 30
0.0
  9
$PUCSYDIR
 10
0.0
 20
1.0
 30
0.0
  9
$PUCSORTHOREF
  2

  9
$PUCSORTHOVIEW
 70
     0
  9
$PUCSORGTOP
 10
0.0
 20
0.0
 30
0.0
  9
$PUCSORGBOTTOM
 10
0.0
 20
0.0
 30
0.0
  9
$PUCSORGLEFT
 10
0.0
 20
0.0
 30
0.0
  9
$PUCSORGRIGHT
 10
0.0
 20
0.0
 30
0.0
  9
$PUCSORGFRONT
 10
0.0
 20
0.0
 30
0.0
  9
$PUCSORGBACK
 10
0.0
 20
0.0
 30
0.0
  9
$USERI1
 70
     0
  9
$USERI2
 70
     0
  9
$USERI3
 70
     0
  9
$USERI4
 70
     0
  9
$USERI5
 70
     0
  9
$USERR1
 40
13.2
  9
$USERR2
 40
0.0
  9
$USERR3
 40
0.0
  9
$USERR4
 40
0.0
  9
$USERR5
 40
0.0
  9
$WORLDVIEW
 70
     1
  9
$SHADEDGE
 70
     3
  9
$SHADEDIF
 70
    70
  9
$TILEMODE
 70
     1
  9
$MAXACTVP
 70
    64
  9
$PINSBASE
 10
0.0
 20
0.0
 30
0.0
  9
$PLIMCHECK
 70
     0
  9
$PEXTMIN
 10
1.00000000000000E+20
 20
1.00000000000000E+20
 30
1.00000000000000E+20
  9
$PEXTMAX
 10
-1.00000000000000E+20
 20
-1.00000000000000E+20
 30
-1.00000000000000E+20
  9
$PLIMMIN
 10
0.0
 20
0.0
  9
$PLIMMAX
 10
12.0
 20
9.0
  9
$UNITMODE
 70
     0
  9
$VISRETAIN
 70
     1
  9
$PLINEGEN
 70
     0
  9
$PSLTSCALE
 70
     1
  9
$TREEDEPTH
 70
  3020
  9
$CMLSTYLE
  2
Standard
  9
$CMLJUST
 70
     0
  9
$CMLSCALE
 40
1.0
  9
$PROXYGRAPHICS
 70
     1
  9
$MEASUREMENT
 70
     1
  9
$CELWEIGHT
370
    -1
  9
$ENDCAPS
280
     0
  9
$JOINSTYLE
280
     0
  9
$LWDISPLAY
290
     0
  9
$INSUNITS
 70
     1
  9
$HYPERLINKBASE
  1

  9
$STYLESHEET
  1

  9
$XEDIT
290
     1
  9
$CEPSNTYPE
380
     0
  9
$PSTYLEMODE
290
     0
  9
$FINGERPRINTGUID
  2
{FAEB1C30-E019-11D5-929B-00C0DF256EC4}
  9
$VERSIONGUID
  2
{FAEB1C32-E019-11D5-929B-00C0DF256EC4}
  9
$EXTNAMES
290
     1
  9
$PSVPSCALE
 40
0.0
  9
$OLESTARTUP
290
     0
  0
ENDSEC
  0
SECTION
  2
CLASSES
  0
CLASS
  1
ACDBDICTIONARYWDFLT
  2
AcDbDictionaryWithDefault
  3
ObjectDBX Classes
 90
        0
280
     0
281
     0
  0
CLASS
  1
TABLESTYLE
  2
AcDbTableStyle
  3
ObjectDBX Classes
 90
     2047
280
     0
281
     0
  0
CLASS
  1
DICTIONARYVAR
  2
AcDbDictionaryVar
  3
ObjectDBX Classes
 90
        0
280
     0
281
     0
  0
CLASS
  1

  2
exOdDbCircle
  3

 90
        0
280
     0
281
     1
  0
CLASS
  1

  2
exOdDbSpline
  3

 90
        0
280
     0
281
     1
  0
CLASS
  1
ACDBPLACEHOLDER
  2
AcDbPlaceHolder
  3
ObjectDBX Classes
 90
        0
280
     0
281
     0
  0
CLASS
  1
LAYOUT
  2
AcDbLayout
  3
ObjectDBX Classes
 90
        0
280
     0
281
     0
  0
ENDSEC
  0
SECTION
  2
TABLES
  0
TABLE
  2
VPORT
  5
8
330
0
100
AcDbSymbolTable
 70
     2
  0
VPORT
  5
29
330
8
100
AcDbSymbolTableRecord
100
AcDbViewportTableRecord
  2
*Active
 70
     0
 10
0.0
 20
0.0
 11
1.0
 21
1.0
 12
157.5000000000001
 22
222.75
 13
0.0
 23
0.0
 14
0.5
 24
0.5
 15
0.5
 25
0.5
 16
0.0
 26
0.0
 36
1.0
 17
0.0
 27
0.0
 37
0.0
 40
490.05
 41
1.60267857142857
 42
50.0
 43
0.0
 44
0.0
 50
0.0
 51
0.0
 71
     0
 72
   100
 73
     1
 74
     3
 75
     0
 76
     0
 77
     0
 78
     0
281
     0
 65
     1
110
0.0
120
0.0
130
0.0
111
1.0
121
0.0
131
0.0
112
0.0
122
1.0
132
0.0
 79
     0
146
0.0
  0
ENDTAB
  0
TABLE
  2
LTYPE
  5
5
330
0
100
AcDbSymbolTable
 70
     8
  0
LTYPE
  5
14
330
5
100
AcDbSymbolTableRecord
100
AcDbLinetypeTableRecord
  2
ByBlock
 70
     0
  3

 72
    65
 73
     0
 40
0.0
  0
LTYPE
  5
15
330
5
100
AcDbSymbolTableRecord
100
AcDbLinetypeTableRecord
  2
ByLayer
 70
     0
  3

 72
    65
 73
     0
 40
0.0
  0
LTYPE
  5
16
330
5
100
AcDbSymbolTableRecord
100
AcDbLinetypeTableRecord
  2
Continuous
 70
     0
  3
Solid line
 72
    65
 73
     0
 40
0.0
  0
LTYPE
  5
2E
330
5
100
AcDbSymbolTableRecord
100
AcDbLinetypeTableRecord
  2
DASHED
 70
     0
  3
Dashed
 72
    65
 73
     2
 40
15.0
 49
7.0
 74
     0
 49
-8.0
 74
     0
  0
LTYPE
  5
2F
330
5
100
AcDbSymbolTableRecord
100
AcDbLinetypeTableRecord
  2
DOTTED
 70
     0
  3
Dotted
 72
    65
 73
     2
 40
1.0
 49
0.0
 74
     0
 49
-1.0
 74
     0
  0
LTYPE
  5
30
330
5
100
AcDbSymbolTableRecord
100
AcDbLinetypeTableRecord
  2
DOT_CENTER
 70
     0
  3
Dot_Center
 72
    65
 73
     4
 40
14.0
 49
12.0
 74
     0
 49
-1.0
 74
     0
 49
0.0
 74
     0
 49
-1.0
 74
     0
  0
LTYPE
  5
31
330
5
100
AcDbSymbolTableRecord
100
AcDbLinetypeTableRecord
  2
LONG_DASHED
 70
     0
  3
Long_Dashed
 72
    65
 73
     2
 40
15.0
 49
10.0
 74
     0
 49
-5.0
 74
     0
  0
LTYPE
  5
32
330
5
100
AcDbSymbolTableRecord
100
AcDbLinetypeTableRecord
  2
DASH_CENTER
 70
     0
  3
Dash_Center
 72
    65
 73
     4
 40
14.0
 49
11.0
 74
     0
 49
-1.0
 74
     0
 49
1.0
 74
     0
 49
-1.0
 74
     0
  0
LTYPE
  5
33
330
5
100
AcDbSymbolTableRecord
100
AcDbLinetypeTableRecord
  2
PHANTOM
 70
     0
  3
Phantom
 72
    65
 73
     6
 40
13.0
 49
10.0
 74
     0
 49
-1.0
 74
     0
 49
0.0
 74
     0
 49
-1.0
 74
     0
 49
0.0
 74
     0
 49
-1.0
 74
     0
  0
LTYPE
  5
34
330
5
100
AcDbSymbolTableRecord
100
AcDbLinetypeTableRecord
  2
CENTER_DASH_DASH
 70
     0
  3
Center_Dash_Dash
 72
    65
 73
     6
 40
14.0
 49
9.0
 74
     0
 49
-1.0
 74
     0
 49
1.0
 74
     0
 49
-1.0
 74
     0
 49
1.0
 74
     0
 49
-1.0
 74
     0
  0
ENDTAB
  0
TABLE
  2
LAYER
  5
2
330
0
100
AcDbSymbolTable
 70
     2
  0
LAYER
  5
10
330
2
100
AcDbSymbolTableRecord
100
AcDbLayerTableRecord
  2
0
 70
     0
 62
     7
  6
Continuous
370
    -3
390
F
  0
LAYER
  5
35
330
2
100
AcDbSymbolTableRecord
100
AcDbLayerTableRecord
  2
1
 70
     0
 62
     7
  6
Continuous
370
    -3
390
F
  0
ENDTAB
  0
TABLE
  2
STYLE
  5
3
330
0
100
AcDbSymbolTable
 70
     3
  0
STYLE
  5
11
330
3
100
AcDbSymbolTableRecord
100
AcDbTextStyleTableRecord
  2
Standard
 70
     0
 40
0.0
 41
1.0
 50
0.0
 71
     0
 42
0.2
  3
txt
  4

  0
STYLE
  5
A1
330
3
100
AcDbSymbolTableRecord
100
AcDbTextStyleTableRecord
  2
CONVERTER_1
 70
     0
 40
0.0
 41
0.89
 50
0.0
 71
     0
 42
0.2
  3
msmincho.ttc
  4

1001
ACAD
1000
MS Mincho
1071
    32785
  0
STYLE
  5
21E
330
3
100
AcDbSymbolTableRecord
100
AcDbTextStyleTableRecord
  2
CONVERTER_2
 70
     0
 40
0.0
 41
0.9
 50
0.0
 71
     0
 42
0.2
  3
txt.shx
  4

  0
ENDTAB
  0
TABLE
  2
VIEW
  5
6
330
0
100
AcDbSymbolTable
 70
     0
  0
ENDTAB
  0
TABLE
  2
UCS
  5
7
330
0
100
AcDbSymbolTable
 70
     0
  0
ENDTAB
  0
TABLE
  2
APPID
  5
9
330
0
100
AcDbSymbolTable
 70
     1
  0
APPID
  5
12
330
9
100
AcDbSymbolTableRecord
100
AcDbRegAppTableRecord
  2
ACAD
 70
     0
  0
ENDTAB
  0
TABLE
  2
DIMSTYLE
  5
A
330
0
100
AcDbSymbolTable
 70
     5
100
AcDbDimStyleTable
  0
DIMSTYLE
105
27
330
A
100
AcDbSymbolTableRecord
100
AcDbDimStyleTableRecord
  2
Standard
 70
     0
340
11
  0
DIMSTYLE
105
22E
102
{ACAD_REACTORS
330
22F
102
}
330
A
100
AcDbSymbolTableRecord
100
AcDbDimStyleTableRecord
  2
ME10_DIM_0
 70
     0
  3
{\Fgdt;n}<>
 41
5.25
 42
0.0
 44
1.5
 73
     0
 74
     0
 77
     1
 78
     8
140
5.25
147
0.625
172
     1
173
     1
176
     2
177
     2
178
     7
271
     2
340
21E
  0
DIMSTYLE
105
23A
102
{ACAD_REACTORS
330
23B
102
}
330
A
100
AcDbSymbolTableRecord
100
AcDbDimStyleTableRecord
  2
ME10_DIM_1
 70
     0
 41
5.25
 42
0.0
 44
1.5
 73
     0
 74
     0
 77
     1
 78
     8
140
5.25
147
0.625
172
     1
173
     1
176
     2
177
     2
178
     7
271
     2
340
21E
  0
DIMSTYLE
105
245
102
{ACAD_REACTORS
330
246
102
}
330
A
100
AcDbSymbolTableRecord
100
AcDbDimStyleTableRecord
  2
ME10_DIM_2
 70
     0
 41
5.25
 42
0.0
 44
1.5
 73
     0
 74
     0
 77
     1
 78
     8
140
5.25
147
0.625
172
     1
173
     1
176
     2
177
     2
178
     7
271
     2
340
21E
  0
DIMSTYLE
105
250
102
{ACAD_REACTORS
330
251
102
}
330
A
100
AcDbSymbolTableRecord
100
AcDbDimStyleTableRecord
  2
ME10_DIM_3
 70
     0
 41
5.25
 42
0.0
 44
1.5
 73
     0
 74
     0
 77
     1
 78
     8
140
5.25
147
0.625
172
     1
173
     1
176
     2
177
     2
178
     7
271
     2
340
A1
  0
ENDTAB
  0
TABLE
  2
BLOCK_RECORD
  5
1
330
0
100
AcDbSymbolTable
 70
    13
  0
BLOCK_RECORD
  5
1F
330
1
100
AcDbSymbolTableRecord
100
AcDbBlockTableRecord
  2
*Model_Space
340
22
  0
BLOCK_RECORD
  5
1B
330
1
100
AcDbSymbolTableRecord
100
AcDbBlockTableRecord
  2
*Paper_Space
340
1E
  0
BLOCK_RECORD
  5
23
330
1
100
AcDbSymbolTableRecord
100
AcDbBlockTableRecord
  2
*Paper_Space0
340
26
  0
BLOCK_RECORD
  5
36
330
1
100
AcDbSymbolTableRecord
100
AcDbBlockTableRecord
  2
_J__A4
340
0
102
{BLKREFS
331
52
102
}
  0
BLOCK_RECORD
  5
39
330
1
100
AcDbSymbolTableRecord
100
AcDbBlockTableRecord
  2
21-1C-M1
340
0
102
{BLKREFS
331
46
102
}
  0
BLOCK_RECORD
  5
3C
330
1
100
AcDbSymbolTableRecord
100
AcDbBlockTableRecord
  2
42-1-P8
340
0
102
{BLKREFS
331
47
102
}
  0
BLOCK_RECORD
  5
3F
330
1
100
AcDbSymbolTableRecord
100
AcDbBlockTableRecord
  2
37-1-13
340
0
102
{BLKREFS
331
48
102
}
  0
BLOCK_RECORD
  5
42
330
1
100
AcDbSymbolTableRecord
100
AcDbBlockTableRecord
  2
36-54-M11
340
0
102
{BLKREFS
331
49
102
}
  0
BLOCK_RECORD
  5
45
330
1
100
AcDbSymbolTableRecord
100
AcDbBlockTableRecord
  2
R10AK-13-B
340
0
102
{BLKREFS
331
53
102
}
  0
BLOCK_RECORD
  5
4C
330
1
100
AcDbSymbolTableRecord
100
AcDbBlockTableRecord
  2
V24-0
340
0
102
{BLKREFS
331
54
102
}
  0
BLOCK_RECORD
  5
4F
330
1
100
AcDbSymbolTableRecord
100
AcDbBlockTableRecord
  2
28-1B-28-13-M2
340
0
102
{BLKREFS
331
55
102
}
  0
BLOCK_RECORD
  5
225
330
1
100
AcDbSymbolTableRecord
100
AcDbBlockTableRecord
  2
*D09
340
0
  0
BLOCK_RECORD
  5
230
330
1
100
AcDbSymbolTableRecord
100
AcDbBlockTableRecord
  2
*D110
340
0
  0
BLOCK_RECORD
  5
23C
330
1
100
AcDbSymbolTableRecord
100
AcDbBlockTableRecord
  2
*D211
340
0
  0
BLOCK_RECORD
  5
247
330
1
100
AcDbSymbolTableRecord
100
AcDbBlockTableRecord
  2
*D312
340
0
  0
ENDTAB
  0
ENDSEC
  0
SECTION
  2
BLOCKS
  0
BLOCK
  5
20
330
1F
100
AcDbEntity
  8
0
100
AcDbBlockBegin
  2
*Model_Space
 70
     0
 71
     0
 10
0.0
 20
0.0
 30
0.0
  3
*Model_Space
  1

  0
ENDBLK
  5
21
330
1F
100
AcDbEntity
  8
0
100
AcDbBlockEnd
  0
BLOCK
  5
1C
330
1B
100
AcDbEntity
 67
     1
  8
0
100
AcDbBlockBegin
  2
*Paper_Space
 70
     0
 71
     0
 10
0.0
 20
0.0
 30
0.0
  3
*Paper_Space
  1

  0
ENDBLK
  5
1D
330
1B
100
AcDbEntity
 67
     1
  8
0
100
AcDbBlockEnd
  0
BLOCK
  5
24
330
23
100
AcDbEntity
  8
0
100
AcDbBlockBegin
  2
*Paper_Space0
 70
     0
 71
     0
 10
0.0
 20
0.0
 30
0.0
  3
*Paper_Space0
  1

  0
ENDBLK
  5
25
330
23
100
AcDbEntity
  8
0
100
AcDbBlockEnd
  0
BLOCK
  5
37
330
36
100
AcDbEntity
  8
0
100
AcDbBlockBegin
  2
_J__A4
 70
     0
 71
     0
 10
0.00000000000003
 20
0.0
 30
0.0
  3
_J__A4
  1

  0
POINT
  5
56
330
36
100
AcDbEntity
  8
1
 62
     4
100
AcDbPoint
 10
93.75000000000006
 20
17.0
 30
0.0
  0
POINT
  5
57
330
36
100
AcDbEntity
  8
1
 62
     4
100
AcDbPoint
 10
85.25000000000006
 20
17.0
 30
0.0
  0
POINT
  5
58
330
36
100
AcDbEntity
  8
1
 62
     4
100
AcDbPoint
 10
106.5000000000001
 20
12.5
 30
0.0
  0
POINT
  5
59
330
36
100
AcDbEntity
  8
1
 62
     4
100
AcDbPoint
 10
112.2500000000001
 20
12.5
 30
0.0
  0
POINT
  5
5A
330
36
100
AcDbEntity
  8
1
 62
     4
100
AcDbPoint
 10
100.7500000000001
 20
12.5
 30
0.0
  0
POINT
  5
5B
330
36
100
AcDbEntity
  8
1
 62
     4
100
AcDbPoint
 10
123.5000000000001
 20
19.00000000000001
 30
0.0
  0
POINT
  5
5C
330
36
100
AcDbEntity
  8
1
 62
     4
100
AcDbPoint
 10
123.5000000000001
 20
12.5
 30
0.0
  0
POINT
  5
5D
330
36
100
AcDbEntity
  8
1
 62
     4
100
AcDbPoint
 10
129.2500000000001
 20
12.5
 30
0.0
  0
POINT
  5
5E
330
36
100
AcDbEntity
  8
1
 62
     4
100
AcDbPoint
 10
117.7500000000001
 20
12.5
 30
0.0
  0
POINT
  5
5F
330
36
100
AcDbEntity
  8
1
 62
     4
100
AcDbPoint
 10
140.5000000000001
 20
19.00000000000001
 30
0.0
  0
POINT
  5
60
330
36
100
AcDbEntity
  8
1
 62
     4
100
AcDbPoint
 10
140.5000000000001
 20
12.5
 30
0.0
  0
POINT
  5
61
330
36
100
AcDbEntity
  8
1
 62
     4
100
AcDbPoint
 10
146.2500000000001
 20
12.5
 30
0.0
  0
POINT
  5
62
330
36
100
AcDbEntity
  8
1
 62
     4
100
AcDbPoint
 10
134.7500000000001
 20
12.5
 30
0.0
  0
POINT
  5
63
330
36
100
AcDbEntity
  8
1
 62
     4
100
AcDbPoint
 10
151.7500000000001
 20
12.5
 30
0.0
  0
POINT
  5
64
330
36
100
AcDbEntity
  8
1
 62
     4
100
AcDbPoint
 10
163.2500000000001
 20
12.5
 30
0.0
  0
POINT
  5
65
330
36
100
AcDbEntity
  8
1
 62
     4
100
AcDbPoint
 10
157.5000000000001
 20
12.5
 30
0.0
  0
POINT
  5
66
330
36
100
AcDbEntity
  8
1
 62
     4
100
AcDbPoint
 10
57.00000000000006
 20
14.25
 30
0.0
  0
POINT
  5
67
330
36
100
AcDbEntity
  8
1
 62
     4
100
AcDbPoint
 10
57.00000000000006
 20
22.75000000000001
 30
0.0
  0
POINT
  5
68
330
36
100
AcDbEntity
  8
1
 62
     4
100
AcDbPoint
 10
47.50000000000006
 20
282.0000000000003
 30
0.0
  0
POINT
  5
69
330
36
100
AcDbEntity
  8
1
 62
     4
100
AcDbPoint
 10
157.5000000000001
 20
19.00000000000001
 30
0.0
  0
POINT
  5
6A
330
36
100
AcDbEntity
  8
1
 62
     4
100
AcDbPoint
 10
57.00000000000006
 20
16.25
 30
0.0
  0
POINT
  5
6B
330
36
100
AcDbEntity
  8
1
 62
     4
100
AcDbPoint
 10
57.00000000000006
 20
24.75000000000001
 30
0.0
  0
POINT
  5
6C
330
36
100
AcDbEntity
  8
1
 62
     4
100
AcDbPoint
 10
57.00000000000006
 20
20.75000000000001
 30
0.0
  0
POINT
  5
6D
330
36
100
AcDbEntity
  8
1
 62
     4
100
AcDbPoint
 10
57.00000000000006
 20
12.25
 30
0.0
  0
POINT
  5
6E
330
36
100
AcDbEntity
  8
1
 62
     4
100
AcDbPoint
 10
34.00000000000003
 20
34.0
 30
0.0
  0
POINT
  5
6F
330
36
100
AcDbEntity
  8
1
 62
     4
100
AcDbPoint
 10
106.5000000000001
 20
19.00000000000001
 30
0.0
  0
LINE
  5
70
330
36
100
AcDbEntity
  8
1
  6
Continuous
 62
     7
100
AcDbLine
 10
105.0000000000001
 20
10.0
 30
0.0
 11
200.0000000000001
 21
10.0
 31
0.0
  0
LINE
  5
71
330
36
100
AcDbEntity
  8
1
  6
Continuous
 62
     2
100
AcDbLine
 10
105.0000000000001
 20
10.0
 30
0.0
 11
105.0000000000001
 21
5.0
 31
0.0
  0
LINE
  5
72
330
36
100
AcDbEntity
  8
1
  6
Continuous
 62
     7
100
AcDbLine
 10
200.0000000000001
 20
148.5
 30
0.0
 11
200.0000000000001
 21
287.0000000000003
 31
0.0
  0
LINE
  5
73
330
36
100
AcDbEntity
  8
1
  6
Continuous
 62
     2
100
AcDbLine
 10
200.0000000000001
 20
148.5
 30
0.0
 11
205.0000000000001
 21
148.5
 31
0.0
  0
LINE
  5
74
330
36
100
AcDbEntity
  8
1
  6
Continuous
 62
     7
100
AcDbLine
 10
25.00000000000003
 20
148.5
 30
0.0
 11
25.00000000000003
 21
287.0000000000003
 31
0.0
  0
LINE
  5
75
330
36
100
AcDbEntity
  8
1
  6
Continuous
 62
     2
100
AcDbLine
 10
25.00000000000003
 20
148.5
 30
0.0
 11
20.00000000000003
 21
148.5
 31
0.0
  0
LINE
  5
76
330
36
100
AcDbEntity
  8
1
  6
Continuous
 62
     7
100
AcDbLine
 10
105.0000000000001
 20
287.0000000000003
 30
0.0
 11
25.00000000000003
 21
287.0000000000003
 31
0.0
  0
LINE
  5
77
330
36
100
AcDbEntity
  8
1
  6
Continuous
 62
     2
100
AcDbLine
 10
105.0000000000001
 20
287.0000000000003
 30
0.0
 11
105.0000000000001
 21
292.0000000000003
 31
0.0
  0
LINE
  5
78
330
36
100
AcDbEntity
  8
1
  6
Continuous
 62
     2
100
AcDbLine
 10
166.0000000000001
 20
20.00000000000001
 30
0.0
 11
200.0000000000001
 21
20.00000000000001
 31
0.0
  0
LINE
  5
79
330
36
100
AcDbEntity
  8
1
  6
Continuous
 62
     2
100
AcDbLine
 10
98.00000000000006
 20
27.00000000000001
 30
0.0
 11
98.00000000000006
 21
9.99999999999999
 31
0.0
  0
LINE
  5
7A
330
36
100
AcDbEntity
  8
1
  6
Continuous
 62
     2
100
AcDbLine
 10
115.0000000000001
 20
27.00000000000001
 30
0.0
 11
115.0000000000001
 21
9.99999999999999
 31
0.0
  0
LINE
  5
7B
330
36
100
AcDbEntity
  8
1
  6
Continuous
 62
     2
100
AcDbLine
 10
149.0000000000001
 20
27.00000000000001
 30
0.0
 11
149.0000000000001
 21
10.0
 31
0.0
  0
LINE
  5
7C
330
36
100
AcDbEntity
  8
1
  6
Continuous
 62
     2
100
AcDbLine
 10
132.0000000000001
 20
27.00000000000001
 30
0.0
 11
132.0000000000001
 21
9.99999999999999
 31
0.0
  0
LINE
  5
7D
330
36
100
AcDbEntity
  8
1
  6
Continuous
 62
     2
100
AcDbLine
 10
166.0000000000001
 20
27.00000000000001
 30
0.0
 11
166.0000000000001
 21
10.0
 31
0.0
  0
LINE
  5
7E
330
36
100
AcDbEntity
  8
1
  6
Continuous
 62
     2
100
AcDbLine
 10
55.00000000000006
 20
277.0000000000003
 30
0.0
 11
25.00000000000003
 21
277.0000000000003
 31
0.0
  0
LINE
  5
7F
330
36
100
AcDbEntity
  8
1
  6
Continuous
 62
     7
100
AcDbLine
 10
25.00000000000003
 20
10.0
 30
0.0
 11
25.00000000000003
 21
148.5
 31
0.0
  0
LINE
  5
80
330
36
100
AcDbEntity
  8
1
  6
Continuous
 62
     2
100
AcDbLine
 10
40.00000000000003
 20
287.0000000000003
 30
0.0
 11
40.00000000000003
 21
277.0000000000003
 31
0.0
  0
LINE
  5
81
330
36
100
AcDbEntity
  8
1
  6
Continuous
 62
     2
100
AcDbLine
 10
55.00000000000006
 20
287.0000000000003
 30
0.0
 11
55.00000000000006
 21
277.0000000000003
 31
0.0
  0
LINE
  5
82
330
36
100
AcDbEntity
  8
1
  6
Continuous
 62
     2
100
AcDbLine
 10
33.00000000000003
 20
41.0
 30
0.0
 11
33.00000000000003
 21
27.0
 31
0.0
  0
LINE
  5
83
330
36
100
AcDbEntity
  8
1
  6
Continuous
 62
     7
100
AcDbLine
 10
200.0000000000001
 20
27.00000000000001
 30
0.0
 11
25.00000000000003
 21
27.00000000000001
 31
0.0
  0
LINE
  5
84
330
36
100
AcDbEntity
  8
1
  6
Continuous
 62
     7
100
AcDbLine
 10
25.00000000000003
 20
41.0
 30
0.0
 11
200.0000000000001
 21
41.0
 31
0.0
  0
LINE
  5
85
330
36
100
AcDbEntity
  8
1
  6
PHANTOM
 62
     4
100
AcDbLine
 10
0.00000000000003
 20
0.0
 30
0.0
 11
210.0000000000001
 21
0.0
 31
0.0
  0
LINE
  5
86
330
36
100
AcDbEntity
  8
1
  6
PHANTOM
 62
     4
100
AcDbLine
 10
210.0000000000001
 20
0.0
 30
0.0
 11
210.0000000000001
 21
297.0
 31
0.0
  0
LINE
  5
87
330
36
100
AcDbEntity
  8
1
  6
PHANTOM
 62
     4
100
AcDbLine
 10
210.0000000000001
 20
297.0
 30
0.0
 11
0.00000000000003
 21
297.0
 31
0.0
  0
LINE
  5
88
330
36
100
AcDbEntity
  8
1
  6
PHANTOM
 62
     4
100
AcDbLine
 10
0.00000000000003
 20
297.0
 30
0.0
 11
0.00000000000003
 21
0.0
 31
0.0
  0
LINE
  5
89
330
36
100
AcDbEntity
  8
1
  6
Continuous
 62
     7
100
AcDbLine
 10
25.00000000000003
 20
10.0
 30
0.0
 11
105.0000000000001
 21
10.0
 31
0.0
  0
LINE
  5
8A
330
36
100
AcDbEntity
  8
1
  6
Continuous
 62
     7
100
AcDbLine
 10
200.0000000000001
 20
10.0
 30
0.0
 11
200.0000000000001
 21
148.5
 31
0.0
  0
LINE
  5
8B
330
36
100
AcDbEntity
  8
1
  6
Continuous
 62
     7
100
AcDbLine
 10
200.0000000000001
 20
287.0000000000003
 30
0.0
 11
105.0000000000001
 21
287.0000000000003
 31
0.0
  0
LINE
  5
8C
330
36
100
AcDbEntity
  8
1
  6
Continuous
 62
     2
100
AcDbLine
 10
25.00000000000003
 20
18.50000000000001
 30
0.0
 11
81.00000000000006
 21
18.50000000000001
 31
0.0
  0
LINE
  5
8D
330
36
100
AcDbEntity
  8
1
  6
Continuous
 62
     2
100
AcDbLine
 10
33.00000000000003
 20
27.0
 30
0.0
 11
33.00000000000003
 21
10.0
 31
0.0
  0
LINE
  5
8E
330
36
100
AcDbEntity
  8
1
  6
Continuous
 62
     7
100
AcDbLine
 10
191.0000000000001
 20
24.70000000000001
 30
0.0
 11
191.0000000000001
 21
22.30000000000001
 31
0.0
  0
LINE
  5
8F
330
36
100
AcDbEntity
  8
1
  6
Continuous
 62
     7
100
AcDbLine
 10
191.0000000000001
 20
24.70000000000001
 30
0.0
 11
196.0000000000001
 21
25.50000000000001
 31
0.0
  0
LINE
  5
90
330
36
100
AcDbEntity
  8
1
  6
Continuous
 62
     7
100
AcDbLine
 10
196.0000000000001
 20
25.50000000000001
 30
0.0
 11
196.0000000000001
 21
21.50000000000001
 31
0.0
  0
LINE
  5
91
330
36
100
AcDbEntity
  8
1
  6
Continuous
 62
     7
100
AcDbLine
 10
196.0000000000001
 20
21.50000000000001
 30
0.0
 11
191.0000000000001
 21
22.30000000000001
 31
0.0
  0
LINE
  5
92
330
36
100
AcDbEntity
  8
1
  6
DOT_CENTER
 62
     2
100
AcDbLine
 10
184.0000000000001
 20
23.50000000000001
 30
0.0
 11
197.0000000000001
 21
23.50000000000001
 31
0.0
  0
LINE
  5
93
330
36
100
AcDbEntity
  8
1
  6
DOT_CENTER
 62
     2
100
AcDbLine
 10
187.0000000000001
 20
26.50000000000001
 30
0.0
 11
187.0000000000001
 21
20.50000000000001
 31
0.0
  0
LINE
  5
94
330
36
100
AcDbEntity
  8
1
  6
Continuous
 62
     2
100
AcDbLine
 10
81.00000000000006
 20
27.00000000000001
 30
0.0
 11
81.00000000000006
 21
10.0
 31
0.0
  0
CIRCLE
  5
95
330
36
100
AcDbEntity
  8
1
  6
Continuous
 62
     7
100
AcDbCircle
 10
103.5000000000001
 20
12.5
 30
0.0
 40
0.2999999999998977
  0
CIRCLE
  5
96
330
36
100
AcDbEntity
  8
1
  6
Continuous
 62
     7
100
AcDbCircle
 10
109.5000000000001
 20
12.5
 30
0.0
 40
0.2999999999998977
  0
CIRCLE
  5
97
330
36
100
AcDbEntity
  8
1
  6
Continuous
 62
     7
100
AcDbCircle
 10
120.5000000000001
 20
12.5
 30
0.0
 40
0.2999999999998977
  0
CIRCLE
  5
98
330
36
100
AcDbEntity
  8
1
  6
Continuous
 62
     7
100
AcDbCircle
 10
126.5000000000001
 20
12.5
 30
0.0
 40
0.2999999999998977
  0
CIRCLE
  5
99
330
36
100
AcDbEntity
  8
1
  6
Continuous
 62
     7
100
AcDbCircle
 10
137.5000000000001
 20
12.5
 30
0.0
 40
0.2999999999998977
  0
CIRCLE
  5
9A
330
36
100
AcDbEntity
  8
1
  6
Continuous
 62
     7
100
AcDbCircle
 10
143.5000000000001
 20
12.5
 30
0.0
 40
0.2999999999998977
  0
CIRCLE
  5
9B
330
36
100
AcDbEntity
  8
1
  6
Continuous
 62
     7
100
AcDbCircle
 10
160.5000000000001
 20
12.5
 30
0.0
 40
0.2999999999998977
  0
CIRCLE
  5
9C
330
36
100
AcDbEntity
  8
1
  6
Continuous
 62
     7
100
AcDbCircle
 10
154.5000000000001
 20
12.5
 30
0.0
 40
0.2999999999998977
  0
CIRCLE
  5
9D
330
36
100
AcDbEntity
  8
1
  6
Continuous
 62
     7
100
AcDbCircle
 10
187.0000000000001
 20
23.50000000000001
 30
0.0
 40
1.199999999999989
  0
CIRCLE
  5
9E
330
36
100
AcDbEntity
  8
1
  6
Continuous
 62
     7
100
AcDbCircle
 10
187.0000000000001
 20
23.50000000000001
 30
0.0
 40
2.0
  0
CIRCLE
  5
9F
330
36
100
AcDbEntity
  8
1
  6
DOT_CENTER
 62
     7
100
AcDbCircle
 10
89.50000000000006
 20
16.0
 30
0.0
 40
0.1000000000000227
  0
CIRCLE
  5
A0
330
36
100
AcDbEntity
  8
1
  6
DOT_CENTER
 62
     7
100
AcDbCircle
 10
89.50000000000006
 20
18.0
 30
0.0
 40
0.1000000000000227
  0
MTEXT
  5
A2
330
36
100
AcDbEntity
  8
1
 62
     7
100
AcDbMText
 10
188.5000000000001
 20
15.0
 30
0.0
 40
3.0
 41
0.0
 71
     5
 72
     1
  1
三栄水栓製作所
  7
CONVERTER_1
 73
     1
 44
1.32052821128451
  0
MTEXT
  5
A3
330
36
100
AcDbEntity
  8
1
 62
     7
100
AcDbMText
 10
171.5000000000001
 20
15.0
 30
0.0
 40
2.5
 41
0.0
 71
     5
 72
     1
  1
株式会社
  7
CONVERTER_1
 73
     1
 44
1.32052821128451
  0
MTEXT
  5
A4
330
36
100
AcDbEntity
  8
1
 62
     2
100
AcDbMText
 10
32.50000000000003
 20
282.0000000000003
 30
0.0
 40
5.0
 41
0.0
 71
     5
 72
     1
  1
図番
  7
CONVERTER_1
 73
     1
 44
0.60024009603842
  0
MTEXT
  5
A5
330
36
100
AcDbEntity
  8
1
 62
     2
100
AcDbMText
 10
29.00000000000003
 20
34.0
 30
0.0
 40
3.5
 41
0.0
 71
     5
 72
     1
  1
備考
  7
CONVERTER_1
 73
     1
 44
0.60024009603842
  0
MTEXT
  5
A6
330
36
100
AcDbEntity
  8
1
 62
     2
100
AcDbMText
 10
29.00000000000003
 20
22.75
 30
0.0
 40
3.5
 41
0.0
 71
     5
 72
     1
  1
品名
  7
CONVERTER_1
 73
     1
 44
0.96038415366146
  0
MTEXT
  5
A7
330
36
100
AcDbEntity
  8
1
 62
     2
100
AcDbMText
 10
29.00000000000003
 20
14.25
 30
0.0
 40
3.5
 41
0.0
 71
     5
 72
     1
  1
品番
  7
CONVERTER_1
 73
     1
 44
0.96038415366146
  0
MTEXT
  5
A8
330
36
100
AcDbEntity
  8
1
 62
     2
100
AcDbMText
 10
101.5000000000001
 20
25.00000000000001
 30
0.0
 40
3.0
 41
0.0
 71
     5
 72
     1
  1
承認
  7
CONVERTER_1
 73
     1
 44
0.78031212484994
  0
MTEXT
  5
A9
330
36
100
AcDbEntity
  8
1
 62
     2
100
AcDbMText
 10
175.0000000000001
 20
23.50000000000001
 30
0.0
 40
3.5
 41
0.0
 71
     5
 72
     1
  1
第三角法
  7
CONVERTER_1
 73
     1
 44
0.7202881152461
  0
MTEXT
  5
AA
330
36
100
AcDbEntity
  8
1
 62
     2
100
AcDbMText
 10
118.5000000000001
 20
25.00000000000001
 30
0.0
 40
3.0
 41
0.0
 71
     5
 72
     1
  1
検図
  7
CONVERTER_1
 73
     1
 44
0.78031212484994
  0
MTEXT
  5
AB
330
36
100
AcDbEntity
  8
1
 62
     2
100
AcDbMText
 10
152.5000000000001
 20
25.00000000000001
 30
0.0
 40
3.0
 41
0.0
 71
     5
 72
     1
  1
設計
  7
CONVERTER_1
 73
     1
 44
0.78031212484994
  0
MTEXT
  5
AC
330
36
100
AcDbEntity
  8
1
 62
     2
100
AcDbMText
 10
135.5000000000001
 20
25.00000000000001
 30
0.0
 40
3.0
 41
0.0
 71
     5
 72
     1
  1
製図
  7
CONVERTER_1
 73
     1
 44
0.78031212484994
  0
MTEXT
  5
AD
330
36
100
AcDbEntity
  8
1
 62
     2
100
AcDbMText
 10
89.50000000000006
 20
24.00000000000001
 30
0.0
 40
3.5
 41
0.0
 71
     5
 72
     1
  1
尺度
  7
CONVERTER_1
 73
     1
 44
0.7202881152461
  0
MTEXT
  5
AE
330
36
100
AcDbEntity
  8
1
 62
   250
100
AcDbMText
 10
25.00000000000003
 20
5.0
 30
0.0
 40
3.5
 41
0.0
 71
     4
 72
     1
  1
備考欄の文字列 原点位置=4
  7
CONVERTER_1
 73
     1
 44
0.7202881152461
  0
ENDBLK
  5
38
330
36
100
AcDbEntity
  8
0
100
AcDbBlockEnd
  0
BLOCK
  5
3A
330
39
100
AcDbEntity
  8
0
100
AcDbBlockBegin
  2
21-1C-M1
 70
     0
 71
     0
 10
375.6908886259529
 20
220.3970854433009
 30
0.0
  3
21-1C-M1
  1

  0
LINE
  5
AF
330
39
100
AcDbEntity
  8
1
  6
Continuous
 62
     7
100
AcDbLine
 10
150.8797075564827
 20
210.1316345620696
 30
0.0
 11
147.6642143516121
 21
209.6797264630772
 31
0.0
  0
LINE
  5
B0
330
39
100
AcDbEntity
  8
1
  6
Continuous
 62
     7
100
AcDbLine
 10
151.4492941069627
 20
183.9616847313093
 30
0.0
 11
151.4492941069627
 21
209.6365005276988
 31
0.0
  0
LINE
  5
B1
330
39
100
AcDbEntity
  8
1
  6
Continuous
 62
     7
100
AcDbLine
 10
149.9492941069627
 20
189.6632316610667
 30
0.0
 11
142.2603995062774
 21
189.6632316610667
 31
0.0
  0
LINE
  5
B2
330
39
100
AcDbEntity
  8
1
  6
Continuous
 62
     7
100
AcDbLine
 10
151.4492941069627
 20
166.9847499589106
 30
0.0
 11
151.4492941069627
 21
165.4193933278187
 31
0.0
  0
LINE
  5
B3
330
39
100
AcDbEntity
  8
1
  6
Continuous
 62
     7
100
AcDbLine
 10
150.8796721742501
 20
160.7917813829505
 30
0.0
 11
146.4902175012191
 21
161.4089988769581
 31
0.0
  0
LINE
  5
B4
330
39
100
AcDbEntity
  8
1
  6
Continuous
 62
     7
100
AcDbLine
 10
151.4492941069627
 20
161.2869104433836
 30
0.0
 11
151.4492941069627
 21
184.9616847313093
 31
0.0
  0
LINE
  5
B5
330
39
100
AcDbEntity
  8
1
  6
Continuous
 62
     7
100
AcDbLine
 10
149.9492941069627
 20
180.9301609033909
 30
0.0
 11
142.2603995062774
 21
180.9301609033909
 31
0.0
  0
LINE
  5
B6
330
39
100
AcDbEntity
  8
0
  6
Continuous
 62
     7
100
AcDbLine
 10
151.4492941069627
 20
285.0072396890437
 30
0.0
 11
151.4492941069627
 21
306.8623198259202
 31
0.0
  0
LINE
  5
B7
330
39
100
AcDbEntity
  8
0
  6
Continuous
 62
     7
100
AcDbLine
 10
151.4492941069627
 20
273.4161297735749
 30
0.0
 11
151.4492941069627
 21
285.0072396890437
 31
0.0
  0
LINE
  5
B8
330
39
100
AcDbEntity
  8
0
  6
Continuous
 62
     7
100
AcDbLine
 10
151.4492941069627
 20
251.5610496366983
 30
0.0
 11
151.4492941069627
 21
273.4161297735749
 31
0.0
  0
LINE
  5
B9
330
39
100
AcDbEntity
  8
1
  6
Continuous
 62
     7
100
AcDbLine
 10
84.55373914922819
 20
205.7645990019245
 30
0.0
 11
80.9023299377578
 21
192.1373543054917
 31
0.0
  0
LINE
  5
BA
330
39
100
AcDbEntity
  8
1
  6
Continuous
 62
     7
100
AcDbLine
 10
64.45601832523238
 20
170.9543254184287
 30
0.0
 11
74.4318538101947
 21
180.930160903391
 31
0.0
  0
LINE
  5
BB
330
39
100
AcDbEntity
  8
1
  6
Continuous
 62
     7
100
AcDbLine
 10
96.1448490646971
 20
205.7645990019245
 30
0.0
 11
99.79625827616749
 21
192.1373543054917
 31
0.0
  0
LINE
  5
BC
330
39
100
AcDbEntity
  8
1
  6
Continuous
 62
     7
100
AcDbLine
 10
116.2425698886929
 20
170.9543254184287
 30
0.0
 11
106.2667344037305
 21
180.930160903391
 31
0.0
  0
LINE
  5
BD
330
39
100
AcDbEntity
  8
1
  6
Continuous
 62
     7
100
AcDbLine
 10
110.4470149309585
 20
160.9161297735749
 30
0.0
 11
96.81977023452569
 21
164.5675389850454
 31
0.0
  0
LINE
  5
BE
330
39
100
AcDbEntity
  8
1
  6
Continuous
 62
     7
100
AcDbLine
 10
69.49106838034629
 20
160.7123530990779
 30
0.0
 11
83.8788179793996
 21
164.5675389850454
 31
0.0
  0
ARC
  5
BF
330
39
100
AcDbEntity
  8
1
  6
Continuous
 62
     7
100
AcDbCircle
 10
290.4492941069627
 20
179.2116847313093
 30
0.0
 40
150.0533238552215
100
AcDbArc
 50
170.1970982062323
 51
178.4724745577871
  0
ARC
  5
C0
330
39
100
AcDbEntity
  8
1
  6
Continuous
 62
     7
100
AcDbCircle
 10
215.3611151156619
 20
178.8474890660625
 30
0.0
 40
74.99999999999999
100
AcDbArc
 50
-177.2213610340375
 51
-170.4085075173349
  0
ARC
  5
C1
330
39
100
AcDbEntity
  8
1
  6
Continuous
 62
     7
100
AcDbCircle
 10
68.6986590123517
 20
166.7116847313094
 30
0.0
 40
6.000000000000049
100
AcDbArc
 50
135.0
 51
-82.47575892105897
  0
ARC
  5
C2
330
39
100
AcDbEntity
  8
1
  6
Continuous
 62
     7
100
AcDbCircle
 10
90.34929410696259
 20
204.2116847313094
 30
0.0
 40
6.0
100
AcDbArc
 50
90.0
 51
165.0000000000001
  0
ARC
  5
C3
330
39
100
AcDbEntity
  8
1
  6
Continuous
 62
     7
100
AcDbCircle
 10
90.34929410696259
 20
204.2116847313094
 30
0.0
 40
6.000000000000092
100
AcDbArc
 50
14.99999999999957
 51
90.0
  0
ARC
  5
C4
330
39
100
AcDbEntity
  8
1
  6
Continuous
 62
     7
100
AcDbCircle
 10
111.9999292015736
 20
166.7116847313094
 30
0.0
 40
6.00000000000006
100
AcDbArc
 50
-104.9999999999995
 51
45.00000000000009
  0
SPLINE
  5
C5
330
39
100
AcDbEntity
  8
0
  6
Continuous
 62
     7
100
AcDbSpline
210
0.0
220
0.0
230
1.0
 70
     8
 71
     3
 72
    27
 73
    23
 74
    21
 42
0.0000000001
 43
0.0000000001
 44
0.00000001
 40
0.0
 40
0.0
 40
0.0
 40
0.0
 40
4.618703466769583
 40
9.231168896019057
 40
14.16779431771689
 40
19.11374070589839
 40
19.52821633537989
 40
19.94144217917128
 40
20.35867862982675
 40
20.77691960428457
 40
21.19949484665446
 40
21.62164873558735
 40
22.04927938356228
 40
22.47707343152665
 40
23.01006105023046
 40
23.54331038460047
 40
23.88091939119892
 40
24.21795787389942
 40
24.65811335193124
 40
25.09931766019793
 40
27.47512396338987
 40
29.84763483709659
 40
29.84763483709659
 40
29.84763483709659
 40
29.84763483709659
 10
140.4492941069627
 20
275.2116847313093
 30
0.0
 10
140.4998412731734
 20
273.672953765016
 30
0.0
 10
140.6008673364102
 20
270.5975700480091
 30
0.0
 10
140.9200359821896
 20
265.8832806478417
 30
0.0
 10
141.5937976114354
 20
261.0942538809543
 30
0.0
 10
142.3028038558529
 20
257.7332557246938
 30
0.0
 10
142.7625639648158
 20
255.8644241337418
 30
0.0
 10
142.885961544481
 20
255.4675569036658
 30
0.0
 10
143.0552518751037
 20
255.0862867483891
 30
0.0
 10
143.2628426152263
 20
254.7213152271787
 30
0.0
 10
143.5013965122254
 20
254.3738229943566
 30
0.0
 10
143.7712402766345
 20
254.0459026789377
 30
0.0
 10
144.0705453449302
 20
253.742160611414
 30
0.0
 10
144.4234874504783
 20
253.4419170175136
 30
0.0
 10
144.8331270714739
 20
253.1570463095143
 30
0.0
 10
145.2431692615693
 20
252.9299289584034
 30
0.0
 10
145.6098821527005
 20
252.763117844863
 30
0.0
 10
145.958513480187
 20
252.6333267452556
 30
0.0
 10
146.3511305731825
 20
252.5274123362703
 30
0.0
 10
147.4133873971443
 20
252.3028452559609
 30
0.0
 10
149.1120950315751
 20
251.9751789244691
 30
0.0
 10
150.670588290593
 20
251.6990288480167
 30
0.0
 10
151.4492941069627
 20
251.5610496366983
 30
0.0
 11
140.4492941069627
 21
275.2116847313093
 31
0.0
 11
140.6277046172891
 21
270.5964283566585
 31
0.0
 11
140.9661025959963
 21
265.9963931237469
 31
0.0
 11
141.6485359930191
 21
261.1071646352447
 31
0.0
 11
142.663993758915
 21
256.2665829346175
 31
0.0
 11
142.766708375922
 21
255.8650362313721
 31
0.0
 11
142.893059393817
 21
255.4716013342748
 31
0.0
 11
143.0612493316992
 21
255.0897657668498
 31
0.0
 11
143.2670941577908
 21
254.7256869013732
 31
0.0
 11
143.5063800127348
 21
254.3773880137957
 31
0.0
 11
143.7747331938036
 21
254.0515038685057
 31
0.0
 11
144.074767647949
 21
253.7467953234776
 31
0.0
 11
144.400552146624
 21
253.4695369459724
 31
0.0
 11
144.8378245779839
 21
253.1647934104148
 31
0.0
 11
145.3040715487603
 21
252.9060104611158
 31
0.0
 11
145.6115983390327
 21
252.7667010407555
 31
0.0
 11
145.9276559639031
 21
252.6496432918349
 31
0.0
 11
146.3516474171638
 21
252.5314566072917
 31
0.0
 11
146.7825405516255
 21
252.4366286140257
 31
0.0
 11
149.1142269146292
 21
251.9808937186434
 31
0.0
 11
151.4492941069627
 21
251.5610496366983
 31
0.0
  0
SPLINE
  5
C6
330
39
100
AcDbEntity
  8
0
  6
Continuous
 62
     7
100
AcDbSpline
210
0.0
220
0.0
230
1.0
 70
     8
 71
     3
 72
    45
 73
    41
 74
    39
 42
0.0000000001
 43
0.0000000001
 44
0.00000001
 40
0.0
 40
0.0
 40
0.0
 40
0.0
 40
1.74239013279773
 40
3.474062694534064
 40
5.197701393275686
 40
5.400404116204412
 40
5.603172535854508
 40
6.048933636473147
 40
6.495048482113925
 40
6.943430426927109
 40
7.391758998255849
 40
7.938281821691379
 40
8.484781357530149
 40
8.843308460597847
 40
9.201752042938436
 40
9.657999233107242
 40
10.11437046698423
 40
10.57247766499579
 40
11.03055605116223
 40
11.48958998599932
 40
11.94863219167637
 40
12.40767187133208
 40
12.86670862771209
 40
13.32480090481274
 40
13.78289355020706
 40
14.23920822585643
 40
14.69551356823082
 40
15.14940219203446
 40
15.60330722265962
 40
16.05447969554464
 40
16.50558720948668
 40
16.95386075606696
 40
17.40229604766885
 40
17.84842343386956
 40
18.29417263654388
 40
18.49693985762084
 40
18.69964374715332
 40
20.42328908971635
 40
22.15496045558045
 40
23.89734607929118
 40
23.89734607929118
 40
23.89734607929118
 40
23.89734607929118
 10
151.4492941069627
 20
285.0072396890437
 30
0.0
 10
150.8696462429801
 20
284.970135772369
 30
0.0
 10
149.7139159720591
 20
284.8961561679657
 30
0.0
 10
147.9913304631594
 20
284.699195761156
 30
0.0
 10
146.7964260806925
 20
284.4366372420927
 30
0.0
 10
146.118768663948
 20
284.2256192868415
 30
0.0
 10
145.8505784586046
 20
284.1327763810554
 30
0.0
 10
145.5146762745687
 20
283.988666036266
 30
0.0
 10
145.121561284115
 20
283.7752481861321
 30
0.0
 10
144.7476677523879
 20
283.5281302508427
 30
0.0
 10
144.3705694965925
 20
283.2284384300801
 30
0.0
 10
144.0008355380487
 20
282.870265085489
 30
0.0
 10
143.6899506287321
 20
282.4983021301469
 30
0.0
 10
143.4485775478475
 20
282.1528084515159
 30
0.0
 10
143.2467457642288
 20
281.8175019256475
 30
0.0
 10
143.0564756898251
 20
281.4383442934793
 30
0.0
 10
142.8867497707386
 20
281.0135434830668
 30
0.0
 10
142.7535268326518
 20
280.5752744820669
 30
0.0
 10
142.6575748667378
 20
280.126466843087
 30
0.0
 10
142.5997640323245
 20
279.670858331108
 30
0.0
 10
142.5804051224301
 20
279.211685630499
 30
0.0
 10
142.599759099565
 20
278.7525116474843
 30
0.0
 10
142.6575736948586
 20
278.2968985680123
 30
0.0
 10
142.7535389854
 20
277.8480927061402
 30
0.0
 10
142.8867492659984
 20
277.4098422683738
 30
0.0
 10
143.0564446818555
 20
276.9850284021504
 30
0.0
 10
143.2610100185276
 20
276.577421279072
 30
0.0
 10
143.4993373639234
 20
276.1895310543093
 30
0.0
 10
143.7690730695976
 20
275.8249029963783
 30
0.0
 10
144.0687465077019
 20
275.4856868793142
 30
0.0
 10
144.3954823013283
 20
275.1751446549119
 30
0.0
 10
144.7476719635349
 20
274.8952703487825
 30
0.0
 10
145.1215456555975
 20
274.6481245410922
 30
0.0
 10
145.514676058277
 20
274.4346923853352
 30
0.0
 10
145.8505819566053
 20
274.2905921594321
 30
0.0
 10
146.1187686633506
 20
274.1977514577473
 30
0.0
 10
146.7964268711461
 20
273.9867286830953
 30
0.0
 10
147.9913327801
 20
273.7241653022569
 30
0.0
 10
149.7139189552516
 20
273.5272067375558
 30
0.0
 10
150.8696476045004
 20
273.4532314766921
 30
0.0
 10
151.4492941069627
 20
273.4161297735749
 30
0.0
 11
151.4492941069627
 21
285.0072396890437
 31
0.0
 11
149.7114525164901
 21
284.8814224354796
 31
0.0
 11
147.9927981045009
 21
284.6694864233891
 31
0.0
 11
146.3125180494788
 21
284.2853128942457
 31
0.0
 11
146.1191159628888
 21
284.2246167099722
 31
0.0
 11
145.9276559639031
 21
284.1578476992278
 31
0.0
 11
145.5178029233325
 21
283.9825666564428
 31
0.0
 11
145.1255358240502
 21
283.770093179694
 31
0.0
 11
144.7514981839577
 21
283.5228236663518
 31
0.0
 11
144.400552146624
 21
283.243833726122
 31
0.0
 11
144.0078534772009
 21
282.8637351184302
 31
0.0
 11
143.6573262607904
 21
282.4444590599347
 31
0.0
 11
143.4519692751885
 21
282.1505709994446
 31
0.0
 11
143.2670941577908
 21
281.8434830760605
 31
0.0
 11
143.0623954307763
 21
281.4357332389109
 31
0.0
 11
142.893059393817
 21
281.0119408254614
 31
0.0
 11
142.7597750518197
 21
280.5736515499272
 31
0.0
 11
142.663993758915
 21
280.1256987044151
 31
0.0
 11
142.6061796412643
 21
279.670320091465
 31
0.0
 11
142.5868572964883
 21
279.2116847313093
 31
0.0
 11
142.6061759172422
 21
278.7530517425366
 31
0.0
 11
142.663993758915
 21
278.2976707582035
 31
0.0
 11
142.7597861931051
 21
277.8497060900753
 31
0.0
 11
142.893059393817
 21
277.4114286371572
 31
0.0
 11
143.062354806903
 21
276.9876808981414
 31
0.0
 11
143.2670941577908
 21
276.5798863865581
 31
0.0
 11
143.5047292870733
 21
276.1931766399143
 31
0.0
 11
143.7747331938036
 21
275.8283099969101
 31
0.0
 11
144.0734893443122
 21
275.4902251513129
 31
0.0
 11
144.400552146624
 21
275.1795357364966
 31
0.0
 11
144.7514655608927
 21
274.9005931828229
 31
0.0
 11
145.1255358240502
 21
274.6532762829246
 31
0.0
 11
145.5178109053375
 21
274.4407912121095
 31
0.0
 11
145.9276559639031
 21
274.2655217633908
 31
0.0
 11
146.1191151197718
 21
274.1987539749197
 31
0.0
 11
146.312518045643
 21
274.1380565689121
 31
0.0
 11
147.9928032165995
 21
273.7538756073809
 31
0.0
 11
149.7114566069361
 21
273.5419410815522
 31
0.0
 11
151.4492941069627
 21
273.4161297735749
 31
0.0
  0
SPLINE
  5
C7
330
39
100
AcDbEntity
  8
0
  6
Continuous
 62
     7
100
AcDbSpline
210
0.0
220
0.0
230
1.0
 70
     8
 71
     3
 72
    27
 73
    23
 74
    21
 42
0.0000000001
 43
0.0000000001
 44
0.00000001
 40
0.0
 40
0.0
 40
0.0
 40
0.0
 40
4.618703466769586
 40
9.231168896018996
 40
14.16779431771705
 40
19.11374070589861
 40
19.52821633538006
 40
19.9414421791714
 40
20.35867862982684
 40
20.77691960428469
 40
21.19949484665458
 40
21.62164873558749
 40
22.04927938356252
 40
22.47707343152687
 40
23.01006105023063
 40
23.54331038460054
 40
23.88091939119897
 40
24.21795787389949
 40
24.65811335193132
 40
25.09931766019804
 40
27.47512396338997
 40
29.84763483709666
 40
29.84763483709666
 40
29.84763483709666
 40
29.84763483709666
 10
140.4492941069627
 20
283.2116847313093
 30
0.0
 10
140.4998412731734
 20
284.7504156976025
 30
0.0
 10
140.6008673364103
 20
287.8257994146096
 30
0.0
 10
140.9200359821898
 20
292.5400888147769
 30
0.0
 10
141.5937976114352
 20
297.3291155816642
 30
0.0
 10
142.302803855853
 20
300.6901137379252
 30
0.0
 10
142.7625639648157
 20
302.558945328877
 30
0.0
 10
142.885961544481
 20
302.955812558953
 30
0.0
 10
143.0552518751037
 20
303.3370827142295
 30
0.0
 10
143.2628426152262
 20
303.7020542354401
 30
0.0
 10
143.5013965122254
 20
304.0495464682621
 30
0.0
 10
143.7712402766346
 20
304.3774667836811
 30
0.0
 10
144.0705453449302
 20
304.6812088512048
 30
0.0
 10
144.4234874504783
 20
304.9814524451051
 30
0.0
 10
144.8331270714739
 20
305.2663231531045
 30
0.0
 10
145.2431692615692
 20
305.4934405042152
 30
0.0
 10
145.6098821527006
 20
305.6602516177554
 30
0.0
 10
145.9585134801869
 20
305.790042717363
 30
0.0
 10
146.3511305731826
 20
305.8959571263483
 30
0.0
 10
147.4133873971441
 20
306.120524206658
 30
0.0
 10
149.1120950315751
 20
306.4481905381498
 30
0.0
 10
150.6705882905931
 20
306.7243406146019
 30
0.0
 10
151.4492941069627
 20
306.8623198259202
 30
0.0
 11
140.4492941069627
 21
283.2116847313093
 31
0.0
 11
140.6277046172892
 21
287.82694110596
 31
0.0
 11
140.9661025959963
 21
292.4269763388716
 31
0.0
 11
141.648535993019
 21
297.316204827374
 31
0.0
 11
142.663993758915
 21
302.1567865280013
 31
0.0
 11
142.766708375922
 21
302.5583332312466
 31
0.0
 11
142.893059393817
 21
302.9517681283439
 31
0.0
 11
143.0612493316992
 21
303.3336036957688
 31
0.0
 11
143.2670941577908
 21
303.6976825612455
 31
0.0
 11
143.5063800127348
 21
304.0459814488229
 31
0.0
 11
143.7747331938036
 21
304.371865594113
 31
0.0
 11
144.0747676479491
 21
304.6765741391412
 31
0.0
 11
144.400552146624
 21
304.9538325166464
 31
0.0
 11
144.8378245779839
 21
305.258576052204
 31
0.0
 11
145.3040715487603
 21
305.5173590015027
 31
0.0
 11
145.6115983390327
 21
305.656668421863
 31
0.0
 11
145.9276559639031
 21
305.7737261707836
 31
0.0
 11
146.3516474171638
 21
305.8919128553269
 31
0.0
 11
146.7825405516255
 21
305.986740848593
 31
0.0
 11
149.1142269146292
 21
306.4424757439754
 31
0.0
 11
151.4492941069627
 21
306.8623198259202
 31
0.0
  0
ARC
  5
C8
330
39
100
AcDbEntity
  8
1
  6
Continuous
 62
     7
100
AcDbCircle
 10
150.9492941069627
 20
209.6365005276988
 30
0.0
 40
0.5
100
AcDbArc
 50
0.0
 51
97.99999999999398
  0
ARC
  5
C9
330
39
100
AcDbEntity
  8
1
  6
Continuous
 62
     7
100
AcDbCircle
 10
148.4992529573725
 20
203.7381180506278
 30
0.0
 40
5.99999999999998
100
AcDbArc
 50
98.00000000000027
 51
170.197098206233
  0
ARC
  5
CA
330
39
100
AcDbEntity
  8
1
  6
Continuous
 62
     7
100
AcDbCircle
 10
150.9492941069627
 20
161.2869104433836
 30
0.0
 40
0.5000000000000039
100
AcDbArc
 50
-98.00409437169984
 51
0.0
  0
ARC
  5
CB
330
39
100
AcDbEntity
  8
1
  6
Continuous
 62
     7
100
AcDbCircle
 10
147.3256806937705
 20
167.3505476021552
 30
0.0
 40
6.000000000000024
100
AcDbArc
 50
-170.4085075173346
 51
-98.00409437170107
  0
ARC
  5
CC
330
39
100
AcDbEntity
  8
1
  6
Continuous
 62
     7
100
AcDbCircle
 10
56.75418428053109
 20
198.6078304330547
 30
0.0
 40
24.99999999999994
100
AcDbArc
 50
-45.00000000000014
 51
-14.99999999999994
  0
ARC
  5
CD
330
39
100
AcDbEntity
  8
1
  6
Continuous
 62
     7
100
AcDbCircle
 10
123.9444039333942
 20
198.6078304330547
 30
0.0
 40
24.99999999999999
100
AcDbArc
 50
-165.0000000000001
 51
-135.0
  0
ARC
  5
CE
330
39
100
AcDbEntity
  8
1
  6
Continuous
 62
     7
100
AcDbCircle
 10
90.34929410696259
 20
140.4193933278187
 30
0.0
 40
24.99999999999999
100
AcDbArc
 50
74.9999999999998
 51
105.0
  0
ENDBLK
  5
3B
330
39
100
AcDbEntity
  8
0
100
AcDbBlockEnd
  0
BLOCK
  5
3D
330
3C
100
AcDbEntity
  8
0
100
AcDbBlockBegin
  2
42-1-P8
 70
     0
 71
     0
 10
347.2389431165475
 20
91.10742464470582
 30
0.0
  3
42-1-P8
  1

  0
LINE
  5
CF
330
3C
100
AcDbEntity
  8
1
  6
Continuous
 62
     7
100
AcDbLine
 10
137.119528386759
 20
179.2116847313093
 30
0.0
 11
137.119528386759
 21
184.9616847313093
 31
0.0
  0
LINE
  5
D0
330
3C
100
AcDbEntity
  8
1
  6
Continuous
 62
     7
100
AcDbLine
 10
137.4492941069627
 20
184.7116847313093
 30
0.0
 11
137.4492941069627
 21
185.2116847313093
 31
0.0
  0
LINE
  5
D1
330
3C
100
AcDbEntity
  8
1
  6
Continuous
 62
     2
100
AcDbLine
 10
140.4492941069627
 20
185.2116847313093
 30
0.0
 11
137.4492941069627
 21
185.2116847313093
 31
0.0
  0
LINE
  5
D2
330
3C
100
AcDbEntity
  8
1
  6
Continuous
 62
     7
100
AcDbLine
 10
137.4492941069627
 20
185.7116847313093
 30
0.0
 11
137.4492941069627
 21
186.2116847313093
 31
0.0
  0
LINE
  5
D3
330
3C
100
AcDbEntity
  8
1
  6
Continuous
 62
     7
100
AcDbLine
 10
137.1799719079395
 20
185.2116847313094
 30
0.0
 11
137.4492941069627
 21
186.2116847313093
 31
0.0
  0
LINE
  5
D4
330
3C
100
AcDbEntity
  8
1
  6
Continuous
 62
     7
100
AcDbLine
 10
137.4492941069627
 20
186.2116847313093
 30
0.0
 11
140.4492941069627
 21
186.2116847313093
 31
0.0
  0
LINE
  5
D5
330
3C
100
AcDbEntity
  8
1
  6
Continuous
 62
     2
100
AcDbLine
 10
140.4492941069627
 20
185.7116847313093
 30
0.0
 11
137.4492941069627
 21
185.7116847313093
 31
0.0
  0
LINE
  5
D6
330
3C
100
AcDbEntity
  8
1
  6
Continuous
 62
     7
100
AcDbLine
 10
137.4492941069627
 20
185.2116847313093
 30
0.0
 11
137.4492941069627
 21
185.7116847313093
 31
0.0
  0
LINE
  5
D7
330
3C
100
AcDbEntity
  8
1
  6
Continuous
 62
     2
100
AcDbLine
 10
140.4492941069627
 20
184.7116847313093
 30
0.0
 11
137.4492941069627
 21
184.7116847313093
 31
0.0
  0
LINE
  5
D8
330
3C
100
AcDbEntity
  8
1
  6
Continuous
 62
     7
100
AcDbLine
 10
137.4492941069627
 20
184.2116847313093
 30
0.0
 11
137.4492941069627
 21
184.7116847313093
 31
0.0
  0
LINE
  5
D9
330
3C
100
AcDbEntity
  8
1
  6
Continuous
 62
     7
100
AcDbLine
 10
137.119528386759
 20
173.4616847313093
 30
0.0
 11
137.119528386759
 21
179.2116847313093
 31
0.0
  0
LINE
  5
DA
330
3C
100
AcDbEntity
  8
1
  6
Continuous
 62
     2
100
AcDbLine
 10
138.2069560047915
 20
178.2116847313093
 30
0.0
 11
139.4721950954019
 21
178.2116847313093
 31
0.0
  0
LINE
  5
DB
330
3C
100
AcDbEntity
  8
1
  6
Continuous
 62
     2
100
AcDbLine
 10
137.9636407950587
 20
177.2116847313093
 30
0.0
 11
139.7317313191169
 21
177.2116847313093
 31
0.0
  0
LINE
  5
DC
330
3C
100
AcDbEntity
  8
1
  6
Continuous
 62
     7
100
AcDbLine
 10
137.4492941069627
 20
173.2116847313093
 30
0.0
 11
137.4492941069627
 21
173.7116847313093
 31
0.0
  0
LINE
  5
DD
330
3C
100
AcDbEntity
  8
1
  6
Continuous
 62
     7
100
AcDbLine
 10
137.4492941069627
 20
172.2116847313093
 30
0.0
 11
137.4492941069627
 21
172.7116847313093
 31
0.0
  0
LINE
  5
DE
330
3C
100
AcDbEntity
  8
1
  6
Continuous
 62
     7
100
AcDbLine
 10
137.4492941069627
 20
172.2116847313093
 30
0.0
 11
137.1799719079395
 21
173.2116847313093
 31
0.0
  0
LINE
  5
DF
330
3C
100
AcDbEntity
  8
1
  6
Continuous
 62
     7
100
AcDbLine
 10
137.4492941069627
 20
172.7116847313093
 30
0.0
 11
137.4492941069627
 21
173.2116847313093
 31
0.0
  0
LINE
  5
E0
330
3C
100
AcDbEntity
  8
1
  6
Continuous
 62
     7
100
AcDbLine
 10
137.4492941069627
 20
173.7116847313093
 30
0.0
 11
137.4492941069627
 21
174.2116847313093
 31
0.0
  0
LINE
  5
E1
330
3C
100
AcDbEntity
  8
1
  6
Continuous
 62
     2
100
AcDbLine
 10
137.9177509796768
 20
176.7116847313093
 30
0.0
 11
139.8357449162853
 21
176.7116847313093
 31
0.0
  0
LINE
  5
E2
330
3C
100
AcDbEntity
  8
1
  6
Continuous
 62
     2
100
AcDbLine
 10
138.1629739487409
 20
177.7116847313093
 30
0.0
 11
139.5117002785935
 21
177.7116847313093
 31
0.0
  0
LINE
  5
E3
330
3C
100
AcDbEntity
  8
1
  6
Continuous
 62
     7
100
AcDbLine
 10
137.4492941069627
 20
174.2116847313093
 30
0.0
 11
137.4492941069627
 21
184.2116847313093
 31
0.0
  0
LINE
  5
E4
330
3C
100
AcDbEntity
  8
1
  6
Continuous
 62
     2
100
AcDbLine
 10
139.4721950954019
 20
180.2116847313093
 30
0.0
 11
138.2069560047915
 21
180.2116847313093
 31
0.0
  0
LINE
  5
E5
330
3C
100
AcDbEntity
  8
1
  6
Continuous
 62
     2
100
AcDbLine
 10
139.7317313191169
 20
181.2116847313093
 30
0.0
 11
137.9636407950587
 21
181.2116847313093
 31
0.0
  0
LINE
  5
E6
330
3C
100
AcDbEntity
  8
1
  6
Continuous
 62
     2
100
AcDbLine
 10
139.8357449162853
 20
181.7116847313093
 30
0.0
 11
137.9177509796768
 21
181.7116847313093
 31
0.0
  0
LINE
  5
E7
330
3C
100
AcDbEntity
  8
1
  6
Continuous
 62
     2
100
AcDbLine
 10
139.5117002785935
 20
180.7116847313093
 30
0.0
 11
138.1629739487409
 21
180.7116847313093
 31
0.0
  0
LINE
  5
E8
330
3C
100
AcDbEntity
  8
1
  6
Continuous
 62
     2
100
AcDbLine
 10
140.088593626725
 20
182.2116847313093
 30
0.0
 11
137.7527676132903
 21
182.2116847313093
 31
0.0
  0
LINE
  5
E9
330
3C
100
AcDbEntity
  8
1
  6
Continuous
 62
     2
100
AcDbLine
 10
140.1948214067006
 20
182.7116847313093
 30
0.0
 11
137.7250757896978
 21
182.7116847313093
 31
0.0
  0
LINE
  5
EA
330
3C
100
AcDbEntity
  8
1
  6
Continuous
 62
     2
100
AcDbLine
 10
140.2832457945112
 20
183.2116847313093
 30
0.0
 11
137.639220515415
 21
183.2116847313093
 31
0.0
  0
LINE
  5
EB
330
3C
100
AcDbEntity
  8
1
  6
Continuous
 62
     2
100
AcDbLine
 10
140.3437067807753
 20
183.7116847313093
 30
0.0
 11
137.5937063419849
 21
183.7116847313093
 31
0.0
  0
LINE
  5
EC
330
3C
100
AcDbEntity
  8
1
  6
Continuous
 62
     2
100
AcDbLine
 10
140.4492941069627
 20
184.2116847313093
 30
0.0
 11
137.4492941069627
 21
184.2116847313093
 31
0.0
  0
LINE
  5
ED
330
3C
100
AcDbEntity
  8
1
  6
Continuous
 62
     7
100
AcDbLine
 10
140.4492941069627
 20
186.2116847313093
 30
0.0
 11
140.4492941069627
 21
172.2116847313093
 31
0.0
  0
LINE
  5
EE
330
3C
100
AcDbEntity
  8
1
  6
Continuous
 62
     2
100
AcDbLine
 10
137.7527676132903
 20
176.2116847313093
 30
0.0
 11
140.088593626725
 21
176.2116847313093
 31
0.0
  0
LINE
  5
EF
330
3C
100
AcDbEntity
  8
1
  6
Continuous
 62
     2
100
AcDbLine
 10
137.7250757896978
 20
175.7116847313093
 30
0.0
 11
140.1948214067006
 21
175.7116847313093
 31
0.0
  0
LINE
  5
F0
330
3C
100
AcDbEntity
  8
1
  6
Continuous
 62
     2
100
AcDbLine
 10
137.639220515415
 20
175.2116847313093
 30
0.0
 11
140.2832457945112
 21
175.2116847313093
 31
0.0
  0
LINE
  5
F1
330
3C
100
AcDbEntity
  8
1
  6
Continuous
 62
     2
100
AcDbLine
 10
137.5937063419849
 20
174.7116847313093
 30
0.0
 11
140.3437067807753
 21
174.7116847313093
 31
0.0
  0
LINE
  5
F2
330
3C
100
AcDbEntity
  8
1
  6
Continuous
 62
     2
100
AcDbLine
 10
137.4492941069627
 20
174.2116847313093
 30
0.0
 11
140.4492941069627
 21
174.2116847313093
 31
0.0
  0
LINE
  5
F3
330
3C
100
AcDbEntity
  8
1
  6
Continuous
 62
     2
100
AcDbLine
 10
137.4492941069627
 20
173.7116847313093
 30
0.0
 11
140.4492941069627
 21
173.7116847313093
 31
0.0
  0
LINE
  5
F4
330
3C
100
AcDbEntity
  8
1
  6
Continuous
 62
     2
100
AcDbLine
 10
137.4492941069627
 20
173.2116847313093
 30
0.0
 11
140.4492941069627
 21
173.2116847313093
 31
0.0
  0
LINE
  5
F5
330
3C
100
AcDbEntity
  8
1
  6
Continuous
 62
     2
100
AcDbLine
 10
137.4492941069627
 20
172.7116847313093
 30
0.0
 11
140.4492941069627
 21
172.7116847313093
 31
0.0
  0
LINE
  5
F6
330
3C
100
AcDbEntity
  8
1
  6
Continuous
 62
     7
100
AcDbLine
 10
140.4492941069627
 20
172.2116847313093
 30
0.0
 11
137.4492941069627
 21
172.2116847313093
 31
0.0
  0
LINE
  5
F7
330
3C
100
AcDbEntity
  8
1
  6
Continuous
 62
     7
100
AcDbLine
 10
137.119528386759
 20
279.2116847313093
 30
0.0
 11
137.119528386759
 21
284.9616847313092
 31
0.0
  0
LINE
  5
F8
330
3C
100
AcDbEntity
  8
1
  6
Continuous
 62
     7
100
AcDbLine
 10
137.4492941069627
 20
284.7116847313092
 30
0.0
 11
137.4492941069627
 21
285.2116847313092
 31
0.0
  0
LINE
  5
F9
330
3C
100
AcDbEntity
  8
1
  6
Continuous
 62
     2
100
AcDbLine
 10
140.4492941069627
 20
285.2116847313092
 30
0.0
 11
137.4492941069627
 21
285.2116847313092
 31
0.0
  0
LINE
  5
FA
330
3C
100
AcDbEntity
  8
1
  6
Continuous
 62
     7
100
AcDbLine
 10
137.4492941069627
 20
285.7116847313092
 30
0.0
 11
137.4492941069627
 21
286.2116847313092
 31
0.0
  0
LINE
  5
FB
330
3C
100
AcDbEntity
  8
1
  6
Continuous
 62
     7
100
AcDbLine
 10
137.1799719079395
 20
285.2116847313094
 30
0.0
 11
137.4492941069627
 21
286.2116847313092
 31
0.0
  0
LINE
  5
FC
330
3C
100
AcDbEntity
  8
1
  6
Continuous
 62
     7
100
AcDbLine
 10
137.4492941069627
 20
286.2116847313092
 30
0.0
 11
140.4492941069627
 21
286.2116847313092
 31
0.0
  0
LINE
  5
FD
330
3C
100
AcDbEntity
  8
1
  6
Continuous
 62
     2
100
AcDbLine
 10
140.4492941069627
 20
285.7116847313092
 30
0.0
 11
137.4492941069627
 21
285.7116847313092
 31
0.0
  0
LINE
  5
FE
330
3C
100
AcDbEntity
  8
1
  6
Continuous
 62
     7
100
AcDbLine
 10
137.4492941069627
 20
285.2116847313092
 30
0.0
 11
137.4492941069627
 21
285.7116847313092
 31
0.0
  0
LINE
  5
FF
330
3C
100
AcDbEntity
  8
1
  6
Continuous
 62
     2
100
AcDbLine
 10
140.4492941069627
 20
284.7116847313092
 30
0.0
 11
137.4492941069627
 21
284.7116847313092
 31
0.0
  0
LINE
  5
100
330
3C
100
AcDbEntity
  8
1
  6
Continuous
 62
     7
100
AcDbLine
 10
137.4492941069627
 20
284.2116847313093
 30
0.0
 11
137.4492941069627
 21
284.7116847313092
 31
0.0
  0
LINE
  5
101
330
3C
100
AcDbEntity
  8
1
  6
Continuous
 62
     7
100
AcDbLine
 10
137.119528386759
 20
273.4616847313093
 30
0.0
 11
137.119528386759
 21
279.2116847313093
 31
0.0
  0
LINE
  5
102
330
3C
100
AcDbEntity
  8
1
  6
Continuous
 62
     2
100
AcDbLine
 10
138.2069560047915
 20
278.2116847313093
 30
0.0
 11
139.4721950954019
 21
278.2116847313093
 31
0.0
  0
LINE
  5
103
330
3C
100
AcDbEntity
  8
1
  6
Continuous
 62
     2
100
AcDbLine
 10
137.9636407950587
 20
277.2116847313093
 30
0.0
 11
139.7317313191169
 21
277.2116847313093
 31
0.0
  0
LINE
  5
104
330
3C
100
AcDbEntity
  8
1
  6
Continuous
 62
     7
100
AcDbLine
 10
137.4492941069627
 20
273.2116847313093
 30
0.0
 11
137.4492941069627
 21
273.7116847313093
 31
0.0
  0
LINE
  5
105
330
3C
100
AcDbEntity
  8
1
  6
Continuous
 62
     7
100
AcDbLine
 10
137.4492941069627
 20
272.2116847313093
 30
0.0
 11
137.4492941069627
 21
272.7116847313093
 31
0.0
  0
LINE
  5
106
330
3C
100
AcDbEntity
  8
1
  6
Continuous
 62
     7
100
AcDbLine
 10
137.4492941069627
 20
272.2116847313093
 30
0.0
 11
137.1799719079395
 21
273.2116847313092
 31
0.0
  0
LINE
  5
107
330
3C
100
AcDbEntity
  8
1
  6
Continuous
 62
     7
100
AcDbLine
 10
137.4492941069627
 20
272.7116847313093
 30
0.0
 11
137.4492941069627
 21
273.2116847313093
 31
0.0
  0
LINE
  5
108
330
3C
100
AcDbEntity
  8
1
  6
Continuous
 62
     7
100
AcDbLine
 10
137.4492941069627
 20
273.7116847313093
 30
0.0
 11
137.4492941069627
 21
274.2116847313093
 31
0.0
  0
LINE
  5
109
330
3C
100
AcDbEntity
  8
1
  6
Continuous
 62
     2
100
AcDbLine
 10
137.9177509796768
 20
276.7116847313092
 30
0.0
 11
139.8357449162853
 21
276.7116847313092
 31
0.0
  0
LINE
  5
10A
330
3C
100
AcDbEntity
  8
1
  6
Continuous
 62
     2
100
AcDbLine
 10
138.1629739487409
 20
277.7116847313093
 30
0.0
 11
139.5117002785935
 21
277.7116847313093
 31
0.0
  0
LINE
  5
10B
330
3C
100
AcDbEntity
  8
1
  6
Continuous
 62
     7
100
AcDbLine
 10
137.4492941069627
 20
274.2116847313093
 30
0.0
 11
137.4492941069627
 21
284.2116847313093
 31
0.0
  0
LINE
  5
10C
330
3C
100
AcDbEntity
  8
1
  6
Continuous
 62
     2
100
AcDbLine
 10
139.4721950954019
 20
280.2116847313092
 30
0.0
 11
138.2069560047915
 21
280.2116847313092
 31
0.0
  0
LINE
  5
10D
330
3C
100
AcDbEntity
  8
1
  6
Continuous
 62
     2
100
AcDbLine
 10
139.7317313191169
 20
281.2116847313092
 30
0.0
 11
137.9636407950587
 21
281.2116847313092
 31
0.0
  0
LINE
  5
10E
330
3C
100
AcDbEntity
  8
1
  6
Continuous
 62
     2
100
AcDbLine
 10
139.8357449162853
 20
281.7116847313092
 30
0.0
 11
137.9177509796768
 21
281.7116847313092
 31
0.0
  0
LINE
  5
10F
330
3C
100
AcDbEntity
  8
1
  6
Continuous
 62
     2
100
AcDbLine
 10
139.5117002785935
 20
280.7116847313092
 30
0.0
 11
138.1629739487409
 21
280.7116847313092
 31
0.0
  0
LINE
  5
110
330
3C
100
AcDbEntity
  8
1
  6
Continuous
 62
     2
100
AcDbLine
 10
140.088593626725
 20
282.2116847313092
 30
0.0
 11
137.7527676132903
 21
282.2116847313092
 31
0.0
  0
LINE
  5
111
330
3C
100
AcDbEntity
  8
1
  6
Continuous
 62
     2
100
AcDbLine
 10
140.1948214067006
 20
282.7116847313092
 30
0.0
 11
137.7250757896978
 21
282.7116847313092
 31
0.0
  0
LINE
  5
112
330
3C
100
AcDbEntity
  8
1
  6
Continuous
 62
     2
100
AcDbLine
 10
140.2832457945112
 20
283.2116847313092
 30
0.0
 11
137.639220515415
 21
283.2116847313092
 31
0.0
  0
LINE
  5
113
330
3C
100
AcDbEntity
  8
1
  6
Continuous
 62
     2
100
AcDbLine
 10
140.3437067807753
 20
283.7116847313092
 30
0.0
 11
137.5937063419849
 21
283.7116847313092
 31
0.0
  0
LINE
  5
114
330
3C
100
AcDbEntity
  8
1
  6
Continuous
 62
     2
100
AcDbLine
 10
140.4492941069627
 20
284.2116847313093
 30
0.0
 11
137.4492941069627
 21
284.2116847313093
 31
0.0
  0
LINE
  5
115
330
3C
100
AcDbEntity
  8
1
  6
Continuous
 62
     7
100
AcDbLine
 10
140.4492941069627
 20
286.2116847313092
 30
0.0
 11
140.4492941069627
 21
272.2116847313093
 31
0.0
  0
LINE
  5
116
330
3C
100
AcDbEntity
  8
1
  6
Continuous
 62
     2
100
AcDbLine
 10
137.7527676132903
 20
276.2116847313093
 30
0.0
 11
140.088593626725
 21
276.2116847313093
 31
0.0
  0
LINE
  5
117
330
3C
100
AcDbEntity
  8
1
  6
Continuous
 62
     2
100
AcDbLine
 10
137.7250757896978
 20
275.7116847313093
 30
0.0
 11
140.1948214067006
 21
275.7116847313093
 31
0.0
  0
LINE
  5
118
330
3C
100
AcDbEntity
  8
1
  6
Continuous
 62
     2
100
AcDbLine
 10
137.639220515415
 20
275.2116847313093
 30
0.0
 11
140.2832457945112
 21
275.2116847313093
 31
0.0
  0
LINE
  5
119
330
3C
100
AcDbEntity
  8
1
  6
Continuous
 62
     2
100
AcDbLine
 10
137.5937063419849
 20
274.7116847313093
 30
0.0
 11
140.3437067807753
 21
274.7116847313093
 31
0.0
  0
LINE
  5
11A
330
3C
100
AcDbEntity
  8
1
  6
Continuous
 62
     2
100
AcDbLine
 10
137.4492941069627
 20
274.2116847313093
 30
0.0
 11
140.4492941069627
 21
274.2116847313093
 31
0.0
  0
LINE
  5
11B
330
3C
100
AcDbEntity
  8
1
  6
Continuous
 62
     2
100
AcDbLine
 10
137.4492941069627
 20
273.7116847313093
 30
0.0
 11
140.4492941069627
 21
273.7116847313093
 31
0.0
  0
LINE
  5
11C
330
3C
100
AcDbEntity
  8
1
  6
Continuous
 62
     2
100
AcDbLine
 10
137.4492941069627
 20
273.2116847313093
 30
0.0
 11
140.4492941069627
 21
273.2116847313093
 31
0.0
  0
LINE
  5
11D
330
3C
100
AcDbEntity
  8
1
  6
Continuous
 62
     2
100
AcDbLine
 10
137.4492941069627
 20
272.7116847313093
 30
0.0
 11
140.4492941069627
 21
272.7116847313093
 31
0.0
  0
LINE
  5
11E
330
3C
100
AcDbEntity
  8
1
  6
Continuous
 62
     7
100
AcDbLine
 10
140.4492941069627
 20
272.2116847313093
 30
0.0
 11
137.4492941069627
 21
272.2116847313093
 31
0.0
  0
ARC
  5
11F
330
3C
100
AcDbEntity
  8
1
  6
Continuous
 62
     7
100
AcDbCircle
 10
161.4492941069627
 20
179.2116847313093
 30
0.0
 40
24.99999999999999
100
AcDbArc
 50
166.7029282527909
 51
180.0
  0
ARC
  5
120
330
3C
100
AcDbEntity
  8
1
  6
Continuous
 62
     7
100
AcDbCircle
 10
161.4492941069627
 20
179.2116847313093
 30
0.0
 40
25.0
100
AcDbArc
 50
180.0
 51
-166.7029282527909
  0
ARC
  5
121
330
3C
100
AcDbEntity
  8
1
  6
Continuous
 62
     7
100
AcDbCircle
 10
161.4492941069627
 20
179.2116847313093
 30
0.0
 40
25.00000000000004
100
AcDbArc
 50
166.1134596373708
 51
166.7029282527909
  0
ARC
  5
122
330
3C
100
AcDbEntity
  8
1
  6
Continuous
 62
     7
100
AcDbCircle
 10
161.4492941069627
 20
179.2116847313093
 30
0.0
 40
24.99999999999999
100
AcDbArc
 50
-166.7029282527909
 51
-166.113459637371
  0
ARC
  5
123
330
3C
100
AcDbEntity
  8
1
  6
Continuous
 62
     7
100
AcDbCircle
 10
161.4492941069627
 20
279.2116847313093
 30
0.0
 40
24.99999999999998
100
AcDbArc
 50
166.7029282527911
 51
180.0
  0
ARC
  5
124
330
3C
100
AcDbEntity
  8
1
  6
Continuous
 62
     7
100
AcDbCircle
 10
161.4492941069627
 20
279.2116847313093
 30
0.0
 40
25.0
100
AcDbArc
 50
180.0
 51
-166.7029282527909
  0
ARC
  5
125
330
3C
100
AcDbEntity
  8
1
  6
Continuous
 62
     7
100
AcDbCircle
 10
161.4492941069627
 20
279.2116847313093
 30
0.0
 40
25.00000000000004
100
AcDbArc
 50
166.1134596373708
 51
166.7029282527911
  0
ARC
  5
126
330
3C
100
AcDbEntity
  8
1
  6
Continuous
 62
     7
100
AcDbCircle
 10
161.4492941069627
 20
279.2116847313093
 30
0.0
 40
24.99999999999999
100
AcDbArc
 50
-166.7029282527909
 51
-166.1134596373709
  0
CIRCLE
  5
127
330
3C
100
AcDbEntity
  8
1
  6
Continuous
 62
     7
100
AcDbCircle
 10
90.34929410696267
 20
179.2116847313093
 30
0.0
 40
7.0
  0
CIRCLE
  5
128
330
3C
100
AcDbEntity
  8
1
  6
Continuous
 62
     7
100
AcDbCircle
 10
90.34929410696267
 20
179.2116847313093
 30
0.0
 40
5.75
  0
ENDBLK
  5
3E
330
3C
100
AcDbEntity
  8
0
100
AcDbBlockEnd
  0
BLOCK
  5
40
330
3F
100
AcDbEntity
  8
0
100
AcDbBlockBegin
  2
37-1-13
 70
     0
 71
     0
 10
311.4449999971072
 20
87.41045451453832
 30
0.0
  3
37-1-13
  1

  0
LINE
  5
129
330
3F
100
AcDbEntity
  8
1
  6
Continuous
 62
     7
100
AcDbLine
 10
154.4492941069627
 20
185.2117869308561
 30
0.0
 11
154.4492941069627
 21
173.2117869308562
 31
0.0
  0
LINE
  5
12A
330
3F
100
AcDbEntity
  8
0
  6
Continuous
 62
     7
100
AcDbLine
 10
161.3785798926914
 20
174.3664401519592
 30
0.0
 11
161.3785798926914
 21
170.5365041243121
 31
0.0
  0
LINE
  5
12B
330
3F
100
AcDbEntity
  8
0
  6
Continuous
 62
     7
100
AcDbLine
 10
161.3785798926914
 20
187.8870697374001
 30
0.0
 11
161.3785798926914
 21
184.057133709753
 31
0.0
  0
LINE
  5
12C
330
3F
100
AcDbEntity
  8
1
  6
Continuous
 62
     7
100
AcDbLine
 10
161.3785798926913
 20
292.2116847313093
 30
0.0
 11
161.3785798926913
 21
266.2116847313093
 31
0.0
  0
LINE
  5
12D
330
3F
100
AcDbEntity
  8
1
  6
Continuous
 62
     7
100
AcDbLine
 10
168.4492941069627
 20
292.2116847313093
 30
0.0
 11
161.3785798926913
 21
292.2116847313093
 31
0.0
  0
LINE
  5
12E
330
3F
100
AcDbEntity
  8
1
  6
Continuous
 62
     7
100
AcDbLine
 10
154.4492941069627
 20
285.2116847313093
 30
0.0
 11
154.4492941069627
 21
273.2116847313093
 31
0.0
  0
LINE
  5
12F
330
3F
100
AcDbEntity
  8
1
  6
Continuous
 62
     7
100
AcDbLine
 10
168.4492941069627
 20
266.2116847313093
 30
0.0
 11
161.3785798926913
 21
266.2116847313093
 31
0.0
  0
LINE
  5
130
330
3F
100
AcDbEntity
  8
1
  6
Continuous
 62
     7
100
AcDbLine
 10
168.4492941069627
 20
279.2116847313093
 30
0.0
 11
168.4492941069627
 21
266.2116847313093
 31
0.0
  0
LINE
  5
131
330
3F
100
AcDbEntity
  8
1
  6
Continuous
 62
     7
100
AcDbLine
 10
168.4492941069627
 20
292.2116847313093
 30
0.0
 11
168.4492941069627
 21
279.2116847313093
 31
0.0
  0
LINE
  5
132
330
3F
100
AcDbEntity
  8
1
  6
Continuous
 62
     7
100
AcDbLine
 10
168.4492941069627
 20
166.1410727165848
 30
0.0
 11
168.4492941069627
 21
192.2825011451276
 31
0.0
  0
ARC
  5
133
330
3F
100
AcDbEntity
  8
1
  6
Continuous
 62
     7
100
AcDbCircle
 10
141.0428389018479
 20
205.118242135971
 30
0.0
 40
23.99999999999992
100
AcDbArc
 50
-56.04080749990269
 51
-33.9591925000981
  0
ARC
  5
134
330
3F
100
AcDbEntity
  8
1
  6
Continuous
 62
     7
100
AcDbCircle
 10
164.9492941069627
 20
188.7117869308561
 30
0.0
 40
5.000000000000057
100
AcDbArc
 50
45.57299599919494
 51
143.1301023541584
  0
ARC
  5
135
330
3F
100
AcDbEntity
  8
1
  6
Continuous
 62
     7
100
AcDbCircle
 10
141.0428389018478
 20
153.3053317257413
 30
0.0
 40
24.0
100
AcDbArc
 50
33.95919250009798
 51
56.04080749990252
  0
ARC
  5
136
330
3F
100
AcDbEntity
  8
1
  6
Continuous
 62
     7
100
AcDbCircle
 10
164.9492941069627
 20
169.7117869308561
 30
0.0
 40
4.999999999999898
100
AcDbArc
 50
-143.1301023541592
 51
-45.57299599919334
  0
ARC
  5
137
330
3F
100
AcDbEntity
  8
1
  6
Continuous
 62
     7
100
AcDbCircle
 10
141.0428389018478
 20
305.1181399364242
 30
0.0
 40
23.99999999999999
100
AcDbArc
 50
-56.04080749990256
 51
-33.95919250009765
  0
ARC
  5
138
330
3F
100
AcDbEntity
  8
1
  6
Continuous
 62
     7
100
AcDbCircle
 10
164.9492941069627
 20
288.7116847313093
 30
0.0
 40
4.999999999999975
100
AcDbArc
 50
135.572995999194
 51
143.1301023541565
  0
ARC
  5
139
330
3F
100
AcDbEntity
  8
1
  6
Continuous
 62
     7
100
AcDbCircle
 10
141.0428389018478
 20
253.3052295261944
 30
0.0
 40
24.00000000000001
100
AcDbArc
 50
33.95919250009765
 51
56.04080749990249
  0
ARC
  5
13A
330
3F
100
AcDbEntity
  8
1
  6
Continuous
 62
     7
100
AcDbCircle
 10
164.9492941069627
 20
269.7116847313093
 30
0.0
 40
4.999999999999932
100
AcDbArc
 50
-143.130102354157
 51
-135.572995999194
  0
SPLINE
  5
13B
330
3F
100
AcDbEntity
  8
1
  6
Continuous
 62
     7
100
AcDbSpline
210
0.0
220
0.0
230
1.0
 70
    11
 71
     3
 72
    81
 73
    77
 74
    75
 42
0.0000000001
 43
0.0000000001
 44
0.00000001
 40
0.0
 40
0.0
 40
0.0
 40
0.0
 40
0.3171240087212425
 40
0.6340440088655189
 40
0.9694545229852417
 40
1.30452813224652
 40
1.666089109759912
 40
2.027350029319676
 40
2.418688401003657
 40
2.809801279757759
 40
3.230593108956665
 40
3.65123037701772
 40
4.097981219446792
 40
4.544632080439691
 40
5.011500609722299
 40
5.478309845182704
 40
5.957804816340339
 40
6.437272082749306
 40
6.921140292770708
 40
7.405008840634795
 40
7.884585054417381
 40
8.364188643339475
 40
8.830997876960023
 40
9.297866406159502
 40
9.744517267319507
 40
10.19126810649657
 40
10.61190537787816
 40
11.03269723115642
 40
11.42381008652814
 40
11.81514829909022
 40
12.17640936863709
 40
12.53797134465924
 40
12.87304401654959
 40
13.20844847930445
 40
13.52537429960416
 40
13.84253416517424
 40
14.1530168976364
 40
14.46349963009851
 40
14.78065949566862
 40
15.09758531596828
 40
15.43298977872291
 40
15.76806245061267
 40
16.12962442663548
 40
16.49088549618582
 40
16.88222370874449
 40
17.27333656409932
 40
17.69412841739428
 40
18.11476568885456
 40
18.56151652795984
 40
19.00816738879907
 40
19.4750359182529
 40
19.94184515282123
 40
20.42139443286103
 40
20.90091617293735
 40
21.38478455188081
 40
21.86865293082286
 40
22.34817467090381
 40
22.82772395098353
 40
23.29453318549851
 40
23.76140171453982
 40
24.208052575842
 40
24.65480341827684
 40
25.07544068631406
 40
25.49623251580817
 40
25.88734539433266
 40
26.27868376466936
 40
26.63994468523089
 40
27.00150566783606
 40
27.33657927368424
 40
27.67198977403994
 40
27.98887560485915
 40
28.30596477627201
 40
28.46167452302799
 40
28.61667187923214
 40
28.7717035426968
 40
28.92744807291958
 40
28.92744807291958
 40
28.92744807291958
 40
28.92744807291958
 10
164.604037821559
 20
291.2521505123822
 30
0.0
 10
164.4998022362543
 20
291.233569187919
 30
0.0
 10
164.2913981212851
 20
291.1964184925172
 30
0.0
 10
163.9863761608673
 20
291.0855573033212
 30
0.0
 10
163.6912255383373
 20
290.9385340992379
 30
0.0
 10
163.4035388066559
 20
290.7484546160823
 30
0.0
 10
163.1313064358971
 20
290.5233190460448
 30
0.0
 10
162.869904489377
 20
290.2587285428897
 30
0.0
 10
162.6277240343829
 20
289.9636262616592
 30
0.0
 10
162.4001052574423
 20
289.6328781919662
 30
0.0
 10
162.1944222225232
 20
289.2767470478105
 30
0.0
 10
162.0070505433778
 20
288.8900135486116
 30
0.0
 10
161.8436070503971
 20
288.4832728057253
 30
0.0
 10
161.7018191373747
 20
288.0522837484275
 30
0.0
 10
161.585393299069
 20
287.6068489919402
 30
0.0
 10
161.4932242183563
 20
287.1446314752371
 30
0.0
 10
161.4273582202325
 20
286.673698116755
 30
0.0
 10
161.3873749864187
 20
286.1941724057375
 30
0.0
 10
161.3741592596987
 20
285.7117056221383
 30
0.0
 10
161.3873879133995
 20
285.2292028575284
 30
0.0
 10
161.4273919816856
 20
284.7496058419474
 30
0.0
 10
161.4932884622633
 20
284.2786033558667
 30
0.0
 10
161.5854875648592
 20
283.8163548987346
 30
0.0
 10
161.7019355715323
 20
283.3709259318916
 30
0.0
 10
161.8437449260485
 20
282.9399439387772
 30
0.0
 10
162.0072086368716
 20
282.5332112944425
 30
0.0
 10
162.1945995689389
 20
282.1464872052175
 30
0.0
 10
162.4003003227641
 20
281.790365967754
 30
0.0
 10
162.6279356960708
 20
281.4596305013826
 30
0.0
 10
162.8701299841353
 20
281.1645357021184
 30
0.0
 10
163.1315474737123
 20
280.8999731659112
 30
0.0
 10
163.4037842589951
 20
280.6747974875713
 30
0.0
 10
163.6915051556855
 20
280.4849228659446
 30
0.0
 10
163.9865647108525
 20
280.3372269439832
 30
0.0
 10
164.2919435561539
 20
280.228795988247
 30
0.0
 10
164.6011772062041
 20
280.1646210904124
 30
0.0
 10
164.9140755265365
 20
280.1420696443408
 30
0.0
 10
165.2269727246889
 20
280.1646366551137
 30
0.0
 10
165.5362031820577
 20
280.2288269353035
 30
0.0
 10
165.8415766332213
 20
280.3372730815877
 30
0.0
 10
166.1366288410772
 20
280.4849836807282
 30
0.0
 10
166.4243402923397
 20
280.6748726144308
 30
0.0
 10
166.6965658762086
 20
280.9000618345656
 30
0.0
 10
166.9579702051398
 20
281.1646373743221
 30
0.0
 10
167.2001498137862
 20
281.4597442208628
 30
0.0
 10
167.4277687347648
 20
281.7904910102828
 30
0.0
 10
167.6334517735211
 20
282.1466224796488
 30
0.0
 10
167.8208234686028
 20
282.5333558897973
 30
0.0
 10
167.9842669465747
 20
282.940096664791
 30
0.0
 10
168.1260548614283
 20
283.3710857122713
 30
0.0
 10
168.2424807061776
 20
283.8165204707403
 30
0.0
 10
168.3346533008206
 20
284.2787557503434
 30
0.0
 10
168.4005228253085
 20
284.7497253113895
 30
0.0
 10
168.4405045482007
 20
285.2292876693233
 30
0.0
 10
168.453714737914
 20
285.7117727721794
 30
0.0
 10
168.4404805476829
 20
286.1942572173175
 30
0.0
 10
168.4004749696197
 20
286.6738175858382
 30
0.0
 10
168.3345820170024
 20
287.1447838696486
 30
0.0
 10
168.2423864291427
 20
287.6070145634964
 30
0.0
 10
168.1259384291925
 20
288.0524435304737
 30
0.0
 10
167.9841290755483
 20
288.4834255258286
 30
0.0
 10
167.8206653531732
 20
288.8901581654319
 30
0.0
 10
167.6332744245928
 20
289.276882247193
 30
0.0
 10
167.4275737195158
 20
289.6330035072739
 30
0.0
 10
167.1999383353756
 20
289.9637390432932
 30
0.0
 10
166.9577437550065
 20
290.2588336104845
 30
0.0
 10
166.696326722752
 20
290.5233961094554
 30
0.0
 10
166.4240900484261
 20
290.7485718709477
 30
0.0
 10
166.1363699439412
 20
290.9384504195378
 30
0.0
 10
165.8413084741151
 20
291.086126950689
 30
0.0
 10
165.5359982553284
 20
291.1945852814152
 30
0.0
 10
165.2773712696072
 20
291.248144580625
 30
0.0
 10
165.0691385094447
 20
291.2702562380046
 30
0.0
 10
164.9138716191922
 20
291.2755144069218
 30
0.0
 10
164.7585016063699
 20
291.2706723769461
 30
0.0
 10
164.6556044259323
 20
291.2583339013455
 30
0.0
 10
164.604037821559
 20
291.2521505123822
 30
0.0
 11
164.604037821559
 21
291.2521505123822
 31
0.0
 11
164.2935608058171
 21
291.1875621264027
 31
0.0
 11
163.9946137744599
 21
291.0823530063884
 31
0.0
 11
163.6945077538304
 21
290.932564524308
 31
0.0
 11
163.4143744807566
 21
290.7487176506867
 31
0.0
 11
163.1353375335141
 21
290.51879435362
 31
0.0
 11
162.880926848553
 21
290.2623091583771
 31
0.0
 11
162.632095458906
 21
289.9602683321986
 31
0.0
 11
162.4099200155835
 21
289.6383873661384
 31
0.0
 11
162.1989044680086
 21
289.2743294006958
 31
0.0
 11
162.0151473031604
 21
288.8959525836882
 31
0.0
 11
161.8480955574408
 21
288.4816096949317
 31
0.0
 11
161.7082698672757
 21
288.0574095440647
 31
0.0
 11
161.5898530304329
 21
287.6058083080316
 31
0.0
 11
161.4984325119604
 21
287.1480385502784
 31
0.0
 11
161.4317888193705
 21
286.67319747623
 31
0.0
 11
161.391930788984
 21
286.195389777494
 31
0.0
 11
161.3785798933598
 21
285.7117057915535
 31
0.0
 11
161.3919427418443
 21
285.2280217977182
 31
0.0
 11
161.4318245752136
 21
284.7501067590417
 31
0.0
 11
161.4985039829771
 21
284.2751610157328
 31
0.0
 11
161.5899472554764
 21
283.8173958046168
 31
0.0
 11
161.708386555152
 21
283.3658004593693
 31
0.0
 11
161.8482333477279
 21
282.9416072647265
 31
0.0
 11
162.0153056956375
 21
282.5272726863127
 31
0.0
 11
162.1990816896339
 21
282.1489050104919
 31
0.0
 11
162.4101153944574
 21
281.7848575421396
 31
0.0
 11
162.6323068079803
 21
281.4629876283642
 31
0.0
 11
162.8811529720578
 21
281.1609591806392
 31
0.0
 11
163.1355766279644
 21
280.9044866408123
 31
0.0
 11
163.4146263046796
 21
280.6745772229317
 31
0.0
 11
163.6947676022785
 21
280.4907442856562
 31
0.0
 11
163.9948743142275
 21
280.3409707396641
 31
0.0
 11
164.2938327462508
 21
280.2357764836668
 31
0.0
 11
164.6043495900535
 21
280.1712035013661
 31
0.0
 11
164.9140753408377
 21
280.1495358651699
 31
0.0
 11
165.2238000134097
 21
280.1712189082529
 31
0.0
 11
165.5343136447274
 21
280.2358073367392
 31
0.0
 11
165.8332668436263
 21
280.3410164639133
 31
0.0
 11
166.1333661049092
 21
280.4908049381467
 31
0.0
 11
166.4134982576251
 21
280.6746518104674
 31
0.0
 11
166.6925364974444
 21
280.9045751090347
 31
0.0
 11
166.9469473951413
 21
281.1610603045251
 31
0.0
 11
167.1957785348839
 21
281.4631011304129
 31
0.0
 11
167.4179539370883
 21
281.7849820964223
 31
0.0
 11
167.6289695326115
 21
282.1490400619242
 31
0.0
 11
167.812726705182
 21
282.5274168789604
 31
0.0
 11
167.9797784420923
 21
282.9417597676848
 31
0.0
 11
168.1196041321459
 21
283.3659599184267
 31
0.0
 11
168.2380209691491
 21
283.8175611545948
 31
0.0
 11
168.3294414792451
 21
284.2753309131111
 31
0.0
 11
168.3960912166145
 21
284.7502259799367
 31
0.0
 11
168.435949262305
 21
285.2280883402451
 31
0.0
 11
168.449294104256
 21
285.7117726622307
 31
0.0
 11
168.4359252021218
 21
286.195456319796
 31
0.0
 11
168.3960433857651
 21
286.6733166968251
 31
0.0
 11
168.3293700251244
 21
287.1482084476545
 31
0.0
 11
168.23792674425
 21
287.6059736580095
 31
0.0
 11
168.1194874447382
 21
288.0575690031365
 31
0.0
 11
167.9796406520474
 21
288.481762197891
 31
0.0
 11
167.8125682953096
 21
288.8960967762578
 31
0.0
 11
167.6287923090521
 21
289.2744644521193
 31
0.0
 11
167.4177586522762
 21
289.638511920833
 31
0.0
 11
167.1955671975501
 21
289.9603818342987
 31
0.0
 11
166.9467207830508
 21
290.2624102801256
 31
0.0
 11
166.6922973403202
 21
290.5188828215682
 31
0.0
 11
166.413248958858
 21
290.7487922492692
 31
0.0
 11
166.1331065385817
 21
290.9326251780329
 31
0.0
 11
165.8329930532919
 21
291.0823986726709
 31
0.0
 11
165.5340737964221
 21
291.187583784005
 31
0.0
 11
165.2236291352096
 21
291.2521566494513
 31
0.0
 11
165.0687704030146
 21
291.268413903148
 31
0.0
 11
164.9138678293217
 21
291.27383359812
 31
0.0
 11
164.7589309490192
 21
291.2684132845917
 31
0.0
 11
164.604037821559
 21
291.2521505123822
 31
0.0
  0
SPLINE
  5
13C
330
3F
100
AcDbEntity
  8
1
  6
Continuous
 62
     7
100
AcDbSpline
210
0.0
220
0.0
230
1.0
 70
    11
 71
     3
 72
    81
 73
    77
 74
    75
 42
0.0000000001
 43
0.0000000001
 44
0.00000001
 40
0.0
 40
0.0
 40
0.0
 40
0.0
 40
0.3171240087212541
 40
0.6340440088655305
 40
0.9694545229852278
 40
1.304528132246538
 40
1.666089109759893
 40
2.027350029319698
 40
2.418688401003679
 40
2.80980127975778
 40
3.230593108956637
 40
3.651230377017743
 40
4.097981219446815
 40
4.54463208043966
 40
5.011500609722214
 40
5.478309845182618
 40
5.957804816340254
 40
6.437272082749334
 40
6.921140292770735
 40
7.405008840634823
 40
7.884585054417409
 40
8.364188643339558
 40
8.830997876960163
 40
9.297866406159477
 40
9.744517267319537
 40
10.19126810649655
 40
10.61190537787814
 40
11.03269723115644
 40
11.42381008652817
 40
11.8151482990902
 40
12.17640936863703
 40
12.53797134465918
 40
12.87304401654962
 40
13.20844847930446
 40
13.52537429960417
 40
13.84253416517425
 40
14.15301689763641
 40
14.46349963009853
 40
14.78065949566864
 40
15.09758531596832
 40
15.43298977872295
 40
15.76806245061271
 40
16.12962442663555
 40
16.49088549618577
 40
16.88222370874444
 40
17.27333656409932
 40
17.69412841739428
 40
18.11476568885461
 40
18.56151652795978
 40
19.00816738879907
 40
19.47503591825289
 40
19.94184515282122
 40
20.42139443286107
 40
20.90091617293734
 40
21.38478455188069
 40
21.86865293082285
 40
22.3481746709038
 40
22.82772395098352
 40
23.29453318549844
 40
23.76140171453986
 40
24.20805257584199
 40
24.65480341827682
 40
25.07544068631416
 40
25.49623251580817
 40
25.88734539433265
 40
26.27868376466935
 40
26.63994468523088
 40
27.00150566783602
 40
27.3365792736842
 40
27.67198977403993
 40
27.98887560485915
 40
28.30596477627201
 40
28.46167452302798
 40
28.61667187923213
 40
28.77170354269678
 40
28.92744807291956
 40
28.92744807291956
 40
28.92744807291956
 40
28.92744807291956
 10
164.604037821559
 20
267.1712189502363
 30
0.0
 10
164.4998022362543
 20
267.1898002746995
 30
0.0
 10
164.2913981212851
 20
267.2269509701013
 30
0.0
 10
163.9863761608673
 20
267.3378121592974
 30
0.0
 10
163.6912255383372
 20
267.4848353633805
 30
0.0
 10
163.4035388066559
 20
267.6749148465364
 30
0.0
 10
163.131306435897
 20
267.9000504165737
 30
0.0
 10
162.869904489377
 20
268.1646409197288
 30
0.0
 10
162.6277240343829
 20
268.4597432009595
 30
0.0
 10
162.4001052574423
 20
268.7904912706523
 30
0.0
 10
162.1944222225232
 20
269.146622414808
 30
0.0
 10
162.0070505433778
 20
269.533355914007
 30
0.0
 10
161.8436070503971
 20
269.9400966568933
 30
0.0
 10
161.7018191373747
 20
270.3710857141911
 30
0.0
 10
161.585393299069
 20
270.8165204706783
 30
0.0
 10
161.4932242183563
 20
271.2787379873812
 30
0.0
 10
161.4273582202325
 20
271.7496713458637
 30
0.0
 10
161.3873749864186
 20
272.229197056881
 30
0.0
 10
161.3741592596987
 20
272.7116638404804
 30
0.0
 10
161.3873879133994
 20
273.1941666050901
 30
0.0
 10
161.4273919816857
 20
273.6737636206713
 30
0.0
 10
161.4932884622633
 20
274.1447661067519
 30
0.0
 10
161.5854875648592
 20
274.6070145638841
 30
0.0
 10
161.7019355715324
 20
275.0524435307269
 30
0.0
 10
161.8437449260485
 20
275.4834255238413
 30
0.0
 10
162.0072086368716
 20
275.890158168176
 30
0.0
 10
162.1945995689389
 20
276.276882257401
 30
0.0
 10
162.4003003227641
 20
276.6330034948645
 30
0.0
 10
162.6279356960707
 20
276.963738961236
 30
0.0
 10
162.8701299841353
 20
277.2588337605001
 30
0.0
 10
163.1315474737123
 20
277.5233962967072
 30
0.0
 10
163.4037842589951
 20
277.7485719750471
 30
0.0
 10
163.6915051556854
 20
277.9384465966741
 30
0.0
 10
163.9865647108526
 20
278.0861425186353
 30
0.0
 10
164.2919435561539
 20
278.1945734743716
 30
0.0
 10
164.6011772062041
 20
278.258748372206
 30
0.0
 10
164.9140755265365
 20
278.2812998182778
 30
0.0
 10
165.2269727246889
 20
278.2587328075049
 30
0.0
 10
165.5362031820577
 20
278.1945425273151
 30
0.0
 10
165.8415766332213
 20
278.0860963810309
 30
0.0
 10
166.1366288410773
 20
277.9383857818903
 30
0.0
 10
166.4243402923397
 20
277.7484968481876
 30
0.0
 10
166.6965658762085
 20
277.5233076280529
 30
0.0
 10
166.9579702051398
 20
277.2587320882966
 30
0.0
 10
167.2001498137863
 20
276.9636252417557
 30
0.0
 10
167.4277687347648
 20
276.6328784523359
 30
0.0
 10
167.6334517735211
 20
276.2767469829696
 30
0.0
 10
167.8208234686028
 20
275.8900135728213
 30
0.0
 10
167.9842669465747
 20
275.4832727978276
 30
0.0
 10
168.1260548614283
 20
275.0522837503474
 30
0.0
 10
168.2424807061776
 20
274.6068489918782
 30
0.0
 10
168.3346533008205
 20
274.1446137122752
 30
0.0
 10
168.4005228253085
 20
273.673644151229
 30
0.0
 10
168.4405045482008
 20
273.1940817932954
 30
0.0
 10
168.453714737914
 20
272.7115966904392
 30
0.0
 10
168.4404805476829
 20
272.2291122453011
 30
0.0
 10
168.4004749696196
 20
271.7495518767803
 30
0.0
 10
168.3345820170024
 20
271.2785855929701
 30
0.0
 10
168.2423864291426
 20
270.8163548991223
 30
0.0
 10
168.1259384291925
 20
270.3709259321449
 30
0.0
 10
167.9841290755483
 20
269.93994393679
 30
0.0
 10
167.8206653531732
 20
269.5332112971866
 30
0.0
 10
167.6332744245929
 20
269.1464872154255
 30
0.0
 10
167.4275737195158
 20
268.7903659553446
 30
0.0
 10
167.1999383353756
 20
268.4596304193253
 30
0.0
 10
166.9577437550065
 20
268.1645358521341
 30
0.0
 10
166.696326722752
 20
267.8999733531632
 30
0.0
 10
166.4240900484261
 20
267.674797591671
 30
0.0
 10
166.1363699439412
 20
267.4849190430807
 30
0.0
 10
165.8413084741152
 20
267.3372425119296
 30
0.0
 10
165.5359982553284
 20
267.2287841812033
 30
0.0
 10
165.2773712696073
 20
267.1752248819936
 30
0.0
 10
165.0691385094447
 20
267.153113224614
 30
0.0
 10
164.9138716191922
 20
267.1478550556968
 30
0.0
 10
164.7585016063698
 20
267.1526970856725
 30
0.0
 10
164.6556044259323
 20
267.1650355612731
 30
0.0
 10
164.604037821559
 20
267.1712189502363
 30
0.0
 11
164.604037821559
 21
267.1712189502363
 31
0.0
 11
164.2935608058171
 21
267.2358073362159
 31
0.0
 11
163.9946137744599
 21
267.3410164562301
 31
0.0
 11
163.6945077538304
 21
267.4908049383105
 31
0.0
 11
163.4143744807566
 21
267.6746518119319
 31
0.0
 11
163.1353375335141
 21
267.9045751089985
 31
0.0
 11
162.880926848553
 21
268.1610603042415
 31
0.0
 11
162.632095458906
 21
268.46310113042
 31
0.0
 11
162.4099200155835
 21
268.7849820964801
 31
0.0
 11
162.1989044680086
 21
269.1490400619227
 31
0.0
 11
162.0151473031604
 21
269.5274168789304
 31
0.0
 11
161.8480955574408
 21
269.9417597676869
 31
0.0
 11
161.7082698672757
 21
270.3659599185538
 31
0.0
 11
161.5898530304329
 21
270.8175611545869
 31
0.0
 11
161.4984325119604
 21
271.27533091234
 31
0.0
 11
161.4317888193705
 21
271.7501719863884
 31
0.0
 11
161.391930788984
 21
272.2279796851245
 31
0.0
 11
161.3785798933598
 21
272.7116636710651
 31
0.0
 11
161.3919427418443
 21
273.1953476649004
 31
0.0
 11
161.4318245752136
 21
273.6732627035769
 31
0.0
 11
161.4985039829771
 21
274.1482084468859
 31
0.0
 11
161.5899472554764
 21
274.6059736580019
 31
0.0
 11
161.708386555152
 21
275.0575690032492
 31
0.0
 11
161.8482333477279
 21
275.481762197892
 31
0.0
 11
162.0153056956375
 21
275.8960967763058
 31
0.0
 11
162.1990816896339
 21
276.2744644521266
 31
0.0
 11
162.4101153944574
 21
276.638511920479
 31
0.0
 11
162.6323068079803
 21
276.9603818342544
 31
0.0
 11
162.8811529720578
 21
277.2624102819793
 31
0.0
 11
163.1355766279644
 21
277.5188828218061
 31
0.0
 11
163.4146263046796
 21
277.7487922396867
 31
0.0
 11
163.6947676022785
 21
277.9326251769624
 31
0.0
 11
163.9948743142275
 21
278.0823987229545
 31
0.0
 11
164.2938327462508
 21
278.1875929789517
 31
0.0
 11
164.6043495900535
 21
278.2521659612524
 31
0.0
 11
164.9140753408377
 21
278.2738335974487
 31
0.0
 11
165.2238000134097
 21
278.2521505543656
 31
0.0
 11
165.5343136447274
 21
278.1875621258793
 31
0.0
 11
165.8332668436263
 21
278.0823529987052
 31
0.0
 11
166.1333661049092
 21
277.9325645244718
 31
0.0
 11
166.4134982576251
 21
277.7487176521511
 31
0.0
 11
166.6925364974444
 21
277.5187943535838
 31
0.0
 11
166.9469473951413
 21
277.2623091580936
 31
0.0
 11
167.1957785348839
 21
276.9602683322057
 31
0.0
 11
167.4179539370883
 21
276.6383873661963
 31
0.0
 11
167.6289695326115
 21
276.2743294006944
 31
0.0
 11
167.812726705182
 21
275.8959525836581
 31
0.0
 11
167.9797784420923
 21
275.4816096949338
 31
0.0
 11
168.1196041321459
 21
275.0574095441918
 31
0.0
 11
168.2380209691491
 21
274.6058083080238
 31
0.0
 11
168.3294414792451
 21
274.1480385495075
 31
0.0
 11
168.3960912166145
 21
273.6731434826818
 31
0.0
 11
168.435949262305
 21
273.1952811223734
 31
0.0
 11
168.449294104256
 21
272.711596800388
 31
0.0
 11
168.4359252021218
 21
272.2279131428226
 31
0.0
 11
168.3960433857651
 21
271.7500527657935
 31
0.0
 11
168.3293700251244
 21
271.2751610149641
 31
0.0
 11
168.23792674425
 21
270.8173958046091
 31
0.0
 11
168.1194874447382
 21
270.365800459482
 31
0.0
 11
167.9796406520474
 21
269.9416072647275
 31
0.0
 11
167.8125682953096
 21
269.5272726863608
 31
0.0
 11
167.6287923090521
 21
269.1489050104991
 31
0.0
 11
167.4177586522762
 21
268.7848575417856
 31
0.0
 11
167.1955671975501
 21
268.4629876283199
 31
0.0
 11
166.9467207830508
 21
268.160959182493
 31
0.0
 11
166.6922973403202
 21
267.9044866410503
 31
0.0
 11
166.413248958858
 21
267.6745772133494
 31
0.0
 11
166.1331065385817
 21
267.4907442845857
 31
0.0
 11
165.8329930532919
 21
267.3409707899476
 31
0.0
 11
165.5340737964221
 21
267.2357856786135
 31
0.0
 11
165.2236291352096
 21
267.1712128131672
 31
0.0
 11
165.0687704030146
 21
267.1549555594706
 31
0.0
 11
164.9138678293217
 21
267.1495358644986
 31
0.0
 11
164.7589309490192
 21
267.1549561780269
 31
0.0
 11
164.604037821559
 21
267.1712189502363
 31
0.0
  0
SPLINE
  5
13D
330
3F
100
AcDbEntity
  8
1
  6
Continuous
 62
     7
100
AcDbSpline
210
0.0
220
0.0
230
1.0
 70
    11
 71
     3
 72
    79
 73
    75
 74
    73
 42
0.0000000001
 43
0.0000000001
 44
0.00000001
 40
0.0
 40
0.0
 40
0.0
 40
0.0
 40
0.3219185127027396
 40
0.6433806287007604
 40
0.9928720831969673
 40
1.341790494366538
 40
1.729741142666893
 40
2.117251647493647
 40
2.547892734716714
 40
2.978246270040524
 40
3.450239467705697
 40
3.922053483290987
 40
4.429922597744299
 40
4.937683205672793
 40
5.473055746695205
 40
6.008366582406971
 40
6.560960706414535
 40
7.113526834595669
 40
7.671970945603346
 40
8.230415056611081
 40
8.782981184792188
 40
9.335575308799717
 40
9.870886144511445
 40
10.40625868553389
 40
10.91401929346245
 40
11.42188840791575
 40
11.89370242350101
 40
12.36569562116615
 40
12.79604915648991
 40
13.22669024371301
 40
13.61420074853981
 40
14.00215139684011
 40
14.3510698080097
 40
14.7005612625059
 40
15.02202337850392
 40
15.3439418912067
 40
15.6555199249612
 40
15.9670979587157
 40
16.28901647141852
 40
16.61047858741657
 40
16.9599700419128
 40
17.3088884530824
 40
17.69683910138269
 40
18.08434960620945
 40
18.51499069343257
 40
18.94534422875634
 40
19.41733742642149
 40
19.88915144200677
 40
20.39702055646008
 40
20.90478116438865
 40
21.44015370541106
 40
21.97546454112277
 40
22.52805866513032
 40
23.0806247933114
 40
23.6390689043191
 40
24.19751301532681
 40
24.75007914350795
 40
25.30267326751545
 40
25.8379841032272
 40
26.37335664424962
 40
26.88111725217819
 40
27.3889863666315
 40
27.86080038221676
 40
28.33279357988197
 40
28.76314711520574
 40
29.19378820242885
 40
29.58129870725558
 40
29.9692493555559
 40
30.3181677667255
 40
30.66765922122168
 40
30.98912133721974
 40
31.31103984992251
 40
31.62261788367706
 40
31.93419591743152
 40
31.93419591743152
 40
31.93419591743152
 40
31.93419591743152
 10
165.2244843970224
 20
172.8144922768088
 30
0.0
 10
165.3298031890127
 20
172.8362159139356
 30
0.0
 10
165.5402914583445
 20
172.879632389723
 30
0.0
 10
165.8467844415433
 20
173.0092235968592
 30
0.0
 10
166.1417041993855
 20
173.1797359075355
 30
0.0
 10
166.4299032220731
 20
173.4005111419573
 30
0.0
 10
166.70085831851
 20
173.6604645570549
 30
0.0
 10
166.9622289540311
 20
173.9666914345315
 30
0.0
 10
167.2030769167807
 20
174.3067367578234
 30
0.0
 10
167.4304988525601
 20
174.6889211808039
 30
0.0
 10
167.6351771881874
 20
175.0991470132573
 30
0.0
 10
167.8223451742349
 20
175.5457107430176
 30
0.0
 10
167.9851381583156
 20
176.0143680105356
 30
0.0
 10
168.1267649374281
 20
176.5118579884098
 30
0.0
 10
168.2428168971775
 20
177.025312128694
 30
0.0
 10
168.3348875764934
 20
177.5587432507688
 30
0.0
 10
168.4005786623353
 20
178.1018356568752
 30
0.0
 10
168.4405316009764
 20
178.6551425973841
 30
0.0
 10
168.4536985396966
 20
179.2116847313059
 30
0.0
 10
168.4405316009784
 20
179.7682268652483
 30
0.0
 10
168.4005786623273
 20
180.3215338056952
 30
0.0
 10
168.3348875765223
 20
180.8646262120264
 30
0.0
 10
168.2428168970732
 20
181.3980573332881
 30
0.0
 10
168.1267649378094
 20
181.9115114765351
 30
0.0
 10
167.9851381569733
 20
182.4090014438965
 30
0.0
 10
167.8223451791039
 20
182.8776587492965
 30
0.0
 10
167.6351771714415
 20
183.3242223472295
 30
0.0
 10
167.4304989129015
 20
183.7344486498316
 30
0.0
 10
167.2030767134934
 20
184.1166314649638
 30
0.0
 10
166.9622296834071
 20
184.4566824764876
 30
0.0
 10
166.7008558964818
 20
184.762890133825
 30
0.0
 10
166.4299119187298
 20
185.0229113608104
 30
0.0
 10
166.1416753303028
 20
185.2434574850682
 30
0.0
 10
165.8468890944305
 20
185.4147841345777
 30
0.0
 10
165.5399353108506
 20
185.5415649604368
 30
0.0
 10
165.2291842718174
 20
185.616210963917
 30
0.0
 10
164.9139369998271
 20
185.6430459429971
 30
0.0
 10
164.5986897278368
 20
185.616210963917
 30
0.0
 10
164.2879386888035
 20
185.5415649604368
 30
0.0
 10
163.9809849052236
 20
185.4147841345777
 30
0.0
 10
163.6861986693513
 20
185.2434574850682
 30
0.0
 10
163.3979620809243
 20
185.0229113608104
 30
0.0
 10
163.1270181031723
 20
184.762890133825
 30
0.0
 10
162.8656443162469
 20
184.4566824764875
 30
0.0
 10
162.6247972861607
 20
184.1166314649638
 30
0.0
 10
162.3973750867525
 20
183.7344486498315
 30
0.0
 10
162.1926968282126
 20
183.3242223472296
 30
0.0
 10
162.0055288205502
 20
182.8776587492964
 30
0.0
 10
161.8427358426808
 20
182.4090014438965
 30
0.0
 10
161.7011090618445
 20
181.9115114765351
 30
0.0
 10
161.5850571025809
 20
181.3980573332881
 30
0.0
 10
161.4929864231318
 20
180.8646262120264
 30
0.0
 10
161.4272953373267
 20
180.3215338056953
 30
0.0
 10
161.3873423986756
 20
179.7682268652476
 30
0.0
 10
161.374175459958
 20
179.2116847313089
 30
0.0
 10
161.3873423986755
 20
178.6551425973722
 30
0.0
 10
161.4272953373273
 20
178.1018356569198
 30
0.0
 10
161.4929864231297
 20
177.5587432506047
 30
0.0
 10
161.5850571025882
 20
177.0253121292856
 30
0.0
 10
161.7011090618176
 20
176.5118579862477
 30
0.0
 10
161.8427358427756
 20
176.014368018144
 30
0.0
 10
162.0055288202064
 20
175.5457107154192
 30
0.0
 10
162.1926968293952
 20
175.0991471081766
 30
0.0
 10
162.3973750824914
 20
174.688920838776
 30
0.0
 10
162.6247973005168
 20
174.3067379100992
 30
0.0
 10
162.8656442647392
 20
173.9666873002724
 30
0.0
 10
163.1270182742133
 20
173.6604782856285
 30
0.0
 10
163.3979614667755
 20
173.4004618474485
 30
0.0
 10
163.6862007080561
 20
173.1798995436687
 30
0.0
 10
163.9809775147453
 20
173.0086304019225
 30
0.0
 10
164.28796383957
 20
172.8816511098542
 30
0.0
 10
164.5985967307206
 20
172.8077256799901
 30
0.0
 10
164.9142717328529
 20
172.7782820121335
 30
0.0
 10
165.1210801756326
 20
172.8024221885837
 30
0.0
 10
165.2244843970224
 20
172.8144922768088
 30
0.0
 11
165.2244843970224
 21
172.8144922768088
 31
0.0
 11
165.5374663162906
 21
172.8898172197691
 31
0.0
 11
165.8351255687242
 21
173.0112126952307
 31
0.0
 11
166.1376927264763
 21
173.1861337969186
 31
0.0
 11
166.4155325123082
 21
173.3972004002977
 31
0.0
 11
166.6962529594201
 21
173.6649721988314
 31
0.0
 11
166.948514388704
 21
173.9591295761768
 31
0.0
 11
167.1983294795561
 21
174.3099060953271
 31
0.0
 11
167.4189484568044
 21
174.679407695112
 31
0.0
 11
167.6304793734475
 21
175.1013463754275
 31
0.0
 11
167.8132684578412
 21
175.5363137488352
 31
0.0
 11
167.9805452689128
 21
176.0158442545315
 31
0.0
 11
168.1198466159611
 21
176.5041228324708
 31
0.0
 11
168.2383229712191
 21
177.0262215883835
 31
0.0
 11
168.329515046058
 21
177.5537077932429
 31
0.0
 11
168.3961511410165
 21
178.1022694549878
 31
0.0
 11
168.4359578650442
 21
178.6533998848638
 31
0.0
 11
168.4492941069627
 21
179.2116847313093
 31
0.0
 11
168.4359578650442
 21
179.7699695777548
 31
0.0
 11
168.3961511410164
 21
180.3211000076308
 31
0.0
 11
168.329515046058
 21
180.8696616693757
 31
0.0
 11
168.2383229712191
 21
181.3971478742351
 31
0.0
 11
168.1198466159611
 21
181.9192466301478
 31
0.0
 11
167.9805452689128
 21
182.4075252080872
 31
0.0
 11
167.8132684578412
 21
182.8870557137834
 31
0.0
 11
167.6304793734475
 21
183.3220230871911
 31
0.0
 11
167.4189484568044
 21
183.7439617675065
 31
0.0
 11
167.1983294795561
 21
184.1134633672914
 31
0.0
 11
166.948514388704
 21
184.4642398864417
 31
0.0
 11
166.6962529594201
 21
184.7583972637872
 31
0.0
 11
166.4155325123082
 21
185.0261690623208
 31
0.0
 11
166.1376927264764
 21
185.2372356657
 31
0.0
 11
165.8351255687243
 21
185.4121567673878
 31
0.0
 11
165.5374663162906
 21
185.5335522428495
 31
0.0
 11
165.2244843970224
 21
185.6088771858098
 31
0.0
 11
164.9139369998271
 21
185.6341988210951
 31
0.0
 11
164.6033896026318
 21
185.6088771858098
 31
0.0
 11
164.2904076833635
 21
185.5335522428495
 31
0.0
 11
163.9927484309298
 21
185.4121567673878
 31
0.0
 11
163.6901812731777
 21
185.2372356657
 31
0.0
 11
163.4123414873458
 21
185.0261690623208
 31
0.0
 11
163.1316210402339
 21
184.7583972637872
 31
0.0
 11
162.8793596109501
 21
184.4642398864417
 31
0.0
 11
162.629544520098
 21
184.1134633672914
 31
0.0
 11
162.4089255428497
 21
183.7439617675065
 31
0.0
 11
162.1973946262066
 21
183.3220230871911
 31
0.0
 11
162.0146055418129
 21
182.8870557137834
 31
0.0
 11
161.8473287307413
 21
182.4075252080871
 31
0.0
 11
161.708027383693
 21
181.9192466301477
 31
0.0
 11
161.5895510284349
 21
181.397147874235
 31
0.0
 11
161.4983589535961
 21
180.8696616693757
 31
0.0
 11
161.4317228586376
 21
180.3211000076307
 31
0.0
 11
161.3919161346099
 21
179.7699695777548
 31
0.0
 11
161.3785798926914
 21
179.2116847313093
 31
0.0
 11
161.3919161346099
 21
178.6533998848638
 31
0.0
 11
161.4317228586377
 21
178.1022694549878
 31
0.0
 11
161.4983589535961
 21
177.553707793243
 31
0.0
 11
161.5895510284349
 21
177.0262215883835
 31
0.0
 11
161.708027383693
 21
176.5041228324708
 31
0.0
 11
161.8473287307413
 21
176.0158442545315
 31
0.0
 11
162.0146055418129
 21
175.5363137488352
 31
0.0
 11
162.1973946262067
 21
175.1013463754275
 31
0.0
 11
162.4089255428497
 21
174.679407695112
 31
0.0
 11
162.6295445200981
 21
174.3099060953272
 31
0.0
 11
162.8793596109501
 21
173.9591295761768
 31
0.0
 11
163.1316210402339
 21
173.6649721988313
 31
0.0
 11
163.4123414873459
 21
173.3972004002978
 31
0.0
 11
163.6901812731778
 21
173.1861337969186
 31
0.0
 11
163.9927484309299
 21
173.0112126952308
 31
0.0
 11
164.2904076833636
 21
172.8898172197691
 31
0.0
 11
164.6033896026317
 21
172.8144922768088
 31
0.0
 11
164.9139369998271
 21
172.7891706415235
 31
0.0
 11
165.2244843970224
 21
172.8144922768088
 31
0.0
  0
SPLINE
  5
13E
330
3F
100
AcDbEntity
  8
1
  6
Continuous
 62
     7
100
AcDbSpline
210
0.0
220
0.0
230
1.0
 70
    11
 71
     3
 72
    79
 73
    75
 74
    73
 42
0.0000000001
 43
0.0000000001
 44
0.00000001
 40
0.0
 40
0.0
 40
0.0
 40
0.0
 40
0.2813091385367347
 40
0.5626019606352422
 40
0.8464226525143823
 40
1.130214060738669
 40
1.417835711262154
 40
1.70542054240193
 40
1.99763597822688
 40
2.289812854371202
 40
2.586839035183159
 40
2.883829792124849
 40
3.185307045384529
 40
3.486755461402785
 40
3.791812980111103
 40
4.096850365689775
 40
4.404220799428733
 40
4.711580931801329
 40
5.019747232346051
 40
5.327913532890801
 40
5.635273665263397
 40
5.942644099002383
 40
6.247681484581055
 40
6.55273900328941
 40
6.85418741930759
 40
7.155664672567281
 40
7.452655429509034
 40
7.749681610321023
 40
8.041858486465426
 40
8.334073922290365
 40
8.621658753430065
 40
8.909280403953556
 40
9.193071812177847
 40
9.476892504056981
 40
9.75818532615544
 40
10.03949446469222
 40
10.31992040211362
 40
10.60034633953502
 40
10.8816554780718
 40
11.16294830017024
 40
11.44676899204942
 40
11.73056040027376
 40
12.01818205079726
 40
12.30576688193702
 40
12.59798231776193
 40
12.89015919390619
 40
13.18718537471812
 40
13.48417613165989
 40
13.78565338491963
 40
14.08710180093782
 40
14.39215931964614
 40
14.69719670522476
 40
15.00456713896375
 40
15.31192727133635
 40
15.62009357188115
 40
15.92825987242587
 40
16.23562000479847
 40
16.54299043853746
 40
16.84802782411614
 40
17.15308534282442
 40
17.45453375884261
 40
17.75601101210236
 40
18.05300176904405
 40
18.35002794985601
 40
18.64220482600027
 40
18.93442026182523
 40
19.22200509296494
 40
19.50962674348846
 40
19.7934181517128
 40
20.07723884359202
 40
20.35853166569052
 40
20.63984080422725
 40
20.9202667416486
 40
21.20069267906998
 40
21.20069267906998
 40
21.20069267906998
 40
21.20069267906998
 10
161.3921018777194
 20
167.6733569453152
 30
0.0
 10
161.4036732812063
 20
167.5802299942943
 30
0.0
 10
161.4268154170179
 20
167.3939814937838
 30
0.0
 10
161.4955775573854
 20
167.1196799086778
 30
0.0
 10
161.5881456842197
 20
166.8519359801008
 30
0.0
 10
161.7069980200504
 20
166.5923233440953
 30
0.0
 10
161.849659935684
 20
166.3436062471768
 30
0.0
 10
162.0162028366177
 20
166.1067623318008
 30
0.0
 10
162.2041605559409
 20
165.8845469124846
 30
0.0
 10
162.413322767748
 20
165.6776838604815
 30
0.0
 10
162.6407753442309
 20
165.4886251256103
 30
0.0
 10
162.886120928584
 20
165.317985180949
 30
0.0
 10
163.1461494869238
 20
165.1677214520831
 30
0.0
 10
163.4201722329803
 20
165.0384140999562
 30
0.0
 10
163.7049199183634
 20
164.9314232980084
 30
0.0
 10
163.9992827679124
 20
164.8472909588325
 30
0.0
 10
164.300173247881
 20
164.7867719746275
 30
0.0
 10
164.6059595698387
 20
164.7502908366328
 30
0.0
 10
164.913936999826
 20
164.7380720550997
 30
0.0
 10
165.2219144298192
 20
164.7502908366324
 30
0.0
 10
165.5277007517595
 20
164.7867719746289
 30
0.0
 10
165.8285912317916
 20
164.8472909588276
 30
0.0
 10
166.1229540811063
 20
164.9314232980262
 30
0.0
 10
166.4077017673589
 20
165.0384140998902
 30
0.0
 10
166.6817245102072
 20
165.1677214523267
 30
0.0
 10
166.9417530804318
 20
165.3179851800453
 30
0.0
 10
167.1870986210607
 20
165.4886251289272
 30
0.0
 10
167.4145513593451
 20
165.67768384818
 30
0.0
 10
167.6237129766996
 20
165.8845469575654
 30
0.0
 10
167.8116728954915
 20
166.1067621645678
 30
0.0
 10
167.9782077117501
 20
166.3436068603535
 30
0.0
 10
168.1208995689706
 20
166.5923210670254
 30
0.0
 10
168.2396415761328
 20
166.8519443530028
 30
0.0
 10
168.3326191212662
 20
167.119648760634
 30
0.0
 10
168.3998661990736
 20
167.3940965939784
 30
0.0
 10
168.4401815451681
 20
167.6726354166372
 30
0.0
 10
168.4538432241407
 20
167.9534566816585
 30
0.0
 10
168.4401815451681
 20
168.2342779466799
 30
0.0
 10
168.3998661990736
 20
168.5128167693386
 30
0.0
 10
168.3326191212661
 20
168.7872646026829
 30
0.0
 10
168.2396415761328
 20
169.0549690103143
 30
0.0
 10
168.1208995689706
 20
169.3145922962917
 30
0.0
 10
167.97820771175
 20
169.5633065029637
 30
0.0
 10
167.8116728954915
 20
169.8001511987493
 30
0.0
 10
167.6237129766996
 20
170.0223664057517
 30
0.0
 10
167.414551359345
 20
170.2292295151369
 30
0.0
 10
167.1870986210608
 20
170.4182882343897
 30
0.0
 10
166.9417530804318
 20
170.5889281832716
 30
0.0
 10
166.6817245102073
 20
170.7391919109904
 30
0.0
 10
166.4077017673588
 20
170.8684992634268
 30
0.0
 10
166.1229540811063
 20
170.9754900652908
 30
0.0
 10
165.8285912317916
 20
171.0596224044893
 30
0.0
 10
165.5277007517596
 20
171.1201413886881
 30
0.0
 10
165.221914429819
 20
171.1566225266845
 30
0.0
 10
164.9139369998269
 20
171.1688413082171
 30
0.0
 10
164.6059595698353
 20
171.1566225266845
 30
0.0
 10
164.3001732478935
 20
171.1201413886881
 30
0.0
 10
163.999282767866
 20
171.0596224044896
 30
0.0
 10
163.7049199185346
 20
170.9754900652895
 30
0.0
 10
163.4201722323443
 20
170.8684992634316
 30
0.0
 10
163.146149489266
 20
170.7391919109729
 30
0.0
 10
162.8861209198933
 20
170.5889281833363
 30
0.0
 10
162.6407753761302
 20
170.4182882341519
 30
0.0
 10
162.4133226494443
 20
170.2292295160189
 30
0.0
 10
162.2041609894775
 20
170.0223664025203
 30
0.0
 10
162.01620122835
 20
169.8001512107371
 30
0.0
 10
161.8496658325582
 20
169.5633064590093
 30
0.0
 10
161.706976121639
 20
169.3145924595188
 30
0.0
 10
161.5882262057916
 20
169.05496841012
 30
0.0
 10
161.4952780089726
 20
168.7872668354668
 30
0.0
 10
161.4279223270012
 20
168.5128085186162
 30
0.0
 10
161.3880111392018
 20
168.2343087091575
 30
0.0
 10
161.3728455609632
 20
167.9533422734851
 30
0.0
 10
161.3856831054673
 20
167.7666853880385
 30
0.0
 10
161.3921018777194
 20
167.6733569453152
 30
0.0
 11
161.3921018777194
 21
167.6733569453152
 31
0.0
 11
161.4324571218593
 21
167.3949574379617
 31
0.0
 11
161.4992654644182
 21
167.1217134130889
 31
0.0
 11
161.5923959656073
 21
166.8536072869242
 31
0.0
 11
161.7102865789839
 21
166.5954612688267
 31
0.0
 11
161.8533935924407
 21
166.3459685904786
 31
0.0
 11
162.0186738830343
 21
166.1106231833788
 31
0.0
 11
162.2073466755372
 21
165.8874809903638
 31
0.0
 11
162.4149770888397
 21
165.6819160652786
 31
0.0
 11
162.6433561715695
 21
165.4920014880097
 31
0.0
 11
162.8870979783815
 21
165.322315185319
 31
0.0
 11
163.1480941950304
 21
165.1714194957584
 31
0.0
 11
163.4206692549087
 21
165.0426795087605
 31
0.0
 11
163.7062172234855
 21
164.9353368454705
 31
0.0
 11
163.999490492284
 21
164.8514405022315
 31
0.0
 11
164.3008214554639
 21
164.790808545592
 31
0.0
 11
164.6060127140443
 21
164.7543593116055
 31
0.0
 11
164.913936999827
 21
164.7421485369922
 31
0.0
 11
165.2218612856097
 21
164.7543593116055
 31
0.0
 11
165.5270525441901
 21
164.790808545592
 31
0.0
 11
165.8283835073701
 21
164.8514405022315
 31
0.0
 11
166.1216567761686
 21
164.9353368454705
 31
0.0
 11
166.4072047447454
 21
165.0426795087605
 31
0.0
 11
166.6797798046237
 21
165.1714194957584
 31
0.0
 11
166.9407760212726
 21
165.3223151853189
 31
0.0
 11
167.1845178280846
 21
165.4920014880097
 31
0.0
 11
167.4128969108144
 21
165.6819160652786
 31
0.0
 11
167.6205273241169
 21
165.8874809903639
 31
0.0
 11
167.8092001166199
 21
166.1106231833788
 31
0.0
 11
167.9744804072135
 21
166.3459685904786
 31
0.0
 11
168.1175874206703
 21
166.5954612688267
 31
0.0
 11
168.2354780340467
 21
166.8536072869243
 31
0.0
 11
168.328608535236
 21
167.1217134130889
 31
0.0
 11
168.395416877795
 21
167.3949574379616
 31
0.0
 11
168.4357721219348
 21
167.6733569453152
 31
0.0
 11
168.4492941069627
 21
167.9534566816585
 31
0.0
 11
168.4357721219349
 21
168.2335564180018
 31
0.0
 11
168.395416877795
 21
168.5119559253554
 31
0.0
 11
168.328608535236
 21
168.7851999502281
 31
0.0
 11
168.2354780340468
 21
169.0533060763927
 31
0.0
 11
168.1175874206702
 21
169.3114520944903
 31
0.0
 11
167.9744804072135
 21
169.5609447728386
 31
0.0
 11
167.8092001166198
 21
169.7962901799383
 31
0.0
 11
167.6205273241168
 21
170.0194323729531
 31
0.0
 11
167.4128969108144
 21
170.2249972980383
 31
0.0
 11
167.1845178280846
 21
170.4149118753072
 31
0.0
 11
166.9407760212726
 21
170.584598177998
 31
0.0
 11
166.6797798046237
 21
170.7354938675586
 31
0.0
 11
166.4072047447453
 21
170.8642338545565
 31
0.0
 11
166.1216567761686
 21
170.9715765178464
 31
0.0
 11
165.8283835073701
 21
171.0554728610855
 31
0.0
 11
165.5270525441902
 21
171.1161048177249
 31
0.0
 11
165.2218612856098
 21
171.1525540517115
 31
0.0
 11
164.913936999827
 21
171.1647648263248
 31
0.0
 11
164.6060127140443
 21
171.1525540517115
 31
0.0
 11
164.3008214554639
 21
171.1161048177249
 31
0.0
 11
163.999490492284
 21
171.0554728610855
 31
0.0
 11
163.7062172234854
 21
170.9715765178464
 31
0.0
 11
163.4206692549087
 21
170.8642338545565
 31
0.0
 11
163.1480941950304
 21
170.7354938675586
 31
0.0
 11
162.8870979783815
 21
170.584598177998
 31
0.0
 11
162.6433561715695
 21
170.4149118753072
 31
0.0
 11
162.4149770888397
 21
170.2249972980384
 31
0.0
 11
162.2073466755372
 21
170.0194323729532
 31
0.0
 11
162.0186738830342
 21
169.7962901799383
 31
0.0
 11
161.8533935924407
 21
169.5609447728385
 31
0.0
 11
161.7102865789839
 21
169.3114520944903
 31
0.0
 11
161.5923959656073
 21
169.0533060763927
 31
0.0
 11
161.4992654644182
 21
168.785199950228
 31
0.0
 11
161.4324571218592
 21
168.5119559253552
 31
0.0
 11
161.3921018777193
 21
168.2335564180017
 31
0.0
 11
161.3785798926914
 21
167.9534566816585
 31
0.0
 11
161.3921018777194
 21
167.6733569453152
 31
0.0
  0
SPLINE
  5
13F
330
3F
100
AcDbEntity
  8
1
  6
Continuous
 62
     7
100
AcDbSpline
210
0.0
220
0.0
230
1.0
 70
    11
 71
     3
 72
    79
 73
    75
 74
    73
 42
0.0000000001
 43
0.0000000001
 44
0.00000001
 40
0.0
 40
0.0
 40
0.0
 40
0.0
 40
0.2813091385367347
 40
0.5626019606352422
 40
0.8464226525143823
 40
1.130214060738644
 40
1.417835711262128
 40
1.705420542401904
 40
1.997635978226876
 40
2.289812854371178
 40
2.586839035183153
 40
2.883829792124843
 40
3.185307045384552
 40
3.486755461402796
 40
3.791812980111123
 40
4.096850365689788
 40
4.404220799428745
 40
4.711580931801334
 40
5.019747232346054
 40
5.327913532890802
 40
5.635273665263395
 40
5.942644099002375
 40
6.247681484581047
 40
6.552739003289392
 40
6.854187419307585
 40
7.155664672567318
 40
7.452655429509055
 40
7.749681610321044
 40
8.041858486465387
 40
8.334073922290326
 40
8.621658753430026
 40
8.909280403953517
 40
9.193071812177834
 40
9.476892504056968
 40
9.758185326155399
 40
10.03949446469218
 40
10.31992040211358
 40
10.60034633953504
 40
10.88165547807179
 40
11.16294830017023
 40
11.44676899204938
 40
11.73056040027375
 40
12.01818205079722
 40
12.30576688193698
 40
12.59798231776194
 40
12.8901591939062
 40
13.18718537471819
 40
13.48417613165991
 40
13.78565338491963
 40
14.08710180093783
 40
14.39215931964615
 40
14.69719670522477
 40
15.00456713896376
 40
15.31192727133636
 40
15.62009357188116
 40
15.92825987242589
 40
16.23562000479848
 40
16.54299043853747
 40
16.84802782411615
 40
17.15308534282444
 40
17.45453375884266
 40
17.75601101210238
 40
18.0530017690441
 40
18.35002794985606
 40
18.6422048260003
 40
18.93442026182524
 40
19.22200509296495
 40
19.50962674348842
 40
19.79341815171274
 40
20.07723884359197
 40
20.3585316656905
 40
20.63984080422723
 40
20.92026674164859
 40
21.20069267907
 40
21.20069267907
 40
21.20069267907
 40
21.20069267907
 10
161.3921018777194
 20
190.7500125173031
 30
0.0
 10
161.4036732812063
 20
190.843139468324
 30
0.0
 10
161.4268154170179
 20
191.0293879688344
 30
0.0
 10
161.4955775573854
 20
191.3036895539405
 30
0.0
 10
161.5881456842197
 20
191.5714334825175
 30
0.0
 10
161.7069980200504
 20
191.831046118523
 30
0.0
 10
161.849659935684
 20
192.0797632154415
 30
0.0
 10
162.0162028366177
 20
192.3166071308174
 30
0.0
 10
162.2041605559408
 20
192.5388225501337
 30
0.0
 10
162.413322767748
 20
192.7456856021368
 30
0.0
 10
162.6407753442308
 20
192.934744337008
 30
0.0
 10
162.886120928584
 20
193.1053842816693
 30
0.0
 10
163.1461494869238
 20
193.2556480105352
 30
0.0
 10
163.4201722329802
 20
193.384955362662
 30
0.0
 10
163.7049199183634
 20
193.4919461646099
 30
0.0
 10
163.9992827679124
 20
193.5760785037859
 30
0.0
 10
164.300173247881
 20
193.6365974879908
 30
0.0
 10
164.6059595698387
 20
193.6730786259855
 30
0.0
 10
164.913936999826
 20
193.6852974075185
 30
0.0
 10
165.2219144298192
 20
193.6730786259858
 30
0.0
 10
165.5277007517595
 20
193.6365974879894
 30
0.0
 10
165.8285912317916
 20
193.5760785037907
 30
0.0
 10
166.1229540811062
 20
193.4919461645921
 30
0.0
 10
166.4077017673589
 20
193.3849553627282
 30
0.0
 10
166.6817245102072
 20
193.2556480102917
 30
0.0
 10
166.9417530804318
 20
193.1053842825729
 30
0.0
 10
167.1870986210608
 20
192.934744333691
 30
0.0
 10
167.414551359345
 20
192.7456856144383
 30
0.0
 10
167.6237129766997
 20
192.538822505053
 30
0.0
 10
167.8116728954915
 20
192.3166072980504
 30
0.0
 10
167.9782077117501
 20
192.079762602265
 30
0.0
 10
168.1208995689706
 20
191.8310483955929
 30
0.0
 10
168.2396415761328
 20
191.5714251096156
 30
0.0
 10
168.3326191212662
 20
191.3037207019843
 30
0.0
 10
168.3998661990736
 20
191.0292728686399
 30
0.0
 10
168.440181545168
 20
190.7507340459812
 30
0.0
 10
168.4538432241407
 20
190.4699127809598
 30
0.0
 10
168.4401815451681
 20
190.1890915159385
 30
0.0
 10
168.3998661990736
 20
189.9105526932796
 30
0.0
 10
168.3326191212662
 20
189.6361048599353
 30
0.0
 10
168.2396415761328
 20
189.3684004523039
 30
0.0
 10
168.1208995689707
 20
189.1087771663267
 30
0.0
 10
167.9782077117501
 20
188.8600629596546
 30
0.0
 10
167.8116728954914
 20
188.623218263869
 30
0.0
 10
167.6237129766996
 20
188.4010030568666
 30
0.0
 10
167.414551359345
 20
188.1941399474813
 30
0.0
 10
167.1870986210607
 20
188.0050812282285
 30
0.0
 10
166.9417530804319
 20
187.8344412793467
 30
0.0
 10
166.6817245102072
 20
187.6841775516279
 30
0.0
 10
166.4077017673588
 20
187.5548701991914
 30
0.0
 10
166.1229540811063
 20
187.4478793973275
 30
0.0
 10
165.8285912317916
 20
187.363747058129
 30
0.0
 10
165.5277007517597
 20
187.3032280739301
 30
0.0
 10
165.221914429819
 20
187.2667469359337
 30
0.0
 10
164.9139369998269
 20
187.254528154401
 30
0.0
 10
164.6059595698353
 20
187.2667469359338
 30
0.0
 10
164.3001732478935
 20
187.3032280739302
 30
0.0
 10
163.999282767866
 20
187.3637470581286
 30
0.0
 10
163.7049199185346
 20
187.4478793973288
 30
0.0
 10
163.4201722323443
 20
187.5548701991867
 30
0.0
 10
163.146149489266
 20
187.6841775516454
 30
0.0
 10
162.8861209198934
 20
187.8344412792819
 30
0.0
 10
162.6407753761302
 20
188.0050812284664
 30
0.0
 10
162.4133226494443
 20
188.1941399465995
 30
0.0
 10
162.2041609894775
 20
188.401003060098
 30
0.0
 10
162.01620122835
 20
188.6232182518812
 30
0.0
 10
161.8496658325582
 20
188.860063003609
 30
0.0
 10
161.706976121639
 20
189.1087770030994
 30
0.0
 10
161.5882262057917
 20
189.3684010524983
 30
0.0
 10
161.4952780089726
 20
189.6361026271514
 30
0.0
 10
161.4279223270012
 20
189.910560944002
 30
0.0
 10
161.3880111392018
 20
190.1890607534608
 30
0.0
 10
161.3728455609632
 20
190.4700271891332
 30
0.0
 10
161.3856831054673
 20
190.6566840745797
 30
0.0
 10
161.3921018777194
 20
190.7500125173031
 30
0.0
 11
161.3921018777194
 21
190.7500125173031
 31
0.0
 11
161.4324571218593
 21
191.0284120246566
 31
0.0
 11
161.4992654644182
 21
191.3016560495294
 31
0.0
 11
161.5923959656073
 21
191.569762175694
 31
0.0
 11
161.7102865789839
 21
191.8279081937915
 31
0.0
 11
161.8533935924407
 21
192.0774008721397
 31
0.0
 11
162.0186738830343
 21
192.3127462792395
 31
0.0
 11
162.2073466755372
 21
192.5358884722545
 31
0.0
 11
162.4149770888397
 21
192.7414533973397
 31
0.0
 11
162.6433561715695
 21
192.9313679746086
 31
0.0
 11
162.8870979783815
 21
193.1010542772993
 31
0.0
 11
163.1480941950304
 21
193.2519499668599
 31
0.0
 11
163.4206692549087
 21
193.3806899538578
 31
0.0
 11
163.7062172234855
 21
193.4880326171478
 31
0.0
 11
163.999490492284
 21
193.5719289603868
 31
0.0
 11
164.3008214554639
 21
193.6325609170263
 31
0.0
 11
164.6060127140443
 21
193.6690101510128
 31
0.0
 11
164.913936999827
 21
193.6812209256261
 31
0.0
 11
165.2218612856097
 21
193.6690101510128
 31
0.0
 11
165.5270525441901
 21
193.6325609170262
 31
0.0
 11
165.8283835073701
 21
193.5719289603868
 31
0.0
 11
166.1216567761686
 21
193.4880326171478
 31
0.0
 11
166.4072047447454
 21
193.3806899538578
 31
0.0
 11
166.6797798046237
 21
193.2519499668599
 31
0.0
 11
166.9407760212726
 21
193.1010542772993
 31
0.0
 11
167.1845178280846
 21
192.9313679746086
 31
0.0
 11
167.4128969108144
 21
192.7414533973396
 31
0.0
 11
167.6205273241169
 21
192.5358884722544
 31
0.0
 11
167.8092001166199
 21
192.3127462792395
 31
0.0
 11
167.9744804072135
 21
192.0774008721398
 31
0.0
 11
168.1175874206703
 21
191.8279081937916
 31
0.0
 11
168.2354780340467
 21
191.569762175694
 31
0.0
 11
168.328608535236
 21
191.3016560495294
 31
0.0
 11
168.395416877795
 21
191.0284120246567
 31
0.0
 11
168.4357721219348
 21
190.7500125173031
 31
0.0
 11
168.4492941069627
 21
190.4699127809598
 31
0.0
 11
168.4357721219349
 21
190.1898130446165
 31
0.0
 11
168.395416877795
 21
189.9114135372629
 31
0.0
 11
168.328608535236
 21
189.6381695123903
 31
0.0
 11
168.2354780340468
 21
189.3700633862256
 31
0.0
 11
168.1175874206702
 21
189.111917368128
 31
0.0
 11
167.9744804072135
 21
188.8624246897798
 31
0.0
 11
167.8092001166198
 21
188.62707928268
 31
0.0
 11
167.6205273241168
 21
188.4039370896651
 31
0.0
 11
167.4128969108144
 21
188.19837216458
 31
0.0
 11
167.1845178280846
 21
188.008457587311
 31
0.0
 11
166.9407760212726
 21
187.8387712846203
 31
0.0
 11
166.6797798046237
 21
187.6878755950597
 31
0.0
 11
166.4072047447453
 21
187.5591356080618
 31
0.0
 11
166.1216567761686
 21
187.4517929447719
 31
0.0
 11
165.8283835073701
 21
187.3678966015328
 31
0.0
 11
165.5270525441902
 21
187.3072646448933
 31
0.0
 11
165.2218612856098
 21
187.2708154109068
 31
0.0
 11
164.913936999827
 21
187.2586046362935
 31
0.0
 11
164.6060127140443
 21
187.2708154109068
 31
0.0
 11
164.3008214554639
 21
187.3072646448933
 31
0.0
 11
163.999490492284
 21
187.3678966015328
 31
0.0
 11
163.7062172234854
 21
187.4517929447719
 31
0.0
 11
163.4206692549087
 21
187.5591356080618
 31
0.0
 11
163.1480941950304
 21
187.6878755950598
 31
0.0
 11
162.8870979783815
 21
187.8387712846203
 31
0.0
 11
162.6433561715695
 21
188.0084575873111
 31
0.0
 11
162.4149770888397
 21
188.19837216458
 31
0.0
 11
162.2073466755372
 21
188.4039370896651
 31
0.0
 11
162.0186738830342
 21
188.62707928268
 31
0.0
 11
161.8533935924407
 21
188.8624246897797
 31
0.0
 11
161.7102865789839
 21
189.1119173681279
 31
0.0
 11
161.5923959656073
 21
189.3700633862255
 31
0.0
 11
161.4992654644182
 21
189.6381695123902
 31
0.0
 11
161.4324571218592
 21
189.911413537263
 31
0.0
 11
161.3921018777193
 21
190.1898130446165
 31
0.0
 11
161.3785798926914
 21
190.4699127809598
 31
0.0
 11
161.3921018777194
 21
190.7500125173031
 31
0.0
  0
ENDBLK
  5
41
330
3F
100
AcDbEntity
  8
0
100
AcDbBlockEnd
  0
BLOCK
  5
43
330
42
100
AcDbEntity
  8
0
100
AcDbBlockBegin
  2
36-54-M11
 70
     0
 71
     0
 10
292.5184201163989
 20
76.82955872187311
 30
0.0
  3
36-54-M11
  1

  0
LINE
  5
140
330
42
100
AcDbEntity
  8
1
  6
Continuous
 62
     7
100
AcDbLine
 10
151.4492941069627
 20
183.9616847313093
 30
0.0
 11
154.4492941069627
 21
183.9616847313093
 31
0.0
  0
LINE
  5
141
330
42
100
AcDbEntity
  8
1
  6
Continuous
 62
     7
100
AcDbLine
 10
154.4492941069627
 20
174.4616847313093
 30
0.0
 11
151.4492941069627
 21
174.4616847313093
 31
0.0
  0
LINE
  5
142
330
42
100
AcDbEntity
  8
1
  6
Continuous
 62
     7
100
AcDbLine
 10
151.4492941069627
 20
283.9616847313093
 30
0.0
 11
154.4492941069627
 21
283.9616847313093
 31
0.0
  0
LINE
  5
143
330
42
100
AcDbEntity
  8
1
  6
Continuous
 62
     7
100
AcDbLine
 10
154.4492941069627
 20
274.4616847313093
 30
0.0
 11
151.4492941069627
 21
274.4616847313093
 31
0.0
  0
LINE
  5
144
330
42
100
AcDbEntity
  8
1
  6
Continuous
 62
     7
100
AcDbLine
 10
190.9492941069627
 20
285.2523800555249
 30
0.0
 11
190.9492941069627
 21
273.1709894070937
 31
0.0
  0
ENDBLK
  5
44
330
42
100
AcDbEntity
  8
0
100
AcDbBlockEnd
  0
BLOCK
  5
4A
330
45
100
AcDbEntity
  8
0
100
AcDbBlockBegin
  2
R10AK-13-B
 70
     0
 71
     0
 10
193.9492941069627
 20
224.2116847313093
 30
0.0
  3
R10AK-13-B
  1

  0
INSERT
  5
46
330
45
100
AcDbEntity
  8
0
100
AcDbBlockReference
  2
21-1C-M1
 10
375.6908886259529
 20
220.3970854433009
 30
0.0
  0
INSERT
  5
47
330
45
100
AcDbEntity
  8
0
100
AcDbBlockReference
  2
42-1-P8
 10
347.2389431165475
 20
91.10742464470582
 30
0.0
  0
INSERT
  5
48
330
45
100
AcDbEntity
  8
0
100
AcDbBlockReference
  2
37-1-13
 10
311.4449999971072
 20
87.41045451453832
 30
0.0
  0
INSERT
  5
49
330
45
100
AcDbEntity
  8
0
100
AcDbBlockReference
  2
36-54-M11
 10
292.5184201163989
 20
76.82955872187311
 30
0.0
  0
ENDBLK
  5
4B
330
45
100
AcDbEntity
  8
0
100
AcDbBlockEnd
  0
BLOCK
  5
4D
330
4C
100
AcDbEntity
  8
0
100
AcDbBlockBegin
  2
V24-0
 70
     0
 71
     0
 10
172.2162284029257
 20
261.5680026390362
 30
0.0
  3
V24-0
  1

  0
LINE
  5
145
330
4C
100
AcDbEntity
  8
1
  6
Continuous
 62
     7
100
AcDbLine
 10
239.9492941069627
 20
189.7116847313093
 30
0.0
 11
226.9492941069627
 21
189.7116847313093
 31
0.0
  0
LINE
  5
146
330
4C
100
AcDbEntity
  8
1
  6
Continuous
 62
     7
100
AcDbLine
 10
239.9492941069627
 20
168.7116847313093
 30
0.0
 11
226.9492941069627
 21
168.7116847313093
 31
0.0
  0
LINE
  5
147
330
4C
100
AcDbEntity
  8
1
  6
Continuous
 62
     7
100
AcDbLine
 10
213.1918960918822
 20
189.7116847313093
 30
0.0
 11
214.2172432993938
 21
189.7116847313093
 31
0.0
  0
LINE
  5
148
330
4C
100
AcDbEntity
  8
1
  6
Continuous
 62
     7
100
AcDbLine
 10
208.1059141716521
 20
190.1391782276601
 30
0.0
 11
208.7316164800185
 21
190.0451057950047
 31
0.0
  0
LINE
  5
149
330
4C
100
AcDbEntity
  8
1
  6
Continuous
 62
     7
100
AcDbLine
 10
178.0795455090005
 20
191.5215677971164
 30
0.0
 11
171.3574514135162
 21
191.2116847313093
 31
0.0
  0
LINE
  5
14A
330
4C
100
AcDbEntity
  8
1
  6
Continuous
 62
     7
100
AcDbLine
 10
171.3574514135162
 20
167.2116847313093
 30
0.0
 11
192.7506404616643
 21
166.2254761309144
 31
0.0
  0
LINE
  5
14B
330
4C
100
AcDbEntity
  8
1
  6
Continuous
 62
     7
100
AcDbLine
 10
208.7316164800185
 20
168.3782636676139
 30
0.0
 11
195.2820819387703
 21
166.356167192244
 31
0.0
  0
LINE
  5
14C
330
4C
100
AcDbEntity
  8
1
  6
Continuous
 62
     7
100
AcDbLine
 10
213.1918960918822
 20
168.7116847313093
 30
0.0
 11
214.2172432993938
 21
168.7116847313093
 31
0.0
  0
LINE
  5
14D
330
4C
100
AcDbEntity
  8
1
  6
Continuous
 62
     7
100
AcDbLine
 10
215.9492941069627
 20
168.7116847313093
 30
0.0
 11
215.9492941069627
 21
169.7116847313093
 31
0.0
  0
LINE
  5
14E
330
4C
100
AcDbEntity
  8
1
  6
Continuous
 62
     7
100
AcDbLine
 10
215.9492941069627
 20
189.7116847313093
 30
0.0
 11
215.9492941069627
 21
169.7116847313093
 31
0.0
  0
LINE
  5
14F
330
4C
100
AcDbEntity
  8
1
  6
Continuous
 62
     2
100
AcDbLine
 10
215.9492941069627
 20
188.7116847313093
 30
0.0
 11
219.9492941069627
 21
188.7116847313093
 31
0.0
  0
LINE
  5
150
330
4C
100
AcDbEntity
  8
1
  6
Continuous
 62
     7
100
AcDbLine
 10
239.9492941069627
 20
188.7116847313093
 30
0.0
 11
239.9492941069627
 21
189.7116847313093
 31
0.0
  0
LINE
  5
151
330
4C
100
AcDbEntity
  8
1
  6
Continuous
 62
     2
100
AcDbLine
 10
215.9492941069627
 20
169.7116847313093
 30
0.0
 11
219.9492941069627
 21
169.7116847313093
 31
0.0
  0
LINE
  5
152
330
4C
100
AcDbEntity
  8
1
  6
Continuous
 62
     7
100
AcDbLine
 10
239.9492941069627
 20
188.7116847313093
 30
0.0
 11
239.9492941069627
 21
168.7116847313093
 31
0.0
  0
LINE
  5
153
330
4C
100
AcDbEntity
  8
1
  6
Continuous
 62
     2
100
AcDbLine
 10
215.9492941069627
 20
188.7116847313093
 30
0.0
 11
214.2172432993938
 21
189.7116847313093
 31
0.0
  0
LINE
  5
154
330
4C
100
AcDbEntity
  8
1
  6
Continuous
 62
     2
100
AcDbLine
 10
215.9492941069627
 20
169.7116847313093
 30
0.0
 11
214.2172432993938
 21
168.7116847313093
 31
0.0
  0
LINE
  5
155
330
4C
100
AcDbEntity
  8
1
  6
Continuous
 62
     7
100
AcDbLine
 10
240.9492941069627
 20
188.7116847313093
 30
0.0
 11
239.9492941069627
 21
189.7116847313093
 31
0.0
  0
LINE
  5
156
330
4C
100
AcDbEntity
  8
1
  6
Continuous
 62
     7
100
AcDbLine
 10
239.9492941069627
 20
168.7116847313093
 30
0.0
 11
240.9492941069627
 21
169.7116847313093
 31
0.0
  0
LINE
  5
157
330
4C
100
AcDbEntity
  8
1
  6
Continuous
 62
     7
100
AcDbLine
 10
240.9492941069627
 20
173.2116847313093
 30
0.0
 11
240.9492941069627
 21
185.2116847313093
 31
0.0
  0
LINE
  5
158
330
4C
100
AcDbEntity
  8
1
  6
Continuous
 62
     7
100
AcDbLine
 10
240.9492941069627
 20
169.7116847313093
 30
0.0
 11
240.9492941069627
 21
173.2116847313093
 31
0.0
  0
LINE
  5
159
330
4C
100
AcDbEntity
  8
1
  6
Continuous
 62
     2
100
AcDbLine
 10
239.9492941069627
 20
169.7116847313093
 30
0.0
 11
240.9492941069627
 21
169.7116847313093
 31
0.0
  0
LINE
  5
15A
330
4C
100
AcDbEntity
  8
1
  6
Continuous
 62
     7
100
AcDbLine
 10
240.9492941069627
 20
185.2116847313093
 30
0.0
 11
240.9492941069627
 21
188.7116847313093
 31
0.0
  0
LINE
  5
15B
330
4C
100
AcDbEntity
  8
1
  6
Continuous
 62
     2
100
AcDbLine
 10
239.9492941069627
 20
188.7116847313093
 30
0.0
 11
240.9492941069627
 21
188.7116847313093
 31
0.0
  0
LINE
  5
15C
330
4C
100
AcDbEntity
  8
1
  6
Continuous
 62
     7
100
AcDbLine
 10
215.9492941069627
 20
189.7116847313093
 30
0.0
 11
214.2172432993938
 21
189.7116847313093
 31
0.0
  0
LINE
  5
15D
330
4C
100
AcDbEntity
  8
1
  6
Continuous
 62
     7
100
AcDbLine
 10
215.9492941069627
 20
168.7116847313093
 30
0.0
 11
214.2172432993938
 21
168.7116847313093
 31
0.0
  0
LINE
  5
15E
330
4C
100
AcDbEntity
  8
1
  6
Continuous
 62
     2
100
AcDbLine
 10
169.9492941069627
 20
168.0246847313093
 30
0.0
 11
171.3574514135162
 21
167.2116847313093
 31
0.0
  0
LINE
  5
15F
330
4C
100
AcDbEntity
  8
1
  6
Continuous
 62
     2
100
AcDbLine
 10
169.9492941069627
 20
168.0246847313093
 30
0.0
 11
168.4484211660022
 21
168.0246847313093
 31
0.0
  0
LINE
  5
160
330
4C
100
AcDbEntity
  8
1
  6
Continuous
 62
     7
100
AcDbLine
 10
199.8492941069627
 20
208.2116847313093
 30
0.0
 11
202.6872941069627
 21
208.2116847313093
 31
0.0
  0
LINE
  5
161
330
4C
100
AcDbEntity
  8
1
  6
Continuous
 62
     2
100
AcDbLine
 10
202.6872941069627
 20
208.2116847313093
 30
0.0
 11
202.6872941069627
 21
207.0496847313093
 31
0.0
  0
LINE
  5
162
330
4C
100
AcDbEntity
  8
1
  6
Continuous
 62
     2
100
AcDbLine
 10
202.6872941069627
 20
207.0496847313093
 30
0.0
 11
202.6872941069627
 21
199.2116847313093
 31
0.0
  0
LINE
  5
163
330
4C
100
AcDbEntity
  8
1
  6
Continuous
 62
     2
100
AcDbLine
 10
202.6872941069627
 20
199.2116847313093
 30
0.0
 11
203.8492941069627
 21
197.1990416929143
 31
0.0
  0
LINE
  5
164
330
4C
100
AcDbEntity
  8
1
  6
Continuous
 62
     2
100
AcDbLine
 10
182.8492941069627
 20
197.1990416929143
 30
0.0
 11
184.0112941069627
 21
199.2116847313093
 31
0.0
  0
LINE
  5
165
330
4C
100
AcDbEntity
  8
1
  6
Continuous
 62
     2
100
AcDbLine
 10
184.0112941069627
 20
199.2116847313093
 30
0.0
 11
184.0112941069627
 21
207.0496847313093
 31
0.0
  0
LINE
  5
166
330
4C
100
AcDbEntity
  8
1
  6
Continuous
 62
     2
100
AcDbLine
 10
184.0112941069627
 20
207.0496847313093
 30
0.0
 11
184.0112941069627
 21
208.2116847313093
 31
0.0
  0
LINE
  5
167
330
4C
100
AcDbEntity
  8
1
  6
Continuous
 62
     2
100
AcDbLine
 10
171.3574514135162
 20
191.2116847313093
 30
0.0
 11
169.9492941069627
 21
190.3986847313093
 31
0.0
  0
LINE
  5
168
330
4C
100
AcDbEntity
  8
1
  6
Continuous
 62
     7
100
AcDbLine
 10
182.8492941069627
 20
199.2116847313093
 30
0.0
 11
182.8492941069627
 21
197.1990416929143
 31
0.0
  0
LINE
  5
169
330
4C
100
AcDbEntity
  8
1
  6
Continuous
 62
     2
100
AcDbLine
 10
184.0112941069627
 20
207.0496847313093
 30
0.0
 11
184.0112941069627
 21
208.2116847313093
 31
0.0
  0
LINE
  5
16A
330
4C
100
AcDbEntity
  8
1
  6
Continuous
 62
     7
100
AcDbLine
 10
182.8492941069627
 20
207.0496847313093
 30
0.0
 11
184.0112941069627
 21
207.0496847313093
 31
0.0
  0
LINE
  5
16B
330
4C
100
AcDbEntity
  8
1
  6
Continuous
 62
     7
100
AcDbLine
 10
203.8492941069627
 20
207.0496847313093
 30
0.0
 11
184.0112941069627
 21
207.0496847313093
 31
0.0
  0
LINE
  5
16C
330
4C
100
AcDbEntity
  8
1
  6
Continuous
 62
     7
100
AcDbLine
 10
203.8492941069627
 20
207.0496847313093
 30
0.0
 11
203.8492941069627
 21
199.2116847313093
 31
0.0
  0
LINE
  5
16D
330
4C
100
AcDbEntity
  8
1
  6
Continuous
 62
     7
100
AcDbLine
 10
202.6872941069627
 20
208.2116847313093
 30
0.0
 11
203.8492941069627
 21
207.0496847313093
 31
0.0
  0
LINE
  5
16E
330
4C
100
AcDbEntity
  8
1
  6
Continuous
 62
     7
100
AcDbLine
 10
182.8492941069627
 20
207.0496847313093
 30
0.0
 11
182.8492941069627
 21
199.2116847313093
 31
0.0
  0
LINE
  5
16F
330
4C
100
AcDbEntity
  8
1
  6
Continuous
 62
     7
100
AcDbLine
 10
184.0112941069627
 20
208.2116847313093
 30
0.0
 11
182.8492941069627
 21
207.0496847313093
 31
0.0
  0
LINE
  5
170
330
4C
100
AcDbEntity
  8
1
  6
Continuous
 62
     7
100
AcDbLine
 10
169.9492941069627
 20
167.2116847313093
 30
0.0
 11
169.9492941069627
 21
191.2116847313093
 31
0.0
  0
LINE
  5
171
330
4C
100
AcDbEntity
  8
1
  6
Continuous
 62
     7
100
AcDbLine
 10
169.9492941069627
 20
167.2116847313093
 30
0.0
 11
171.3574514135162
 21
167.2116847313093
 31
0.0
  0
LINE
  5
172
330
4C
100
AcDbEntity
  8
1
  6
Continuous
 62
     7
100
AcDbLine
 10
202.6872941069627
 20
199.2116847313093
 30
0.0
 11
203.8492941069627
 21
199.2116847313093
 31
0.0
  0
LINE
  5
173
330
4C
100
AcDbEntity
  8
1
  6
Continuous
 62
     7
100
AcDbLine
 10
203.8492941069627
 20
199.2116847313093
 30
0.0
 11
203.8492941069627
 21
197.1990416929143
 31
0.0
  0
LINE
  5
174
330
4C
100
AcDbEntity
  8
1
  6
Continuous
 62
     7
100
AcDbLine
 10
182.8492941069627
 20
199.2116847313093
 30
0.0
 11
202.6872941069627
 21
199.2116847313093
 31
0.0
  0
LINE
  5
175
330
4C
100
AcDbEntity
  8
1
  6
Continuous
 62
     2
100
AcDbLine
 10
184.0112941069627
 20
199.2116847313093
 30
0.0
 11
184.0112941069627
 21
207.0496847313093
 31
0.0
  0
LINE
  5
176
330
4C
100
AcDbEntity
  8
1
  6
Continuous
 62
     7
100
AcDbLine
 10
171.3574514135162
 20
191.2116847313093
 30
0.0
 11
169.9492941069627
 21
191.2116847313093
 31
0.0
  0
LINE
  5
177
330
4C
100
AcDbEntity
  8
1
  6
Continuous
 62
     7
100
AcDbLine
 10
169.9492941069627
 20
190.3986847313093
 30
0.0
 11
169.9492941069627
 21
191.2116847313093
 31
0.0
  0
LINE
  5
178
330
4C
100
AcDbEntity
  8
1
  6
Continuous
 62
     7
100
AcDbLine
 10
169.9492941069627
 20
191.2116847313093
 30
0.0
 11
168.4492941069627
 21
191.2116847313093
 31
0.0
  0
LINE
  5
179
330
4C
100
AcDbEntity
  8
1
  6
Continuous
 62
     7
100
AcDbLine
 10
182.8492941069627
 20
196.5162634126529
 30
0.0
 11
182.8492941069627
 21
197.1990416929143
 31
0.0
  0
LINE
  5
17A
330
4C
100
AcDbEntity
  8
1
  6
Continuous
 62
     7
100
AcDbLine
 10
203.8492941069627
 20
195.0836080503776
 30
0.0
 11
203.8492941069627
 21
197.1990416929143
 31
0.0
  0
LINE
  5
17B
330
4C
100
AcDbEntity
  8
1
  6
Continuous
 62
     7
100
AcDbLine
 10
184.0112941069627
 20
208.2116847313093
 30
0.0
 11
199.8492941069627
 21
208.2116847313093
 31
0.0
  0
LINE
  5
17C
330
4C
100
AcDbEntity
  8
1
  6
Continuous
 62
     7
100
AcDbLine
 10
239.9492941069627
 20
289.7116847313093
 30
0.0
 11
226.9492941069627
 21
289.7116847313093
 31
0.0
  0
LINE
  5
17D
330
4C
100
AcDbEntity
  8
1
  6
Continuous
 62
     7
100
AcDbLine
 10
239.9492941069627
 20
268.7116847313093
 30
0.0
 11
226.9492941069627
 21
268.7116847313093
 31
0.0
  0
LINE
  5
17E
330
4C
100
AcDbEntity
  8
1
  6
Continuous
 62
     7
100
AcDbLine
 10
213.1918960918822
 20
289.7116847313093
 30
0.0
 11
214.2172432993938
 21
289.7116847313093
 31
0.0
  0
LINE
  5
17F
330
4C
100
AcDbEntity
  8
1
  6
Continuous
 62
     7
100
AcDbLine
 10
208.1059141716521
 20
290.1391782276601
 30
0.0
 11
208.7316164800185
 21
290.0451057950047
 31
0.0
  0
LINE
  5
180
330
4C
100
AcDbEntity
  8
1
  6
Continuous
 62
     7
100
AcDbLine
 10
178.0795455090005
 20
291.5215677971164
 30
0.0
 11
171.3574514135162
 21
291.2116847313093
 31
0.0
  0
LINE
  5
181
330
4C
100
AcDbEntity
  8
1
  6
Continuous
 62
     7
100
AcDbLine
 10
171.3574514135162
 20
267.2116847313093
 30
0.0
 11
192.7506404616643
 21
266.2254761309144
 31
0.0
  0
LINE
  5
182
330
4C
100
AcDbEntity
  8
1
  6
Continuous
 62
     7
100
AcDbLine
 10
208.7316164800185
 20
268.3782636676139
 30
0.0
 11
195.2820819387703
 21
266.356167192244
 31
0.0
  0
LINE
  5
183
330
4C
100
AcDbEntity
  8
1
  6
Continuous
 62
     7
100
AcDbLine
 10
213.1918960918822
 20
268.7116847313093
 30
0.0
 11
214.2172432993938
 21
268.7116847313093
 31
0.0
  0
LINE
  5
184
330
4C
100
AcDbEntity
  8
1
  6
Continuous
 62
     7
100
AcDbLine
 10
215.9492941069627
 20
268.7116847313093
 30
0.0
 11
215.9492941069627
 21
288.7116847313093
 31
0.0
  0
LINE
  5
185
330
4C
100
AcDbEntity
  8
1
  6
Continuous
 62
     7
100
AcDbLine
 10
215.9492941069627
 20
289.7116847313093
 30
0.0
 11
215.9492941069627
 21
288.7116847313093
 31
0.0
  0
LINE
  5
186
330
4C
100
AcDbEntity
  8
1
  6
Continuous
 62
     2
100
AcDbLine
 10
215.9492941069627
 20
288.7116847313093
 30
0.0
 11
219.9492941069627
 21
288.7116847313093
 31
0.0
  0
LINE
  5
187
330
4C
100
AcDbEntity
  8
1
  6
Continuous
 62
     7
100
AcDbLine
 10
239.9492941069627
 20
268.7116847313093
 30
0.0
 11
239.9492941069627
 21
289.7116847313093
 31
0.0
  0
LINE
  5
188
330
4C
100
AcDbEntity
  8
1
  6
Continuous
 62
     2
100
AcDbLine
 10
215.9492941069627
 20
269.7116847313093
 30
0.0
 11
219.9492941069627
 21
269.7116847313093
 31
0.0
  0
LINE
  5
189
330
4C
100
AcDbEntity
  8
1
  6
Continuous
 62
     7
100
AcDbLine
 10
239.9492941069627
 20
269.7116847313093
 30
0.0
 11
239.9492941069627
 21
268.7116847313093
 31
0.0
  0
LINE
  5
18A
330
4C
100
AcDbEntity
  8
1
  6
Continuous
 62
     2
100
AcDbLine
 10
215.9492941069627
 20
288.7116847313093
 30
0.0
 11
214.2172432993938
 21
289.7116847313093
 31
0.0
  0
LINE
  5
18B
330
4C
100
AcDbEntity
  8
1
  6
Continuous
 62
     2
100
AcDbLine
 10
215.9492941069627
 20
269.7116847313093
 30
0.0
 11
214.2172432993938
 21
268.7116847313093
 31
0.0
  0
LINE
  5
18C
330
4C
100
AcDbEntity
  8
1
  6
Continuous
 62
     7
100
AcDbLine
 10
240.9492941069627
 20
288.7116847313093
 30
0.0
 11
239.9492941069627
 21
289.7116847313093
 31
0.0
  0
LINE
  5
18D
330
4C
100
AcDbEntity
  8
1
  6
Continuous
 62
     7
100
AcDbLine
 10
239.9492941069627
 20
268.7116847313093
 30
0.0
 11
240.9492941069627
 21
269.7116847313093
 31
0.0
  0
LINE
  5
18E
330
4C
100
AcDbEntity
  8
1
  6
Continuous
 62
     2
100
AcDbLine
 10
239.9492941069627
 20
269.7116847313093
 30
0.0
 11
240.9492941069627
 21
269.7116847313093
 31
0.0
  0
LINE
  5
18F
330
4C
100
AcDbEntity
  8
1
  6
Continuous
 62
     7
100
AcDbLine
 10
240.9492941069627
 20
269.7116847313093
 30
0.0
 11
240.9492941069627
 21
288.7116847313093
 31
0.0
  0
LINE
  5
190
330
4C
100
AcDbEntity
  8
1
  6
Continuous
 62
     2
100
AcDbLine
 10
239.9492941069627
 20
288.7116847313093
 30
0.0
 11
240.9492941069627
 21
288.7116847313093
 31
0.0
  0
LINE
  5
191
330
4C
100
AcDbEntity
  8
1
  6
Continuous
 62
     7
100
AcDbLine
 10
215.9492941069627
 20
289.7116847313093
 30
0.0
 11
214.2172432993938
 21
289.7116847313093
 31
0.0
  0
LINE
  5
192
330
4C
100
AcDbEntity
  8
1
  6
Continuous
 62
     7
100
AcDbLine
 10
215.9492941069627
 20
268.7116847313093
 30
0.0
 11
214.2172432993938
 21
268.7116847313093
 31
0.0
  0
LINE
  5
193
330
4C
100
AcDbEntity
  8
1
  6
Continuous
 62
     2
100
AcDbLine
 10
169.9492941069627
 20
268.0246847313093
 30
0.0
 11
171.3574514135162
 21
267.2116847313093
 31
0.0
  0
LINE
  5
194
330
4C
100
AcDbEntity
  8
1
  6
Continuous
 62
     2
100
AcDbLine
 10
169.9492941069627
 20
268.0246847313093
 30
0.0
 11
168.4492941069627
 21
268.0246847313093
 31
0.0
  0
LINE
  5
195
330
4C
100
AcDbEntity
  8
1
  6
Continuous
 62
     2
100
AcDbLine
 10
171.3574514135162
 20
291.2116847313093
 30
0.0
 11
169.9492941069627
 21
290.3986847313093
 31
0.0
  0
LINE
  5
196
330
4C
100
AcDbEntity
  8
1
  6
Continuous
 62
     7
100
AcDbLine
 10
169.9492941069627
 20
267.2116847313093
 30
0.0
 11
169.9492941069627
 21
268.0246847313093
 31
0.0
  0
LINE
  5
197
330
4C
100
AcDbEntity
  8
1
  6
Continuous
 62
     7
100
AcDbLine
 10
169.9492941069627
 20
267.2116847313093
 30
0.0
 11
171.3574514135162
 21
267.2116847313093
 31
0.0
  0
LINE
  5
198
330
4C
100
AcDbEntity
  8
1
  6
Continuous
 62
     7
100
AcDbLine
 10
171.3574514135162
 20
291.2116847313093
 30
0.0
 11
169.9492941069627
 21
291.2116847313093
 31
0.0
  0
LINE
  5
199
330
4C
100
AcDbEntity
  8
1
  6
Continuous
 62
     7
100
AcDbLine
 10
169.9492941069627
 20
268.0246847313093
 30
0.0
 11
169.9492941069627
 21
291.2116847313093
 31
0.0
  0
LINE
  5
19A
330
4C
100
AcDbEntity
  8
1
  6
Continuous
 62
     7
100
AcDbLine
 10
169.9492941069627
 20
291.2116847313093
 30
0.0
 11
168.4492941069627
 21
291.2116847313093
 31
0.0
  0
LINE
  5
19B
330
4C
100
AcDbEntity
  8
1
  6
Continuous
 62
     7
100
AcDbLine
 10
195.2820819387703
 20
292.0672022703747
 30
0.0
 11
208.7316164800185
 21
290.0451057950047
 31
0.0
  0
LINE
  5
19C
330
4C
100
AcDbEntity
  8
1
  6
Continuous
 62
     7
100
AcDbLine
 10
192.7506404616643
 20
292.1978933317043
 30
0.0
 11
171.3574514135162
 21
291.2116847313093
 31
0.0
  0
LINE
  5
19D
330
4C
100
AcDbEntity
  8
1
  6
Continuous
 62
     7
100
AcDbLine
 10
219.9492941069627
 20
168.7116847313093
 30
0.0
 11
215.9492941069627
 21
168.7116847313093
 31
0.0
  0
LINE
  5
19E
330
4C
100
AcDbEntity
  8
1
  6
Continuous
 62
     7
100
AcDbLine
 10
219.9492941069627
 20
189.7116847313093
 30
0.0
 11
215.9492941069627
 21
189.7116847313093
 31
0.0
  0
LINE
  5
19F
330
4C
100
AcDbEntity
  8
1
  6
Continuous
 62
     2
100
AcDbLine
 10
226.9492941069627
 20
169.7116847313093
 30
0.0
 11
239.9492941069627
 21
169.7116847313093
 31
0.0
  0
LINE
  5
1A0
330
4C
100
AcDbEntity
  8
1
  6
Continuous
 62
     2
100
AcDbLine
 10
226.9492941069627
 20
188.7116847313093
 30
0.0
 11
239.9492941069627
 21
188.7116847313093
 31
0.0
  0
LINE
  5
1A1
330
4C
100
AcDbEntity
  8
1
  6
Continuous
 62
     7
100
AcDbLine
 10
219.9492941069627
 20
289.7116847313093
 30
0.0
 11
215.9492941069627
 21
289.7116847313093
 31
0.0
  0
LINE
  5
1A2
330
4C
100
AcDbEntity
  8
1
  6
Continuous
 62
     7
100
AcDbLine
 10
219.9492941069627
 20
268.7116847313093
 30
0.0
 11
215.9492941069627
 21
268.7116847313093
 31
0.0
  0
LINE
  5
1A3
330
4C
100
AcDbEntity
  8
1
  6
Continuous
 62
     2
100
AcDbLine
 10
226.9492941069627
 20
269.7116847313093
 30
0.0
 11
239.9492941069627
 21
269.7116847313093
 31
0.0
  0
LINE
  5
1A4
330
4C
100
AcDbEntity
  8
1
  6
Continuous
 62
     2
100
AcDbLine
 10
226.9492941069627
 20
288.7116847313093
 30
0.0
 11
239.9492941069627
 21
288.7116847313093
 31
0.0
  0
LINE
  5
1A5
330
4C
100
AcDbEntity
  8
1
  6
Continuous
 62
     2
100
AcDbLine
 10
168.4484161507943
 20
190.3986847313093
 30
0.0
 11
169.9492941069627
 21
190.3986847313093
 31
0.0
  0
LINE
  5
1A6
330
4C
100
AcDbEntity
  8
1
  6
Continuous
 62
     7
100
AcDbLine
 10
168.4492941069627
 20
167.2116847313093
 30
0.0
 11
169.9492941069627
 21
167.2116847313093
 31
0.0
  0
LINE
  5
1A7
330
4C
100
AcDbEntity
  8
1
  6
Continuous
 62
     7
100
AcDbLine
 10
96.84929410696267
 20
208.2116847313093
 30
0.0
 11
99.6872941069627
 21
208.2116847313093
 31
0.0
  0
LINE
  5
1A8
330
4C
100
AcDbEntity
  8
1
  6
Continuous
 62
     2
100
AcDbLine
 10
99.6872941069627
 20
208.2116847313093
 30
0.0
 11
99.6872941069627
 21
207.0496847313093
 31
0.0
  0
LINE
  5
1A9
330
4C
100
AcDbEntity
  8
1
  6
Continuous
 62
     2
100
AcDbLine
 10
99.6872941069627
 20
207.0496847313093
 30
0.0
 11
99.6872941069627
 21
199.2116847313093
 31
0.0
  0
LINE
  5
1AA
330
4C
100
AcDbEntity
  8
1
  6
Continuous
 62
     2
100
AcDbLine
 10
99.6872941069627
 20
199.2116847313093
 30
0.0
 11
100.8492941069627
 21
197.1990416929143
 31
0.0
  0
LINE
  5
1AB
330
4C
100
AcDbEntity
  8
1
  6
Continuous
 62
     2
100
AcDbLine
 10
79.84929410696267
 20
197.1990416929143
 30
0.0
 11
81.01129410696268
 21
199.2116847313093
 31
0.0
  0
LINE
  5
1AC
330
4C
100
AcDbEntity
  8
1
  6
Continuous
 62
     2
100
AcDbLine
 10
81.01129410696268
 20
199.2116847313093
 30
0.0
 11
81.01129410696268
 21
207.0496847313093
 31
0.0
  0
LINE
  5
1AD
330
4C
100
AcDbEntity
  8
1
  6
Continuous
 62
     2
100
AcDbLine
 10
81.01129410696268
 20
207.0496847313093
 30
0.0
 11
81.01129410696268
 21
208.2116847313093
 31
0.0
  0
LINE
  5
1AE
330
4C
100
AcDbEntity
  8
1
  6
Continuous
 62
     7
100
AcDbLine
 10
79.84929410696267
 20
199.2116847313093
 30
0.0
 11
79.84929410696267
 21
197.1990416929143
 31
0.0
  0
LINE
  5
1AF
330
4C
100
AcDbEntity
  8
1
  6
Continuous
 62
     2
100
AcDbLine
 10
81.01129410696268
 20
207.0496847313093
 30
0.0
 11
81.01129410696268
 21
208.2116847313093
 31
0.0
  0
LINE
  5
1B0
330
4C
100
AcDbEntity
  8
1
  6
Continuous
 62
     7
100
AcDbLine
 10
79.84929410696267
 20
207.0496847313093
 30
0.0
 11
81.01129410696268
 21
207.0496847313093
 31
0.0
  0
LINE
  5
1B1
330
4C
100
AcDbEntity
  8
1
  6
Continuous
 62
     7
100
AcDbLine
 10
100.8492941069627
 20
207.0496847313093
 30
0.0
 11
95.6356686680395
 21
207.0496847313093
 31
0.0
  0
LINE
  5
1B2
330
4C
100
AcDbEntity
  8
1
  6
Continuous
 62
     7
100
AcDbLine
 10
100.8492941069627
 20
207.0496847313093
 30
0.0
 11
100.8492941069627
 21
199.2116847313093
 31
0.0
  0
LINE
  5
1B3
330
4C
100
AcDbEntity
  8
1
  6
Continuous
 62
     7
100
AcDbLine
 10
99.6872941069627
 20
208.2116847313093
 30
0.0
 11
100.8492941069627
 21
207.0496847313093
 31
0.0
  0
LINE
  5
1B4
330
4C
100
AcDbEntity
  8
1
  6
Continuous
 62
     7
100
AcDbLine
 10
79.84929410696267
 20
207.0496847313093
 30
0.0
 11
79.84929410696267
 21
199.2116847313093
 31
0.0
  0
LINE
  5
1B5
330
4C
100
AcDbEntity
  8
1
  6
Continuous
 62
     7
100
AcDbLine
 10
81.01129410696268
 20
208.2116847313093
 30
0.0
 11
79.84929410696267
 21
207.0496847313093
 31
0.0
  0
LINE
  5
1B6
330
4C
100
AcDbEntity
  8
1
  6
Continuous
 62
     7
100
AcDbLine
 10
99.6872941069627
 20
199.2116847313093
 30
0.0
 11
100.8492941069627
 21
199.2116847313093
 31
0.0
  0
LINE
  5
1B7
330
4C
100
AcDbEntity
  8
1
  6
Continuous
 62
     7
100
AcDbLine
 10
100.8492941069627
 20
199.2116847313093
 30
0.0
 11
100.8492941069627
 21
197.1990416929143
 31
0.0
  0
LINE
  5
1B8
330
4C
100
AcDbEntity
  8
1
  6
Continuous
 62
     7
100
AcDbLine
 10
79.84929410696267
 20
199.2116847313093
 30
0.0
 11
82.79789106234648
 21
199.2116847313093
 31
0.0
  0
LINE
  5
1B9
330
4C
100
AcDbEntity
  8
1
  6
Continuous
 62
     2
100
AcDbLine
 10
81.01129410696268
 20
199.2116847313093
 30
0.0
 11
81.01129410696268
 21
207.0496847313093
 31
0.0
  0
LINE
  5
1BA
330
4C
100
AcDbEntity
  8
1
  6
Continuous
 62
     7
100
AcDbLine
 10
79.84929410696267
 20
189.2235718564273
 30
0.0
 11
79.84929410696267
 21
197.1990416929143
 31
0.0
  0
LINE
  5
1BB
330
4C
100
AcDbEntity
  8
1
  6
Continuous
 62
     7
100
AcDbLine
 10
100.8492941069627
 20
189.097875212083
 30
0.0
 11
100.8492941069627
 21
197.1990416929143
 31
0.0
  0
LINE
  5
1BC
330
4C
100
AcDbEntity
  8
1
  6
Continuous
 62
     7
100
AcDbLine
 10
81.01129410696268
 20
208.2116847313093
 30
0.0
 11
85.87715815196287
 21
208.2116847313093
 31
0.0
  0
LINE
  5
1BD
330
4C
100
AcDbEntity
  8
1
  6
Continuous
 62
     7
100
AcDbLine
 10
94.82143006196228
 20
208.2116847313093
 30
0.0
 11
96.84929410696267
 21
208.2116847313093
 31
0.0
  0
LINE
  5
1BE
330
4C
100
AcDbEntity
  8
1
  6
Continuous
 62
     7
100
AcDbLine
 10
85.06291954588579
 20
207.0496847313093
 30
0.0
 11
81.01129410696268
 21
207.0496847313093
 31
0.0
  0
LINE
  5
1BF
330
4C
100
AcDbEntity
  8
1
  6
Continuous
 62
     7
100
AcDbLine
 10
97.90069715157878
 20
199.2116847313093
 30
0.0
 11
99.6872941069627
 21
199.2116847313093
 31
0.0
  0
LINE
  5
1C0
330
4C
100
AcDbEntity
  8
1
  6
Continuous
 62
     2
100
AcDbLine
 10
168.4492941069627
 20
290.3986847313093
 30
0.0
 11
169.9492941069627
 21
290.3986847313093
 31
0.0
  0
LINE
  5
1C1
330
4C
100
AcDbEntity
  8
1
  6
Continuous
 62
     7
100
AcDbLine
 10
168.4492941069627
 20
267.2116847313093
 30
0.0
 11
169.9492941069627
 21
267.2116847313093
 31
0.0
  0
ARC
  5
1C2
330
4C
100
AcDbEntity
  8
1
  6
Continuous
 62
     7
100
AcDbCircle
 10
193.3492941069627
 20
179.2116847313093
 30
0.0
 40
13.0
100
AcDbArc
 50
-92.63942014539104
 51
-81.44979413064584
  0
ARC
  5
1C3
330
4C
100
AcDbEntity
  8
1
  6
Continuous
 62
     7
100
AcDbCircle
 10
193.3492941069627
 20
279.2116847313093
 30
0.0
 40
12.99999999999997
100
AcDbArc
 50
-92.63942014539104
 51
-81.44979413064583
  0
ARC
  5
1C4
330
4C
100
AcDbEntity
  8
1
  6
Continuous
 62
     7
100
AcDbCircle
 10
193.3492941069627
 20
279.2116847313093
 30
0.0
 40
13.00000000000009
100
AcDbArc
 50
81.44979413064593
 51
92.63942014539101
  0
ARC
  5
1C5
330
4C
100
AcDbEntity
  8
1
  6
Continuous
 62
     7
100
AcDbCircle
 10
193.3492941069627
 20
279.2116847313093
 30
0.0
 40
6.500000000000036
100
AcDbArc
 50
111.6681846557691
 51
-111.6681846557693
  0
ARC
  5
1C6
330
4C
100
AcDbEntity
  8
1
  6
Continuous
 62
     7
100
AcDbCircle
 10
193.3492941069627
 20
279.2116847313093
 30
0.0
 40
6.499999999999984
100
AcDbArc
 50
-111.6681846557693
 51
111.6681846557691
  0
ARC
  5
1C7
330
4C
100
AcDbEntity
  8
1
  6
Continuous
 62
     7
100
AcDbCircle
 10
192.5241212220469
 20
196.6903209572507
 30
0.0
 40
12.0
100
AcDbArc
 50
-155.7679169064398
 51
-109.5254893613431
  0
ARC
  5
1C8
330
4C
100
AcDbEntity
  8
1
  6
Continuous
 62
     7
100
AcDbCircle
 10
195.0768630276276
 20
196.0228147590027
 30
0.0
 40
10.50000000000005
100
AcDbArc
 50
-84.99649101067936
 51
-30.64619657611855
  0
CIRCLE
  5
1C9
330
4C
100
AcDbEntity
  8
1
  6
Continuous
 62
     7
100
AcDbCircle
 10
193.3492941069627
 20
279.2116847313093
 30
0.0
 40
10.5
  0
CIRCLE
  5
1CA
330
4C
100
AcDbEntity
  8
1
  6
Continuous
 62
     2
100
AcDbCircle
 10
193.3492941069627
 20
279.2116847313093
 30
0.0
 40
9.337999999999994
  0
ARC
  5
1CB
330
4C
100
AcDbEntity
  8
1
  6
Continuous
 62
     7
100
AcDbCircle
 10
208.8492941069627
 20
195.0836080503776
 30
0.0
 40
5.0
100
AcDbArc
 50
180.0
 51
-98.55020586935392
  0
ARC
  5
1CC
330
4C
100
AcDbEntity
  8
1
  6
Continuous
 62
     7
100
AcDbCircle
 10
177.8492941069627
 20
196.5162634126529
 30
0.0
 40
4.999999999999991
100
AcDbArc
 50
-87.36057985460963
 51
0.0
  0
ARC
  5
1CD
330
4C
100
AcDbEntity
  8
1
  6
Continuous
 62
     7
100
AcDbCircle
 10
213.1918960918822
 20
219.7116847313093
 30
0.0
 40
29.99999999999999
100
AcDbArc
 50
-98.55020586935424
 51
-90.0
  0
ARC
  5
1CE
330
4C
100
AcDbEntity
  8
1
  6
Continuous
 62
     7
100
AcDbCircle
 10
213.1918960918822
 20
138.7116847313093
 30
0.0
 40
30.0
100
AcDbArc
 50
90.0
 51
98.55020586935424
  0
ARC
  5
1CF
330
4C
100
AcDbEntity
  8
1
  6
Continuous
 62
     7
100
AcDbCircle
 10
213.1918960918822
 20
319.7116847313093
 30
0.0
 40
29.99999999999996
100
AcDbArc
 50
-98.55020586935424
 51
-90.0
  0
ARC
  5
1D0
330
4C
100
AcDbEntity
  8
1
  6
Continuous
 62
     7
100
AcDbCircle
 10
213.1918960918822
 20
238.7116847313093
 30
0.0
 40
29.99999999999997
100
AcDbArc
 50
90.0
 51
98.55020586935424
  0
ENDBLK
  5
4E
330
4C
100
AcDbEntity
  8
0
100
AcDbBlockEnd
  0
BLOCK
  5
50
330
4F
100
AcDbEntity
  8
0
100
AcDbBlockBegin
  2
28-1B-28-13-M2
 70
     0
 71
     0
 10
315.0000000000002
 20
0.0
 30
0.0
  3
28-1B-28-13-M2
  1

  0
LINE
  5
1D1
330
4F
100
AcDbEntity
  8
1
  6
Continuous
 62
     7
100
AcDbLine
 10
226.1084348016519
 20
155.9616847313093
 30
0.0
 11
226.9492941069627
 21
155.9616847313093
 31
0.0
  0
LINE
  5
1D2
330
4F
100
AcDbEntity
  8
1
  6
Continuous
 62
     7
100
AcDbLine
 10
223.9039400664587
 20
165.9979729897041
 30
0.0
 11
223.9039400664587
 21
192.4253964729144
 31
0.0
  0
LINE
  5
1D3
330
4F
100
AcDbEntity
  8
1
  6
Continuous
 62
     7
100
AcDbLine
 10
219.9492941069627
 20
167.4616847313093
 30
0.0
 11
219.9492941069627
 21
190.9616847313092
 31
0.0
  0
LINE
  5
1D4
330
4F
100
AcDbEntity
  8
1
  6
Continuous
 62
     7
100
AcDbLine
 10
226.9492941069627
 20
189.9616847313092
 30
0.0
 11
226.9492941069627
 21
168.4616847313093
 31
0.0
  0
LINE
  5
1D5
330
4F
100
AcDbEntity
  8
1
  6
Continuous
 62
     7
100
AcDbLine
 10
219.9492941069627
 20
167.4616847313093
 30
0.0
 11
221.6757818370223
 21
166.8332945877418
 31
0.0
  0
LINE
  5
1D6
330
4F
100
AcDbEntity
  8
1
  6
Continuous
 62
     7
100
AcDbLine
 10
226.9492941069627
 20
155.9616847313093
 30
0.0
 11
226.9492941069627
 21
168.4616847313093
 31
0.0
  0
LINE
  5
1D7
330
4F
100
AcDbEntity
  8
1
  6
Continuous
 62
     7
100
AcDbLine
 10
226.9492941069627
 20
168.5116847313093
 30
0.0
 11
226.9492941069627
 21
168.4616847313093
 31
0.0
  0
LINE
  5
1D8
330
4F
100
AcDbEntity
  8
1
  6
PHANTOM
 62
     4
100
AcDbLine
 10
223.9039400664587
 20
179.2116847313093
 30
0.0
 11
219.9492941069628
 21
179.2116847313093
 31
0.0
  0
LINE
  5
1D9
330
4F
100
AcDbEntity
  8
1
  6
PHANTOM
 62
     4
100
AcDbLine
 10
226.9492941069627
 20
179.2116847313093
 30
0.0
 11
223.9039400664587
 21
179.2116847313093
 31
0.0
  0
LINE
  5
1DA
330
4F
100
AcDbEntity
  8
1
  6
PHANTOM
 62
     4
100
AcDbLine
 10
228.9492941069627
 20
179.2116847313093
 30
0.0
 11
226.9492941069627
 21
179.2116847313093
 31
0.0
  0
LINE
  5
1DB
330
4F
100
AcDbEntity
  8
1
  6
PHANTOM
 62
     4
100
AcDbLine
 10
219.9492941069628
 20
179.2116847313093
 30
0.0
 11
217.9492941069627
 21
179.2116847313093
 31
0.0
  0
LINE
  5
1DC
330
4F
100
AcDbEntity
  8
1
  6
Continuous
 62
     7
100
AcDbLine
 10
226.9492941069627
 20
189.9616847313092
 30
0.0
 11
226.9492941069627
 21
189.9116847313092
 31
0.0
  0
LINE
  5
1DD
330
4F
100
AcDbEntity
  8
1
  6
Continuous
 62
     7
100
AcDbLine
 10
226.9492941069627
 20
189.9616847313092
 30
0.0
 11
226.9492941069627
 21
202.4616847313092
 31
0.0
  0
LINE
  5
1DE
330
4F
100
AcDbEntity
  8
1
  6
Continuous
 62
     7
100
AcDbLine
 10
221.6757818370223
 20
191.5900748748767
 30
0.0
 11
219.9492941069627
 21
190.9616847313092
 31
0.0
  0
LINE
  5
1DF
330
4F
100
AcDbEntity
  8
1
  6
Continuous
 62
     7
100
AcDbLine
 10
226.9492941069627
 20
202.4616847313092
 30
0.0
 11
226.1084348016519
 21
202.4616847313092
 31
0.0
  0
LINE
  5
1E0
330
4F
100
AcDbEntity
  8
1
  6
Continuous
 62
     7
100
AcDbLine
 10
226.9492941069627
 20
302.4616847313092
 30
0.0
 11
226.1084348016519
 21
302.4616847313092
 31
0.0
  0
LINE
  5
1E1
330
4F
100
AcDbEntity
  8
1
  6
Continuous
 62
     7
100
AcDbLine
 10
221.6757818370223
 20
291.5900748748767
 30
0.0
 11
219.9492941069627
 21
290.9616847313092
 31
0.0
  0
LINE
  5
1E2
330
4F
100
AcDbEntity
  8
1
  6
Continuous
 62
     7
100
AcDbLine
 10
226.9492941069627
 20
289.9616847313092
 30
0.0
 11
226.9492941069627
 21
302.4616847313092
 31
0.0
  0
LINE
  5
1E3
330
4F
100
AcDbEntity
  8
1
  6
Continuous
 62
     7
100
AcDbLine
 10
226.9492941069627
 20
289.9616847313092
 30
0.0
 11
226.9492941069627
 21
289.9116847313092
 31
0.0
  0
LINE
  5
1E4
330
4F
100
AcDbEntity
  8
1
  6
PHANTOM
 62
     4
100
AcDbLine
 10
219.9492941069628
 20
279.2116847313093
 30
0.0
 11
217.9492941069627
 21
279.2116847313093
 31
0.0
  0
LINE
  5
1E5
330
4F
100
AcDbEntity
  8
1
  6
PHANTOM
 62
     4
100
AcDbLine
 10
228.9492941069627
 20
279.2116847313093
 30
0.0
 11
226.9492941069627
 21
279.2116847313093
 31
0.0
  0
LINE
  5
1E6
330
4F
100
AcDbEntity
  8
1
  6
PHANTOM
 62
     4
100
AcDbLine
 10
226.9492941069627
 20
279.2116847313093
 30
0.0
 11
223.9039400664587
 21
279.2116847313093
 31
0.0
  0
LINE
  5
1E7
330
4F
100
AcDbEntity
  8
1
  6
PHANTOM
 62
     4
100
AcDbLine
 10
223.9039400664587
 20
279.2116847313093
 30
0.0
 11
219.9492941069628
 21
279.2116847313093
 31
0.0
  0
LINE
  5
1E8
330
4F
100
AcDbEntity
  8
1
  6
Continuous
 62
     7
100
AcDbLine
 10
226.9492941069627
 20
268.5116847313093
 30
0.0
 11
226.9492941069627
 21
268.4616847313093
 31
0.0
  0
LINE
  5
1E9
330
4F
100
AcDbEntity
  8
1
  6
Continuous
 62
     7
100
AcDbLine
 10
226.9492941069627
 20
255.9616847313093
 30
0.0
 11
226.9492941069627
 21
268.4616847313093
 31
0.0
  0
LINE
  5
1EA
330
4F
100
AcDbEntity
  8
1
  6
Continuous
 62
     7
100
AcDbLine
 10
219.9492941069627
 20
267.4616847313093
 30
0.0
 11
221.6757818370223
 21
266.8332945877418
 31
0.0
  0
LINE
  5
1EB
330
4F
100
AcDbEntity
  8
1
  6
Continuous
 62
     7
100
AcDbLine
 10
226.9492941069627
 20
289.9616847313092
 30
0.0
 11
226.9492941069627
 21
268.4616847313093
 31
0.0
  0
LINE
  5
1EC
330
4F
100
AcDbEntity
  8
1
  6
Continuous
 62
     7
100
AcDbLine
 10
219.9492941069627
 20
267.4616847313093
 30
0.0
 11
219.9492941069627
 21
290.9616847313092
 31
0.0
  0
LINE
  5
1ED
330
4F
100
AcDbEntity
  8
1
  6
Continuous
 62
     7
100
AcDbLine
 10
223.9039400664587
 20
265.9979729897041
 30
0.0
 11
223.9039400664587
 21
292.4253964729144
 31
0.0
  0
LINE
  5
1EE
330
4F
100
AcDbEntity
  8
1
  6
Continuous
 62
     7
100
AcDbLine
 10
226.1084348016519
 20
255.9616847313093
 30
0.0
 11
226.9492941069627
 21
255.9616847313093
 31
0.0
  0
LINE
  5
1EF
330
4F
100
AcDbEntity
  8
1
  6
PHANTOM
 62
     4
100
AcDbLine
 10
62.59929410696241
 20
179.2116847313093
 30
0.0
 11
118.0992941069624
 21
179.2116847313093
 31
0.0
  0
LINE
  5
1F0
330
4F
100
AcDbEntity
  8
1
  6
PHANTOM
 62
     4
100
AcDbLine
 10
90.34929410696242
 20
151.4616847313093
 30
0.0
 11
90.34929410696242
 21
206.9616847313093
 31
0.0
  0
ARC
  5
1F1
330
4F
100
AcDbEntity
  8
1
  6
Continuous
 62
     7
100
AcDbCircle
 10
282.9542117258753
 20
167.1108260691199
 30
0.0
 40
60.00000000000009
100
AcDbArc
 50
-178.006336022378
 51
-171.348741781178
  0
ARC
  5
1F2
330
4F
100
AcDbEntity
  8
1
  6
Continuous
 62
     7
100
AcDbCircle
 10
282.9542117258753
 20
191.3125433934986
 30
0.0
 40
59.99999999999996
100
AcDbArc
 50
171.348741781178
 51
178.006336022378
  0
ARC
  5
1F3
330
4F
100
AcDbEntity
  8
1
  6
Continuous
 62
     7
100
AcDbCircle
 10
282.9542117258753
 20
291.3125433934986
 30
0.0
 40
59.99999999999998
100
AcDbArc
 50
171.3487417811779
 51
178.006336022378
  0
ARC
  5
1F4
330
4F
100
AcDbEntity
  8
1
  6
Continuous
 62
     7
100
AcDbCircle
 10
282.9542117258753
 20
267.1108260691199
 30
0.0
 40
60.00000000000009
100
AcDbArc
 50
-178.006336022378
 51
-171.3487417811779
  0
ARC
  5
1F5
330
4F
100
AcDbEntity
  8
1
  6
Continuous
 62
     7
100
AcDbCircle
 10
90.34929410696242
 20
179.2116847313093
 30
0.0
 40
23.24999999999999
100
AcDbArc
 50
0.0
 51
63.15278667399479
  0
ARC
  5
1F6
330
4F
100
AcDbEntity
  8
1
  6
Continuous
 62
     7
100
AcDbCircle
 10
90.34929410696242
 20
179.2116847313093
 30
0.0
 40
23.25000000000005
100
AcDbArc
 50
-12.5634997707182
 51
0.0
  0
ARC
  5
1F7
330
4F
100
AcDbEntity
  8
1
  6
Continuous
 62
     7
100
AcDbCircle
 10
90.34929410696242
 20
179.2116847313093
 30
0.0
 40
23.24999999999997
100
AcDbArc
 50
116.8472133260037
 51
-167.436500229281
  0
ARC
  5
1F8
330
4F
100
AcDbEntity
  8
1
  6
Continuous
 62
     7
100
AcDbCircle
 10
90.34929410696242
 20
179.2116847313093
 30
0.0
 40
23.25000000000005
100
AcDbArc
 50
-132.5634997707188
 51
-47.43650022928096
  0
ARC
  5
1F9
330
4F
100
AcDbEntity
  8
1
  6
Continuous
 62
     7
100
AcDbCircle
 10
220.991741550371
 20
164.95390934617
 30
0.0
 40
1.999999999999981
100
AcDbArc
 50
11.8255002021486
 51
48.92827349277562
  0
ARC
  5
1FA
330
4F
100
AcDbEntity
  8
1
  6
Continuous
 62
     7
100
AcDbCircle
 10
220.991741550371
 20
164.95390934617
 30
0.0
 40
1.999999999999957
100
AcDbArc
 50
1.99366397762055
 51
11.8255002021486
  0
ARC
  5
1FB
330
4F
100
AcDbEntity
  8
1
  6
Continuous
 62
     7
100
AcDbCircle
 10
226.1084348016519
 20
158.4616847313093
 30
0.0
 40
2.499999999999996
100
AcDbArc
 50
-171.3487417811774
 51
-149.7296221324984
  0
ARC
  5
1FC
330
4F
100
AcDbEntity
  8
1
  6
Continuous
 62
     7
100
AcDbCircle
 10
226.1084348016519
 20
158.4616847313093
 30
0.0
 40
2.500000000000065
100
AcDbArc
 50
-149.7296221324984
 51
-90.0
  0
ARC
  5
1FD
330
4F
100
AcDbEntity
  8
1
  6
Continuous
 62
     7
100
AcDbCircle
 10
220.991741550371
 20
164.95390934617
 30
0.0
 40
1.999999999999975
100
AcDbArc
 50
48.92827349277562
 51
70.0000000000004
  0
ARC
  5
1FE
330
4F
100
AcDbEntity
  8
1
  6
Continuous
 62
     7
100
AcDbCircle
 10
220.991741550371
 20
193.4694601164486
 30
0.0
 40
2.000000000000065
100
AcDbArc
 50
-70.00000000000151
 51
-48.92827349277776
  0
ARC
  5
1FF
330
4F
100
AcDbEntity
  8
1
  6
Continuous
 62
     7
100
AcDbCircle
 10
226.1084348016519
 20
199.9616847313092
 30
0.0
 40
2.5
100
AcDbArc
 50
90.0
 51
149.7296221324984
  0
ARC
  5
200
330
4F
100
AcDbEntity
  8
1
  6
Continuous
 62
     7
100
AcDbCircle
 10
226.1084348016519
 20
199.9616847313092
 30
0.0
 40
2.500000000000065
100
AcDbArc
 50
149.7296221324984
 51
171.3487417811774
  0
ARC
  5
201
330
4F
100
AcDbEntity
  8
1
  6
Continuous
 62
     7
100
AcDbCircle
 10
220.991741550371
 20
193.4694601164486
 30
0.0
 40
1.999999999999981
100
AcDbArc
 50
-11.8255002021486
 51
-1.99366397762381
  0
ARC
  5
202
330
4F
100
AcDbEntity
  8
1
  6
Continuous
 62
     7
100
AcDbCircle
 10
220.991741550371
 20
193.4694601164486
 30
0.0
 40
2.00000000000006
100
AcDbArc
 50
-48.92827349277776
 51
-11.8255002021486
  0
ARC
  5
203
330
4F
100
AcDbEntity
  8
1
  6
Continuous
 62
     7
100
AcDbCircle
 10
220.991741550371
 20
293.4694601164486
 30
0.0
 40
2.000000000000039
100
AcDbArc
 50
-48.92827349277723
 51
-11.8255002021486
  0
ARC
  5
204
330
4F
100
AcDbEntity
  8
1
  6
Continuous
 62
     7
100
AcDbCircle
 10
220.991741550371
 20
293.4694601164486
 30
0.0
 40
1.999999999999981
100
AcDbArc
 50
-11.8255002021486
 51
-1.99366397762462
  0
ARC
  5
205
330
4F
100
AcDbEntity
  8
1
  6
Continuous
 62
     7
100
AcDbCircle
 10
226.1084348016519
 20
299.9616847313092
 30
0.0
 40
2.500000000000036
100
AcDbArc
 50
149.7296221324995
 51
171.3487417811774
  0
ARC
  5
206
330
4F
100
AcDbEntity
  8
1
  6
Continuous
 62
     7
100
AcDbCircle
 10
226.1084348016519
 20
299.9616847313092
 30
0.0
 40
2.5
100
AcDbArc
 50
90.0
 51
149.7296221324995
  0
ARC
  5
207
330
4F
100
AcDbEntity
  8
1
  6
Continuous
 62
     7
100
AcDbCircle
 10
220.991741550371
 20
293.4694601164486
 30
0.0
 40
2.000000000000092
100
AcDbArc
 50
-70.00000000000179
 51
-48.92827349277723
  0
ARC
  5
208
330
4F
100
AcDbEntity
  8
1
  6
Continuous
 62
     7
100
AcDbCircle
 10
220.991741550371
 20
264.95390934617
 30
0.0
 40
1.999999999999953
100
AcDbArc
 50
48.92827349277509
 51
70.00000000000067
  0
ARC
  5
209
330
4F
100
AcDbEntity
  8
1
  6
Continuous
 62
     7
100
AcDbCircle
 10
226.1084348016519
 20
258.4616847313093
 30
0.0
 40
2.500000000000036
100
AcDbArc
 50
-149.7296221324995
 51
-90.0
  0
ARC
  5
20A
330
4F
100
AcDbEntity
  8
1
  6
Continuous
 62
     7
100
AcDbCircle
 10
226.1084348016519
 20
258.4616847313093
 30
0.0
 40
2.499999999999996
100
AcDbArc
 50
-171.3487417811774
 51
-149.7296221324995
  0
ARC
  5
20B
330
4F
100
AcDbEntity
  8
1
  6
Continuous
 62
     7
100
AcDbCircle
 10
220.991741550371
 20
264.95390934617
 30
0.0
 40
1.999999999999959
100
AcDbArc
 50
1.99366397762137
 51
11.8255002021486
  0
ARC
  5
20C
330
4F
100
AcDbEntity
  8
1
  6
Continuous
 62
     7
100
AcDbCircle
 10
220.991741550371
 20
264.95390934617
 30
0.0
 40
1.999999999999981
100
AcDbArc
 50
11.8255002021486
 51
48.92827349277509
  0
ENDBLK
  5
51
330
4F
100
AcDbEntity
  8
0
100
AcDbBlockEnd
  0
BLOCK
  5
22C
330
225
100
AcDbEntity
  8
0
100
AcDbBlockBegin
  2
*D09
 70
     1
 71
     0
 10
0.0
 20
0.0
 30
0.0
  3
*D09
  1

  0
LINE
  5
226
330
225
100
AcDbEntity
  8
1
  6
Continuous
 62
     2
100
AcDbLine
 10
255.9492941069627
 20
202.4616847313093
 30
0.0
 11
255.9492941069627
 21
155.9616847313094
 31
0.0
  0
LINE
  5
227
330
225
100
AcDbEntity
  8
1
  6
Continuous
 62
     2
100
AcDbLine
 10
226.9492941069627
 20
155.9616847313094
 30
0.0
 11
257.4492941069627
 21
155.9616847313094
 31
0.0
  0
LINE
  5
228
330
225
100
AcDbEntity
  8
1
  6
Continuous
 62
     2
100
AcDbLine
 10
226.9492941069627
 20
202.4616847313093
 30
0.0
 11
257.4492941069627
 21
202.4616847313093
 31
0.0
  0
SOLID
  5
229
330
225
100
AcDbEntity
  8
1
 62
     2
100
AcDbTrace
 10
256.6404697192965
 20
197.2116847313093
 30
0.0
 11
255.2581184946289
 21
197.2116847313093
 31
0.0
 12
255.9492941069627
 22
202.4616847313093
 32
0.0
 13
255.9492941069627
 23
202.4616847313093
 33
0.0
  0
SOLID
  5
22A
330
225
100
AcDbEntity
  8
1
 62
     2
100
AcDbTrace
 10
255.2581184946289
 20
161.2116847313094
 30
0.0
 11
256.6404697192965
 21
161.2116847313094
 31
0.0
 12
255.9492941069627
 22
155.9616847313094
 32
0.0
 13
255.9492941069627
 23
155.9616847313094
 33
0.0
  0
MTEXT
  5
22B
330
225
100
AcDbEntity
  8
1
 62
     7
100
AcDbMText
 10
254.4492941069627
 20
169.8141847313093
 30
0.0
 40
5.25
 41
0.0
 71
     7
 72
     1
  1
\C7;{\Fgdt;n}\C7;47
  7
CONVERTER_2
 11
0.0
 21
1.0
 31
0.0
 73
     1
 44
0.60024009603842
  0
ENDBLK
  5
22D
330
225
100
AcDbEntity
  8
0
100
AcDbBlockEnd
  0
BLOCK
  5
238
330
230
100
AcDbEntity
  8
0
100
AcDbBlockBegin
  2
*D110
 70
     1
 71
     0
 10
0.0
 20
0.0
 30
0.0
  3
*D110
  1

  0
LINE
  5
231
330
230
100
AcDbEntity
  8
1
  6
Continuous
 62
     2
100
AcDbLine
 10
212.197556706388
 20
222.107776636501
 30
0.0
 11
212.197556706388
 21
208.2116847313093
 31
0.0
  0
LINE
  5
232
330
230
100
AcDbEntity
  8
1
  6
Continuous
 62
     2
100
AcDbLine
 10
212.197556706388
 20
208.2116847313093
 30
0.0
 11
212.197556706388
 21
179.2116847313093
 31
0.0
  0
LINE
  5
233
330
230
100
AcDbEntity
  8
1
  6
Continuous
 62
     2
100
AcDbLine
 10
212.335417710874
 20
179.2116847313093
 30
0.0
 11
210.697556706388
 21
179.2116847313093
 31
0.0
  0
LINE
  5
234
330
230
100
AcDbEntity
  8
1
  6
Continuous
 62
     2
100
AcDbLine
 10
202.6872941069627
 20
208.2116847313093
 30
0.0
 11
213.697556706388
 21
208.2116847313093
 31
0.0
  0
SOLID
  5
235
330
230
100
AcDbEntity
  8
1
 62
     2
100
AcDbTrace
 10
212.8887323187219
 20
202.9616847313093
 30
0.0
 11
211.5063810940542
 21
202.9616847313093
 31
0.0
 12
212.197556706388
 22
208.2116847313093
 32
0.0
 13
212.197556706388
 23
208.2116847313093
 33
0.0
  0
SOLID
  5
236
330
230
100
AcDbEntity
  8
1
 62
     2
100
AcDbTrace
 10
211.5063810940542
 20
184.4616847313093
 30
0.0
 11
212.8887323187219
 21
184.4616847313093
 31
0.0
 12
212.197556706388
 22
179.2116847313093
 32
0.0
 13
212.197556706388
 23
179.2116847313093
 33
0.0
  0
MTEXT
  5
237
330
230
100
AcDbEntity
  8
1
 62
     7
100
AcDbMText
 10
210.697556706388
 20
214.232776636501
 30
0.0
 40
5.25
 41
0.0
 71
     7
 72
     1
  1
29
  7
CONVERTER_2
 11
0.0
 21
1.0
 31
0.0
 73
     1
 44
0.60024009603842
  0
ENDBLK
  5
239
330
230
100
AcDbEntity
  8
0
100
AcDbBlockEnd
  0
BLOCK
  5
243
330
23C
100
AcDbEntity
  8
0
100
AcDbBlockBegin
  2
*D211
 70
     1
 71
     0
 10
0.0
 20
0.0
 30
0.0
  3
*D211
  1

  0
LINE
  5
23D
330
23C
100
AcDbEntity
  8
0
  6
Continuous
 62
     2
100
AcDbLine
 10
240.9492941069627
 20
140.9616847313093
 30
0.0
 11
193.3492941069627
 21
140.9616847313093
 31
0.0
  0
LINE
  5
23E
330
23C
100
AcDbEntity
  8
0
  6
Continuous
 62
     2
100
AcDbLine
 10
193.3492941069627
 20
162.55019371284
 30
0.0
 11
193.3492941069627
 21
139.4616847313093
 31
0.0
  0
LINE
  5
23F
330
23C
100
AcDbEntity
  8
0
  6
Continuous
 62
     2
100
AcDbLine
 10
240.9492941069627
 20
169.7116847313093
 30
0.0
 11
240.9492941069627
 21
139.4616847313093
 31
0.0
  0
SOLID
  5
240
330
23C
100
AcDbEntity
  8
0
 62
     2
100
AcDbTrace
 10
235.6992941069627
 20
140.2705091189755
 30
0.0
 11
235.6992941069627
 21
141.6528603436431
 31
0.0
 12
240.9492941069627
 22
140.9616847313093
 32
0.0
 13
240.9492941069627
 23
140.9616847313093
 33
0.0
  0
SOLID
  5
241
330
23C
100
AcDbEntity
  8
0
 62
     2
100
AcDbTrace
 10
198.5992941069627
 20
141.6528603436431
 30
0.0
 11
198.5992941069627
 21
140.2705091189755
 31
0.0
 12
193.3492941069627
 22
140.9616847313093
 32
0.0
 13
193.3492941069627
 23
140.9616847313093
 33
0.0
  0
MTEXT
  5
242
330
23C
100
AcDbEntity
  8
0
 62
     7
100
AcDbMText
 10
213.2117941069627
 20
142.4616847313093
 30
0.0
 40
5.25
 41
0.0
 71
     7
 72
     1
  1
48
  7
CONVERTER_2
 11
0.9999999999970621
 21
2.424068405545307E-6
 31
0.0
 73
     1
 44
0.60024009603842
  0
ENDBLK
  5
244
330
23C
100
AcDbEntity
  8
0
100
AcDbBlockEnd
  0
BLOCK
  5
24E
330
247
100
AcDbEntity
  8
0
100
AcDbBlockBegin
  2
*D312
 70
     1
 71
     0
 10
0.0
 20
0.0
 30
0.0
  3
*D312
  1

  0
LINE
  5
248
330
247
100
AcDbEntity
  8
0
  6
Continuous
 62
     2
100
AcDbLine
 10
193.3492941069628
 20
140.9616847313093
 30
0.0
 11
136.4492941069628
 21
140.9616847313093
 31
0.0
  0
LINE
  5
249
330
247
100
AcDbEntity
  8
0
  6
Continuous
 62
     2
100
AcDbLine
 10
193.3492941069628
 20
162.55019371284
 30
0.0
 11
193.3492941069628
 21
139.4616847313093
 31
0.0
  0
LINE
  5
24A
330
247
100
AcDbEntity
  8
0
  6
Continuous
 62
     2
100
AcDbLine
 10
136.4492941069628
 20
179.2116847313093
 30
0.0
 11
136.4492941069628
 21
139.4616847313093
 31
0.0
  0
SOLID
  5
24B
330
247
100
AcDbEntity
  8
0
 62
     2
100
AcDbTrace
 10
188.0992941069628
 20
140.2705091189755
 30
0.0
 11
188.0992941069628
 21
141.6528603436431
 31
0.0
 12
193.3492941069628
 22
140.9616847313093
 32
0.0
 13
193.3492941069628
 23
140.9616847313093
 33
0.0
  0
SOLID
  5
24C
330
247
100
AcDbEntity
  8
0
 62
     2
100
AcDbTrace
 10
141.6992941069628
 20
141.6528603436431
 30
0.0
 11
141.6992941069628
 21
140.2705091189755
 31
0.0
 12
136.4492941069628
 22
140.9616847313093
 32
0.0
 13
136.4492941069628
 23
140.9616847313093
 33
0.0
  0
MTEXT
  5
24D
330
247
100
AcDbEntity
  8
0
 62
     7
100
AcDbMText
 10
150.7242941069627
 20
142.4616847313093
 30
0.0
 40
5.25
 41
0.0
 71
     7
 72
     1
  1
57リフト5
  7
CONVERTER_1
 11
0.9999999999970621
 21
2.424068405545307E-6
 31
0.0
 73
     1
 44
0.60024009603842
  0
ENDBLK
  5
24F
330
247
100
AcDbEntity
  8
0
100
AcDbBlockEnd
  0
ENDSEC
  0
SECTION
  2
ENTITIES
  0
INSERT
  5
52
330
1F
100
AcDbEntity
  8
1
100
AcDbBlockReference
  2
_J__A4
 10
0.00000000000004
 20
0.0
 30
0.0
 41
1.5
 42
1.5
 43
1.5
  0
INSERT
  5
53
330
1F
100
AcDbEntity
  8
0
100
AcDbBlockReference
  2
R10AK-13-B
 10
193.9492941069627
 20
224.2116847313093
 30
0.0
  0
INSERT
  5
54
330
1F
100
AcDbEntity
  8
0
100
AcDbBlockReference
  2
V24-0
 10
172.2162284029257
 20
261.5680026390362
 30
0.0
  0
INSERT
  5
55
330
1F
100
AcDbEntity
  8
1
100
AcDbBlockReference
  2
28-1B-28-13-M2
 10
315.0000000000002
 20
0.0
 30
0.0
  0
LINE
  5
20D
330
1F
100
AcDbEntity
  8
1
  6
DASH_CENTER
 62
     2
100
AcDbLine
 10
212.3354177108739
 20
179.2116847313093
 30
0.0
 11
193.3492941069627
 21
179.2116847313093
 31
0.0
  0
LINE
  5
20E
330
1F
100
AcDbEntity
  8
1
  6
DASH_CENTER
 62
     2
100
AcDbLine
 10
245.4492941069627
 20
179.2116847313093
 30
0.0
 11
212.3354177108739
 21
179.2116847313093
 31
0.0
  0
LINE
  5
20F
330
1F
100
AcDbEntity
  8
0
  6
DASH_CENTER
 62
     2
100
AcDbLine
 10
193.3492941069627
 20
211.55019371284
 30
0.0
 11
193.3492941069627
 21
179.2116847313093
 31
0.0
  0
LINE
  5
210
330
1F
100
AcDbEntity
  8
1
  6
DASH_CENTER
 62
     2
100
AcDbLine
 10
243.1389689552774
 20
279.2116847313093
 30
0.0
 11
133.5443978206126
 21
279.2116847313093
 31
0.0
  0
LINE
  5
211
330
1F
100
AcDbEntity
  8
1
  6
DASH_CENTER
 62
     2
100
AcDbLine
 10
119.8230054743941
 20
162.1950295393054
 30
0.0
 11
74.67798970417189
 21
188.2595165468132
 31
0.0
  0
LINE
  5
212
330
1F
100
AcDbEntity
  8
1
  6
DASH_CENTER
 62
     2
100
AcDbLine
 10
60.88379279370059
 20
162.1997696162902
 30
0.0
 11
104.0953906182037
 21
187.1479972523811
 31
0.0
  0
LINE
  5
213
330
1F
100
AcDbEntity
  8
1
  6
DASH_CENTER
 62
     2
100
AcDbLine
 10
121.3927204390451
 20
179.2116847313093
 30
0.0
 11
57.87033360923459
 21
179.2116847313093
 31
0.0
  0
LINE
  5
214
330
1F
100
AcDbEntity
  8
0
  6
DASH_CENTER
 62
     2
100
AcDbLine
 10
90.34929410696267
 20
211.55019371284
 30
0.0
 11
90.34929410696267
 21
152.96019371284
 31
0.0
  0
LINE
  5
215
330
1F
100
AcDbEntity
  8
0
  6
DASH_CENTER
 62
     2
100
AcDbLine
 10
193.3492941069627
 20
295.1978933317043
 30
0.0
 11
193.3492941069627
 21
262.5501937128401
 31
0.0
  0
LINE
  5
216
330
1F
100
AcDbEntity
  8
0
  6
DASH_CENTER
 62
     2
100
AcDbLine
 10
193.3492941069627
 20
179.2116847313093
 30
0.0
 11
193.3492941069627
 21
162.55019371284
 31
0.0
  0
LINE
  5
217
330
1F
100
AcDbEntity
  8
1
  6
DASH_CENTER
 62
     2
100
AcDbLine
 10
193.3492941069627
 20
179.2116847313093
 30
0.0
 11
133.5443978206126
 21
179.2116847313093
 31
0.0
  0
SOLID
  5
218
330
1F
100
AcDbEntity
  8
1
 62
     2
100
AcDbTrace
 10
235.4757184682053
 20
194.6039059073445
 30
0.0
 11
236.6728697457201
 21
193.9127302950107
 31
0.0
 12
233.4492941069627
 22
189.7116847313093
 32
0.0
 13
233.4492941069627
 23
189.7116847313093
 33
0.0
  0
LEADER
  5
219
330
1F
100
AcDbEntity
  8
1
  6
Continuous
 62
     2
100
AcDbLeader
  3
Standard
 71
     0
 76
     3
 10
233.4492941069627
 20
189.7116847313093
 30
0.0
 10
253.8060111004041
 20
224.9705528392507
 30
0.0
 10
274.920697160147
 20
224.9705528392507
 30
0.0
  0
SOLID
  5
21A
330
1F
100
AcDbEntity
  8
1
 62
     2
100
AcDbTrace
 10
179.6257184682054
 20
206.3254087758132
 30
0.0
 11
180.8228697457201
 21
207.016584388147
 31
0.0
 12
182.8492941069627
 22
202.1243632121118
 32
0.0
 13
182.8492941069627
 23
202.1243632121118
 33
0.0
  0
LEADER
  5
21B
330
1F
100
AcDbEntity
  8
1
  6
Continuous
 62
     2
100
AcDbLeader
  3
Standard
 71
     0
 76
     3
 10
182.8492941069627
 20
202.1243632121118
 30
0.0
 10
169.6590403757768
 20
224.9705528392507
 30
0.0
 10
190.180760090275
 20
224.9705528392507
 30
0.0
  0
MTEXT
  5
21C
330
1F
100
AcDbEntity
  8
1
 62
     7
100
AcDbMText
 10
51.00000000000002
 20
45.75000000000001
 30
0.0
 40
5.25
 41
0.0
 71
     4
 72
     1
  1
共用形
  7
CONVERTER_1
 73
     1
 44
0.7202881152461
  0
MTEXT
  5
21D
330
1F
100
AcDbEntity
  8
1
 62
     7
100
AcDbMText
 10
85.50000000000006
 20
34.125
 30
0.0
 40
5.25
 41
0.0
 71
     5
 72
     1
  1
アングル化粧バルブ
  7
CONVERTER_1
 73
     1
 44
0.7202881152461
  0
MTEXT
  5
21F
330
1F
100
AcDbEntity
  8
1
 62
     7
100
AcDbMText
 10
85.50000000000006
 20
21.375
 30
0.0
 40
5.25
 41
0.0
 71
     5
 72
     1
  1
V24A-13
  7
CONVERTER_2
 73
     1
 44
0.90036014405762
  0
MTEXT
  5
220
330
1F
100
AcDbEntity
  8
1
 62
     7
100
AcDbMText
 10
51.00000000000002
 20
56.25
 30
0.0
 40
5.25
 41
0.0
 71
     4
 72
     1
  1
JIS
  7
CONVERTER_2
 73
     1
 44
1.32052821128451
  0
MTEXT
  5
221
330
1F
100
AcDbEntity
  8
1
 62
     7
100
AcDbMText
 10
140.6249999999999
 20
25.5
 30
0.0
 40
5.25
 41
0.0
 71
     5
 72
     1
  1
1,5
  7
CONVERTER_2
 73
     1
 44
0.7202881152461
  0
MTEXT
  5
222
330
1F
100
AcDbEntity
  8
1
 62
     7
100
AcDbMText
 10
127.8749999999999
 20
25.5
 30
0.0
 40
5.25
 41
0.0
 71
     5
 72
     1
  1
1
  7
CONVERTER_2
 73
     1
 44
0.7202881152461
  0
MTEXT
  5
223
330
1F
100
AcDbEntity
  8
1
 62
     7
100
AcDbMText
 10
179.9199002330259
 20
229.4705528392507
 30
0.0
 40
5.25
 41
0.0
 71
     5
 72
     1
  1
PJ1/2
  7
CONVERTER_2
 73
     1
 44
1.32052821128451
  0
MTEXT
  5
224
330
1F
100
AcDbEntity
  8
1
 62
     7
100
AcDbMText
 10
264.3633541302755
 20
229.4705528392507
 30
0.0
 40
5.25
 41
0.0
 71
     5
 72
     1
  1
PJ1/2
  7
CONVERTER_2
 73
     1
 44
1.32052821128451
  0
DIMENSION
  5
22F
330
1F
100
AcDbEntity
  8
1
100
AcDbDimension
  2
*D09
 10
255.9492941069627
 20
202.4616847313093
 30
0.0
 11
251.8242941069627
 21
179.2116847313093
 31
0.0
  1
{\Fgdt;n}47
 71
     5
 42
0.0
 53
90.0
  3
ME10_DIM_0
100
AcDbAlignedDimension
 13
226.9492941069627
 23
155.9616847313093
 33
0.0
 14
226.9492941069627
 24
202.4616847313092
 34
0.0
 50
90.0
100
AcDbRotatedDimension
  0
DIMENSION
  5
23B
330
1F
100
AcDbEntity
  8
1
100
AcDbDimension
  2
*D110
 10
212.197556706388
 20
208.2116847313093
 30
0.0
 11
208.072556706388
 21
218.170276636501
 31
0.0
  1
<>
 71
     5
 42
0.0
 53
90.0
  3
ME10_DIM_1
100
AcDbAlignedDimension
 13
212.3354177108739
 23
179.2116847313093
 33
0.0
 14
202.6872941069627
 24
208.2116847313093
 34
0.0
 50
90.0
100
AcDbRotatedDimension
  0
DIMENSION
  5
246
330
1F
100
AcDbEntity
  8
0
100
AcDbDimension
  2
*D211
 10
240.9492941069627
 20
140.9616847313093
 30
0.0
 11
217.1492941069627
 21
145.0866847313093
 31
0.0
  1
48
 71
     5
 42
0.0
 53
0.00013888888889
  3
ME10_DIM_2
100
AcDbAlignedDimension
 13
193.3492941069627
 23
162.55019371284
 33
0.0
 14
240.9492941069627
 24
169.7116847313093
 34
0.0
100
AcDbRotatedDimension
  0
DIMENSION
  5
251
330
1F
100
AcDbEntity
  8
0
100
AcDbDimension
  2
*D312
 10
193.3492941069628
 20
140.9616847313093
 30
0.0
 11
164.8992941069627
 21
145.0866847313093
 31
0.0
  1
57リフト5
 71
     5
 42
0.0
 53
0.00013888888889
  3
ME10_DIM_3
100
AcDbAlignedDimension
 13
136.4492941069627
 23
179.2116847313093
 33
0.0
 14
193.3492941069627
 24
162.55019371284
 34
0.0
100
AcDbRotatedDimension
  0
ENDSEC
  0
SECTION
  2
OBJECTS
  0
DICTIONARY
  5
C
330
0
100
AcDbDictionary
281
     1
  3
ACAD_GROUP
350
D
  3
ACAD_LAYOUT
350
1A
  3
ACAD_MLINESTYLE
350
17
  3
ACAD_PLOTSETTINGS
350
19
  3
ACAD_PLOTSTYLENAME
350
E
  3
ACAD_TABLESTYLE
350
2A
  3
AcDbVariableDictionary
350
2C
  0
DICTIONARY
  5
D
102
{ACAD_REACTORS
330
C
102
}
330
C
100
AcDbDictionary
281
     1
  0
DICTIONARY
  5
1A
102
{ACAD_REACTORS
330
C
102
}
330
C
100
AcDbDictionary
281
     1
  3
Layout1
350
1E
  3
Layout2
350
26
  3
Model
350
22
  0
DICTIONARY
  5
17
102
{ACAD_REACTORS
330
C
102
}
330
C
100
AcDbDictionary
281
     1
  3
Standard
350
18
  0
DICTIONARY
  5
19
102
{ACAD_REACTORS
330
C
102
}
330
C
100
AcDbDictionary
281
     1
  0
ACDBDICTIONARYWDFLT
  5
E
102
{ACAD_REACTORS
330
C
102
}
330
C
100
AcDbDictionary
281
     1
  3
Normal
350
F
100
AcDbDictionaryWithDefault
340
F
  0
DICTIONARY
  5
2A
102
{ACAD_REACTORS
330
C
102
}
330
C
100
AcDbDictionary
281
     1
  3
Standard
350
2B
  0
DICTIONARY
  5
2C
102
{ACAD_REACTORS
330
C
102
}
330
C
100
AcDbDictionary
281
     1
  3
CTABLESTYLE
350
2D
  0
LAYOUT
  5
1E
102
{ACAD_REACTORS
330
1A
102
}
330
1A
100
AcDbPlotSettings
  1

  2

  4

  6

 40
0.0
 41
0.0
 42
0.0
 43
0.0
 44
0.0
 45
0.0
 46
0.0
 47
0.0
 48
0.0
 49
0.0
140
0.0
141
0.0
142
1.0
143
1.0
 70
   688
 72
     0
 73
     0
 74
     5
  7

 75
    16
147
1.0
148
0.0
149
0.0
100
AcDbLayout
  1
Layout1
 70
     1
 71
     1
 10
0.0
 20
0.0
 11
12.0
 21
9.0
 12
0.0
 22
0.0
 32
0.0
 14
1.00000000000000E+20
 24
1.00000000000000E+20
 34
1.00000000000000E+20
 15
-1.00000000000000E+20
 25
-1.00000000000000E+20
 35
-1.00000000000000E+20
146
0.0
 13
0.0
 23
0.0
 33
0.0
 16
1.0
 26
0.0
 36
0.0
 17
0.0
 27
1.0
 37
0.0
 76
     0
330
1B
  0
LAYOUT
  5
26
102
{ACAD_REACTORS
330
1A
102
}
330
1A
100
AcDbPlotSettings
  1

  2

  4

  6

 40
0.0
 41
0.0
 42
0.0
 43
0.0
 44
0.0
 45
0.0
 46
0.0
 47
0.0
 48
0.0
 49
0.0
140
0.0
141
0.0
142
1.0
143
1.0
 70
   688
 72
     0
 73
     0
 74
     5
  7

 75
    16
147
1.0
148
0.0
149
0.0
100
AcDbLayout
  1
Layout2
 70
     1
 71
     2
 10
0.0
 20
0.0
 11
0.0
 21
0.0
 12
0.0
 22
0.0
 32
0.0
 14
0.0
 24
0.0
 34
0.0
 15
0.0
 25
0.0
 35
0.0
146
0.0
 13
0.0
 23
0.0
 33
0.0
 16
1.0
 26
0.0
 36
0.0
 17
0.0
 27
1.0
 37
0.0
 76
     0
330
23
  0
LAYOUT
  5
22
102
{ACAD_REACTORS
330
1A
102
}
330
1A
100
AcDbPlotSettings
  1

  2

  4

  6

 40
0.0
 41
0.0
 42
0.0
 43
0.0
 44
0.0
 45
0.0
 46
0.0
 47
0.0
 48
0.0
 49
0.0
140
0.0
141
0.0
142
1.0
143
1.0
 70
  1712
 72
     0
 73
     0
 74
     0
  7

 75
     0
147
1.0
148
0.0
149
0.0
100
AcDbLayout
  1
Model
 70
     1
 71
     0
 10
0.0
 20
0.0
 11
0.0
 21
0.0
 12
0.0
 22
0.0
 32
0.0
 14
0.00000000000004
 24
0.0
 34
0.0
 15
315.0000000000002
 25
445.5
 35
0.0
146
0.0
 13
0.0
 23
0.0
 33
0.0
 16
1.0
 26
0.0
 36
0.0
 17
0.0
 27
1.0
 37
0.0
 76
     0
330
1F
  0
MLINESTYLE
  5
18
102
{ACAD_REACTORS
330
17
102
}
330
17
100
AcDbMlineStyle
  2
Standard
 70
     0
  3

 62
   256
 51
90.0
 52
90.0
 71
     2
 49
0.5
 62
   256
  6
BYLAYER
 49
-0.5
 62
   256
  6
BYLAYER
  0
ACDBPLACEHOLDER
  5
F
102
{ACAD_REACTORS
330
E
102
}
330
E
  0
TABLESTYLE
  5
2B
102
{ACAD_REACTORS
330
2A
102
}
330
2A
100
AcDbTableStyle
  3
Standard
 70
     0
 71
     0
 40
0.06
 41
0.06
280
     0
281
     0
  7
Standard
140
0.18
170
     2
 62
     0
 63
     7
283
     0
274
    -2
284
     1
 64
     0
275
    -2
285
     1
 65
     0
276
    -2
286
     1
 66
     0
277
    -2
287
     1
 67
     0
278
    -2
288
     1
 68
     0
279
    -2
289
     1
 69
     0
  7
Standard
140
0.25
170
     5
 62
     0
 63
     7
283
     0
274
    -2
284
     1
 64
     0
275
    -2
285
     1
 65
     0
276
    -2
286
     1
 66
     0
277
    -2
287
     1
 67
     0
278
    -2
288
     1
 68
     0
279
    -2
289
     1
 69
     0
  7
Standard
140
0.18
170
     5
 62
     0
 63
     7
283
     0
274
    -2
284
     1
 64
     0
275
    -2
285
     1
 65
     0
276
    -2
286
     1
 66
     0
277
    -2
287
     1
 67
     0
278
    -2
288
     1
 68
     0
279
    -2
289
     1
 69
     0
  0
DICTIONARYVAR
  5
2D
102
{ACAD_REACTORS
330
2C
102
}
330
2C
100
DictionaryVariables
280
     0
  1
Standard
  0
ENDSEC
  0
EOF
