  0
SECTION
  2
HEADER
  9
$ACADVER
  1
AC1015
  9
$ACADMAINTVER
 70
     6
  9
$DWGCODEPAGE
  3
DOS932
  9
$INSBASE
 10
0.0
 20
0.0
 30
0.0
  9
$EXTMIN
 10
0.0
 20
0.0
 30
0.0
  9
$EXTMAX
 10
210.0
 20
297.0
 30
0.0
  9
$LIMMIN
 10
0.0
 20
0.0
  9
$LIMMAX
 10
12.0
 20
9.0
  9
$ORTHOMODE
 70
     0
  9
$REGENMODE
 70
     1
  9
$FILLMODE
 70
     1
  9
$QTEXTMODE
 70
     0
  9
$MIRRTEXT
 70
     1
  9
$LTSCALE
 40
1.0
  9
$ATTMODE
 70
     1
  9
$TEXTSIZE
 40
0.2
  9
$TRACEWID
 40
0.05
  9
$TEXTSTYLE
  7
Standard
  9
$CLAYER
  8
0
  9
$CELTYPE
  6
ByLayer
  9
$CECOLOR
 62
   256
  9
$CELTSCALE
 40
1.0
  9
$DISPSILH
 70
     0
  9
$DIMSCALE
 40
1.0
  9
$DIMASZ
 40
0.18
  9
$DIMEXO
 40
0.0625
  9
$DIMDLI
 40
0.38
  9
$DIMRND
 40
0.0
  9
$DIMDLE
 40
0.0
  9
$DIMEXE
 40
0.18
  9
$DIMTP
 40
0.0
  9
$DIMTM
 40
0.0
  9
$DIMTXT
 40
0.18
  9
$DIMCEN
 40
0.09
  9
$DIMTSZ
 40
0.0
  9
$DIMTOL
 70
     0
  9
$DIMLIM
 70
     0
  9
$DIMTIH
 70
     1
  9
$DIMTOH
 70
     1
  9
$DIMSE1
 70
     0
  9
$DIMSE2
 70
     0
  9
$DIMTAD
 70
     0
  9
$DIMZIN
 70
     0
  9
$DIMBLK
  1

  9
$DIMASO
 70
     1
  9
$DIMSHO
 70
     1
  9
$DIMPOST
  1

  9
$DIMAPOST
  1

  9
$DIMALT
 70
     0
  9
$DIMALTD
 70
     2
  9
$DIMALTF
 40
25.4
  9
$DIMLFAC
 40
1.0
  9
$DIMTOFL
 70
     0
  9
$DIMTVP
 40
0.0
  9
$DIMTIX
 70
     0
  9
$DIMSOXD
 70
     0
  9
$DIMSAH
 70
     0
  9
$DIMBLK1
  1

  9
$DIMBLK2
  1

  9
$DIMSTYLE
  2
Standard
  9
$DIMCLRD
 70
     0
  9
$DIMCLRE
 70
     0
  9
$DIMCLRT
 70
     0
  9
$DIMTFAC
 40
1.0
  9
$DIMGAP
 40
0.09
  9
$DIMJUST
 70
     0
  9
$DIMSD1
 70
     0
  9
$DIMSD2
 70
     0
  9
$DIMTOLJ
 70
     1
  9
$DIMTZIN
 70
     0
  9
$DIMALTZ
 70
     0
  9
$DIMALTTZ
 70
     0
  9
$DIMUPT
 70
     0
  9
$DIMDEC
 70
     4
  9
$DIMTDEC
 70
     4
  9
$DIMALTU
 70
     2
  9
$DIMALTTD
 70
     2
  9
$DIMTXSTY
  7
Standard
  9
$DIMAUNIT
 70
     0
  9
$DIMADEC
 70
     0
  9
$DIMALTRND
 40
0.0
  9
$DIMAZIN
 70
     0
  9
$DIMDSEP
 70
    46
  9
$DIMATFIT
 70
     3
  9
$DIMFRAC
 70
     0
  9
$DIMLDRBLK
  1

  9
$DIMLUNIT
 70
     2
  9
$DIMLWD
 70
    -2
  9
$DIMLWE
 70
    -2
  9
$DIMTMOVE
 70
     0
  9
$LUNITS
 70
     2
  9
$LUPREC
 70
     4
  9
$SKETCHINC
 40
0.1
  9
$FILLETRAD
 40
0.5
  9
$AUNITS
 70
     0
  9
$AUPREC
 70
     0
  9
$MENU
  1
.
  9
$ELEVATION
 40
0.0
  9
$PELEVATION
 40
0.0
  9
$THICKNESS
 40
0.0
  9
$LIMCHECK
 70
     0
  9
$CHAMFERA
 40
0.5
  9
$CHAMFERB
 40
0.5
  9
$CHAMFERC
 40
1.0
  9
$CHAMFERD
 40
0.0
  9
$SKPOLY
 70
     0
  9
$TDCREATE
 40
2456135.68584309
  9
$TDUCREATE
 40
2456135.31084309
  9
$TDUPDATE
 40
2456135.685843102
  9
$TDUUPDATE
 40
2456135.310843102
  9
$TDINDWG
 40
0.0000000116
  9
$TDUSRTIMER
 40
0.0000000116
  9
$USRTIMER
 70
     1
  9
$ANGBASE
 50
0.0
  9
$ANGDIR
 70
     0
  9
$PDMODE
 70
     0
  9
$PDSIZE
 40
0.0
  9
$PLINEWID
 40
0.0
  9
$SPLFRAME
 70
     0
  9
$SPLINETYPE
 70
     6
  9
$SPLINESEGS
 70
     8
  9
$HANDSEED
  5
1DF
  9
$SURFTAB1
 70
     6
  9
$SURFTAB2
 70
     6
  9
$SURFTYPE
 70
     6
  9
$SURFU
 70
     6
  9
$SURFV
 70
     6
  9
$UCSBASE
  2

  9
$UCSNAME
  2

  9
$UCSORG
 10
0.0
 20
0.0
 30
0.0
  9
$UCSXDIR
 10
1.0
 20
0.0
 30
0.0
  9
$UCSYDIR
 10
0.0
 20
1.0
 30
0.0
  9
$UCSORTHOREF
  2

  9
$UCSORTHOVIEW
 70
     0
  9
$UCSORGTOP
 10
0.0
 20
0.0
 30
0.0
  9
$UCSORGBOTTOM
 10
0.0
 20
0.0
 30
0.0
  9
$UCSORGLEFT
 10
0.0
 20
0.0
 30
0.0
  9
$UCSORGRIGHT
 10
0.0
 20
0.0
 30
0.0
  9
$UCSORGFRONT
 10
0.0
 20
0.0
 30
0.0
  9
$UCSORGBACK
 10
0.0
 20
0.0
 30
0.0
  9
$PUCSBASE
  2

  9
$PUCSNAME
  2

  9
$PUCSORG
 10
0.0
 20
0.0
 30
0.0
  9
$PUCSXDIR
 10
1.0
 20
0.0
 30
0.0
  9
$PUCSYDIR
 10
0.0
 20
1.0
 30
0.0
  9
$PUCSORTHOREF
  2

  9
$PUCSORTHOVIEW
 70
     0
  9
$PUCSORGTOP
 10
0.0
 20
0.0
 30
0.0
  9
$PUCSORGBOTTOM
 10
0.0
 20
0.0
 30
0.0
  9
$PUCSORGLEFT
 10
0.0
 20
0.0
 30
0.0
  9
$PUCSORGRIGHT
 10
0.0
 20
0.0
 30
0.0
  9
$PUCSORGFRONT
 10
0.0
 20
0.0
 30
0.0
  9
$PUCSORGBACK
 10
0.0
 20
0.0
 30
0.0
  9
$USERI1
 70
     0
  9
$USERI2
 70
     0
  9
$USERI3
 70
     0
  9
$USERI4
 70
     0
  9
$USERI5
 70
     0
  9
$USERR1
 40
13.2
  9
$USERR2
 40
0.0
  9
$USERR3
 40
0.0
  9
$USERR4
 40
0.0
  9
$USERR5
 40
0.0
  9
$WORLDVIEW
 70
     1
  9
$SHADEDGE
 70
     3
  9
$SHADEDIF
 70
    70
  9
$TILEMODE
 70
     1
  9
$MAXACTVP
 70
    64
  9
$PINSBASE
 10
0.0
 20
0.0
 30
0.0
  9
$PLIMCHECK
 70
     0
  9
$PEXTMIN
 10
1.00000000000000E+20
 20
1.00000000000000E+20
 30
1.00000000000000E+20
  9
$PEXTMAX
 10
-1.00000000000000E+20
 20
-1.00000000000000E+20
 30
-1.00000000000000E+20
  9
$PLIMMIN
 10
0.0
 20
0.0
  9
$PLIMMAX
 10
12.0
 20
9.0
  9
$UNITMODE
 70
     0
  9
$VISRETAIN
 70
     1
  9
$PLINEGEN
 70
     0
  9
$PSLTSCALE
 70
     1
  9
$TREEDEPTH
 70
  3020
  9
$CMLSTYLE
  2
Standard
  9
$CMLJUST
 70
     0
  9
$CMLSCALE
 40
1.0
  9
$PROXYGRAPHICS
 70
     1
  9
$MEASUREMENT
 70
     1
  9
$CELWEIGHT
370
    -1
  9
$ENDCAPS
280
     0
  9
$JOINSTYLE
280
     0
  9
$LWDISPLAY
290
     0
  9
$INSUNITS
 70
     1
  9
$HYPERLINKBASE
  1

  9
$STYLESHEET
  1

  9
$XEDIT
290
     1
  9
$CEPSNTYPE
380
     0
  9
$PSTYLEMODE
290
     0
  9
$FINGERPRINTGUID
  2
{FAEB1C30-E019-11D5-929B-00C0DF256EC4}
  9
$VERSIONGUID
  2
{FAEB1C32-E019-11D5-929B-00C0DF256EC4}
  9
$EXTNAMES
290
     1
  9
$PSVPSCALE
 40
0.0
  9
$OLESTARTUP
290
     0
  0
ENDSEC
  0
SECTION
  2
CLASSES
  0
CLASS
  1
ACDBDICTIONARYWDFLT
  2
AcDbDictionaryWithDefault
  3
ObjectDBX Classes
 90
        0
280
     0
281
     0
  0
CLASS
  1
TABLESTYLE
  2
AcDbTableStyle
  3
ObjectDBX Classes
 90
     2047
280
     0
281
     0
  0
CLASS
  1
DICTIONARYVAR
  2
AcDbDictionaryVar
  3
ObjectDBX Classes
 90
        0
280
     0
281
     0
  0
CLASS
  1

  2
exOdDbSpline
  3

 90
        0
280
     0
281
     1
  0
CLASS
  1

  2
exOdDbCircle
  3

 90
        0
280
     0
281
     1
  0
CLASS
  1
ACDBPLACEHOLDER
  2
AcDbPlaceHolder
  3
ObjectDBX Classes
 90
        0
280
     0
281
     0
  0
CLASS
  1
LAYOUT
  2
AcDbLayout
  3
ObjectDBX Classes
 90
        0
280
     0
281
     0
  0
ENDSEC
  0
SECTION
  2
TABLES
  0
TABLE
  2
VPORT
  5
8
330
0
100
AcDbSymbolTable
 70
     2
  0
VPORT
  5
29
330
8
100
AcDbSymbolTableRecord
100
AcDbViewportTableRecord
  2
*Active
 70
     0
 10
0.0
 20
0.0
 11
1.0
 21
1.0
 12
105.0
 22
148.5
 13
0.0
 23
0.0
 14
0.5
 24
0.5
 15
0.5
 25
0.5
 16
0.0
 26
0.0
 36
1.0
 17
0.0
 27
0.0
 37
0.0
 40
326.7000000000001
 41
1.60267857142857
 42
50.0
 43
0.0
 44
0.0
 50
0.0
 51
0.0
 71
     0
 72
   100
 73
     1
 74
     3
 75
     0
 76
     0
 77
     0
 78
     0
281
     0
 65
     1
110
0.0
120
0.0
130
0.0
111
1.0
121
0.0
131
0.0
112
0.0
122
1.0
132
0.0
 79
     0
146
0.0
  0
ENDTAB
  0
TABLE
  2
LTYPE
  5
5
330
0
100
AcDbSymbolTable
 70
     8
  0
LTYPE
  5
14
330
5
100
AcDbSymbolTableRecord
100
AcDbLinetypeTableRecord
  2
ByBlock
 70
     0
  3

 72
    65
 73
     0
 40
0.0
  0
LTYPE
  5
15
330
5
100
AcDbSymbolTableRecord
100
AcDbLinetypeTableRecord
  2
ByLayer
 70
     0
  3

 72
    65
 73
     0
 40
0.0
  0
LTYPE
  5
16
330
5
100
AcDbSymbolTableRecord
100
AcDbLinetypeTableRecord
  2
Continuous
 70
     0
  3
Solid line
 72
    65
 73
     0
 40
0.0
  0
LTYPE
  5
2E
330
5
100
AcDbSymbolTableRecord
100
AcDbLinetypeTableRecord
  2
DASHED
 70
     0
  3
Dashed
 72
    65
 73
     2
 40
15.0
 49
7.0
 74
     0
 49
-8.0
 74
     0
  0
LTYPE
  5
2F
330
5
100
AcDbSymbolTableRecord
100
AcDbLinetypeTableRecord
  2
DOTTED
 70
     0
  3
Dotted
 72
    65
 73
     2
 40
1.0
 49
0.0
 74
     0
 49
-1.0
 74
     0
  0
LTYPE
  5
30
330
5
100
AcDbSymbolTableRecord
100
AcDbLinetypeTableRecord
  2
DOT_CENTER
 70
     0
  3
Dot_Center
 72
    65
 73
     4
 40
14.0
 49
12.0
 74
     0
 49
-1.0
 74
     0
 49
0.0
 74
     0
 49
-1.0
 74
     0
  0
LTYPE
  5
31
330
5
100
AcDbSymbolTableRecord
100
AcDbLinetypeTableRecord
  2
LONG_DASHED
 70
     0
  3
Long_Dashed
 72
    65
 73
     2
 40
15.0
 49
10.0
 74
     0
 49
-5.0
 74
     0
  0
LTYPE
  5
32
330
5
100
AcDbSymbolTableRecord
100
AcDbLinetypeTableRecord
  2
DASH_CENTER
 70
     0
  3
Dash_Center
 72
    65
 73
     4
 40
14.0
 49
11.0
 74
     0
 49
-1.0
 74
     0
 49
1.0
 74
     0
 49
-1.0
 74
     0
  0
LTYPE
  5
33
330
5
100
AcDbSymbolTableRecord
100
AcDbLinetypeTableRecord
  2
PHANTOM
 70
     0
  3
Phantom
 72
    65
 73
     6
 40
13.0
 49
10.0
 74
     0
 49
-1.0
 74
     0
 49
0.0
 74
     0
 49
-1.0
 74
     0
 49
0.0
 74
     0
 49
-1.0
 74
     0
  0
LTYPE
  5
34
330
5
100
AcDbSymbolTableRecord
100
AcDbLinetypeTableRecord
  2
CENTER_DASH_DASH
 70
     0
  3
Center_Dash_Dash
 72
    65
 73
     6
 40
14.0
 49
9.0
 74
     0
 49
-1.0
 74
     0
 49
1.0
 74
     0
 49
-1.0
 74
     0
 49
1.0
 74
     0
 49
-1.0
 74
     0
  0
ENDTAB
  0
TABLE
  2
LAYER
  5
2
330
0
100
AcDbSymbolTable
 70
     2
  0
LAYER
  5
10
330
2
100
AcDbSymbolTableRecord
100
AcDbLayerTableRecord
  2
0
 70
     0
 62
     7
  6
Continuous
370
    -3
390
F
  0
LAYER
  5
35
330
2
100
AcDbSymbolTableRecord
100
AcDbLayerTableRecord
  2
1
 70
     0
 62
     7
  6
Continuous
370
    -3
390
F
  0
ENDTAB
  0
TABLE
  2
STYLE
  5
3
330
0
100
AcDbSymbolTable
 70
     3
  0
STYLE
  5
11
330
3
100
AcDbSymbolTableRecord
100
AcDbTextStyleTableRecord
  2
Standard
 70
     0
 40
0.0
 41
1.0
 50
0.0
 71
     0
 42
0.2
  3
txt
  4

  0
STYLE
  5
184
330
3
100
AcDbSymbolTableRecord
100
AcDbTextStyleTableRecord
  2
CONVERTER_1
 70
     0
 40
0.0
 41
0.89
 50
0.0
 71
     0
 42
0.2
  3
msmincho.ttc
  4

1001
ACAD
1000
MS Mincho
1071
    32785
  0
STYLE
  5
1AA
330
3
100
AcDbSymbolTableRecord
100
AcDbTextStyleTableRecord
  2
CONVERTER_2
 70
     0
 40
0.0
 41
0.9
 50
0.0
 71
     0
 42
0.2
  3
txt.shx
  4

  0
ENDTAB
  0
TABLE
  2
VIEW
  5
6
330
0
100
AcDbSymbolTable
 70
     0
  0
ENDTAB
  0
TABLE
  2
UCS
  5
7
330
0
100
AcDbSymbolTable
 70
     0
  0
ENDTAB
  0
TABLE
  2
APPID
  5
9
330
0
100
AcDbSymbolTable
 70
     1
  0
APPID
  5
12
330
9
100
AcDbSymbolTableRecord
100
AcDbRegAppTableRecord
  2
ACAD
 70
     0
  0
ENDTAB
  0
TABLE
  2
DIMSTYLE
  5
A
330
0
100
AcDbSymbolTable
 70
     5
100
AcDbDimStyleTable
  0
DIMSTYLE
105
27
330
A
100
AcDbSymbolTableRecord
100
AcDbDimStyleTableRecord
  2
Standard
 70
     0
340
11
  0
DIMSTYLE
105
1BC
102
{ACAD_REACTORS
330
1BD
102
}
330
A
100
AcDbSymbolTableRecord
100
AcDbDimStyleTableRecord
  2
ME10_DIM_0
 70
     0
 41
3.5
 42
0.0
 44
1.0
 73
     0
 74
     0
 77
     1
 78
     8
140
3.5
147
0.625
172
     1
173
     1
176
     2
177
     2
178
     7
271
     2
340
184
  0
DIMSTYLE
105
1C7
102
{ACAD_REACTORS
330
1C8
102
}
330
A
100
AcDbSymbolTableRecord
100
AcDbDimStyleTableRecord
  2
ME10_DIM_1
 70
     0
 41
3.5
 42
0.0
 44
1.0
 73
     0
 74
     0
 77
     1
 78
     8
140
3.5
147
0.625
172
     1
173
     1
176
     2
177
     2
178
     7
271
     2
340
1AA
  0
DIMSTYLE
105
1D2
102
{ACAD_REACTORS
330
1D3
102
}
330
A
100
AcDbSymbolTableRecord
100
AcDbDimStyleTableRecord
  2
ME10_DIM_2
 70
     0
 41
3.5
 42
0.0
 44
1.0
 73
     0
 74
     0
 77
     1
 78
     8
140
3.5
147
0.625
172
     1
173
     1
176
     2
177
     2
178
     7
271
     2
340
1AA
  0
DIMSTYLE
105
1DD
102
{ACAD_REACTORS
330
1DE
102
}
330
A
100
AcDbSymbolTableRecord
100
AcDbDimStyleTableRecord
  2
ME10_DIM_3
 70
     0
 41
3.5
 42
0.0
 44
1.0
 73
     0
 74
     0
 77
     1
 78
     8
140
3.5
147
0.625
172
     1
173
     1
176
     2
177
     2
178
     7
271
     2
340
1AA
  0
ENDTAB
  0
TABLE
  2
BLOCK_RECORD
  5
1
330
0
100
AcDbSymbolTable
 70
    14
  0
BLOCK_RECORD
  5
1F
330
1
100
AcDbSymbolTableRecord
100
AcDbBlockTableRecord
  2
*Model_Space
340
22
  0
BLOCK_RECORD
  5
1B
330
1
100
AcDbSymbolTableRecord
100
AcDbBlockTableRecord
  2
*Paper_Space
340
1E
  0
BLOCK_RECORD
  5
23
330
1
100
AcDbSymbolTableRecord
100
AcDbBlockTableRecord
  2
*Paper_Space0
340
26
  0
BLOCK_RECORD
  5
36
330
1
100
AcDbSymbolTableRecord
100
AcDbBlockTableRecord
  2
36-54A
340
0
102
{BLKREFS
331
51
102
}
  0
BLOCK_RECORD
  5
39
330
1
100
AcDbSymbolTableRecord
100
AcDbBlockTableRecord
  2
21-1C
340
0
102
{BLKREFS
331
52
102
}
  0
BLOCK_RECORD
  5
3C
330
1
100
AcDbSymbolTableRecord
100
AcDbBlockTableRecord
  2
91-1
340
0
102
{BLKREFS
331
53
102
}
  0
BLOCK_RECORD
  5
3F
330
1
100
AcDbSymbolTableRecord
100
AcDbBlockTableRecord
  2
42-15
340
0
102
{BLKREFS
331
54
102
}
  0
BLOCK_RECORD
  5
42
330
1
100
AcDbSymbolTableRecord
100
AcDbBlockTableRecord
  2
V26-0
340
0
102
{BLKREFS
331
55
102
}
  0
BLOCK_RECORD
  5
45
330
1
100
AcDbSymbolTableRecord
100
AcDbBlockTableRecord
  2
37-1-13
340
0
102
{BLKREFS
331
56
102
}
  0
BLOCK_RECORD
  5
48
330
1
100
AcDbSymbolTableRecord
100
AcDbBlockTableRecord
  2
35-22
340
0
102
{BLKREFS
331
57
102
}
  0
BLOCK_RECORD
  5
4B
330
1
100
AcDbSymbolTableRecord
100
AcDbBlockTableRecord
  2
32-26
340
0
102
{BLKREFS
331
58
102
}
  0
BLOCK_RECORD
  5
4E
330
1
100
AcDbSymbolTableRecord
100
AcDbBlockTableRecord
  2
_J__A4
340
0
102
{BLKREFS
331
59
102
}
  0
BLOCK_RECORD
  5
1B3
330
1
100
AcDbSymbolTableRecord
100
AcDbBlockTableRecord
  2
*D010
340
0
  0
BLOCK_RECORD
  5
1BE
330
1
100
AcDbSymbolTableRecord
100
AcDbBlockTableRecord
  2
*D111
340
0
  0
BLOCK_RECORD
  5
1C9
330
1
100
AcDbSymbolTableRecord
100
AcDbBlockTableRecord
  2
*D212
340
0
  0
BLOCK_RECORD
  5
1D4
330
1
100
AcDbSymbolTableRecord
100
AcDbBlockTableRecord
  2
*D313
340
0
  0
ENDTAB
  0
ENDSEC
  0
SECTION
  2
BLOCKS
  0
BLOCK
  5
20
330
1F
100
AcDbEntity
  8
0
100
AcDbBlockBegin
  2
*Model_Space
 70
     0
 71
     0
 10
0.0
 20
0.0
 30
0.0
  3
*Model_Space
  1

  0
ENDBLK
  5
21
330
1F
100
AcDbEntity
  8
0
100
AcDbBlockEnd
  0
BLOCK
  5
1C
330
1B
100
AcDbEntity
 67
     1
  8
0
100
AcDbBlockBegin
  2
*Paper_Space
 70
     0
 71
     0
 10
0.0
 20
0.0
 30
0.0
  3
*Paper_Space
  1

  0
ENDBLK
  5
1D
330
1B
100
AcDbEntity
 67
     1
  8
0
100
AcDbBlockEnd
  0
BLOCK
  5
24
330
23
100
AcDbEntity
  8
0
100
AcDbBlockBegin
  2
*Paper_Space0
 70
     0
 71
     0
 10
0.0
 20
0.0
 30
0.0
  3
*Paper_Space0
  1

  0
ENDBLK
  5
25
330
23
100
AcDbEntity
  8
0
100
AcDbBlockEnd
  0
BLOCK
  5
37
330
36
100
AcDbEntity
  8
0
100
AcDbBlockBegin
  2
36-54A
 70
     0
 71
     0
 10
72.45350685941585
 20
86.09819213030013
 30
0.0
  3
36-54A
  1

  0
LINE
  5
5A
330
36
100
AcDbEntity
  8
1
  6
Continuous
 62
     7
100
AcDbLine
 10
65.27138566197698
 20
132.4119546937802
 30
0.0
 11
65.27138566197698
 21
129.4119546937802
 31
0.0
  0
LINE
  5
5B
330
36
100
AcDbEntity
  8
1
  6
Continuous
 62
     7
100
AcDbLine
 10
55.77138566197698
 20
129.4119546937802
 30
0.0
 11
55.77138566197698
 21
132.4119546937802
 31
0.0
  0
LINE
  5
5C
330
36
100
AcDbEntity
  8
1
  6
Continuous
 62
     7
100
AcDbLine
 10
144.271385661977
 20
132.4119546937802
 30
0.0
 11
144.271385661977
 21
129.3416459819651
 31
0.0
  0
LINE
  5
5D
330
36
100
AcDbEntity
  8
1
  6
Continuous
 62
     7
100
AcDbLine
 10
134.771385661977
 20
129.3416459819651
 30
0.0
 11
134.771385661977
 21
132.4119546937802
 31
0.0
  0
ENDBLK
  5
38
330
36
100
AcDbEntity
  8
0
100
AcDbBlockEnd
  0
BLOCK
  5
3A
330
39
100
AcDbEntity
  8
0
100
AcDbBlockBegin
  2
21-1C
 70
     0
 71
     0
 10
645.7045622872012
 20
104.2064304804839
 30
0.0
  3
21-1C
  1

  0
LINE
  5
5E
330
39
100
AcDbEntity
  8
1
  6
Continuous
 62
     7
100
AcDbLine
 10
66.31694061971126
 20
172.3344593553399
 30
0.0
 11
69.96834983118185
 21
185.9617040517726
 31
0.0
  0
LINE
  5
5F
330
39
100
AcDbEntity
  8
1
  6
Continuous
 62
     7
100
AcDbLine
 10
86.4146614437072
 20
207.1447329388357
 30
0.0
 11
76.43882595874487
 21
197.1688974538733
 31
0.0
  0
LINE
  5
60
330
39
100
AcDbEntity
  8
1
  6
Continuous
 62
     7
100
AcDbLine
 10
81.37961138859322
 20
217.3867052581865
 30
0.0
 11
66.99186178953994
 21
213.5315193722189
 31
0.0
  0
LINE
  5
61
330
39
100
AcDbEntity
  8
1
  6
Continuous
 62
     7
100
AcDbLine
 10
40.42366483798116
 20
217.1829285836893
 30
0.0
 11
54.05090953441396
 21
213.5315193722189
 31
0.0
  0
LINE
  5
62
330
39
100
AcDbEntity
  8
1
  6
Continuous
 62
     7
100
AcDbLine
 10
34.62810988024665
 20
207.1447329388357
 30
0.0
 11
44.60394536520903
 21
197.1688974538733
 31
0.0
  0
LINE
  5
63
330
39
100
AcDbEntity
  8
1
  6
Continuous
 62
     7
100
AcDbLine
 10
54.72583070424255
 20
172.3344593553399
 30
0.0
 11
51.07442149277205
 21
185.9617040517727
 31
0.0
  0
LINE
  5
64
330
39
100
AcDbEntity
  8
0
  6
Continuous
 62
     7
100
AcDbLine
 10
54.72583070424258
 20
132.4119546937802
 30
0.0
 11
66.31694061971137
 21
132.4119546937802
 31
0.0
  0
LINE
  5
65
330
39
100
AcDbEntity
  8
0
  6
Continuous
 62
     7
100
AcDbLine
 10
66.31694061971137
 20
132.4119546937802
 30
0.0
 11
88.1720207565879
 21
132.4119546937802
 31
0.0
  0
LINE
  5
66
330
39
100
AcDbEntity
  8
0
  6
Continuous
 62
     7
100
AcDbLine
 10
32.87075056736597
 20
132.4119546937802
 30
0.0
 11
54.72583070424258
 21
132.4119546937802
 31
0.0
  0
LINE
  5
67
330
39
100
AcDbEntity
  8
1
  6
Continuous
 62
     7
100
AcDbLine
 10
109.0965698655875
 20
132.4119546937802
 30
0.0
 11
157.4461599499027
 21
132.4119546937802
 31
0.0
  0
LINE
  5
68
330
39
100
AcDbEntity
  8
1
  6
Continuous
 62
     7
100
AcDbLine
 10
157.3240715163282
 20
137.3710312995238
 30
0.0
 11
157.9412890103358
 21
132.9815766264928
 31
0.0
  0
LINE
  5
69
330
39
100
AcDbEntity
  8
1
  6
Continuous
 62
     7
100
AcDbLine
 10
109.0533439302091
 20
136.1970344491309
 30
0.0
 11
108.6014358312167
 21
132.9815412442602
 31
0.0
  0
ARC
  5
6A
330
39
100
AcDbEntity
  8
1
  6
Continuous
 62
     7
100
AcDbCircle
 10
60.52138566197695
 20
173.887373625955
 30
0.0
 40
6.0
100
AcDbArc
 50
-90.00000000000075
 51
-15.00000000000006
  0
ARC
  5
6B
330
39
100
AcDbEntity
  8
1
  6
Continuous
 62
     7
100
AcDbCircle
 10
82.17202075658787
 20
211.387373625955
 30
0.0
 40
6.000000000000059
100
AcDbArc
 50
-44.99999999999991
 51
97.52424107894063
  0
ARC
  5
6C
330
39
100
AcDbEntity
  8
1
  6
Continuous
 62
     7
100
AcDbCircle
 10
38.87075056736597
 20
211.387373625955
 30
0.0
 40
5.999999999999894
100
AcDbArc
 50
74.99999999999909
 51
-135.0
  0
ARC
  5
6D
330
39
100
AcDbEntity
  8
1
  6
Continuous
 62
     7
100
AcDbCircle
 10
60.52138566197695
 20
173.887373625955
 30
0.0
 40
5.999999999999989
100
AcDbArc
 50
-165.0000000000002
 51
-90.00000000000075
  0
ARC
  5
6E
330
39
100
AcDbEntity
  8
1
  6
Continuous
 62
     7
100
AcDbCircle
 10
139.8855813272237
 20
68.50013368508098
 30
0.0
 40
75.0
100
AcDbArc
 50
80.40850751733488
 51
87.22136103403736
  0
ARC
  5
6F
330
39
100
AcDbEntity
  8
1
  6
Continuous
 62
     7
100
AcDbCircle
 10
139.521385661977
 20
-6.58804530621983
 30
0.0
 40
150.0533238552216
100
AcDbArc
 50
91.52752544221293
 51
99.80290179376779
  0
SPLINE
  5
70
330
39
100
AcDbEntity
  8
0
  6
Continuous
 62
     7
100
AcDbSpline
210
0.0
220
0.0
230
1.0
 70
     8
 71
     3
 72
    27
 73
    23
 74
    21
 42
0.0000000001
 43
0.0000000001
 44
0.00000001
 40
0.0
 40
0.0
 40
0.0
 40
0.0
 40
4.618703466769583
 40
9.231168896019057
 40
14.167794317717
 40
19.11374070589851
 40
19.52821633537996
 40
19.9414421791713
 40
20.35867862982672
 40
20.77691960428458
 40
21.19949484665452
 40
21.62164873558747
 40
22.04927938356246
 40
22.47707343152678
 40
23.01006105023051
 40
23.54331038460049
 40
23.88091939119894
 40
24.21795787389944
 40
24.65811335193131
 40
25.09931766019802
 40
27.47512396338997
 40
29.84763483709666
 40
29.84763483709666
 40
29.84763483709666
 40
29.84763483709666
 10
56.52138566197698
 20
143.4119546937802
 30
0.0
 10
54.98265469568375
 20
143.3614075275695
 30
0.0
 10
51.90727097867671
 20
143.2603814643327
 30
0.0
 10
47.19298157850943
 20
142.9412128185531
 30
0.0
 10
42.40395481162195
 20
142.2674511893078
 30
0.0
 10
39.04295665536125
 20
141.5584449448901
 30
0.0
 10
37.17412506440937
 20
141.0986848359271
 30
0.0
 10
36.77725783433341
 20
140.9752872562619
 30
0.0
 10
36.3959876790568
 20
140.8059969256392
 30
0.0
 10
36.03101615784632
 20
140.5984061855167
 30
0.0
 10
35.68352392502418
 20
140.3598522885175
 30
0.0
 10
35.35560360960527
 20
140.0900085241084
 30
0.0
 10
35.05186154208148
 20
139.7907034558127
 30
0.0
 10
34.75161794818126
 20
139.4377613502646
 30
0.0
 10
34.46674724018186
 20
139.028121729269
 30
0.0
 10
34.23962988907104
 20
138.6180795391737
 30
0.0
 10
34.07281877553079
 20
138.2513666480424
 30
0.0
 10
33.94302767592323
 20
137.902735320556
 30
0.0
 10
33.83711326693801
 20
137.5101182275604
 30
0.0
 10
33.61254618662808
 20
136.4478614035987
 30
0.0
 10
33.28487985513647
 20
134.7491537691679
 30
0.0
 10
33.00872977868428
 20
133.1906605101498
 30
0.0
 10
32.87075056736597
 20
132.4119546937802
 30
0.0
 11
56.52138566197698
 21
143.4119546937802
 31
0.0
 11
51.90612928732622
 21
143.2335441834538
 31
0.0
 11
47.30609405441459
 21
142.8951462047466
 31
0.0
 11
42.41686556591228
 21
142.212712807724
 31
0.0
 11
37.57628386528506
 21
141.1972550418279
 31
0.0
 11
37.17473716203978
 21
141.0945404248209
 31
0.0
 11
36.7813022649425
 21
140.9681894069259
 31
0.0
 11
36.39946669751754
 21
140.7999994690437
 31
0.0
 11
36.0353878320409
 21
140.5941546429521
 31
0.0
 11
35.68708894446338
 21
140.3548687880081
 31
0.0
 11
35.36120479917327
 21
140.0865156069393
 31
0.0
 11
35.05649625414515
 21
139.7864811527938
 31
0.0
 11
34.77923787663997
 21
139.4606966541189
 31
0.0
 11
34.47449434108237
 21
139.0234242227591
 31
0.0
 11
34.21571139178354
 21
138.5571772519826
 31
0.0
 11
34.0764019714232
 21
138.2496504617102
 31
0.0
 11
33.95934422250264
 21
137.9335928368398
 31
0.0
 11
33.84115753795933
 21
137.5096013835791
 31
0.0
 11
33.74632954469325
 21
137.0787082491174
 31
0.0
 11
33.29059464931083
 21
134.7470218861137
 31
0.0
 11
32.87075056736597
 21
132.4119546937802
 31
0.0
  0
SPLINE
  5
71
330
39
100
AcDbEntity
  8
0
  6
Continuous
 62
     7
100
AcDbSpline
210
0.0
220
0.0
230
1.0
 70
     8
 71
     3
 72
    27
 73
    23
 74
    21
 42
0.0000000001
 43
0.0000000001
 44
0.00000001
 40
0.0
 40
0.0
 40
0.0
 40
0.0
 40
4.618703466769555
 40
9.231168896019
 40
14.16779431771696
 40
19.11374070589851
 40
19.52821633537996
 40
19.9414421791713
 40
20.35867862982672
 40
20.77691960428458
 40
21.19949484665453
 40
21.62164873558748
 40
22.04927938356245
 40
22.47707343152679
 40
23.01006105023052
 40
23.54331038460049
 40
23.88091939119894
 40
24.21795787389944
 40
24.65811335193131
 40
25.09931766019803
 40
27.47512396338997
 40
29.84763483709665
 40
29.84763483709665
 40
29.84763483709665
 40
29.84763483709665
 10
64.52138566197698
 20
143.4119546937802
 30
0.0
 10
66.06011662827019
 20
143.3614075275695
 30
0.0
 10
69.13550034527724
 20
143.2603814643327
 30
0.0
 10
73.84978974544451
 20
142.9412128185532
 30
0.0
 10
78.63881651233197
 20
142.2674511893077
 30
0.0
 10
81.99981466859271
 20
141.5584449448902
 30
0.0
 10
83.86864625954459
 20
141.0986848359271
 30
0.0
 10
84.26551348962056
 20
140.9752872562619
 30
0.0
 10
84.64678364489717
 20
140.8059969256393
 30
0.0
 10
85.01175516610763
 20
140.5984061855167
 30
0.0
 10
85.35924739892982
 20
140.3598522885176
 30
0.0
 10
85.68716771434865
 20
140.0900085241083
 30
0.0
 10
85.99090978187253
 20
139.7907034558127
 30
0.0
 10
86.29115337577269
 20
139.4377613502646
 30
0.0
 10
86.57602408377211
 20
139.028121729269
 30
0.0
 10
86.8031414348829
 20
138.6180795391737
 30
0.0
 10
86.96995254842315
 20
138.2513666480424
 30
0.0
 10
87.09974364803071
 20
137.902735320556
 30
0.0
 10
87.20565805701594
 20
137.5101182275603
 30
0.0
 10
87.43022513732588
 20
136.4478614035988
 30
0.0
 10
87.75789146881746
 20
134.7491537691678
 30
0.0
 10
88.0340415452696
 20
133.1906605101498
 30
0.0
 10
88.1720207565879
 20
132.4119546937802
 30
0.0
 11
64.52138566197698
 21
143.4119546937802
 31
0.0
 11
69.13664203662771
 21
143.2335441834538
 31
0.0
 11
73.73667726953931
 21
142.8951462047466
 31
0.0
 11
78.62590575804164
 21
142.212712807724
 31
0.0
 11
83.46648745866889
 21
141.1972550418279
 31
0.0
 11
83.86803416191418
 21
141.0945404248209
 31
0.0
 11
84.26146905901146
 21
140.9681894069259
 31
0.0
 11
84.64330462643642
 21
140.7999994690437
 31
0.0
 11
85.00738349191306
 21
140.5941546429521
 31
0.0
 11
85.35568237949059
 21
140.3548687880081
 31
0.0
 11
85.68156652478069
 21
140.0865156069393
 31
0.0
 11
85.98627506980881
 21
139.7864811527939
 31
0.0
 11
86.263533447314
 21
139.4606966541189
 31
0.0
 11
86.5682769828716
 21
139.0234242227591
 31
0.0
 11
86.8270599321704
 21
138.5571772519826
 31
0.0
 11
86.96636935253073
 21
138.2496504617102
 31
0.0
 11
87.08342710145131
 21
137.9335928368398
 31
0.0
 11
87.20161378599462
 21
137.5096013835791
 31
0.0
 11
87.2964417792607
 21
137.0787082491174
 31
0.0
 11
87.7521766746431
 21
134.7470218861137
 31
0.0
 11
88.1720207565879
 21
132.4119546937802
 31
0.0
  0
ARC
  5
72
330
39
100
AcDbEntity
  8
1
  6
Continuous
 62
     7
100
AcDbCircle
 10
94.1164954884086
 20
179.4912279242096
 30
0.0
 40
25.00000000000005
100
AcDbArc
 50
135.0
 51
165.0
  0
ARC
  5
73
330
39
100
AcDbEntity
  8
1
  6
Continuous
 62
     7
100
AcDbCircle
 10
60.52138566197687
 20
237.6796650294456
 30
0.0
 40
24.99999999999997
100
AcDbArc
 50
-104.9999999999998
 51
-74.99999999999989
  0
ARC
  5
74
330
39
100
AcDbEntity
  8
1
  6
Continuous
 62
     7
100
AcDbCircle
 10
26.92627583554537
 20
179.4912279242096
 30
0.0
 40
25.0
100
AcDbArc
 50
15.0000000000002
 51
45.00000000000009
  0
ARC
  5
75
330
39
100
AcDbEntity
  8
1
  6
Continuous
 62
     7
100
AcDbCircle
 10
157.4461599499027
 20
132.9119546937802
 30
0.0
 40
0.5
100
AcDbArc
 50
-90.0
 51
8.00409437169984
  0
ARC
  5
76
330
39
100
AcDbEntity
  8
1
  6
Continuous
 62
     7
100
AcDbCircle
 10
109.0965698655875
 20
132.9119546937802
 30
0.0
 40
0.5000000000000043
100
AcDbArc
 50
172.0000000000026
 51
-90.0
  0
ARC
  5
77
330
39
100
AcDbEntity
  8
1
  6
Continuous
 62
     7
100
AcDbCircle
 10
151.382522791131
 20
136.5355681069724
 30
0.0
 40
6.000000000000035
100
AcDbArc
 50
8.00409437170095
 51
80.4085075173346
  0
ARC
  5
78
330
39
100
AcDbEntity
  8
1
  6
Continuous
 62
     7
100
AcDbCircle
 10
114.9949523426585
 20
135.3619958433705
 30
0.0
 40
6.000000000000019
100
AcDbArc
 50
99.8029017937678
 51
171.9999999999997
  0
ENDBLK
  5
3B
330
39
100
AcDbEntity
  8
0
100
AcDbBlockEnd
  0
BLOCK
  5
3D
330
3C
100
AcDbEntity
  8
0
100
AcDbBlockBegin
  2
91-1
 70
     0
 71
     0
 10
-214.4259363055567
 20
63.55125275180527
 30
0.0
  3
91-1
  1

  0
LINE
  5
79
330
3C
100
AcDbEntity
  8
1
  6
Continuous
 62
     7
100
AcDbLine
 10
64.67469759343601
 20
94.91195469378017
 30
0.0
 11
56.36807373051801
 21
94.91195469378017
 31
0.0
  0
LINE
  5
7A
330
3C
100
AcDbEntity
  8
1
  6
Continuous
 62
     7
100
AcDbLine
 10
54.3367272235505
 20
91.91195469378017
 30
0.0
 11
66.7060441004034
 21
91.91195469378017
 31
0.0
  0
ENDBLK
  5
3E
330
3C
100
AcDbEntity
  8
0
100
AcDbBlockEnd
  0
BLOCK
  5
40
330
3F
100
AcDbEntity
  8
0
100
AcDbBlockBegin
  2
42-15
 70
     0
 71
     0
 10
454.1003931845314
 20
434.2830739804692
 30
0.0
  3
42-15
  1

  0
LINE
  5
7B
330
3F
100
AcDbEntity
  8
1
  6
Continuous
 62
     7
100
AcDbLine
 10
146.521385661977
 20
146.2119546937802
 30
0.0
 11
132.521385661977
 21
146.2119546937802
 31
0.0
  0
LINE
  5
7C
330
3F
100
AcDbEntity
  8
1
  6
Continuous
 62
     2
100
AcDbLine
 10
138.521385661977
 20
145.4542927959515
 30
0.0
 11
138.521385661977
 21
144.3890537053409
 31
0.0
  0
LINE
  5
7D
330
3F
100
AcDbEntity
  8
1
  6
Continuous
 62
     2
100
AcDbLine
 10
137.521385661977
 20
145.6976080056842
 30
0.0
 11
137.521385661977
 21
144.129517481626
 31
0.0
  0
LINE
  5
7E
330
3F
100
AcDbEntity
  8
1
  6
Continuous
 62
     2
100
AcDbLine
 10
136.521385661977
 20
145.9084811874524
 30
0.0
 11
136.521385661977
 21
143.7726551740179
 31
0.0
  0
LINE
  5
7F
330
3F
100
AcDbEntity
  8
1
  6
Continuous
 62
     2
100
AcDbLine
 10
135.521385661977
 20
146.0220282853279
 30
0.0
 11
135.521385661977
 21
143.5780030062317
 31
0.0
  0
LINE
  5
80
330
3F
100
AcDbEntity
  8
1
  6
Continuous
 62
     2
100
AcDbLine
 10
134.521385661977
 20
146.2119546937802
 30
0.0
 11
134.521385661977
 21
143.4119546937802
 31
0.0
  0
LINE
  5
81
330
3F
100
AcDbEntity
  8
1
  6
Continuous
 62
     2
100
AcDbLine
 10
133.521385661977
 20
146.2119546937802
 30
0.0
 11
133.521385661977
 21
143.4119546937802
 31
0.0
  0
LINE
  5
82
330
3F
100
AcDbEntity
  8
1
  6
Continuous
 62
     7
100
AcDbLine
 10
132.521385661977
 20
146.2119546937802
 30
0.0
 11
133.5213856619769
 21
146.4812768928034
 31
0.0
  0
LINE
  5
83
330
3F
100
AcDbEntity
  8
1
  6
Continuous
 62
     7
100
AcDbLine
 10
132.521385661977
 20
143.4119546937802
 30
0.0
 11
132.521385661977
 21
146.2119546937802
 31
0.0
  0
LINE
  5
84
330
3F
100
AcDbEntity
  8
1
  6
Continuous
 62
     2
100
AcDbLine
 10
133.021385661977
 20
146.2119546937802
 30
0.0
 11
133.021385661977
 21
143.4119546937802
 31
0.0
  0
LINE
  5
85
330
3F
100
AcDbEntity
  8
1
  6
Continuous
 62
     2
100
AcDbLine
 10
134.021385661977
 20
146.2119546937802
 30
0.0
 11
134.021385661977
 21
143.4119546937802
 31
0.0
  0
LINE
  5
86
330
3F
100
AcDbEntity
  8
1
  6
Continuous
 62
     7
100
AcDbLine
 10
132.521385661977
 20
143.4119546937802
 30
0.0
 11
146.521385661977
 21
143.4119546937802
 31
0.0
  0
LINE
  5
87
330
3F
100
AcDbEntity
  8
1
  6
Continuous
 62
     2
100
AcDbLine
 10
135.021385661977
 20
146.0675424587578
 30
0.0
 11
135.021385661977
 21
143.5175420199677
 31
0.0
  0
LINE
  5
88
330
3F
100
AcDbEntity
  8
1
  6
Continuous
 62
     2
100
AcDbLine
 10
136.021385661977
 20
145.9361730110451
 30
0.0
 11
136.021385661977
 21
143.6664273940422
 31
0.0
  0
LINE
  5
89
330
3F
100
AcDbEntity
  8
1
  6
Continuous
 62
     2
100
AcDbLine
 10
137.021385661977
 20
145.7434978210662
 30
0.0
 11
137.021385661977
 21
144.0255038844575
 31
0.0
  0
LINE
  5
8A
330
3F
100
AcDbEntity
  8
1
  6
Continuous
 62
     2
100
AcDbLine
 10
138.021385661977
 20
145.4982748520018
 30
0.0
 11
138.021385661977
 21
144.3495485221495
 31
0.0
  0
LINE
  5
8B
330
3F
100
AcDbEntity
  8
1
  6
Continuous
 62
     7
100
AcDbLine
 10
146.521385661977
 20
146.2119546937802
 30
0.0
 11
146.521385661977
 21
143.4119546937802
 31
0.0
  0
LINE
  5
8C
330
3F
100
AcDbEntity
  8
1
  6
Continuous
 62
     7
100
AcDbLine
 10
146.521385661977
 20
146.2119546937802
 30
0.0
 11
145.271385661977
 21
146.541720413984
 31
0.0
  0
LINE
  5
8D
330
3F
100
AcDbEntity
  8
1
  6
Continuous
 62
     7
100
AcDbLine
 10
67.52138566197698
 20
146.2119546937802
 30
0.0
 11
53.52138566197698
 21
146.2119546937802
 31
0.0
  0
LINE
  5
8E
330
3F
100
AcDbEntity
  8
1
  6
Continuous
 62
     2
100
AcDbLine
 10
59.52138566197698
 20
145.4542927959515
 30
0.0
 11
59.52138566197698
 21
144.3890537053409
 31
0.0
  0
LINE
  5
8F
330
3F
100
AcDbEntity
  8
1
  6
Continuous
 62
     2
100
AcDbLine
 10
58.52138566197698
 20
145.6976080056842
 30
0.0
 11
58.52138566197698
 21
144.129517481626
 31
0.0
  0
LINE
  5
90
330
3F
100
AcDbEntity
  8
1
  6
Continuous
 62
     2
100
AcDbLine
 10
57.52138566197698
 20
145.9084811874524
 30
0.0
 11
57.52138566197698
 21
143.7726551740179
 31
0.0
  0
LINE
  5
91
330
3F
100
AcDbEntity
  8
1
  6
Continuous
 62
     2
100
AcDbLine
 10
56.52138566197698
 20
146.0220282853279
 30
0.0
 11
56.52138566197698
 21
143.5780030062317
 31
0.0
  0
LINE
  5
92
330
3F
100
AcDbEntity
  8
1
  6
Continuous
 62
     2
100
AcDbLine
 10
55.52138566197698
 20
146.2119546937802
 30
0.0
 11
55.52138566197698
 21
143.4119546937802
 31
0.0
  0
LINE
  5
93
330
3F
100
AcDbEntity
  8
1
  6
Continuous
 62
     2
100
AcDbLine
 10
54.52138566197698
 20
146.2119546937802
 30
0.0
 11
54.52138566197698
 21
143.4119546937802
 31
0.0
  0
LINE
  5
94
330
3F
100
AcDbEntity
  8
1
  6
Continuous
 62
     7
100
AcDbLine
 10
53.52138566197698
 20
146.2119546937802
 30
0.0
 11
54.52138566197687
 21
146.4812768928034
 31
0.0
  0
LINE
  5
95
330
3F
100
AcDbEntity
  8
1
  6
Continuous
 62
     7
100
AcDbLine
 10
53.52138566197698
 20
143.4119546937802
 30
0.0
 11
53.52138566197698
 21
146.2119546937802
 31
0.0
  0
LINE
  5
96
330
3F
100
AcDbEntity
  8
1
  6
Continuous
 62
     2
100
AcDbLine
 10
54.02138566197698
 20
146.2119546937802
 30
0.0
 11
54.02138566197698
 21
143.4119546937802
 31
0.0
  0
LINE
  5
97
330
3F
100
AcDbEntity
  8
1
  6
Continuous
 62
     2
100
AcDbLine
 10
55.02138566197698
 20
146.2119546937802
 30
0.0
 11
55.02138566197698
 21
143.4119546937802
 31
0.0
  0
LINE
  5
98
330
3F
100
AcDbEntity
  8
1
  6
Continuous
 62
     7
100
AcDbLine
 10
53.52138566197698
 20
143.4119546937802
 30
0.0
 11
67.52138566197698
 21
143.4119546937802
 31
0.0
  0
LINE
  5
99
330
3F
100
AcDbEntity
  8
1
  6
Continuous
 62
     2
100
AcDbLine
 10
56.02138566197698
 20
146.0675424587578
 30
0.0
 11
56.02138566197698
 21
143.5175420199677
 31
0.0
  0
LINE
  5
9A
330
3F
100
AcDbEntity
  8
1
  6
Continuous
 62
     2
100
AcDbLine
 10
57.02138566197698
 20
145.9361730110451
 30
0.0
 11
57.02138566197698
 21
143.6664273940422
 31
0.0
  0
LINE
  5
9B
330
3F
100
AcDbEntity
  8
1
  6
Continuous
 62
     2
100
AcDbLine
 10
58.02138566197698
 20
145.7434978210662
 30
0.0
 11
58.02138566197698
 21
144.0255038844575
 31
0.0
  0
LINE
  5
9C
330
3F
100
AcDbEntity
  8
1
  6
Continuous
 62
     2
100
AcDbLine
 10
59.02138566197698
 20
145.4982748520018
 30
0.0
 11
59.02138566197698
 21
144.3495485221495
 31
0.0
  0
LINE
  5
9D
330
3F
100
AcDbEntity
  8
1
  6
Continuous
 62
     7
100
AcDbLine
 10
67.52138566197698
 20
146.2119546937802
 30
0.0
 11
67.52138566197698
 21
143.4119546937802
 31
0.0
  0
LINE
  5
9E
330
3F
100
AcDbEntity
  8
1
  6
Continuous
 62
     7
100
AcDbLine
 10
67.52138566197698
 20
146.2119546937802
 30
0.0
 11
66.27138566197698
 21
146.541720413984
 31
0.0
  0
ARC
  5
9F
330
3F
100
AcDbEntity
  8
1
  6
Continuous
 62
     7
100
AcDbCircle
 10
139.521385661977
 20
122.2119546937801
 30
0.0
 40
25.0000000000001
100
AcDbArc
 50
90.0
 51
103.297071747209
  0
ARC
  5
A0
330
3F
100
AcDbEntity
  8
1
  6
Continuous
 62
     7
100
AcDbCircle
 10
139.521385661977
 20
122.2119546937801
 30
0.0
 40
25.00000000000017
100
AcDbArc
 50
103.297071747209
 51
103.8865403626292
  0
ARC
  5
A1
330
3F
100
AcDbEntity
  8
1
  6
Continuous
 62
     7
100
AcDbCircle
 10
139.521385661977
 20
122.2119546937801
 30
0.0
 40
25.00000000000017
100
AcDbArc
 50
76.70292825279104
 51
90.0
  0
ARC
  5
A2
330
3F
100
AcDbEntity
  8
1
  6
Continuous
 62
     7
100
AcDbCircle
 10
60.52138566197698
 20
122.2119546937801
 30
0.0
 40
25.0000000000001
100
AcDbArc
 50
90.0
 51
103.297071747209
  0
ARC
  5
A3
330
3F
100
AcDbEntity
  8
1
  6
Continuous
 62
     7
100
AcDbCircle
 10
60.52138566197698
 20
122.2119546937801
 30
0.0
 40
25.00000000000017
100
AcDbArc
 50
103.297071747209
 51
103.8865403626292
  0
ARC
  5
A4
330
3F
100
AcDbEntity
  8
1
  6
Continuous
 62
     7
100
AcDbCircle
 10
60.52138566197698
 20
122.2119546937801
 30
0.0
 40
25.00000000000017
100
AcDbArc
 50
76.70292825279104
 51
90.0
  0
CIRCLE
  5
A5
330
3F
100
AcDbEntity
  8
1
  6
Continuous
 62
     7
100
AcDbCircle
 10
60.52138566197704
 20
198.887373625955
 30
0.0
 40
6.999999999999879
  0
ENDBLK
  5
41
330
3F
100
AcDbEntity
  8
0
100
AcDbBlockEnd
  0
BLOCK
  5
43
330
42
100
AcDbEntity
  8
0
100
AcDbBlockBegin
  2
V26-0
 70
     0
 71
     0
 10
109.521385661977
 20
76.91195469378013
 30
0.0
  3
V26-0
  1

  0
LINE
  5
A6
330
42
100
AcDbEntity
  8
1
  6
Continuous
 62
     7
100
AcDbLine
 10
57.36243447207346
 20
90.91195469378017
 30
0.0
 11
63.6803368518805
 21
90.91195469378017
 31
0.0
  0
LINE
  5
A7
330
42
100
AcDbEntity
  8
1
  6
Continuous
 62
     7
100
AcDbLine
 10
57.2047608716215
 20
168.887373625955
 30
0.0
 11
51.20588566197696
 21
168.887373625955
 31
0.0
  0
LINE
  5
A8
330
42
100
AcDbEntity
  8
1
  6
Continuous
 62
     7
100
AcDbLine
 10
55.90947109208298
 20
170.049373625955
 30
0.0
 11
50.04388566197696
 21
170.049373625955
 31
0.0
  0
LINE
  5
A9
330
42
100
AcDbEntity
  8
1
  6
Continuous
 62
     7
100
AcDbLine
 10
50.04388566197696
 20
177.887373625955
 30
0.0
 11
53.23793180979196
 21
177.887373625955
 31
0.0
  0
LINE
  5
AA
330
42
100
AcDbEntity
  8
1
  6
Continuous
 62
     2
100
AcDbLine
 10
128.334385661977
 20
113.9119546937802
 30
0.0
 11
127.521385661977
 21
112.5037973872267
 31
0.0
  0
LINE
  5
AB
330
42
100
AcDbEntity
  8
1
  6
Continuous
 62
     2
100
AcDbLine
 10
128.334385661977
 20
115.3416459819651
 30
0.0
 11
128.334385661977
 21
113.9119546937802
 31
0.0
  0
LINE
  5
AC
330
42
100
AcDbEntity
  8
1
  6
Continuous
 62
     2
100
AcDbLine
 10
151.521385661977
 20
112.5037973872267
 30
0.0
 11
150.708385661977
 21
113.9119546937802
 31
0.0
  0
LINE
  5
AD
330
42
100
AcDbEntity
  8
1
  6
Continuous
 62
     2
100
AcDbLine
 10
150.708385661977
 20
113.9119546937802
 30
0.0
 11
150.708385661977
 21
115.3416459819651
 31
0.0
  0
LINE
  5
AE
330
42
100
AcDbEntity
  8
1
  6
Continuous
 62
     7
100
AcDbLine
 10
151.521385661977
 20
113.9119546937802
 30
0.0
 11
127.521385661977
 21
113.9119546937802
 31
0.0
  0
LINE
  5
AF
330
42
100
AcDbEntity
  8
1
  6
Continuous
 62
     7
100
AcDbLine
 10
72.52138566197698
 20
113.9119546937802
 30
0.0
 11
48.52138566197698
 21
113.9119546937802
 31
0.0
  0
LINE
  5
B0
330
42
100
AcDbEntity
  8
1
  6
Continuous
 62
     7
100
AcDbLine
 10
72.52138566197698
 20
115.4119546937802
 30
0.0
 11
72.52138566197698
 21
112.5037973872267
 31
0.0
  0
LINE
  5
B1
330
42
100
AcDbEntity
  8
1
  6
Continuous
 62
     2
100
AcDbLine
 10
49.33438566197698
 20
115.4119546937802
 30
0.0
 11
49.33438566197698
 21
113.9119546937802
 31
0.0
  0
LINE
  5
B2
330
42
100
AcDbEntity
  8
1
  6
Continuous
 62
     7
100
AcDbLine
 10
48.52138566197698
 20
112.5037973872267
 30
0.0
 11
48.52138566197698
 21
115.4119546937802
 31
0.0
  0
LINE
  5
B3
330
42
100
AcDbEntity
  8
1
  6
Continuous
 62
     7
100
AcDbLine
 10
48.52138566197698
 20
112.5037973872267
 30
0.0
 11
48.52138566197698
 21
106.3894546937802
 31
0.0
  0
LINE
  5
B4
330
42
100
AcDbEntity
  8
1
  6
Continuous
 62
     7
100
AcDbLine
 10
72.52138566197698
 20
106.4119546937802
 30
0.0
 11
72.52138566197698
 21
112.5037973872267
 31
0.0
  0
LINE
  5
B5
330
42
100
AcDbEntity
  8
1
  6
Continuous
 62
     2
100
AcDbLine
 10
71.70838566197698
 20
113.9119546937802
 30
0.0
 11
71.70838566197698
 21
115.4119546937802
 31
0.0
  0
LINE
  5
B6
330
42
100
AcDbEntity
  8
1
  6
Continuous
 62
     2
100
AcDbLine
 10
72.52138566197698
 20
112.5037973872267
 30
0.0
 11
71.70838566197698
 21
113.9119546937802
 31
0.0
  0
LINE
  5
B7
330
42
100
AcDbEntity
  8
1
  6
Continuous
 62
     2
100
AcDbLine
 10
49.33438566197698
 20
113.9119546937802
 30
0.0
 11
48.52138566197698
 21
112.5037973872267
 31
0.0
  0
LINE
  5
B8
330
42
100
AcDbEntity
  8
1
  6
Continuous
 62
     7
100
AcDbLine
 10
50.52138566197695
 20
228.887373625955
 30
0.0
 11
70.52138566197695
 21
228.887373625955
 31
0.0
  0
LINE
  5
B9
330
42
100
AcDbEntity
  8
1
  6
Continuous
 62
     7
100
AcDbLine
 10
69.83688566197696
 20
168.887373625955
 30
0.0
 11
63.83801045233223
 21
168.887373625955
 31
0.0
  0
LINE
  5
BA
330
42
100
AcDbEntity
  8
1
  6
Continuous
 62
     7
100
AcDbLine
 10
50.04388566197696
 20
170.049373625955
 30
0.0
 11
51.20588566197696
 21
168.887373625955
 31
0.0
  0
LINE
  5
BB
330
42
100
AcDbEntity
  8
1
  6
Continuous
 62
     7
100
AcDbLine
 10
70.99888566197694
 20
170.049373625955
 30
0.0
 11
65.13330023187081
 21
170.049373625955
 31
0.0
  0
LINE
  5
BC
330
42
100
AcDbEntity
  8
1
  6
Continuous
 62
     7
100
AcDbLine
 10
50.04388566197696
 20
170.049373625955
 30
0.0
 11
50.04388566197704
 21
179.5997611829904
 31
0.0
  0
LINE
  5
BD
330
42
100
AcDbEntity
  8
1
  6
Continuous
 62
     7
100
AcDbLine
 10
50.02138566197695
 20
228.387373625955
 30
0.0
 11
50.02138566197706
 21
218.0902379956265
 31
0.0
  0
LINE
  5
BE
330
42
100
AcDbEntity
  8
1
  6
Continuous
 62
     2
100
AcDbLine
 10
51.20588566197696
 20
177.887373625955
 30
0.0
 11
51.20588566197696
 21
168.887373625955
 31
0.0
  0
LINE
  5
BF
330
42
100
AcDbEntity
  8
1
  6
Continuous
 62
     2
100
AcDbLine
 10
50.04274383445616
 20
179.9019943676296
 30
0.0
 11
51.20588566197696
 21
177.887373625955
 31
0.0
  0
LINE
  5
C0
330
42
100
AcDbEntity
  8
1
  6
Continuous
 62
     7
100
AcDbLine
 10
69.83688566197696
 20
168.887373625955
 30
0.0
 11
70.99888566197694
 21
170.049373625955
 31
0.0
  0
LINE
  5
C1
330
42
100
AcDbEntity
  8
1
  6
Continuous
 62
     7
100
AcDbLine
 10
70.99888566197694
 20
177.887373625955
 30
0.0
 11
67.80483951416196
 21
177.887373625955
 31
0.0
  0
LINE
  5
C2
330
42
100
AcDbEntity
  8
1
  6
Continuous
 62
     7
100
AcDbLine
 10
70.99888566197694
 20
179.5997611829904
 30
0.0
 11
70.99888566197694
 21
170.049373625955
 31
0.0
  0
LINE
  5
C3
330
42
100
AcDbEntity
  8
1
  6
Continuous
 62
     7
100
AcDbLine
 10
71.02138566197695
 20
218.0902379956265
 30
0.0
 11
71.02138566197695
 21
228.387373625955
 31
0.0
  0
LINE
  5
C4
330
42
100
AcDbEntity
  8
1
  6
Continuous
 62
     2
100
AcDbLine
 10
69.83688566197696
 20
168.887373625955
 30
0.0
 11
69.83688566197696
 21
177.887373625955
 31
0.0
  0
LINE
  5
C5
330
42
100
AcDbEntity
  8
1
  6
Continuous
 62
     2
100
AcDbLine
 10
69.83688566197696
 20
177.887373625955
 30
0.0
 11
71.00002748949777
 21
179.9019943676296
 31
0.0
  0
LINE
  5
C6
330
42
100
AcDbEntity
  8
1
  6
Continuous
 62
     7
100
AcDbLine
 10
109.521385661977
 20
80.59645469378017
 30
0.0
 11
110.683385661977
 21
79.43445469378017
 31
0.0
  0
LINE
  5
C7
330
42
100
AcDbEntity
  8
1
  6
Continuous
 62
     7
100
AcDbLine
 10
110.683385661977
 20
100.3894546937802
 30
0.0
 11
120.534028700372
 21
100.3894546937802
 31
0.0
  0
LINE
  5
C8
330
42
100
AcDbEntity
  8
1
  6
Continuous
 62
     7
100
AcDbLine
 10
110.683385661977
 20
100.3894546937802
 30
0.0
 11
109.521385661977
 21
99.22745469378017
 31
0.0
  0
LINE
  5
C9
330
42
100
AcDbEntity
  8
1
  6
Continuous
 62
     7
100
AcDbLine
 10
110.683385661977
 20
100.3894546937802
 30
0.0
 11
110.683385661977
 21
80.59645469378017
 31
0.0
  0
LINE
  5
CA
330
42
100
AcDbEntity
  8
1
  6
Continuous
 62
     7
100
AcDbLine
 10
118.521385661977
 20
80.59645469378017
 30
0.0
 11
118.521385661977
 21
100.3894546937802
 31
0.0
  0
LINE
  5
CB
330
42
100
AcDbEntity
  8
1
  6
Continuous
 62
     7
100
AcDbLine
 10
120.2337732190124
 20
79.4344546937802
 30
0.0
 11
110.683385661977
 21
79.43445469378017
 31
0.0
  0
LINE
  5
CC
330
42
100
AcDbEntity
  8
1
  6
Continuous
 62
     7
100
AcDbLine
 10
121.521385661977
 20
100.3894546937802
 30
0.0
 11
120.534028700372
 21
100.3894546937802
 31
0.0
  0
LINE
  5
CD
330
42
100
AcDbEntity
  8
1
  6
Continuous
 62
     7
100
AcDbLine
 10
151.521385661977
 20
106.4119546937802
 30
0.0
 11
151.521385661977
 21
115.3129798577541
 31
0.0
  0
LINE
  5
CE
330
42
100
AcDbEntity
  8
1
  6
Continuous
 62
     7
100
AcDbLine
 10
109.521385661977
 20
96.41195469378017
 30
0.0
 11
109.521385661977
 21
99.22745469378017
 31
0.0
  0
LINE
  5
CF
330
42
100
AcDbEntity
  8
1
  6
Continuous
 62
     7
100
AcDbLine
 10
169.021385661977
 20
100.4119546937802
 30
0.0
 11
157.521385661977
 21
100.4119546937802
 31
0.0
  0
LINE
  5
D0
330
42
100
AcDbEntity
  8
1
  6
Continuous
 62
     7
100
AcDbLine
 10
169.521385661977
 20
79.91195469378017
 30
0.0
 11
169.521385661977
 21
99.91195469378017
 31
0.0
  0
LINE
  5
D1
330
42
100
AcDbEntity
  8
1
  6
Continuous
 62
     7
100
AcDbLine
 10
158.7242500316485
 20
79.41195469378019
 30
0.0
 11
169.021385661977
 21
79.41195469378017
 31
0.0
  0
LINE
  5
D2
330
42
100
AcDbEntity
  8
1
  6
Continuous
 62
     2
100
AcDbLine
 10
118.521385661977
 20
99.22745469378017
 30
0.0
 11
109.521385661977
 21
99.22745469378017
 31
0.0
  0
LINE
  5
D3
330
42
100
AcDbEntity
  8
1
  6
Continuous
 62
     2
100
AcDbLine
 10
120.534028700372
 20
100.3894546937802
 30
0.0
 11
118.521385661977
 21
99.22745469378017
 31
0.0
  0
LINE
  5
D4
330
42
100
AcDbEntity
  8
1
  6
Continuous
 62
     7
100
AcDbLine
 10
47.54701027587518
 20
90.72778760591157
 30
0.0
 11
48.50955891710088
 21
106.0354164266426
 31
0.0
  0
LINE
  5
D5
330
42
100
AcDbEntity
  8
1
  6
Continuous
 62
     7
100
AcDbLine
 10
72.53321240685308
 20
106.0354164266426
 30
0.0
 11
73.49576104807878
 21
90.72778760591157
 31
0.0
  0
LINE
  5
D6
330
42
100
AcDbEntity
  8
1
  6
Continuous
 62
     7
100
AcDbLine
 10
110.683385661977
 20
79.43445469378017
 30
0.0
 11
110.683385661977
 21
80.59645469378017
 31
0.0
  0
LINE
  5
D7
330
42
100
AcDbEntity
  8
1
  6
Continuous
 62
     2
100
AcDbLine
 10
109.521385661977
 20
80.59645469378017
 30
0.0
 11
118.521385661977
 21
80.59645469378017
 31
0.0
  0
LINE
  5
D8
330
42
100
AcDbEntity
  8
1
  6
Continuous
 62
     7
100
AcDbLine
 10
118.521385661977
 20
80.59645469378017
 30
0.0
 11
118.521385661977
 21
79.43445469378017
 31
0.0
  0
LINE
  5
D9
330
42
100
AcDbEntity
  8
1
  6
Continuous
 62
     2
100
AcDbLine
 10
118.521385661977
 20
80.59645469378017
 30
0.0
 11
120.5360064036516
 21
79.43331286625934
 31
0.0
  0
LINE
  5
DA
330
42
100
AcDbEntity
  8
1
  6
Continuous
 62
     7
100
AcDbLine
 10
109.521385661977
 20
80.59645469378017
 30
0.0
 11
109.521385661977
 21
96.41195469378017
 31
0.0
  0
LINE
  5
DB
330
42
100
AcDbEntity
  8
1
  6
Continuous
 62
     7
100
AcDbLine
 10
127.521385661977
 20
115.3416459819651
 30
0.0
 11
127.521385661977
 21
106.3894546937802
 31
0.0
  0
ARC
  5
DC
330
42
100
AcDbEntity
  8
1
  6
Continuous
 62
     7
100
AcDbCircle
 10
65.41238765944939
 20
90.91195469378017
 30
0.0
 40
1.0
100
AcDbArc
 50
90.0
 51
150.0000000000011
  0
ARC
  5
DD
330
42
100
AcDbEntity
  8
1
  6
Continuous
 62
     7
100
AcDbCircle
 10
55.63038366450462
 20
90.91195469378017
 30
0.0
 40
0.9999999999999344
100
AcDbArc
 50
30.00000000000217
 51
90.0
  0
ARC
  5
DE
330
42
100
AcDbEntity
  8
1
  6
Continuous
 62
     7
100
AcDbCircle
 10
38.52138566197715
 20
198.887373625955
 30
0.0
 40
34.99999999999998
100
AcDbArc
 50
-14.9020972365563
 51
-13.29117724303345
  0
ARC
  5
DF
330
42
100
AcDbEntity
  8
1
  6
Continuous
 62
     7
100
AcDbCircle
 10
42.52138566197277
 20
106.4119546937802
 30
0.0
 40
6.000000000004214
100
AcDbArc
 50
-3.59803996064119
 51
0.0
  0
ARC
  5
E0
330
42
100
AcDbEntity
  8
1
  6
Continuous
 62
     7
100
AcDbCircle
 10
78.52138566198113
 20
106.4119546937802
 30
0.0
 40
6.00000000000415
100
AcDbArc
 50
180.0
 51
-176.4019600393588
  0
ARC
  5
E1
330
42
100
AcDbEntity
  8
1
  6
Continuous
 62
     7
100
AcDbCircle
 10
82.52138566197695
 20
198.887373625955
 30
0.0
 40
34.99999999999987
100
AcDbArc
 50
-166.7088227569662
 51
-165.0979027634437
  0
ARC
  5
E2
330
42
100
AcDbEntity
  8
1
  6
Continuous
 62
     7
100
AcDbCircle
 10
121.521385661977
 20
106.3894546937802
 30
0.0
 40
6.0
100
AcDbArc
 50
-90.0
 51
0.0
  0
ARC
  5
E3
330
42
100
AcDbEntity
  8
1
  6
Continuous
 62
     7
100
AcDbCircle
 10
157.521385661977
 20
106.4119546937802
 30
0.0
 40
6.0
100
AcDbArc
 50
180.0
 51
-90.0
  0
ARC
  5
E4
330
42
100
AcDbEntity
  8
1
  6
Continuous
 62
     7
100
AcDbCircle
 10
139.521385661977
 20
111.9119546937802
 30
0.0
 40
35.00000000000004
100
AcDbArc
 50
-104.9020972365563
 51
-75.1648884180243
  0
ARC
  5
E5
330
42
100
AcDbEntity
  8
1
  6
Continuous
 62
     7
100
AcDbCircle
 10
60.52138566197698
 20
89.91195469378017
 30
0.0
 40
13.00000000000004
100
AcDbArc
 50
176.4019600393567
 51
3.59803996064336
  0
ARC
  5
E6
330
42
100
AcDbEntity
  8
1
  6
Continuous
 62
     7
100
AcDbCircle
 10
123.4367845424409
 20
85.63527696719849
 30
0.0
 40
16.99999999999994
100
AcDbArc
 50
51.60597220067028
 51
78.97242887486986
  0
ARC
  5
E7
330
42
100
AcDbEntity
  8
1
  6
Continuous
 62
     7
100
AcDbCircle
 10
155.6062417057448
 20
85.63527696719849
 30
0.0
 40
17.00000000000001
100
AcDbArc
 50
101.0275711251298
 51
128.3940277993297
  0
CIRCLE
  5
E8
330
42
100
AcDbEntity
  8
1
  6
Continuous
 62
     7
100
AcDbCircle
 10
60.52138566197698
 20
89.91195469378017
 30
0.0
 40
6.5
  0
CIRCLE
  5
E9
330
42
100
AcDbEntity
  8
1
  6
Continuous
 62
     7
100
AcDbCircle
 10
60.52138566197698
 20
89.91195469378017
 30
0.0
 40
10.50000000000001
  0
CIRCLE
  5
EA
330
42
100
AcDbEntity
  8
1
  6
Continuous
 62
     2
100
AcDbCircle
 10
60.52138566197698
 20
89.91195469378017
 30
0.0
 40
9.3155
  0
ARC
  5
EB
330
42
100
AcDbEntity
  8
1
  6
Continuous
 62
     7
100
AcDbCircle
 10
63.6803368518805
 20
91.91195469378017
 30
0.0
 40
1.0
100
AcDbArc
 50
-90.0
 51
-30.00000000000054
  0
ARC
  5
EC
330
42
100
AcDbEntity
  8
1
  6
Continuous
 62
     7
100
AcDbCircle
 10
57.36243447207346
 20
91.91195469378017
 30
0.0
 40
1.000000000000033
100
AcDbArc
 50
-150.0000000000011
 51
-90.0
  0
ARC
  5
ED
330
42
100
AcDbEntity
  8
1
  6
Continuous
 62
     7
100
AcDbCircle
 10
111.021385661977
 20
218.0902379956272
 30
0.0
 40
40.00000000000006
100
AcDbArc
 50
-179.999999999999
 51
-175.0674491171713
  0
ARC
  5
EE
330
42
100
AcDbEntity
  8
1
  6
Continuous
 62
     7
100
AcDbCircle
 10
10.04388566197704
 20
179.5997611829904
 30
0.0
 40
40.0
100
AcDbArc
 50
0.0
 51
0.43292126706862
  0
ARC
  5
EF
330
42
100
AcDbEntity
  8
1
  6
Continuous
 62
     7
100
AcDbCircle
 10
10.04388566197704
 20
179.5997611829904
 30
0.0
 40
39.99999999999996
100
AcDbArc
 50
0.43292126706862
 51
14.90209723655631
  0
ARC
  5
F0
330
42
100
AcDbEntity
  8
1
  6
Continuous
 62
     7
100
AcDbCircle
 10
10.02138566197695
 20
218.0902379956263
 30
0.0
 40
40.00000000000011
100
AcDbArc
 50
-4.93255088282743
 51
0.00000000000028
  0
ARC
  5
F1
330
42
100
AcDbEntity
  8
1
  6
Continuous
 62
     7
100
AcDbCircle
 10
50.52138566197695
 20
228.387373625955
 30
0.0
 40
0.5
100
AcDbArc
 50
90.0
 51
180.0
  0
ARC
  5
F2
330
42
100
AcDbEntity
  8
1
  6
Continuous
 62
     7
100
AcDbCircle
 10
110.9988856619769
 20
179.5997611829904
 30
0.0
 40
39.99999999999997
100
AcDbArc
 50
179.5670787329314
 51
180.0
  0
ARC
  5
F3
330
42
100
AcDbEntity
  8
1
  6
Continuous
 62
     7
100
AcDbCircle
 10
110.9988856619769
 20
179.5997611829904
 30
0.0
 40
39.9999999999998
100
AcDbArc
 50
165.0979027634436
 51
179.5670787329314
  0
ARC
  5
F4
330
42
100
AcDbEntity
  8
1
  6
Continuous
 62
     7
100
AcDbCircle
 10
70.52138566197695
 20
228.387373625955
 30
0.0
 40
0.5
100
AcDbArc
 50
0.0
 51
90.0
  0
ARC
  5
F5
330
42
100
AcDbEntity
  8
1
  6
Continuous
 62
     7
100
AcDbCircle
 10
120.2337732190124
 20
39.4344546937802
 30
0.0
 40
39.99999999999999
100
AcDbArc
 50
89.56707873293142
 51
90.0
  0
ARC
  5
F6
330
42
100
AcDbEntity
  8
1
  6
Continuous
 62
     7
100
AcDbCircle
 10
158.7242500316485
 20
39.41195469378018
 30
0.0
 40
40.00000000000001
100
AcDbArc
 50
90.0
 51
104.8351115819757
  0
ARC
  5
F7
330
42
100
AcDbEntity
  8
1
  6
Continuous
 62
     7
100
AcDbCircle
 10
169.021385661977
 20
79.91195469378017
 30
0.0
 40
0.5
100
AcDbArc
 50
-90.0
 51
0.0
  0
ARC
  5
F8
330
42
100
AcDbEntity
  8
1
  6
Continuous
 62
     7
100
AcDbCircle
 10
169.021385661977
 20
99.91195469378017
 30
0.0
 40
0.5
100
AcDbArc
 50
0.0
 51
90.0
  0
ARC
  5
F9
330
42
100
AcDbEntity
  8
1
  6
Continuous
 62
     7
100
AcDbCircle
 10
120.2337732190124
 20
39.4344546937802
 30
0.0
 40
39.99999999999999
100
AcDbArc
 50
75.09790276344369
 51
89.56707873293142
  0
ENDBLK
  5
44
330
42
100
AcDbEntity
  8
0
100
AcDbBlockEnd
  0
BLOCK
  5
46
330
45
100
AcDbEntity
  8
0
100
AcDbBlockBegin
  2
37-1-13
 70
     0
 71
     0
 10
332.8898984074202
 20
87.99799558692995
 30
0.0
  3
37-1-13
  1

  0
LINE
  5
FA
330
45
100
AcDbEntity
  8
1
  6
Continuous
 62
     7
100
AcDbLine
 10
58.54575482625546
 20
212.7578496300621
 30
0.0
 11
59.58353452729875
 21
213.357012019819
 31
0.0
  0
LINE
  5
FB
330
45
100
AcDbEntity
  8
1
  6
Continuous
 62
     7
100
AcDbLine
 10
73.52138566197706
 20
193.6630821161361
 30
0.0
 11
73.52138566197706
 21
192.4647573366224
 31
0.0
  0
LINE
  5
FC
330
45
100
AcDbEntity
  8
1
  6
Continuous
 62
     7
100
AcDbLine
 10
49.49701649769838
 20
190.2411891316667
 30
0.0
 11
48.45923679665526
 21
190.8403515214235
 31
0.0
  0
LINE
  5
FD
330
45
100
AcDbEntity
  8
1
  6
Continuous
 62
     7
100
AcDbLine
 10
47.52138566197698
 20
122.4826689080517
 30
0.0
 11
47.52138566197698
 21
115.4119546937802
 31
0.0
  0
LINE
  5
FE
330
45
100
AcDbEntity
  8
1
  6
Continuous
 62
     7
100
AcDbLine
 10
49.39098094550809
 20
122.4826689080517
 30
0.0
 11
47.94199908838208
 21
122.4826689080517
 31
0.0
  0
LINE
  5
FF
330
45
100
AcDbEntity
  8
1
  6
Continuous
 62
     7
100
AcDbLine
 10
66.52138566197698
 20
129.4119546937802
 30
0.0
 11
54.52138566197698
 21
129.4119546937802
 31
0.0
  0
LINE
  5
100
330
45
100
AcDbEntity
  8
1
  6
Continuous
 62
     7
100
AcDbLine
 10
73.10077223557181
 20
122.4826689080517
 30
0.0
 11
71.65179037844581
 21
122.4826689080517
 31
0.0
  0
LINE
  5
101
330
45
100
AcDbEntity
  8
1
  6
Continuous
 62
     7
100
AcDbLine
 10
58.30779237397798
 20
122.4826689080517
 30
0.0
 11
62.76619808821302
 21
122.4826689080517
 31
0.0
  0
LINE
  5
102
330
45
100
AcDbEntity
  8
1
  6
Continuous
 62
     7
100
AcDbLine
 10
60.52138566197698
 20
115.4119546937802
 30
0.0
 11
47.52138566197698
 21
115.4119546937802
 31
0.0
  0
LINE
  5
103
330
45
100
AcDbEntity
  8
1
  6
Continuous
 62
     7
100
AcDbLine
 10
73.52138566197698
 20
115.4119546937802
 30
0.0
 11
60.52138566197698
 21
115.4119546937802
 31
0.0
  0
LINE
  5
104
330
45
100
AcDbEntity
  8
1
  6
Continuous
 62
     7
100
AcDbLine
 10
73.52138566197698
 20
122.4826689080516
 30
0.0
 11
73.52138566197698
 21
115.4119546937802
 31
0.0
  0
LINE
  5
105
330
45
100
AcDbEntity
  8
1
  6
Continuous
 62
     7
100
AcDbLine
 10
72.58353452729875
 20
190.8403515214235
 30
0.0
 11
71.54575482625553
 21
190.2411891316667
 31
0.0
  0
LINE
  5
106
330
45
100
AcDbEntity
  8
1
  6
Continuous
 62
     7
100
AcDbLine
 10
61.45923679665526
 20
213.357012019819
 30
0.0
 11
62.49701649769851
 21
212.7578496300621
 31
0.0
  0
LINE
  5
107
330
45
100
AcDbEntity
  8
1
  6
Continuous
 62
     7
100
AcDbLine
 10
47.52138566197706
 20
192.4647573366224
 30
0.0
 11
47.52138566197706
 21
193.6630821161359
 31
0.0
  0
LINE
  5
108
330
45
100
AcDbEntity
  8
1
  6
Continuous
 62
     7
100
AcDbLine
 10
127.0213856619771
 20
122.8416459819652
 30
0.0
 11
139.521385661977
 21
122.8416459819651
 31
0.0
  0
LINE
  5
109
330
45
100
AcDbEntity
  8
1
  6
Continuous
 62
     7
100
AcDbLine
 10
152.5920998762485
 20
115.3416459819651
 30
0.0
 11
126.4506714477056
 21
115.3416459819651
 31
0.0
  0
LINE
  5
10A
330
45
100
AcDbEntity
  8
1
  6
Continuous
 62
     7
100
AcDbLine
 10
139.521385661977
 20
129.3416459819651
 30
0.0
 11
133.521385661977
 21
129.3416459819651
 31
0.0
  0
LINE
  5
10B
330
45
100
AcDbEntity
  8
1
  6
Continuous
 62
     7
100
AcDbLine
 10
139.521385661977
 20
122.8416459819651
 30
0.0
 11
152.0213856619769
 21
122.8416459819652
 31
0.0
  0
LINE
  5
10C
330
45
100
AcDbEntity
  8
1
  6
Continuous
 62
     7
100
AcDbLine
 10
145.5213856619771
 20
129.3416459819651
 30
0.0
 11
139.521385661977
 21
129.3416459819651
 31
0.0
  0
ARC
  5
10D
330
45
100
AcDbEntity
  8
1
  6
Continuous
 62
     7
100
AcDbCircle
 10
60.52138566197698
 20
198.8873736259549
 30
0.0
 40
14.50000000000011
100
AcDbArc
 50
89.99999999999969
 51
93.7084447252705
  0
ARC
  5
10E
330
45
100
AcDbEntity
  8
1
  6
Continuous
 62
     7
100
AcDbCircle
 10
60.52138566197698
 20
198.8873736259549
 30
0.0
 40
14.50000000000012
100
AcDbArc
 50
86.29155527472928
 51
89.99999999999969
  0
ARC
  5
10F
330
45
100
AcDbEntity
  8
1
  6
Continuous
 62
     7
100
AcDbCircle
 10
51.02138566197698
 20
118.9119546937802
 30
0.0
 40
5.00000000000002
100
AcDbArc
 50
126.8698976458424
 51
134.4270040008051
  0
ARC
  5
110
330
45
100
AcDbEntity
  8
1
  6
Continuous
 62
     7
100
AcDbCircle
 10
34.61493045686208
 20
142.8184098988951
 30
0.0
 40
23.99999999999995
100
AcDbArc
 50
-56.04080749990221
 51
-33.95919250009754
  0
ARC
  5
111
330
45
100
AcDbEntity
  8
1
  6
Continuous
 62
     7
100
AcDbCircle
 10
70.02138566197698
 20
118.9119546937802
 30
0.0
 40
4.999999999999975
100
AcDbArc
 50
45.57299599919402
 51
53.13010235415771
  0
ARC
  5
112
330
45
100
AcDbEntity
  8
1
  6
Continuous
 62
     7
100
AcDbCircle
 10
86.4278408670919
 20
142.8184098988951
 30
0.0
 40
24.0
100
AcDbArc
 50
-146.0408074999025
 51
-123.9591925000979
  0
ARC
  5
113
330
45
100
AcDbEntity
  8
1
  6
Continuous
 62
     7
100
AcDbCircle
 10
60.52138566197698
 20
198.8873736259549
 30
0.0
 40
14.50000000000001
100
AcDbArc
 50
-33.70844472527054
 51
-26.29155527472897
  0
ARC
  5
114
330
45
100
AcDbEntity
  8
1
  6
Continuous
 62
     7
100
AcDbCircle
 10
60.52138566197698
 20
198.8873736259549
 30
0.0
 40
14.4999999999999
100
AcDbArc
 50
-153.7084447252707
 51
-146.2915552747294
  0
ARC
  5
115
330
45
100
AcDbEntity
  8
1
  6
Continuous
 62
     7
100
AcDbCircle
 10
113.6149304568621
 20
142.74810118708
 30
0.0
 40
23.99999999999995
100
AcDbArc
 50
-56.04080749990219
 51
-33.95919250009752
  0
ARC
  5
116
330
45
100
AcDbEntity
  8
1
  6
Continuous
 62
     7
100
AcDbCircle
 10
130.021385661977
 20
118.8416459819651
 30
0.0
 40
5.00000000000002
100
AcDbArc
 50
126.8698976458424
 51
-135.5729959991941
  0
ARC
  5
117
330
45
100
AcDbEntity
  8
1
  6
Continuous
 62
     7
100
AcDbCircle
 10
165.4278408670919
 20
142.74810118708
 30
0.0
 40
23.9999999999999
100
AcDbArc
 50
-146.0408074999024
 51
-123.9591925000978
  0
ARC
  5
118
330
45
100
AcDbEntity
  8
1
  6
Continuous
 62
     7
100
AcDbCircle
 10
149.0213856619771
 20
118.8416459819651
 30
0.0
 40
4.999999999999996
100
AcDbArc
 50
-44.42700400080575
 51
53.13010235415849
  0
SPLINE
  5
119
330
45
100
AcDbEntity
  8
1
  6
Continuous
 62
     7
100
AcDbSpline
210
0.0
220
0.0
230
1.0
 70
     8
 71
     3
 72
    29
 73
    25
 74
    23
 42
0.0000000001
 43
0.0000000001
 44
0.00000001
 40
0.0
 40
0.0
 40
0.0
 40
0.0
 40
0.6069077131759348
 40
1.212222625822735
 40
1.842666707826797
 40
2.474631900595432
 40
3.10242017236546
 40
3.729333891456477
 40
4.27104293983323
 40
4.812985328221243
 40
5.340107980728414
 40
5.866248927280115
 40
6.26387483734332
 40
6.661485236222465
 40
7.280966497569066
 40
7.902596738528223
 40
8.549168915178885
 40
9.195896772489324
 40
9.722415974179299
 40
10.24911841725704
 40
11.07897537274018
 40
11.90732207846645
 40
12.67331709995037
 40
13.44191271185835
 40
13.44191271185835
 40
13.44191271185835
 40
13.44191271185835
 10
139.521385661977
 20
122.3416459819651
 30
0.0
 10
139.7234454915345
 20
122.3317706085028
 30
0.0
 10
140.1270348542033
 20
122.3120457790277
 30
0.0
 10
140.7387404045419
 20
122.2482554249747
 30
0.0
 10
141.3481574664318
 20
122.1140721276574
 30
0.0
 10
141.9465636419371
 20
121.9136165069729
 30
0.0
 10
142.5211261738328
 20
121.6550553901549
 30
0.0
 10
143.0360239715044
 20
121.3461260003837
 30
0.0
 10
143.4850428455026
 20
120.9923090758088
 30
0.0
 10
143.8589844479937
 20
120.6042844076459
 30
0.0
 10
144.1659503494537
 20
120.1673540038831
 30
0.0
 10
144.3732590069876
 20
119.7271400367829
 30
0.0
 10
144.4891615952584
 20
119.3004309160983
 30
0.0
 10
144.5398648001528
 20
118.8295154735961
 30
0.0
 10
144.4794084768749
 20
118.2805408805521
 30
0.0
 10
144.2664612451281
 20
117.6827948143319
 30
0.0
 10
143.919224307782
 20
117.1411925683335
 30
0.0
 10
143.4978665819494
 20
116.7005846001958
 30
0.0
 10
143.0504530916924
 20
116.3507106765589
 30
0.0
 10
142.5146167057698
 20
116.0218002935698
 30
0.0
 10
141.8497256558565
 20
115.7180616719427
 30
0.0
 10
141.0700645943824
 20
115.4932918066
 30
0.0
 10
140.2876589760729
 20
115.3889050011904
 30
0.0
 10
139.7770985067103
 20
115.3574825224415
 30
0.0
 10
139.521385661977
 20
115.3417446580521
 30
0.0
 11
139.521385661977
 21
122.3416459819651
 31
0.0
 11
140.1272716837352
 21
122.3064451162028
 31
0.0
 11
140.7287145032167
 21
122.2380881241186
 31
0.0
 11
141.3446057149578
 21
122.1034116382942
 31
0.0
 11
141.9440671765065
 21
121.9033467463491
 31
0.0
 11
142.5157659498266
 21
121.6439655080988
 31
0.0
 11
143.0523311668397
 21
121.3197455533208
 31
0.0
 11
143.4767637056188
 21
120.9831364133398
 31
0.0
 11
143.8515126808993
 21
120.5916459819651
 31
0.0
 11
144.1530685668593
 21
120.1593008207466
 31
0.0
 11
144.375088880693
 21
119.6822984351304
 31
0.0
 11
144.4788495978361
 21
119.2984494050007
 31
0.0
 11
144.5206076956568
 21
118.9030378591864
 31
0.0
 11
144.4560140840354
 21
118.2869334049765
 31
0.0
 11
144.2483959138841
 21
117.7009992346997
 31
0.0
 11
143.9030233130291
 21
117.1543976007857
 31
0.0
 11
143.4587491864262
 21
116.6844216207053
 31
0.0
 11
143.0448787676516
 21
116.3589469731341
 31
0.0
 11
142.5968399204274
 21
116.0820414749545
 31
0.0
 11
141.8420792137899
 21
115.7370793867771
 31
0.0
 11
141.0459229034017
 21
115.5084018970308
 31
0.0
 11
140.2879137728021
 21
115.3980817680162
 31
0.0
 11
139.521385661977
 21
115.3417446580521
 31
0.0
  0
SPLINE
  5
11A
330
45
100
AcDbEntity
  8
1
  6
Continuous
 62
     7
100
AcDbSpline
210
0.0
220
0.0
230
1.0
 70
    11
 71
     3
 72
    79
 73
    75
 74
    73
 42
0.0000000001
 43
0.0000000001
 44
0.00000001
 40
0.0
 40
0.0
 40
0.0
 40
0.0
 40
0.2803981145478732
 40
0.5607977859032172
 40
0.8427454841467236
 40
1.124697473048486
 40
1.409536451638076
 40
1.694381500885835
 40
1.983071310125168
 40
2.271767843422814
 40
2.564776142200809
 40
2.857790854546414
 40
3.155055698552691
 40
3.452325978930781
 40
3.753284827389662
 40
4.054247742882722
 40
4.357919806975667
 40
4.661594368328859
 40
4.966700748943377
 40
5.271807969839324
 40
5.576915190735286
 40
5.882021571349888
 40
6.185696132703086
 40
6.489368196796024
 40
6.790331112289017
 40
7.091289960747872
 40
7.388560241125899
 40
7.685825085132239
 40
7.978839797477825
 40
8.271848096255839
 40
8.560544629553471
 40
8.849234438792813
 40
9.134079488040557
 40
9.41891846663016
 40
9.700870455531895
 40
9.98281815377543
 40
10.26321782513074
 40
10.54361593967864
 40
10.82401405422657
 40
11.10441372558197
 40
11.38636142382545
 40
11.66831341272721
 40
11.95315239131679
 40
12.23799744056458
 40
12.52668724980393
 40
12.81538378310156
 40
13.10839208187948
 40
13.40140679422508
 40
13.69867163823145
 40
13.99594191860951
 40
14.29690076706831
 40
14.59786368256131
 40
14.90153574665423
 40
15.20521030800744
 40
15.51031668862205
 40
15.815423909518
 40
16.12053113041394
 40
16.42563751102846
 40
16.72931207238168
 40
17.03298413647459
 40
17.33394705196762
 40
17.63490590042649
 40
17.93217618080457
 40
18.22944102481092
 40
18.52245573715649
 40
18.81546403593444
 40
19.1041605692321
 40
19.39285037847143
 40
19.67769542771924
 40
19.9625344063088
 40
20.24448639521056
 40
20.52643409345404
 40
20.80683376480947
 40
21.08723187935737
 40
21.08723187935737
 40
21.08723187935737
 40
21.08723187935737
 10
150.7797159111748
 20
122.3416459819651
 30
0.0
 10
150.8732164542283
 20
122.3390645960759
 30
0.0
 10
151.0602180594628
 20
122.3339018099653
 30
0.0
 10
151.3387024727027
 20
122.2924294599163
 30
0.0
 10
151.6126446691051
 20
122.2265292995236
 30
0.0
 10
151.8805728344405
 20
122.1342971902896
 30
0.0
 10
152.1396186220009
 20
122.0172150009307
 30
0.0
 10
152.3887779161536
 20
121.8757387193513
 30
0.0
 10
152.6250879363315
 20
121.7114563733583
 30
0.0
 10
152.8478629302494
 20
121.5249962251419
 30
0.0
 10
153.0543189625475
 20
121.3185717502047
 30
0.0
 10
153.2439317061881
 20
121.0928540557683
 30
0.0
 10
153.4143308821136
 20
120.8505632574194
 30
0.0
 10
153.5650436897215
 20
120.5925057645795
 30
0.0
 10
153.694266826247
 20
120.3216785610975
 30
0.0
 10
153.8015464994315
 20
120.0391617076008
 30
0.0
 10
153.8857010029867
 20
119.7479737370077
 30
0.0
 10
153.9463442768179
 20
119.4495949640929
 30
0.0
 10
153.9828780390891
 20
119.1468339922127
 30
0.0
 10
153.9950970698258
 20
118.8416459819649
 30
0.0
 10
153.9828780390891
 20
118.5364579717185
 30
0.0
 10
153.9463442768179
 20
118.2336969998337
 30
0.0
 10
153.8857010029867
 20
117.9353182269357
 30
0.0
 10
153.8015464994315
 20
117.64413025628
 30
0.0
 10
153.694266826247
 20
117.361613403015
 30
0.0
 10
153.5650436897215
 20
117.0907861986734
 30
0.0
 10
153.4143308821136
 20
116.8327287090043
 30
0.0
 10
153.2439317061881
 20
116.5904378989086
 30
0.0
 10
153.0543189625476
 20
116.3647202477108
 30
0.0
 10
152.8478629302495
 20
116.1582956126843
 30
0.0
 10
152.6250879363314
 20
115.9718360535072
 30
0.0
 10
152.3887779161537
 20
115.8075515257961
 30
0.0
 10
152.1396186220008
 20
115.6660832827262
 30
0.0
 10
151.8805728344406
 20
115.5489712791246
 30
0.0
 10
151.612644669105
 20
115.4568493606516
 30
0.0
 10
151.3387024727027
 20
115.390539595084
 30
0.0
 10
151.0602180594628
 20
115.3505879299882
 30
0.0
 10
150.7797159111748
 20
115.3371750203652
 30
0.0
 10
150.4992137628868
 20
115.3505879299882
 30
0.0
 10
150.2207293496468
 20
115.390539595084
 30
0.0
 10
149.9467871532445
 20
115.4568493606517
 30
0.0
 10
149.678858987909
 20
115.5489712791245
 30
0.0
 10
149.4198132003487
 20
115.6660832827262
 30
0.0
 10
149.1706539061959
 20
115.8075515257961
 30
0.0
 10
148.9343438860181
 20
115.9718360535072
 30
0.0
 10
148.7115688921001
 20
116.1582956126843
 30
0.0
 10
148.505112859802
 20
116.3647202477108
 30
0.0
 10
148.3155001161616
 20
116.5904378989087
 30
0.0
 10
148.145100940236
 20
116.8327287090043
 30
0.0
 10
147.994388132628
 20
117.0907861986734
 30
0.0
 10
147.8651649961026
 20
117.361613403015
 30
0.0
 10
147.7578853229181
 20
117.64413025628
 30
0.0
 10
147.673730819363
 20
117.9353182269358
 30
0.0
 10
147.6130875455318
 20
118.2336969998336
 30
0.0
 10
147.5765537832605
 20
118.5364579717185
 30
0.0
 10
147.5643347525238
 20
118.8416459819649
 30
0.0
 10
147.5765537832606
 20
119.1468339922127
 30
0.0
 10
147.6130875455317
 20
119.4495949640929
 30
0.0
 10
147.673730819363
 20
119.7479737370076
 30
0.0
 10
147.7578853229181
 20
120.0391617076009
 30
0.0
 10
147.8651649961025
 20
120.3216785610975
 30
0.0
 10
147.9943881326281
 20
120.5925057645795
 30
0.0
 10
148.1451009402359
 20
120.8505632574195
 30
0.0
 10
148.3155001161616
 20
121.0928540557682
 30
0.0
 10
148.505112859802
 20
121.3185717502048
 30
0.0
 10
148.7115688921
 20
121.5249962251418
 30
0.0
 10
148.934343886018
 20
121.7114563733584
 30
0.0
 10
149.1706539061959
 20
121.8757387193513
 30
0.0
 10
149.4198132003487
 20
122.0172150009307
 30
0.0
 10
149.6788589879091
 20
122.1342971902897
 30
0.0
 10
149.9467871532445
 20
122.2265292995236
 30
0.0
 10
150.2207293496468
 20
122.2924294599163
 30
0.0
 10
150.4992137628869
 20
122.3339018099653
 30
0.0
 10
150.6862153681213
 20
122.3390645960759
 30
0.0
 10
150.7797159111748
 20
122.3416459819651
 30
0.0
 11
150.7797159111748
 21
122.3416459819651
 31
0.0
 11
151.0597959100444
 21
122.328293196667
 31
0.0
 11
151.337353718423
 21
122.2884731175078
 31
0.0
 11
151.6114051228019
 21
122.2222135347839
 31
0.0
 11
151.8780479830764
 21
122.1305701547158
 31
0.0
 11
152.1376364076124
 21
122.0133221544306
 31
0.0
 11
152.3853699835079
 21
121.8727348952106
 31
0.0
 11
152.6224704681169
 21
121.7080376998586
 31
0.0
 11
152.8439049974517
 21
121.5228015328815
 31
0.0
 11
153.0511883867615
 21
121.3157086559663
 31
0.0
 11
153.2397206705391
 21
121.091402615868
 31
0.0
 11
153.4108092171126
 21
120.8483077851673
 31
0.0
 11
153.5607903438356
 21
120.5916459819651
 31
0.0
 11
153.69046712371
 21
120.320057761994
 31
0.0
 11
153.7973584777874
 21
120.0387164836049
 31
0.0
 11
153.8817245391177
 21
119.7469990000595
 31
0.0
 11
153.9422370693534
 21
119.4494146037993
 31
0.0
 11
153.9788160179164
 21
119.1465088692651
 31
0.0
 11
153.9910240558411
 21
118.8416459819651
 31
0.0
 11
153.9788160179164
 21
118.5367830946651
 31
0.0
 11
153.9422370693534
 21
118.2338773601308
 31
0.0
 11
153.8817245391177
 21
117.9362929638706
 31
0.0
 11
153.7973584777874
 21
117.6445754803252
 31
0.0
 11
153.69046712371
 21
117.3632342019362
 31
0.0
 11
153.5607903438356
 21
117.0916459819651
 31
0.0
 11
153.4108092171127
 21
116.834984178763
 31
0.0
 11
153.2397206705391
 21
116.5918893480622
 31
0.0
 11
153.0511883867615
 21
116.3675833079639
 31
0.0
 11
152.8439049974517
 21
116.1604904310487
 31
0.0
 11
152.6224704681169
 21
115.9752542640717
 31
0.0
 11
152.3853699835079
 21
115.8105570687196
 31
0.0
 11
152.1376364076124
 21
115.6699698094996
 31
0.0
 11
151.8780479830764
 21
115.5527218092144
 31
0.0
 11
151.611405122802
 21
115.4610784291463
 31
0.0
 11
151.337353718423
 21
115.3948188464224
 31
0.0
 11
151.0597959100444
 21
115.3549987672633
 31
0.0
 11
150.7797159111748
 21
115.3416459819651
 31
0.0
 11
150.4996359123052
 21
115.3549987672632
 31
0.0
 11
150.2220781039265
 21
115.3948188464224
 31
0.0
 11
149.9480266995476
 21
115.4610784291463
 31
0.0
 11
149.6813838392731
 21
115.5527218092144
 31
0.0
 11
149.4217954147371
 21
115.6699698094996
 31
0.0
 11
149.1740618388416
 21
115.8105570687196
 31
0.0
 11
148.9369613542326
 21
115.9752542640717
 31
0.0
 11
148.7155268248978
 21
116.1604904310487
 31
0.0
 11
148.5082434355881
 21
116.3675833079639
 31
0.0
 11
148.3197111518105
 21
116.5918893480622
 31
0.0
 11
148.1486226052369
 21
116.834984178763
 31
0.0
 11
147.9986414785139
 21
117.0916459819651
 31
0.0
 11
147.8689646986396
 21
117.3632342019362
 31
0.0
 11
147.7620733445622
 21
117.6445754803252
 31
0.0
 11
147.677707283232
 21
117.9362929638706
 31
0.0
 11
147.6171947529962
 21
118.2338773601308
 31
0.0
 11
147.5806158044332
 21
118.5367830946651
 31
0.0
 11
147.5684077665085
 21
118.8416459819651
 31
0.0
 11
147.5806158044333
 21
119.1465088692651
 31
0.0
 11
147.6171947529962
 21
119.4494146037993
 31
0.0
 11
147.677707283232
 21
119.7469990000595
 31
0.0
 11
147.7620733445622
 21
120.0387164836049
 31
0.0
 11
147.8689646986395
 21
120.3200577619939
 31
0.0
 11
147.9986414785139
 21
120.5916459819651
 31
0.0
 11
148.1486226052369
 21
120.8483077851672
 31
0.0
 11
148.3197111518105
 21
121.091402615868
 31
0.0
 11
148.5082434355881
 21
121.3157086559663
 31
0.0
 11
148.7155268248978
 21
121.5228015328815
 31
0.0
 11
148.9369613542326
 21
121.7080376998586
 31
0.0
 11
149.1740618388416
 21
121.8727348952106
 31
0.0
 11
149.4217954147371
 21
122.0133221544307
 31
0.0
 11
149.6813838392731
 21
122.1305701547158
 31
0.0
 11
149.9480266995476
 21
122.2222135347839
 31
0.0
 11
150.2220781039265
 21
122.2884731175078
 31
0.0
 11
150.4996359123052
 21
122.328293196667
 31
0.0
 11
150.7797159111748
 21
122.3416459819651
 31
0.0
  0
SPLINE
  5
11B
330
45
100
AcDbEntity
  8
1
  6
Continuous
 62
     7
100
AcDbSpline
210
0.0
220
0.0
230
1.0
 70
     8
 71
     3
 72
    29
 73
    25
 74
    23
 42
0.0000000001
 43
0.0000000001
 44
0.00000001
 40
0.0
 40
0.0
 40
0.0
 40
0.0
 40
0.6069077131759348
 40
1.212222625822735
 40
1.84266670782677
 40
2.474631900595431
 40
3.102420172365407
 40
3.7293338914564
 40
4.27104293983311
 40
4.812985328221161
 40
5.340107980728381
 40
5.866248927280093
 40
6.263874837343269
 40
6.661485236222413
 40
7.280966497569006
 40
7.902596738528163
 40
8.549168915178818
 40
9.195896772489316
 40
9.722415974179313
 40
10.24911841725706
 40
11.07897537274019
 40
11.90732207846643
 40
12.67331709995035
 40
13.44191271185825
 40
13.44191271185825
 40
13.44191271185825
 40
13.44191271185825
 10
139.521385661977
 20
122.3416459819651
 30
0.0
 10
139.3193258324196
 20
122.3317706085028
 30
0.0
 10
138.9157364697508
 20
122.3120457790277
 30
0.0
 10
138.3040309194122
 20
122.2482554249748
 30
0.0
 10
137.6946138575223
 20
122.1140721276574
 30
0.0
 10
137.0962076820169
 20
121.9136165069729
 30
0.0
 10
136.5216451501213
 20
121.6550553901549
 30
0.0
 10
136.0067473524497
 20
121.3461260003837
 30
0.0
 10
135.5577284784515
 20
120.9923090758088
 30
0.0
 10
135.1837868759604
 20
120.6042844076458
 30
0.0
 10
134.8768209745003
 20
120.1673540038831
 30
0.0
 10
134.6695123169664
 20
119.727140036783
 30
0.0
 10
134.5536097286957
 20
119.3004309160983
 30
0.0
 10
134.5029065238013
 20
118.8295154735961
 30
0.0
 10
134.5633628470792
 20
118.280540880552
 30
0.0
 10
134.7763100788258
 20
117.682794814332
 30
0.0
 10
135.1235470161721
 20
117.1411925683334
 30
0.0
 10
135.5449047420047
 20
116.7005846001958
 30
0.0
 10
135.9923182322617
 20
116.3507106765589
 30
0.0
 10
136.5281546181842
 20
116.0218002935698
 30
0.0
 10
137.1930456680977
 20
115.7180616719427
 30
0.0
 10
137.9727067295716
 20
115.4932918065999
 30
0.0
 10
138.7551123478812
 20
115.3889050011905
 30
0.0
 10
139.2656728172437
 20
115.3574825224416
 30
0.0
 10
139.521385661977
 20
115.3417446580521
 30
0.0
 11
139.521385661977
 21
122.3416459819651
 31
0.0
 11
138.9154996402188
 21
122.3064451162028
 31
0.0
 11
138.3140568207373
 21
122.2380881241186
 31
0.0
 11
137.6981656089962
 21
122.1034116382942
 31
0.0
 11
137.0987041474475
 21
121.9033467463491
 31
0.0
 11
136.5270053741274
 21
121.6439655080988
 31
0.0
 11
135.9904401571144
 21
121.3197455533208
 31
0.0
 11
135.5660076183353
 21
120.9831364133398
 31
0.0
 11
135.1912586430548
 21
120.5916459819651
 31
0.0
 11
134.8897027570947
 21
120.1593008207466
 31
0.0
 11
134.667682443261
 21
119.6822984351304
 31
0.0
 11
134.563921726118
 21
119.2984494050007
 31
0.0
 11
134.5221636282973
 21
118.9030378591864
 31
0.0
 11
134.5867572399186
 21
118.2869334049765
 31
0.0
 11
134.7943754100699
 21
117.7009992346997
 31
0.0
 11
135.1397480109249
 21
117.1543976007857
 31
0.0
 11
135.5840221375279
 21
116.6844216207053
 31
0.0
 11
135.9978925563026
 21
116.3589469731341
 31
0.0
 11
136.4459314035267
 21
116.0820414749545
 31
0.0
 11
137.2006921101643
 21
115.7370793867771
 31
0.0
 11
137.9968484205524
 21
115.5084018970308
 31
0.0
 11
138.754857551152
 21
115.3980817680162
 31
0.0
 11
139.521385661977
 21
115.3417446580521
 31
0.0
  0
SPLINE
  5
11C
330
45
100
AcDbEntity
  8
1
  6
Continuous
 62
     7
100
AcDbSpline
210
0.0
220
0.0
230
1.0
 70
    11
 71
     3
 72
    79
 73
    75
 74
    73
 42
0.0000000001
 43
0.0000000001
 44
0.00000001
 40
0.0
 40
0.0
 40
0.0
 40
0.0
 40
0.2803981145479015
 40
0.5607977859033159
 40
0.842745484146767
 40
1.124697473048475
 40
1.40953645163804
 40
1.694381500885835
 40
1.983071310125122
 40
2.271767843422822
 40
2.564776142200807
 40
2.857790854546412
 40
3.155055698552755
 40
3.452325978930838
 40
3.753284827389682
 40
4.054247742882732
 40
4.357919806975643
 40
4.661594368328869
 40
4.966700748943385
 40
5.271807969839333
 40
5.576915190735338
 40
5.882021571349896
 40
6.1856961327031
 40
6.48936819679603
 40
6.790331112289008
 40
7.091289960747833
 40
7.388560241125889
 40
7.685825085132254
 40
7.978839797477859
 40
8.271848096255843
 40
8.560544629553545
 40
8.849234438792829
 40
9.13407948804061
 40
9.418918466630187
 40
9.700870455531907
 40
9.982818153775344
 40
10.26321782513076
 40
10.54361593967866
 40
10.82401405422656
 40
11.10441372558199
 40
11.38636142382546
 40
11.66831341272722
 40
11.95315239131685
 40
12.2379974405646
 40
12.52668724980392
 40
12.8153837831015
 40
13.10839208187947
 40
13.40140679422508
 40
13.69867163823146
 40
13.99594191860951
 40
14.29690076706832
 40
14.59786368256131
 40
14.90153574665425
 40
15.20521030800745
 40
15.51031668862206
 40
15.81542390951801
 40
16.12053113041394
 40
16.42563751102847
 40
16.72931207238169
 40
17.03298413647461
 40
17.33394705196764
 40
17.63490590042651
 40
17.93217618080459
 40
18.22944102481094
 40
18.52245573715653
 40
18.81546403593452
 40
19.10416056923218
 40
19.39285037847143
 40
19.67769542771925
 40
19.96253440630881
 40
20.24448639521057
 40
20.52643409345405
 40
20.80683376480942
 40
21.08723187935738
 40
21.08723187935738
 40
21.08723187935738
 40
21.08723187935738
 10
128.2630554127793
 20
122.3416459819651
 30
0.0
 10
128.1695548697257
 20
122.3390645960759
 30
0.0
 10
127.9825532644914
 20
122.3339018099653
 30
0.0
 10
127.7040688512513
 20
122.2924294599163
 30
0.0
 10
127.430126654849
 20
122.2265292995236
 30
0.0
 10
127.1621984895136
 20
122.1342971902897
 30
0.0
 10
126.9031527019533
 20
122.0172150009306
 30
0.0
 10
126.6539934078005
 20
121.8757387193514
 30
0.0
 10
126.4176833876227
 20
121.7114563733583
 30
0.0
 10
126.1949083937046
 20
121.5249962251419
 30
0.0
 10
125.9884523614065
 20
121.3185717502048
 30
0.0
 10
125.7988396177661
 20
121.0928540557682
 30
0.0
 10
125.6284404418404
 20
120.8505632574195
 30
0.0
 10
125.4777276342325
 20
120.5925057645794
 30
0.0
 10
125.3485044977071
 20
120.3216785610975
 30
0.0
 10
125.2412248245226
 20
120.0391617076008
 30
0.0
 10
125.1570703209675
 20
119.7479737370077
 30
0.0
 10
125.0964270471362
 20
119.4495949640929
 30
0.0
 10
125.059893284865
 20
119.1468339922127
 30
0.0
 10
125.0476742541284
 20
118.8416459819648
 30
0.0
 10
125.059893284865
 20
118.5364579717184
 30
0.0
 10
125.0964270471363
 20
118.2336969998337
 30
0.0
 10
125.1570703209675
 20
117.9353182269357
 30
0.0
 10
125.2412248245226
 20
117.6441302562799
 30
0.0
 10
125.3485044977071
 20
117.3616134030151
 30
0.0
 10
125.4777276342325
 20
117.0907861986734
 30
0.0
 10
125.6284404418405
 20
116.8327287090043
 30
0.0
 10
125.798839617766
 20
116.5904378989087
 30
0.0
 10
125.9884523614066
 20
116.3647202477108
 30
0.0
 10
126.1949083937046
 20
116.1582956126843
 30
0.0
 10
126.4176833876227
 20
115.9718360535072
 30
0.0
 10
126.6539934078005
 20
115.8075515257961
 30
0.0
 10
126.9031527019533
 20
115.6660832827262
 30
0.0
 10
127.1621984895136
 20
115.5489712791245
 30
0.0
 10
127.430126654849
 20
115.4568493606517
 30
0.0
 10
127.7040688512514
 20
115.390539595084
 30
0.0
 10
127.9825532644913
 20
115.3505879299882
 30
0.0
 10
128.2630554127793
 20
115.3371750203652
 30
0.0
 10
128.5435575610673
 20
115.3505879299882
 30
0.0
 10
128.8220419743073
 20
115.390539595084
 30
0.0
 10
129.0959841707096
 20
115.4568493606517
 30
0.0
 10
129.3639123360451
 20
115.5489712791246
 30
0.0
 10
129.6229581236054
 20
115.6660832827262
 30
0.0
 10
129.8721174177582
 20
115.8075515257961
 30
0.0
 10
130.108427437936
 20
115.9718360535072
 30
0.0
 10
130.331202431854
 20
116.1582956126843
 30
0.0
 10
130.537658464152
 20
116.3647202477108
 30
0.0
 10
130.7272712077926
 20
116.5904378989087
 30
0.0
 10
130.8976703837182
 20
116.8327287090043
 30
0.0
 10
131.0483831913261
 20
117.0907861986734
 30
0.0
 10
131.1776063278515
 20
117.361613403015
 30
0.0
 10
131.284886001036
 20
117.6441302562799
 30
0.0
 10
131.3690405045912
 20
117.9353182269358
 30
0.0
 10
131.4296837784224
 20
118.2336969998336
 30
0.0
 10
131.4662175406936
 20
118.5364579717185
 30
0.0
 10
131.4784365714303
 20
118.8416459819649
 30
0.0
 10
131.4662175406935
 20
119.1468339922127
 30
0.0
 10
131.4296837784223
 20
119.4495949640929
 30
0.0
 10
131.3690405045912
 20
119.7479737370077
 30
0.0
 10
131.284886001036
 20
120.0391617076008
 30
0.0
 10
131.1776063278516
 20
120.3216785610975
 30
0.0
 10
131.0483831913261
 20
120.5925057645795
 30
0.0
 10
130.8976703837182
 20
120.8505632574195
 30
0.0
 10
130.7272712077925
 20
121.0928540557682
 30
0.0
 10
130.5376584641521
 20
121.3185717502048
 30
0.0
 10
130.3312024318539
 20
121.5249962251419
 30
0.0
 10
130.108427437936
 20
121.7114563733583
 30
0.0
 10
129.8721174177582
 20
121.8757387193514
 30
0.0
 10
129.6229581236054
 20
122.0172150009307
 30
0.0
 10
129.3639123360451
 20
122.1342971902897
 30
0.0
 10
129.0959841707096
 20
122.2265292995236
 30
0.0
 10
128.8220419743073
 20
122.2924294599163
 30
0.0
 10
128.5435575610673
 20
122.3339018099653
 30
0.0
 10
128.3565559558328
 20
122.3390645960759
 30
0.0
 10
128.2630554127793
 20
122.3416459819651
 30
0.0
 11
128.2630554127793
 21
122.3416459819651
 31
0.0
 11
127.9829754139097
 21
122.328293196667
 31
0.0
 11
127.705417605531
 21
122.2884731175078
 31
0.0
 11
127.4313662011521
 21
122.2222135347839
 31
0.0
 11
127.1647233408777
 21
122.1305701547158
 31
0.0
 11
126.9051349163417
 21
122.0133221544306
 31
0.0
 11
126.6574013404462
 21
121.8727348952106
 31
0.0
 11
126.4203008558373
 21
121.7080376998586
 31
0.0
 11
126.1988663265024
 21
121.5228015328815
 31
0.0
 11
125.9915829371926
 21
121.3157086559663
 31
0.0
 11
125.803050653415
 21
121.091402615868
 31
0.0
 11
125.6319621068413
 21
120.8483077851673
 31
0.0
 11
125.4819809801184
 21
120.5916459819651
 31
0.0
 11
125.3523042002441
 21
120.320057761994
 31
0.0
 11
125.2454128461667
 21
120.0387164836049
 31
0.0
 11
125.1610467848364
 21
119.7469990000595
 31
0.0
 11
125.1005342546007
 21
119.4494146037993
 31
0.0
 11
125.0639553060377
 21
119.1465088692651
 31
0.0
 11
125.051747268113
 21
118.8416459819651
 31
0.0
 11
125.0639553060377
 21
118.5367830946651
 31
0.0
 11
125.1005342546007
 21
118.2338773601308
 31
0.0
 11
125.1610467848365
 21
117.9362929638706
 31
0.0
 11
125.2454128461667
 21
117.6445754803252
 31
0.0
 11
125.3523042002441
 21
117.3632342019362
 31
0.0
 11
125.4819809801184
 21
117.0916459819651
 31
0.0
 11
125.6319621068414
 21
116.834984178763
 31
0.0
 11
125.803050653415
 21
116.5918893480622
 31
0.0
 11
125.9915829371926
 21
116.3675833079639
 31
0.0
 11
126.1988663265024
 21
116.1604904310487
 31
0.0
 11
126.4203008558373
 21
115.9752542640717
 31
0.0
 11
126.6574013404462
 21
115.8105570687196
 31
0.0
 11
126.9051349163417
 21
115.6699698094996
 31
0.0
 11
127.1647233408777
 21
115.5527218092144
 31
0.0
 11
127.4313662011521
 21
115.4610784291463
 31
0.0
 11
127.705417605531
 21
115.3948188464224
 31
0.0
 11
127.9829754139097
 21
115.3549987672632
 31
0.0
 11
128.2630554127793
 21
115.3416459819651
 31
0.0
 11
128.5431354116489
 21
115.3549987672633
 31
0.0
 11
128.8206932200276
 21
115.3948188464224
 31
0.0
 11
129.0947446244065
 21
115.4610784291463
 31
0.0
 11
129.361387484681
 21
115.5527218092144
 31
0.0
 11
129.620975909217
 21
115.6699698094996
 31
0.0
 11
129.8687094851125
 21
115.8105570687196
 31
0.0
 11
130.1058099697214
 21
115.9752542640717
 31
0.0
 11
130.3272444990562
 21
116.1604904310487
 31
0.0
 11
130.534527888366
 21
116.3675833079639
 31
0.0
 11
130.7230601721436
 21
116.5918893480622
 31
0.0
 11
130.8941487187172
 21
116.834984178763
 31
0.0
 11
131.0441298454402
 21
117.0916459819651
 31
0.0
 11
131.1738066253145
 21
117.3632342019362
 31
0.0
 11
131.2806979793919
 21
117.6445754803252
 31
0.0
 11
131.3650640407222
 21
117.9362929638706
 31
0.0
 11
131.4255765709579
 21
118.2338773601308
 31
0.0
 11
131.4621555195209
 21
118.5367830946651
 31
0.0
 11
131.4743635574456
 21
118.8416459819651
 31
0.0
 11
131.4621555195209
 21
119.1465088692651
 31
0.0
 11
131.4255765709579
 21
119.4494146037993
 31
0.0
 11
131.3650640407222
 21
119.7469990000595
 31
0.0
 11
131.2806979793919
 21
120.0387164836049
 31
0.0
 11
131.1738066253146
 21
120.3200577619939
 31
0.0
 11
131.0441298454402
 21
120.5916459819651
 31
0.0
 11
130.8941487187173
 21
120.8483077851672
 31
0.0
 11
130.7230601721436
 21
121.091402615868
 31
0.0
 11
130.534527888366
 21
121.3157086559663
 31
0.0
 11
130.3272444990562
 21
121.5228015328815
 31
0.0
 11
130.1058099697214
 21
121.7080376998586
 31
0.0
 11
129.8687094851125
 21
121.8727348952106
 31
0.0
 11
129.620975909217
 21
122.0133221544307
 31
0.0
 11
129.361387484681
 21
122.1305701547158
 31
0.0
 11
129.0947446244065
 21
122.2222135347839
 31
0.0
 11
128.8206932200276
 21
122.2884731175078
 31
0.0
 11
128.543135411649
 21
122.328293196667
 31
0.0
 11
128.2630554127793
 21
122.3416459819651
 31
0.0
  0
SPLINE
  5
11D
330
45
100
AcDbEntity
  8
1
  6
Continuous
 62
     7
100
AcDbSpline
210
0.0
220
0.0
230
1.0
 70
    11
 71
     3
 72
    79
 73
    75
 74
    73
 42
0.0000000001
 43
0.0000000001
 44
0.00000001
 40
0.0
 40
0.0
 40
0.0
 40
0.0
 40
0.3105305927636595
 40
0.6211097050894132
 40
0.9446853874346629
 40
1.268350833884979
 40
1.615177941517096
 40
1.962073591621567
 40
2.337982254486237
 40
2.71393441418307
 40
3.120408259025888
 40
3.526909442882805
 40
3.961816267817423
 40
4.396740384516166
 40
4.855202007200661
 40
5.31367429855973
 40
5.788867666243245
 40
6.264066854325089
 40
6.747928781316587
 40
7.231792560540624
 40
7.715656339764662
 40
8.199518266756146
 40
8.674717454837969
 40
9.149910822521493
 40
9.608383113880562
 40
10.06684473656507
 40
10.50176885326381
 40
10.93667567819843
 40
11.34317686205535
 40
11.74965070689815
 40
12.125602866595
 40
12.50151152945967
 40
12.84840717956417
 40
13.19523428719627
 40
13.51889973364658
 40
13.84247541599182
 40
14.15305452831758
 40
14.46358512108124
 40
14.7741157138448
 40
15.08469482617054
 40
15.40827050851581
 40
15.73193595496609
 40
16.0787630625982
 40
16.4256587127027
 40
16.80156737556739
 40
17.17751953526429
 40
17.58399338010707
 40
17.99049456396401
 40
18.42540138889859
 40
18.86032550559733
 40
19.31878712828182
 40
19.7772594196409
 40
20.25245278732444
 40
20.72765197540627
 40
21.21151390239775
 40
21.69537768162179
 40
22.17924146084583
 40
22.66310338783731
 40
23.13830257591915
 40
23.61349594360267
 40
24.07196823496174
 40
24.53042985764625
 40
24.96535397434498
 40
25.40026079927957
 40
25.8067619831365
 40
26.2132358279793
 40
26.58918798767618
 40
26.96509665054086
 40
27.31199230064534
 40
27.65881940827747
 40
27.98248485472777
 40
28.30606053707303
 40
28.61663964939877
 40
28.92717024216233
 40
28.92717024216233
 40
28.92717024216233
 40
28.92717024216233
 10
61.45923679665519
 20
118.9473118009159
 30
0.0
 10
61.46345284737421
 20
119.050896835247
 30
0.0
 10
61.47188560755874
 20
119.2580830887897
 30
0.0
 10
61.53861354058437
 20
119.5673026853998
 30
0.0
 10
61.64432092212167
 20
119.8693078316211
 30
0.0
 10
61.79284379025118
 20
120.1664680203682
 30
0.0
 10
61.97931152564527
 20
120.4506146857324
 30
0.0
 10
62.20648258113484
 20
120.7262142708668
 30
0.0
 10
62.4669160391943
 20
120.9845793907171
 30
0.0
 10
62.76532215019174
 20
121.2303473681742
 30
0.0
 10
63.09183586960366
 20
121.4557800207031
 30
0.0
 10
63.45206272785934
 20
121.6645257500026
 30
0.0
 10
63.83507593510081
 20
121.850594544236
 30
0.0
 10
64.24602569285645
 20
122.016243493852
 30
0.0
 10
64.6742750005206
 20
122.1574579145117
 30
0.0
 10
65.12341526251832
 20
122.275204036585
 30
0.0
 10
65.58420193333944
 20
122.3672751187634
 30
0.0
 10
66.05790080214473
 20
122.4337366922837
 30
0.0
 10
66.53745962098222
 20
122.4737803457061
 30
0.0
 10
67.02138566197768
 20
122.4871131977309
 30
0.0
 10
67.5053117029688
 20
122.4737803457062
 30
0.0
 10
67.98487052181912
 20
122.4337366922837
 30
0.0
 10
68.45856939057815
 20
122.3672751187635
 30
0.0
 10
68.91935606156898
 20
122.2752040365849
 30
0.0
 10
69.3684963229548
 20
122.1574579145117
 30
0.0
 10
69.79674563284658
 20
122.016243493852
 30
0.0
 10
70.20769538269661
 20
121.850594544236
 30
0.0
 10
70.59070861847529
 20
121.6645257500026
 30
0.0
 10
70.9509353768662
 20
121.455780020703
 30
0.0
 10
71.27744945437655
 20
121.2303473681742
 30
0.0
 10
71.5758543245347
 20
120.9845793907171
 30
0.0
 10
71.83629221822416
 20
120.7262142708668
 30
0.0
 10
72.06344793597556
 20
120.4506146857324
 30
0.0
 10
72.24997066221718
 20
120.1664680203682
 30
0.0
 10
72.39830135108998
 20
119.869307831621
 30
0.0
 10
72.50470571045651
 20
119.5673026853998
 30
0.0
 10
72.56893183620309
 20
119.2580830887897
 30
0.0
 10
72.59083530248337
 20
118.9473118009159
 30
0.0
 10
72.56893183620305
 20
118.6365405130422
 30
0.0
 10
72.50470571045648
 20
118.3273209164321
 30
0.0
 10
72.39830135109
 20
118.0253157702108
 30
0.0
 10
72.24997066221717
 20
117.7281555814637
 30
0.0
 10
72.06344793597557
 20
117.4440089160995
 30
0.0
 10
71.83629221822413
 20
117.1684093309651
 30
0.0
 10
71.5758543245347
 20
116.9100442111148
 30
0.0
 10
71.27744945437659
 20
116.6642762336576
 30
0.0
 10
70.9509353768662
 20
116.4388435811288
 30
0.0
 10
70.59070861847532
 20
116.2300978518291
 30
0.0
 10
70.20769538269659
 20
116.0440290575959
 30
0.0
 10
69.79674563284661
 20
115.8783801079799
 30
0.0
 10
69.36849632295477
 20
115.7371656873203
 30
0.0
 10
68.91935606156895
 20
115.6194195652469
 30
0.0
 10
68.45856939057818
 20
115.5273484830684
 30
0.0
 10
67.9848705218191
 20
115.4608869095481
 30
0.0
 10
67.50531170296878
 20
115.4208432561257
 30
0.0
 10
67.02138566197766
 20
115.4075104041011
 30
0.0
 10
66.53745962098225
 20
115.4208432561257
 30
0.0
 10
66.05790080214472
 20
115.4608869095482
 30
0.0
 10
65.58420193333944
 20
115.5273484830684
 30
0.0
 10
65.12341526251834
 20
115.619419565247
 30
0.0
 10
64.67427500052061
 20
115.7371656873203
 30
0.0
 10
64.24602569285648
 20
115.8783801079799
 30
0.0
 10
63.8350759351008
 20
116.0440290575959
 30
0.0
 10
63.45206272785931
 20
116.2300978518292
 30
0.0
 10
63.09183586960366
 20
116.4388435811288
 30
0.0
 10
62.76532215019174
 20
116.6642762336576
 30
0.0
 10
62.4669160391943
 20
116.9100442111148
 30
0.0
 10
62.20648258113488
 20
117.1684093309651
 30
0.0
 10
61.97931152564526
 20
117.4440089160995
 30
0.0
 10
61.79284379025117
 20
117.7281555814637
 30
0.0
 10
61.64432092212167
 20
118.0253157702108
 30
0.0
 10
61.53861354058436
 20
118.3273209164321
 30
0.0
 10
61.47188560755878
 20
118.6365405130422
 30
0.0
 10
61.46345284737423
 20
118.8437267665848
 30
0.0
 10
61.45923679665519
 20
118.9473118009159
 30
0.0
 11
61.45923679665519
 21
118.9473118009159
 31
0.0
 11
61.48074340886849
 21
119.2570967499907
 31
0.0
 11
61.54373833600002
 21
119.5612201199719
 31
0.0
 11
61.65062741827885
 21
119.8666312302721
 31
0.0
 11
61.79467541752138
 21
120.1564751454059
 31
0.0
 11
61.98434510154745
 21
120.4468446574934
 31
0.0
 11
62.20442344497751
 21
120.7149903544838
 31
0.0
 11
62.47077564450724
 21
120.9802521659501
 31
0.0
 11
62.76053243189668
 21
121.2197955452
 31
0.0
 11
63.094682074329
 21
121.451236688914
 31
0.0
 11
63.44610528811607
 21
121.6555524672784
 31
0.0
 11
63.83709149593098
 21
121.8460091071554
 31
0.0
 11
64.24031122931606
 21
122.0090208671454
 31
0.0
 11
64.67561100603987
 21
122.1528998574765
 31
0.0
 11
65.11901870986088
 21
122.2694607863344
 31
0.0
 11
65.58496341390256
 21
122.3627574607977
 31
0.0
 11
66.05552864760163
 21
122.42895888969
 31
0.0
 11
66.53770692576489
 21
122.4692884379076
 31
0.0
 11
67.02138566197695
 21
122.4826689080517
 31
0.0
 11
67.50506439818901
 21
122.4692884379076
 31
0.0
 11
67.98724267635225
 21
122.42895888969
 31
0.0
 11
68.45780791005132
 21
122.3627574607978
 31
0.0
 11
68.92375261409299
 21
122.2694607863344
 31
0.0
 11
69.367160317914
 21
122.1528998574765
 31
0.0
 11
69.80246009463782
 21
122.0090208671454
 31
0.0
 11
70.20567982802291
 21
121.8460091071554
 31
0.0
 11
70.59666603583781
 21
121.6555524672784
 31
0.0
 11
70.94808924962489
 21
121.451236688914
 31
0.0
 11
71.28223889205719
 21
121.2197955452
 31
0.0
 11
71.57199567944664
 21
120.9802521659501
 31
0.0
 11
71.83834787897638
 21
120.7149903544838
 31
0.0
 11
72.05842622240647
 21
120.4468446574934
 31
0.0
 11
72.24809590643253
 21
120.1564751454059
 31
0.0
 11
72.39214390567504
 21
119.8666312302721
 31
0.0
 11
72.49903298795385
 21
119.5612201199719
 31
0.0
 11
72.5620279150854
 21
119.2570967499907
 31
0.0
 11
72.5835345272987
 21
118.9473118009159
 31
0.0
 11
72.56202791508537
 21
118.6375268518412
 31
0.0
 11
72.49903298795385
 21
118.33340348186
 31
0.0
 11
72.39214390567503
 21
118.0279923715598
 31
0.0
 11
72.24809590643253
 21
117.738148456426
 31
0.0
 11
72.05842622240647
 21
117.4477789443385
 31
0.0
 11
71.83834787897638
 21
117.1796332473481
 31
0.0
 11
71.57199567944664
 21
116.9143714358818
 31
0.0
 11
71.28223889205719
 21
116.6748280566318
 31
0.0
 11
70.9480892496249
 21
116.4433869129178
 31
0.0
 11
70.59666603583781
 21
116.2390711345534
 31
0.0
 11
70.20567982802292
 21
116.0486144946765
 31
0.0
 11
69.80246009463782
 21
115.8856027346865
 31
0.0
 11
69.367160317914
 21
115.7417237443554
 31
0.0
 11
68.92375261409299
 21
115.6251628154975
 31
0.0
 11
68.45780791005132
 21
115.5318661410341
 31
0.0
 11
67.98724267635225
 21
115.4656647121418
 31
0.0
 11
67.50506439818901
 21
115.4253351639242
 31
0.0
 11
67.02138566197695
 21
115.4119546937802
 31
0.0
 11
66.53770692576488
 21
115.4253351639242
 31
0.0
 11
66.05552864760163
 21
115.4656647121418
 31
0.0
 11
65.58496341390257
 21
115.5318661410341
 31
0.0
 11
65.11901870986091
 21
115.6251628154975
 31
0.0
 11
64.6756110060399
 21
115.7417237443554
 31
0.0
 11
64.24031122931606
 21
115.8856027346865
 31
0.0
 11
63.83709149593098
 21
116.0486144946765
 31
0.0
 11
63.44610528811607
 21
116.2390711345534
 31
0.0
 11
63.09468207432899
 21
116.4433869129178
 31
0.0
 11
62.76053243189668
 21
116.6748280566318
 31
0.0
 11
62.47077564450725
 21
116.9143714358818
 31
0.0
 11
62.20442344497752
 21
117.1796332473481
 31
0.0
 11
61.98434510154745
 21
117.4477789443385
 31
0.0
 11
61.79467541752138
 21
117.738148456426
 31
0.0
 11
61.65062741827886
 21
118.0279923715598
 31
0.0
 11
61.54373833600002
 21
118.33340348186
 31
0.0
 11
61.48074340886851
 21
118.6375268518412
 31
0.0
 11
61.45923679665519
 21
118.9473118009159
 31
0.0
  0
SPLINE
  5
11E
330
45
100
AcDbEntity
  8
1
  6
Continuous
 62
     7
100
AcDbSpline
210
0.0
220
0.0
230
1.0
 70
    11
 71
     3
 72
    79
 73
    75
 74
    73
 42
0.0000000001
 43
0.0000000001
 44
0.00000001
 40
0.0
 40
0.0
 40
0.0
 40
0.0
 40
0.3105305927636615
 40
0.6211097050894239
 40
0.9446853874346666
 40
1.268350833884964
 40
1.615177941517062
 40
1.962073591621541
 40
2.337982254486192
 40
2.713934414183062
 40
3.120408259025869
 40
3.526909442882785
 40
3.961816267817417
 40
4.396740384516173
 40
4.855202007200668
 40
5.313674298559715
 40
5.788867666243283
 40
6.264066854325128
 40
6.747928781316611
 40
7.231792560540649
 40
7.715656339764673
 40
8.199518266756163
 40
8.674717454837987
 40
9.149910822521477
 40
9.608383113880532
 40
10.06684473656503
 40
10.50176885326378
 40
10.9366756781984
 40
11.34317686205533
 40
11.74965070689813
 40
12.12560286659498
 40
12.50151152945966
 40
12.84840717956413
 40
13.19523428719623
 40
13.51889973364655
 40
13.84247541599181
 40
14.15305452831756
 40
14.46358512108122
 40
14.77411571384478
 40
15.08469482617051
 40
15.4082705085158
 40
15.7319359549661
 40
16.07876306259818
 40
16.42565871270267
 40
16.80156737556737
 40
17.17751953526426
 40
17.58399338010707
 40
17.990494563964
 40
18.42540138889859
 40
18.86032550559733
 40
19.31878712828182
 40
19.77725941964087
 40
20.25245278732438
 40
20.72765197540621
 40
21.21151390239768
 40
21.69537768162171
 40
22.17924146084575
 40
22.66310338783723
 40
23.1383025759191
 40
23.61349594360266
 40
24.07196823496171
 40
24.53042985764619
 40
24.96535397434494
 40
25.40026079927954
 40
25.80676198313648
 40
26.21323582797926
 40
26.58918798767611
 40
26.96509665054078
 40
27.31199230064528
 40
27.65881940827742
 40
27.98248485472771
 40
28.30606053707297
 40
28.61663964939871
 40
28.92717024216227
 40
28.92717024216227
 40
28.92717024216227
 40
28.92717024216227
 10
59.58353452729878
 20
118.9473118009159
 30
0.0
 10
59.57931847657974
 20
119.050896835247
 30
0.0
 10
59.5708857163952
 20
119.2580830887897
 30
0.0
 10
59.50415778336952
 20
119.5673026853998
 30
0.0
 10
59.39845040183226
 20
119.8693078316211
 30
0.0
 10
59.24992753370277
 20
120.1664680203682
 30
0.0
 10
59.06345979830874
 20
120.4506146857324
 30
0.0
 10
58.83628874281914
 20
120.7262142708668
 30
0.0
 10
58.57585528475968
 20
120.984579390717
 30
0.0
 10
58.27744917376221
 20
121.2303473681742
 30
0.0
 10
57.95093545435033
 20
121.455780020703
 30
0.0
 10
57.59070859609463
 20
121.6645257500026
 30
0.0
 10
57.20769538885315
 20
121.850594544236
 30
0.0
 10
56.79674563109748
 20
122.016243493852
 30
0.0
 10
56.36849632343337
 20
122.1574579145117
 30
0.0
 10
55.91935606143562
 20
122.275204036585
 30
0.0
 10
55.45856939061451
 20
122.3672751187636
 30
0.0
 10
54.98487052180919
 20
122.4337366922836
 30
0.0
 10
54.50531170297168
 20
122.4737803457062
 30
0.0
 10
54.02138566197627
 20
122.4871131977309
 30
0.0
 10
53.53745962098515
 20
122.4737803457062
 30
0.0
 10
53.05790080213481
 20
122.4337366922836
 30
0.0
 10
52.5842019333758
 20
122.3672751187635
 30
0.0
 10
52.12341526238497
 20
122.2752040365849
 30
0.0
 10
51.67427500099923
 20
122.1574579145117
 30
0.0
 10
51.24602569110739
 20
122.016243493852
 30
0.0
 10
50.83507594125738
 20
121.850594544236
 30
0.0
 10
50.45206270547869
 20
121.6645257500026
 30
0.0
 10
50.09183594708777
 20
121.4557800207031
 30
0.0
 10
49.76532186957743
 20
121.2303473681743
 30
0.0
 10
49.46691699941927
 20
120.984579390717
 30
0.0
 10
49.20647910572981
 20
120.7262142708668
 30
0.0
 10
48.97932338797845
 20
120.4506146857324
 30
0.0
 10
48.79280066173683
 20
120.1664680203681
 30
0.0
 10
48.64446997286399
 20
119.8693078316211
 30
0.0
 10
48.53806561349742
 20
119.5673026853998
 30
0.0
 10
48.47383948775087
 20
119.2580830887897
 30
0.0
 10
48.45193602147064
 20
118.947311800916
 30
0.0
 10
48.47383948775089
 20
118.6365405130422
 30
0.0
 10
48.53806561349744
 20
118.3273209164321
 30
0.0
 10
48.64446997286395
 20
118.0253157702109
 30
0.0
 10
48.79280066173686
 20
117.7281555814637
 30
0.0
 10
48.97932338797844
 20
117.4440089160995
 30
0.0
 10
49.2064791057298
 20
117.1684093309651
 30
0.0
 10
49.46691699941929
 20
116.9100442111148
 30
0.0
 10
49.76532186957739
 20
116.6642762336576
 30
0.0
 10
50.09183594708777
 20
116.4388435811288
 30
0.0
 10
50.45206270547867
 20
116.2300978518291
 30
0.0
 10
50.8350759412574
 20
116.0440290575959
 30
0.0
 10
51.24602569110739
 20
115.8783801079799
 30
0.0
 10
51.67427500099923
 20
115.7371656873203
 30
0.0
 10
52.12341526238499
 20
115.619419565247
 30
0.0
 10
52.5842019333758
 20
115.5273484830683
 30
0.0
 10
53.05790080213481
 20
115.4608869095482
 30
0.0
 10
53.53745962098515
 20
115.4208432561257
 30
0.0
 10
54.02138566197625
 20
115.4075104041011
 30
0.0
 10
54.50531170297167
 20
115.4208432561257
 30
0.0
 10
54.98487052180921
 20
115.4608869095482
 30
0.0
 10
55.4585693906145
 20
115.5273484830684
 30
0.0
 10
55.91935606143562
 20
115.619419565247
 30
0.0
 10
56.36849632343334
 20
115.7371656873203
 30
0.0
 10
56.7967456310975
 20
115.8783801079799
 30
0.0
 10
57.20769538885315
 20
116.0440290575959
 30
0.0
 10
57.59070859609464
 20
116.2300978518291
 30
0.0
 10
57.95093545435032
 20
116.4388435811288
 30
0.0
 10
58.27744917376222
 20
116.6642762336576
 30
0.0
 10
58.57585528475964
 20
116.9100442111148
 30
0.0
 10
58.83628874281902
 20
117.1684093309652
 30
0.0
 10
59.06345979830871
 20
117.4440089160995
 30
0.0
 10
59.24992753370279
 20
117.7281555814637
 30
0.0
 10
59.39845040183224
 20
118.0253157702108
 30
0.0
 10
59.50415778336954
 20
118.3273209164321
 30
0.0
 10
59.57088571639517
 20
118.6365405130422
 30
0.0
 10
59.57931847657972
 20
118.8437267665848
 30
0.0
 10
59.58353452729878
 20
118.9473118009159
 30
0.0
 11
59.58353452729878
 21
118.9473118009159
 31
0.0
 11
59.56202791508545
 21
119.2570967499907
 31
0.0
 11
59.49903298795388
 21
119.5612201199719
 31
0.0
 11
59.39214390567507
 21
119.8666312302721
 31
0.0
 11
59.24809590643258
 21
120.1564751454059
 31
0.0
 11
59.05842622240655
 21
120.4468446574934
 31
0.0
 11
58.83834787897648
 21
120.7149903544838
 31
0.0
 11
58.57199567944673
 21
120.9802521659501
 31
0.0
 11
58.28223889205728
 21
121.2197955452
 31
0.0
 11
57.94808924962497
 21
121.451236688914
 31
0.0
 11
57.5966660358379
 21
121.6555524672784
 31
0.0
 11
57.20567982802298
 21
121.8460091071554
 31
0.0
 11
56.80246009463788
 21
122.0090208671454
 31
0.0
 11
56.36716031791407
 21
122.1528998574765
 31
0.0
 11
55.92375261409308
 21
122.2694607863344
 31
0.0
 11
55.45780791005137
 21
122.3627574607978
 31
0.0
 11
54.98724267635228
 21
122.42895888969
 31
0.0
 11
54.50506439818904
 21
122.4692884379076
 31
0.0
 11
54.02138566197698
 21
122.4826689080517
 31
0.0
 11
53.53770692576494
 21
122.4692884379076
 31
0.0
 11
53.05552864760168
 21
122.42895888969
 31
0.0
 11
52.58496341390262
 21
122.3627574607978
 31
0.0
 11
52.11901870986098
 21
122.2694607863344
 31
0.0
 11
51.67561100603999
 21
122.1528998574765
 31
0.0
 11
51.24031122931618
 21
122.0090208671454
 31
0.0
 11
50.83709149593108
 21
121.8460091071554
 31
0.0
 11
50.44610528811617
 21
121.6555524672784
 31
0.0
 11
50.09468207432909
 21
121.451236688914
 31
0.0
 11
49.76053243189678
 21
121.2197955452
 31
0.0
 11
49.47077564450732
 21
120.9802521659501
 31
0.0
 11
49.20442344497758
 21
120.7149903544838
 31
0.0
 11
48.98434510154753
 21
120.4468446574934
 31
0.0
 11
48.79467541752148
 21
120.1564751454059
 31
0.0
 11
48.65062741827894
 21
119.8666312302721
 31
0.0
 11
48.54373833600008
 21
119.5612201199719
 31
0.0
 11
48.48074340886857
 21
119.2570967499907
 31
0.0
 11
48.45923679665528
 21
118.9473118009159
 31
0.0
 11
48.48074340886858
 21
118.6375268518412
 31
0.0
 11
48.54373833600008
 21
118.33340348186
 31
0.0
 11
48.65062741827893
 21
118.0279923715598
 31
0.0
 11
48.79467541752148
 21
117.738148456426
 31
0.0
 11
48.98434510154753
 21
117.4477789443386
 31
0.0
 11
49.20442344497758
 21
117.1796332473481
 31
0.0
 11
49.47077564450732
 21
116.9143714358818
 31
0.0
 11
49.76053243189678
 21
116.6748280566318
 31
0.0
 11
50.0946820743291
 21
116.4433869129178
 31
0.0
 11
50.44610528811617
 21
116.2390711345534
 31
0.0
 11
50.83709149593108
 21
116.0486144946765
 31
0.0
 11
51.24031122931618
 21
115.8856027346865
 31
0.0
 11
51.67561100603999
 21
115.7417237443554
 31
0.0
 11
52.11901870986098
 21
115.6251628154975
 31
0.0
 11
52.58496341390263
 21
115.5318661410341
 31
0.0
 11
53.05552864760168
 21
115.4656647121418
 31
0.0
 11
53.53770692576492
 21
115.4253351639242
 31
0.0
 11
54.02138566197698
 21
115.4119546937802
 31
0.0
 11
54.50506439818904
 21
115.4253351639242
 31
0.0
 11
54.98724267635228
 21
115.4656647121418
 31
0.0
 11
55.45780791005138
 21
115.5318661410341
 31
0.0
 11
55.92375261409308
 21
115.6251628154975
 31
0.0
 11
56.36716031791406
 21
115.7417237443554
 31
0.0
 11
56.80246009463788
 21
115.8856027346865
 31
0.0
 11
57.20567982802298
 21
116.0486144946765
 31
0.0
 11
57.5966660358379
 21
116.2390711345534
 31
0.0
 11
57.94808924962499
 21
116.4433869129178
 31
0.0
 11
58.28223889205728
 21
116.6748280566318
 31
0.0
 11
58.57199567944667
 21
116.9143714358818
 31
0.0
 11
58.83834787897638
 21
117.1796332473481
 31
0.0
 11
59.0584262224065
 21
117.4477789443385
 31
0.0
 11
59.24809590643258
 21
117.738148456426
 31
0.0
 11
59.39214390567507
 21
118.0279923715598
 31
0.0
 11
59.49903298795388
 21
118.33340348186
 31
0.0
 11
59.56202791508544
 21
118.6375268518412
 31
0.0
 11
59.58353452729878
 21
118.9473118009159
 31
0.0
  0
ENDBLK
  5
47
330
45
100
AcDbEntity
  8
0
100
AcDbBlockEnd
  0
BLOCK
  5
49
330
48
100
AcDbEntity
  8
0
100
AcDbBlockBegin
  2
35-22
 70
     0
 71
     0
 10
-160.7057855282787
 20
140.5846706392713
 30
0.0
  3
35-22
  1

  0
LINE
  5
11F
330
48
100
AcDbEntity
  8
1
  6
Continuous
 62
     7
100
AcDbLine
 10
169.521385661977
 20
98.51195469378017
 30
0.0
 11
170.521385661977
 21
98.51195469378017
 31
0.0
  0
LINE
  5
120
330
48
100
AcDbEntity
  8
1
  6
Continuous
 62
     7
100
AcDbLine
 10
69.12138566197694
 20
229.887373625955
 30
0.0
 11
69.12138566197694
 21
228.887373625955
 31
0.0
  0
LINE
  5
121
330
48
100
AcDbEntity
  8
1
  6
Continuous
 62
     7
100
AcDbLine
 10
51.92138566197696
 20
228.887373625955
 30
0.0
 11
51.92138566197696
 21
229.887373625955
 31
0.0
  0
LINE
  5
122
330
48
100
AcDbEntity
  8
1
  6
Continuous
 62
     7
100
AcDbLine
 10
170.521385661977
 20
81.31195469378018
 30
0.0
 11
169.521385661977
 21
81.31195469378018
 31
0.0
  0
ENDBLK
  5
4A
330
48
100
AcDbEntity
  8
0
100
AcDbBlockEnd
  0
BLOCK
  5
4C
330
4B
100
AcDbEntity
  8
0
100
AcDbBlockBegin
  2
32-26
 70
     0
 71
     0
 10
282.327938313813
 20
126.6912435183802
 30
0.0
  3
32-26
  1

  0
LINE
  5
123
330
4B
100
AcDbEntity
  8
1
  6
Continuous
 62
     7
100
AcDbLine
 10
72.13162868362144
 20
243.387373625955
 30
0.0
 11
48.91114264033246
 21
243.387373625955
 31
0.0
  0
LINE
  5
124
330
4B
100
AcDbEntity
  8
1
  6
Continuous
 62
     7
100
AcDbLine
 10
48.91114264033246
 20
229.887373625955
 30
0.0
 11
72.13162868362144
 21
229.887373625955
 31
0.0
  0
LINE
  5
125
330
4B
100
AcDbEntity
  8
1
  6
Continuous
 62
     7
100
AcDbLine
 10
72.52138566197695
 20
230.5751957994639
 30
0.0
 11
72.52138566197695
 21
242.6995514524461
 31
0.0
  0
LINE
  5
126
330
4B
100
AcDbEntity
  8
1
  6
Continuous
 62
     7
100
AcDbLine
 10
48.52138566197695
 20
230.5751957994639
 30
0.0
 11
48.52138566197695
 21
242.6995514524461
 31
0.0
  0
LINE
  5
127
330
4B
100
AcDbEntity
  8
1
  6
Continuous
 62
     7
100
AcDbLine
 10
170.521385661977
 20
101.2721977154245
 30
0.0
 11
170.521385661977
 21
78.55171167213568
 31
0.0
  0
LINE
  5
128
330
4B
100
AcDbEntity
  8
1
  6
Continuous
 62
     7
100
AcDbLine
 10
184.021385661977
 20
101.2721977154245
 30
0.0
 11
184.021385661977
 21
78.55171167213568
 31
0.0
  0
ARC
  5
129
330
4B
100
AcDbEntity
  8
1
  6
Continuous
 62
     7
100
AcDbCircle
 10
60.02138566197695
 20
236.637373625955
 30
0.0
 40
13.00000000000002
100
AcDbArc
 50
-152.2042275039719
 51
-148.7193328479516
  0
ARC
  5
12A
330
4B
100
AcDbEntity
  8
1
  6
Continuous
 62
     7
100
AcDbCircle
 10
61.02138566197695
 20
236.637373625955
 30
0.0
 40
13.0
100
AcDbArc
 50
27.79577249602801
 51
31.28066715204843
  0
ARC
  5
12B
330
4B
100
AcDbEntity
  8
1
  6
Continuous
 62
     7
100
AcDbCircle
 10
61.02138566197695
 20
236.637373625955
 30
0.0
 40
13.00000000000001
100
AcDbArc
 50
-31.28066715204843
 51
-27.79577249602812
  0
ARC
  5
12C
330
4B
100
AcDbEntity
  8
1
  6
Continuous
 62
     7
100
AcDbCircle
 10
60.02138566197695
 20
236.637373625955
 30
0.0
 40
13.00000000000001
100
AcDbArc
 50
148.7193328479516
 51
152.204227503972
  0
ARC
  5
12D
330
4B
100
AcDbEntity
  8
1
  6
Continuous
 62
     7
100
AcDbCircle
 10
177.271385661977
 20
90.16195469378003
 30
0.0
 40
12.99999999999998
100
AcDbArc
 50
58.71933284795151
 51
121.2806671520485
  0
ARC
  5
12E
330
4B
100
AcDbEntity
  8
1
  6
Continuous
 62
     7
100
AcDbCircle
 10
177.000060002099
 20
89.89640838282809
 30
0.0
 40
6.332098487497206
100
AcDbArc
 50
0.14067041142498
 51
38.10483270602296
  0
ARC
  5
12F
330
4B
100
AcDbEntity
  8
1
  6
Continuous
 62
     7
100
AcDbCircle
 10
177.4716933799008
 20
89.861020775558
 30
0.0
 40
6.238808798172386
100
AcDbArc
 50
91.83989603134396
 51
179.5322294588913
  0
ARC
  5
130
330
4B
100
AcDbEntity
  8
1
  6
Continuous
 62
     7
100
AcDbCircle
 10
177.2711112984856
 20
90.10897666790446
 30
0.0
 40
5.987636470587903
100
AcDbArc
 50
38.10483270602291
 51
89.99737461180344
  0
ARC
  5
131
330
4B
100
AcDbEntity
  8
1
  6
Continuous
 62
     7
100
AcDbCircle
 10
177.271385661977
 20
89.66195469378015
 30
0.0
 40
12.99999999999998
100
AcDbArc
 50
-121.2806671520485
 51
-58.71933284795151
  0
ARC
  5
132
330
4B
100
AcDbEntity
  8
1
  6
Continuous
 62
     7
100
AcDbCircle
 10
177.000060002099
 20
89.92750100473209
 30
0.0
 40
6.332098487497134
100
AcDbArc
 50
-38.10483270602296
 51
-0.14067041142395
  0
ARC
  5
133
330
4B
100
AcDbEntity
  8
1
  6
Continuous
 62
     7
100
AcDbCircle
 10
177.4716933799008
 20
89.96288861200218
 30
0.0
 40
6.238808798172458
100
AcDbArc
 50
-179.5322294588923
 51
-91.83989603134396
  0
ARC
  5
134
330
4B
100
AcDbEntity
  8
1
  6
Continuous
 62
     7
100
AcDbCircle
 10
177.2711112984856
 20
89.71493271965572
 30
0.0
 40
5.987636470587953
100
AcDbArc
 50
-89.99737461180344
 51
-38.10483270602291
  0
SPLINE
  5
135
330
4B
100
AcDbEntity
  8
1
  6
Continuous
 62
     7
100
AcDbSpline
210
0.0
220
0.0
230
1.0
 70
    11
 71
     3
 72
    79
 73
    75
 74
    73
 42
0.0000000001
 43
0.0000000001
 44
0.00000001
 40
0.0
 40
0.0
 40
0.0
 40
0.0
 40
0.2732520596959657
 40
0.5466869743746995
 40
0.8413986807838897
 40
1.136327588786966
 40
1.467767925674598
 40
1.799287330784432
 40
2.174576154088272
 40
2.549907460999791
 40
2.96956123558018
 40
3.389237629160006
 40
3.849011454340431
 40
4.30879950399352
 40
4.801169042998258
 40
5.293547118901654
 40
5.808782067216351
 40
6.324021649886056
 40
6.851020326127253
 40
7.378020465970081
 40
7.905020605812853
 40
8.432019282053991
 40
8.947258864723668
 40
9.462493813038392
 40
9.95487188894182
 40
10.44724142794653
 40
10.90702947759962
 40
11.36680330278004
 40
11.78647969635987
 40
12.20613347094025
 40
12.58146477785186
 40
12.95675360115571
 40
13.2882730062655
 40
13.6197133431531
 40
13.91464225115621
 40
14.20935395756545
 40
14.48278887224413
 40
14.75604093194007
 40
15.02929299163604
 40
15.30272790631475
 40
15.59743961272395
 40
15.89236852072711
 40
16.22380885761467
 40
16.55532826272451
 40
16.93061708602835
 40
17.30594839293992
 40
17.72560216752028
 40
18.14527856110014
 40
18.60505238628056
 40
19.06484043593365
 40
19.55720997493834
 40
20.0495880508418
 40
20.56482299915652
 40
21.0800625818262
 40
21.6070612580673
 40
22.1340613979101
 40
22.66106153775296
 40
23.18806021399412
 40
23.70329979666384
 40
24.21853474497854
 40
24.71091282088194
 40
25.20328235988667
 40
25.66307040953976
 40
26.12284423472018
 40
26.54252062830004
 40
26.9621744028804
 40
27.33750570979185
 40
27.71279453309572
 40
28.04431393820563
 40
28.37575427509324
 40
28.67068318309634
 40
28.96539488950555
 40
29.23882980418427
 40
29.5120818638802
 40
29.5120818638802
 40
29.5120818638802
 40
29.5120818638802
 10
171.2092078354859
 20
80.00398511069828
 30
0.0
 10
171.213939624401
 20
79.91280616174157
 30
0.0
 10
171.2234063686524
 20
79.73038724864252
 30
0.0
 10
171.2969961395641
 20
79.45776743309509
 30
0.0
 10
171.4129519856851
 20
79.19351352346982
 30
0.0
 10
171.5765047727828
 20
78.9325265868989
 30
0.0
 10
171.7795670177418
 20
78.68507445938946
 30
0.0
 10
172.0285161496034
 20
78.44380528774336
 30
0.0
 10
172.3114036928052
 20
78.21908857047208
 30
0.0
 10
172.637475875572
 20
78.00422440163858
 30
0.0
 10
172.9921041289444
 20
77.80802681652099
 30
0.0
 10
173.385174280785
 20
77.62561427209643
 30
0.0
 10
173.8014274866216
 20
77.4635055569283
 30
0.0
 10
174.2495140976987
 20
77.31877939488403
 30
0.0
 10
174.7152518075789
 20
77.19563210877716
 30
0.0
 10
175.2047547487491
 20
77.09277559019679
 30
0.0
 10
175.7061710370511
 20
77.01242256659585
 30
0.0
 10
176.2222542211233
 20
76.95438174904523
 30
0.0
 10
176.7443416321723
 20
76.91940816313965
 30
0.0
 10
177.2713856619781
 20
76.90777975027525
 30
0.0
 10
177.7984296917773
 20
76.91940816313965
 30
0.0
 10
178.3205171028459
 20
76.95438174904521
 30
0.0
 10
178.8366002868474
 20
77.01242256659587
 30
0.0
 10
179.3380165754079
 20
77.09277559019678
 30
0.0
 10
179.8275195156544
 20
77.19563210877719
 30
0.0
 10
180.2932572288738
 20
77.31877939488403
 30
0.0
 10
180.7413438282762
 20
77.46350555692828
 30
0.0
 10
181.1575970757954
 20
77.62561427209643
 30
0.0
 10
181.5506670849906
 20
77.80802681652099
 30
0.0
 10
181.9052958418383
 20
78.00422440163865
 30
0.0
 10
182.2313663340766
 20
78.21908857047202
 30
0.0
 10
182.5142597933244
 20
78.44380528774336
 30
0.0
 10
182.7631892877632
 20
78.68507445938943
 30
0.0
 10
182.9663202018116
 20
78.93252658689893
 30
0.0
 10
183.1296435043319
 20
79.19351352346988
 30
0.0
 10
183.2464133709995
 20
79.45776743309509
 30
0.0
 10
183.3171737784911
 20
79.7303872486426
 30
0.0
 10
183.3417556024545
 20
80.00398511069827
 30
0.0
 10
183.3171737784911
 20
80.27758297275403
 30
0.0
 10
183.2464133709994
 20
80.55020278830151
 30
0.0
 10
183.129643504332
 20
80.81445669792677
 30
0.0
 10
182.9663202018116
 20
81.07544363449766
 30
0.0
 10
182.7631892877633
 20
81.32289576200719
 30
0.0
 10
182.5142597933244
 20
81.56416493365327
 30
0.0
 10
182.2313663340765
 20
81.78888165092452
 30
0.0
 10
181.9052958418384
 20
82.00374581975794
 30
0.0
 10
181.5506670849906
 20
82.1999434048756
 30
0.0
 10
181.1575970757954
 20
82.38235594930013
 30
0.0
 10
180.7413438282762
 20
82.54446466446827
 30
0.0
 10
180.2932572288738
 20
82.68919082651249
 30
0.0
 10
179.8275195156544
 20
82.81233811261943
 30
0.0
 10
179.3380165754079
 20
82.91519463119978
 30
0.0
 10
178.8366002868474
 20
82.99554765480077
 30
0.0
 10
178.3205171028459
 20
83.05358847235142
 30
0.0
 10
177.7984296917774
 20
83.08856205825691
 30
0.0
 10
177.2713856619781
 20
83.10019047112129
 30
0.0
 10
176.7443416321722
 20
83.08856205825695
 30
0.0
 10
176.2222542211233
 20
83.05358847235141
 30
0.0
 10
175.7061710370512
 20
82.99554765480075
 30
0.0
 10
175.2047547487491
 20
82.91519463119975
 30
0.0
 10
174.7152518075789
 20
82.81233811261937
 30
0.0
 10
174.2495140976987
 20
82.68919082651252
 30
0.0
 10
173.8014274866216
 20
82.54446466446827
 30
0.0
 10
173.3851742807849
 20
82.38235594930013
 30
0.0
 10
172.9921041289444
 20
82.19994340487557
 30
0.0
 10
172.637475875572
 20
82.003745819758
 30
0.0
 10
172.3114036928052
 20
81.78888165092448
 30
0.0
 10
172.0285161496034
 20
81.56416493365325
 30
0.0
 10
171.7795670177417
 20
81.32289576200724
 30
0.0
 10
171.5765047727828
 20
81.07544363449759
 30
0.0
 10
171.4129519856851
 20
80.81445669792672
 30
0.0
 10
171.2969961395641
 20
80.55020278830146
 30
0.0
 10
171.2234063686524
 20
80.27758297275398
 30
0.0
 10
171.2139396244009
 20
80.09516405965498
 30
0.0
 10
171.2092078354859
 20
80.00398511069828
 30
0.0
 11
171.2092078354859
 21
80.00398511069828
 31
0.0
 11
171.2329835840878
 21
79.73176938391802
 31
0.0
 11
171.3013059383099
 21
79.46700777703568
 31
0.0
 11
171.4192883279011
 21
79.19694270035789
 31
0.0
 11
171.5748018925313
 21
78.94634622793284
 31
0.0
 11
171.7841548323218
 21
78.68939478598853
 31
0.0
 11
172.021385661977
 21
78.45782050109169
 31
0.0
 11
172.3146224982639
 21
78.2236114945586
 31
0.0
 11
172.6274880247944
 21
78.01627420351638
 31
0.0
 11
172.9943245145658
 21
77.81245987553184
 31
0.0
 11
173.374692867392
 21
77.63512349602551
 31
0.0
 11
173.8029273768946
 21
77.46777005210485
 31
0.0
 11
174.2402967487314
 21
77.32594944999468
 31
0.0
 11
174.7162154819512
 21
77.19973882322272
 31
0.0
 11
175.1979987328948
 21
77.09814616236295
 31
0.0
 11
175.7067100060977
 21
77.01641555315739
 31
0.0
 11
176.2186995297139
 21
76.95863532075093
 31
0.0
 11
176.7445151226544
 21
76.92334272973588
 31
0.0
 11
177.271385661977
 21
76.91165589148504
 31
0.0
 11
177.7982562012995
 21
76.92334272973589
 31
0.0
 11
178.32407179424
 21
76.95863532075093
 31
0.0
 11
178.8360613178562
 21
77.01641555315739
 31
0.0
 11
179.3447725910591
 21
77.09814616236295
 31
0.0
 11
179.8265558420027
 21
77.19973882322273
 31
0.0
 11
180.3024745752225
 21
77.32594944999468
 31
0.0
 11
180.7398439470593
 21
77.46777005210487
 31
0.0
 11
181.1680784565619
 21
77.63512349602551
 31
0.0
 11
181.5484468093881
 21
77.81245987553186
 31
0.0
 11
181.9152832991595
 21
78.01627420351638
 31
0.0
 11
182.2281488256901
 21
78.22361149455858
 31
0.0
 11
182.521385661977
 21
78.45782050109169
 31
0.0
 11
182.7586164916322
 21
78.68939478598853
 31
0.0
 11
182.9679694314226
 21
78.94634622793284
 31
0.0
 11
183.1234829960529
 21
79.19694270035792
 31
0.0
 11
183.2414653856441
 21
79.46700777703573
 31
0.0
 11
183.3097877398661
 21
79.73176938391805
 31
0.0
 11
183.333563488468
 21
80.00398511069828
 31
0.0
 11
183.3097877398661
 21
80.27620083747854
 31
0.0
 11
183.2414653856441
 21
80.54096244436089
 31
0.0
 11
183.1234829960529
 21
80.81102752103868
 31
0.0
 11
182.9679694314226
 21
81.06162399346378
 31
0.0
 11
182.7586164916322
 21
81.31857543540809
 31
0.0
 11
182.521385661977
 21
81.55014972030493
 31
0.0
 11
182.2281488256901
 21
81.78435872683799
 31
0.0
 11
181.9152832991595
 21
81.99169601788019
 31
0.0
 11
181.5484468093882
 21
82.19551034586471
 31
0.0
 11
181.1680784565619
 21
82.37284672537105
 31
0.0
 11
180.7398439470593
 21
82.54020016929169
 31
0.0
 11
180.3024745752225
 21
82.68202077140187
 31
0.0
 11
179.8265558420027
 21
82.80823139817385
 31
0.0
 11
179.3447725910591
 21
82.90982405903365
 31
0.0
 11
178.8360613178562
 21
82.99155466823923
 31
0.0
 11
178.32407179424
 21
83.04933490064569
 31
0.0
 11
177.7982562012996
 21
83.08462749166068
 31
0.0
 11
177.271385661977
 21
83.09631432991152
 31
0.0
 11
176.7445151226544
 21
83.08462749166071
 31
0.0
 11
176.2186995297139
 21
83.04933490064569
 31
0.0
 11
175.7067100060977
 21
82.99155466823919
 31
0.0
 11
175.1979987328948
 21
82.9098240590336
 31
0.0
 11
174.7162154819512
 21
82.80823139817382
 31
0.0
 11
174.2402967487314
 21
82.68202077140187
 31
0.0
 11
173.8029273768946
 21
82.54020016929169
 31
0.0
 11
173.374692867392
 21
82.37284672537105
 31
0.0
 11
172.9943245145657
 21
82.19551034586471
 31
0.0
 11
172.6274880247944
 21
81.99169601788019
 31
0.0
 11
172.314622498264
 21
81.78435872683799
 31
0.0
 11
172.021385661977
 21
81.55014972030493
 31
0.0
 11
171.7841548323217
 21
81.31857543540808
 31
0.0
 11
171.5748018925313
 21
81.06162399346373
 31
0.0
 11
171.4192883279011
 21
80.81102752103864
 31
0.0
 11
171.3013059383099
 21
80.54096244436083
 31
0.0
 11
171.2329835840878
 21
80.27620083747851
 31
0.0
 11
171.2092078354859
 21
80.00398511069828
 31
0.0
  0
SPLINE
  5
136
330
4B
100
AcDbEntity
  8
1
  6
Continuous
 62
     7
100
AcDbSpline
210
0.0
220
0.0
230
1.0
 70
    11
 71
     3
 72
    79
 73
    75
 74
    73
 42
0.0000000001
 43
0.0000000001
 44
0.00000001
 40
0.0
 40
0.0
 40
0.0
 40
0.0
 40
0.273252059695954
 40
0.546686974374722
 40
0.8413986807839122
 40
1.136327588787037
 40
1.467767925674633
 40
1.799287330784477
 40
2.1745761540883
 40
2.549907460999827
 40
2.969561235580216
 40
3.389237629160061
 40
3.84901145434047
 40
4.308799503993559
 40
4.801169042998282
 40
5.293547118901684
 40
5.808782067216414
 40
6.324021649886097
 40
6.851020326127264
 40
7.378020465970121
 40
7.905020605812892
 40
8.43201928205403
 40
8.947258864723715
 40
9.462493813038444
 40
9.954871888941865
 40
10.44724142794657
 40
10.90702947759966
 40
11.36680330278007
 40
11.78647969635992
 40
12.2061334709403
 40
12.58146477785189
 40
12.95675360115575
 40
13.28827300626552
 40
13.61971334315311
 40
13.91464225115625
 40
14.20935395756546
 40
14.4827888722442
 40
14.75604093194017
 40
15.02929299163613
 40
15.30272790631483
 40
15.59743961272405
 40
15.8923685207272
 40
16.22380885761474
 40
16.55532826272455
 40
16.93061708602845
 40
17.30594839293999
 40
17.72560216752035
 40
18.14527856110021
 40
18.60505238628062
 40
19.06484043593371
 40
19.5572099749384
 40
20.04958805084186
 40
20.56482299915659
 40
21.08006258182626
 40
21.60706125806737
 40
22.13406139791017
 40
22.66106153775302
 40
23.18806021399419
 40
23.7032997966639
 40
24.2185347449786
 40
24.710912820882
 40
25.20328235988673
 40
25.66307040953982
 40
26.12284423472024
 40
26.5425206283001
 40
26.96217440288046
 40
27.33750570979192
 40
27.7127945330958
 40
28.04431393820568
 40
28.3757542750933
 40
28.67068318309641
 40
28.96539488950563
 40
29.23882980418431
 40
29.51208186388021
 40
29.51208186388021
 40
29.51208186388021
 40
29.51208186388021
 10
171.2092078354859
 20
99.81992427686187
 30
0.0
 10
171.213939624401
 20
99.91110322581858
 30
0.0
 10
171.2234063686526
 20
100.0935221389176
 30
0.0
 10
171.296996139564
 20
100.3661419544651
 30
0.0
 10
171.4129519856851
 20
100.6303958640903
 30
0.0
 10
171.5765047727828
 20
100.8913828006613
 30
0.0
 10
171.7795670177417
 20
101.1388349281708
 30
0.0
 10
172.0285161496034
 20
101.3801040998168
 30
0.0
 10
172.3114036928052
 20
101.6048208170881
 30
0.0
 10
172.637475875572
 20
101.8196849859216
 30
0.0
 10
172.9921041289444
 20
102.0158825710392
 30
0.0
 10
173.3851742807849
 20
102.1982951154638
 30
0.0
 10
173.8014274866216
 20
102.3604038306319
 30
0.0
 10
174.2495140976986
 20
102.5051299926762
 30
0.0
 10
174.7152518075789
 20
102.6282772787829
 30
0.0
 10
175.2047547487491
 20
102.7311337973633
 30
0.0
 10
175.7061710370512
 20
102.8114868209643
 30
0.0
 10
176.2222542211233
 20
102.869527638515
 30
0.0
 10
176.7443416321723
 20
102.9045012244205
 30
0.0
 10
177.2713856619781
 20
102.916129637285
 30
0.0
 10
177.7984296917773
 20
102.9045012244205
 30
0.0
 10
178.3205171028459
 20
102.869527638515
 30
0.0
 10
178.8366002868473
 20
102.8114868209643
 30
0.0
 10
179.338016575408
 20
102.7311337973634
 30
0.0
 10
179.8275195156544
 20
102.628277278783
 30
0.0
 10
180.2932572288737
 20
102.5051299926761
 30
0.0
 10
180.7413438282762
 20
102.3604038306319
 30
0.0
 10
181.1575970757954
 20
102.1982951154638
 30
0.0
 10
181.5506670849906
 20
102.0158825710392
 30
0.0
 10
181.9052958418383
 20
101.8196849859216
 30
0.0
 10
182.2313663340767
 20
101.6048208170882
 30
0.0
 10
182.5142597933244
 20
101.3801040998168
 30
0.0
 10
182.7631892877632
 20
101.1388349281708
 30
0.0
 10
182.9663202018117
 20
100.8913828006613
 30
0.0
 10
183.1296435043319
 20
100.6303958640904
 30
0.0
 10
183.2464133709994
 20
100.3661419544652
 30
0.0
 10
183.3171737784911
 20
100.0935221389176
 30
0.0
 10
183.3417556024545
 20
99.81992427686184
 30
0.0
 10
183.3171737784911
 20
99.54632641480619
 30
0.0
 10
183.2464133709994
 20
99.27370659925862
 30
0.0
 10
183.1296435043319
 20
99.00945268963336
 30
0.0
 10
182.9663202018116
 20
98.74846575306253
 30
0.0
 10
182.7631892877633
 20
98.50101362555294
 30
0.0
 10
182.5142597933244
 20
98.25974445390696
 30
0.0
 10
182.2313663340766
 20
98.03502773663564
 30
0.0
 10
181.9052958418383
 20
97.82016356780224
 30
0.0
 10
181.5506670849907
 20
97.62396598268464
 30
0.0
 10
181.1575970757953
 20
97.44155343826
 30
0.0
 10
180.7413438282762
 20
97.27944472309193
 30
0.0
 10
180.2932572288738
 20
97.13471856104766
 30
0.0
 10
179.8275195156544
 20
97.01157127494078
 30
0.0
 10
179.3380165754079
 20
96.90871475636035
 30
0.0
 10
178.8366002868474
 20
96.82836173275942
 30
0.0
 10
178.3205171028459
 20
96.77032091520879
 30
0.0
 10
177.7984296917774
 20
96.73534732930327
 30
0.0
 10
177.2713856619781
 20
96.72371891643888
 30
0.0
 10
176.7443416321722
 20
96.73534732930321
 30
0.0
 10
176.2222542211233
 20
96.7703209152088
 30
0.0
 10
175.7061710370512
 20
96.82836173275943
 30
0.0
 10
175.2047547487491
 20
96.90871475636045
 30
0.0
 10
174.7152518075788
 20
97.01157127494081
 30
0.0
 10
174.2495140976986
 20
97.13471856104765
 30
0.0
 10
173.8014274866216
 20
97.27944472309191
 30
0.0
 10
173.3851742807849
 20
97.44155343826004
 30
0.0
 10
172.9921041289444
 20
97.62396598268461
 30
0.0
 10
172.6374758755721
 20
97.82016356780221
 30
0.0
 10
172.3114036928052
 20
98.0350277366357
 30
0.0
 10
172.0285161496034
 20
98.25974445390695
 30
0.0
 10
171.7795670177417
 20
98.50101362555301
 30
0.0
 10
171.5765047727828
 20
98.74846575306253
 30
0.0
 10
171.4129519856851
 20
99.00945268963351
 30
0.0
 10
171.296996139564
 20
99.27370659925873
 30
0.0
 10
171.2234063686526
 20
99.5463264148062
 30
0.0
 10
171.213939624401
 20
99.72874532790519
 30
0.0
 10
171.2092078354859
 20
99.81992427686187
 30
0.0
 11
171.2092078354859
 21
99.81992427686187
 31
0.0
 11
171.2329835840879
 21
100.0921400036421
 31
0.0
 11
171.3013059383099
 21
100.3569016105245
 31
0.0
 11
171.4192883279011
 21
100.6269666872023
 31
0.0
 11
171.5748018925313
 21
100.8775631596274
 31
0.0
 11
171.7841548323218
 21
101.1345146015717
 31
0.0
 11
172.021385661977
 21
101.3660888864685
 31
0.0
 11
172.3146224982639
 21
101.6002978930016
 31
0.0
 11
172.6274880247944
 21
101.8076351840438
 31
0.0
 11
172.9943245145658
 21
102.0114495120283
 31
0.0
 11
173.374692867392
 21
102.1887858915347
 31
0.0
 11
173.8029273768946
 21
102.3561393354553
 31
0.0
 11
174.2402967487314
 21
102.4979599375655
 31
0.0
 11
174.7162154819512
 21
102.6241705643374
 31
0.0
 11
175.1979987328948
 21
102.7257632251972
 31
0.0
 11
175.7067100060978
 21
102.8074938344028
 31
0.0
 11
176.2186995297139
 21
102.8652740668093
 31
0.0
 11
176.7445151226544
 21
102.9005666578243
 31
0.0
 11
177.271385661977
 21
102.9122534960752
 31
0.0
 11
177.7982562012995
 21
102.9005666578243
 31
0.0
 11
178.32407179424
 21
102.8652740668093
 31
0.0
 11
178.8360613178562
 21
102.8074938344028
 31
0.0
 11
179.3447725910591
 21
102.7257632251972
 31
0.0
 11
179.8265558420027
 21
102.6241705643375
 31
0.0
 11
180.3024745752225
 21
102.4979599375655
 31
0.0
 11
180.7398439470593
 21
102.3561393354553
 31
0.0
 11
181.1680784565619
 21
102.1887858915347
 31
0.0
 11
181.5484468093881
 21
102.0114495120283
 31
0.0
 11
181.9152832991595
 21
101.8076351840438
 31
0.0
 11
182.2281488256901
 21
101.6002978930016
 31
0.0
 11
182.521385661977
 21
101.3660888864685
 31
0.0
 11
182.7586164916322
 21
101.1345146015717
 31
0.0
 11
182.9679694314226
 21
100.8775631596274
 31
0.0
 11
183.1234829960529
 21
100.6269666872023
 31
0.0
 11
183.2414653856441
 21
100.3569016105245
 31
0.0
 11
183.3097877398661
 21
100.0921400036421
 31
0.0
 11
183.333563488468
 21
99.81992427686187
 31
0.0
 11
183.3097877398661
 21
99.54770855008161
 31
0.0
 11
183.2414653856441
 21
99.28294694319928
 31
0.0
 11
183.1234829960529
 21
99.01288186652147
 31
0.0
 11
182.9679694314226
 21
98.76228539409637
 31
0.0
 11
182.7586164916322
 21
98.50533395215209
 31
0.0
 11
182.521385661977
 21
98.27375966725528
 31
0.0
 11
182.22814882569
 21
98.03955066072217
 31
0.0
 11
181.9152832991595
 21
97.83221336967999
 31
0.0
 11
181.5484468093882
 21
97.62839904169547
 31
0.0
 11
181.1680784565619
 21
97.45106266218913
 31
0.0
 11
180.7398439470593
 21
97.2837092182685
 31
0.0
 11
180.3024745752225
 21
97.14188861615831
 31
0.0
 11
179.8265558420027
 21
97.01567798938633
 31
0.0
 11
179.3447725910591
 21
96.91408532852653
 31
0.0
 11
178.8360613178562
 21
96.83235471932095
 31
0.0
 11
178.32407179424
 21
96.77457448691449
 31
0.0
 11
177.7982562012996
 21
96.7392818958995
 31
0.0
 11
177.271385661977
 21
96.72759505764866
 31
0.0
 11
176.7445151226544
 21
96.73928189589948
 31
0.0
 11
176.2186995297139
 21
96.77457448691449
 31
0.0
 11
175.7067100060977
 21
96.83235471932098
 31
0.0
 11
175.1979987328948
 21
96.91408532852658
 31
0.0
 11
174.7162154819512
 21
97.01567798938638
 31
0.0
 11
174.2402967487314
 21
97.14188861615831
 31
0.0
 11
173.8029273768946
 21
97.28370921826848
 31
0.0
 11
173.374692867392
 21
97.45106266218913
 31
0.0
 11
172.9943245145657
 21
97.62839904169547
 31
0.0
 11
172.6274880247944
 21
97.83221336967999
 31
0.0
 11
172.314622498264
 21
98.0395506607222
 31
0.0
 11
172.021385661977
 21
98.27375966725528
 31
0.0
 11
171.7841548323218
 21
98.50533395215213
 31
0.0
 11
171.5748018925313
 21
98.76228539409647
 31
0.0
 11
171.4192883279011
 21
99.01288186652157
 31
0.0
 11
171.3013059383099
 21
99.28294694319938
 31
0.0
 11
171.2329835840879
 21
99.54770855008168
 31
0.0
 11
171.2092078354859
 21
99.81992427686187
 31
0.0
  0
SPLINE
  5
137
330
4B
100
AcDbEntity
  8
1
  6
Continuous
 62
     7
100
AcDbSpline
210
0.0
220
0.0
230
1.0
 70
    11
 71
     3
 72
    79
 73
    75
 74
    73
 42
0.0000000001
 43
0.0000000001
 44
0.00000001
 40
0.0
 40
0.0
 40
0.0
 40
0.0
 40
0.4678744007739625
 40
0.9357531927872851
 40
1.407485930135251
 40
1.879230484328327
 40
2.35813584189596
 40
2.837057239131111
 40
3.325463367261268
 40
3.813886402176197
 40
4.312879557180145
 40
4.811888069867811
 40
5.321250498094524
 40
5.830625406988221
 40
6.348936658710714
 40
6.867256949342179
 40
7.392112797561143
 40
7.916974076742586
 40
8.445280254639943
 40
8.973588240303876
 40
9.501896225967837
 40
10.03020240386528
 40
10.55506368304667
 40
11.07991953126558
 40
11.59823982189699
 40
12.11655107361954
 40
12.62592598251328
 40
13.13528841074004
 40
13.63429692342768
 40
14.13329007843159
 40
14.6217131133465
 40
15.11011924147666
 40
15.5890406387118
 40
16.06794599627944
 40
16.53969055047252
 40
17.01142328782049
 40
17.47930207983381
 40
17.94717648060778
 40
18.4150508813818
 40
18.88292967339515
 40
19.35466241074311
 40
19.82640696493619
 40
20.30531232250384
 40
20.78423371973897
 40
21.2726398478691
 40
21.76106288278397
 40
22.26005603778791
 40
22.75906455047558
 40
23.2684269787024
 40
23.77780188759608
 40
24.29611313931856
 40
24.81443342995
 40
25.33928927816893
 40
25.8641505573503
 40
26.39245673524775
 40
26.92076472091171
 40
27.44907270657568
 40
27.97737888447302
 40
28.50224016365441
 40
29.02709601187342
 40
29.54541630250487
 40
30.06372755422733
 40
30.573102463121
 40
31.08246489134774
 40
31.58147340403546
 40
32.08046655903942
 40
32.56888959395429
 40
33.05729572208444
 40
33.53621711931957
 40
34.01512247688722
 40
34.4868670310803
 40
34.95859976842826
 40
35.42647856044162
 40
35.89435296121563
 40
35.89435296121563
 40
35.89435296121563
 40
35.89435296121563
 10
66.52138566197695
 20
242.6995514524461
 30
0.0
 10
66.67740562304675
 20
242.6950716338436
 30
0.0
 10
66.98944700951306
 20
242.6861119545932
 30
0.0
 10
67.45423113171546
 20
242.6142120873264
 30
0.0
 10
67.91120174788858
 20
242.4999784908285
 30
0.0
 10
68.3583829322136
 20
242.3400500055473
 30
0.0
 10
68.79034828537805
 20
242.1371901732461
 30
0.0
 10
69.20615866353975
 20
241.8918914592904
 30
0.0
 10
69.60008394580939
 20
241.6073645052468
 30
0.0
 10
69.9717881678541
 20
241.2841344719117
 30
0.0
 10
70.3158678275727
 20
240.9267232468417
 30
0.0
 10
70.63216358291646
 20
240.5355385212611
 30
0.0
 10
70.91611699383785
 20
240.1160970661587
 30
0.0
 10
71.1674605162688
 20
239.6689811673383
 30
0.0
 10
71.3827949912591
 20
239.2001656759901
 30
0.0
 10
71.56166162393353
 20
238.710789493554
 30
0.0
 10
71.70190584955316
 20
238.2067132155946
 30
0.0
 10
71.80299038520013
 20
237.6899717648665
 30
0.0
 10
71.86388744013806
 20
237.1658115262332
 30
0.0
 10
71.88424176661516
 20
236.6373736259545
 30
0.0
 10
71.86388744013809
 20
236.1089357256786
 30
0.0
 10
71.80299038520019
 20
235.5847754870369
 30
0.0
 10
71.70190584955313
 20
235.0680340363396
 30
0.0
 10
71.56166162393353
 20
234.5639577582659
 30
0.0
 10
71.38279499125909
 20
234.0745815762518
 30
0.0
 10
71.1674605162688
 20
233.605766083342
 30
0.0
 10
70.91611699383782
 20
233.158650190253
 30
0.0
 10
70.63216358291653
 20
232.739208713983
 30
0.0
 10
70.3158678275727
 20
232.3480240658624
 30
0.0
 10
69.9717881678541
 20
231.9906125549954
 30
0.0
 10
69.60008394580937
 20
231.6673835666368
 30
0.0
 10
69.20615866353978
 20
231.3828527554896
 30
0.0
 10
68.790348285378
 20
231.1375681690425
 30
0.0
 10
68.35838293221366
 20
230.9346560925247
 30
0.0
 10
67.91120174788856
 20
230.7749198005801
 30
0.0
 10
67.45423113171546
 20
230.6599731552614
 30
0.0
 10
66.98944700951306
 20
230.5907137460827
 30
0.0
 10
66.52138566197691
 20
230.5674368625652
 30
0.0
 10
66.05332431444083
 20
230.5907137460828
 30
0.0
 10
65.58854019223834
 20
230.6599731552612
 30
0.0
 10
65.13156957606526
 20
230.7749198005803
 30
0.0
 10
64.68438839174016
 20
230.9346560925246
 30
0.0
 10
64.2524230385758
 20
231.1375681690425
 30
0.0
 10
63.83661266041404
 20
231.3828527554896
 30
0.0
 10
63.4426873781445
 20
231.6673835666367
 30
0.0
 10
63.07098315609979
 20
231.9906125549954
 30
0.0
 10
62.72690349638115
 20
232.3480240658624
 30
0.0
 10
62.41060774103729
 20
232.7392087139828
 30
0.0
 10
62.12665433011599
 20
233.1586501902532
 30
0.0
 10
61.87531080768498
 20
233.6057660833419
 30
0.0
 10
61.65997633269477
 20
234.0745815762518
 30
0.0
 10
61.48110970002041
 20
234.563957758266
 30
0.0
 10
61.34086547440082
 20
235.0680340363396
 30
0.0
 10
61.23978093875379
 20
235.5847754870369
 30
0.0
 10
61.17888388381578
 20
236.1089357256786
 30
0.0
 10
61.15852955733864
 20
236.6373736259546
 30
0.0
 10
61.17888388381577
 20
237.1658115262332
 30
0.0
 10
61.23978093875378
 20
237.6899717648666
 30
0.0
 10
61.34086547440084
 20
238.2067132155945
 30
0.0
 10
61.48110970002037
 20
238.7107894935539
 30
0.0
 10
61.65997633269478
 20
239.20016567599
 30
0.0
 10
61.87531080768498
 20
239.6689811673383
 30
0.0
 10
62.12665433011595
 20
240.1160970661587
 30
0.0
 10
62.41060774103733
 20
240.535538521261
 30
0.0
 10
62.72690349638115
 20
240.9267232468418
 30
0.0
 10
63.07098315609979
 20
241.2841344719117
 30
0.0
 10
63.44268737814451
 20
241.6073645052467
 30
0.0
 10
63.83661266041402
 20
241.8918914592905
 30
0.0
 10
64.2524230385758
 20
242.1371901732459
 30
0.0
 10
64.68438839174019
 20
242.3400500055475
 30
0.0
 10
65.13156957606523
 20
242.4999784908284
 30
0.0
 10
65.58854019223837
 20
242.6142120873265
 30
0.0
 10
66.05332431444082
 20
242.6861119545931
 30
0.0
 10
66.36536570090715
 20
242.6950716338436
 30
0.0
 10
66.52138566197695
 20
242.6995514524461
 30
0.0
 11
66.52138566197695
 21
242.6995514524461
 31
0.0
 11
66.98868699503134
 21
242.6764015274963
 31
0.0
 11
67.45145768639335
 21
242.6074533496221
 31
0.0
 11
67.90898259163687
 21
242.4925501879262
 31
0.0
 11
68.35326994298706
 21
242.3339573954006
 31
0.0
 11
68.78683515228016
 21
242.130557418022
 31
0.0
 11
69.19942132268045
 21
241.887373625955
 31
0.0
 11
69.59550381990522
 21
241.6016128844469
 31
0.0
 11
69.96420194397484
 21
241.2812712631376
 31
0.0
 11
70.31046332553636
 21
240.9219702411798
 31
0.0
 11
70.62437433468975
 21
240.5340664205399
 31
0.0
 11
70.91011305907026
 21
240.1123989393673
 31
0.0
 11
71.15987949079675
 21
239.6684625392005
 31
0.0
 11
71.37638345692999
 21
239.1975351707978
 31
0.0
 11
71.55444635910627
 21
238.7107605550372
 31
0.0
 11
71.69524454690236
 21
238.2051425849027
 31
0.0
 11
71.79608622498506
 21
237.690059758218
 31
0.0
 11
71.85710815609073
 21
237.165289578493
 31
0.0
 11
71.87745698338406
 21
236.637373625955
 31
0.0
 11
71.85710815609075
 21
236.109457673417
 31
0.0
 11
71.79608622498506
 21
235.5846874936919
 31
0.0
 11
71.69524454690236
 21
235.0696046670073
 31
0.0
 11
71.55444635910627
 21
234.5639866968728
 31
0.0
 11
71.37638345692999
 21
234.0772120811123
 31
0.0
 11
71.15987949079675
 21
233.6062847127095
 31
0.0
 11
70.91011305907026
 21
233.1623483125426
 31
0.0
 11
70.62437433468975
 21
232.74068083137
 31
0.0
 11
70.31046332553638
 21
232.3527770107301
 31
0.0
 11
69.96420194397484
 21
231.9934759887724
 31
0.0
 11
69.5955038199052
 21
231.6731343674632
 31
0.0
 11
69.19942132268045
 21
231.387373625955
 31
0.0
 11
68.78683515228016
 21
231.144189833888
 31
0.0
 11
68.35326994298706
 21
230.9407898565094
 31
0.0
 11
67.90898259163687
 21
230.7821970639838
 31
0.0
 11
67.45145768639335
 21
230.6672939022879
 31
0.0
 11
66.98868699503134
 21
230.5983457244137
 31
0.0
 11
66.52138566197695
 21
230.5751957994639
 31
0.0
 11
66.0540843289225
 21
230.5983457244137
 31
0.0
 11
65.59131363756046
 21
230.6672939022879
 31
0.0
 11
65.13378873231696
 21
230.7821970639839
 31
0.0
 11
64.68950138096676
 21
230.9407898565094
 31
0.0
 11
64.25593617167365
 21
231.144189833888
 31
0.0
 11
63.84335000127337
 21
231.387373625955
 31
0.0
 11
63.44726750404865
 21
231.6731343674632
 31
0.0
 11
63.07856937997906
 21
231.9934759887724
 31
0.0
 11
62.73230799841749
 21
232.3527770107301
 31
0.0
 11
62.41839698926407
 21
232.74068083137
 31
0.0
 11
62.13265826488353
 21
233.1623483125427
 31
0.0
 11
61.88289183315706
 21
233.6062847127095
 31
0.0
 11
61.66638786702388
 21
234.0772120811122
 31
0.0
 11
61.48832496484766
 21
234.5639866968728
 31
0.0
 11
61.3475267770516
 21
235.0696046670073
 31
0.0
 11
61.24668509896887
 21
235.5846874936919
 31
0.0
 11
61.18566316786312
 21
236.109457673417
 31
0.0
 11
61.16531434056975
 21
236.637373625955
 31
0.0
 11
61.18566316786313
 21
237.165289578493
 31
0.0
 11
61.24668509896887
 21
237.690059758218
 31
0.0
 11
61.34752677705161
 21
238.2051425849026
 31
0.0
 11
61.48832496484766
 21
238.7107605550372
 31
0.0
 11
61.66638786702389
 21
239.1975351707978
 31
0.0
 11
61.88289183315706
 21
239.6684625392005
 31
0.0
 11
62.13265826488354
 21
240.1123989393673
 31
0.0
 11
62.41839698926407
 21
240.5340664205399
 31
0.0
 11
62.7323079984175
 21
240.9219702411799
 31
0.0
 11
63.07856937997906
 21
241.2812712631376
 31
0.0
 11
63.44726750404865
 21
241.6016128844468
 31
0.0
 11
63.84335000127337
 21
241.887373625955
 31
0.0
 11
64.25593617167365
 21
242.130557418022
 31
0.0
 11
64.68950138096676
 21
242.3339573954006
 31
0.0
 11
65.13378873231696
 21
242.4925501879262
 31
0.0
 11
65.59131363756046
 21
242.6074533496221
 31
0.0
 11
66.05408432892251
 21
242.6764015274963
 31
0.0
 11
66.52138566197695
 21
242.6995514524461
 31
0.0
  0
SPLINE
  5
138
330
4B
100
AcDbEntity
  8
1
  6
Continuous
 62
     7
100
AcDbSpline
210
0.0
220
0.0
230
1.0
 70
    11
 71
     3
 72
    79
 73
    75
 74
    73
 42
0.0000000001
 43
0.0000000001
 44
0.00000001
 40
0.0
 40
0.0
 40
0.0
 40
0.0
 40
0.4678744007739625
 40
0.935753192787278
 40
1.40748593013523
 40
1.879230484328319
 40
2.358135841895965
 40
2.83705723913111
 40
3.325463367261267
 40
3.813886402176197
 40
4.312879557180144
 40
4.81188806986781
 40
5.321250498094523
 40
5.830625406988217
 40
6.348936658710703
 40
6.867256949342166
 40
7.392112797561127
 40
7.916974076742573
 40
8.445280254639931
 40
8.973588240303863
 40
9.501896225967824
 40
10.03020240386527
 40
10.55506368304666
 40
11.07991953126557
 40
11.59823982189698
 40
12.11655107361951
 40
12.62592598251326
 40
13.13528841074002
 40
13.63429692342766
 40
14.13329007843157
 40
14.62171311334646
 40
15.11011924147663
 40
15.58904063871177
 40
16.06794599627942
 40
16.53969055047251
 40
17.01142328782047
 40
17.47930207983378
 40
17.94717648060775
 40
18.41505088138177
 40
18.88292967339514
 40
19.35466241074311
 40
19.82640696493619
 40
20.30531232250385
 40
20.78423371973896
 40
21.27263984786908
 40
21.76106288278395
 40
22.26005603778789
 40
22.75906455047558
 40
23.26842697870239
 40
23.77780188759608
 40
24.29611313931855
 40
24.81443342995
 40
25.33928927816893
 40
25.8641505573503
 40
26.39245673524775
 40
26.92076472091171
 40
27.44907270657567
 40
27.97737888447301
 40
28.5022401636544
 40
29.02709601187341
 40
29.54541630250486
 40
30.06372755422733
 40
30.573102463121
 40
31.08246489134774
 40
31.58147340403546
 40
32.08046655903943
 40
32.56888959395431
 40
33.05729572208443
 40
33.53621711931957
 40
34.01512247688721
 40
34.48686703108029
 40
34.95859976842825
 40
35.42647856044163
 40
35.89435296121565
 40
35.89435296121565
 40
35.89435296121565
 40
35.89435296121565
 10
54.52138566197695
 20
242.6995514524461
 30
0.0
 10
54.36536570090717
 20
242.6950716338436
 30
0.0
 10
54.05332431444084
 20
242.6861119545932
 30
0.0
 10
53.58854019223843
 20
242.6142120873264
 30
0.0
 10
53.13156957606535
 20
242.4999784908285
 30
0.0
 10
52.68438839174028
 20
242.3400500055474
 30
0.0
 10
52.25242303857586
 20
242.137190173246
 30
0.0
 10
51.83661266041415
 20
241.8918914592904
 30
0.0
 10
51.44268737814448
 20
241.6073645052468
 30
0.0
 10
51.07098315609981
 20
241.2841344719117
 30
0.0
 10
50.72690349638119
 20
240.9267232468417
 30
0.0
 10
50.41060774103742
 20
240.5355385212611
 30
0.0
 10
50.12665433011605
 20
240.1160970661587
 30
0.0
 10
49.8753108076851
 20
239.6689811673383
 30
0.0
 10
49.65997633269481
 20
239.2001656759901
 30
0.0
 10
49.4811097000204
 20
238.710789493554
 30
0.0
 10
49.34086547440081
 20
238.2067132155947
 30
0.0
 10
49.23978093875378
 20
237.6899717648666
 30
0.0
 10
49.17888388381584
 20
237.1658115262332
 30
0.0
 10
49.15852955733877
 20
236.6373736259545
 30
0.0
 10
49.17888388381584
 20
236.1089357256787
 30
0.0
 10
49.23978093875376
 20
235.5847754870368
 30
0.0
 10
49.34086547440079
 20
235.0680340363397
 30
0.0
 10
49.48110970002039
 20
234.5639577582658
 30
0.0
 10
49.65997633269485
 20
234.0745815762518
 30
0.0
 10
49.87531080768509
 20
233.6057660833419
 30
0.0
 10
50.12665433011605
 20
233.1586501902531
 30
0.0
 10
50.41060774103742
 20
232.7392087139829
 30
0.0
 10
50.72690349638119
 20
232.3480240658624
 30
0.0
 10
51.0709831560998
 20
231.9906125549954
 30
0.0
 10
51.44268737814454
 20
231.6673835666368
 30
0.0
 10
51.83661266041411
 20
231.3828527554895
 30
0.0
 10
52.2524230385759
 20
231.1375681690425
 30
0.0
 10
52.68438839174027
 20
230.9346560925247
 30
0.0
 10
53.13156957606535
 20
230.7749198005801
 30
0.0
 10
53.58854019223844
 20
230.6599731552614
 30
0.0
 10
54.05332431444085
 20
230.5907137460827
 30
0.0
 10
54.52138566197696
 20
230.5674368625652
 30
0.0
 10
54.98944700951311
 20
230.5907137460828
 30
0.0
 10
55.45423113171557
 20
230.6599731552613
 30
0.0
 10
55.91120174788867
 20
230.7749198005802
 30
0.0
 10
56.35838293221375
 20
230.9346560925247
 30
0.0
 10
56.79034828537815
 20
231.1375681690425
 30
0.0
 10
57.20615866353986
 20
231.3828527554895
 30
0.0
 10
57.60008394580942
 20
231.6673835666367
 30
0.0
 10
57.97178816785409
 20
231.9906125549955
 30
0.0
 10
58.31586782757277
 20
232.3480240658624
 30
0.0
 10
58.63216358291665
 20
232.739208713983
 30
0.0
 10
58.91611699383795
 20
233.1586501902531
 30
0.0
 10
59.16746051626893
 20
233.605766083342
 30
0.0
 10
59.38279499125916
 20
234.0745815762517
 30
0.0
 10
59.56166162393355
 20
234.563957758266
 30
0.0
 10
59.70190584955311
 20
235.0680340363396
 30
0.0
 10
59.80299038520018
 20
235.5847754870369
 30
0.0
 10
59.86388744013813
 20
236.1089357256786
 30
0.0
 10
59.88424176661526
 20
236.6373736259545
 30
0.0
 10
59.86388744013811
 20
237.1658115262332
 30
0.0
 10
59.80299038520016
 20
237.6899717648666
 30
0.0
 10
59.7019058495531
 20
238.2067132155945
 30
0.0
 10
59.56166162393355
 20
238.7107894935539
 30
0.0
 10
59.38279499125918
 20
239.2001656759901
 30
0.0
 10
59.16746051626893
 20
239.6689811673382
 30
0.0
 10
58.91611699383798
 20
240.1160970661588
 30
0.0
 10
58.63216358291658
 20
240.5355385212611
 30
0.0
 10
58.31586782757278
 20
240.9267232468417
 30
0.0
 10
57.97178816785411
 20
241.2841344719117
 30
0.0
 10
57.60008394580943
 20
241.6073645052468
 30
0.0
 10
57.20615866353989
 20
241.8918914592905
 30
0.0
 10
56.79034828537813
 20
242.137190173246
 30
0.0
 10
56.35838293221376
 20
242.3400500055474
 30
0.0
 10
55.91120174788866
 20
242.4999784908285
 30
0.0
 10
55.45423113171557
 20
242.6142120873265
 30
0.0
 10
54.98944700951309
 20
242.6861119545932
 30
0.0
 10
54.67740562304676
 20
242.6950716338436
 30
0.0
 10
54.52138566197695
 20
242.6995514524461
 30
0.0
 11
54.52138566197695
 21
242.6995514524461
 31
0.0
 11
54.05408432892256
 21
242.6764015274963
 31
0.0
 11
53.59131363756055
 21
242.6074533496221
 31
0.0
 11
53.13378873231705
 21
242.4925501879262
 31
0.0
 11
52.68950138096685
 21
242.3339573954006
 31
0.0
 11
52.25593617167373
 21
242.130557418022
 31
0.0
 11
51.84335000127345
 21
241.887373625955
 31
0.0
 11
51.44726750404868
 21
241.6016128844469
 31
0.0
 11
51.07856937997906
 21
241.2812712631376
 31
0.0
 11
50.73230799841754
 21
240.9219702411798
 31
0.0
 11
50.41839698926415
 21
240.5340664205399
 31
0.0
 11
50.13265826488365
 21
240.1123989393673
 31
0.0
 11
49.88289183315715
 21
239.6684625392005
 31
0.0
 11
49.66638786702394
 21
239.1975351707978
 31
0.0
 11
49.48832496484766
 21
238.7107605550372
 31
0.0
 11
49.34752677705158
 21
238.2051425849027
 31
0.0
 11
49.24668509896887
 21
237.690059758218
 31
0.0
 11
49.18566316786319
 21
237.165289578493
 31
0.0
 11
49.16531434056986
 21
236.637373625955
 31
0.0
 11
49.18566316786318
 21
236.109457673417
 31
0.0
 11
49.24668509896887
 21
235.5846874936919
 31
0.0
 11
49.34752677705158
 21
235.0696046670073
 31
0.0
 11
49.48832496484766
 21
234.5639866968728
 31
0.0
 11
49.66638786702394
 21
234.0772120811123
 31
0.0
 11
49.88289183315715
 21
233.6062847127095
 31
0.0
 11
50.13265826488365
 21
233.1623483125426
 31
0.0
 11
50.41839698926415
 21
232.74068083137
 31
0.0
 11
50.73230799841754
 21
232.3527770107301
 31
0.0
 11
51.07856937997906
 21
231.9934759887724
 31
0.0
 11
51.44726750404869
 21
231.6731343674632
 31
0.0
 11
51.84335000127345
 21
231.387373625955
 31
0.0
 11
52.25593617167374
 21
231.144189833888
 31
0.0
 11
52.68950138096685
 21
230.9407898565094
 31
0.0
 11
53.13378873231706
 21
230.7821970639838
 31
0.0
 11
53.59131363756055
 21
230.6672939022879
 31
0.0
 11
54.05408432892256
 21
230.5983457244137
 31
0.0
 11
54.52138566197695
 21
230.5751957994639
 31
0.0
 11
54.9886869950314
 21
230.5983457244137
 31
0.0
 11
55.45145768639347
 21
230.6672939022879
 31
0.0
 11
55.90898259163697
 21
230.7821970639839
 31
0.0
 11
56.35326994298717
 21
230.9407898565094
 31
0.0
 11
56.78683515228029
 21
231.144189833888
 31
0.0
 11
57.19942132268056
 21
231.387373625955
 31
0.0
 11
57.59550381990525
 21
231.6731343674632
 31
0.0
 11
57.96420194397484
 21
231.9934759887724
 31
0.0
 11
58.31046332553642
 21
232.3527770107301
 31
0.0
 11
58.62437433468986
 21
232.74068083137
 31
0.0
 11
58.91011305907039
 21
233.1623483125427
 31
0.0
 11
59.15987949079687
 21
233.6062847127095
 31
0.0
 11
59.37638345693005
 21
234.0772120811122
 31
0.0
 11
59.55444635910627
 21
234.5639866968728
 31
0.0
 11
59.69524454690234
 21
235.0696046670073
 31
0.0
 11
59.79608622498506
 21
235.5846874936919
 31
0.0
 11
59.8571081560908
 21
236.109457673417
 31
0.0
 11
59.87745698338415
 21
236.637373625955
 31
0.0
 11
59.85710815609079
 21
237.165289578493
 31
0.0
 11
59.79608622498506
 21
237.690059758218
 31
0.0
 11
59.69524454690234
 21
238.2051425849026
 31
0.0
 11
59.55444635910627
 21
238.7107605550372
 31
0.0
 11
59.37638345693005
 21
239.1975351707978
 31
0.0
 11
59.15987949079687
 21
239.6684625392005
 31
0.0
 11
58.91011305907038
 21
240.1123989393673
 31
0.0
 11
58.62437433468986
 21
240.5340664205399
 31
0.0
 11
58.31046332553642
 21
240.9219702411799
 31
0.0
 11
57.96420194397484
 21
241.2812712631376
 31
0.0
 11
57.59550381990526
 21
241.6016128844468
 31
0.0
 11
57.19942132268056
 21
241.887373625955
 31
0.0
 11
56.78683515228028
 21
242.130557418022
 31
0.0
 11
56.35326994298717
 21
242.3339573954006
 31
0.0
 11
55.90898259163697
 21
242.4925501879262
 31
0.0
 11
55.45145768639347
 21
242.6074533496221
 31
0.0
 11
54.9886869950314
 21
242.6764015274963
 31
0.0
 11
54.52138566197695
 21
242.6995514524461
 31
0.0
  0
ENDBLK
  5
4D
330
4B
100
AcDbEntity
  8
0
100
AcDbBlockEnd
  0
BLOCK
  5
4F
330
4E
100
AcDbEntity
  8
0
100
AcDbBlockBegin
  2
_J__A4
 70
     0
 71
     0
 10
0.0
 20
0.0
 30
0.0
  3
_J__A4
  1

  0
POINT
  5
139
330
4E
100
AcDbEntity
  8
1
 62
     4
100
AcDbPoint
 10
93.75
 20
17.0
 30
0.0
  0
POINT
  5
13A
330
4E
100
AcDbEntity
  8
1
 62
     4
100
AcDbPoint
 10
85.25
 20
17.0
 30
0.0
  0
POINT
  5
13B
330
4E
100
AcDbEntity
  8
1
 62
     4
100
AcDbPoint
 10
106.5
 20
19.00000000000001
 30
0.0
  0
POINT
  5
13C
330
4E
100
AcDbEntity
  8
1
 62
     4
100
AcDbPoint
 10
106.5
 20
12.5
 30
0.0
  0
POINT
  5
13D
330
4E
100
AcDbEntity
  8
1
 62
     4
100
AcDbPoint
 10
112.25
 20
12.5
 30
0.0
  0
POINT
  5
13E
330
4E
100
AcDbEntity
  8
1
 62
     4
100
AcDbPoint
 10
100.75
 20
12.5
 30
0.0
  0
POINT
  5
13F
330
4E
100
AcDbEntity
  8
1
 62
     4
100
AcDbPoint
 10
123.5
 20
19.00000000000001
 30
0.0
  0
POINT
  5
140
330
4E
100
AcDbEntity
  8
1
 62
     4
100
AcDbPoint
 10
123.5
 20
12.5
 30
0.0
  0
POINT
  5
141
330
4E
100
AcDbEntity
  8
1
 62
     4
100
AcDbPoint
 10
129.25
 20
12.5
 30
0.0
  0
POINT
  5
142
330
4E
100
AcDbEntity
  8
1
 62
     4
100
AcDbPoint
 10
117.75
 20
12.5
 30
0.0
  0
POINT
  5
143
330
4E
100
AcDbEntity
  8
1
 62
     4
100
AcDbPoint
 10
140.5
 20
19.00000000000001
 30
0.0
  0
POINT
  5
144
330
4E
100
AcDbEntity
  8
1
 62
     4
100
AcDbPoint
 10
140.5
 20
12.5
 30
0.0
  0
POINT
  5
145
330
4E
100
AcDbEntity
  8
1
 62
     4
100
AcDbPoint
 10
146.25
 20
12.5
 30
0.0
  0
POINT
  5
146
330
4E
100
AcDbEntity
  8
1
 62
     4
100
AcDbPoint
 10
134.75
 20
12.5
 30
0.0
  0
POINT
  5
147
330
4E
100
AcDbEntity
  8
1
 62
     4
100
AcDbPoint
 10
151.75
 20
12.5
 30
0.0
  0
POINT
  5
148
330
4E
100
AcDbEntity
  8
1
 62
     4
100
AcDbPoint
 10
163.25
 20
12.5
 30
0.0
  0
POINT
  5
149
330
4E
100
AcDbEntity
  8
1
 62
     4
100
AcDbPoint
 10
157.5
 20
12.5
 30
0.0
  0
POINT
  5
14A
330
4E
100
AcDbEntity
  8
1
 62
     4
100
AcDbPoint
 10
57.0
 20
14.25
 30
0.0
  0
POINT
  5
14B
330
4E
100
AcDbEntity
  8
1
 62
     4
100
AcDbPoint
 10
57.0
 20
22.75000000000001
 30
0.0
  0
POINT
  5
14C
330
4E
100
AcDbEntity
  8
1
 62
     4
100
AcDbPoint
 10
47.5
 20
282.0000000000003
 30
0.0
  0
POINT
  5
14D
330
4E
100
AcDbEntity
  8
1
 62
     4
100
AcDbPoint
 10
157.5
 20
19.00000000000001
 30
0.0
  0
POINT
  5
14E
330
4E
100
AcDbEntity
  8
1
 62
     4
100
AcDbPoint
 10
57.0
 20
16.25
 30
0.0
  0
POINT
  5
14F
330
4E
100
AcDbEntity
  8
1
 62
     4
100
AcDbPoint
 10
57.0
 20
24.75000000000001
 30
0.0
  0
POINT
  5
150
330
4E
100
AcDbEntity
  8
1
 62
     4
100
AcDbPoint
 10
57.0
 20
20.75000000000001
 30
0.0
  0
POINT
  5
151
330
4E
100
AcDbEntity
  8
1
 62
     4
100
AcDbPoint
 10
57.0
 20
12.25
 30
0.0
  0
POINT
  5
152
330
4E
100
AcDbEntity
  8
1
 62
     4
100
AcDbPoint
 10
34.0
 20
34.00000000000001
 30
0.0
  0
LINE
  5
153
330
4E
100
AcDbEntity
  8
1
  6
Continuous
 62
     7
100
AcDbLine
 10
105.0
 20
10.0
 30
0.0
 11
200.0
 21
10.0
 31
0.0
  0
LINE
  5
154
330
4E
100
AcDbEntity
  8
1
  6
Continuous
 62
     2
100
AcDbLine
 10
105.0
 20
10.0
 30
0.0
 11
105.0
 21
5.0
 31
0.0
  0
LINE
  5
155
330
4E
100
AcDbEntity
  8
1
  6
Continuous
 62
     7
100
AcDbLine
 10
200.0
 20
148.5
 30
0.0
 11
200.0
 21
287.0000000000003
 31
0.0
  0
LINE
  5
156
330
4E
100
AcDbEntity
  8
1
  6
Continuous
 62
     2
100
AcDbLine
 10
200.0
 20
148.5
 30
0.0
 11
205.0
 21
148.5
 31
0.0
  0
LINE
  5
157
330
4E
100
AcDbEntity
  8
1
  6
Continuous
 62
     7
100
AcDbLine
 10
25.0
 20
148.5
 30
0.0
 11
25.0
 21
287.0000000000003
 31
0.0
  0
LINE
  5
158
330
4E
100
AcDbEntity
  8
1
  6
Continuous
 62
     2
100
AcDbLine
 10
25.0
 20
148.5
 30
0.0
 11
20.0
 21
148.5
 31
0.0
  0
LINE
  5
159
330
4E
100
AcDbEntity
  8
1
  6
Continuous
 62
     7
100
AcDbLine
 10
105.0
 20
287.0000000000003
 30
0.0
 11
25.0
 21
287.0000000000003
 31
0.0
  0
LINE
  5
15A
330
4E
100
AcDbEntity
  8
1
  6
Continuous
 62
     2
100
AcDbLine
 10
105.0
 20
287.0000000000003
 30
0.0
 11
105.0
 21
292.0000000000003
 31
0.0
  0
LINE
  5
15B
330
4E
100
AcDbEntity
  8
1
  6
Continuous
 62
     2
100
AcDbLine
 10
166.0
 20
20.00000000000001
 30
0.0
 11
200.0
 21
20.00000000000001
 31
0.0
  0
LINE
  5
15C
330
4E
100
AcDbEntity
  8
1
  6
Continuous
 62
     2
100
AcDbLine
 10
98.0
 20
27.00000000000001
 30
0.0
 11
98.0
 21
9.99999999999999
 31
0.0
  0
LINE
  5
15D
330
4E
100
AcDbEntity
  8
1
  6
Continuous
 62
     2
100
AcDbLine
 10
115.0
 20
27.00000000000001
 30
0.0
 11
115.0
 21
9.99999999999999
 31
0.0
  0
LINE
  5
15E
330
4E
100
AcDbEntity
  8
1
  6
Continuous
 62
     2
100
AcDbLine
 10
149.0
 20
27.00000000000001
 30
0.0
 11
149.0
 21
10.0
 31
0.0
  0
LINE
  5
15F
330
4E
100
AcDbEntity
  8
1
  6
Continuous
 62
     2
100
AcDbLine
 10
132.0
 20
27.00000000000001
 30
0.0
 11
132.0
 21
9.99999999999999
 31
0.0
  0
LINE
  5
160
330
4E
100
AcDbEntity
  8
1
  6
Continuous
 62
     2
100
AcDbLine
 10
166.0
 20
27.00000000000001
 30
0.0
 11
166.0
 21
10.0
 31
0.0
  0
LINE
  5
161
330
4E
100
AcDbEntity
  8
1
  6
Continuous
 62
     2
100
AcDbLine
 10
55.0
 20
277.0000000000003
 30
0.0
 11
25.0
 21
277.0000000000003
 31
0.0
  0
LINE
  5
162
330
4E
100
AcDbEntity
  8
1
  6
Continuous
 62
     7
100
AcDbLine
 10
25.0
 20
10.0
 30
0.0
 11
25.0
 21
148.5
 31
0.0
  0
LINE
  5
163
330
4E
100
AcDbEntity
  8
1
  6
Continuous
 62
     2
100
AcDbLine
 10
40.0
 20
287.0000000000003
 30
0.0
 11
40.0
 21
277.0000000000003
 31
0.0
  0
LINE
  5
164
330
4E
100
AcDbEntity
  8
1
  6
Continuous
 62
     2
100
AcDbLine
 10
55.0
 20
287.0000000000003
 30
0.0
 11
55.0
 21
277.0000000000003
 31
0.0
  0
LINE
  5
165
330
4E
100
AcDbEntity
  8
1
  6
Continuous
 62
     2
100
AcDbLine
 10
33.0
 20
41.00000000000001
 30
0.0
 11
33.0
 21
27.0
 31
0.0
  0
LINE
  5
166
330
4E
100
AcDbEntity
  8
1
  6
Continuous
 62
     7
100
AcDbLine
 10
200.0
 20
27.00000000000001
 30
0.0
 11
25.0
 21
27.00000000000001
 31
0.0
  0
LINE
  5
167
330
4E
100
AcDbEntity
  8
1
  6
Continuous
 62
     7
100
AcDbLine
 10
25.0
 20
41.0
 30
0.0
 11
200.0
 21
41.0
 31
0.0
  0
LINE
  5
168
330
4E
100
AcDbEntity
  8
1
  6
PHANTOM
 62
     4
100
AcDbLine
 10
0.0
 20
0.0
 30
0.0
 11
210.0
 21
0.0
 31
0.0
  0
LINE
  5
169
330
4E
100
AcDbEntity
  8
1
  6
PHANTOM
 62
     4
100
AcDbLine
 10
210.0
 20
0.0
 30
0.0
 11
210.0
 21
297.0
 31
0.0
  0
LINE
  5
16A
330
4E
100
AcDbEntity
  8
1
  6
PHANTOM
 62
     4
100
AcDbLine
 10
210.0
 20
297.0
 30
0.0
 11
0.0
 21
297.0
 31
0.0
  0
LINE
  5
16B
330
4E
100
AcDbEntity
  8
1
  6
PHANTOM
 62
     4
100
AcDbLine
 10
0.0
 20
297.0
 30
0.0
 11
0.0
 21
0.0
 31
0.0
  0
LINE
  5
16C
330
4E
100
AcDbEntity
  8
1
  6
Continuous
 62
     7
100
AcDbLine
 10
25.0
 20
10.0
 30
0.0
 11
105.0
 21
10.0
 31
0.0
  0
LINE
  5
16D
330
4E
100
AcDbEntity
  8
1
  6
Continuous
 62
     7
100
AcDbLine
 10
200.0
 20
10.0
 30
0.0
 11
200.0
 21
148.5
 31
0.0
  0
LINE
  5
16E
330
4E
100
AcDbEntity
  8
1
  6
Continuous
 62
     7
100
AcDbLine
 10
200.0
 20
287.0000000000003
 30
0.0
 11
105.0
 21
287.0000000000003
 31
0.0
  0
LINE
  5
16F
330
4E
100
AcDbEntity
  8
1
  6
Continuous
 62
     2
100
AcDbLine
 10
25.0
 20
18.50000000000001
 30
0.0
 11
81.0
 21
18.50000000000001
 31
0.0
  0
LINE
  5
170
330
4E
100
AcDbEntity
  8
1
  6
Continuous
 62
     2
100
AcDbLine
 10
33.0
 20
27.0
 30
0.0
 11
33.0
 21
10.0
 31
0.0
  0
LINE
  5
171
330
4E
100
AcDbEntity
  8
1
  6
Continuous
 62
     7
100
AcDbLine
 10
191.0
 20
24.70000000000001
 30
0.0
 11
191.0
 21
22.30000000000001
 31
0.0
  0
LINE
  5
172
330
4E
100
AcDbEntity
  8
1
  6
Continuous
 62
     7
100
AcDbLine
 10
191.0
 20
24.70000000000001
 30
0.0
 11
196.0
 21
25.50000000000001
 31
0.0
  0
LINE
  5
173
330
4E
100
AcDbEntity
  8
1
  6
Continuous
 62
     7
100
AcDbLine
 10
196.0
 20
25.50000000000001
 30
0.0
 11
196.0
 21
21.50000000000001
 31
0.0
  0
LINE
  5
174
330
4E
100
AcDbEntity
  8
1
  6
Continuous
 62
     7
100
AcDbLine
 10
196.0
 20
21.50000000000001
 30
0.0
 11
191.0
 21
22.30000000000001
 31
0.0
  0
LINE
  5
175
330
4E
100
AcDbEntity
  8
1
  6
DOT_CENTER
 62
     2
100
AcDbLine
 10
184.0
 20
23.50000000000001
 30
0.0
 11
197.0
 21
23.50000000000001
 31
0.0
  0
LINE
  5
176
330
4E
100
AcDbEntity
  8
1
  6
DOT_CENTER
 62
     2
100
AcDbLine
 10
187.0
 20
26.50000000000001
 30
0.0
 11
187.0
 21
20.50000000000001
 31
0.0
  0
LINE
  5
177
330
4E
100
AcDbEntity
  8
1
  6
Continuous
 62
     2
100
AcDbLine
 10
81.0
 20
27.00000000000001
 30
0.0
 11
81.0
 21
10.0
 31
0.0
  0
CIRCLE
  5
178
330
4E
100
AcDbEntity
  8
1
  6
Continuous
 62
     7
100
AcDbCircle
 10
103.5
 20
12.5
 30
0.0
 40
0.2999999999999972
  0
CIRCLE
  5
179
330
4E
100
AcDbEntity
  8
1
  6
Continuous
 62
     7
100
AcDbCircle
 10
109.5
 20
12.5
 30
0.0
 40
0.2999999999999972
  0
CIRCLE
  5
17A
330
4E
100
AcDbEntity
  8
1
  6
Continuous
 62
     7
100
AcDbCircle
 10
120.5
 20
12.5
 30
0.0
 40
0.2999999999999972
  0
CIRCLE
  5
17B
330
4E
100
AcDbEntity
  8
1
  6
Continuous
 62
     7
100
AcDbCircle
 10
126.5
 20
12.5
 30
0.0
 40
0.2999999999999972
  0
CIRCLE
  5
17C
330
4E
100
AcDbEntity
  8
1
  6
Continuous
 62
     7
100
AcDbCircle
 10
137.5
 20
12.5
 30
0.0
 40
0.3000000000000114
  0
CIRCLE
  5
17D
330
4E
100
AcDbEntity
  8
1
  6
Continuous
 62
     7
100
AcDbCircle
 10
143.5
 20
12.5
 30
0.0
 40
0.3000000000000114
  0
CIRCLE
  5
17E
330
4E
100
AcDbEntity
  8
1
  6
Continuous
 62
     7
100
AcDbCircle
 10
160.5
 20
12.5
 30
0.0
 40
0.3000000000000114
  0
CIRCLE
  5
17F
330
4E
100
AcDbEntity
  8
1
  6
Continuous
 62
     7
100
AcDbCircle
 10
154.5
 20
12.5
 30
0.0
 40
0.3000000000000114
  0
CIRCLE
  5
180
330
4E
100
AcDbEntity
  8
1
  6
Continuous
 62
     7
100
AcDbCircle
 10
187.0
 20
23.50000000000001
 30
0.0
 40
1.200000000000102
  0
CIRCLE
  5
181
330
4E
100
AcDbEntity
  8
1
  6
Continuous
 62
     7
100
AcDbCircle
 10
187.0
 20
23.50000000000001
 30
0.0
 40
2.0
  0
CIRCLE
  5
182
330
4E
100
AcDbEntity
  8
1
  6
DOT_CENTER
 62
     7
100
AcDbCircle
 10
89.5
 20
16.0
 30
0.0
 40
0.1000000000000227
  0
CIRCLE
  5
183
330
4E
100
AcDbEntity
  8
1
  6
DOT_CENTER
 62
     7
100
AcDbCircle
 10
89.5
 20
18.0
 30
0.0
 40
0.1000000000000227
  0
MTEXT
  5
185
330
4E
100
AcDbEntity
  8
1
 62
     7
100
AcDbMText
 10
188.5
 20
15.0
 30
0.0
 40
3.0
 41
0.0
 71
     5
 72
     1
  1
三栄水栓製作所
  7
CONVERTER_1
 73
     1
 44
1.32052821128451
  0
MTEXT
  5
186
330
4E
100
AcDbEntity
  8
1
 62
     7
100
AcDbMText
 10
171.5
 20
15.0
 30
0.0
 40
2.5
 41
0.0
 71
     5
 72
     1
  1
株式会社
  7
CONVERTER_1
 73
     1
 44
1.32052821128451
  0
MTEXT
  5
187
330
4E
100
AcDbEntity
  8
1
 62
     2
100
AcDbMText
 10
32.5
 20
282.0000000000003
 30
0.0
 40
5.0
 41
0.0
 71
     5
 72
     1
  1
図番
  7
CONVERTER_1
 73
     1
 44
0.60024009603842
  0
MTEXT
  5
188
330
4E
100
AcDbEntity
  8
1
 62
     2
100
AcDbMText
 10
29.0
 20
34.00000000000001
 30
0.0
 40
3.5
 41
0.0
 71
     5
 72
     1
  1
備考
  7
CONVERTER_1
 73
     1
 44
0.60024009603842
  0
MTEXT
  5
189
330
4E
100
AcDbEntity
  8
1
 62
     2
100
AcDbMText
 10
29.0
 20
22.75
 30
0.0
 40
3.5
 41
0.0
 71
     5
 72
     1
  1
品名
  7
CONVERTER_1
 73
     1
 44
0.96038415366146
  0
MTEXT
  5
18A
330
4E
100
AcDbEntity
  8
1
 62
     2
100
AcDbMText
 10
29.0
 20
14.25
 30
0.0
 40
3.5
 41
0.0
 71
     5
 72
     1
  1
品番
  7
CONVERTER_1
 73
     1
 44
0.96038415366146
  0
MTEXT
  5
18B
330
4E
100
AcDbEntity
  8
1
 62
     2
100
AcDbMText
 10
101.5
 20
25.00000000000001
 30
0.0
 40
3.0
 41
0.0
 71
     5
 72
     1
  1
承認
  7
CONVERTER_1
 73
     1
 44
0.78031212484994
  0
MTEXT
  5
18C
330
4E
100
AcDbEntity
  8
1
 62
     2
100
AcDbMText
 10
175.0
 20
23.50000000000001
 30
0.0
 40
3.5
 41
0.0
 71
     5
 72
     1
  1
第三角法
  7
CONVERTER_1
 73
     1
 44
0.7202881152461
  0
MTEXT
  5
18D
330
4E
100
AcDbEntity
  8
1
 62
     2
100
AcDbMText
 10
118.5
 20
25.00000000000001
 30
0.0
 40
3.0
 41
0.0
 71
     5
 72
     1
  1
検図
  7
CONVERTER_1
 73
     1
 44
0.78031212484994
  0
MTEXT
  5
18E
330
4E
100
AcDbEntity
  8
1
 62
     2
100
AcDbMText
 10
152.5
 20
25.00000000000001
 30
0.0
 40
3.0
 41
0.0
 71
     5
 72
     1
  1
設計
  7
CONVERTER_1
 73
     1
 44
0.78031212484994
  0
MTEXT
  5
18F
330
4E
100
AcDbEntity
  8
1
 62
     2
100
AcDbMText
 10
135.5
 20
25.00000000000001
 30
0.0
 40
3.0
 41
0.0
 71
     5
 72
     1
  1
製図
  7
CONVERTER_1
 73
     1
 44
0.78031212484994
  0
MTEXT
  5
190
330
4E
100
AcDbEntity
  8
1
 62
     2
100
AcDbMText
 10
89.5
 20
24.00000000000001
 30
0.0
 40
3.5
 41
0.0
 71
     5
 72
     1
  1
尺度
  7
CONVERTER_1
 73
     1
 44
0.7202881152461
  0
MTEXT
  5
191
330
4E
100
AcDbEntity
  8
1
 62
   250
100
AcDbMText
 10
25.0
 20
5.0
 30
0.0
 40
3.5
 41
0.0
 71
     4
 72
     1
  1
備考欄の文字列 原点位置=4
  7
CONVERTER_1
 73
     1
 44
0.7202881152461
  0
ENDBLK
  5
50
330
4E
100
AcDbEntity
  8
0
100
AcDbBlockEnd
  0
BLOCK
  5
1BA
330
1B3
100
AcDbEntity
  8
0
100
AcDbBlockBegin
  2
*D010
 70
     1
 71
     0
 10
0.0
 20
0.0
 30
0.0
  3
*D010
  1

  0
LINE
  5
1B4
330
1B3
100
AcDbEntity
  8
1
  6
Continuous
 62
     2
100
AcDbLine
 10
98.52138566197701
 20
89.9119546937802
 30
0.0
 11
98.52138566197701
 21
147.2119546937802
 31
0.0
  0
LINE
  5
1B5
330
1B3
100
AcDbEntity
  8
1
  6
Continuous
 62
     2
100
AcDbLine
 10
107.4038415070354
 20
89.9119546937802
 30
0.0
 11
97.52138566197701
 21
89.9119546937802
 31
0.0
  0
LINE
  5
1B6
330
1B3
100
AcDbEntity
  8
1
  6
Continuous
 62
     2
100
AcDbLine
 10
139.521385661977
 20
147.2119546937802
 30
0.0
 11
97.52138566197701
 21
147.2119546937802
 31
0.0
  0
SOLID
  5
1B7
330
1B3
100
AcDbEntity
  8
1
 62
     2
100
AcDbTrace
 10
98.06060192042112
 20
93.4119546937802
 30
0.0
 11
98.98216940353289
 21
93.4119546937802
 31
0.0
 12
98.52138566197701
 22
89.9119546937802
 32
0.0
 13
98.52138566197701
 23
89.9119546937802
 33
0.0
  0
SOLID
  5
1B8
330
1B3
100
AcDbEntity
  8
1
 62
     2
100
AcDbTrace
 10
98.98216940353289
 20
143.7119546937802
 30
0.0
 11
98.06060192042112
 21
143.7119546937802
 31
0.0
 12
98.52138566197701
 22
147.2119546937802
 32
0.0
 13
98.52138566197701
 23
147.2119546937802
 33
0.0
  0
MTEXT
  5
1B9
330
1B3
100
AcDbEntity
  8
1
 62
     7
100
AcDbMText
 10
97.52138566197701
 20
108.05921736347
 30
0.0
 40
3.5
 41
0.0
 71
     7
 72
     1
  1
58リフト5
  7
CONVERTER_1
 11
0.0
 21
1.0
 31
0.0
 73
     1
 44
0.60024009603842
  0
ENDBLK
  5
1BB
330
1B3
100
AcDbEntity
  8
0
100
AcDbBlockEnd
  0
BLOCK
  5
1C5
330
1BE
100
AcDbEntity
  8
0
100
AcDbBlockBegin
  2
*D111
 70
     1
 71
     0
 10
0.0
 20
0.0
 30
0.0
  3
*D111
  1

  0
LINE
  5
1BF
330
1BE
100
AcDbEntity
  8
1
  6
Continuous
 62
     2
100
AcDbLine
 10
109.521385661977
 20
66.91195469378019
 30
0.0
 11
139.521385661977
 21
66.91195469378019
 31
0.0
  0
LINE
  5
1C0
330
1BE
100
AcDbEntity
  8
1
  6
Continuous
 62
     2
100
AcDbLine
 10
139.521385661977
 20
73.91195469378017
 30
0.0
 11
139.521385661977
 21
65.91195469378019
 31
0.0
  0
LINE
  5
1C1
330
1BE
100
AcDbEntity
  8
1
  6
Continuous
 62
     2
100
AcDbLine
 10
109.521385661977
 20
80.59645469378017
 30
0.0
 11
109.521385661977
 21
65.91195469378019
 31
0.0
  0
SOLID
  5
1C2
330
1BE
100
AcDbEntity
  8
1
 62
     2
100
AcDbTrace
 10
113.021385661977
 20
67.37273843533608
 30
0.0
 11
113.021385661977
 21
66.4511709522243
 31
0.0
 12
109.521385661977
 22
66.91195469378019
 32
0.0
 13
109.521385661977
 23
66.91195469378019
 33
0.0
  0
SOLID
  5
1C3
330
1BE
100
AcDbEntity
  8
1
 62
     2
100
AcDbTrace
 10
136.021385661977
 20
66.4511709522243
 30
0.0
 11
136.021385661977
 21
67.37273843533608
 31
0.0
 12
139.521385661977
 22
66.91195469378019
 32
0.0
 13
139.521385661977
 23
66.91195469378019
 33
0.0
  0
MTEXT
  5
1C4
330
1BE
100
AcDbEntity
  8
1
 62
     7
100
AcDbMText
 10
121.896385661977
 20
67.91195469378019
 30
0.0
 40
3.5
 41
0.0
 71
     7
 72
     1
  1
30
  7
CONVERTER_2
 11
0.9999999999970621
 21
2.424068405545307E-6
 31
0.0
 73
     1
 44
0.60024009603842
  0
ENDBLK
  5
1C6
330
1BE
100
AcDbEntity
  8
0
100
AcDbBlockEnd
  0
BLOCK
  5
1D0
330
1C9
100
AcDbEntity
  8
0
100
AcDbBlockBegin
  2
*D212
 70
     1
 71
     0
 10
0.0
 20
0.0
 30
0.0
  3
*D212
  1

  0
LINE
  5
1CA
330
1C9
100
AcDbEntity
  8
1
  6
Continuous
 62
     2
100
AcDbLine
 10
139.521385661977
 20
66.91195469378019
 30
0.0
 11
184.021385661977
 21
66.91195469378019
 31
0.0
  0
LINE
  5
1CB
330
1C9
100
AcDbEntity
  8
1
  6
Continuous
 62
     2
100
AcDbLine
 10
184.021385661977
 20
78.55171167213568
 30
0.0
 11
184.021385661977
 21
65.91195469378019
 31
0.0
  0
LINE
  5
1CC
330
1C9
100
AcDbEntity
  8
1
  6
Continuous
 62
     2
100
AcDbLine
 10
139.521385661977
 20
73.91195469378017
 30
0.0
 11
139.521385661977
 21
65.91195469378019
 31
0.0
  0
SOLID
  5
1CD
330
1C9
100
AcDbEntity
  8
1
 62
     2
100
AcDbTrace
 10
143.021385661977
 20
67.37273843533608
 30
0.0
 11
143.021385661977
 21
66.4511709522243
 31
0.0
 12
139.521385661977
 22
66.91195469378019
 32
0.0
 13
139.521385661977
 23
66.91195469378019
 33
0.0
  0
SOLID
  5
1CE
330
1C9
100
AcDbEntity
  8
1
 62
     2
100
AcDbTrace
 10
180.521385661977
 20
66.4511709522243
 30
0.0
 11
180.521385661977
 21
67.37273843533608
 31
0.0
 12
184.021385661977
 22
66.91195469378019
 32
0.0
 13
184.021385661977
 23
66.91195469378019
 33
0.0
  0
MTEXT
  5
1CF
330
1C9
100
AcDbEntity
  8
1
 62
     7
100
AcDbMText
 10
159.146385661977
 20
67.91195469378019
 30
0.0
 40
3.5
 41
0.0
 71
     7
 72
     1
  1
45
  7
CONVERTER_2
 11
0.9999999999970621
 21
2.424068405545307E-6
 31
0.0
 73
     1
 44
0.60024009603842
  0
ENDBLK
  5
1D1
330
1C9
100
AcDbEntity
  8
0
100
AcDbBlockEnd
  0
BLOCK
  5
1DB
330
1D4
100
AcDbEntity
  8
0
100
AcDbBlockBegin
  2
*D313
 70
     1
 71
     0
 10
0.0
 20
0.0
 30
0.0
  3
*D313
  1

  0
LINE
  5
1D5
330
1D4
100
AcDbEntity
  8
1
  6
Continuous
 62
     2
100
AcDbLine
 10
48.52138566197695
 20
253.387373625955
 30
0.0
 11
72.52138566197695
 21
253.387373625955
 31
0.0
  0
LINE
  5
1D6
330
1D4
100
AcDbEntity
  8
1
  6
Continuous
 62
     2
100
AcDbLine
 10
72.52138566197695
 20
242.6995514524461
 30
0.0
 11
72.52138566197695
 21
254.387373625955
 31
0.0
  0
LINE
  5
1D7
330
1D4
100
AcDbEntity
  8
1
  6
Continuous
 62
     2
100
AcDbLine
 10
48.52138566197695
 20
242.6995514524461
 30
0.0
 11
48.52138566197695
 21
254.387373625955
 31
0.0
  0
SOLID
  5
1D8
330
1D4
100
AcDbEntity
  8
1
 62
     2
100
AcDbTrace
 10
52.02138566197695
 20
253.8481573675109
 30
0.0
 11
52.02138566197695
 21
252.9265898843991
 31
0.0
 12
48.52138566197695
 22
253.387373625955
 32
0.0
 13
48.52138566197695
 23
253.387373625955
 33
0.0
  0
SOLID
  5
1D9
330
1D4
100
AcDbEntity
  8
1
 62
     2
100
AcDbTrace
 10
69.02138566197695
 20
252.9265898843991
 30
0.0
 11
69.02138566197695
 21
253.8481573675109
 31
0.0
 12
72.52138566197695
 22
253.387373625955
 32
0.0
 13
72.52138566197695
 23
253.387373625955
 33
0.0
  0
MTEXT
  5
1DA
330
1D4
100
AcDbEntity
  8
1
 62
     7
100
AcDbMText
 10
57.89638566197698
 20
254.387373625955
 30
0.0
 40
3.5
 41
0.0
 71
     7
 72
     1
  1
24
  7
CONVERTER_2
 11
0.9999999999970621
 21
2.424068405545307E-6
 31
0.0
 73
     1
 44
0.60024009603842
  0
ENDBLK
  5
1DC
330
1D4
100
AcDbEntity
  8
0
100
AcDbBlockEnd
  0
ENDSEC
  0
SECTION
  2
ENTITIES
  0
INSERT
  5
51
330
1F
100
AcDbEntity
  8
1
100
AcDbBlockReference
  2
36-54A
 10
72.45350685941585
 20
86.09819213030013
 30
0.0
  0
INSERT
  5
52
330
1F
100
AcDbEntity
  8
0
100
AcDbBlockReference
  2
21-1C
 10
645.7045622872012
 20
104.2064304804839
 30
0.0
  0
INSERT
  5
53
330
1F
100
AcDbEntity
  8
1
100
AcDbBlockReference
  2
91-1
 10
-214.4259363055567
 20
63.55125275180527
 30
0.0
  0
INSERT
  5
54
330
1F
100
AcDbEntity
  8
0
100
AcDbBlockReference
  2
42-15
 10
454.1003931845314
 20
434.2830739804692
 30
0.0
  0
INSERT
  5
55
330
1F
100
AcDbEntity
  8
1
100
AcDbBlockReference
  2
V26-0
 10
109.521385661977
 20
76.91195469378013
 30
0.0
  0
INSERT
  5
56
330
1F
100
AcDbEntity
  8
1
100
AcDbBlockReference
  2
37-1-13
 10
332.8898984074202
 20
87.99799558692995
 30
0.0
  0
INSERT
  5
57
330
1F
100
AcDbEntity
  8
1
100
AcDbBlockReference
  2
35-22
 10
-160.7057855282787
 20
140.5846706392713
 30
0.0
  0
INSERT
  5
58
330
1F
100
AcDbEntity
  8
1
100
AcDbBlockReference
  2
32-26
 10
282.327938313813
 20
126.6912435183802
 30
0.0
  0
INSERT
  5
59
330
1F
100
AcDbEntity
  8
1
100
AcDbBlockReference
  2
_J__A4
 10
0.0
 20
0.0
 30
0.0
  0
LINE
  5
192
330
1F
100
AcDbEntity
  8
1
  6
Continuous
 62
     7
100
AcDbLine
 10
167.8874971278389
 20
127.1234231120778
 30
0.0
 11
163.519879837086
 21
128.7131058005783
 31
0.0
  0
LINE
  5
193
330
1F
100
AcDbEntity
  8
1
  6
Continuous
 62
     7
100
AcDbLine
 10
163.519879837086
 20
128.7131058005783
 30
0.0
 11
167.8874971278389
 21
130.3027884890788
 31
0.0
  0
LINE
  5
194
330
1F
100
AcDbEntity
  8
1
  6
Continuous
 62
     7
100
AcDbLine
 10
170.9855519692879
 20
129.6731058005784
 30
0.0
 11
170.9855519692879
 21
127.7531058005783
 31
0.0
  0
LINE
  5
195
330
1F
100
AcDbEntity
  8
1
  6
Continuous
 62
     7
100
AcDbLine
 10
170.9855519692879
 20
127.7531058005783
 30
0.0
 11
167.8874971278389
 21
127.7531058005783
 31
0.0
  0
LINE
  5
196
330
1F
100
AcDbEntity
  8
1
  6
Continuous
 62
     7
100
AcDbLine
 10
167.8874971278389
 20
127.7531058005783
 30
0.0
 11
167.8874971278389
 21
127.1234231120778
 31
0.0
  0
LINE
  5
197
330
1F
100
AcDbEntity
  8
1
  6
Continuous
 62
     7
100
AcDbLine
 10
167.8874971278389
 20
130.3027884890788
 30
0.0
 11
167.8874971278389
 21
129.6731058005784
 31
0.0
  0
LINE
  5
198
330
1F
100
AcDbEntity
  8
1
  6
Continuous
 62
     7
100
AcDbLine
 10
167.8874971278389
 20
129.6731058005784
 30
0.0
 11
170.9855519692879
 21
129.6731058005784
 31
0.0
  0
LINE
  5
199
330
1F
100
AcDbEntity
  8
1
  6
DASH_CENTER
 62
     2
100
AcDbLine
 10
44.52138566197698
 20
89.91195469378017
 30
0.0
 11
76.52138566197698
 21
89.91195469378017
 31
0.0
  0
LINE
  5
19A
330
1F
100
AcDbEntity
  8
1
  6
DASH_CENTER
 62
     2
100
AcDbLine
 10
60.52138566197698
 20
166.4454647818256
 30
0.0
 11
60.52138566197698
 21
246.387373625955
 31
0.0
  0
LINE
  5
19B
330
1F
100
AcDbEntity
  8
1
  6
DASH_CENTER
 62
     2
100
AcDbLine
 10
107.4038415070354
 20
89.91195469378017
 30
0.0
 11
139.521385661977
 21
89.91195469378017
 31
0.0
  0
LINE
  5
19C
330
1F
100
AcDbEntity
  8
1
  6
DASH_CENTER
 62
     2
100
AcDbLine
 10
139.521385661977
 20
150.4119546937802
 30
0.0
 11
139.521385661977
 21
89.91195469378017
 31
0.0
  0
LINE
  5
19D
330
1F
100
AcDbEntity
  8
1
  6
DASH_CENTER
 62
     2
100
AcDbLine
 10
60.52138566197698
 20
150.4119546937802
 30
0.0
 11
60.52138566197698
 21
73.91195469378013
 31
0.0
  0
LINE
  5
19E
330
1F
100
AcDbEntity
  8
1
  6
DASH_CENTER
 62
     2
100
AcDbLine
 10
139.521385661977
 20
89.91195469378017
 30
0.0
 11
186.8787970778067
 21
89.91195469378017
 31
0.0
  0
LINE
  5
19F
330
1F
100
AcDbEntity
  8
1
  6
DASH_CENTER
 62
     2
100
AcDbLine
 10
139.521385661977
 20
89.91195469378017
 30
0.0
 11
139.521385661977
 21
73.91195469378017
 31
0.0
  0
LINE
  5
1A0
330
1F
100
AcDbEntity
  8
1
  6
DASH_CENTER
 62
     2
100
AcDbLine
 10
38.52138566197715
 20
198.887373625955
 30
0.0
 11
82.52138566197715
 21
198.887373625955
 31
0.0
  0
LINE
  5
1A1
330
1F
100
AcDbEntity
  8
1
  6
DASH_CENTER
 62
     2
100
AcDbLine
 10
29.86399790480598
 20
216.5874247002086
 30
0.0
 11
79.66741679138306
 21
187.8334073994796
 31
0.0
  0
LINE
  5
1A2
330
1F
100
AcDbEntity
  8
1
  6
DASH_CENTER
 62
     2
100
AcDbLine
 10
91.2346572490827
 20
216.6196892444647
 30
0.0
 11
42.01002905005748
 21
188.1998369029981
 31
0.0
  0
SOLID
  5
1A3
330
1F
100
AcDbEntity
  8
1
 62
     2
100
AcDbTrace
 10
185.3723352361388
 20
101.0372260786229
 30
0.0
 11
186.1704360878153
 21
100.576442337067
 31
0.0
 12
184.021385661977
 22
97.77574529459938
 32
0.0
 13
184.021385661977
 23
97.77574529459938
 33
0.0
  0
LEADER
  5
1A4
330
1F
100
AcDbEntity
  8
1
  6
Continuous
 62
     2
100
AcDbLeader
  3
Standard
 71
     0
 76
     3
 10
184.021385661977
 20
97.77574529459938
 30
0.0
 10
194.8953393832855
 20
116.6099856190583
 30
0.0
 10
179.508029541746
 20
116.6099856190583
 30
0.0
  0
SOLID
  5
1A5
330
1F
100
AcDbEntity
  8
1
 62
     2
100
AcDbTrace
 10
114.2587465248161
 20
76.17297390975671
 30
0.0
 11
113.4606456731397
 21
76.63375765131259
 31
0.0
 12
115.6096960989779
 22
79.43445469378018
 32
0.0
 13
115.6096960989779
 23
79.43445469378018
 33
0.0
  0
LEADER
  5
1A6
330
1F
100
AcDbEntity
  8
1
  6
Continuous
 62
     2
100
AcDbLeader
  3
Standard
 71
     0
 76
     3
 10
115.6096960989779
 20
79.43445469378018
 30
0.0
 10
104.5563850875689
 20
60.28955843015925
 30
0.0
 10
86.7147431906991
 20
60.28955843015925
 30
0.0
  0
CIRCLE
  5
1A7
102
{ACAD_REACTORS
330
1A8
102
}
330
1F
100
AcDbEntity
  8
1
 62
     2
100
AcDbCircle
 10
139.521385661977
 20
89.91195469378017
 30
0.0
 40
0.875
  0
HATCH
  5
1A8
330
1F
100
AcDbEntity
  8
1
 62
     2
100
AcDbHatch
 10
0.0
 20
0.0
 30
0.0
210
0.0
220
0.0
230
1.0
  2
SOLID
 70
     1
 71
     1
 91
        1
 92
        1
 93
        1
 72
     2
 10
139.521385661977
 20
89.91195469378017
 40
0.875
 50
0.0
 51
360.0
 73
     1
 97
        1
330
1A7
 75
     0
 76
     1
 98
        0
  0
LEADER
  5
1A9
330
1F
100
AcDbEntity
  8
1
  6
Continuous
 62
     2
100
AcDbLeader
  3
Standard
 71
     0
 76
     3
 10
139.521385661977
 20
89.91195469378017
 30
0.0
 10
160.1911898907854
 20
125.7131058005783
 30
0.0
 10
174.743619182365
 20
125.7131058005783
 30
0.0
  0
MTEXT
  5
1AB
330
1F
100
AcDbEntity
  8
0
 62
     7
100
AcDbMText
 10
57.0
 20
14.25
 30
0.0
 40
3.5
 41
0.0
 71
     5
 72
     1
  1
V26A-13
  7
CONVERTER_2
 73
     1
 44
0.7202881152461
  0
MTEXT
  5
1AC
330
1F
100
AcDbEntity
  8
0
 62
     7
100
AcDbMText
 10
57.0
 20
22.75000000000001
 30
0.0
 40
3.5
 41
0.0
 71
     5
 72
     1
  1
ナット付化粧バルブ
  7
CONVERTER_1
 73
     1
 44
1.32052821128451
  0
MTEXT
  5
1AD
330
1F
100
AcDbEntity
  8
1
 62
     7
100
AcDbMText
 10
95.635564139134
 20
63.28955843015925
 30
0.0
 40
3.5
 41
0.0
 71
     5
 72
     1
  1
PJ1/2
  7
CONVERTER_2
 73
     1
 44
1.32052821128451
  0
MTEXT
  5
1AE
330
1F
100
AcDbEntity
  8
1
 62
     7
100
AcDbMText
 10
187.2016844625157
 20
119.6099856190583
 30
0.0
 40
3.5
 41
0.0
 71
     5
 72
     1
  1
G1/2
  7
CONVERTER_2
 73
     1
 44
0.90036014405762
  0
MTEXT
  5
1AF
330
1F
100
AcDbEntity
  8
0
 62
     7
100
AcDbMText
 10
34.0
 20
37.5
 30
0.0
 40
3.5
 41
0.0
 71
     4
 72
     1
  1
JIS
  7
CONVERTER_2
 73
     1
 44
1.32052821128451
  0
MTEXT
  5
1B0
330
1F
100
AcDbEntity
  8
1
 62
     7
100
AcDbMText
 10
85.25
 20
17.0
 30
0.0
 40
3.5
 41
0.0
 71
     5
 72
     1
  1
1
  7
CONVERTER_2
 73
     1
 44
0.7202881152461
  0
MTEXT
  5
1B1
330
1F
100
AcDbEntity
  8
1
 62
     7
100
AcDbMText
 10
93.75
 20
17.0
 30
0.0
 40
3.5
 41
0.0
 71
     5
 72
     1
  1
1
  7
CONVERTER_2
 73
     1
 44
0.7202881152461
  0
MTEXT
  5
1B2
330
1F
100
AcDbEntity
  8
0
 62
     7
100
AcDbMText
 10
34.0
 20
30.50000000000001
 30
0.0
 40
3.5
 41
0.0
 71
     4
 72
     1
  1
共用形
  7
CONVERTER_1
 73
     1
 44
1.32052821128451
  0
DIMENSION
  5
1BD
330
1F
100
AcDbEntity
  8
1
100
AcDbDimension
  2
*D010
 10
98.52138566197701
 20
89.9119546937802
 30
0.0
 11
95.77138566197701
 21
117.50921736347
 31
0.0
  1
58リフト5
 71
     5
 42
0.0
 53
90.0
  3
ME10_DIM_0
100
AcDbAlignedDimension
 13
139.521385661977
 23
147.2119546937802
 33
0.0
 14
107.4038415070354
 24
89.91195469378017
 34
0.0
 50
90.0
100
AcDbRotatedDimension
  0
DIMENSION
  5
1C8
330
1F
100
AcDbEntity
  8
1
100
AcDbDimension
  2
*D111
 10
109.521385661977
 20
66.91195469378019
 30
0.0
 11
124.521385661977
 21
69.66195469378019
 31
0.0
  1
<>
 71
     5
 42
0.0
 53
0.00013888888889
  3
ME10_DIM_1
100
AcDbAlignedDimension
 13
139.521385661977
 23
73.91195469378017
 33
0.0
 14
109.521385661977
 24
80.59645469378017
 34
0.0
100
AcDbRotatedDimension
  0
DIMENSION
  5
1D3
330
1F
100
AcDbEntity
  8
1
100
AcDbDimension
  2
*D212
 10
139.521385661977
 20
66.91195469378019
 30
0.0
 11
161.771385661977
 21
69.66195469378019
 31
0.0
  1
45
 71
     5
 42
0.0
 53
0.00013888888889
  3
ME10_DIM_2
100
AcDbAlignedDimension
 13
184.021385661977
 23
78.55171167213568
 33
0.0
 14
139.521385661977
 24
73.91195469378017
 34
0.0
100
AcDbRotatedDimension
  0
DIMENSION
  5
1DE
330
1F
100
AcDbEntity
  8
1
100
AcDbDimension
  2
*D313
 10
48.52138566197695
 20
253.387373625955
 30
0.0
 11
60.52138566197698
 21
256.137373625955
 31
0.0
 70
     1
  1
<>
 71
     5
 42
0.0
 53
0.00013888888889
  3
ME10_DIM_3
100
AcDbAlignedDimension
 13
72.52138566197695
 23
242.6995514524461
 33
0.0
 14
48.52138566197695
 24
242.6995514524461
 34
0.0
  0
ENDSEC
  0
SECTION
  2
OBJECTS
  0
DICTIONARY
  5
C
330
0
100
AcDbDictionary
281
     1
  3
ACAD_GROUP
350
D
  3
ACAD_LAYOUT
350
1A
  3
ACAD_MLINESTYLE
350
17
  3
ACAD_PLOTSETTINGS
350
19
  3
ACAD_PLOTSTYLENAME
350
E
  3
ACAD_TABLESTYLE
350
2A
  3
AcDbVariableDictionary
350
2C
  0
DICTIONARY
  5
D
102
{ACAD_REACTORS
330
C
102
}
330
C
100
AcDbDictionary
281
     1
  0
DICTIONARY
  5
1A
102
{ACAD_REACTORS
330
C
102
}
330
C
100
AcDbDictionary
281
     1
  3
Layout1
350
1E
  3
Layout2
350
26
  3
Model
350
22
  0
DICTIONARY
  5
17
102
{ACAD_REACTORS
330
C
102
}
330
C
100
AcDbDictionary
281
     1
  3
Standard
350
18
  0
DICTIONARY
  5
19
102
{ACAD_REACTORS
330
C
102
}
330
C
100
AcDbDictionary
281
     1
  0
ACDBDICTIONARYWDFLT
  5
E
102
{ACAD_REACTORS
330
C
102
}
330
C
100
AcDbDictionary
281
     1
  3
Normal
350
F
100
AcDbDictionaryWithDefault
340
F
  0
DICTIONARY
  5
2A
102
{ACAD_REACTORS
330
C
102
}
330
C
100
AcDbDictionary
281
     1
  3
Standard
350
2B
  0
DICTIONARY
  5
2C
102
{ACAD_REACTORS
330
C
102
}
330
C
100
AcDbDictionary
281
     1
  3
CTABLESTYLE
350
2D
  0
LAYOUT
  5
1E
102
{ACAD_REACTORS
330
1A
102
}
330
1A
100
AcDbPlotSettings
  1

  2

  4

  6

 40
0.0
 41
0.0
 42
0.0
 43
0.0
 44
0.0
 45
0.0
 46
0.0
 47
0.0
 48
0.0
 49
0.0
140
0.0
141
0.0
142
1.0
143
1.0
 70
   688
 72
     0
 73
     0
 74
     5
  7

 75
    16
147
1.0
148
0.0
149
0.0
100
AcDbLayout
  1
Layout1
 70
     1
 71
     1
 10
0.0
 20
0.0
 11
12.0
 21
9.0
 12
0.0
 22
0.0
 32
0.0
 14
1.00000000000000E+20
 24
1.00000000000000E+20
 34
1.00000000000000E+20
 15
-1.00000000000000E+20
 25
-1.00000000000000E+20
 35
-1.00000000000000E+20
146
0.0
 13
0.0
 23
0.0
 33
0.0
 16
1.0
 26
0.0
 36
0.0
 17
0.0
 27
1.0
 37
0.0
 76
     0
330
1B
  0
LAYOUT
  5
26
102
{ACAD_REACTORS
330
1A
102
}
330
1A
100
AcDbPlotSettings
  1

  2

  4

  6

 40
0.0
 41
0.0
 42
0.0
 43
0.0
 44
0.0
 45
0.0
 46
0.0
 47
0.0
 48
0.0
 49
0.0
140
0.0
141
0.0
142
1.0
143
1.0
 70
   688
 72
     0
 73
     0
 74
     5
  7

 75
    16
147
1.0
148
0.0
149
0.0
100
AcDbLayout
  1
Layout2
 70
     1
 71
     2
 10
0.0
 20
0.0
 11
0.0
 21
0.0
 12
0.0
 22
0.0
 32
0.0
 14
0.0
 24
0.0
 34
0.0
 15
0.0
 25
0.0
 35
0.0
146
0.0
 13
0.0
 23
0.0
 33
0.0
 16
1.0
 26
0.0
 36
0.0
 17
0.0
 27
1.0
 37
0.0
 76
     0
330
23
  0
LAYOUT
  5
22
102
{ACAD_REACTORS
330
1A
102
}
330
1A
100
AcDbPlotSettings
  1

  2

  4

  6

 40
0.0
 41
0.0
 42
0.0
 43
0.0
 44
0.0
 45
0.0
 46
0.0
 47
0.0
 48
0.0
 49
0.0
140
0.0
141
0.0
142
1.0
143
1.0
 70
  1712
 72
     0
 73
     0
 74
     0
  7

 75
     0
147
1.0
148
0.0
149
0.0
100
AcDbLayout
  1
Model
 70
     1
 71
     0
 10
0.0
 20
0.0
 11
0.0
 21
0.0
 12
0.0
 22
0.0
 32
0.0
 14
0.0
 24
0.0
 34
0.0
 15
210.0
 25
297.0
 35
0.0
146
0.0
 13
0.0
 23
0.0
 33
0.0
 16
1.0
 26
0.0
 36
0.0
 17
0.0
 27
1.0
 37
0.0
 76
     0
330
1F
  0
MLINESTYLE
  5
18
102
{ACAD_REACTORS
330
17
102
}
330
17
100
AcDbMlineStyle
  2
Standard
 70
     0
  3

 62
   256
 51
90.0
 52
90.0
 71
     2
 49
0.5
 62
   256
  6
BYLAYER
 49
-0.5
 62
   256
  6
BYLAYER
  0
ACDBPLACEHOLDER
  5
F
102
{ACAD_REACTORS
330
E
102
}
330
E
  0
TABLESTYLE
  5
2B
102
{ACAD_REACTORS
330
2A
102
}
330
2A
100
AcDbTableStyle
  3
Standard
 70
     0
 71
     0
 40
0.06
 41
0.06
280
     0
281
     0
  7
Standard
140
0.18
170
     2
 62
     0
 63
     7
283
     0
274
    -2
284
     1
 64
     0
275
    -2
285
     1
 65
     0
276
    -2
286
     1
 66
     0
277
    -2
287
     1
 67
     0
278
    -2
288
     1
 68
     0
279
    -2
289
     1
 69
     0
  7
Standard
140
0.25
170
     5
 62
     0
 63
     7
283
     0
274
    -2
284
     1
 64
     0
275
    -2
285
     1
 65
     0
276
    -2
286
     1
 66
     0
277
    -2
287
     1
 67
     0
278
    -2
288
     1
 68
     0
279
    -2
289
     1
 69
     0
  7
Standard
140
0.18
170
     5
 62
     0
 63
     7
283
     0
274
    -2
284
     1
 64
     0
275
    -2
285
     1
 65
     0
276
    -2
286
     1
 66
     0
277
    -2
287
     1
 67
     0
278
    -2
288
     1
 68
     0
279
    -2
289
     1
 69
     0
  0
DICTIONARYVAR
  5
2D
102
{ACAD_REACTORS
330
2C
102
}
330
2C
100
DictionaryVariables
280
     0
  1
Standard
  0
ENDSEC
  0
EOF
