  0
SECTION
  2
HEADER
  9
$ACADVER
  1
AC1015
  9
$ACADMAINTVER
 70
     6
  9
$DWGCODEPAGE
  3
DOS932
  9
$INSBASE
 10
0.0
 20
0.0
 30
0.0
  9
$EXTMIN
 10
0.0
 20
0.0
 30
0.0
  9
$EXTMAX
 10
315.0
 20
445.5
 30
0.0
  9
$LIMMIN
 10
0.0
 20
0.0
  9
$LIMMAX
 10
12.0
 20
9.0
  9
$ORTHOMODE
 70
     0
  9
$REGENMODE
 70
     1
  9
$FILLMODE
 70
     1
  9
$QTEXTMODE
 70
     0
  9
$MIRRTEXT
 70
     1
  9
$LTSCALE
 40
1.0
  9
$ATTMODE
 70
     1
  9
$TEXTSIZE
 40
0.2
  9
$TRACEWID
 40
0.05
  9
$TEXTSTYLE
  7
Standard
  9
$CLAYER
  8
0
  9
$CELTYPE
  6
ByLayer
  9
$CECOLOR
 62
   256
  9
$CELTSCALE
 40
1.0
  9
$DISPSILH
 70
     0
  9
$DIMSCALE
 40
1.0
  9
$DIMASZ
 40
0.18
  9
$DIMEXO
 40
0.0625
  9
$DIMDLI
 40
0.38
  9
$DIMRND
 40
0.0
  9
$DIMDLE
 40
0.0
  9
$DIMEXE
 40
0.18
  9
$DIMTP
 40
0.0
  9
$DIMTM
 40
0.0
  9
$DIMTXT
 40
0.18
  9
$DIMCEN
 40
0.09
  9
$DIMTSZ
 40
0.0
  9
$DIMTOL
 70
     0
  9
$DIMLIM
 70
     0
  9
$DIMTIH
 70
     1
  9
$DIMTOH
 70
     1
  9
$DIMSE1
 70
     0
  9
$DIMSE2
 70
     0
  9
$DIMTAD
 70
     0
  9
$DIMZIN
 70
     0
  9
$DIMBLK
  1

  9
$DIMASO
 70
     1
  9
$DIMSHO
 70
     1
  9
$DIMPOST
  1

  9
$DIMAPOST
  1

  9
$DIMALT
 70
     0
  9
$DIMALTD
 70
     2
  9
$DIMALTF
 40
25.4
  9
$DIMLFAC
 40
1.0
  9
$DIMTOFL
 70
     0
  9
$DIMTVP
 40
0.0
  9
$DIMTIX
 70
     0
  9
$DIMSOXD
 70
     0
  9
$DIMSAH
 70
     0
  9
$DIMBLK1
  1

  9
$DIMBLK2
  1

  9
$DIMSTYLE
  2
Standard
  9
$DIMCLRD
 70
     0
  9
$DIMCLRE
 70
     0
  9
$DIMCLRT
 70
     0
  9
$DIMTFAC
 40
1.0
  9
$DIMGAP
 40
0.09
  9
$DIMJUST
 70
     0
  9
$DIMSD1
 70
     0
  9
$DIMSD2
 70
     0
  9
$DIMTOLJ
 70
     1
  9
$DIMTZIN
 70
     0
  9
$DIMALTZ
 70
     0
  9
$DIMALTTZ
 70
     0
  9
$DIMUPT
 70
     0
  9
$DIMDEC
 70
     4
  9
$DIMTDEC
 70
     4
  9
$DIMALTU
 70
     2
  9
$DIMALTTD
 70
     2
  9
$DIMTXSTY
  7
Standard
  9
$DIMAUNIT
 70
     0
  9
$DIMADEC
 70
     0
  9
$DIMALTRND
 40
0.0
  9
$DIMAZIN
 70
     0
  9
$DIMDSEP
 70
    46
  9
$DIMATFIT
 70
     3
  9
$DIMFRAC
 70
     0
  9
$DIMLDRBLK
  1

  9
$DIMLUNIT
 70
     2
  9
$DIMLWD
 70
    -2
  9
$DIMLWE
 70
    -2
  9
$DIMTMOVE
 70
     0
  9
$LUNITS
 70
     2
  9
$LUPREC
 70
     4
  9
$SKETCHINC
 40
0.1
  9
$FILLETRAD
 40
0.5
  9
$AUNITS
 70
     0
  9
$AUPREC
 70
     0
  9
$MENU
  1
.
  9
$ELEVATION
 40
0.0
  9
$PELEVATION
 40
0.0
  9
$THICKNESS
 40
0.0
  9
$LIMCHECK
 70
     0
  9
$CHAMFERA
 40
0.5
  9
$CHAMFERB
 40
0.5
  9
$CHAMFERC
 40
1.0
  9
$CHAMFERD
 40
0.0
  9
$SKPOLY
 70
     0
  9
$TDCREATE
 40
2456142.571724352
  9
$TDUCREATE
 40
2456142.196724352
  9
$TDUPDATE
 40
2456142.571724364
  9
$TDUUPDATE
 40
2456142.196724364
  9
$TDINDWG
 40
0.0000000116
  9
$TDUSRTIMER
 40
0.0000000116
  9
$USRTIMER
 70
     1
  9
$ANGBASE
 50
0.0
  9
$ANGDIR
 70
     0
  9
$PDMODE
 70
     0
  9
$PDSIZE
 40
0.0
  9
$PLINEWID
 40
0.0
  9
$SPLFRAME
 70
     0
  9
$SPLINETYPE
 70
     6
  9
$SPLINESEGS
 70
     8
  9
$HANDSEED
  5
1BA
  9
$SURFTAB1
 70
     6
  9
$SURFTAB2
 70
     6
  9
$SURFTYPE
 70
     6
  9
$SURFU
 70
     6
  9
$SURFV
 70
     6
  9
$UCSBASE
  2

  9
$UCSNAME
  2

  9
$UCSORG
 10
0.0
 20
0.0
 30
0.0
  9
$UCSXDIR
 10
1.0
 20
0.0
 30
0.0
  9
$UCSYDIR
 10
0.0
 20
1.0
 30
0.0
  9
$UCSORTHOREF
  2

  9
$UCSORTHOVIEW
 70
     0
  9
$UCSORGTOP
 10
0.0
 20
0.0
 30
0.0
  9
$UCSORGBOTTOM
 10
0.0
 20
0.0
 30
0.0
  9
$UCSORGLEFT
 10
0.0
 20
0.0
 30
0.0
  9
$UCSORGRIGHT
 10
0.0
 20
0.0
 30
0.0
  9
$UCSORGFRONT
 10
0.0
 20
0.0
 30
0.0
  9
$UCSORGBACK
 10
0.0
 20
0.0
 30
0.0
  9
$PUCSBASE
  2

  9
$PUCSNAME
  2

  9
$PUCSORG
 10
0.0
 20
0.0
 30
0.0
  9
$PUCSXDIR
 10
1.0
 20
0.0
 30
0.0
  9
$PUCSYDIR
 10
0.0
 20
1.0
 30
0.0
  9
$PUCSORTHOREF
  2

  9
$PUCSORTHOVIEW
 70
     0
  9
$PUCSORGTOP
 10
0.0
 20
0.0
 30
0.0
  9
$PUCSORGBOTTOM
 10
0.0
 20
0.0
 30
0.0
  9
$PUCSORGLEFT
 10
0.0
 20
0.0
 30
0.0
  9
$PUCSORGRIGHT
 10
0.0
 20
0.0
 30
0.0
  9
$PUCSORGFRONT
 10
0.0
 20
0.0
 30
0.0
  9
$PUCSORGBACK
 10
0.0
 20
0.0
 30
0.0
  9
$USERI1
 70
     0
  9
$USERI2
 70
     0
  9
$USERI3
 70
     0
  9
$USERI4
 70
     0
  9
$USERI5
 70
     0
  9
$USERR1
 40
13.2
  9
$USERR2
 40
0.0
  9
$USERR3
 40
0.0
  9
$USERR4
 40
0.0
  9
$USERR5
 40
0.0
  9
$WORLDVIEW
 70
     1
  9
$SHADEDGE
 70
     3
  9
$SHADEDIF
 70
    70
  9
$TILEMODE
 70
     1
  9
$MAXACTVP
 70
    64
  9
$PINSBASE
 10
0.0
 20
0.0
 30
0.0
  9
$PLIMCHECK
 70
     0
  9
$PEXTMIN
 10
1.00000000000000E+20
 20
1.00000000000000E+20
 30
1.00000000000000E+20
  9
$PEXTMAX
 10
-1.00000000000000E+20
 20
-1.00000000000000E+20
 30
-1.00000000000000E+20
  9
$PLIMMIN
 10
0.0
 20
0.0
  9
$PLIMMAX
 10
12.0
 20
9.0
  9
$UNITMODE
 70
     0
  9
$VISRETAIN
 70
     1
  9
$PLINEGEN
 70
     0
  9
$PSLTSCALE
 70
     1
  9
$TREEDEPTH
 70
  3020
  9
$CMLSTYLE
  2
Standard
  9
$CMLJUST
 70
     0
  9
$CMLSCALE
 40
1.0
  9
$PROXYGRAPHICS
 70
     1
  9
$MEASUREMENT
 70
     1
  9
$CELWEIGHT
370
    -1
  9
$ENDCAPS
280
     0
  9
$JOINSTYLE
280
     0
  9
$LWDISPLAY
290
     0
  9
$INSUNITS
 70
     1
  9
$HYPERLINKBASE
  1

  9
$STYLESHEET
  1

  9
$XEDIT
290
     1
  9
$CEPSNTYPE
380
     0
  9
$PSTYLEMODE
290
     0
  9
$FINGERPRINTGUID
  2
{FAEB1C30-E019-11D5-929B-00C0DF256EC4}
  9
$VERSIONGUID
  2
{FAEB1C32-E019-11D5-929B-00C0DF256EC4}
  9
$EXTNAMES
290
     1
  9
$PSVPSCALE
 40
0.0
  9
$OLESTARTUP
290
     0
  0
ENDSEC
  0
SECTION
  2
CLASSES
  0
CLASS
  1
ACDBDICTIONARYWDFLT
  2
AcDbDictionaryWithDefault
  3
ObjectDBX Classes
 90
        0
280
     0
281
     0
  0
CLASS
  1
TABLESTYLE
  2
AcDbTableStyle
  3
ObjectDBX Classes
 90
     2047
280
     0
281
     0
  0
CLASS
  1
DICTIONARYVAR
  2
AcDbDictionaryVar
  3
ObjectDBX Classes
 90
        0
280
     0
281
     0
  0
CLASS
  1

  2
exOdDbSpline
  3

 90
        0
280
     0
281
     1
  0
CLASS
  1

  2
exOdDbCircle
  3

 90
        0
280
     0
281
     1
  0
CLASS
  1
ACDBPLACEHOLDER
  2
AcDbPlaceHolder
  3
ObjectDBX Classes
 90
        0
280
     0
281
     0
  0
CLASS
  1
LAYOUT
  2
AcDbLayout
  3
ObjectDBX Classes
 90
        0
280
     0
281
     0
  0
ENDSEC
  0
SECTION
  2
TABLES
  0
TABLE
  2
VPORT
  5
8
330
0
100
AcDbSymbolTable
 70
     2
  0
VPORT
  5
29
330
8
100
AcDbSymbolTableRecord
100
AcDbViewportTableRecord
  2
*Active
 70
     0
 10
0.0
 20
0.0
 11
1.0
 21
1.0
 12
157.5
 22
222.75
 13
0.0
 23
0.0
 14
0.5
 24
0.5
 15
0.5
 25
0.5
 16
0.0
 26
0.0
 36
1.0
 17
0.0
 27
0.0
 37
0.0
 40
490.05
 41
1.60267857142857
 42
50.0
 43
0.0
 44
0.0
 50
0.0
 51
0.0
 71
     0
 72
   100
 73
     1
 74
     3
 75
     0
 76
     0
 77
     0
 78
     0
281
     0
 65
     1
110
0.0
120
0.0
130
0.0
111
1.0
121
0.0
131
0.0
112
0.0
122
1.0
132
0.0
 79
     0
146
0.0
  0
ENDTAB
  0
TABLE
  2
LTYPE
  5
5
330
0
100
AcDbSymbolTable
 70
     8
  0
LTYPE
  5
14
330
5
100
AcDbSymbolTableRecord
100
AcDbLinetypeTableRecord
  2
ByBlock
 70
     0
  3

 72
    65
 73
     0
 40
0.0
  0
LTYPE
  5
15
330
5
100
AcDbSymbolTableRecord
100
AcDbLinetypeTableRecord
  2
ByLayer
 70
     0
  3

 72
    65
 73
     0
 40
0.0
  0
LTYPE
  5
16
330
5
100
AcDbSymbolTableRecord
100
AcDbLinetypeTableRecord
  2
Continuous
 70
     0
  3
Solid line
 72
    65
 73
     0
 40
0.0
  0
LTYPE
  5
2E
330
5
100
AcDbSymbolTableRecord
100
AcDbLinetypeTableRecord
  2
DASHED
 70
     0
  3
Dashed
 72
    65
 73
     2
 40
15.0
 49
7.0
 74
     0
 49
-8.0
 74
     0
  0
LTYPE
  5
2F
330
5
100
AcDbSymbolTableRecord
100
AcDbLinetypeTableRecord
  2
DOTTED
 70
     0
  3
Dotted
 72
    65
 73
     2
 40
1.0
 49
0.0
 74
     0
 49
-1.0
 74
     0
  0
LTYPE
  5
30
330
5
100
AcDbSymbolTableRecord
100
AcDbLinetypeTableRecord
  2
DOT_CENTER
 70
     0
  3
Dot_Center
 72
    65
 73
     4
 40
14.0
 49
12.0
 74
     0
 49
-1.0
 74
     0
 49
0.0
 74
     0
 49
-1.0
 74
     0
  0
LTYPE
  5
31
330
5
100
AcDbSymbolTableRecord
100
AcDbLinetypeTableRecord
  2
LONG_DASHED
 70
     0
  3
Long_Dashed
 72
    65
 73
     2
 40
15.0
 49
10.0
 74
     0
 49
-5.0
 74
     0
  0
LTYPE
  5
32
330
5
100
AcDbSymbolTableRecord
100
AcDbLinetypeTableRecord
  2
DASH_CENTER
 70
     0
  3
Dash_Center
 72
    65
 73
     4
 40
14.0
 49
11.0
 74
     0
 49
-1.0
 74
     0
 49
1.0
 74
     0
 49
-1.0
 74
     0
  0
LTYPE
  5
33
330
5
100
AcDbSymbolTableRecord
100
AcDbLinetypeTableRecord
  2
PHANTOM
 70
     0
  3
Phantom
 72
    65
 73
     6
 40
13.0
 49
10.0
 74
     0
 49
-1.0
 74
     0
 49
0.0
 74
     0
 49
-1.0
 74
     0
 49
0.0
 74
     0
 49
-1.0
 74
     0
  0
LTYPE
  5
34
330
5
100
AcDbSymbolTableRecord
100
AcDbLinetypeTableRecord
  2
CENTER_DASH_DASH
 70
     0
  3
Center_Dash_Dash
 72
    65
 73
     6
 40
14.0
 49
9.0
 74
     0
 49
-1.0
 74
     0
 49
1.0
 74
     0
 49
-1.0
 74
     0
 49
1.0
 74
     0
 49
-1.0
 74
     0
  0
ENDTAB
  0
TABLE
  2
LAYER
  5
2
330
0
100
AcDbSymbolTable
 70
     2
  0
LAYER
  5
10
330
2
100
AcDbSymbolTableRecord
100
AcDbLayerTableRecord
  2
0
 70
     0
 62
     7
  6
Continuous
370
    -3
390
F
  0
LAYER
  5
35
330
2
100
AcDbSymbolTableRecord
100
AcDbLayerTableRecord
  2
1
 70
     0
 62
     7
  6
Continuous
370
    -3
390
F
  0
ENDTAB
  0
TABLE
  2
STYLE
  5
3
330
0
100
AcDbSymbolTable
 70
     3
  0
STYLE
  5
11
330
3
100
AcDbSymbolTableRecord
100
AcDbTextStyleTableRecord
  2
Standard
 70
     0
 40
0.0
 41
1.0
 50
0.0
 71
     0
 42
0.2
  3
txt
  4

  0
STYLE
  5
14A
330
3
100
AcDbSymbolTableRecord
100
AcDbTextStyleTableRecord
  2
CONVERTER_1
 70
     0
 40
0.0
 41
0.89
 50
0.0
 71
     0
 42
0.2
  3
msmincho.ttc
  4

1001
ACAD
1000
MS Mincho
1071
    32785
  0
STYLE
  5
16D
330
3
100
AcDbSymbolTableRecord
100
AcDbTextStyleTableRecord
  2
CONVERTER_2
 70
     0
 40
0.0
 41
0.9
 50
0.0
 71
     0
 42
0.2
  3
txt.shx
  4

  0
ENDTAB
  0
TABLE
  2
VIEW
  5
6
330
0
100
AcDbSymbolTable
 70
     0
  0
ENDTAB
  0
TABLE
  2
UCS
  5
7
330
0
100
AcDbSymbolTable
 70
     0
  0
ENDTAB
  0
TABLE
  2
APPID
  5
9
330
0
100
AcDbSymbolTable
 70
     1
  0
APPID
  5
12
330
9
100
AcDbSymbolTableRecord
100
AcDbRegAppTableRecord
  2
ACAD
 70
     0
  0
ENDTAB
  0
TABLE
  2
DIMSTYLE
  5
A
330
0
100
AcDbSymbolTable
 70
     7
100
AcDbDimStyleTable
  0
DIMSTYLE
105
27
330
A
100
AcDbSymbolTableRecord
100
AcDbDimStyleTableRecord
  2
Standard
 70
     0
340
11
  0
DIMSTYLE
105
181
102
{ACAD_REACTORS
330
182
102
}
330
A
100
AcDbSymbolTableRecord
100
AcDbDimStyleTableRecord
  2
ME10_DIM_0
 70
     0
 41
5.24999999999999
 42
0.0
 44
1.5
 73
     0
 74
     0
 77
     1
 78
     8
140
5.24999999999999
147
0.625
172
     1
173
     1
176
     2
177
     2
178
     7
271
     2
340
16D
344
17E
  0
DIMSTYLE
105
18C
102
{ACAD_REACTORS
330
18D
102
}
330
A
100
AcDbSymbolTableRecord
100
AcDbDimStyleTableRecord
  2
ME10_DIM_1
 70
     0
 41
5.25
 42
0.0
 44
1.5
 73
     0
 74
     0
 77
     1
 78
     8
140
5.25
147
0.625
172
     1
173
     1
176
     2
177
     2
178
     7
271
     2
340
16D
  0
DIMSTYLE
105
197
102
{ACAD_REACTORS
330
198
102
}
330
A
100
AcDbSymbolTableRecord
100
AcDbDimStyleTableRecord
  2
ME10_DIM_2
 70
     0
 41
5.25
 42
0.0
 44
1.5
 73
     0
 74
     0
 77
     1
 78
     8
140
5.25
147
0.625
172
     1
173
     1
176
     2
177
     2
178
     7
271
     2
340
16D
  0
DIMSTYLE
105
1A2
102
{ACAD_REACTORS
330
1A3
102
}
330
A
100
AcDbSymbolTableRecord
100
AcDbDimStyleTableRecord
  2
ME10_DIM_3
 70
     0
  3
{\Fgdt;n}<>
 41
5.25
 42
0.0
 44
1.5
 73
     0
 74
     0
 77
     1
 78
     8
140
5.25
147
0.625
172
     1
173
     1
176
     2
177
     2
178
     7
271
     2
340
16D
  0
DIMSTYLE
105
1AD
102
{ACAD_REACTORS
330
1AE
102
}
330
A
100
AcDbSymbolTableRecord
100
AcDbDimStyleTableRecord
  2
ME10_DIM_4
 70
     0
 41
5.25
 42
0.0
 44
1.5
 73
     0
 74
     0
 77
     1
 78
     8
140
5.25
147
0.625
172
     1
173
     1
176
     2
177
     2
178
     7
271
     2
340
16D
  0
DIMSTYLE
105
1B8
102
{ACAD_REACTORS
330
1B9
102
}
330
A
100
AcDbSymbolTableRecord
100
AcDbDimStyleTableRecord
  2
ME10_DIM_5
 70
     0
 41
5.25
 42
0.0
 44
1.5
 73
     0
 74
     0
 77
     1
 78
     8
140
5.25
147
0.625
172
     1
173
     1
176
     2
177
     2
178
     7
271
     2
340
16D
  0
ENDTAB
  0
TABLE
  2
BLOCK_RECORD
  5
1
330
0
100
AcDbSymbolTable
 70
    13
  0
BLOCK_RECORD
  5
1F
330
1
100
AcDbSymbolTableRecord
100
AcDbBlockTableRecord
  2
*Model_Space
340
22
  0
BLOCK_RECORD
  5
1B
330
1
100
AcDbSymbolTableRecord
100
AcDbBlockTableRecord
  2
*Paper_Space
340
1E
  0
BLOCK_RECORD
  5
23
330
1
100
AcDbSymbolTableRecord
100
AcDbBlockTableRecord
  2
*Paper_Space0
340
26
  0
BLOCK_RECORD
  5
36
330
1
100
AcDbSymbolTableRecord
100
AcDbBlockTableRecord
  2
Y105-0
340
0
102
{BLKREFS
331
46
102
}
  0
BLOCK_RECORD
  5
39
330
1
100
AcDbSymbolTableRecord
100
AcDbBlockTableRecord
  2
75-26
340
0
102
{BLKREFS
331
47
102
}
  0
BLOCK_RECORD
  5
3C
330
1
100
AcDbSymbolTableRecord
100
AcDbBlockTableRecord
  2
81-100K
340
0
102
{BLKREFS
331
40
102
}
  0
BLOCK_RECORD
  5
3F
330
1
100
AcDbSymbolTableRecord
100
AcDbBlockTableRecord
  2
81-100X
340
0
102
{BLKREFS
331
48
102
}
  0
BLOCK_RECORD
  5
43
330
1
100
AcDbSymbolTableRecord
100
AcDbBlockTableRecord
  2
_J__A4
340
0
102
{BLKREFS
331
49
102
}
  0
BLOCK_RECORD
  5
175
330
1
100
AcDbSymbolTableRecord
100
AcDbBlockTableRecord
  2
*D06
340
0
  0
BLOCK_RECORD
  5
17E
330
1
100
AcDbSymbolTableRecord
100
AcDbBlockTableRecord
  2
_None
340
0
  0
BLOCK_RECORD
  5
183
330
1
100
AcDbSymbolTableRecord
100
AcDbBlockTableRecord
  2
*D18
340
0
  0
BLOCK_RECORD
  5
18E
330
1
100
AcDbSymbolTableRecord
100
AcDbBlockTableRecord
  2
*D29
340
0
  0
BLOCK_RECORD
  5
199
330
1
100
AcDbSymbolTableRecord
100
AcDbBlockTableRecord
  2
*D310
340
0
  0
BLOCK_RECORD
  5
1A4
330
1
100
AcDbSymbolTableRecord
100
AcDbBlockTableRecord
  2
*D411
340
0
  0
BLOCK_RECORD
  5
1AF
330
1
100
AcDbSymbolTableRecord
100
AcDbBlockTableRecord
  2
*D512
340
0
  0
ENDTAB
  0
ENDSEC
  0
SECTION
  2
BLOCKS
  0
BLOCK
  5
20
330
1F
100
AcDbEntity
  8
0
100
AcDbBlockBegin
  2
*Model_Space
 70
     0
 71
     0
 10
0.0
 20
0.0
 30
0.0
  3
*Model_Space
  1

  0
ENDBLK
  5
21
330
1F
100
AcDbEntity
  8
0
100
AcDbBlockEnd
  0
BLOCK
  5
1C
330
1B
100
AcDbEntity
 67
     1
  8
0
100
AcDbBlockBegin
  2
*Paper_Space
 70
     0
 71
     0
 10
0.0
 20
0.0
 30
0.0
  3
*Paper_Space
  1

  0
ENDBLK
  5
1D
330
1B
100
AcDbEntity
 67
     1
  8
0
100
AcDbBlockEnd
  0
BLOCK
  5
24
330
23
100
AcDbEntity
  8
0
100
AcDbBlockBegin
  2
*Paper_Space0
 70
     0
 71
     0
 10
0.0
 20
0.0
 30
0.0
  3
*Paper_Space0
  1

  0
ENDBLK
  5
25
330
23
100
AcDbEntity
  8
0
100
AcDbBlockEnd
  0
BLOCK
  5
37
330
36
100
AcDbEntity
  8
0
100
AcDbBlockBegin
  2
Y105-0
 70
     0
 71
     0
 10
544.7621777955131
 20
294.2531805288901
 30
0.0
  3
Y105-0
  1

  0
LINE
  5
4A
330
36
100
AcDbEntity
  8
1
  6
Continuous
 62
     7
100
AcDbLine
 10
89.37360964168107
 20
131.7064148801831
 30
0.0
 11
89.37360964168107
 21
142.0491668843914
 31
0.0
  0
LINE
  5
4B
330
36
100
AcDbEntity
  8
1
  6
Continuous
 62
     7
100
AcDbLine
 10
105.8736096416811
 20
131.7064148801832
 30
0.0
 11
105.8736096416811
 21
142.0491668843914
 31
0.0
  0
LINE
  5
4C
330
36
100
AcDbEntity
  8
1
  6
Continuous
 62
     7
100
AcDbLine
 10
89.37360964168107
 20
120.283725482243
 30
0.0
 11
89.37360964168107
 21
131.7064148801831
 31
0.0
  0
LINE
  5
4D
330
36
100
AcDbEntity
  8
1
  6
Continuous
 62
     7
100
AcDbLine
 10
105.8736096416811
 20
120.283725482243
 30
0.0
 11
105.8736096416811
 21
131.7064148801832
 31
0.0
  0
LINE
  5
4E
330
36
100
AcDbEntity
  8
1
  6
Continuous
 62
     7
100
AcDbLine
 10
89.37360964168107
 20
116.7531805288887
 30
0.0
 11
89.37360964168107
 21
120.283725482243
 31
0.0
  0
LINE
  5
4F
330
36
100
AcDbEntity
  8
1
  6
Continuous
 62
     7
100
AcDbLine
 10
105.8736096416811
 20
116.7531805288887
 30
0.0
 11
105.8736096416811
 21
120.283725482243
 31
0.0
  0
LINE
  5
50
330
36
100
AcDbEntity
  8
1
  6
Continuous
 62
     7
100
AcDbLine
 10
85.12360964168119
 20
161.059915105198
 30
0.0
 11
85.12360964168119
 21
148.2915289442117
 31
0.0
  0
LINE
  5
51
330
36
100
AcDbEntity
  8
1
  6
Continuous
 62
     7
100
AcDbLine
 10
110.1236096416813
 20
161.0599151051979
 30
0.0
 11
110.1236096416813
 21
148.2915289442094
 31
0.0
  0
LINE
  5
52
330
36
100
AcDbEntity
  8
1
  6
Continuous
 62
     7
100
AcDbLine
 10
85.12360964168119
 20
163.7531805288887
 30
0.0
 11
85.12360964168119
 21
161.059915105198
 31
0.0
  0
LINE
  5
53
330
36
100
AcDbEntity
  8
1
  6
Continuous
 62
     7
100
AcDbLine
 10
110.1236096416813
 20
163.7531805288887
 30
0.0
 11
110.1236096416813
 21
161.0599151051979
 31
0.0
  0
LINE
  5
54
330
36
100
AcDbEntity
  8
1
  6
Continuous
 62
     7
100
AcDbLine
 10
184.0595971264044
 20
150.2991668843928
 30
0.0
 11
178.7879835743277
 21
149.3696391832932
 31
0.0
  0
LINE
  5
55
330
36
100
AcDbEntity
  8
1
  6
Continuous
 62
     7
100
AcDbLine
 10
192.7621777955131
 20
163.7531805288929
 30
0.0
 11
192.7621777955131
 21
159.0113260047548
 31
0.0
  0
LINE
  5
56
330
36
100
AcDbEntity
  8
1
  6
Continuous
 62
     7
100
AcDbLine
 10
217.7621777955132
 20
163.7531805288927
 30
0.0
 11
217.7621777955132
 21
159.3596357425534
 31
0.0
  0
LINE
  5
57
330
36
100
AcDbEntity
  8
1
  6
Continuous
 62
     7
100
AcDbLine
 10
264.2621777955132
 20
151.2531805288901
 30
0.0
 11
264.2621777955132
 21
132.2531805288901
 31
0.0
  0
LINE
  5
58
330
36
100
AcDbEntity
  8
1
  6
Continuous
 62
     7
100
AcDbLine
 10
247.7620327414465
 20
129.0030354800833
 30
0.0
 11
247.7616777676896
 21
119.2139509810262
 31
0.0
  0
LINE
  5
59
330
36
100
AcDbEntity
  8
1
  6
Continuous
 62
     7
100
AcDbLine
 10
243.7620327440764
 20
133.0031805288901
 30
0.0
 11
229.6330107726602
 21
133.0031805288901
 31
0.0
  0
LINE
  5
5A
330
36
100
AcDbEntity
  8
1
  6
Continuous
 62
     7
100
AcDbLine
 10
248.2601364345562
 20
118.7531805288901
 30
0.0
 11
250.2621777955132
 21
118.7531805288901
 31
0.0
  0
LINE
  5
5B
330
36
100
AcDbEntity
  8
1
  6
Continuous
 62
     7
100
AcDbLine
 10
250.2621777955132
 20
131.2531805288901
 30
0.0
 11
250.2621777955132
 21
118.7531805288901
 31
0.0
  0
LINE
  5
5C
330
36
100
AcDbEntity
  8
1
  6
Continuous
 62
     7
100
AcDbLine
 10
251.9942286030819
 20
131.2531805288901
 30
0.0
 11
250.2621777955132
 21
131.2531805288901
 31
0.0
  0
LINE
  5
5D
330
36
100
AcDbEntity
  8
1
  6
Continuous
 62
     2
100
AcDbLine
 10
251.9942286030819
 20
132.2531805288901
 30
0.0
 11
250.2621777955132
 21
131.2531805288901
 31
0.0
  0
LINE
  5
5E
330
36
100
AcDbEntity
  8
1
  6
Continuous
 62
     2
100
AcDbLine
 10
263.2621777955132
 20
132.2531805288901
 30
0.0
 11
251.9942286030819
 21
132.2531805288901
 31
0.0
  0
LINE
  5
5F
330
36
100
AcDbEntity
  8
1
  6
Continuous
 62
     7
100
AcDbLine
 10
263.2621777955132
 20
131.2531805288901
 30
0.0
 11
264.2621777955132
 21
132.2531805288901
 31
0.0
  0
LINE
  5
60
330
36
100
AcDbEntity
  8
1
  6
Continuous
 62
     7
100
AcDbLine
 10
251.9942286030819
 20
131.2531805288901
 30
0.0
 11
251.9942286030819
 21
151.2531805288901
 31
0.0
  0
LINE
  5
61
330
36
100
AcDbEntity
  8
1
  6
Continuous
 62
     7
100
AcDbLine
 10
263.2621777955132
 20
131.2531805288901
 30
0.0
 11
251.9942286030819
 21
131.2531805288901
 31
0.0
  0
LINE
  5
62
330
36
100
AcDbEntity
  8
1
  6
Continuous
 62
     7
100
AcDbLine
 10
263.2621777955132
 20
151.2531805288901
 30
0.0
 11
263.2621777955132
 21
131.2531805288901
 31
0.0
  0
LINE
  5
63
330
36
100
AcDbEntity
  8
1
  6
Continuous
 62
     2
100
AcDbLine
 10
264.2621777955132
 20
132.2531805288901
 30
0.0
 11
263.2621777955132
 21
132.2531805288901
 31
0.0
  0
LINE
  5
64
330
36
100
AcDbEntity
  8
1
  6
Continuous
 62
     2
100
AcDbLine
 10
263.2621777955132
 20
151.2531805288901
 30
0.0
 11
264.2621777955132
 21
151.2531805288901
 31
0.0
  0
LINE
  5
65
330
36
100
AcDbEntity
  8
1
  6
Continuous
 62
     7
100
AcDbLine
 10
263.2621777955132
 20
152.2531805288901
 30
0.0
 11
263.2621777955132
 21
151.2531805288901
 31
0.0
  0
LINE
  5
66
330
36
100
AcDbEntity
  8
1
  6
Continuous
 62
     7
100
AcDbLine
 10
251.9942286030819
 20
152.2531805288901
 30
0.0
 11
263.2621777955132
 21
152.2531805288901
 31
0.0
  0
LINE
  5
67
330
36
100
AcDbEntity
  8
1
  6
Continuous
 62
     7
100
AcDbLine
 10
251.9942286030819
 20
151.2531805288901
 30
0.0
 11
251.9942286030819
 21
152.2531805288901
 31
0.0
  0
LINE
  5
68
330
36
100
AcDbEntity
  8
1
  6
Continuous
 62
     7
100
AcDbLine
 10
264.2621777955132
 20
151.2531805288901
 30
0.0
 11
263.2621777955132
 21
152.2531805288901
 31
0.0
  0
LINE
  5
69
330
36
100
AcDbEntity
  8
1
  6
Continuous
 62
     2
100
AcDbLine
 10
251.9942286030819
 20
151.2531805288901
 30
0.0
 11
263.2621777955132
 21
151.2531805288901
 31
0.0
  0
LINE
  5
6A
330
36
100
AcDbEntity
  8
1
  6
Continuous
 62
     2
100
AcDbLine
 10
250.2621777955132
 20
152.2531805288901
 30
0.0
 11
251.9942286030819
 21
151.2531805288901
 31
0.0
  0
LINE
  5
6B
330
36
100
AcDbEntity
  8
1
  6
Continuous
 62
     7
100
AcDbLine
 10
250.2621777955132
 20
152.2531805288901
 30
0.0
 11
251.9942286030819
 21
152.2531805288901
 31
0.0
  0
LINE
  5
6C
330
36
100
AcDbEntity
  8
1
  6
Continuous
 62
     7
100
AcDbLine
 10
250.2621777955132
 20
164.7531805288901
 30
0.0
 11
250.2621777955132
 21
152.2531805288901
 31
0.0
  0
LINE
  5
6D
330
36
100
AcDbEntity
  8
1
  6
Continuous
 62
     7
100
AcDbLine
 10
250.2621777955132
 20
164.7531805288901
 30
0.0
 11
248.2551468720212
 21
164.7531805288901
 31
0.0
  0
LINE
  5
6E
330
36
100
AcDbEntity
  8
1
  6
Continuous
 62
     7
100
AcDbLine
 10
247.7566882051547
 20
164.292410076754
 30
0.0
 11
247.7605847331062
 21
154.5047729572138
 31
0.0
  0
LINE
  5
6F
330
36
100
AcDbEntity
  8
1
  6
Continuous
 62
     7
100
AcDbLine
 10
162.0736720444722
 20
117.7586026119826
 30
0.0
 11
164.0478200427889
 21
133.8367478103662
 31
0.0
  0
LINE
  5
70
330
36
100
AcDbEntity
  8
1
  6
Continuous
 62
     7
100
AcDbLine
 10
178.450683546554
 20
115.7477584457976
 30
0.0
 11
179.84328541665
 21
127.0895905121057
 31
0.0
  0
LINE
  5
71
330
36
100
AcDbEntity
  8
1
  6
Continuous
 62
     7
100
AcDbLine
 10
162.0736720444722
 20
117.7586026119826
 30
0.0
 11
170.2621777955131
 21
116.7531805288901
 31
0.0
  0
LINE
  5
72
330
36
100
AcDbEntity
  8
1
  6
Continuous
 62
     7
100
AcDbLine
 10
170.2621777955131
 20
116.7531805288901
 30
0.0
 11
178.450683546554
 21
115.7477584457976
 31
0.0
  0
LINE
  5
73
330
36
100
AcDbEntity
  8
1
  6
Continuous
 62
     7
100
AcDbLine
 10
243.7605850500848
 20
150.5031805288901
 30
0.0
 11
228.3662134617959
 21
150.5031805288901
 31
0.0
  0
LINE
  5
74
330
36
100
AcDbEntity
  8
1
  6
Continuous
 62
     7
100
AcDbLine
 10
97.62360964168107
 20
374.8292958237311
 30
0.0
 11
107.1236096416811
 21
374.8292958237311
 31
0.0
  0
LINE
  5
75
330
36
100
AcDbEntity
  8
1
  6
Continuous
 62
     7
100
AcDbLine
 10
110.3737546904878
 20
358.3291507696644
 30
0.0
 11
120.162839189545
 21
358.3287957959075
 31
0.0
  0
LINE
  5
76
330
36
100
AcDbEntity
  8
1
  6
Continuous
 62
     7
100
AcDbLine
 10
106.3736096416811
 20
354.3291507722943
 30
0.0
 11
106.3736096416811
 21
340.2001288008781
 31
0.0
  0
LINE
  5
77
330
36
100
AcDbEntity
  8
1
  6
Continuous
 62
     7
100
AcDbLine
 10
120.6236096416811
 20
358.8272544627741
 30
0.0
 11
120.6236096416811
 21
360.8292958237311
 31
0.0
  0
LINE
  5
78
330
36
100
AcDbEntity
  8
1
  6
Continuous
 62
     7
100
AcDbLine
 10
108.1236096416811
 20
360.8292958237311
 30
0.0
 11
120.6236096416811
 21
360.8292958237311
 31
0.0
  0
LINE
  5
79
330
36
100
AcDbEntity
  8
1
  6
Continuous
 62
     7
100
AcDbLine
 10
108.1236096416811
 20
362.5613466312998
 30
0.0
 11
108.1236096416811
 21
360.8292958237311
 31
0.0
  0
LINE
  5
7A
330
36
100
AcDbEntity
  8
1
  6
Continuous
 62
     2
100
AcDbLine
 10
107.1236096416811
 20
362.5613466312998
 30
0.0
 11
108.1236096416811
 21
360.8292958237311
 31
0.0
  0
LINE
  5
7B
330
36
100
AcDbEntity
  8
1
  6
Continuous
 62
     2
100
AcDbLine
 10
107.1236096416811
 20
373.8292958237311
 30
0.0
 11
107.1236096416811
 21
362.5613466312998
 31
0.0
  0
LINE
  5
7C
330
36
100
AcDbEntity
  8
1
  6
Continuous
 62
     7
100
AcDbLine
 10
108.1236096416811
 20
373.8292958237311
 30
0.0
 11
107.1236096416811
 21
374.8292958237311
 31
0.0
  0
LINE
  5
7D
330
36
100
AcDbEntity
  8
1
  6
Continuous
 62
     7
100
AcDbLine
 10
108.1236096416811
 20
362.5613466312998
 30
0.0
 11
107.1236096416811
 21
362.5613466312998
 31
0.0
  0
LINE
  5
7E
330
36
100
AcDbEntity
  8
1
  6
Continuous
 62
     7
100
AcDbLine
 10
108.1236096416811
 20
373.8292958237311
 30
0.0
 11
108.1236096416811
 21
362.5613466312998
 31
0.0
  0
LINE
  5
7F
330
36
100
AcDbEntity
  8
1
  6
Continuous
 62
     7
100
AcDbLine
 10
107.1236096416811
 20
373.8292958237311
 30
0.0
 11
108.1236096416811
 21
373.8292958237311
 31
0.0
  0
LINE
  5
80
330
36
100
AcDbEntity
  8
1
  6
Continuous
 62
     2
100
AcDbLine
 10
107.1236096416811
 20
374.8292958237311
 30
0.0
 11
107.1236096416811
 21
373.8292958237311
 31
0.0
  0
LINE
  5
81
330
36
100
AcDbEntity
  8
1
  6
Continuous
 62
     2
100
AcDbLine
 10
88.12360964168107
 20
373.8292958237311
 30
0.0
 11
88.12360964168107
 21
374.8292958237311
 31
0.0
  0
LINE
  5
82
330
36
100
AcDbEntity
  8
1
  6
Continuous
 62
     7
100
AcDbLine
 10
87.12360964168107
 20
373.8292958237311
 30
0.0
 11
88.12360964168107
 21
373.8292958237311
 31
0.0
  0
LINE
  5
83
330
36
100
AcDbEntity
  8
1
  6
Continuous
 62
     7
100
AcDbLine
 10
87.12360964168107
 20
362.5613466312998
 30
0.0
 11
87.12360964168107
 21
373.8292958237311
 31
0.0
  0
LINE
  5
84
330
36
100
AcDbEntity
  8
1
  6
Continuous
 62
     7
100
AcDbLine
 10
88.12360964168107
 20
362.5613466312998
 30
0.0
 11
87.12360964168107
 21
362.5613466312998
 31
0.0
  0
LINE
  5
85
330
36
100
AcDbEntity
  8
1
  6
Continuous
 62
     7
100
AcDbLine
 10
88.12360964168107
 20
374.8292958237311
 30
0.0
 11
87.12360964168107
 21
373.8292958237311
 31
0.0
  0
LINE
  5
86
330
36
100
AcDbEntity
  8
1
  6
Continuous
 62
     7
100
AcDbLine
 10
88.12360964168107
 20
374.8292958237311
 30
0.0
 11
97.62360964168107
 21
374.8292958237311
 31
0.0
  0
LINE
  5
87
330
36
100
AcDbEntity
  8
1
  6
Continuous
 62
     2
100
AcDbLine
 10
88.12360964168107
 20
362.5613466312998
 30
0.0
 11
88.12360964168107
 21
373.8292958237311
 31
0.0
  0
LINE
  5
88
330
36
100
AcDbEntity
  8
1
  6
Continuous
 62
     2
100
AcDbLine
 10
87.12360964168107
 20
360.8292958237311
 30
0.0
 11
88.12360964168107
 21
362.5613466312998
 31
0.0
  0
LINE
  5
89
330
36
100
AcDbEntity
  8
1
  6
Continuous
 62
     7
100
AcDbLine
 10
87.12360964168107
 20
360.8292958237311
 30
0.0
 11
87.12360964168107
 21
362.5613466312998
 31
0.0
  0
LINE
  5
8A
330
36
100
AcDbEntity
  8
1
  6
Continuous
 62
     7
100
AcDbLine
 10
74.62360964168107
 20
360.8292958237311
 30
0.0
 11
87.12360964168107
 21
360.8292958237311
 31
0.0
  0
LINE
  5
8B
330
36
100
AcDbEntity
  8
1
  6
Continuous
 62
     7
100
AcDbLine
 10
74.62360964168107
 20
360.8292958237311
 30
0.0
 11
74.62360964168107
 21
358.8222649002391
 31
0.0
  0
LINE
  5
8C
330
36
100
AcDbEntity
  8
1
  6
Continuous
 62
     7
100
AcDbLine
 10
75.08438009381717
 20
358.3238062333726
 30
0.0
 11
84.87201721335737
 21
358.3277027613241
 31
0.0
  0
LINE
  5
8D
330
36
100
AcDbEntity
  8
1
  6
Continuous
 62
     7
100
AcDbLine
 10
88.87360964168107
 20
354.3277030783027
 30
0.0
 11
88.87360964168107
 21
338.9333314900138
 31
0.0
  0
LINE
  5
8E
330
36
100
AcDbEntity
  8
1
  6
Continuous
 62
     7
100
AcDbLine
 10
108.1236096416811
 20
360.8292958237311
 30
0.0
 11
87.12360964168107
 21
360.8292958237311
 31
0.0
  0
LINE
  5
8F
330
36
100
AcDbEntity
  8
1
  6
Continuous
 62
     7
100
AcDbLine
 10
84.87201721335737
 20
358.3277027613241
 30
0.0
 11
110.3737546904878
 21
358.3277027613241
 31
0.0
  0
LINE
  5
90
330
36
100
AcDbEntity
  8
1
  6
Continuous
 62
     7
100
AcDbLine
 10
89.37360964168107
 20
292.2297725234607
 30
0.0
 11
89.37360964168107
 21
280.829295823731
 31
0.0
  0
LINE
  5
91
330
36
100
AcDbEntity
  8
1
  6
Continuous
 62
     7
100
AcDbLine
 10
105.8736096416811
 20
280.829295823731
 30
0.0
 11
105.8736096416811
 21
292.2297725234607
 31
0.0
  0
LINE
  5
92
330
36
100
AcDbEntity
  8
1
  6
Continuous
 62
     7
100
AcDbLine
 10
88.12360964168107
 20
373.8292958237311
 30
0.0
 11
107.1236096416811
 21
373.8292958237311
 31
0.0
  0
LINE
  5
93
330
36
100
AcDbEntity
  8
1
  6
Continuous
 62
     7
100
AcDbLine
 10
88.12360964168107
 20
362.5613466312998
 30
0.0
 11
107.1236096416811
 21
362.5613466312998
 31
0.0
  0
LINE
  5
94
330
36
100
AcDbEntity
  8
1
  6
Continuous
 62
     7
100
AcDbLine
 10
247.7605847331062
 20
154.5047729572138
 30
0.0
 11
247.7620327376281
 21
129.0034076546933
 31
0.0
  0
LINE
  5
95
330
36
100
AcDbEntity
  8
1
  6
Continuous
 62
     7
100
AcDbLine
 10
250.2621777955132
 20
152.2531805288901
 30
0.0
 11
250.2621777955132
 21
131.2531805288901
 31
0.0
  0
ARC
  5
96
330
36
100
AcDbEntity
  8
1
  6
Continuous
 62
     7
100
AcDbCircle
 10
97.62360964168107
 20
142.0491668843914
 30
0.0
 40
8.250000000000028
100
AcDbArc
 50
0.0
 51
180.0
  0
ARC
  5
97
330
36
100
AcDbEntity
  8
1
  6
Continuous
 62
     7
100
AcDbCircle
 10
97.62360964168107
 20
141.7531805288901
 30
0.0
 40
13.00000000000144
100
AcDbArc
 50
171.2539867167446
 51
-129.3914640973306
  0
ARC
  5
98
330
36
100
AcDbEntity
  8
1
  6
Continuous
 62
     7
100
AcDbCircle
 10
97.62360964168107
 20
141.7531805288901
 30
0.0
 40
13.00000000000146
100
AcDbArc
 50
-50.60853590266903
 51
8.74601328325217
  0
ARC
  5
99
330
36
100
AcDbEntity
  8
1
  6
Continuous
 62
     7
100
AcDbCircle
 10
97.62360964168107
 20
141.7531805288901
 30
0.0
 40
23.0
100
AcDbArc
 50
122.9207345280893
 51
-111.0201131499141
  0
ARC
  5
9A
330
36
100
AcDbEntity
  8
1
  6
Continuous
 62
     7
100
AcDbCircle
 10
97.62360964168107
 20
141.7531805288901
 30
0.0
 40
23.00000000000003
100
AcDbArc
 50
0.0
 51
57.07926547190988
  0
ARC
  5
9B
330
36
100
AcDbEntity
  8
1
  6
Continuous
 62
     7
100
AcDbCircle
 10
97.62360964168107
 20
141.7531805288901
 30
0.0
 40
23.00000000000004
100
AcDbArc
 50
-68.97988685008582
 51
0.0
  0
ARC
  5
9C
330
36
100
AcDbEntity
  8
1
  6
Continuous
 62
     7
100
AcDbCircle
 10
229.6330107726602
 20
101.0031805288901
 30
0.0
 40
32.00000000000001
100
AcDbArc
 50
90.0
 51
109.7845253447806
  0
ARC
  5
9D
330
36
100
AcDbEntity
  8
1
  6
Continuous
 62
     7
100
AcDbCircle
 10
186.2948354023186
 20
126.2974397799722
 30
0.0
 40
6.500000000000022
100
AcDbArc
 50
65.92702608510987
 51
172.9999999999996
  0
ARC
  5
9E
330
36
100
AcDbEntity
  8
1
  6
Continuous
 62
     7
100
AcDbCircle
 10
181.9136507723327
 20
131.6430996290735
 30
0.0
 40
18.0
100
AcDbArc
 50
100.0000000000008
 51
172.9999999999999
  0
ARC
  5
9F
330
36
100
AcDbEntity
  8
1
  6
Continuous
 62
     7
100
AcDbCircle
 10
182.149467172068
 20
161.1320521675271
 30
0.0
 40
11.00000000000003
100
AcDbArc
 50
-79.99999999999908
 51
-20.69874540567574
  0
ARC
  5
A0
330
36
100
AcDbEntity
  8
1
  6
Continuous
 62
     7
100
AcDbCircle
 10
228.3662134617959
 20
161.5031805288901
 30
0.0
 40
11.00000000000015
100
AcDbArc
 50
-159.0681372558032
 51
-90.0
  0
ARC
  5
A1
330
36
100
AcDbEntity
  8
1
  6
Continuous
 62
     7
100
AcDbCircle
 10
205.262177795513
 20
168.7531805288901
 30
0.0
 40
39.99999999999996
100
AcDbArc
 50
-114.0729739148902
 51
-70.21547465521938
  0
ARC
  5
A2
330
36
100
AcDbEntity
  8
1
  6
Continuous
 62
     7
100
AcDbCircle
 10
138.3736096416811
 20
340.2001288008781
 30
0.0
 40
32.0
100
AcDbArc
 50
180.0
 51
-160.2154746552195
  0
ARC
  5
A3
330
36
100
AcDbEntity
  8
1
  6
Continuous
 62
     7
100
AcDbCircle
 10
70.62360964168107
 20
315.8292958237309
 30
0.0
 40
40.00000000000007
100
AcDbArc
 50
14.75721083396194
 51
19.78452534478062
  0
ARC
  5
A4
330
36
100
AcDbEntity
  8
1
  6
Continuous
 62
     7
100
AcDbCircle
 10
56.87360964168119
 20
340.2001288008781
 30
0.0
 40
31.99999999999987
100
AcDbArc
 50
-19.7845253447806
 51
0.0
  0
ARC
  5
A5
330
36
100
AcDbEntity
  8
1
  6
Continuous
 62
     7
100
AcDbCircle
 10
68.37360964168107
 20
292.2297725234607
 30
0.0
 40
21.0
100
AcDbArc
 50
0.0
 51
22.76034304018282
  0
ARC
  5
A6
330
36
100
AcDbEntity
  8
1
  6
Continuous
 62
     7
100
AcDbCircle
 10
124.6236096416812
 20
315.8292958237309
 30
0.0
 40
40.00000000000006
100
AcDbArc
 50
-165.2427891660381
 51
-157.2396569598172
  0
ARC
  5
A7
330
36
100
AcDbEntity
  8
1
  6
Continuous
 62
     7
100
AcDbCircle
 10
126.8736096416811
 20
292.2297725234607
 30
0.0
 40
21.00000000000003
100
AcDbArc
 50
157.2396569598172
 51
180.0
  0
ARC
  5
A8
330
36
100
AcDbEntity
  8
1
  6
Continuous
 62
     7
100
AcDbCircle
 10
70.62360964168107
 20
315.8292958237309
 30
0.0
 40
39.99999999999998
100
AcDbArc
 50
-24.07297391489018
 51
-14.75721083396143
  0
ARC
  5
A9
330
36
100
AcDbEntity
  8
1
  6
Continuous
 62
     7
100
AcDbCircle
 10
124.6236096416812
 20
315.8292958237309
 30
0.0
 40
40.00000000000018
100
AcDbArc
 50
160.2154746552195
 51
165.2427891660378
  0
SPLINE
  5
AA
330
36
100
AcDbEntity
  8
1
  6
Continuous
 62
     7
100
AcDbSpline
210
0.0
220
0.0
230
1.0
 70
     8
 71
     3
 72
    45
 73
    41
 74
    39
 42
0.0000000001
 43
0.0000000001
 44
0.00000001
 40
0.0
 40
0.0
 40
0.0
 40
0.0
 40
0.0471601779260288
 40
0.1023980571115017
 40
0.2712118426161069
 40
0.4281897176928613
 40
0.686458938110692
 40
0.9456505576006649
 40
1.312434381375651
 40
1.678848165992757
 40
2.144305736566649
 40
2.609733526118144
 40
3.161440771227365
 40
3.713123108804493
 40
4.335076170332006
 40
4.95701695760463
 40
5.630844468486786
 40
6.30466625803487
 40
7.010300984186468
 40
7.715933144024284
 40
8.432283395003976
 40
9.148633645983697
 40
9.854265805821513
 40
10.55990053197303
 40
11.23372232152106
 40
11.90754983240322
 40
12.52949061967592
 40
13.15144368120347
 40
13.70312601878066
 40
14.25483326388992
 40
14.72026105344144
 40
15.1857186240153
 40
15.55213240863234
 40
15.91891623240725
 40
16.17810785189719
 40
16.43637707231518
 40
16.59335494739198
 40
16.76216873289652
 40
16.81740661204472
 40
16.86456678994037
 40
16.86456678994037
 40
16.86456678994037
 40
16.86456678994037
 10
105.8736096416811
 20
116.7531805288789
 30
0.0
 10
105.8714070627212
 20
116.7690092590157
 30
0.0
 10
105.8666246421273
 20
116.8033778997594
 30
0.0
 10
105.8094990873266
 20
116.876485276221
 30
0.0
 10
105.7156758485823
 20
116.9627562396987
 30
0.0
 10
105.5393735135536
 20
117.0500018263957
 30
0.0
 10
105.3236582950354
 20
117.1137395536048
 30
0.0
 10
105.0404420449677
 20
117.1954107279525
 30
0.0
 10
104.7177674268737
 20
117.2692013645362
 30
0.0
 10
104.3249868197524
 20
117.3427236429245
 30
0.0
 10
103.8973902147333
 20
117.4077022728013
 30
0.0
 10
103.4073699867948
 20
117.4719868998518
 30
0.0
 10
102.8875012134704
 20
117.5289440804193
 30
0.0
 10
102.3148090443886
 20
117.5818985788011
 30
0.0
 10
101.7179946973576
 20
117.6274444056282
 30
0.0
 10
101.0799974466404
 20
117.6675559249689
 30
0.0
 10
100.4242619355101
 20
117.7002075480687
 30
0.0
 10
99.7403169508635
 20
117.726294281599
 30
0.0
 10
99.04551943119881
 20
117.7448130141222
 30
0.0
 10
98.33639096099422
 20
117.7561422574504
 30
0.0
 10
97.62360964168104
 20
117.7598420616202
 30
0.0
 10
96.91082832236793
 20
117.7561422574505
 30
0.0
 10
96.20169985216329
 20
117.7448130141224
 30
0.0
 10
95.5069023324987
 20
117.7262942815991
 30
0.0
 10
94.82295734785211
 20
117.7002075480687
 30
0.0
 10
94.16722183672187
 20
117.667555924969
 30
0.0
 10
93.52922458600456
 20
117.6274444056283
 30
0.0
 10
92.93241023897352
 20
117.5818985788012
 30
0.0
 10
92.35971806989168
 20
117.5289440804194
 30
0.0
 10
91.83984929656725
 20
117.4719868998519
 30
0.0
 10
91.34982906862879
 20
117.4077022728013
 30
0.0
 10
90.92223246360966
 20
117.3427236429245
 30
0.0
 10
90.52945185648844
 20
117.2692013645362
 30
0.0
 10
90.20677723839441
 20
117.1954107279524
 30
0.0
 10
89.9235609883268
 20
117.1137395536049
 30
0.0
 10
89.70784576980833
 20
117.0500018263954
 30
0.0
 10
89.53154343477996
 20
116.9627562396995
 30
0.0
 10
89.43772019604391
 20
116.8764852762273
 30
0.0
 10
89.38059464125747
 20
116.8033778997901
 30
0.0
 10
89.37581222064809
 20
116.7690092590728
 30
0.0
 10
89.37360964168107
 20
116.7531805289479
 30
0.0
 11
105.8736096416811
 21
116.7531805288789
 31
0.0
 11
105.8634414257956
 21
116.7992314764014
 31
0.0
 11
105.8329367781302
 21
116.8452824239239
 31
0.0
 11
105.7078961542301
 21
116.9586973107381
 31
0.0
 11
105.5688814611335
 21
117.0316148557246
 31
0.0
 11
105.3238956130221
 21
117.1133762429459
 31
0.0
 11
105.0743816231597
 21
117.1835407957969
 31
0.0
 11
104.7171819485691
 21
117.2668400506278
 31
0.0
 11
104.3571319109796
 21
117.3348329325293
 31
0.0
 11
103.8971684884044
 21
117.4061379105982
 31
0.0
 11
103.4357034521604
 21
117.4667435836921
 31
0.0
 11
102.8873403247814
 21
117.5273964058616
 31
0.0
 11
102.3380170476931
 21
117.5783604995306
 31
0.0
 11
101.717895876529
 21
117.6260610636521
 31
0.0
 11
101.0971862839955
 21
117.665175570043
 31
0.0
 11
100.4242033791241
 21
117.6989027723057
 31
0.0
 11
99.75087297896684
 21
117.7246316722793
 31
0.0
 11
99.04549212162462
 21
117.7435581840075
 31
0.0
 11
98.33994994006405
 21
117.7548265040299
 31
0.0
 11
97.62360964168107
 21
117.7586026119813
 31
0.0
 11
96.90726934329807
 21
117.7548265040299
 31
0.0
 11
96.20172716173749
 21
117.7435581840076
 31
0.0
 11
95.49634630439536
 21
117.7246316722794
 31
0.0
 11
94.82301590423816
 21
117.6989027723057
 31
0.0
 11
94.15003299936673
 21
117.665175570043
 31
0.0
 11
93.52932340683317
 21
117.6260610636522
 31
0.0
 11
92.90920223566903
 21
117.5783604995307
 31
0.0
 11
92.35987895858064
 21
117.5273964058617
 31
0.0
 11
91.81151583120159
 21
117.4667435836922
 31
0.0
 11
91.35005079495764
 21
117.4061379105982
 31
0.0
 11
90.89008737238241
 21
117.3348329325293
 31
0.0
 11
90.53003733479304
 21
117.2668400506278
 31
0.0
 11
90.17283766020253
 21
117.1835407957969
 31
0.0
 11
89.92332367034017
 21
117.1133762429459
 31
0.0
 11
89.67833782222854
 21
117.0316148557246
 31
0.0
 11
89.53932312913187
 21
116.9586973107381
 31
0.0
 11
89.41428250523192
 21
116.8452824239239
 31
0.0
 11
89.38377785758189
 21
116.7992314764359
 31
0.0
 11
89.37360964168107
 21
116.7531805289479
 31
0.0
  0
SPLINE
  5
AB
330
36
100
AcDbEntity
  8
1
  6
Continuous
 62
     7
100
AcDbSpline
210
0.0
220
0.0
230
1.0
 70
    11
 71
     3
 72
    79
 73
    75
 74
    73
 42
0.0000000001
 43
0.0000000001
 44
0.00000001
 40
0.0
 40
0.0
 40
0.0
 40
0.0
 40
0.1176580929274548
 40
0.2270669149506857
 40
0.407072735241984
 40
0.5877214397349651
 40
0.8433586502447571
 40
1.09873795467481
 40
1.423147776589881
 40
1.747536842034797
 40
2.132060073474538
 40
2.516565945119226
 40
2.950048381941504
 40
3.383522263980091
 40
3.853159620049537
 40
4.322792988522401
 40
4.814599009779521
 40
5.306403242393739
 40
5.805677659743218
 40
6.30495207709271
 40
6.796756309706944
 40
7.288562330964022
 40
7.758195699436858
 40
8.227833055506343
 40
8.661306937544943
 40
9.094789374367165
 40
9.479295246011771
 40
9.863818477451542
 40
10.18820754289651
 40
10.51261736481159
 40
10.76799666924169
 40
11.02363387975162
 40
11.20428258424465
 40
11.38428840453585
 40
11.49369722655902
 40
11.61135531948647
 40
11.68152823091233
 40
11.75170114233821
 40
11.86935923526566
 40
11.97876805728881
 40
12.15877387757998
 40
12.33942258207306
 40
12.59505979258302
 40
12.85043909701316
 40
13.17484891892822
 40
13.49923798437314
 40
13.88376121581285
 40
14.26826708745757
 40
14.70174952427983
 40
15.13522340631833
 40
15.60486076238768
 40
16.07449413086059
 40
16.56630015211778
 40
17.058104384732
 40
17.55737880208147
 40
18.05665321943092
 40
18.54845745204516
 40
19.04026347330233
 40
19.50989684177517
 40
19.97953419784453
 40
20.41300807988304
 40
20.84649051670531
 40
21.23099638835003
 40
21.61551961978982
 40
21.93990868523476
 40
22.26431850714985
 40
22.51969781157993
 40
22.77533502208986
 40
22.95598372658288
 40
23.13598954687408
 40
23.24539836889723
 40
23.36305646182466
 40
23.43322937325061
 40
23.5034022846765
 40
23.5034022846765
 40
23.5034022846765
 40
23.5034022846765
 10
91.90195739506505
 20
116.8173727587617
 30
0.0
 10
91.92959009876256
 20
116.8456347853349
 30
0.0
 10
91.98291811576699
 20
116.9001773248625
 30
0.0
 10
92.10690832524043
 20
116.959636453473
 30
0.0
 10
92.25679875904167
 20
117.0046129001559
 30
0.0
 10
92.45434572840171
 20
117.061348844676
 30
0.0
 10
92.67918345251158
 20
117.1128473933812
 30
0.0
 10
92.95295742788871
 20
117.164068631811
 30
0.0
 10
93.25097334826418
 20
117.2093639844468
 30
0.0
 10
93.59250438309108
 20
117.2541662585477
 30
0.0
 10
93.95483660329032
 20
117.2938643674406
 30
0.0
 10
94.35398585373233
 20
117.3307718507461
 30
0.0
 10
94.76994731943466
 20
117.3625159711137
 30
0.0
 10
95.21461208378717
 20
117.3904724678086
 30
0.0
 10
95.6716398602658
 20
117.4132296645202
 30
0.0
 10
96.14832879007153
 20
117.4314113259358
 30
0.0
 10
96.63258160649568
 20
117.4443183217079
 30
0.0
 10
97.12682266157246
 20
117.452214460896
 30
0.0
 10
97.62360964167418
 20
117.4547931123073
 30
0.0
 10
98.12039662181704
 20
117.452214460938
 30
0.0
 10
98.6146376767723
 20
117.444318321543
 30
0.0
 10
99.09889049363386
 20
117.4314113265422
 30
0.0
 10
99.57557942187967
 20
117.4132296623693
 30
0.0
 10
100.0326072039746
 20
117.3904724755865
 30
0.0
 10
100.477271948907
 20
117.36251594456
 30
0.0
 10
100.8932334831563
 20
117.330771945372
 30
0.0
 10
101.2923825052253
 20
117.2938640583411
 30
0.0
 10
101.6547155121943
 20
117.2541673403266
 30
0.0
 10
101.9962440445209
 20
117.2093606422204
 30
0.0
 10
102.294268314524
 20
117.1640800503406
 30
0.0
 10
102.5680173432092
 20
117.112814710299
 30
0.0
 10
102.7929345655759
 20
117.0614567013198
 30
0.0
 10
102.9902658840036
 20
117.0043395217364
 30
0.0
 10
103.1407963459017
 20
116.9604945385218
 30
0.0
 10
103.2632264640473
 20
116.8982774273272
 30
0.0
 10
103.3377772006597
 20
116.8352624360985
 30
0.0
 10
103.386996498226
 20
116.7531805288887
 30
0.0
 10
103.3377772006598
 20
116.6710986216789
 30
0.0
 10
103.2632264640473
 20
116.6080836304502
 30
0.0
 10
103.1407963459016
 20
116.5458665192556
 30
0.0
 10
102.9902658840035
 20
116.5020215360411
 30
0.0
 10
102.792934565576
 20
116.4449043564574
 30
0.0
 10
102.5680173432092
 20
116.3935463474783
 30
0.0
 10
102.294268314524
 20
116.3422810074368
 30
0.0
 10
101.9962440445208
 20
116.2970004155569
 30
0.0
 10
101.6547155121943
 20
116.2521937174508
 30
0.0
 10
101.2923825052253
 20
116.2124969994364
 30
0.0
 10
100.8932334831562
 20
116.1755891124054
 30
0.0
 10
100.4772719489069
 20
116.1438451132175
 30
0.0
 10
100.0326072039746
 20
116.115888582191
 30
0.0
 10
99.57557942187975
 20
116.0931313954081
 30
0.0
 10
99.0988904936338
 20
116.0749497312351
 30
0.0
 10
98.61463767677275
 20
116.0620427362353
 30
0.0
 10
98.12039662181526
 20
116.054146596836
 30
0.0
 10
97.62360964168069
 20
116.051567945483
 30
0.0
 10
97.12682266154835
 20
116.0541465968338
 30
0.0
 10
96.6325816065843
 20
116.0620427362441
 30
0.0
 10
96.1483287897468
 20
116.0749497312023
 30
0.0
 10
95.67163986141694
 20
116.0931313955237
 30
0.0
 10
95.21461207962427
 20
116.1158885817724
 30
0.0
 10
94.76994733364708
 20
116.1438451146462
 30
0.0
 10
94.35398580308603
 20
116.175589107314
 30
0.0
 10
93.95483676872905
 20
116.2124970160678
 30
0.0
 10
93.59250380409314
 20
116.2521936592443
 30
0.0
 10
93.2509751371163
 20
116.2970005953897
 30
0.0
 10
92.95295131637568
 20
116.342280393048
 30
0.0
 10
92.67920094540149
 20
116.3935481060339
 30
0.0
 10
92.45428800054123
 20
116.4448985530914
 30
0.0
 10
92.25694507873649
 20
116.5020362455203
 30
0.0
 10
92.10644905437738
 20
116.5458203488804
 30
0.0
 10
91.98393499350138
 20
116.6081858568927
 30
0.0
 10
91.90963941674113
 20
116.670749767844
 30
0.0
 10
91.85980810174456
 20
116.7539136203122
 30
0.0
 10
91.88790763062491
 20
116.7962197126119
 30
0.0
 10
91.90195739506505
 20
116.8173727587617
 30
0.0
 11
91.90195739506505
 21
116.8173727587617
 31
0.0
 11
91.98910692081354
 21
116.8964194980565
 31
0.0
 11
92.08599594933546
 21
116.9472408172896
 31
0.0
 11
92.25674366165566
 21
117.004226026565
 31
0.0
 11
92.43064735155974
 21
117.0531285937035
 31
0.0
 11
92.67960470051678
 21
117.1111856501008
 31
0.0
 11
92.93054866610937
 21
117.1585746283957
 31
0.0
 11
93.25112923335873
 21
117.2082720373528
 31
0.0
 11
93.5727563798317
 21
117.2505123549638
 31
0.0
 11
93.95494886255038
 21
117.2927855340517
 31
0.0
 11
94.33781054052106
 21
117.3283059629724
 31
0.0
 11
94.77001620527187
 21
117.3615518106935
 31
0.0
 11
95.20263198188621
 21
117.3888134363599
 31
0.0
 11
95.6716806731603
 21
117.4123202743005
 31
0.0
 11
96.14097155811834
 21
117.4302525379186
 31
0.0
 11
96.63260064050832
 21
117.4434437430625
 31
0.0
 11
97.12434216098991
 21
117.4512974206538
 31
0.0
 11
97.62360964168107
 21
117.4539292534683
 31
0.0
 11
98.12287712237225
 21
117.4512974206538
 31
0.0
 11
98.61461864285386
 21
117.4434437430624
 31
0.0
 11
99.10624772524379
 21
117.4302525379185
 31
0.0
 11
99.5755386102018
 21
117.4123202743005
 31
0.0
 11
100.0445873014759
 21
117.3888134363599
 31
0.0
 11
100.4772030780903
 21
117.3615518106935
 31
0.0
 11
100.909408742841
 21
117.3283059629725
 31
0.0
 11
101.2922704208116
 21
117.2927855340517
 31
0.0
 11
101.6744629035303
 21
117.2505123549638
 31
0.0
 11
101.9960900500034
 21
117.2082720373528
 31
0.0
 11
102.3166706172527
 21
117.1585746283957
 31
0.0
 11
102.5676145828454
 21
117.1111856501007
 31
0.0
 11
102.8165719318025
 21
117.0531285937035
 31
0.0
 11
102.9904756217067
 21
117.004226026565
 31
0.0
 11
103.1612233340268
 21
116.9472408172895
 31
0.0
 11
103.2581123625486
 21
116.8964194980565
 31
0.0
 11
103.3452618882971
 21
116.8173727587617
 31
0.0
 11
103.3736096416811
 21
116.7531805288887
 31
0.0
 11
103.3452618882971
 21
116.6889882990157
 31
0.0
 11
103.2581123625486
 21
116.6099415597209
 31
0.0
 11
103.1612233340268
 21
116.5591202404879
 31
0.0
 11
102.9904756217067
 21
116.5021350312125
 31
0.0
 11
102.8165719318025
 21
116.4532324640739
 31
0.0
 11
102.5676145828454
 21
116.3951754076766
 31
0.0
 11
102.3166706172527
 21
116.3477864293816
 31
0.0
 11
101.9960900500033
 21
116.2980890204246
 31
0.0
 11
101.6744629035303
 21
116.2558487028136
 31
0.0
 11
101.2922704208117
 21
116.2135755237257
 31
0.0
 11
100.909408742841
 21
116.178055094805
 31
0.0
 11
100.4772030780902
 21
116.144809247084
 31
0.0
 11
100.0445873014759
 21
116.1175476214176
 31
0.0
 11
99.57553861020193
 21
116.094040783477
 31
0.0
 11
99.10624772524385
 21
116.0761085198589
 31
0.0
 11
98.6146186428538
 21
116.062917314715
 31
0.0
 11
98.1228771223722
 21
116.0550636371237
 31
0.0
 11
97.62360964168106
 21
116.0524318043091
 31
0.0
 11
97.12434216098993
 21
116.0550636371237
 31
0.0
 11
96.6326006405083
 21
116.062917314715
 31
0.0
 11
96.14097155811828
 21
116.0761085198588
 31
0.0
 11
95.67168067316025
 21
116.0940407834768
 31
0.0
 11
95.20263198188626
 21
116.1175476214175
 31
0.0
 11
94.770016205272
 21
116.1448092470839
 31
0.0
 11
94.33781054052119
 21
116.178055094805
 31
0.0
 11
93.95494886255048
 21
116.2135755237257
 31
0.0
 11
93.57275637983176
 21
116.2558487028136
 31
0.0
 11
93.25112923335875
 21
116.2980890204246
 31
0.0
 11
92.93054866610939
 21
116.3477864293817
 31
0.0
 11
92.67960470051676
 21
116.3951754076767
 31
0.0
 11
92.4306473515596
 21
116.453232464074
 31
0.0
 11
92.25674366165548
 21
116.5021350312125
 31
0.0
 11
92.08599594933537
 21
116.5591202404878
 31
0.0
 11
91.98910692081351
 21
116.6099415597209
 31
0.0
 11
91.90195739506505
 21
116.6889882990157
 31
0.0
 11
91.87360964168113
 21
116.7531805288887
 31
0.0
 11
91.90195739506505
 21
116.8173727587617
 31
0.0
  0
SPLINE
  5
AC
330
36
100
AcDbEntity
  8
1
  6
Continuous
 62
     7
100
AcDbSpline
210
0.0
220
0.0
230
1.0
 70
     8
 71
     3
 72
    45
 73
    41
 74
    39
 42
0.0000000001
 43
0.0000000001
 44
0.00000001
 40
0.0
 40
0.0
 40
0.0
 40
0.0
 40
0.0471601779245702
 40
0.1023980571015047
 40
0.2712118426062073
 40
0.428189717682924
 40
0.6864589381006919
 40
0.9456505575906198
 40
1.312434381365601
 40
1.678848165982646
 40
2.144305736556454
 40
2.609733526107969
 40
3.161440771217252
 40
3.713123108794419
 40
4.335076170322
 40
4.957016957594707
 40
5.630844468476905
 40
6.304666258024935
 40
7.010300984176463
 40
7.715933144014278
 40
8.432283394993972
 40
9.148633645973678
 40
9.854265805811494
 40
10.55990053196304
 40
11.23372232151104
 40
11.90754983239328
 40
12.52949061966596
 40
13.15144368119345
 40
13.70312601877055
 40
14.2548332638798
 40
14.72026105343133
 40
15.18571862400524
 40
15.55213240862231
 40
15.91891623239723
 40
16.17810785188712
 40
16.436377072305
 40
16.59335494738179
 40
16.76216873288641
 40
16.81740661208615
 40
16.8645667899906
 40
16.8645667899906
 40
16.8645667899906
 40
16.8645667899906
 10
105.8736096416811
 20
116.7531805288887
 30
0.0
 10
105.8714070627195
 20
116.7373517987528
 30
0.0
 10
105.866624642122
 20
116.7029831580133
 30
0.0
 10
105.8094990873257
 20
116.6298757815542
 30
0.0
 10
105.7156758485818
 20
116.5436048180787
 30
0.0
 10
105.5393735135538
 20
116.4563592313817
 30
0.0
 10
105.3236582950353
 20
116.3926215041726
 30
0.0
 10
105.0404420449677
 20
116.3109503298249
 30
0.0
 10
104.7177674268738
 20
116.2371596932412
 30
0.0
 10
104.3249868197525
 20
116.1636374148529
 30
0.0
 10
103.8973902147334
 20
116.0986587849761
 30
0.0
 10
103.4073699867949
 20
116.0343741579256
 30
0.0
 10
102.8875012134705
 20
115.9774169773579
 30
0.0
 10
102.3148090443887
 20
115.9244624789763
 30
0.0
 10
101.7179946973576
 20
115.8789166521492
 30
0.0
 10
101.0799974466403
 20
115.8388051328085
 30
0.0
 10
100.42426193551
 20
115.8061535097088
 30
0.0
 10
99.74031695086342
 20
115.7800667761784
 30
0.0
 10
99.04551943119884
 20
115.761548043655
 30
0.0
 10
98.33639096099419
 20
115.750218800327
 30
0.0
 10
97.62360964168104
 20
115.7465189961572
 30
0.0
 10
96.91082832236792
 20
115.750218800327
 30
0.0
 10
96.20169985216327
 20
115.761548043655
 30
0.0
 10
95.5069023324987
 20
115.7800667761783
 30
0.0
 10
94.82295734785205
 20
115.8061535097088
 30
0.0
 10
94.16722183672181
 20
115.8388051328085
 30
0.0
 10
93.5292245860045
 20
115.8789166521492
 30
0.0
 10
92.9324102389735
 20
115.9244624789762
 30
0.0
 10
92.35971806989176
 20
115.977416977358
 30
0.0
 10
91.83984929656734
 20
116.0343741579255
 30
0.0
 10
91.34982906862885
 20
116.0986587849761
 30
0.0
 10
90.92223246360976
 20
116.1636374148529
 30
0.0
 10
90.52945185648837
 20
116.2371596932411
 30
0.0
 10
90.20677723839464
 20
116.310950329825
 30
0.0
 10
89.92356098832643
 20
116.3926215041724
 30
0.0
 10
89.70784576980972
 20
116.4563592313822
 30
0.0
 10
89.53154343477732
 20
116.5436048180773
 30
0.0
 10
89.43772019603945
 20
116.6298757815634
 30
0.0
 10
89.380594641226
 20
116.7029831580162
 30
0.0
 10
89.37581222063758
 20
116.7373517987586
 30
0.0
 10
89.37360964168107
 20
116.7531805288887
 30
0.0
 11
105.8736096416811
 21
116.7531805288887
 31
0.0
 11
105.8634414257912
 21
116.7071295813687
 31
0.0
 11
105.8329367781302
 21
116.6610786338535
 31
0.0
 11
105.70789615423
 21
116.5476637470392
 31
0.0
 11
105.5688814611334
 21
116.4747462020527
 31
0.0
 11
105.323895613022
 21
116.3929848148315
 31
0.0
 11
105.0743816231597
 21
116.3228202619805
 31
0.0
 11
104.7171819485691
 21
116.2395210071496
 31
0.0
 11
104.3571319109797
 21
116.1715281252481
 31
0.0
 11
103.8971684884046
 21
116.1002231471792
 31
0.0
 11
103.4357034521606
 21
116.0396174740852
 31
0.0
 11
102.8873403247815
 21
115.9789646519157
 31
0.0
 11
102.3380170476932
 21
115.9280005582468
 31
0.0
 11
101.717895876529
 21
115.8802999941253
 31
0.0
 11
101.0971862839954
 21
115.8411854877344
 31
0.0
 11
100.424203379124
 21
115.8074582854717
 31
0.0
 11
99.75087297896675
 21
115.781729385498
 31
0.0
 11
99.04549212162461
 21
115.7628028737698
 31
0.0
 11
98.33994994006403
 21
115.7515345537475
 31
0.0
 11
97.62360964168106
 21
115.7477584457962
 31
0.0
 11
96.90726934329807
 21
115.7515345537475
 31
0.0
 11
96.20172716173749
 21
115.7628028737698
 31
0.0
 11
95.49634630439533
 21
115.781729385498
 31
0.0
 11
94.82301590423816
 21
115.8074582854717
 31
0.0
 11
94.15003299936666
 21
115.8411854877344
 31
0.0
 11
93.52932340683312
 21
115.8802999941253
 31
0.0
 11
92.90920223566903
 21
115.9280005582468
 31
0.0
 11
92.35987895858072
 21
115.9789646519157
 31
0.0
 11
91.81151583120169
 21
116.0396174740852
 31
0.0
 11
91.35005079495772
 21
116.1002231471792
 31
0.0
 11
90.89008737238245
 21
116.1715281252481
 31
0.0
 11
90.53003733479304
 21
116.2395210071496
 31
0.0
 11
90.17283766020253
 21
116.3228202619805
 31
0.0
 11
89.92332367034021
 21
116.3929848148315
 31
0.0
 11
89.67833782222868
 21
116.4747462020527
 31
0.0
 11
89.53932312913203
 21
116.5476637470393
 31
0.0
 11
89.414282505232
 21
116.6610786338535
 31
0.0
 11
89.38377785755573
 21
116.7071295813859
 31
0.0
 11
89.37360964168107
 21
116.7531805288887
 31
0.0
  0
SPLINE
  5
AD
330
36
100
AcDbEntity
  8
1
  6
Continuous
 62
     7
100
AcDbSpline
210
0.0
220
0.0
230
1.0
 70
     8
 71
     3
 72
    43
 73
    39
 74
    37
 42
0.0000000001
 43
0.0000000001
 44
0.00000001
 40
0.0
 40
0.0
 40
0.0
 40
0.0
 40
0.7145634535330222
 40
1.429124401617945
 40
2.144147413541401
 40
2.859165732417169
 40
3.574891401388883
 40
4.290610779559746
 40
5.007196907118765
 40
5.723775925503508
 40
6.441276180947983
 40
7.158769374110751
 40
7.877127181140827
 40
8.595478816109953
 40
9.314534529335296
 40
10.03358568454563
 40
10.75309602635518
 40
11.4726039508568
 40
12.19227128133974
 40
12.91193861182265
 40
13.63144653632429
 40
14.35095687813399
 40
15.07000803334441
 40
15.78906374656973
 40
16.5074153815388
 40
17.22577318856889
 40
17.94326638173168
 40
18.66076663717617
 40
19.37734565556084
 40
20.09393178311986
 40
20.80965116129072
 40
21.52537683026243
 40
22.24039514913827
 40
22.95541816106161
 40
23.66997910914656
 40
24.38454256267953
 40
24.74217671091447
 40
25.09911829919053
 40
25.09911829919053
 40
25.09911829919053
 40
25.09911829919053
 10
105.8421489823537
 20
280.1155859761789
 30
0.0
 10
105.8152341512248
 20
279.8787674034286
 30
0.0
 10
105.7614045833376
 20
279.4051310882765
 30
0.0
 10
105.6016732618803
 20
278.7070618608928
 30
0.0
 10
105.3860591287006
 20
278.0247372587458
 30
0.0
 10
105.1097794132198
 20
277.3639162965442
 30
0.0
 10
104.7772249103117
 20
276.7294038706014
 30
0.0
 10
104.3897597249161
 20
276.1261921743355
 30
0.0
 10
103.9512049209643
 20
275.5586938679678
 30
0.0
 10
103.4641272735134
 20
275.0314438660096
 30
0.0
 10
102.9329697884024
 20
274.5481834802311
 30
0.0
 10
102.3610822741836
 20
274.1129115351423
 30
0.0
 10
101.7534699637102
 20
273.7285533187073
 30
0.0
 10
101.1141615016825
 20
273.398471234822
 30
0.0
 10
100.44855125306
 20
273.1246750087323
 30
0.0
 10
99.76125168652288
 20
272.9097935296823
 30
0.0
 10
99.05785382797114
 20
272.7548650306629
 30
0.0
 10
98.3434413960142
 20
272.6616946671422
 30
0.0
 10
97.62360964168295
 20
272.6303366177464
 30
0.0
 10
96.90377788734045
 20
272.6616946671418
 30
0.0
 10
96.18936545541733
 20
272.754865030665
 30
0.0
 10
95.48596759674113
 20
272.909793529674
 30
0.0
 10
94.79866803066763
 20
273.1246750087635
 30
0.0
 10
94.13305778031513
 20
273.3984712347052
 30
0.0
 10
93.49374932473791
 20
273.7285533191428
 30
0.0
 10
92.88613699020557
 20
274.1129115335176
 30
0.0
 10
92.31424956567257
 20
274.548183486287
 30
0.0
 10
91.78309174607364
 20
275.0314438434194
 30
0.0
 10
91.29601534541894
 20
275.558693952155
 30
0.0
 10
90.85745589143795
 20
276.1261918602879
 30
0.0
 10
90.47000804017246
 20
276.7294050410726
 30
0.0
 10
90.13738888248903
 20
277.363911929892
 30
0.0
 10
89.86135023485059
 20
278.024753537473
 30
0.0
 10
89.64483679762688
 20
278.7070011219922
 30
0.0
 10
89.4884596650208
 20
279.405357606695
 30
0.0
 10
89.4107270507769
 20
279.996626565467
 30
0.0
 10
89.37817678448172
 20
280.4720902179417
 30
0.0
 10
89.37513103864541
 20
280.7103042467196
 30
0.0
 10
89.37360964168107
 20
280.829295823731
 30
0.0
 11
105.8421489823537
 21
280.1155859761789
 31
0.0
 11
105.7482456693547
 21
279.4072194771596
 31
0.0
 11
105.5924065275181
 21
278.7098590894119
 31
0.0
 11
105.3759704923247
 21
278.0283802927866
 31
0.0
 11
105.1005170717502
 21
277.3685495497762
 31
0.0
 11
104.76811622214
 21
276.7346939602264
 31
0.0
 11
104.3814387421269
 21
276.1324193096392
 31
0.0
 11
103.9431802498361
 21
275.5654755980195
 31
0.0
 11
103.4570344431446
 21
275.0390273629332
 31
0.0
 11
102.926255514034
 21
274.5562434102432
 31
0.0
 11
102.3554037428718
 21
274.1215886764648
 31
0.0
 11
101.748260633865
 21
273.7376418258375
 31
0.0
 11
101.1100258998814
 21
273.4079669924035
 31
0.0
 11
100.4449952977624
 21
273.1345160517082
 31
0.0
 11
99.75874089505325
 21
272.919831495739
 31
0.0
 11
99.05605087640603
 21
272.7651645320251
 31
0.0
 11
98.34259982104416
 21
272.6720020662802
 31
0.0
 11
97.62360964168107
 21
272.6407900726901
 31
0.0
 11
96.90461946231801
 21
272.6720020662802
 31
0.0
 11
96.19116840695611
 21
272.765164532025
 31
0.0
 11
95.48847838830878
 21
272.9198314957391
 31
0.0
 11
94.80222398559957
 21
273.1345160517082
 31
0.0
 11
94.13719338348054
 21
273.4079669924035
 31
0.0
 11
93.498958649497
 21
273.7376418258375
 31
0.0
 11
92.89181554049019
 21
274.1215886764648
 31
0.0
 11
92.320963769328
 21
274.5562434102432
 31
0.0
 11
91.79018484021734
 21
275.0390273629332
 31
0.0
 11
91.30403903352587
 21
275.5654755980195
 31
0.0
 11
90.86578054123521
 21
276.1324193096392
 31
0.0
 11
90.47910306122213
 21
276.7346939602265
 31
0.0
 11
90.14670221161188
 21
277.3685495497762
 31
0.0
 11
89.87124879103729
 21
278.0283802927867
 31
0.0
 11
89.65481275584396
 21
278.7098590894119
 31
0.0
 11
89.49897361400744
 21
279.4072194771596
 31
0.0
 11
89.40507030100844
 21
280.1155859761789
 31
0.0
 11
89.38147480651291
 21
280.472440899955
 31
0.0
 11
89.37360964168107
 21
280.829295823731
 31
0.0
  0
SPLINE
  5
AE
330
36
100
AcDbEntity
  8
1
  6
Continuous
 62
     7
100
AcDbSpline
210
0.0
220
0.0
230
1.0
 70
     8
 71
     3
 72
     9
 73
     5
 74
     3
 42
0.0000000001
 43
0.0000000001
 44
0.00000001
 40
0.0
 40
0.0
 40
0.0
 40
0.0
 40
0.3569415882760029
 40
0.7145757365109462
 40
0.7145757365109462
 40
0.7145757365109462
 40
0.7145757365109462
 10
105.8736096416811
 20
280.829295823731
 30
0.0
 10
105.8722937063617
 20
280.7102866507034
 30
0.0
 10
105.8696592824644
 20
280.4720373957524
 30
0.0
 10
105.8513250055258
 20
280.2344798621987
 30
0.0
 10
105.8421489823537
 20
280.1155859761789
 30
0.0
 11
105.8736096416811
 21
280.829295823731
 31
0.0
 11
105.8657444768492
 21
280.472440899955
 31
0.0
 11
105.8421489823537
 21
280.1155859761789
 31
0.0
  0
ARC
  5
AF
330
36
100
AcDbEntity
  8
1
  6
Continuous
 62
     7
100
AcDbCircle
 10
55.12360964168119
 20
148.2915289442117
 30
0.0
 40
30.00000000000005
100
AcDbArc
 50
-8.74601328325542
 51
0.0
  0
ARC
  5
B0
330
36
100
AcDbEntity
  8
1
  6
Continuous
 62
     7
100
AcDbCircle
 10
140.1236096416813
 20
148.2915289442094
 30
0.0
 40
30.0
100
AcDbArc
 50
180.0
 51
-171.2539867167477
  0
ARC
  5
B1
330
36
100
AcDbEntity
  8
1
  6
Continuous
 62
     7
100
AcDbCircle
 10
187.7621777955131
 20
159.0113260047548
 30
0.0
 40
5.000000000000069
100
AcDbArc
 50
-20.69874540567544
 51
0.0
  0
ARC
  5
B2
330
36
100
AcDbEntity
  8
1
  6
Continuous
 62
     7
100
AcDbCircle
 10
222.7621777955132
 20
159.3596357425534
 30
0.0
 40
5.0
100
AcDbArc
 50
180.0
 51
-159.0681372558034
  0
ARC
  5
B3
330
36
100
AcDbEntity
  8
0
  6
Continuous
 62
     7
100
AcDbCircle
 10
243.7620327440764
 20
129.0031805288901
 30
0.0
 40
3.999999999999949
100
AcDbArc
 50
0.00325333748691
 51
90.0
  0
ARC
  5
B4
330
36
100
AcDbEntity
  8
0
  6
Continuous
 62
     7
100
AcDbCircle
 10
243.7605850500848
 20
154.5031805288901
 30
0.0
 40
4.0
100
AcDbArc
 50
-90.0
 51
0.02280985613345
  0
ARC
  5
B5
330
36
100
AcDbEntity
  8
1
  6
Continuous
 62
     7
100
AcDbCircle
 10
248.2601364345562
 20
119.2531805288901
 30
0.0
 40
0.5000000000000167
100
AcDbArc
 50
-175.5000000000031
 51
-90.0
  0
ARC
  5
B6
330
36
100
AcDbEntity
  8
1
  6
Continuous
 62
     7
100
AcDbCircle
 10
248.2551468720212
 20
164.2531805288901
 30
0.0
 40
0.5
100
AcDbArc
 50
90.0
 51
175.5000000000023
  0
ARC
  5
B7
330
36
100
AcDbEntity
  8
0
  6
Continuous
 62
     7
100
AcDbCircle
 10
110.3736096416811
 20
354.3291507722943
 30
0.0
 40
3.999999999999977
100
AcDbArc
 50
89.9979223288877
 51
180.0
  0
ARC
  5
B8
330
36
100
AcDbEntity
  8
0
  6
Continuous
 62
     7
100
AcDbCircle
 10
84.87360964168107
 20
354.3277030783027
 30
0.0
 40
4.0
100
AcDbArc
 50
0.0
 51
90.02280985613386
  0
ARC
  5
B9
330
36
100
AcDbEntity
  8
1
  6
Continuous
 62
     7
100
AcDbCircle
 10
120.1236096416811
 20
358.8272544627741
 30
0.0
 40
0.4999999999999883
100
AcDbArc
 50
-85.50000000000281
 51
0.0
  0
ARC
  5
BA
330
36
100
AcDbEntity
  8
1
  6
Continuous
 62
     7
100
AcDbCircle
 10
75.12360964168107
 20
358.8222649002391
 30
0.0
 40
0.5
100
AcDbArc
 50
180.0
 51
-94.4999999999977
  0
LINE
  5
BB
330
36
100
AcDbEntity
  8
0
  6
Continuous
 62
     7
100
AcDbLine
 10
247.7620327414465
 20
129.0030354800833
 30
0.0
 11
247.7620327376281
 21
129.0034076546933
 31
0.0
  0
ENDBLK
  5
38
330
36
100
AcDbEntity
  8
0
100
AcDbBlockEnd
  0
BLOCK
  5
3A
330
39
100
AcDbEntity
  8
0
100
AcDbBlockBegin
  2
75-26
 70
     0
 71
     0
 10
151.3272137688647
 20
85.02453733935079
 30
0.0
  3
75-26
  1

  0
LINE
  5
BC
330
39
100
AcDbEntity
  8
0
  6
Continuous
 62
     7
100
AcDbLine
 10
98.37360964168101
 20
117.4479600899383
 30
0.0
 11
97.62360964168107
 21
116.7531805288887
 31
0.0
  0
LINE
  5
BD
330
39
100
AcDbEntity
  8
0
  6
Continuous
 62
     7
100
AcDbLine
 10
96.87360964168119
 20
117.4479600899382
 30
0.0
 11
97.62360964168107
 21
116.7531805288887
 31
0.0
  0
LINE
  5
BE
330
39
100
AcDbEntity
  8
0
  6
Continuous
 62
     7
100
AcDbLine
 10
94.68846182060219
 20
117.3557388721836
 30
0.0
 11
97.62360964168107
 21
116.7531805288887
 31
0.0
  0
LINE
  5
BF
330
39
100
AcDbEntity
  8
0
  6
Continuous
 62
     7
100
AcDbLine
 10
91.87360964168107
 20
116.7531805288887
 30
0.0
 11
97.62360964168107
 21
116.7531805288887
 31
0.0
  0
LINE
  5
C0
330
39
100
AcDbEntity
  8
0
  6
Continuous
 62
     7
100
AcDbLine
 10
94.68846182060219
 20
116.1506221855938
 30
0.0
 11
97.62360964168107
 21
116.7531805288887
 31
0.0
  0
LINE
  5
C1
330
39
100
AcDbEntity
  8
0
  6
Continuous
 62
     7
100
AcDbLine
 10
96.8736096416813
 20
116.0584009678392
 30
0.0
 11
97.62360964168107
 21
116.7531805288887
 31
0.0
  0
LINE
  5
C2
330
39
100
AcDbEntity
  8
0
  6
Continuous
 62
     7
100
AcDbLine
 10
98.37360964168107
 20
116.0584009678392
 30
0.0
 11
97.62360964168107
 21
116.7531805288887
 31
0.0
  0
LINE
  5
C3
330
39
100
AcDbEntity
  8
0
  6
Continuous
 62
     7
100
AcDbLine
 10
100.5587574627599
 20
116.1506221855938
 30
0.0
 11
97.62360964168107
 21
116.7531805288887
 31
0.0
  0
LINE
  5
C4
330
39
100
AcDbEntity
  8
0
  6
Continuous
 62
     7
100
AcDbLine
 10
103.3736096416811
 20
116.7531805288887
 30
0.0
 11
97.62360964168107
 21
116.7531805288887
 31
0.0
  0
LINE
  5
C5
330
39
100
AcDbEntity
  8
0
  6
Continuous
 62
     7
100
AcDbLine
 10
100.5587574627598
 20
117.3557388721836
 30
0.0
 11
97.62360964168107
 21
116.7531805288887
 31
0.0
  0
ENDBLK
  5
3B
330
39
100
AcDbEntity
  8
0
100
AcDbBlockEnd
  0
BLOCK
  5
3D
330
3C
100
AcDbEntity
  8
0
100
AcDbBlockBegin
  2
81-100K
 70
     0
 71
     0
 10
159.3282613986143
 20
332.5953020223219
 30
0.0
  3
81-100K
  1

  0
LINE
  5
C6
330
3C
100
AcDbEntity
  8
1
  6
PHANTOM
 62
     5
100
AcDbLine
 10
128.623609641681
 20
319.829295823731
 30
0.0
 11
115.123609641681
 21
319.829295823731
 31
0.0
  0
LINE
  5
C7
330
3C
100
AcDbEntity
  8
1
  6
PHANTOM
 62
     5
100
AcDbLine
 10
128.623609641681
 20
311.8292958237309
 30
0.0
 11
115.123609641681
 21
311.8292958237309
 31
0.0
  0
LINE
  5
C8
330
3C
100
AcDbEntity
  8
1
  6
Continuous
 62
     7
100
AcDbLine
 10
82.12360964168107
 20
163.7531805288887
 30
0.0
 11
113.1236096416811
 21
163.7531805288887
 31
0.0
  0
LINE
  5
C9
330
3C
100
AcDbEntity
  8
1
  6
Continuous
 62
     7
100
AcDbLine
 10
113.1236096416811
 20
176.2531805288886
 30
0.0
 11
113.1236096416811
 21
163.7531805288887
 31
0.0
  0
LINE
  5
CA
330
3C
100
AcDbEntity
  8
1
  6
Continuous
 62
     7
100
AcDbLine
 10
82.12360964168107
 20
176.2531805288886
 30
0.0
 11
82.12360964168107
 21
163.7531805288887
 31
0.0
  0
LINE
  5
CB
330
3C
100
AcDbEntity
  8
1
  6
Continuous
 62
     7
100
AcDbLine
 10
220.762177795513
 20
176.2531805288906
 30
0.0
 11
220.7621777955138
 21
173.6728809576512
 31
0.0
  0
LINE
  5
CC
330
3C
100
AcDbEntity
  8
1
  6
Continuous
 62
     7
100
AcDbLine
 10
189.7621777955132
 20
176.253180528891
 30
0.0
 11
189.762177795513
 21
169.4207680128976
 31
0.0
  0
LINE
  5
CD
330
3C
100
AcDbEntity
  8
1
  6
Continuous
 62
     7
100
AcDbLine
 10
189.9621777955135
 20
163.7531805288908
 30
0.0
 11
220.5621777955131
 21
163.7531805288929
 31
0.0
  0
LINE
  5
CE
330
3C
100
AcDbEntity
  8
1
  6
Continuous
 62
     7
100
AcDbLine
 10
220.7621777955138
 20
173.6728809576512
 30
0.0
 11
220.7621777955133
 21
163.9531805288913
 31
0.0
  0
LINE
  5
CF
330
3C
100
AcDbEntity
  8
1
  6
Continuous
 62
     7
100
AcDbLine
 10
101.6236096416811
 20
300.329295823731
 30
0.0
 11
101.6236096416811
 21
300.8543166918591
 31
0.0
  0
LINE
  5
D0
330
3C
100
AcDbEntity
  8
1
  6
Continuous
 62
     7
100
AcDbLine
 10
93.62360964168096
 20
300.329295823731
 30
0.0
 11
93.62360964168096
 21
300.8543166918591
 31
0.0
  0
LINE
  5
D1
330
3C
100
AcDbEntity
  8
1
  6
Continuous
 62
     7
100
AcDbLine
 10
101.6236096416811
 20
300.329295823731
 30
0.0
 11
101.6236096416811
 21
300.3292958237334
 31
0.0
  0
LINE
  5
D2
330
3C
100
AcDbEntity
  8
1
  6
Continuous
 62
     7
100
AcDbLine
 10
101.6236096416811
 20
284.8292958237311
 30
0.0
 11
101.6236096416811
 21
300.329295823731
 31
0.0
  0
LINE
  5
D3
330
3C
100
AcDbEntity
  8
1
  6
Continuous
 62
     7
100
AcDbLine
 10
93.62360964168097
 20
284.8292958237311
 30
0.0
 11
93.62360964168096
 21
300.329295823731
 31
0.0
  0
LINE
  5
D4
330
3C
100
AcDbEntity
  8
1
  6
Continuous
 62
     7
100
AcDbLine
 10
101.6236096416811
 20
331.8292958237311
 30
0.0
 11
101.6236096416811
 21
330.8042749556029
 31
0.0
  0
LINE
  5
D5
330
3C
100
AcDbEntity
  8
1
  6
Continuous
 62
     7
100
AcDbLine
 10
93.62360964168107
 20
331.8292958237311
 30
0.0
 11
93.62360964168107
 21
330.804274955603
 31
0.0
  0
LINE
  5
D6
330
3C
100
AcDbEntity
  8
1
  6
Continuous
 62
     7
100
AcDbLine
 10
189.762177795513
 20
169.4207680128976
 30
0.0
 11
189.7621777955129
 21
163.9531805288904
 31
0.0
  0
ARC
  5
D7
330
3C
100
AcDbEntity
  8
1
  6
PHANTOM
 62
     5
100
AcDbCircle
 10
81.62360964168096
 20
315.829295823731
 30
0.0
 40
4.000000000000002
100
AcDbArc
 50
100.000000000001
 51
-100.000000000001
  0
ARC
  5
D8
330
3C
100
AcDbEntity
  8
1
  6
PHANTOM
 62
     5
100
AcDbCircle
 10
128.623609641681
 20
315.829295823731
 30
0.0
 40
4.000000000000114
100
AcDbArc
 50
-90.0
 51
90.0
  0
ARC
  5
D9
330
3C
100
AcDbEntity
  8
1
  6
Continuous
 62
     7
100
AcDbCircle
 10
1.62360964168107
 20
180.7531805288889
 30
0.0
 40
100.0
100
AcDbArc
 50
0.0
 51
4.33382936637408
  0
ARC
  5
DA
330
3C
100
AcDbEntity
  8
1
  6
Continuous
 62
     7
100
AcDbCircle
 10
97.62360964168107
 20
188.0284614277666
 30
0.0
 40
3.724719101121622
100
AcDbArc
 50
90.0
 51
175.6661706336255
  0
ARC
  5
DB
330
3C
100
AcDbEntity
  8
1
  6
Continuous
 62
     7
100
AcDbCircle
 10
193.6236096416813
 20
180.7531805288889
 30
0.0
 40
100.0000000000001
100
AcDbArc
 50
175.6661706336259
 51
180.0
  0
ARC
  5
DC
330
3C
100
AcDbEntity
  8
1
  6
Continuous
 62
     7
100
AcDbCircle
 10
1.62360964168107
 20
180.7531805288889
 30
0.0
 40
100.0000000000001
100
AcDbArc
 50
-4.33382936637447
 51
0.0
  0
ARC
  5
DD
330
3C
100
AcDbEntity
  8
1
  6
Continuous
 62
     7
100
AcDbCircle
 10
97.62360964168107
 20
173.4778996300107
 30
0.0
 40
3.724719101123924
100
AcDbArc
 50
-90.0
 51
-4.33382936637739
  0
ARC
  5
DE
330
3C
100
AcDbEntity
  8
1
  6
Continuous
 62
     7
100
AcDbCircle
 10
193.6236096416813
 20
180.7531805288889
 30
0.0
 40
100.0
100
AcDbArc
 50
180.0
 51
-175.6661706336255
  0
ARC
  5
DF
330
3C
100
AcDbEntity
  8
1
  6
Continuous
 62
     7
100
AcDbCircle
 10
97.62360964168107
 20
173.4778996300107
 30
0.0
 40
3.724719101123406
100
AcDbArc
 50
-175.6661706336224
 51
-90.0
  0
ARC
  5
E0
330
3C
100
AcDbEntity
  8
1
  6
Continuous
 62
     7
100
AcDbCircle
 10
97.62360964168107
 20
188.0284614277666
 30
0.0
 40
3.724719101123561
100
AcDbArc
 50
4.33382936637433
 51
90.0
  0
ARC
  5
E1
330
3C
100
AcDbEntity
  8
1
  6
Continuous
 62
     7
100
AcDbCircle
 10
97.62360964168107
 20
176.2531805288886
 30
0.0
 40
15.50000000000003
100
AcDbArc
 50
0.0
 51
180.0
  0
ARC
  5
E2
330
3C
100
AcDbEntity
  8
1
  6
Continuous
 62
     7
100
AcDbCircle
 10
197.7621777955131
 20
131.7531805288913
 30
0.0
 40
59.99999999999868
100
AcDbArc
 50
85.2420766648554
 51
90.00000000000019
  0
ARC
  5
E3
330
3C
100
AcDbEntity
  8
1
  6
Continuous
 62
     7
100
AcDbCircle
 10
177.2621777955127
 20
180.7531805288907
 30
0.0
 40
7.000000000000048
100
AcDbArc
 50
132.6228546077995
 51
179.9999999999944
  0
ARC
  5
E4
330
3C
100
AcDbEntity
  8
1
  6
Continuous
 62
     7
100
AcDbCircle
 10
197.7621777955131
 20
131.7531805288913
 30
0.0
 40
59.99999999999838
100
AcDbArc
 50
90.00000000000019
 51
113.4127194836067
  0
ARC
  5
E5
330
3C
100
AcDbEntity
  8
1
  6
Continuous
 62
     7
100
AcDbCircle
 10
197.7621777955129
 20
229.7531805288907
 30
0.0
 40
59.99999999999984
100
AcDbArc
 50
-66.83112021488114
 51
-66.58728051639312
  0
ARC
  5
E6
330
3C
100
AcDbEntity
  8
1
  6
Continuous
 62
     7
100
AcDbCircle
 10
177.2621777955127
 20
180.7531805288907
 30
0.0
 40
6.99999999999892
100
AcDbArc
 50
179.9999999999944
 51
-132.6228546078301
  0
ARC
  5
E7
330
3C
100
AcDbEntity
  8
1
  6
Continuous
 62
     7
100
AcDbCircle
 10
197.7621777955129
 20
229.7531805288907
 30
0.0
 40
59.99999999999979
100
AcDbArc
 50
-113.4127194836078
 51
-98.48444974137659
  0
ARC
  5
E8
330
3C
100
AcDbEntity
  8
1
  6
Continuous
 62
     7
100
AcDbCircle
 10
218.2621777955129
 20
180.7531805288903
 30
0.0
 40
7.000000000000135
100
AcDbArc
 50
-47.37714539217811
 51
0.00000000000326
  0
ARC
  5
E9
330
3C
100
AcDbEntity
  8
1
  6
Continuous
 62
     7
100
AcDbCircle
 10
197.7621777955131
 20
131.7531805288913
 30
0.0
 40
59.99999999999985
100
AcDbArc
 50
66.58728051639203
 51
75.62455135571591
  0
ARC
  5
EA
330
3C
100
AcDbEntity
  8
1
  6
Continuous
 62
     7
100
AcDbCircle
 10
218.2621777955129
 20
180.7531805288903
 30
0.0
 40
7.0
100
AcDbArc
 50
0.00000000000326
 51
47.37714539218649
  0
ARC
  5
EB
330
3C
100
AcDbEntity
  8
1
  6
Continuous
 62
     7
100
AcDbCircle
 10
205.2621777955131
 20
176.2531805288908
 30
0.0
 40
15.49999999999937
100
AcDbArc
 50
99.36885182365647
 51
179.9999999999993
  0
ARC
  5
EC
330
3C
100
AcDbEntity
  8
1
  6
Continuous
 62
     7
100
AcDbCircle
 10
205.2621777955131
 20
176.2531805288908
 30
0.0
 40
15.50000000000031
100
AcDbArc
 50
61.49777619691678
 51
90.0
  0
ARC
  5
ED
330
3C
100
AcDbEntity
  8
1
  6
Continuous
 62
     7
100
AcDbCircle
 10
205.2621777955131
 20
176.2531805288908
 30
0.0
 40
15.49999999999989
100
AcDbArc
 50
-0.00000000000074
 51
61.49777619691678
  0
ARC
  5
EE
330
3C
100
AcDbEntity
  8
1
  6
Continuous
 62
     7
100
AcDbCircle
 10
205.2621777955131
 20
176.2531805288908
 30
0.0
 40
15.50000000000031
100
AcDbArc
 50
90.0
 51
99.36885182365647
  0
ARC
  5
EF
330
3C
100
AcDbEntity
  8
1
  6
Continuous
 62
     7
100
AcDbCircle
 10
97.62360964168107
 20
331.8292958237311
 30
0.0
 40
4.000000000000028
100
AcDbArc
 50
0.0
 51
180.0
  0
ARC
  5
F0
330
3C
100
AcDbEntity
  8
1
  6
Continuous
 62
     7
100
AcDbCircle
 10
97.62360964168107
 20
315.829295823731
 30
0.0
 40
15.50000000000004
100
AcDbArc
 50
104.9552483166433
 51
-104.9552483166438
  0
ARC
  5
F1
330
3C
100
AcDbEntity
  8
1
  6
Continuous
 62
     7
100
AcDbCircle
 10
97.62360964168107
 20
315.829295823731
 30
0.0
 40
15.49999999999999
100
AcDbArc
 50
-75.04475168335655
 51
75.04475168335655
  0
ARC
  5
F2
330
3C
100
AcDbEntity
  8
1
  6
Continuous
 62
     7
100
AcDbCircle
 10
97.62360964168107
 20
284.8292958237311
 30
0.0
 40
4.0000000000001
100
AcDbArc
 50
180.0
 51
0.0
  0
SPLINE
  5
F3
330
3C
100
AcDbEntity
  8
1
  6
Continuous
 62
     7
100
AcDbSpline
210
0.0
220
0.0
230
1.0
 70
     8
 71
     3
 72
    27
 73
    23
 74
    21
 42
0.0000000001
 43
0.0000000001
 44
0.00000001
 40
0.0
 40
0.0
 40
0.0
 40
0.0
 40
0.3521433471925718
 40
0.7044480008014509
 40
1.4008006651737
 40
2.097184215600424
 40
2.769838284127044
 40
3.44256137324767
 40
4.077219711104162
 40
4.712002495238531
 40
5.296741613738247
 40
5.881694767085997
 40
6.408245057776075
 40
6.935160776250084
 40
7.400656971496531
 40
7.866768362736091
 40
8.27615473321659
 40
8.686465276540471
 40
9.055039967931224
 40
9.42442841066096
 40
9.778116399127059
 40
10.13180438759329
 40
10.13180438759329
 40
10.13180438759329
 40
10.13180438759329
 10
101.6236096416811
 20
331.329295823731
 30
0.0
 10
101.6228785383028
 20
331.2119123092671
 30
0.0
 10
101.6214159966496
 20
330.9770915104349
 30
0.0
 10
101.6059703287349
 20
330.5103661728093
 30
0.0
 10
101.5686010862658
 20
329.929708442734
 30
0.0
 10
101.4943344728679
 20
329.2450260150858
 30
0.0
 10
101.3902586980594
 20
328.5722130528147
 30
0.0
 10
101.2592201697768
 20
327.9250676542067
 30
0.0
 10
101.0991043077127
 20
327.2975219142175
 30
0.0
 10
100.9154071440947
 20
326.7070474427565
 30
0.0
 10
100.7038105122807
 20
326.1436592549339
 30
0.0
 10
100.4730527982645
 20
325.6270012746379
 30
0.0
 10
100.2159464137156
 20
325.1446817063493
 30
0.0
 10
99.94467250910631
 20
324.7164437615575
 30
0.0
 10
99.6490954226616
 20
324.3296523805757
 30
0.0
 10
99.34397004456561
 20
324.0017938462801
 30
0.0
 10
99.01757816301499
 20
323.7224476973607
 30
0.0
 10
98.68464884969022
 20
323.5056065925426
 30
0.0
 10
98.33590351729353
 20
323.3437727770408
 30
0.0
 10
97.98293641739406
 20
323.2498666867767
 30
0.0
 10
97.62314206618964
 20
323.2118292439963
 30
0.0
 10
97.3886469422266
 20
323.2426649080964
 30
0.0
 10
97.27139938024504
 20
323.2580827401465
 30
0.0
 11
101.6236096416811
 21
331.329295823731
 31
0.0
 11
101.6198408225317
 21
330.9771726450361
 31
0.0
 11
101.6085343650837
 21
330.6250494663408
 31
0.0
 11
101.5635382867962
 21
329.9301520738309
 31
0.0
 11
101.4881621877851
 21
329.2378598717928
 31
0.0
 11
101.385148173178
 21
328.5731406764178
 31
0.0
 11
101.2510718479433
 21
327.9139139372396
 31
0.0
 11
101.0938379250612
 21
327.2990410241056
 31
0.0
 11
100.9044388782091
 21
326.6931720745093
 31
0.0
 11
100.6983463935598
 21
326.1459557329451
 31
0.0
 11
100.4586789475276
 21
325.6123550330544
 31
0.0
 11
100.2103010484762
 21
325.1480667305003
 31
0.0
 11
99.92697144143452
 21
324.703809476031
 31
0.0
 11
99.64343275182424
 21
324.3346313086335
 31
0.0
 11
99.32453526595609
 21
323.9946839266017
 31
0.0
 11
99.01242769052256
 21
323.729757405294
 31
0.0
 11
98.66786864687225
 21
323.5069709438527
 31
0.0
 11
98.33253883829725
 21
323.3539963622555
 31
0.0
 11
97.97581990311686
 21
323.2580827401465
 31
0.0
 11
97.62360964168101
 21
323.225785295596
 31
0.0
 11
97.27139938024504
 21
323.2580827401465
 31
0.0
  0
SPLINE
  5
F4
330
3C
100
AcDbEntity
  8
1
  6
Continuous
 62
     7
100
AcDbSpline
210
0.0
220
0.0
230
1.0
 70
     8
 71
     3
 72
    25
 73
    21
 74
    19
 42
0.0000000001
 43
0.0000000001
 44
0.00000001
 40
0.0
 40
0.0
 40
0.0
 40
0.0
 40
0.3693884427298613
 40
0.7379631341205519
 40
1.148273677444361
 40
1.557660047924833
 40
2.023771439164505
 40
2.489267634410864
 40
3.016183352884843
 40
3.54273364357491
 40
4.127686796922701
 40
4.712425915422354
 40
5.347208699556739
 40
5.981867037413234
 40
6.65459012653386
 40
7.327244195060482
 40
8.0236277454872
 40
8.719980409859554
 40
9.072285063468886
 40
9.424428410662367
 40
9.424428410662367
 40
9.424428410662367
 40
9.424428410662367
 10
97.27139938024504
 20
323.2580827401465
 30
0.0
 10
97.15110206328598
 20
323.2858171531299
 30
0.0
 10
96.91077244064444
 20
323.3412248810406
 30
0.0
 10
96.56273428999356
 20
323.5063749881468
 30
0.0
 10
96.22959555811381
 20
323.7222340356647
 30
0.0
 10
95.90326332718017
 20
324.0018599130156
 30
0.0
 10
95.59811990351432
 20
324.3296338235601
 30
0.0
 10
95.30254799045761
 20
324.7164494648728
 30
0.0
 10
95.03127252836065
 20
325.144680105908
 30
0.0
 10
94.77416658785376
 20
325.6270017565084
 30
0.0
 10
94.54340874242588
 20
326.1436591205567
 30
0.0
 10
94.33181214767774
 20
326.7070474821977
 30
0.0
 10
94.14811497332312
 20
327.2975219033088
 30
0.0
 10
93.98799911425007
 20
327.9250676573249
 30
0.0
 10
93.85696058512022
 20
328.5722130519597
 30
0.0
 10
93.75288481054488
 20
329.2450260153242
 30
0.0
 10
93.67861819708199
 20
329.9297084426677
 30
0.0
 10
93.64124895462894
 20
330.5103661728178
 30
0.0
 10
93.62580328671226
 20
330.977091510434
 30
0.0
 10
93.62434074505921
 20
331.2119123092676
 30
0.0
 10
93.62360964168107
 20
331.3292958237324
 30
0.0
 11
97.27139938024504
 21
323.2580827401465
 31
0.0
 11
96.91468044506453
 21
323.3539963622555
 31
0.0
 11
96.57935063648958
 21
323.5069709438527
 31
0.0
 11
96.23479159283936
 21
323.729757405294
 31
0.0
 11
95.92268401740581
 21
323.9946839266016
 31
0.0
 11
95.60378653153762
 21
324.3346313086335
 31
0.0
 11
95.32024784192741
 21
324.703809476031
 31
0.0
 11
95.03691823488578
 21
325.1480667305003
 31
0.0
 11
94.78854033583431
 21
325.6123550330544
 31
0.0
 11
94.54887288980197
 21
326.1459557329451
 31
0.0
 11
94.3427804051527
 21
326.6931720745092
 31
0.0
 11
94.15338135830079
 21
327.2990410241056
 31
0.0
 11
93.99614743541866
 21
327.9139139372396
 31
0.0
 11
93.86207111018395
 21
328.5731406764178
 31
0.0
 11
93.75905709557686
 21
329.2378598717928
 31
0.0
 11
93.68368099656573
 21
329.9301520738309
 31
0.0
 11
93.6386849182784
 21
330.6250494663409
 31
0.0
 11
93.62737846083039
 21
330.9771726450366
 31
0.0
 11
93.62360964168107
 21
331.3292958237324
 31
0.0
  0
SPLINE
  5
F5
330
3C
100
AcDbEntity
  8
1
  6
Continuous
 62
     7
100
AcDbSpline
210
0.0
220
0.0
230
1.0
 70
     8
 71
     3
 72
    27
 73
    23
 74
    21
 42
0.0000000001
 43
0.0000000001
 44
0.00000001
 40
0.0
 40
0.0
 40
0.0
 40
0.0
 40
0.5635691001448133
 40
1.127238547420711
 40
2.238983728981781
 40
3.350752149449674
 40
4.41673088734634
 40
5.482762962671075
 40
6.474560131479171
 40
7.466461879568622
 40
8.35893307351229
 40
9.251594001144278
 40
10.0246214956287
 40
10.79808401854372
 40
11.43923200047936
 40
12.08113211738028
 40
12.59132661970798
 40
13.10432937237306
 40
13.50843919479955
 40
13.91674531799509
 40
14.27825505646394
 40
14.63976479493282
 40
14.63976479493282
 40
14.63976479493282
 40
14.63976479493282
 10
101.6236096416811
 20
300.3292958237334
 30
0.0
 10
101.622879768875
 20
300.5171536587942
 30
0.0
 10
101.6214198933042
 20
300.8929027782207
 30
0.0
 10
101.6060393738107
 20
301.6391018318223
 30
0.0
 10
101.5687322884007
 20
302.5675243668533
 30
0.0
 10
101.494799510325
 20
303.6616756533828
 30
0.0
 10
101.3909216787694
 20
304.7380774085179
 30
0.0
 10
101.260613540639
 20
305.7713373820781
 30
0.0
 10
101.1008375046614
 20
306.7754485683579
 30
0.0
 10
100.9185773420322
 20
307.7169213553813
 30
0.0
 10
100.7075173443399
 20
308.6184313752071
 30
0.0
 10
100.4794903479083
 20
309.4404458056167
 30
0.0
 10
100.2232143951301
 20
310.2123509188086
 30
0.0
 10
99.95697805668954
 20
310.8918194021206
 30
0.0
 10
99.66263393979098
 20
311.5114114399397
 30
0.0
 10
99.3658779436083
 20
312.031432934347
 30
0.0
 10
99.04010215840717
 20
312.4820288626315
 30
0.0
 10
98.71634968733699
 20
312.8328237084692
 30
0.0
 10
98.36246217832075
 20
313.10307766106
 30
0.0
 10
98.00106965727647
 20
313.2598191278805
 30
0.0
 10
97.62247220994743
 20
313.3307167199291
 30
0.0
 10
97.38506389376322
 20
313.2773879280364
 30
0.0
 10
97.26635973567107
 20
313.2507235320899
 30
0.0
 11
101.6236096416811
 21
300.3292958237334
 31
0.0
 11
101.6198494030858
 21
300.8928523792305
 31
0.0
 11
101.6085686873
 21
301.4564089347275
 31
0.0
 11
101.5636796551646
 21
302.5672475024403
 31
0.0
 11
101.4883510341536
 21
303.676461016425
 31
0.0
 11
101.3857584171717
 21
304.7374913763057
 31
0.0
 11
101.2516212787548
 21
305.7950506482704
 31
0.0
 11
101.0953988784397
 21
306.7744668956829
 31
0.0
 11
100.9056806283667
 21
307.7480561640359
 31
0.0
 11
100.701671005623
 21
308.6168972921181
 31
0.0
 11
100.4612055948332
 21
309.4765599689481
 31
0.0
 11
100.216833153832
 21
310.2099450092291
 31
0.0
 11
99.93181352596031
 21
310.9289777526295
 31
0.0
 11
99.6555784765995
 21
311.5075664945221
 31
0.0
 11
99.3332946801338
 21
312.0626961321862
 31
0.0
 11
99.03272005133501
 21
312.474950086355
 31
0.0
 11
98.68012184000253
 21
312.8475709735944
 31
0.0
 11
98.35537147756668
 21
313.0880745092844
 31
0.0
 11
97.98085954769076
 21
313.2507235320899
 31
0.0
 11
97.62360964168093
 21
313.3060570270436
 31
0.0
 11
97.26635973567107
 21
313.2507235320899
 31
0.0
  0
SPLINE
  5
F6
330
3C
100
AcDbEntity
  8
1
  6
Continuous
 62
     7
100
AcDbSpline
210
0.0
220
0.0
230
1.0
 70
     8
 71
     3
 72
    25
 73
    21
 74
    19
 42
0.0000000001
 43
0.0000000001
 44
0.00000001
 40
0.0
 40
0.0
 40
0.0
 40
0.0
 40
0.4083061231954792
 40
0.8124159456219936
 40
1.325418698287079
 40
1.835613200614829
 40
2.477513317515734
 40
3.11866129945143
 40
3.892123822366486
 40
4.66515131685096
 40
5.557812244482792
 40
6.450283438426421
 40
7.442185186515875
 40
8.433982355323956
 40
9.500014430648736
 40
10.56599316854541
 40
11.67776158901325
 40
12.78950677057431
 40
13.3531762178514
 40
13.91674531799752
 40
13.91674531799752
 40
13.91674531799752
 40
13.91674531799752
 10
97.26635973567107
 20
313.2507235320899
 30
0.0
 10
97.13821149929167
 20
313.2026876228305
 30
0.0
 10
96.88323204950243
 20
313.1071094856737
 30
0.0
 10
96.53139998065595
 20
312.8314215183482
 30
0.0
 10
96.20696316194932
 20
312.4824358981916
 30
0.0
 10
95.88139445956848
 20
312.0312925002631
 30
0.0
 10
95.58456987825008
 20
311.5114523259659
 30
0.0
 10
95.290246328468
 20
310.891805914385
 30
0.0
 10
95.02400342278068
 20
310.2123547930553
 30
0.0
 10
94.76772939609313
 20
309.440444587813
 30
0.0
 10
94.53970180868106
 20
308.6184317197919
 30
0.0
 10
94.32864198060111
 20
307.716921251558
 30
0.0
 10
94.14638176773988
 20
306.7754485973343
 30
0.0
 10
93.98660574590487
 20
305.7713373736655
 30
0.0
 10
93.85629760371523
 20
304.7380774108373
 30
0.0
 10
93.75241977328348
 20
303.6616756527307
 30
0.0
 10
93.67848699489224
 20
302.5675243670352
 30
0.0
 10
93.64117990955975
 20
301.6391018317992
 30
0.0
 10
93.62579939005622
 20
300.8929027782236
 30
0.0
 10
93.62433951448655
 20
300.5171536587936
 30
0.0
 10
93.62360964168096
 20
300.329295823731
 30
0.0
 11
97.26635973567107
 21
313.2507235320899
 31
0.0
 11
96.89184780579522
 21
313.0880745092844
 31
0.0
 11
96.56709744335939
 21
312.8475709735944
 31
0.0
 11
96.2144992320269
 21
312.474950086355
 31
0.0
 11
95.91392460322801
 21
312.0626961321862
 31
0.0
 11
95.59164080676224
 21
311.5075664945221
 31
0.0
 11
95.31540575740144
 21
310.9289777526295
 31
0.0
 11
95.03038612952976
 21
310.2099450092291
 31
0.0
 11
94.78601368852856
 21
309.476559968948
 31
0.0
 11
94.54554827773877
 21
308.6168972921182
 31
0.0
 11
94.34153865499502
 21
307.748056164036
 31
0.0
 11
94.15182040492201
 21
306.774466895683
 31
0.0
 11
93.99559800460696
 21
305.7950506482705
 31
0.0
 11
93.86146086619016
 21
304.7374913763057
 31
0.0
 11
93.75886824920819
 21
303.676461016425
 31
0.0
 11
93.68353962819714
 21
302.5672475024404
 31
0.0
 11
93.63865059606185
 21
301.4564089347276
 31
0.0
 11
93.62736988027618
 21
300.8928523792294
 31
0.0
 11
93.62360964168096
 21
300.329295823731
 31
0.0
  0
ARC
  5
F7
330
3C
100
AcDbEntity
  8
1
  6
Continuous
 62
     7
100
AcDbCircle
 10
175.9078387230437
 20
182.2248345904084
 30
0.0
 40
5.000000000000541
100
AcDbArc
 50
113.4127194836016
 51
132.6228546077981
  0
ARC
  5
F8
330
3C
100
AcDbEntity
  8
1
  6
Continuous
 62
     7
100
AcDbCircle
 10
175.9078387230433
 20
179.281526467374
 30
0.0
 40
5.000000000000871
100
AcDbArc
 50
-132.6228546078301
 51
-113.4127194836117
  0
ARC
  5
F9
330
3C
100
AcDbEntity
  8
1
  6
Continuous
 62
     7
100
AcDbCircle
 10
188.7621777955131
 20
169.4207680128978
 30
0.0
 40
0.9999999999998863
100
AcDbArc
 50
-0.0000000000114
 51
81.51555025864734
  0
ARC
  5
FA
330
3C
100
AcDbEntity
  8
1
  6
Continuous
 62
     7
100
AcDbCircle
 10
189.9621777955134
 20
163.9531805288907
 30
0.0
 40
0.2000000000005002
100
AcDbArc
 50
-179.9999999999186
 51
-89.99999999997557
  0
ARC
  5
FB
330
3C
100
AcDbEntity
  8
1
  6
Continuous
 62
     7
100
AcDbCircle
 10
220.5621777955131
 20
163.9531805288909
 30
0.0
 40
0.1999999999999034
100
AcDbArc
 50
-90.0
 51
0.00000000011399
  0
ARC
  5
FC
330
3C
100
AcDbEntity
  8
1
  6
Continuous
 62
     7
100
AcDbCircle
 10
219.6165168679828
 20
182.2248345904085
 30
0.0
 40
5.000000000000265
100
AcDbArc
 50
47.3771453921857
 51
66.58728051638524
  0
ARC
  5
FD
330
3C
100
AcDbEntity
  8
1
  6
Continuous
 62
     7
100
AcDbCircle
 10
219.6165168679832
 20
179.2815264673732
 30
0.0
 40
5.000000000000488
100
AcDbArc
 50
-66.58728051640311
 51
-47.3771453921857
  0
ARC
  5
FE
330
3C
100
AcDbEntity
  8
1
  6
Continuous
 62
     7
100
AcDbCircle
 10
221.7621777955132
 20
173.6728809576506
 30
0.0
 40
1.000000000000552
100
AcDbArc
 50
113.1688797851038
 51
179.9999999999658
  0
ENDBLK
  5
3E
330
3C
100
AcDbEntity
  8
0
100
AcDbBlockEnd
  0
BLOCK
  5
41
330
3F
100
AcDbEntity
  8
0
100
AcDbBlockBegin
  2
81-100X
 70
     0
 71
     0
 10
70.64664579461899
 20
3.04846640644239
 30
0.0
  3
81-100X
  1

  0
INSERT
  5
40
330
3F
100
AcDbEntity
  8
0
100
AcDbBlockReference
  2
81-100K
 10
159.3282613986143
 20
332.5953020223219
 30
0.0
  0
ENDBLK
  5
42
330
3F
100
AcDbEntity
  8
0
100
AcDbBlockEnd
  0
BLOCK
  5
44
330
43
100
AcDbEntity
  8
0
100
AcDbBlockBegin
  2
_J__A4
 70
     0
 71
     0
 10
0.0
 20
0.0
 30
0.0
  3
_J__A4
  1

  0
POINT
  5
FF
330
43
100
AcDbEntity
  8
1
 62
     4
100
AcDbPoint
 10
93.75
 20
17.0
 30
0.0
  0
POINT
  5
100
330
43
100
AcDbEntity
  8
1
 62
     4
100
AcDbPoint
 10
85.25
 20
17.0
 30
0.0
  0
POINT
  5
101
330
43
100
AcDbEntity
  8
1
 62
     4
100
AcDbPoint
 10
106.5
 20
19.00000000000001
 30
0.0
  0
POINT
  5
102
330
43
100
AcDbEntity
  8
1
 62
     4
100
AcDbPoint
 10
106.5
 20
12.5
 30
0.0
  0
POINT
  5
103
330
43
100
AcDbEntity
  8
1
 62
     4
100
AcDbPoint
 10
112.25
 20
12.5
 30
0.0
  0
POINT
  5
104
330
43
100
AcDbEntity
  8
1
 62
     4
100
AcDbPoint
 10
100.75
 20
12.5
 30
0.0
  0
POINT
  5
105
330
43
100
AcDbEntity
  8
1
 62
     4
100
AcDbPoint
 10
123.5
 20
19.00000000000001
 30
0.0
  0
POINT
  5
106
330
43
100
AcDbEntity
  8
1
 62
     4
100
AcDbPoint
 10
123.5
 20
12.5
 30
0.0
  0
POINT
  5
107
330
43
100
AcDbEntity
  8
1
 62
     4
100
AcDbPoint
 10
129.25
 20
12.5
 30
0.0
  0
POINT
  5
108
330
43
100
AcDbEntity
  8
1
 62
     4
100
AcDbPoint
 10
117.75
 20
12.5
 30
0.0
  0
POINT
  5
109
330
43
100
AcDbEntity
  8
1
 62
     4
100
AcDbPoint
 10
140.5
 20
19.00000000000001
 30
0.0
  0
POINT
  5
10A
330
43
100
AcDbEntity
  8
1
 62
     4
100
AcDbPoint
 10
140.5
 20
12.5
 30
0.0
  0
POINT
  5
10B
330
43
100
AcDbEntity
  8
1
 62
     4
100
AcDbPoint
 10
146.25
 20
12.5
 30
0.0
  0
POINT
  5
10C
330
43
100
AcDbEntity
  8
1
 62
     4
100
AcDbPoint
 10
134.75
 20
12.5
 30
0.0
  0
POINT
  5
10D
330
43
100
AcDbEntity
  8
1
 62
     4
100
AcDbPoint
 10
151.75
 20
12.5
 30
0.0
  0
POINT
  5
10E
330
43
100
AcDbEntity
  8
1
 62
     4
100
AcDbPoint
 10
163.25
 20
12.5
 30
0.0
  0
POINT
  5
10F
330
43
100
AcDbEntity
  8
1
 62
     4
100
AcDbPoint
 10
157.5
 20
12.5
 30
0.0
  0
POINT
  5
110
330
43
100
AcDbEntity
  8
1
 62
     4
100
AcDbPoint
 10
57.0
 20
14.25
 30
0.0
  0
POINT
  5
111
330
43
100
AcDbEntity
  8
1
 62
     4
100
AcDbPoint
 10
57.0
 20
22.75000000000001
 30
0.0
  0
POINT
  5
112
330
43
100
AcDbEntity
  8
1
 62
     4
100
AcDbPoint
 10
47.5
 20
282.0000000000003
 30
0.0
  0
POINT
  5
113
330
43
100
AcDbEntity
  8
1
 62
     4
100
AcDbPoint
 10
157.5
 20
19.00000000000001
 30
0.0
  0
POINT
  5
114
330
43
100
AcDbEntity
  8
1
 62
     4
100
AcDbPoint
 10
57.0
 20
16.25
 30
0.0
  0
POINT
  5
115
330
43
100
AcDbEntity
  8
1
 62
     4
100
AcDbPoint
 10
57.0
 20
24.75000000000001
 30
0.0
  0
POINT
  5
116
330
43
100
AcDbEntity
  8
1
 62
     4
100
AcDbPoint
 10
57.0
 20
20.75000000000001
 30
0.0
  0
POINT
  5
117
330
43
100
AcDbEntity
  8
1
 62
     4
100
AcDbPoint
 10
57.0
 20
12.25
 30
0.0
  0
POINT
  5
118
330
43
100
AcDbEntity
  8
1
 62
     4
100
AcDbPoint
 10
34.0
 20
34.00000000000001
 30
0.0
  0
LINE
  5
119
330
43
100
AcDbEntity
  8
1
  6
Continuous
 62
     7
100
AcDbLine
 10
105.0
 20
10.0
 30
0.0
 11
200.0
 21
10.0
 31
0.0
  0
LINE
  5
11A
330
43
100
AcDbEntity
  8
1
  6
Continuous
 62
     2
100
AcDbLine
 10
105.0
 20
10.0
 30
0.0
 11
105.0
 21
5.0
 31
0.0
  0
LINE
  5
11B
330
43
100
AcDbEntity
  8
1
  6
Continuous
 62
     7
100
AcDbLine
 10
200.0
 20
148.5
 30
0.0
 11
200.0
 21
287.0000000000003
 31
0.0
  0
LINE
  5
11C
330
43
100
AcDbEntity
  8
1
  6
Continuous
 62
     2
100
AcDbLine
 10
200.0
 20
148.5
 30
0.0
 11
205.0
 21
148.5
 31
0.0
  0
LINE
  5
11D
330
43
100
AcDbEntity
  8
1
  6
Continuous
 62
     7
100
AcDbLine
 10
25.0
 20
148.5
 30
0.0
 11
25.0
 21
287.0000000000003
 31
0.0
  0
LINE
  5
11E
330
43
100
AcDbEntity
  8
1
  6
Continuous
 62
     2
100
AcDbLine
 10
25.0
 20
148.5
 30
0.0
 11
20.0
 21
148.5
 31
0.0
  0
LINE
  5
11F
330
43
100
AcDbEntity
  8
1
  6
Continuous
 62
     7
100
AcDbLine
 10
105.0
 20
287.0000000000003
 30
0.0
 11
25.0
 21
287.0000000000003
 31
0.0
  0
LINE
  5
120
330
43
100
AcDbEntity
  8
1
  6
Continuous
 62
     2
100
AcDbLine
 10
105.0
 20
287.0000000000003
 30
0.0
 11
105.0
 21
292.0000000000003
 31
0.0
  0
LINE
  5
121
330
43
100
AcDbEntity
  8
1
  6
Continuous
 62
     2
100
AcDbLine
 10
166.0
 20
20.00000000000001
 30
0.0
 11
200.0
 21
20.00000000000001
 31
0.0
  0
LINE
  5
122
330
43
100
AcDbEntity
  8
1
  6
Continuous
 62
     2
100
AcDbLine
 10
98.0
 20
27.00000000000001
 30
0.0
 11
98.0
 21
9.99999999999999
 31
0.0
  0
LINE
  5
123
330
43
100
AcDbEntity
  8
1
  6
Continuous
 62
     2
100
AcDbLine
 10
115.0
 20
27.00000000000001
 30
0.0
 11
115.0
 21
9.99999999999999
 31
0.0
  0
LINE
  5
124
330
43
100
AcDbEntity
  8
1
  6
Continuous
 62
     2
100
AcDbLine
 10
149.0
 20
27.00000000000001
 30
0.0
 11
149.0
 21
10.0
 31
0.0
  0
LINE
  5
125
330
43
100
AcDbEntity
  8
1
  6
Continuous
 62
     2
100
AcDbLine
 10
132.0
 20
27.00000000000001
 30
0.0
 11
132.0
 21
9.99999999999999
 31
0.0
  0
LINE
  5
126
330
43
100
AcDbEntity
  8
1
  6
Continuous
 62
     2
100
AcDbLine
 10
166.0
 20
27.00000000000001
 30
0.0
 11
166.0
 21
10.0
 31
0.0
  0
LINE
  5
127
330
43
100
AcDbEntity
  8
1
  6
Continuous
 62
     2
100
AcDbLine
 10
55.0
 20
277.0000000000003
 30
0.0
 11
25.0
 21
277.0000000000003
 31
0.0
  0
LINE
  5
128
330
43
100
AcDbEntity
  8
1
  6
Continuous
 62
     7
100
AcDbLine
 10
25.0
 20
10.0
 30
0.0
 11
25.0
 21
148.5
 31
0.0
  0
LINE
  5
129
330
43
100
AcDbEntity
  8
1
  6
Continuous
 62
     2
100
AcDbLine
 10
40.0
 20
287.0000000000003
 30
0.0
 11
40.0
 21
277.0000000000003
 31
0.0
  0
LINE
  5
12A
330
43
100
AcDbEntity
  8
1
  6
Continuous
 62
     2
100
AcDbLine
 10
55.0
 20
287.0000000000003
 30
0.0
 11
55.0
 21
277.0000000000003
 31
0.0
  0
LINE
  5
12B
330
43
100
AcDbEntity
  8
1
  6
Continuous
 62
     2
100
AcDbLine
 10
33.0
 20
41.00000000000001
 30
0.0
 11
33.0
 21
27.0
 31
0.0
  0
LINE
  5
12C
330
43
100
AcDbEntity
  8
1
  6
Continuous
 62
     7
100
AcDbLine
 10
200.0
 20
27.00000000000001
 30
0.0
 11
25.0
 21
27.00000000000001
 31
0.0
  0
LINE
  5
12D
330
43
100
AcDbEntity
  8
1
  6
Continuous
 62
     7
100
AcDbLine
 10
25.0
 20
41.0
 30
0.0
 11
200.0
 21
41.0
 31
0.0
  0
LINE
  5
12E
330
43
100
AcDbEntity
  8
1
  6
PHANTOM
 62
     4
100
AcDbLine
 10
0.0
 20
0.0
 30
0.0
 11
210.0
 21
0.0
 31
0.0
  0
LINE
  5
12F
330
43
100
AcDbEntity
  8
1
  6
PHANTOM
 62
     4
100
AcDbLine
 10
210.0
 20
0.0
 30
0.0
 11
210.0
 21
297.0
 31
0.0
  0
LINE
  5
130
330
43
100
AcDbEntity
  8
1
  6
PHANTOM
 62
     4
100
AcDbLine
 10
210.0
 20
297.0
 30
0.0
 11
0.0
 21
297.0
 31
0.0
  0
LINE
  5
131
330
43
100
AcDbEntity
  8
1
  6
PHANTOM
 62
     4
100
AcDbLine
 10
0.0
 20
297.0
 30
0.0
 11
0.0
 21
0.0
 31
0.0
  0
LINE
  5
132
330
43
100
AcDbEntity
  8
1
  6
Continuous
 62
     7
100
AcDbLine
 10
25.0
 20
10.0
 30
0.0
 11
105.0
 21
10.0
 31
0.0
  0
LINE
  5
133
330
43
100
AcDbEntity
  8
1
  6
Continuous
 62
     7
100
AcDbLine
 10
200.0
 20
10.0
 30
0.0
 11
200.0
 21
148.5
 31
0.0
  0
LINE
  5
134
330
43
100
AcDbEntity
  8
1
  6
Continuous
 62
     7
100
AcDbLine
 10
200.0
 20
287.0000000000003
 30
0.0
 11
105.0
 21
287.0000000000003
 31
0.0
  0
LINE
  5
135
330
43
100
AcDbEntity
  8
1
  6
Continuous
 62
     2
100
AcDbLine
 10
25.0
 20
18.50000000000001
 30
0.0
 11
81.0
 21
18.50000000000001
 31
0.0
  0
LINE
  5
136
330
43
100
AcDbEntity
  8
1
  6
Continuous
 62
     2
100
AcDbLine
 10
33.0
 20
27.0
 30
0.0
 11
33.0
 21
10.0
 31
0.0
  0
LINE
  5
137
330
43
100
AcDbEntity
  8
1
  6
Continuous
 62
     7
100
AcDbLine
 10
191.0
 20
24.70000000000001
 30
0.0
 11
191.0
 21
22.30000000000001
 31
0.0
  0
LINE
  5
138
330
43
100
AcDbEntity
  8
1
  6
Continuous
 62
     7
100
AcDbLine
 10
191.0
 20
24.70000000000001
 30
0.0
 11
196.0
 21
25.50000000000001
 31
0.0
  0
LINE
  5
139
330
43
100
AcDbEntity
  8
1
  6
Continuous
 62
     7
100
AcDbLine
 10
196.0
 20
25.50000000000001
 30
0.0
 11
196.0
 21
21.50000000000001
 31
0.0
  0
LINE
  5
13A
330
43
100
AcDbEntity
  8
1
  6
Continuous
 62
     7
100
AcDbLine
 10
196.0
 20
21.50000000000001
 30
0.0
 11
191.0
 21
22.30000000000001
 31
0.0
  0
LINE
  5
13B
330
43
100
AcDbEntity
  8
1
  6
DOT_CENTER
 62
     2
100
AcDbLine
 10
184.0
 20
23.50000000000001
 30
0.0
 11
197.0
 21
23.50000000000001
 31
0.0
  0
LINE
  5
13C
330
43
100
AcDbEntity
  8
1
  6
DOT_CENTER
 62
     2
100
AcDbLine
 10
187.0
 20
26.50000000000001
 30
0.0
 11
187.0
 21
20.50000000000001
 31
0.0
  0
LINE
  5
13D
330
43
100
AcDbEntity
  8
1
  6
Continuous
 62
     2
100
AcDbLine
 10
81.0
 20
27.00000000000001
 30
0.0
 11
81.0
 21
10.0
 31
0.0
  0
CIRCLE
  5
13E
330
43
100
AcDbEntity
  8
1
  6
Continuous
 62
     7
100
AcDbCircle
 10
103.5
 20
12.5
 30
0.0
 40
0.2999999999999972
  0
CIRCLE
  5
13F
330
43
100
AcDbEntity
  8
1
  6
Continuous
 62
     7
100
AcDbCircle
 10
109.5
 20
12.5
 30
0.0
 40
0.2999999999999972
  0
CIRCLE
  5
140
330
43
100
AcDbEntity
  8
1
  6
Continuous
 62
     7
100
AcDbCircle
 10
120.5
 20
12.5
 30
0.0
 40
0.2999999999999972
  0
CIRCLE
  5
141
330
43
100
AcDbEntity
  8
1
  6
Continuous
 62
     7
100
AcDbCircle
 10
126.5
 20
12.5
 30
0.0
 40
0.2999999999999972
  0
CIRCLE
  5
142
330
43
100
AcDbEntity
  8
1
  6
Continuous
 62
     7
100
AcDbCircle
 10
137.5
 20
12.5
 30
0.0
 40
0.3000000000000114
  0
CIRCLE
  5
143
330
43
100
AcDbEntity
  8
1
  6
Continuous
 62
     7
100
AcDbCircle
 10
143.5
 20
12.5
 30
0.0
 40
0.3000000000000114
  0
CIRCLE
  5
144
330
43
100
AcDbEntity
  8
1
  6
Continuous
 62
     7
100
AcDbCircle
 10
160.5
 20
12.5
 30
0.0
 40
0.3000000000000114
  0
CIRCLE
  5
145
330
43
100
AcDbEntity
  8
1
  6
Continuous
 62
     7
100
AcDbCircle
 10
154.5
 20
12.5
 30
0.0
 40
0.3000000000000114
  0
CIRCLE
  5
146
330
43
100
AcDbEntity
  8
1
  6
Continuous
 62
     7
100
AcDbCircle
 10
187.0
 20
23.50000000000001
 30
0.0
 40
1.200000000000102
  0
CIRCLE
  5
147
330
43
100
AcDbEntity
  8
1
  6
Continuous
 62
     7
100
AcDbCircle
 10
187.0
 20
23.50000000000001
 30
0.0
 40
2.0
  0
CIRCLE
  5
148
330
43
100
AcDbEntity
  8
1
  6
DOT_CENTER
 62
     7
100
AcDbCircle
 10
89.5
 20
16.0
 30
0.0
 40
0.1000000000000227
  0
CIRCLE
  5
149
330
43
100
AcDbEntity
  8
1
  6
DOT_CENTER
 62
     7
100
AcDbCircle
 10
89.5
 20
18.0
 30
0.0
 40
0.1000000000000227
  0
MTEXT
  5
14B
330
43
100
AcDbEntity
  8
1
 62
     7
100
AcDbMText
 10
188.5
 20
15.0
 30
0.0
 40
3.0
 41
0.0
 71
     5
 72
     1
  1
三栄水栓製作所
  7
CONVERTER_1
 73
     1
 44
1.32052821128451
  0
MTEXT
  5
14C
330
43
100
AcDbEntity
  8
1
 62
     7
100
AcDbMText
 10
171.5
 20
15.0
 30
0.0
 40
2.5
 41
0.0
 71
     5
 72
     1
  1
株式会社
  7
CONVERTER_1
 73
     1
 44
1.32052821128451
  0
MTEXT
  5
14D
330
43
100
AcDbEntity
  8
1
 62
     2
100
AcDbMText
 10
32.5
 20
282.0000000000003
 30
0.0
 40
5.0
 41
0.0
 71
     5
 72
     1
  1
図番
  7
CONVERTER_1
 73
     1
 44
0.60024009603842
  0
MTEXT
  5
14E
330
43
100
AcDbEntity
  8
1
 62
     2
100
AcDbMText
 10
29.0
 20
34.00000000000001
 30
0.0
 40
3.5
 41
0.0
 71
     5
 72
     1
  1
備考
  7
CONVERTER_1
 73
     1
 44
0.60024009603842
  0
MTEXT
  5
14F
330
43
100
AcDbEntity
  8
1
 62
     2
100
AcDbMText
 10
29.0
 20
22.75
 30
0.0
 40
3.5
 41
0.0
 71
     5
 72
     1
  1
品名
  7
CONVERTER_1
 73
     1
 44
0.96038415366146
  0
MTEXT
  5
150
330
43
100
AcDbEntity
  8
1
 62
     2
100
AcDbMText
 10
29.0
 20
14.25
 30
0.0
 40
3.5
 41
0.0
 71
     5
 72
     1
  1
品番
  7
CONVERTER_1
 73
     1
 44
0.96038415366146
  0
MTEXT
  5
151
330
43
100
AcDbEntity
  8
1
 62
     2
100
AcDbMText
 10
101.5
 20
25.00000000000001
 30
0.0
 40
3.0
 41
0.0
 71
     5
 72
     1
  1
承認
  7
CONVERTER_1
 73
     1
 44
0.78031212484994
  0
MTEXT
  5
152
330
43
100
AcDbEntity
  8
1
 62
     2
100
AcDbMText
 10
175.0
 20
23.50000000000001
 30
0.0
 40
3.5
 41
0.0
 71
     5
 72
     1
  1
第三角法
  7
CONVERTER_1
 73
     1
 44
0.7202881152461
  0
MTEXT
  5
153
330
43
100
AcDbEntity
  8
1
 62
     2
100
AcDbMText
 10
118.5
 20
25.00000000000001
 30
0.0
 40
3.0
 41
0.0
 71
     5
 72
     1
  1
検図
  7
CONVERTER_1
 73
     1
 44
0.78031212484994
  0
MTEXT
  5
154
330
43
100
AcDbEntity
  8
1
 62
     2
100
AcDbMText
 10
152.5
 20
25.00000000000001
 30
0.0
 40
3.0
 41
0.0
 71
     5
 72
     1
  1
設計
  7
CONVERTER_1
 73
     1
 44
0.78031212484994
  0
MTEXT
  5
155
330
43
100
AcDbEntity
  8
1
 62
     2
100
AcDbMText
 10
135.5
 20
25.00000000000001
 30
0.0
 40
3.0
 41
0.0
 71
     5
 72
     1
  1
製図
  7
CONVERTER_1
 73
     1
 44
0.78031212484994
  0
MTEXT
  5
156
330
43
100
AcDbEntity
  8
1
 62
     2
100
AcDbMText
 10
89.5
 20
24.00000000000001
 30
0.0
 40
3.5
 41
0.0
 71
     5
 72
     1
  1
尺度
  7
CONVERTER_1
 73
     1
 44
0.7202881152461
  0
MTEXT
  5
157
330
43
100
AcDbEntity
  8
1
 62
   250
100
AcDbMText
 10
25.0
 20
5.0
 30
0.0
 40
3.5
 41
0.0
 71
     4
 72
     1
  1
備考欄の文字列 原点位置=4
  7
CONVERTER_1
 73
     1
 44
0.7202881152461
  0
ENDBLK
  5
45
330
43
100
AcDbEntity
  8
0
100
AcDbBlockEnd
  0
BLOCK
  5
17C
330
175
100
AcDbEntity
  8
0
100
AcDbBlockBegin
  2
*D06
 70
     1
 71
     0
 10
0.0
 20
0.0
 30
0.0
  3
*D06
  1

  0
LINE
  5
176
330
175
100
AcDbEntity
  8
1
  6
Continuous
 62
     2
100
AcDbLine
 10
250.2621777955132
 20
100.7477584457976
 30
0.0
 11
264.2621777955132
 21
100.7477584457976
 31
0.0
  0
LINE
  5
177
330
175
100
AcDbEntity
  8
1
  6
Continuous
 62
     2
100
AcDbLine
 10
264.2621777955132
 20
100.7477584457976
 30
0.0
 11
273.2621777955132
 21
100.7477584457976
 31
0.0
  0
LINE
  5
178
330
175
100
AcDbEntity
  8
1
  6
Continuous
 62
     2
100
AcDbLine
 10
264.2621777955132
 20
132.2531805288901
 30
0.0
 11
264.2621777955132
 21
99.2477584457976
 31
0.0
  0
LINE
  5
179
330
175
100
AcDbEntity
  8
1
  6
Continuous
 62
     2
100
AcDbLine
 10
250.2621777955132
 20
118.7531805288901
 30
0.0
 11
250.2621777955132
 21
99.2477584457976
 31
0.0
  0
SOLID
  5
17A
330
175
100
AcDbEntity
  8
1
 62
     2
100
AcDbTrace
 10
268.7621777955132
 20
101.3401946849409
 30
0.0
 11
268.7621777955132
 21
100.1553222066543
 31
0.0
 12
264.2621777955132
 22
100.7477584457976
 32
0.0
 13
264.2621777955132
 23
100.7477584457976
 33
0.0
  0
MTEXT
  5
17B
330
175
100
AcDbEntity
  8
1
 62
     7
100
AcDbMText
 10
254.1121777955132
 20
102.2477584457976
 30
0.0
 40
5.24999999999999
 41
0.0
 71
     7
 72
     1
  1
14
  7
CONVERTER_2
 11
0.9999999999970621
 21
2.424068405545307E-6
 31
0.0
 73
     1
 44
0.60024009603842
  0
ENDBLK
  5
17D
330
175
100
AcDbEntity
  8
0
100
AcDbBlockEnd
  0
BLOCK
  5
17F
330
17E
100
AcDbEntity
  8
0
100
AcDbBlockBegin
  2
_None
 70
     0
 71
     0
 10
0.0
 20
0.0
 30
0.0
  3
_None
  1

  0
ENDBLK
  5
180
330
17E
100
AcDbEntity
  8
0
100
AcDbBlockEnd
  0
BLOCK
  5
18A
330
183
100
AcDbEntity
  8
0
100
AcDbBlockBegin
  2
*D18
 70
     1
 71
     0
 10
0.0
 20
0.0
 30
0.0
  3
*D18
  1

  0
LINE
  5
184
330
183
100
AcDbEntity
  8
1
  6
Continuous
 62
     2
100
AcDbLine
 10
250.2621777955132
 20
100.7477584457976
 30
0.0
 11
205.2621777955132
 21
100.7477584457976
 31
0.0
  0
LINE
  5
185
330
183
100
AcDbEntity
  8
1
  6
Continuous
 62
     2
100
AcDbLine
 10
205.2621777955132
 20
125.7531805288901
 30
0.0
 11
205.2621777955132
 21
99.2477584457976
 31
0.0
  0
LINE
  5
186
330
183
100
AcDbEntity
  8
1
  6
Continuous
 62
     2
100
AcDbLine
 10
250.2621777955132
 20
118.7531805288901
 30
0.0
 11
250.2621777955132
 21
99.2477584457976
 31
0.0
  0
SOLID
  5
187
330
183
100
AcDbEntity
  8
1
 62
     2
100
AcDbTrace
 10
245.0121777955132
 20
100.0565828334638
 30
0.0
 11
245.0121777955132
 21
101.4389340581314
 31
0.0
 12
250.2621777955132
 22
100.7477584457976
 32
0.0
 13
250.2621777955132
 23
100.7477584457976
 33
0.0
  0
SOLID
  5
188
330
183
100
AcDbEntity
  8
1
 62
     2
100
AcDbTrace
 10
210.5121777955132
 20
101.4389340581314
 30
0.0
 11
210.5121777955132
 21
100.0565828334638
 31
0.0
 12
205.2621777955132
 22
100.7477584457976
 32
0.0
 13
205.2621777955132
 23
100.7477584457976
 33
0.0
  0
MTEXT
  5
189
330
183
100
AcDbEntity
  8
1
 62
     7
100
AcDbMText
 10
223.8246777955131
 20
102.2477584457976
 30
0.0
 40
5.25
 41
0.0
 71
     7
 72
     1
  1
45
  7
CONVERTER_2
 11
0.9999999999970621
 21
2.424068405545307E-6
 31
0.0
 73
     1
 44
0.60024009603842
  0
ENDBLK
  5
18B
330
183
100
AcDbEntity
  8
0
100
AcDbBlockEnd
  0
BLOCK
  5
195
330
18E
100
AcDbEntity
  8
0
100
AcDbBlockBegin
  2
*D29
 70
     1
 71
     0
 10
0.0
 20
0.0
 30
0.0
  3
*D29
  1

  0
LINE
  5
18F
330
18E
100
AcDbEntity
  8
1
  6
Continuous
 62
     2
100
AcDbLine
 10
205.2621777955131
 20
100.7477584457976
 30
0.0
 11
170.2621777955131
 21
100.7477584457976
 31
0.0
  0
LINE
  5
190
330
18E
100
AcDbEntity
  8
1
  6
Continuous
 62
     2
100
AcDbLine
 10
170.2621777955131
 20
116.7531805288901
 30
0.0
 11
170.2621777955131
 21
99.2477584457976
 31
0.0
  0
LINE
  5
191
330
18E
100
AcDbEntity
  8
1
  6
Continuous
 62
     2
100
AcDbLine
 10
205.2621777955132
 20
125.7531805288901
 30
0.0
 11
205.2621777955132
 21
99.2477584457976
 31
0.0
  0
SOLID
  5
192
330
18E
100
AcDbEntity
  8
1
 62
     2
100
AcDbTrace
 10
200.0121777955131
 20
100.0565828334638
 30
0.0
 11
200.0121777955131
 21
101.4389340581314
 31
0.0
 12
205.2621777955131
 22
100.7477584457976
 32
0.0
 13
205.2621777955131
 23
100.7477584457976
 33
0.0
  0
SOLID
  5
193
330
18E
100
AcDbEntity
  8
1
 62
     2
100
AcDbTrace
 10
175.5121777955131
 20
101.4389340581314
 30
0.0
 11
175.5121777955131
 21
100.0565828334638
 31
0.0
 12
170.2621777955131
 22
100.7477584457976
 32
0.0
 13
170.2621777955131
 23
100.7477584457976
 33
0.0
  0
MTEXT
  5
194
330
18E
100
AcDbEntity
  8
1
 62
     7
100
AcDbMText
 10
183.8246777955131
 20
102.2477584457976
 30
0.0
 40
5.25
 41
0.0
 71
     7
 72
     1
  1
35
  7
CONVERTER_2
 11
0.9999999999970621
 21
2.424068405545307E-6
 31
0.0
 73
     1
 44
0.60024009603842
  0
ENDBLK
  5
196
330
18E
100
AcDbEntity
  8
0
100
AcDbBlockEnd
  0
BLOCK
  5
1A0
330
199
100
AcDbEntity
  8
0
100
AcDbBlockBegin
  2
*D310
 70
     1
 71
     0
 10
0.0
 20
0.0
 30
0.0
  3
*D310
  1

  0
LINE
  5
19A
330
199
100
AcDbEntity
  8
1
  6
Continuous
 62
     2
100
AcDbLine
 10
279.2621777955132
 20
164.7531805288901
 30
0.0
 11
279.2621777955132
 21
118.7531805288901
 31
0.0
  0
LINE
  5
19B
330
199
100
AcDbEntity
  8
1
  6
Continuous
 62
     2
100
AcDbLine
 10
250.2621777955132
 20
118.7531805288901
 30
0.0
 11
280.7621777955132
 21
118.7531805288901
 31
0.0
  0
LINE
  5
19C
330
199
100
AcDbEntity
  8
1
  6
Continuous
 62
     2
100
AcDbLine
 10
250.2621777955132
 20
164.7531805288901
 30
0.0
 11
280.7621777955132
 21
164.7531805288901
 31
0.0
  0
SOLID
  5
19D
330
199
100
AcDbEntity
  8
1
 62
     2
100
AcDbTrace
 10
279.953353407847
 20
159.5031805288901
 30
0.0
 11
278.5710021831794
 21
159.5031805288901
 31
0.0
 12
279.2621777955132
 22
164.7531805288901
 32
0.0
 13
279.2621777955132
 23
164.7531805288901
 33
0.0
  0
SOLID
  5
19E
330
199
100
AcDbEntity
  8
1
 62
     2
100
AcDbTrace
 10
278.5710021831794
 20
124.0031805288901
 30
0.0
 11
279.953353407847
 21
124.0031805288901
 31
0.0
 12
279.2621777955132
 22
118.7531805288901
 32
0.0
 13
279.2621777955132
 23
118.7531805288901
 33
0.0
  0
MTEXT
  5
19F
330
199
100
AcDbEntity
  8
1
 62
     7
100
AcDbMText
 10
277.7621777955132
 20
132.3556805288901
 30
0.0
 40
5.25
 41
0.0
 71
     7
 72
     1
  1
\C7;{\Fgdt;n}\C7;46
  7
CONVERTER_2
 11
0.0
 21
1.0
 31
0.0
 73
     1
 44
0.60024009603842
  0
ENDBLK
  5
1A1
330
199
100
AcDbEntity
  8
0
100
AcDbBlockEnd
  0
BLOCK
  5
1AB
330
1A4
100
AcDbEntity
  8
0
100
AcDbBlockBegin
  2
*D411
 70
     1
 71
     0
 10
0.0
 20
0.0
 30
0.0
  3
*D411
  1

  0
LINE
  5
1A5
330
1A4
100
AcDbEntity
  8
1
  6
Continuous
 62
     2
100
AcDbLine
 10
147.0736720444722
 20
116.7531805288902
 30
0.0
 11
147.0736720444722
 21
141.7531805288901
 31
0.0
  0
LINE
  5
1A6
330
1A4
100
AcDbEntity
  8
1
  6
Continuous
 62
     2
100
AcDbLine
 10
163.9095129957485
 20
141.7531805288901
 30
0.0
 11
145.5736720444722
 21
141.7531805288901
 31
0.0
  0
LINE
  5
1A7
330
1A4
100
AcDbEntity
  8
1
  6
Continuous
 62
     2
100
AcDbLine
 10
170.2621777955131
 20
116.7531805288902
 30
0.0
 11
145.5736720444722
 21
116.7531805288902
 31
0.0
  0
SOLID
  5
1A8
330
1A4
100
AcDbEntity
  8
1
 62
     2
100
AcDbTrace
 10
146.3824964321384
 20
122.0031805288902
 30
0.0
 11
147.764847656806
 21
122.0031805288902
 31
0.0
 12
147.0736720444722
 22
116.7531805288902
 32
0.0
 13
147.0736720444722
 23
116.7531805288902
 33
0.0
  0
SOLID
  5
1A9
330
1A4
100
AcDbEntity
  8
1
 62
     2
100
AcDbTrace
 10
147.764847656806
 20
136.5031805288901
 30
0.0
 11
146.3824964321384
 21
136.5031805288901
 31
0.0
 12
147.0736720444722
 22
141.7531805288901
 32
0.0
 13
147.0736720444722
 23
141.7531805288901
 33
0.0
  0
MTEXT
  5
1AA
330
1A4
100
AcDbEntity
  8
1
 62
     7
100
AcDbMText
 10
145.5736720444722
 20
125.3156805288901
 30
0.0
 40
5.25
 41
0.0
 71
     7
 72
     1
  1
25
  7
CONVERTER_2
 11
0.0
 21
1.0
 31
0.0
 73
     1
 44
0.60024009603842
  0
ENDBLK
  5
1AC
330
1A4
100
AcDbEntity
  8
0
100
AcDbBlockEnd
  0
BLOCK
  5
1B6
330
1AF
100
AcDbEntity
  8
0
100
AcDbBlockBegin
  2
*D512
 70
     1
 71
     0
 10
0.0
 20
0.0
 30
0.0
  3
*D512
  1

  0
LINE
  5
1B0
330
1AF
100
AcDbEntity
  8
1
  6
Continuous
 62
     2
100
AcDbLine
 10
147.0736720444722
 20
141.7531805288901
 30
0.0
 11
147.0736720444722
 21
191.7531805288897
 31
0.0
  0
LINE
  5
1B1
330
1AF
100
AcDbEntity
  8
1
  6
Continuous
 62
     2
100
AcDbLine
 10
197.7621777955129
 20
191.7531805288897
 30
0.0
 11
145.5736720444722
 21
191.7531805288897
 31
0.0
  0
LINE
  5
1B2
330
1AF
100
AcDbEntity
  8
1
  6
Continuous
 62
     2
100
AcDbLine
 10
163.9095129957485
 20
141.7531805288901
 30
0.0
 11
145.5736720444722
 21
141.7531805288901
 31
0.0
  0
SOLID
  5
1B3
330
1AF
100
AcDbEntity
  8
1
 62
     2
100
AcDbTrace
 10
146.3824964321384
 20
147.0031805288901
 30
0.0
 11
147.764847656806
 21
147.0031805288901
 31
0.0
 12
147.0736720444722
 22
141.7531805288901
 32
0.0
 13
147.0736720444722
 23
141.7531805288901
 33
0.0
  0
SOLID
  5
1B4
330
1AF
100
AcDbEntity
  8
1
 62
     2
100
AcDbTrace
 10
147.764847656806
 20
186.5031805288897
 30
0.0
 11
146.3824964321384
 21
186.5031805288897
 31
0.0
 12
147.0736720444722
 22
191.7531805288897
 32
0.0
 13
147.0736720444722
 23
191.7531805288897
 33
0.0
  0
MTEXT
  5
1B5
330
1AF
100
AcDbEntity
  8
1
 62
     7
100
AcDbMText
 10
145.5736720444722
 20
162.8156805288899
 30
0.0
 40
5.25
 41
0.0
 71
     7
 72
     1
  1
50
  7
CONVERTER_2
 11
0.0
 21
1.0
 31
0.0
 73
     1
 44
0.60024009603842
  0
ENDBLK
  5
1B7
330
1AF
100
AcDbEntity
  8
0
100
AcDbBlockEnd
  0
ENDSEC
  0
SECTION
  2
ENTITIES
  0
INSERT
  5
46
330
1F
100
AcDbEntity
  8
1
100
AcDbBlockReference
  2
Y105-0
 10
544.7621777955131
 20
294.2531805288901
 30
0.0
  0
INSERT
  5
47
330
1F
100
AcDbEntity
  8
0
100
AcDbBlockReference
  2
75-26
 10
151.3272137688647
 20
85.02453733935079
 30
0.0
  0
INSERT
  5
48
330
1F
100
AcDbEntity
  8
1
100
AcDbBlockReference
  2
81-100X
 10
70.64664579461899
 20
3.04846640644239
 30
0.0
  0
INSERT
  5
49
330
1F
100
AcDbEntity
  8
1
100
AcDbBlockReference
  2
_J__A4
 10
0.0
 20
0.0
 30
0.0
 41
1.5
 42
1.5
 43
1.5
  0
LINE
  5
158
330
1F
100
AcDbEntity
  8
1
  6
DASH_CENTER
 62
     2
100
AcDbLine
 10
84.87360964168107
 20
116.7531805288887
 30
0.0
 11
110.3736096416811
 21
116.7531805288887
 31
0.0
  0
LINE
  5
159
330
1F
100
AcDbEntity
  8
1
  6
DASH_CENTER
 62
     2
100
AcDbLine
 10
97.62360964168107
 20
377.8292958237311
 30
0.0
 11
97.62360964168107
 21
269.6407900726902
 31
0.0
  0
LINE
  5
15A
330
1F
100
AcDbEntity
  8
1
  6
DASH_CENTER
 62
     2
100
AcDbLine
 10
97.62360964168107
 20
194.7531805288882
 30
0.0
 11
97.62360964168107
 21
112.7477584457961
 31
0.0
  0
LINE
  5
15B
330
1F
100
AcDbEntity
  8
1
  6
DASH_CENTER
 62
     2
100
AcDbLine
 10
170.2621777955131
 20
116.7531805288901
 30
0.0
 11
169.8965697652977
 21
113.7755420739661
 31
0.0
  0
LINE
  5
15C
330
1F
100
AcDbEntity
  8
1
  6
DASH_CENTER
 62
     2
100
AcDbLine
 10
79.12360964168107
 20
315.829295823731
 30
0.0
 11
116.123609641681
 21
315.829295823731
 31
0.0
  0
LINE
  5
15D
330
1F
100
AcDbEntity
  8
1
  6
DASH_CENTER
 62
     2
100
AcDbLine
 10
86.37360964168107
 20
280.8292958237311
 30
0.0
 11
108.8736096416811
 21
280.8292958237311
 31
0.0
  0
LINE
  5
15E
330
1F
100
AcDbEntity
  8
1
  6
DASH_CENTER
 62
     2
100
AcDbLine
 10
174.4710002928328
 20
151.0312890009152
 30
0.0
 11
170.2621777955131
 21
116.7531805288901
 31
0.0
  0
LINE
  5
15F
330
1F
100
AcDbEntity
  8
1
  6
DASH_CENTER
 62
     2
100
AcDbLine
 10
205.2621777955132
 20
125.7531805288901
 30
0.0
 11
205.262177795513
 21
194.7531805288911
 31
0.0
  0
LINE
  5
160
330
1F
100
AcDbEntity
  8
1
  6
DASH_CENTER
 62
     2
100
AcDbLine
 10
267.2621777955132
 20
141.7531805288901
 30
0.0
 11
163.9095129957485
 21
141.7531805288901
 31
0.0
  0
LINE
  5
161
330
1F
100
AcDbEntity
  8
1
  6
DASH_CENTER
 62
     2
100
AcDbLine
 10
168.1560515856306
 20
180.7531805288906
 30
0.0
 11
228.0120244325688
 21
180.7531805288905
 31
0.0
  0
LINE
  5
162
330
1F
100
AcDbEntity
  8
1
  6
Continuous
 62
     2
100
AcDbLine
 10
139.923695915416
 20
303.4574929888908
 30
0.0
 11
150.575806640348
 21
303.4574929888908
 31
0.0
  0
LINE
  5
163
330
1F
100
AcDbEntity
  8
1
  6
Continuous
 62
     2
100
AcDbLine
 10
109.987241213076
 20
269.1758423538213
 30
0.0
 11
120.274424829407
 21
269.1758423538213
 31
0.0
  0
LINE
  5
164
330
1F
100
AcDbEntity
  8
1
  6
DASH_CENTER
 62
     2
100
AcDbLine
 10
69.96888443325412
 20
141.7531805288901
 30
0.0
 11
123.3258021228339
 21
141.7531805288901
 31
0.0
  0
ARC
  5
165
330
1F
100
AcDbEntity
  8
1
  6
Continuous
 62
     2
100
AcDbCircle
 10
110.6236096416811
 20
309.3292958237311
 30
0.0
 40
30.00000000000007
100
AcDbArc
 50
-65.00000000000023
 51
-25.00000000000006
  0
SOLID
  5
166
330
1F
100
AcDbEntity
  8
1
 62
     2
100
AcDbTrace
 10
125.9555543659291
 20
284.1399894029568
 30
0.0
 11
126.5397612376133
 21
282.8871537236208
 31
0.0
 12
121.4895419198288
 22
281.2948256891501
 32
0.0
 13
121.4895419198288
 23
281.2948256891501
 33
0.0
  0
LEADER
  5
167
330
1F
100
AcDbEntity
  8
1
  6
Continuous
 62
     2
100
AcDbLeader
  3
Standard
 71
     0
 76
     2
 10
121.4895419198288
 20
281.2948256891501
 30
0.0
 10
123.302157493902
 20
282.1400622126315
 30
0.0
  0
SOLID
  5
168
330
1F
100
AcDbEntity
  8
1
 62
     2
100
AcDbTrace
 10
137.0657517417913
 20
293.4131442277989
 30
0.0
 11
135.8129160624553
 21
293.997351099483
 31
0.0
 12
138.658079776262
 22
298.4633635455833
 32
0.0
 13
138.658079776262
 23
298.4633635455833
 33
0.0
  0
LEADER
  5
169
330
1F
100
AcDbEntity
  8
1
  6
Continuous
 62
     2
100
AcDbLeader
  3
Standard
 71
     0
 76
     2
 10
138.658079776262
 20
298.4633635455833
 30
0.0
 10
137.8128432527806
 20
296.6507479715101
 30
0.0
  0
SOLID
  5
16A
330
1F
100
AcDbEntity
  8
1
 62
     2
100
AcDbTrace
 10
110.1500340029238
 20
372.2215169997663
 30
0.0
 11
111.3471852804385
 21
371.5303413874325
 31
0.0
 12
108.1236096416811
 22
367.3292958237311
 32
0.0
 13
108.1236096416811
 23
367.3292958237311
 33
0.0
  0
LEADER
  5
16B
330
1F
100
AcDbEntity
  8
1
  6
Continuous
 62
     2
100
AcDbLeader
  3
Standard
 71
     0
 76
     3
 10
108.1236096416811
 20
367.3292958237311
 30
0.0
 10
121.1139906984477
 20
389.8292958237311
 30
0.0
 10
144.867430411807
 20
389.8292958237311
 30
0.0
  0
MTEXT
  5
16C
330
1F
100
AcDbEntity
  8
1
 62
     7
100
AcDbMText
 10
115.4287557069233
 20
273.6758423538213
 30
0.0
 40
5.25
 41
0.0
 71
     5
 72
     1
  1
止水
  7
CONVERTER_1
 73
     1
 44
0.7202881152461
  0
MTEXT
  5
16E
330
1F
100
AcDbEntity
  8
1
 62
     7
100
AcDbMText
 10
140.625
 20
25.5
 30
0.0
 40
5.25
 41
0.0
 71
     5
 72
     1
  1
1,5
  7
CONVERTER_2
 73
     1
 44
1.32052821128451
  0
MTEXT
  5
16F
330
1F
100
AcDbEntity
  8
1
 62
     7
100
AcDbMText
 10
127.875
 20
25.5
 30
0.0
 40
5.25
 41
0.0
 71
     5
 72
     1
  1
1
  7
CONVERTER_2
 73
     1
 44
1.32052821128451
  0
MTEXT
  5
170
330
1F
100
AcDbEntity
  8
1
 62
     7
100
AcDbMText
 10
85.5
 20
21.375
 30
0.0
 40
5.25
 41
0.0
 71
     5
 72
     1
  1
Y105-13
  7
CONVERTER_2
 73
     1
 44
0.90036014405762
  0
MTEXT
  5
171
330
1F
100
AcDbEntity
  8
1
 62
     7
100
AcDbMText
 10
85.5
 20
34.12500000000001
 30
0.0
 40
5.25
 41
0.0
 71
     5
 72
     1
  1
ミニセラ横水栓
  7
CONVERTER_1
 73
     1
 44
1.32052821128451
  0
MTEXT
  5
172
330
1F
100
AcDbEntity
  8
1
 62
     7
100
AcDbMText
 10
51.0
 20
51.00000000000001
 30
0.0
 40
5.25
 41
0.0
 71
     4
 72
     1
  1
JIS
  7
CONVERTER_2
 73
     1
 44
0.7202881152461
  0
MTEXT
  5
173
330
1F
100
AcDbEntity
  8
1
 62
     7
100
AcDbMText
 10
132.9907105551274
 20
394.3292958237311
 30
0.0
 40
5.25
 41
0.0
 71
     5
 72
     1
  1
PJ1/2
  7
CONVERTER_2
 73
     1
 44
1.32052821128451
  0
MTEXT
  5
174
330
1F
100
AcDbEntity
  8
1
 62
     7
100
AcDbMText
 10
145.082338388701
 20
307.9574929888908
 30
0.0
 40
5.25
 41
0.0
 71
     5
 72
     1
  1
吐水
  7
CONVERTER_1
 73
     1
 44
0.7202881152461
  0
DIMENSION
  5
182
330
1F
100
AcDbEntity
  8
1
100
AcDbDimension
  2
*D06
 10
250.2621777955132
 20
100.7477584457976
 30
0.0
 11
257.2621777955132
 21
104.8727584457976
 31
0.0
  1
<>
 71
     5
 42
0.0
 53
0.00013888888889
  3
ME10_DIM_0
100
AcDbAlignedDimension
 13
264.2621777955132
 23
132.2531805288901
 33
0.0
 14
250.2621777955132
 24
118.7531805288901
 34
0.0
100
AcDbRotatedDimension
  0
DIMENSION
  5
18D
330
1F
100
AcDbEntity
  8
1
100
AcDbDimension
  2
*D18
 10
250.2621777955132
 20
100.7477584457976
 30
0.0
 11
227.7621777955131
 21
104.8727584457976
 31
0.0
  1
<>
 71
     5
 42
0.0
 53
0.00013888888889
  3
ME10_DIM_1
100
AcDbAlignedDimension
 13
205.2621777955132
 23
125.7531805288901
 33
0.0
 14
250.2621777955132
 24
118.7531805288901
 34
0.0
100
AcDbRotatedDimension
  0
DIMENSION
  5
198
330
1F
100
AcDbEntity
  8
1
100
AcDbDimension
  2
*D29
 10
205.2621777955131
 20
100.7477584457976
 30
0.0
 11
187.7621777955131
 21
104.8727584457976
 31
0.0
  1
<>
 71
     5
 42
0.0
 53
0.00013888888889
  3
ME10_DIM_2
100
AcDbAlignedDimension
 13
170.2621777955131
 23
116.7531805288901
 33
0.0
 14
205.2621777955132
 24
125.7531805288901
 34
0.0
100
AcDbRotatedDimension
  0
DIMENSION
  5
1A3
330
1F
100
AcDbEntity
  8
1
100
AcDbDimension
  2
*D310
 10
279.2621777955132
 20
164.7531805288901
 30
0.0
 11
275.1371777955132
 21
141.7531805288901
 31
0.0
  1
<>
 71
     5
 42
0.0
 53
90.0
  3
ME10_DIM_3
100
AcDbAlignedDimension
 13
250.2621777955132
 23
118.7531805288901
 33
0.0
 14
250.2621777955132
 24
164.7531805288901
 34
0.0
 50
90.0
100
AcDbRotatedDimension
  0
DIMENSION
  5
1AE
330
1F
100
AcDbEntity
  8
1
100
AcDbDimension
  2
*D411
 10
147.0736720444722
 20
116.7531805288902
 30
0.0
 11
142.9486720444722
 21
129.2531805288901
 31
0.0
  1
<>
 71
     5
 42
0.0
 53
90.0
  3
ME10_DIM_4
100
AcDbAlignedDimension
 13
163.9095129957485
 23
141.7531805288901
 33
0.0
 14
170.2621777955131
 24
116.7531805288901
 34
0.0
 50
90.0
100
AcDbRotatedDimension
  0
DIMENSION
  5
1B9
330
1F
100
AcDbEntity
  8
1
100
AcDbDimension
  2
*D512
 10
147.0736720444722
 20
141.7531805288901
 30
0.0
 11
142.9486720444722
 21
166.7531805288899
 31
0.0
  1
<>
 71
     5
 42
0.0
 53
90.0
  3
ME10_DIM_5
100
AcDbAlignedDimension
 13
197.7621777955129
 23
191.7531805288897
 33
0.0
 14
163.9095129957485
 24
141.7531805288901
 34
0.0
 50
90.0
100
AcDbRotatedDimension
  0
ENDSEC
  0
SECTION
  2
OBJECTS
  0
DICTIONARY
  5
C
330
0
100
AcDbDictionary
281
     1
  3
ACAD_GROUP
350
D
  3
ACAD_LAYOUT
350
1A
  3
ACAD_MLINESTYLE
350
17
  3
ACAD_PLOTSETTINGS
350
19
  3
ACAD_PLOTSTYLENAME
350
E
  3
ACAD_TABLESTYLE
350
2A
  3
AcDbVariableDictionary
350
2C
  0
DICTIONARY
  5
D
102
{ACAD_REACTORS
330
C
102
}
330
C
100
AcDbDictionary
281
     1
  0
DICTIONARY
  5
1A
102
{ACAD_REACTORS
330
C
102
}
330
C
100
AcDbDictionary
281
     1
  3
Layout1
350
1E
  3
Layout2
350
26
  3
Model
350
22
  0
DICTIONARY
  5
17
102
{ACAD_REACTORS
330
C
102
}
330
C
100
AcDbDictionary
281
     1
  3
Standard
350
18
  0
DICTIONARY
  5
19
102
{ACAD_REACTORS
330
C
102
}
330
C
100
AcDbDictionary
281
     1
  0
ACDBDICTIONARYWDFLT
  5
E
102
{ACAD_REACTORS
330
C
102
}
330
C
100
AcDbDictionary
281
     1
  3
Normal
350
F
100
AcDbDictionaryWithDefault
340
F
  0
DICTIONARY
  5
2A
102
{ACAD_REACTORS
330
C
102
}
330
C
100
AcDbDictionary
281
     1
  3
Standard
350
2B
  0
DICTIONARY
  5
2C
102
{ACAD_REACTORS
330
C
102
}
330
C
100
AcDbDictionary
281
     1
  3
CTABLESTYLE
350
2D
  0
LAYOUT
  5
1E
102
{ACAD_REACTORS
330
1A
102
}
330
1A
100
AcDbPlotSettings
  1

  2

  4

  6

 40
0.0
 41
0.0
 42
0.0
 43
0.0
 44
0.0
 45
0.0
 46
0.0
 47
0.0
 48
0.0
 49
0.0
140
0.0
141
0.0
142
1.0
143
1.0
 70
   688
 72
     0
 73
     0
 74
     5
  7

 75
    16
147
1.0
148
0.0
149
0.0
100
AcDbLayout
  1
Layout1
 70
     1
 71
     1
 10
0.0
 20
0.0
 11
12.0
 21
9.0
 12
0.0
 22
0.0
 32
0.0
 14
1.00000000000000E+20
 24
1.00000000000000E+20
 34
1.00000000000000E+20
 15
-1.00000000000000E+20
 25
-1.00000000000000E+20
 35
-1.00000000000000E+20
146
0.0
 13
0.0
 23
0.0
 33
0.0
 16
1.0
 26
0.0
 36
0.0
 17
0.0
 27
1.0
 37
0.0
 76
     0
330
1B
  0
LAYOUT
  5
26
102
{ACAD_REACTORS
330
1A
102
}
330
1A
100
AcDbPlotSettings
  1

  2

  4

  6

 40
0.0
 41
0.0
 42
0.0
 43
0.0
 44
0.0
 45
0.0
 46
0.0
 47
0.0
 48
0.0
 49
0.0
140
0.0
141
0.0
142
1.0
143
1.0
 70
   688
 72
     0
 73
     0
 74
     5
  7

 75
    16
147
1.0
148
0.0
149
0.0
100
AcDbLayout
  1
Layout2
 70
     1
 71
     2
 10
0.0
 20
0.0
 11
0.0
 21
0.0
 12
0.0
 22
0.0
 32
0.0
 14
0.0
 24
0.0
 34
0.0
 15
0.0
 25
0.0
 35
0.0
146
0.0
 13
0.0
 23
0.0
 33
0.0
 16
1.0
 26
0.0
 36
0.0
 17
0.0
 27
1.0
 37
0.0
 76
     0
330
23
  0
LAYOUT
  5
22
102
{ACAD_REACTORS
330
1A
102
}
330
1A
100
AcDbPlotSettings
  1

  2

  4

  6

 40
0.0
 41
0.0
 42
0.0
 43
0.0
 44
0.0
 45
0.0
 46
0.0
 47
0.0
 48
0.0
 49
0.0
140
0.0
141
0.0
142
1.0
143
1.0
 70
  1712
 72
     0
 73
     0
 74
     0
  7

 75
     0
147
1.0
148
0.0
149
0.0
100
AcDbLayout
  1
Model
 70
     1
 71
     0
 10
0.0
 20
0.0
 11
0.0
 21
0.0
 12
0.0
 22
0.0
 32
0.0
 14
0.0
 24
0.0
 34
0.0
 15
315.0
 25
445.5
 35
0.0
146
0.0
 13
0.0
 23
0.0
 33
0.0
 16
1.0
 26
0.0
 36
0.0
 17
0.0
 27
1.0
 37
0.0
 76
     0
330
1F
  0
MLINESTYLE
  5
18
102
{ACAD_REACTORS
330
17
102
}
330
17
100
AcDbMlineStyle
  2
Standard
 70
     0
  3

 62
   256
 51
90.0
 52
90.0
 71
     2
 49
0.5
 62
   256
  6
BYLAYER
 49
-0.5
 62
   256
  6
BYLAYER
  0
ACDBPLACEHOLDER
  5
F
102
{ACAD_REACTORS
330
E
102
}
330
E
  0
TABLESTYLE
  5
2B
102
{ACAD_REACTORS
330
2A
102
}
330
2A
100
AcDbTableStyle
  3
Standard
 70
     0
 71
     0
 40
0.06
 41
0.06
280
     0
281
     0
  7
Standard
140
0.18
170
     2
 62
     0
 63
     7
283
     0
274
    -2
284
     1
 64
     0
275
    -2
285
     1
 65
     0
276
    -2
286
     1
 66
     0
277
    -2
287
     1
 67
     0
278
    -2
288
     1
 68
     0
279
    -2
289
     1
 69
     0
  7
Standard
140
0.25
170
     5
 62
     0
 63
     7
283
     0
274
    -2
284
     1
 64
     0
275
    -2
285
     1
 65
     0
276
    -2
286
     1
 66
     0
277
    -2
287
     1
 67
     0
278
    -2
288
     1
 68
     0
279
    -2
289
     1
 69
     0
  7
Standard
140
0.18
170
     5
 62
     0
 63
     7
283
     0
274
    -2
284
     1
 64
     0
275
    -2
285
     1
 65
     0
276
    -2
286
     1
 66
     0
277
    -2
287
     1
 67
     0
278
    -2
288
     1
 68
     0
279
    -2
289
     1
 69
     0
  0
DICTIONARYVAR
  5
2D
102
{ACAD_REACTORS
330
2C
102
}
330
2C
100
DictionaryVariables
280
     0
  1
Standard
  0
ENDSEC
  0
EOF
