  0
SECTION
  2
HEADER
  9
$ACADVER
  1
AC1015
  9
$ACADMAINTVER
 70
     6
  9
$DWGCODEPAGE
  3
ANSI_932
  9
$INSBASE
 10
0.0
 20
0.0
 30
0.0
  9
$EXTMIN
 10
0.0
 20
0.0
 30
0.0
  9
$EXTMAX
 10
315.0
 20
445.5
 30
0.0
  9
$LIMMIN
 10
0.0
 20
0.0
  9
$LIMMAX
 10
12.0
 20
9.0
  9
$ORTHOMODE
 70
     0
  9
$REGENMODE
 70
     1
  9
$FILLMODE
 70
     1
  9
$QTEXTMODE
 70
     0
  9
$MIRRTEXT
 70
     1
  9
$LTSCALE
 40
1.0
  9
$ATTMODE
 70
     1
  9
$TEXTSIZE
 40
0.2
  9
$TRACEWID
 40
0.05
  9
$TEXTSTYLE
  7
Standard
  9
$CLAYER
  8
0
  9
$CELTYPE
  6
ByLayer
  9
$CECOLOR
 62
   256
  9
$CELTSCALE
 40
1.0
  9
$DISPSILH
 70
     0
  9
$DIMSCALE
 40
1.0
  9
$DIMASZ
 40
0.18
  9
$DIMEXO
 40
0.0625
  9
$DIMDLI
 40
0.38
  9
$DIMRND
 40
0.0
  9
$DIMDLE
 40
0.0
  9
$DIMEXE
 40
0.18
  9
$DIMTP
 40
0.0
  9
$DIMTM
 40
0.0
  9
$DIMTXT
 40
0.18
  9
$DIMCEN
 40
0.09
  9
$DIMTSZ
 40
0.0
  9
$DIMTOL
 70
     0
  9
$DIMLIM
 70
     0
  9
$DIMTIH
 70
     1
  9
$DIMTOH
 70
     1
  9
$DIMSE1
 70
     0
  9
$DIMSE2
 70
     0
  9
$DIMTAD
 70
     0
  9
$DIMZIN
 70
     0
  9
$DIMBLK
  1

  9
$DIMASO
 70
     1
  9
$DIMSHO
 70
     1
  9
$DIMPOST
  1

  9
$DIMAPOST
  1

  9
$DIMALT
 70
     0
  9
$DIMALTD
 70
     2
  9
$DIMALTF
 40
25.4
  9
$DIMLFAC
 40
1.0
  9
$DIMTOFL
 70
     0
  9
$DIMTVP
 40
0.0
  9
$DIMTIX
 70
     0
  9
$DIMSOXD
 70
     0
  9
$DIMSAH
 70
     0
  9
$DIMBLK1
  1

  9
$DIMBLK2
  1

  9
$DIMSTYLE
  2
Standard
  9
$DIMCLRD
 70
     0
  9
$DIMCLRE
 70
     0
  9
$DIMCLRT
 70
     0
  9
$DIMTFAC
 40
1.0
  9
$DIMGAP
 40
0.09
  9
$DIMJUST
 70
     0
  9
$DIMSD1
 70
     0
  9
$DIMSD2
 70
     0
  9
$DIMTOLJ
 70
     1
  9
$DIMTZIN
 70
     0
  9
$DIMALTZ
 70
     0
  9
$DIMALTTZ
 70
     0
  9
$DIMUPT
 70
     0
  9
$DIMDEC
 70
     4
  9
$DIMTDEC
 70
     4
  9
$DIMALTU
 70
     2
  9
$DIMALTTD
 70
     2
  9
$DIMTXSTY
  7
Standard
  9
$DIMAUNIT
 70
     0
  9
$DIMADEC
 70
     0
  9
$DIMALTRND
 40
0.0
  9
$DIMAZIN
 70
     0
  9
$DIMDSEP
 70
    46
  9
$DIMATFIT
 70
     3
  9
$DIMFRAC
 70
     0
  9
$DIMLDRBLK
  1

  9
$DIMLUNIT
 70
     2
  9
$DIMLWD
 70
    -2
  9
$DIMLWE
 70
    -2
  9
$DIMTMOVE
 70
     0
  9
$LUNITS
 70
     2
  9
$LUPREC
 70
     4
  9
$SKETCHINC
 40
0.1
  9
$FILLETRAD
 40
0.5
  9
$AUNITS
 70
     0
  9
$AUPREC
 70
     0
  9
$MENU
  1
.
  9
$ELEVATION
 40
0.0
  9
$PELEVATION
 40
0.0
  9
$THICKNESS
 40
0.0
  9
$LIMCHECK
 70
     0
  9
$CHAMFERA
 40
0.5
  9
$CHAMFERB
 40
0.5
  9
$CHAMFERC
 40
1.0
  9
$CHAMFERD
 40
0.0
  9
$SKPOLY
 70
     0
  9
$TDCREATE
 40
2456556.614024711
  9
$TDUCREATE
 40
2456556.239024711
  9
$TDUPDATE
 40
2456556.614025613
  9
$TDUUPDATE
 40
2456556.239025613
  9
$TDINDWG
 40
0.0000000116
  9
$TDUSRTIMER
 40
0.0000000116
  9
$USRTIMER
 70
     1
  9
$ANGBASE
 50
0.0
  9
$ANGDIR
 70
     0
  9
$PDMODE
 70
     0
  9
$PDSIZE
 40
0.0
  9
$PLINEWID
 40
0.0
  9
$SPLFRAME
 70
     0
  9
$SPLINETYPE
 70
     6
  9
$SPLINESEGS
 70
     8
  9
$HANDSEED
  5
23C
  9
$SURFTAB1
 70
     6
  9
$SURFTAB2
 70
     6
  9
$SURFTYPE
 70
     6
  9
$SURFU
 70
     6
  9
$SURFV
 70
     6
  9
$UCSBASE
  2

  9
$UCSNAME
  2

  9
$UCSORG
 10
0.0
 20
0.0
 30
0.0
  9
$UCSXDIR
 10
1.0
 20
0.0
 30
0.0
  9
$UCSYDIR
 10
0.0
 20
1.0
 30
0.0
  9
$UCSORTHOREF
  2

  9
$UCSORTHOVIEW
 70
     0
  9
$UCSORGTOP
 10
0.0
 20
0.0
 30
0.0
  9
$UCSORGBOTTOM
 10
0.0
 20
0.0
 30
0.0
  9
$UCSORGLEFT
 10
0.0
 20
0.0
 30
0.0
  9
$UCSORGRIGHT
 10
0.0
 20
0.0
 30
0.0
  9
$UCSORGFRONT
 10
0.0
 20
0.0
 30
0.0
  9
$UCSORGBACK
 10
0.0
 20
0.0
 30
0.0
  9
$PUCSBASE
  2

  9
$PUCSNAME
  2

  9
$PUCSORG
 10
0.0
 20
0.0
 30
0.0
  9
$PUCSXDIR
 10
1.0
 20
0.0
 30
0.0
  9
$PUCSYDIR
 10
0.0
 20
1.0
 30
0.0
  9
$PUCSORTHOREF
  2

  9
$PUCSORTHOVIEW
 70
     0
  9
$PUCSORGTOP
 10
0.0
 20
0.0
 30
0.0
  9
$PUCSORGBOTTOM
 10
0.0
 20
0.0
 30
0.0
  9
$PUCSORGLEFT
 10
0.0
 20
0.0
 30
0.0
  9
$PUCSORGRIGHT
 10
0.0
 20
0.0
 30
0.0
  9
$PUCSORGFRONT
 10
0.0
 20
0.0
 30
0.0
  9
$PUCSORGBACK
 10
0.0
 20
0.0
 30
0.0
  9
$USERI1
 70
     0
  9
$USERI2
 70
     0
  9
$USERI3
 70
     0
  9
$USERI4
 70
     0
  9
$USERI5
 70
     0
  9
$USERR1
 40
18.1
  9
$USERR2
 40
0.0
  9
$USERR3
 40
0.0
  9
$USERR4
 40
0.0
  9
$USERR5
 40
0.0
  9
$WORLDVIEW
 70
     1
  9
$SHADEDGE
 70
     3
  9
$SHADEDIF
 70
    70
  9
$TILEMODE
 70
     1
  9
$MAXACTVP
 70
    64
  9
$PINSBASE
 10
0.0
 20
0.0
 30
0.0
  9
$PLIMCHECK
 70
     0
  9
$PEXTMIN
 10
1.00000000000000E+20
 20
1.00000000000000E+20
 30
1.00000000000000E+20
  9
$PEXTMAX
 10
-1.00000000000000E+20
 20
-1.00000000000000E+20
 30
-1.00000000000000E+20
  9
$PLIMMIN
 10
0.0
 20
0.0
  9
$PLIMMAX
 10
12.0
 20
9.0
  9
$UNITMODE
 70
     0
  9
$VISRETAIN
 70
     1
  9
$PLINEGEN
 70
     0
  9
$PSLTSCALE
 70
     1
  9
$TREEDEPTH
 70
  3020
  9
$CMLSTYLE
  2
Standard
  9
$CMLJUST
 70
     0
  9
$CMLSCALE
 40
1.0
  9
$PROXYGRAPHICS
 70
     1
  9
$MEASUREMENT
 70
     1
  9
$CELWEIGHT
370
    -1
  9
$ENDCAPS
280
     0
  9
$JOINSTYLE
280
     0
  9
$LWDISPLAY
290
     0
  9
$INSUNITS
 70
     4
  9
$HYPERLINKBASE
  1

  9
$STYLESHEET
  1

  9
$XEDIT
290
     1
  9
$CEPSNTYPE
380
     0
  9
$PSTYLEMODE
290
     1
  9
$FINGERPRINTGUID
  2
{5750E0E8-4B36-447D-9314-002AA0ADE9D8}
  9
$VERSIONGUID
  2
{FAEB1C32-E019-11D5-929B-00C0DF256EC4}
  9
$EXTNAMES
290
     1
  9
$PSVPSCALE
 40
0.0
  9
$OLESTARTUP
290
     0
  0
ENDSEC
  0
SECTION
  2
CLASSES
  0
CLASS
  1
ACDBDICTIONARYWDFLT
  2
AcDbDictionaryWithDefault
  3
ObjectDBX Classes
 90
        0
280
     0
281
     0
  0
CLASS
  1
VISUALSTYLE
  2
AcDbVisualStyle
  3
ObjectDBX Classes
 90
     4095
280
     0
281
     0
  0
CLASS
  1
MATERIAL
  2
AcDbMaterial
  3
ObjectDBX Classes
 90
     1153
280
     0
281
     0
  0
CLASS
  1
DICTIONARYVAR
  2
AcDbDictionaryVar
  3
ObjectDBX Classes
 90
        0
280
     0
281
     0
  0
CLASS
  1
ACDBPLACEHOLDER
  2
AcDbPlaceHolder
  3
ObjectDBX Classes
 90
        0
280
     0
281
     0
  0
CLASS
  1
LAYOUT
  2
AcDbLayout
  3
ObjectDBX Classes
 90
        0
280
     0
281
     0
  0
ENDSEC
  0
SECTION
  2
TABLES
  0
TABLE
  2
VPORT
  5
8
330
0
100
AcDbSymbolTable
 70
     1
  0
VPORT
  5
29
330
8
100
AcDbSymbolTableRecord
100
AcDbViewportTableRecord
  2
*Active
 70
     0
 10
0.0
 20
0.0
 11
1.0
 21
1.0
 12
157.5
 22
222.75
 13
0.0
 23
0.0
 14
0.5
 24
0.5
 15
0.5
 25
0.5
 16
0.0
 26
0.0
 36
1.0
 17
0.0
 27
0.0
 37
0.0
 40
490.05
 41
1.60267857142857
 42
50.0
 43
0.0
 44
0.0
 50
0.0
 51
0.0
 71
     0
 72
   100
 73
     1
 74
     3
 75
     0
 76
     0
 77
     0
 78
     0
281
     0
 65
     1
110
0.0
120
0.0
130
0.0
111
1.0
121
0.0
131
0.0
112
0.0
122
1.0
132
0.0
 79
     0
146
0.0
  0
ENDTAB
  0
TABLE
  2
LTYPE
  5
5
330
0
100
AcDbSymbolTable
 70
     8
  0
LTYPE
  5
14
330
5
100
AcDbSymbolTableRecord
100
AcDbLinetypeTableRecord
  2
ByBlock
 70
     0
  3

 72
    65
 73
     0
 40
0.0
  0
LTYPE
  5
15
330
5
100
AcDbSymbolTableRecord
100
AcDbLinetypeTableRecord
  2
ByLayer
 70
     0
  3

 72
    65
 73
     0
 40
0.0
  0
LTYPE
  5
16
330
5
100
AcDbSymbolTableRecord
100
AcDbLinetypeTableRecord
  2
Continuous
 70
     0
  3
Solid line
 72
    65
 73
     0
 40
0.0
  0
LTYPE
  5
3F
330
5
100
AcDbSymbolTableRecord
100
AcDbLinetypeTableRecord
  2
DASHED
 70
     0
  3
Dashed
 72
    65
 73
     2
 40
15.0
 49
7.0
 74
     0
 49
-8.0
 74
     0
  0
LTYPE
  5
40
330
5
100
AcDbSymbolTableRecord
100
AcDbLinetypeTableRecord
  2
DOTTED
 70
     0
  3
Dotted
 72
    65
 73
     2
 40
1.0
 49
0.0
 74
     0
 49
-1.0
 74
     0
  0
LTYPE
  5
41
330
5
100
AcDbSymbolTableRecord
100
AcDbLinetypeTableRecord
  2
DOT_CENTER
 70
     0
  3
Dot_Center
 72
    65
 73
     4
 40
14.0
 49
12.0
 74
     0
 49
-1.0
 74
     0
 49
0.0
 74
     0
 49
-1.0
 74
     0
  0
LTYPE
  5
42
330
5
100
AcDbSymbolTableRecord
100
AcDbLinetypeTableRecord
  2
LONG_DASHED
 70
     0
  3
Long_Dashed
 72
    65
 73
     2
 40
15.0
 49
10.0
 74
     0
 49
-5.0
 74
     0
  0
LTYPE
  5
43
330
5
100
AcDbSymbolTableRecord
100
AcDbLinetypeTableRecord
  2
DASH_CENTER
 70
     0
  3
Dash_Center
 72
    65
 73
     4
 40
14.0
 49
11.0
 74
     0
 49
-1.0
 74
     0
 49
1.0
 74
     0
 49
-1.0
 74
     0
  0
LTYPE
  5
44
330
5
100
AcDbSymbolTableRecord
100
AcDbLinetypeTableRecord
  2
PHANTOM
 70
     0
  3
Phantom
 72
    65
 73
     6
 40
13.0
 49
10.0
 74
     0
 49
-1.0
 74
     0
 49
0.0
 74
     0
 49
-1.0
 74
     0
 49
0.0
 74
     0
 49
-1.0
 74
     0
  0
LTYPE
  5
45
330
5
100
AcDbSymbolTableRecord
100
AcDbLinetypeTableRecord
  2
CENTER_DASH_DASH
 70
     0
  3
Center_Dash_Dash
 72
    65
 73
     6
 40
14.0
 49
9.0
 74
     0
 49
-1.0
 74
     0
 49
1.0
 74
     0
 49
-1.0
 74
     0
 49
1.0
 74
     0
 49
-1.0
 74
     0
  0
ENDTAB
  0
TABLE
  2
LAYER
  5
2
330
0
100
AcDbSymbolTable
 70
     2
  0
LAYER
  5
10
330
2
100
AcDbSymbolTableRecord
100
AcDbLayerTableRecord
  2
0
 70
     0
 62
     7
  6
Continuous
370
    -3
390
F
  0
LAYER
  5
46
330
2
100
AcDbSymbolTableRecord
100
AcDbLayerTableRecord
  2
1
 70
     0
 62
     7
  6
Continuous
370
    -3
390
F
  0
ENDTAB
  0
TABLE
  2
STYLE
  5
3
330
0
100
AcDbSymbolTable
 70
     3
  0
STYLE
  5
11
330
3
100
AcDbSymbolTableRecord
100
AcDbTextStyleTableRecord
  2
Standard
 70
     0
 40
0.0
 41
1.0
 50
0.0
 71
     0
 42
0.2
  3
txt
  4

  0
STYLE
  5
1A9
330
3
100
AcDbSymbolTableRecord
100
AcDbTextStyleTableRecord
  2
CONVERTER_11
 70
     0
 40
0.0
 41
0.89
 50
0.0
 71
     0
 42
0.2
  3
MS Mincho.ttf
  4

1001
ACAD
1000
MS Mincho
1071
    32785
  0
STYLE
  5
1C5
330
3
100
AcDbSymbolTableRecord
100
AcDbTextStyleTableRecord
  2
CONVERTER_12
 70
     0
 40
0.0
 41
0.9
 50
0.0
 71
     0
 42
0.2
  3
txt.shx
  4

  0
ENDTAB
  0
TABLE
  2
VIEW
  5
6
330
0
100
AcDbSymbolTable
 70
     0
  0
ENDTAB
  0
TABLE
  2
UCS
  5
7
330
0
100
AcDbSymbolTable
 70
     0
  0
ENDTAB
  0
TABLE
  2
APPID
  5
9
330
0
100
AcDbSymbolTable
 70
     1
  0
APPID
  5
12
330
9
100
AcDbSymbolTableRecord
100
AcDbRegAppTableRecord
  2
ACAD
 70
     0
  0
ENDTAB
  0
TABLE
  2
DIMSTYLE
  5
A
330
0
100
AcDbSymbolTable
 70
     7
100
AcDbDimStyleTable
  0
DIMSTYLE
105
27
330
A
100
AcDbSymbolTableRecord
100
AcDbDimStyleTableRecord
  2
Standard
 70
     0
178
     0
340
11
  0
DIMSTYLE
105
1D5
102
{ACAD_REACTORS
330
1D6
102
}
330
A
100
AcDbSymbolTableRecord
100
AcDbDimStyleTableRecord
  2
ME10_DIM_10
 70
     0
 41
5.25
 42
0.0
 44
1.5
 73
     0
 74
     0
 77
     1
 78
     8
140
5.25
147
1.5
172
     1
173
     1
174
     1
175
     1
176
     2
177
     2
271
     2
178
     7
271
     2
340
1C5
  0
DIMSTYLE
105
1E0
102
{ACAD_REACTORS
330
1E1
102
}
330
A
100
AcDbSymbolTableRecord
100
AcDbDimStyleTableRecord
  2
ME10_DIM_11
 70
     0
 41
5.25
 42
0.0
 44
1.5
 73
     0
 74
     0
 77
     1
 78
     8
140
5.25
147
1.5
172
     1
173
     1
174
     1
175
     1
176
     2
177
     2
271
     2
178
     7
271
     2
340
1C5
  0
DIMSTYLE
105
1EE
102
{ACAD_REACTORS
330
1EF
102
}
330
A
100
AcDbSymbolTableRecord
100
AcDbDimStyleTableRecord
  2
ME10_DIM_12
 70
     0
 41
4.5
 42
0.0
 44
1.5
 73
     0
 74
     0
 77
     1
 78
     8
140
5.25
147
1.5
172
     1
173
     1
174
     1
175
     1
176
     2
177
     2
271
     2
178
     7
271
     2
340
1C5
343
1EB
  0
DIMSTYLE
105
1F9
102
{ACAD_REACTORS
330
1FA
102
}
330
A
100
AcDbSymbolTableRecord
100
AcDbDimStyleTableRecord
  2
ME10_DIM_13
 70
     0
 41
5.25
 42
0.0
 44
1.5
 73
     0
 74
     0
 77
     1
 78
     8
140
5.25
147
1.5
172
     1
173
     1
174
     1
175
     1
176
     2
177
     2
271
     2
178
     7
271
     2
340
1C5
  0
DIMSTYLE
105
204
102
{ACAD_REACTORS
330
205
102
}
330
A
100
AcDbSymbolTableRecord
100
AcDbDimStyleTableRecord
  2
ME10_DIM_14
 70
     0
  3
{\Fgdt;n}<>
 41
5.25
 42
0.0
 44
1.5
 73
     0
 74
     0
 77
     1
 78
     8
140
5.25
147
1.5
172
     1
173
     1
174
     1
175
     1
176
     2
177
     2
271
     2
178
     7
271
     2
340
1C5
  0
DIMSTYLE
105
20F
102
{ACAD_REACTORS
330
210
102
}
330
A
100
AcDbSymbolTableRecord
100
AcDbDimStyleTableRecord
  2
ME10_DIM_15
 70
     0
 41
5.25
 42
0.0
 44
1.5
 73
     0
 74
     0
 77
     1
 78
     8
140
5.25
147
1.5
172
     1
173
     1
174
     1
175
     1
176
     2
177
     2
271
     2
178
     7
271
     2
340
1A9
  0
ENDTAB
  0
TABLE
  2
BLOCK_RECORD
  5
1
330
0
100
AcDbSymbolTable
 70
    15
  0
BLOCK_RECORD
  5
1F
330
1
100
AcDbSymbolTableRecord
100
AcDbBlockTableRecord
  2
*Model_Space
340
22
  0
BLOCK_RECORD
  5
1B
330
1
100
AcDbSymbolTableRecord
100
AcDbBlockTableRecord
  2
*Paper_Space
340
1E
  0
BLOCK_RECORD
  5
23
330
1
100
AcDbSymbolTableRecord
100
AcDbBlockTableRecord
  2
*Paper_Space0
340
26
  0
BLOCK_RECORD
  5
47
330
1
100
AcDbSymbolTableRecord
100
AcDbBlockTableRecord
  2
Y10-0-13
340
0
102
{BLKREFS
331
60
102
}
  0
BLOCK_RECORD
  5
4A
330
1
100
AcDbSymbolTableRecord
100
AcDbBlockTableRecord
  2
36-1A-13-M4
340
0
102
{BLKREFS
331
57
102
}
  0
BLOCK_RECORD
  5
4D
330
1
100
AcDbSymbolTableRecord
100
AcDbBlockTableRecord
  2
42-1
340
0
102
{BLKREFS
331
58
102
}
  0
BLOCK_RECORD
  5
50
330
1
100
AcDbSymbolTableRecord
100
AcDbBlockTableRecord
  2
21-1C
340
0
102
{BLKREFS
331
59
102
}
  0
BLOCK_RECORD
  5
53
330
1
100
AcDbSymbolTableRecord
100
AcDbBlockTableRecord
  2
37-1-13
340
0
102
{BLKREFS
331
5A
102
}
  0
BLOCK_RECORD
  5
56
330
1
100
AcDbSymbolTableRecord
100
AcDbBlockTableRecord
  2
R10A-13
340
0
102
{BLKREFS
331
61
102
}
  0
BLOCK_RECORD
  5
5D
330
1
100
AcDbSymbolTableRecord
100
AcDbBlockTableRecord
  2
開示A4
340
0
102
{BLKREFS
331
62
102
}
  0
BLOCK_RECORD
  5
1CC
330
1
100
AcDbSymbolTableRecord
100
AcDbBlockTableRecord
  2
*D8
340
0
  0
BLOCK_RECORD
  5
1D7
330
1
100
AcDbSymbolTableRecord
100
AcDbBlockTableRecord
  2
*D9
340
0
  0
BLOCK_RECORD
  5
1E2
330
1
100
AcDbSymbolTableRecord
100
AcDbBlockTableRecord
  2
*D10
340
0
  0
BLOCK_RECORD
  5
1EB
330
1
100
AcDbSymbolTableRecord
100
AcDbBlockTableRecord
  2
_NONE
340
0
  0
BLOCK_RECORD
  5
1F0
330
1
100
AcDbSymbolTableRecord
100
AcDbBlockTableRecord
  2
*D12
340
0
  0
BLOCK_RECORD
  5
1FB
330
1
100
AcDbSymbolTableRecord
100
AcDbBlockTableRecord
  2
*D13
340
0
  0
BLOCK_RECORD
  5
206
330
1
100
AcDbSymbolTableRecord
100
AcDbBlockTableRecord
  2
*D14
340
0
  0
ENDTAB
  0
ENDSEC
  0
SECTION
  2
BLOCKS
  0
BLOCK
  5
20
330
1F
100
AcDbEntity
  8
0
100
AcDbBlockBegin
  2
*Model_Space
 70
     0
 10
0.0
 20
0.0
 30
0.0
  3
*Model_Space
  1

  0
ENDBLK
  5
21
330
1F
100
AcDbEntity
  8
0
100
AcDbBlockEnd
  0
BLOCK
  5
1C
330
1B
100
AcDbEntity
 67
     1
  8
0
100
AcDbBlockBegin
  2
*Paper_Space
 70
     0
 10
0.0
 20
0.0
 30
0.0
  3
*Paper_Space
  1

  0
ENDBLK
  5
1D
330
1B
100
AcDbEntity
 67
     1
  8
0
100
AcDbBlockEnd
  0
BLOCK
  5
24
330
23
100
AcDbEntity
  8
0
100
AcDbBlockBegin
  2
*Paper_Space0
 70
     0
 10
0.0
 20
0.0
 30
0.0
  3
*Paper_Space0
  1

  0
ENDBLK
  5
25
330
23
100
AcDbEntity
  8
0
100
AcDbBlockEnd
  0
BLOCK
  5
48
330
47
100
AcDbEntity
  8
0
100
AcDbBlockBegin
  2
Y10-0-13
 70
     0
 10
-165.6185839491855
 20
162.5671871155035
 30
0.0
  3
Y10-0-13
  1

  0
LINE
  5
63
330
47
100
AcDbEntity
  8
0
  6
Continuous
 62
     7
100
AcDbLine
 10
82.63141605081458
 20
366.5650361823407
 30
0.0
 11
108.1314160508145
 21
366.5650361823407
 31
0.0
  0
LINE
  5
64
330
47
100
AcDbEntity
  8
1
  6
Continuous
 62
     7
100
AcDbLine
 10
108.1314160508145
 20
366.5650361823407
 30
0.0
 11
117.9206455986784
 21
366.5650361823407
 31
0.0
  0
LINE
  5
65
330
47
100
AcDbEntity
  8
1
  6
Continuous
 62
     7
100
AcDbLine
 10
104.1314160508145
 20
300.0817762942033
 30
0.0
 11
103.6314160508145
 21
289.1012996033784
 31
0.0
  0
LINE
  5
66
330
47
100
AcDbEntity
  8
1
  6
Continuous
 62
     7
100
AcDbLine
 10
86.63141605081447
 20
300.0817762942033
 30
0.0
 11
87.13141605081447
 21
289.1012996033784
 31
0.0
  0
LINE
  5
67
330
47
100
AcDbEntity
  8
1
  6
Continuous
 62
     7
100
AcDbLine
 10
163.3814160508146
 20
137.5671871155035
 30
0.0
 11
171.5699218018555
 21
136.5617650324111
 31
0.0
  0
LINE
  5
68
330
47
100
AcDbEntity
  8
1
  6
Continuous
 62
     7
100
AcDbLine
 10
155.1929102997736
 20
138.572609198596
 30
0.0
 11
163.3814160508146
 21
137.5671871155035
 31
0.0
  0
LINE
  5
69
330
47
100
AcDbEntity
  8
1
  6
Continuous
 62
     7
100
AcDbLine
 10
171.5699218018555
 20
136.5617650324111
 30
0.0
 11
172.8806836186836
 21
147.2370633532209
 31
0.0
  0
LINE
  5
6A
330
47
100
AcDbEntity
  8
1
  6
Continuous
 62
     7
100
AcDbLine
 10
155.1929102997736
 20
138.572609198596
 30
0.0
 11
157.3845828324158
 21
156.4223495611107
 31
0.0
  0
LINE
  5
6B
330
47
100
AcDbEntity
  8
1
  6
Continuous
 62
     7
100
AcDbLine
 10
85.88141605081447
 20
382.1012996033782
 30
0.0
 11
104.8814160508145
 21
382.1012996033782
 31
0.0
  0
LINE
  5
6C
330
47
100
AcDbEntity
  8
1
  6
Continuous
 62
     7
100
AcDbLine
 10
85.88141605081447
 20
370.8333504109471
 30
0.0
 11
104.8814160508145
 21
370.8333504109471
 31
0.0
  0
LINE
  5
6D
330
47
100
AcDbEntity
  8
1
  6
Continuous
 62
     7
100
AcDbLine
 10
84.88141605081447
 20
369.1012996033782
 30
0.0
 11
105.8814160508145
 21
369.1012996033782
 31
0.0
  0
LINE
  5
6E
330
47
100
AcDbEntity
  8
1
  6
Continuous
 62
     7
100
AcDbLine
 10
72.84218650295057
 20
366.5650361823407
 30
0.0
 11
82.63141605081458
 21
366.5650361823407
 31
0.0
  0
LINE
  5
6F
330
47
100
AcDbEntity
  8
1
  6
Continuous
 62
     7
100
AcDbLine
 10
95.38141605081447
 20
383.1012996033782
 30
0.0
 11
85.88141605081447
 21
383.1012996033782
 31
0.0
  0
LINE
  5
70
330
47
100
AcDbEntity
  8
1
  6
Continuous
 62
     7
100
AcDbLine
 10
105.8814160508145
 20
370.8333504109471
 30
0.0
 11
105.8814160508145
 21
369.1012996033782
 31
0.0
  0
LINE
  5
71
330
47
100
AcDbEntity
  8
1
  6
Continuous
 62
     7
100
AcDbLine
 10
95.38141605081447
 20
383.1012996033782
 30
0.0
 11
104.8814160508145
 21
383.1012996033782
 31
0.0
  0
LINE
  5
72
330
47
100
AcDbEntity
  8
1
  6
Continuous
 62
     7
100
AcDbLine
 10
105.8814160508145
 20
382.1012996033782
 30
0.0
 11
104.8814160508145
 21
383.1012996033782
 31
0.0
  0
LINE
  5
73
330
47
100
AcDbEntity
  8
1
  6
Continuous
 62
     7
100
AcDbLine
 10
105.8814160508145
 20
370.8333504109471
 30
0.0
 11
104.8814160508145
 21
370.8333504109471
 31
0.0
  0
LINE
  5
74
330
47
100
AcDbEntity
  8
1
  6
Continuous
 62
     7
100
AcDbLine
 10
105.8814160508145
 20
382.1012996033782
 30
0.0
 11
105.8814160508145
 21
370.8333504109471
 31
0.0
  0
LINE
  5
75
330
47
100
AcDbEntity
  8
1
  6
Continuous
 62
     7
100
AcDbLine
 10
104.8814160508145
 20
382.1012996033782
 30
0.0
 11
105.8814160508145
 21
382.1012996033782
 31
0.0
  0
LINE
  5
76
330
47
100
AcDbEntity
  8
1
  6
Continuous
 62
     7
100
AcDbLine
 10
84.88141605081447
 20
382.1012996033782
 30
0.0
 11
85.88141605081447
 21
382.1012996033782
 31
0.0
  0
LINE
  5
77
330
47
100
AcDbEntity
  8
1
  6
Continuous
 62
     7
100
AcDbLine
 10
84.88141605081447
 20
370.8333504109471
 30
0.0
 11
84.88141605081447
 21
382.1012996033782
 31
0.0
  0
LINE
  5
78
330
47
100
AcDbEntity
  8
1
  6
Continuous
 62
     7
100
AcDbLine
 10
85.88141605081447
 20
370.8333504109471
 30
0.0
 11
84.88141605081447
 21
370.8333504109471
 31
0.0
  0
LINE
  5
79
330
47
100
AcDbEntity
  8
1
  6
Continuous
 62
     7
100
AcDbLine
 10
85.88141605081447
 20
383.1012996033782
 30
0.0
 11
84.88141605081447
 21
382.1012996033782
 31
0.0
  0
LINE
  5
7A
330
47
100
AcDbEntity
  8
1
  6
Continuous
 62
     7
100
AcDbLine
 10
84.88141605081447
 20
369.1012996033782
 30
0.0
 11
84.88141605081447
 21
370.8333504109471
 31
0.0
  0
LINE
  5
7B
330
47
100
AcDbEntity
  8
1
  6
Continuous
 62
     7
100
AcDbLine
 10
86.63141605081447
 20
362.5650361823407
 30
0.0
 11
86.63141605081447
 21
348.1208229125532
 31
0.0
  0
LINE
  5
7C
330
47
100
AcDbEntity
  8
1
  6
Continuous
 62
     2
100
AcDbLine
 10
85.88141605081447
 20
382.1012996033782
 30
0.0
 11
85.88141605081447
 21
383.1012996033782
 31
0.0
  0
LINE
  5
7D
330
47
100
AcDbEntity
  8
1
  6
Continuous
 62
     2
100
AcDbLine
 10
85.88141605081447
 20
370.8333504109471
 30
0.0
 11
85.88141605081447
 21
382.1012996033782
 31
0.0
  0
LINE
  5
7E
330
47
100
AcDbEntity
  8
1
  6
Continuous
 62
     2
100
AcDbLine
 10
84.88141605081447
 20
369.1012996033782
 30
0.0
 11
85.88141605081447
 21
370.8333504109471
 31
0.0
  0
LINE
  5
7F
330
47
100
AcDbEntity
  8
1
  6
Continuous
 62
     7
100
AcDbLine
 10
72.38141605081447
 20
369.1012996033782
 30
0.0
 11
84.88141605081447
 21
369.1012996033782
 31
0.0
  0
LINE
  5
80
330
47
100
AcDbEntity
  8
1
  6
Continuous
 62
     7
100
AcDbLine
 10
72.38141605081447
 20
369.1012996033782
 30
0.0
 11
72.38141605081447
 21
367.0634948492073
 31
0.0
  0
LINE
  5
81
330
47
100
AcDbEntity
  8
1
  6
Continuous
 62
     7
100
AcDbLine
 10
104.1314160508145
 20
362.5650361823407
 30
0.0
 11
104.1314160508145
 21
348.1208229125532
 31
0.0
  0
LINE
  5
82
330
47
100
AcDbEntity
  8
1
  6
Continuous
 62
     7
100
AcDbLine
 10
118.3814160508145
 20
367.0634948492073
 30
0.0
 11
118.3814160508145
 21
369.1012996033782
 31
0.0
  0
LINE
  5
83
330
47
100
AcDbEntity
  8
1
  6
Continuous
 62
     7
100
AcDbLine
 10
105.8814160508145
 20
369.1012996033782
 30
0.0
 11
118.3814160508145
 21
369.1012996033782
 31
0.0
  0
LINE
  5
84
330
47
100
AcDbEntity
  8
1
  6
Continuous
 62
     2
100
AcDbLine
 10
104.8814160508145
 20
370.8333504109471
 30
0.0
 11
105.8814160508145
 21
369.1012996033782
 31
0.0
  0
LINE
  5
85
330
47
100
AcDbEntity
  8
1
  6
Continuous
 62
     2
100
AcDbLine
 10
104.8814160508145
 20
382.1012996033782
 30
0.0
 11
104.8814160508145
 21
370.8333504109471
 31
0.0
  0
LINE
  5
86
330
47
100
AcDbEntity
  8
1
  6
Continuous
 62
     2
100
AcDbLine
 10
104.8814160508145
 20
383.1012996033782
 30
0.0
 11
104.8814160508145
 21
382.1012996033782
 31
0.0
  0
LINE
  5
87
330
47
100
AcDbEntity
  8
1
  6
Continuous
 62
     7
100
AcDbLine
 10
182.4960964693319
 20
171.7021958663973
 30
0.0
 11
169.5859714150518
 21
169.3517172420594
 31
0.0
  0
LINE
  5
88
330
47
100
AcDbEntity
  8
1
  6
Continuous
 62
     7
100
AcDbLine
 10
240.8893313426624
 20
185.1064166633674
 30
0.0
 11
240.8814160508145
 21
171.3171871155035
 31
0.0
  0
LINE
  5
89
330
47
100
AcDbEntity
  8
1
  6
Continuous
 62
     7
100
AcDbLine
 10
243.3814160508145
 20
185.5671871155035
 30
0.0
 11
241.387790009529
 21
185.5671871155035
 31
0.0
  0
LINE
  5
8A
330
47
100
AcDbEntity
  8
1
  6
Continuous
 62
     7
100
AcDbLine
 10
243.3814160508145
 20
185.5671871155035
 30
0.0
 11
243.3814160508145
 21
173.0671871155035
 31
0.0
  0
LINE
  5
8B
330
47
100
AcDbEntity
  8
1
  6
Continuous
 62
     7
100
AcDbLine
 10
243.3814160508145
 20
173.0671871155035
 30
0.0
 11
256.3814160508144
 21
173.0671871155035
 31
0.0
  0
LINE
  5
8C
330
47
100
AcDbEntity
  8
1
  6
Continuous
 62
     2
100
AcDbLine
 10
243.3814160508145
 20
173.0671871155035
 30
0.0
 11
245.1134668583834
 21
172.0671871155035
 31
0.0
  0
LINE
  5
8D
330
47
100
AcDbEntity
  8
1
  6
Continuous
 62
     2
100
AcDbLine
 10
245.1134668583834
 20
172.0671871155035
 30
0.0
 11
257.3814160508144
 21
172.0671871155035
 31
0.0
  0
LINE
  5
8E
330
47
100
AcDbEntity
  8
1
  6
Continuous
 62
     7
100
AcDbLine
 10
257.3814160508144
 20
172.0671871155035
 30
0.0
 11
257.3814160508144
 21
156.5671871155035
 31
0.0
  0
LINE
  5
8F
330
47
100
AcDbEntity
  8
1
  6
Continuous
 62
     7
100
AcDbLine
 10
257.3814160508144
 20
172.0671871155035
 30
0.0
 11
256.3814160508144
 21
173.0671871155035
 31
0.0
  0
LINE
  5
90
330
47
100
AcDbEntity
  8
1
  6
Continuous
 62
     7
100
AcDbLine
 10
245.1134668583834
 20
172.0671871155035
 30
0.0
 11
245.1134668583834
 21
173.0671871155035
 31
0.0
  0
LINE
  5
91
330
47
100
AcDbEntity
  8
1
  6
Continuous
 62
     7
100
AcDbLine
 10
256.3814160508144
 20
173.0671871155035
 30
0.0
 11
256.3814160508144
 21
172.0671871155035
 31
0.0
  0
LINE
  5
92
330
47
100
AcDbEntity
  8
1
  6
Continuous
 62
     2
100
AcDbLine
 10
257.3814160508144
 20
153.0671871155035
 30
0.0
 11
245.1134668583834
 21
153.0671871155035
 31
0.0
  0
LINE
  5
93
330
47
100
AcDbEntity
  8
1
  6
Continuous
 62
     7
100
AcDbLine
 10
256.3814160508144
 20
153.0671871155035
 30
0.0
 11
256.3814160508144
 21
152.0671871155035
 31
0.0
  0
LINE
  5
94
330
47
100
AcDbEntity
  8
1
  6
Continuous
 62
     7
100
AcDbLine
 10
256.3814160508144
 20
152.0671871155035
 30
0.0
 11
243.3814160508145
 21
152.0671871155035
 31
0.0
  0
LINE
  5
95
330
47
100
AcDbEntity
  8
1
  6
Continuous
 62
     7
100
AcDbLine
 10
245.1134668583834
 20
152.0671871155035
 30
0.0
 11
245.1134668583834
 21
153.0671871155035
 31
0.0
  0
LINE
  5
96
330
47
100
AcDbEntity
  8
1
  6
Continuous
 62
     7
100
AcDbLine
 10
256.3814160508144
 20
152.0671871155035
 30
0.0
 11
257.3814160508144
 21
153.0671871155035
 31
0.0
  0
LINE
  5
97
330
47
100
AcDbEntity
  8
1
  6
Continuous
 62
     2
100
AcDbLine
 10
245.1134668583834
 20
153.0671871155035
 30
0.0
 11
243.3814160508145
 21
152.0671871155035
 31
0.0
  0
LINE
  5
98
330
47
100
AcDbEntity
  8
1
  6
Continuous
 62
     7
100
AcDbLine
 10
243.3814160508145
 20
152.0671871155035
 30
0.0
 11
243.3814160508145
 21
139.5671871155035
 31
0.0
  0
LINE
  5
99
330
47
100
AcDbEntity
  8
1
  6
Continuous
 62
     7
100
AcDbLine
 10
257.3814160508144
 20
156.5671871155035
 30
0.0
 11
257.3814160508144
 21
153.0671871155035
 31
0.0
  0
LINE
  5
9A
330
47
100
AcDbEntity
  8
1
  6
Continuous
 62
     7
100
AcDbLine
 10
210.3814160508146
 20
177.899208092537
 30
0.0
 11
210.3814160508146
 21
187.9968784036885
 31
0.0
  0
LINE
  5
9B
330
47
100
AcDbEntity
  8
1
  6
Continuous
 62
     7
100
AcDbLine
 10
236.845152629777
 20
171.3171871155035
 30
0.0
 11
222.4009393599895
 21
171.3171871155035
 31
0.0
  0
LINE
  5
9C
330
47
100
AcDbEntity
  8
1
  6
Continuous
 62
     2
100
AcDbLine
 10
209.3814160508146
 20
186.5671871155035
 30
0.0
 11
210.3814160508146
 21
184.8351363079346
 31
0.0
  0
LINE
  5
9D
330
47
100
AcDbEntity
  8
1
  6
Continuous
 62
     2
100
AcDbLine
 10
209.3814160508146
 20
187.9968784036885
 30
0.0
 11
209.3814160508146
 21
186.5671871155035
 31
0.0
  0
LINE
  5
9E
330
47
100
AcDbEntity
  8
1
  6
Continuous
 62
     7
100
AcDbLine
 10
209.3814160508146
 20
186.5671871155035
 30
0.0
 11
210.3814160508146
 21
186.5671871155035
 31
0.0
  0
LINE
  5
9F
330
47
100
AcDbEntity
  8
1
  6
Continuous
 62
     7
100
AcDbLine
 10
186.3814160508146
 20
187.9968784036885
 30
0.0
 11
186.3814160508146
 21
177.3171871155035
 31
0.0
  0
LINE
  5
A0
330
47
100
AcDbEntity
  8
1
  6
Continuous
 62
     7
100
AcDbLine
 10
186.3814160508146
 20
186.5671871155035
 30
0.0
 11
187.3814160508146
 21
186.5671871155035
 31
0.0
  0
LINE
  5
A1
330
47
100
AcDbEntity
  8
1
  6
Continuous
 62
     2
100
AcDbLine
 10
187.3814160508146
 20
186.5671871155035
 30
0.0
 11
187.3814160508146
 21
187.9968784036885
 31
0.0
  0
LINE
  5
A2
330
47
100
AcDbEntity
  8
1
  6
Continuous
 62
     2
100
AcDbLine
 10
186.3814160508146
 20
184.8351363079346
 30
0.0
 11
187.3814160508146
 21
186.5671871155035
 31
0.0
  0
LINE
  5
A3
330
47
100
AcDbEntity
  8
1
  6
Continuous
 62
     7
100
AcDbLine
 10
222.4009393599895
 20
153.8171871155035
 30
0.0
 11
236.845152629777
 21
153.8171871155035
 31
0.0
  0
LINE
  5
A4
330
47
100
AcDbEntity
  8
1
  6
Continuous
 62
     7
100
AcDbLine
 10
107.3814160508146
 20
187.9968784036885
 30
0.0
 11
107.3814160508146
 21
168.6499496458017
 31
0.0
  0
LINE
  5
A5
330
47
100
AcDbEntity
  8
1
  6
Continuous
 62
     7
100
AcDbLine
 10
103.6313950492521
 20
137.5650942467472
 30
0.0
 11
104.1296543745621
 21
162.3916131114072
 31
0.0
  0
LINE
  5
A6
330
47
100
AcDbEntity
  8
1
  6
Continuous
 62
     7
100
AcDbLine
 10
87.13143705237698
 20
137.5650942467472
 30
0.0
 11
86.63317772706696
 21
162.3916131114072
 31
0.0
  0
LINE
  5
A7
330
47
100
AcDbEntity
  8
1
  6
PHANTOM
 62
     4
100
AcDbLine
 10
105.7575308240606
 20
137.5671871155035
 30
0.0
 11
84.72669084238748
 21
137.5671871155035
 31
0.0
  0
LINE
  5
A8
330
47
100
AcDbEntity
  8
1
  6
Continuous
 62
     7
100
AcDbLine
 10
240.8814160508145
 20
153.8171871155035
 30
0.0
 11
240.8893313426624
 21
140.0279575676396
 31
0.0
  0
LINE
  5
A9
330
47
100
AcDbEntity
  8
1
  6
Continuous
 62
     7
100
AcDbLine
 10
241.387790009529
 20
139.5671871155035
 30
0.0
 11
243.3814160508145
 21
139.5671871155035
 31
0.0
  0
LINE
  5
AA
330
47
100
AcDbEntity
  8
1
  6
Continuous
 62
     7
100
AcDbLine
 10
243.3814160508145
 20
152.0671871155035
 30
0.0
 11
243.3814160508145
 21
139.5671871155035
 31
0.0
  0
LINE
  5
AB
330
47
100
AcDbEntity
  8
1
  6
Continuous
 62
     7
100
AcDbLine
 10
240.8814160508145
 20
171.3171871155035
 30
0.0
 11
240.8814160508145
 21
153.8171871155035
 31
0.0
  0
LINE
  5
AC
330
47
100
AcDbEntity
  8
1
  6
Continuous
 62
     7
100
AcDbLine
 10
243.3814160508145
 20
152.0671871155035
 30
0.0
 11
243.3814160508145
 21
173.0671871155035
 31
0.0
  0
LINE
  5
AD
330
47
100
AcDbEntity
  8
1
  6
Continuous
 62
     7
100
AcDbLine
 10
245.1134668583834
 20
172.0671871155035
 30
0.0
 11
245.1134668583834
 21
153.0671871155035
 31
0.0
  0
LINE
  5
AE
330
47
100
AcDbEntity
  8
1
  6
Continuous
 62
     7
100
AcDbLine
 10
256.3814160508144
 20
153.0671871155035
 30
0.0
 11
256.3814160508144
 21
172.0671871155035
 31
0.0
  0
LINE
  5
AF
330
47
100
AcDbEntity
  8
1
  6
Continuous
 62
     7
100
AcDbLine
 10
209.3814160508146
 20
186.5671871155035
 30
0.0
 11
187.3814160508146
 21
186.5671871155035
 31
0.0
  0
LINE
  5
B0
330
47
100
AcDbEntity
  8
1
  6
Continuous
 62
     2
100
AcDbLine
 10
106.3814160508146
 20
186.5671871155035
 30
0.0
 11
107.3814160508146
 21
184.8351363079346
 31
0.0
  0
LINE
  5
B1
330
47
100
AcDbEntity
  8
1
  6
Continuous
 62
     2
100
AcDbLine
 10
106.3814160508146
 20
187.9968784036885
 30
0.0
 11
106.3814160508146
 21
186.5671871155035
 31
0.0
  0
LINE
  5
B2
330
47
100
AcDbEntity
  8
1
  6
Continuous
 62
     7
100
AcDbLine
 10
106.3814160508146
 20
186.5671871155035
 30
0.0
 11
107.3814160508146
 21
186.5671871155035
 31
0.0
  0
LINE
  5
B3
330
47
100
AcDbEntity
  8
1
  6
Continuous
 62
     7
100
AcDbLine
 10
83.38141605081458
 20
186.5671871155035
 30
0.0
 11
84.38141605081458
 21
186.5671871155035
 31
0.0
  0
LINE
  5
B4
330
47
100
AcDbEntity
  8
1
  6
Continuous
 62
     2
100
AcDbLine
 10
84.38141605081458
 20
186.5671871155035
 30
0.0
 11
84.38141605081458
 21
187.9968784036885
 31
0.0
  0
LINE
  5
B5
330
47
100
AcDbEntity
  8
1
  6
Continuous
 62
     2
100
AcDbLine
 10
83.38141605081458
 20
184.8351363079346
 30
0.0
 11
84.38141605081458
 21
186.5671871155035
 31
0.0
  0
LINE
  5
B6
330
47
100
AcDbEntity
  8
1
  6
Continuous
 62
     7
100
AcDbLine
 10
106.3814160508146
 20
186.5671871155035
 30
0.0
 11
84.38141605081458
 21
186.5671871155035
 31
0.0
  0
LINE
  5
B7
330
47
100
AcDbEntity
  8
1
  6
Continuous
 62
     7
100
AcDbLine
 10
83.38141605081458
 20
168.6499496458017
 30
0.0
 11
83.38141605081438
 21
187.9968784036885
 31
0.0
  0
ARC
  5
B8
330
47
100
AcDbEntity
  8
1
  6
Continuous
 62
     7
100
AcDbCircle
 10
68.38141605081447
 20
324.1012996033783
 30
0.0
 40
40.00000000000001
100
AcDbArc
 50
342.5423968762779
 51
348.7845600273498
  0
ARC
  5
B9
330
47
100
AcDbEntity
  8
1
  6
Continuous
 62
     7
100
AcDbCircle
 10
95.32369604631486
 20
289.1016726460333
 30
0.0
 40
8.192280003993812
100
AcDbArc
 50
180.0026090135716
 51
270.4036898167376
  0
ARC
  5
BA
330
47
100
AcDbEntity
  8
1
  6
Continuous
 62
     7
100
AcDbCircle
 10
95.43913605531407
 20
289.1016726460333
 30
0.0
 40
8.192280003993776
100
AcDbArc
 50
269.5963101832623
 51
359.9973909864283
  0
ARC
  5
BB
330
47
100
AcDbEntity
  8
1
  6
Continuous
 62
     7
100
AcDbCircle
 10
122.3814160508145
 20
324.1012996033783
 30
0.0
 40
39.99999999999993
100
AcDbArc
 50
191.2154399726501
 51
197.4576031237221
  0
ARC
  5
BC
330
47
100
AcDbEntity
  8
1
  6
Continuous
 62
     7
100
AcDbCircle
 10
122.3814160508145
 20
324.1012996033783
 30
0.0
 40
40.00000000000001
100
AcDbArc
 50
197.4576031237221
 51
200.068054620819
  0
ARC
  5
BD
330
47
100
AcDbEntity
  8
1
  6
Continuous
 62
     7
100
AcDbCircle
 10
68.38141605081447
 20
324.1012996033783
 30
0.0
 40
40.00000000000003
100
AcDbArc
 50
339.931945379181
 51
342.5423968762779
  0
ARC
  5
BE
330
47
100
AcDbEntity
  8
1
  6
Continuous
 62
     7
100
AcDbCircle
 10
198.3814160508146
 20
189.5671871155035
 30
0.0
 40
39.99999999999996
100
AcDbArc
 50
246.7500688339882
 51
290.0680546208191
  0
ARC
  5
BF
330
47
100
AcDbEntity
  8
1
  6
Continuous
 62
     7
100
AcDbCircle
 10
180.3814160508146
 20
177.3171871155035
 30
0.0
 40
5.999999999999965
100
AcDbArc
 50
290.6370416660721
 51
0.0
  0
ARC
  5
C0
330
47
100
AcDbEntity
  8
1
  6
Continuous
 62
     7
100
AcDbCircle
 10
95.38141605081458
 20
162.5671871155035
 30
0.0
 40
13.0
100
AcDbArc
 50
311.1552383244137
 51
18.67171806400808
  0
ARC
  5
C1
330
47
100
AcDbEntity
  8
1
  6
Continuous
 62
     7
100
AcDbCircle
 10
95.38141605081458
 20
162.5671871155035
 30
0.0
 40
8.74999999999995
100
AcDbArc
 50
358.850248617231
 51
181.1497513827689
  0
ARC
  5
C2
330
47
100
AcDbEntity
  8
1
  6
Continuous
 62
     7
100
AcDbCircle
 10
95.38141605081458
 20
162.5671871155035
 30
0.0
 40
13.0000000000001
100
AcDbArc
 50
161.3282819359922
 51
228.8447616755863
  0
ARC
  5
C3
330
47
100
AcDbEntity
  8
1
  6
Continuous
 62
     7
100
AcDbCircle
 10
95.38141605081458
 20
162.5671871155035
 30
0.0
 40
23.00000000000001
100
AcDbArc
 50
0.0
 51
58.55101861062045
  0
ARC
  5
C4
330
47
100
AcDbEntity
  8
1
  6
Continuous
 62
     7
100
AcDbCircle
 10
95.38141605081458
 20
162.5671871155035
 30
0.0
 40
22.99999999999993
100
AcDbArc
 50
291.2108653064246
 51
0.0
  0
ARC
  5
C5
330
47
100
AcDbEntity
  8
1
  6
Continuous
 62
     7
100
AcDbCircle
 10
95.38141605081458
 20
162.5671871155035
 30
0.0
 40
23.00000000000002
100
AcDbArc
 50
121.4489813893795
 51
248.7891346935752
  0
SPLINE
  5
C6
330
47
100
AcDbEntity
  8
1
  6
Continuous
 62
     7
100
AcDbSpline
210
0.0
220
0.0
230
1.0
 70
     8
 71
     3
 72
    43
 73
    39
 74
    37
 42
0.000000001
 43
0.0000000001
 44
0.00000001
 40
0.0
 40
0.0
 40
0.0
 40
0.0
 40
0.1688137882181613
 40
0.3257916627771518
 40
0.5840608838076856
 40
0.8432525037635087
 40
1.210036328130838
 40
1.576450113296007
 40
2.041907684519214
 40
2.507335474681368
 40
3.059042720477578
 40
3.610725058707115
 40
4.232678120931045
 40
4.854618908859297
 40
5.528446420405707
 40
6.202268210570661
 40
6.907902937318803
 40
7.61353509770501
 40
8.3298853491954
 40
9.046235600643472
 40
9.751867760905428
 40
10.45750248744882
 40
11.13132427734522
 40
11.80515178855538
 40
12.42709257611708
 40
13.04904563792598
 40
13.60072797575158
 40
14.15243522111635
 40
14.61786301089828
 40
15.08332058173392
 40
15.44973436659476
 40
15.81651819067992
 40
16.07570981049313
 40
16.33397903154851
 40
16.49095690726047
 40
16.65977069362871
 40
16.71613082869797
 40
16.7642124862907
 40
16.7642124862907
 40
16.7642124862907
 40
16.7642124862907
 10
103.5907431872637
 20
137.6592890105387
 30
0.0
 10
103.5510962639299
 20
137.6998388754042
 30
0.0
 10
103.4745821613166
 20
137.7780955733053
 30
0.0
 10
103.296683160359
 20
137.8634064930643
 30
0.0
 10
103.081622974186
 20
137.9279379184798
 30
0.0
 10
102.7981860170913
 20
138.009341664595
 30
0.0
 10
102.475592760455
 20
138.0832308870682
 30
0.0
 10
102.0827866212354
 20
138.1567222292811
 30
0.0
 10
101.6551985610003
 20
138.2217112136737
 30
0.0
 10
101.1651757712561
 20
138.2859927375008
 30
0.0
 10
100.6453078025009
 20
138.3429508938231
 30
0.0
 10
100.0726153990145
 20
138.3959051090407
 30
0.0
 10
99.47580112146669
 20
138.4414510208675
 30
0.0
 10
98.8378038501972
 20
138.4815625160738
 30
0.0
 10
98.18206834416372
 20
138.5142141460444
 30
0.0
 10
97.49812335728913
 20
138.5403008775067
 30
0.0
 10
96.80332583747969
 20
138.5588196104071
 30
0.0
 10
96.09419736659797
 20
138.5701488533965
 30
0.0
 10
95.38141604680769
 20
138.5738486573983
 30
0.0
 10
94.66863472701925
 20
138.5701488529989
 30
0.0
 10
93.95950625639146
 20
138.5588196094454
 30
0.0
 10
93.2647087363472
 20
138.5403008767044
 30
0.0
 10
92.58076375134179
 20
138.5142141429162
 30
0.0
 10
91.92502823994062
 20
138.4815625197122
 30
0.0
 10
91.28703098879748
 20
138.4414509997537
 30
0.0
 10
90.69021664200119
 20
138.3959051741273
 30
0.0
 10
90.11752447103531
 20
138.3429506708328
 30
0.0
 10
89.59765570313934
 20
138.2859935062553
 30
0.0
 10
89.10763545699974
 20
138.2217088274723
 30
0.0
 10
88.68003891174965
 20
138.1567303692587
 30
0.0
 10
88.28725812518138
 20
138.0832075770656
 30
0.0
 10
87.96458407796251
 20
138.0094185767706
 30
0.0
 10
87.68136627832024
 20
137.9277429626604
 30
0.0
 10
87.4656556573552
 20
137.8640184106107
 30
0.0
 10
87.28934211426017
 20
137.776740706765
 30
0.0
 10
87.19527306265074
 20
137.6903031244854
 30
0.0
 10
87.13771895930648
 20
137.6164516591205
 30
0.0
 10
87.13341730098406
 20
137.581287765034
 30
0.0
 10
87.13143694837166
 20
137.565099435396
 30
0.0
 11
103.5907431872637
 21
137.6592890105387
 31
0.0
 11
103.4657025633636
 21
137.772703897353
 31
0.0
 11
103.326687870267
 21
137.8456214423395
 31
0.0
 11
103.0817020221555
 21
137.9273828295607
 31
0.0
 11
102.8321880322931
 21
137.9975473824117
 31
0.0
 11
102.4749883577026
 21
138.0808466372426
 31
0.0
 11
102.1149383201131
 21
138.1488395191441
 31
0.0
 11
101.6549748975378
 21
138.220144497213
 31
0.0
 11
101.1935098612939
 21
138.280750170307
 31
0.0
 11
100.6451467339149
 21
138.3414029924765
 31
0.0
 11
100.0958234568266
 21
138.3923670861454
 31
0.0
 11
99.47570228566246
 21
138.4400676502669
 31
0.0
 11
98.85499269312892
 21
138.4791821566578
 31
0.0
 11
98.18200978825747
 21
138.5129093589205
 31
0.0
 11
97.50867938810025
 21
138.5386382588941
 31
0.0
 11
96.80329853075806
 21
138.5575647706223
 31
0.0
 11
96.09775634919752
 21
138.5688330906446
 31
0.0
 11
95.38141605081456
 21
138.572609198596
 31
0.0
 11
94.66507575243156
 21
138.5688330906446
 31
0.0
 11
93.95953357087097
 21
138.5575647706223
 31
0.0
 11
93.25415271352882
 21
138.5386382588941
 31
0.0
 11
92.58082231337164
 21
138.5129093589205
 31
0.0
 11
91.90783940850017
 21
138.4791821566578
 31
0.0
 11
91.2871298159666
 21
138.4400676502669
 31
0.0
 11
90.66700864480242
 21
138.3923670861454
 31
0.0
 11
90.11768536771406
 21
138.3414029924765
 31
0.0
 11
89.56932224033503
 21
138.280750170307
 31
0.0
 11
89.10785720409113
 21
138.220144497213
 31
0.0
 11
88.6478937815159
 21
138.1488395191441
 31
0.0
 11
88.2878437439265
 21
138.0808466372426
 31
0.0
 11
87.93064406933594
 21
137.9975473824117
 31
0.0
 11
87.68113007947356
 21
137.9273828295607
 31
0.0
 11
87.43614423136205
 21
137.8456214423395
 31
0.0
 11
87.29712953826541
 21
137.772703897353
 31
0.0
 11
87.17208891436539
 21
137.6592890105387
 31
0.0
 11
87.14112852376769
 21
137.6121942229674
 31
0.0
 11
87.13143694837166
 21
137.565099435396
 31
0.0
  0
SPLINE
  5
C7
330
47
100
AcDbEntity
  8
1
  6
Continuous
 62
     7
100
AcDbSpline
210
0.0
220
0.0
230
1.0
 70
     8
 71
     3
 72
     9
 73
     5
 74
     3
 42
0.000000001
 43
0.0000000001
 44
0.00000001
 40
0.0
 40
0.0
 40
0.0
 40
0.0
 40
0.0480816541771803
 40
0.1044417871549856
 40
0.1044417871549856
 40
0.1044417871549856
 40
0.1044417871549856
 10
103.6313951532576
 20
137.5650994354119
 30
0.0
 10
103.6294476113758
 20
137.5813284658906
 30
0.0
 10
103.6252171900073
 20
137.6165807614724
 30
0.0
 10
103.6028261297694
 20
137.6443200220106
 30
0.0
 10
103.5907431872637
 20
137.6592890105387
 30
0.0
 11
103.6313951532576
 21
137.5650994354119
 31
0.0
 11
103.6217035778579
 21
137.6121942229753
 31
0.0
 11
103.5907431872637
 21
137.6592890105387
 31
0.0
  0
SPLINE
  5
C8
330
47
100
AcDbEntity
  8
1
  6
Continuous
 62
     7
100
AcDbSpline
210
0.0
220
0.0
230
1.0
 70
    24
 71
     3
 72
     9
 73
     5
 74
     3
 42
0.000000001
 43
0.0000000001
 44
0.00000001
 40
0.0
 40
0.0
 40
0.0
 40
0.0
 40
0.0000025948446846
 40
0.000005189691077
 40
0.000005189691077
 40
0.000005189691077
 40
0.000005189691077
 10
87.13143694837166
 20
137.565099435396
 30
0.0
 10
87.13143696568976
 20
137.5650985706212
 30
0.0
 10
87.13143700034212
 20
137.5650968410712
 30
0.0
 10
87.13143703502666
 20
137.565095111522
 30
0.0
 10
87.13143705237698
 20
137.5650942467472
 30
0.0
 11
87.13143694837166
 21
137.565099435396
 31
0.0
 11
87.13143700034205
 21
137.5650968410717
 31
0.0
 11
87.13143705237698
 21
137.5650942467472
 31
0.0
  0
SPLINE
  5
C9
330
47
100
AcDbEntity
  8
1
  6
Continuous
 62
     7
100
AcDbSpline
210
0.0
220
0.0
230
1.0
 70
    24
 71
     3
 72
     9
 73
     5
 74
     3
 42
0.000000001
 43
0.0000000001
 44
0.00000001
 40
0.0
 40
0.0
 40
0.0
 40
0.0
 40
0.0000025948648991
 40
0.0000051897284861
 40
0.0000051897284861
 40
0.0000051897284861
 40
0.0000051897284861
 10
103.6313950492516
 20
137.5650942467257
 30
0.0
 10
103.6313950666021
 20
137.5650951115067
 30
0.0
 10
103.6313951012869
 20
137.5650968410684
 30
0.0
 10
103.6313951359394
 20
137.5650985706307
 30
0.0
 10
103.6313951532576
 20
137.5650994354119
 30
0.0
 11
103.6313950492516
 21
137.5650942467257
 31
0.0
 11
103.6313951012869
 21
137.5650968410688
 31
0.0
 11
103.6313951532576
 21
137.5650994354119
 31
0.0
  0
SPLINE
  5
CA
330
47
100
AcDbEntity
  8
1
  6
Continuous
 62
     7
100
AcDbSpline
210
0.0
220
0.0
230
1.0
 70
     8
 71
     3
 72
    45
 73
    41
 74
    39
 42
0.000000001
 43
0.0000000001
 44
0.00000001
 40
0.0
 40
0.0
 40
0.0
 40
0.0
 40
0.0462393297073082
 40
0.1003470432350157
 40
0.2691608296501627
 40
0.4261387054237561
 40
0.6844079265701332
 40
0.9435995464700636
 40
1.310383370680653
 40
1.676797155671671
 40
2.142254726681328
 40
2.607682516648979
 40
3.159389762250015
 40
3.711072100330176
 40
4.333025162447908
 40
4.954965950340379
 40
5.628793461929829
 40
6.302615252220872
 40
7.0082499791837
 40
7.713882139857862
 40
8.43023239170021
 40
9.14658264354253
 40
9.852214804216665
 40
10.55784953117952
 40
11.23167132147059
 40
11.90549883306001
 40
12.52743962095247
 40
13.14939268307026
 40
13.70107502115046
 40
14.25278226675147
 40
14.71821005671908
 40
15.18366762772873
 40
15.55008141271972
 40
15.91686523693032
 40
16.17605685683024
 40
16.43432607797657
 40
16.59130395375016
 40
16.76011774016528
 40
16.81422545368117
 40
16.8604647833792
 40
16.8604647833792
 40
16.8604647833792
 40
16.8604647833792
 10
87.13143705237698
 20
137.5650942467472
 30
0.0
 10
87.13384981166291
 20
137.5496265262915
 30
0.0
 10
87.13908588624405
 20
137.5160589943997
 30
0.0
 10
87.19578216948292
 20
137.4436894000612
 30
0.0
 10
87.28935758562491
 20
137.3575899293447
 30
0.0
 10
87.46564867002986
 20
137.2703755094825
 30
0.0
 10
87.68136850477504
 20
137.2066249950963
 30
0.0
 10
87.96458320003805
 20
137.12495812865
 30
0.0
 10
88.28725839179717
 20
137.0511659034896
 30
0.0
 10
88.68003881936725
 20
136.9776441231531
 30
0.0
 10
89.10763548496777
 20
136.912665326149
 30
0.0
 10
89.59765569526866
 20
136.8483807487741
 30
0.0
 10
90.11752447470639
 20
136.7914235521781
 30
0.0
 10
90.69021664264281
 20
136.7384690580443
 30
0.0
 10
91.28703099071802
 20
136.6929232295465
 30
0.0
 10
91.92502824191742
 20
136.652811710303
 30
0.0
 10
92.58076375376623
 20
136.62016008683
 30
0.0
 10
93.26470873914758
 20
136.5940733531057
 30
0.0
 10
93.95950625960816
 20
136.5755546204019
 30
0.0
 10
94.66863473064728
 20
136.5642253769672
 30
0.0
 10
95.38141605081456
 20
136.5605255727594
 30
0.0
 10
96.09419737098176
 20
136.5642253769672
 30
0.0
 10
96.80332584202094
 20
136.5755546204019
 30
0.0
 10
97.49812336248145
 20
136.5940733531057
 30
0.0
 10
98.18206834786284
 20
136.62016008683
 30
0.0
 10
98.83780385971164
 20
136.6528117103031
 30
0.0
 10
99.47580111091108
 20
136.6929232295464
 30
0.0
 10
100.0726154589862
 20
136.7384690580443
 30
0.0
 10
100.6453076269228
 20
136.791423552178
 30
0.0
 10
101.1651764063604
 20
136.8483807487741
 30
0.0
 10
101.6551966166613
 20
136.912665326149
 30
0.0
 10
102.0827932822618
 20
136.9776441231531
 30
0.0
 10
102.4755737098319
 20
137.0511659034896
 30
0.0
 10
102.798248901591
 20
137.12495812865
 30
0.0
 10
103.081463596854
 20
137.2066249950963
 30
0.0
 10
103.2971834315992
 20
137.2703755094825
 30
0.0
 10
103.4734745160039
 20
137.3575899293445
 30
0.0
 10
103.5670499321434
 20
137.4436894000592
 30
0.0
 10
103.6237462153778
 20
137.5160589943901
 30
0.0
 10
103.6289822899635
 20
137.5496265262737
 30
0.0
 10
103.6313950492516
 20
137.5650942467257
 30
0.0
 11
87.13143705237698
 21
137.5650942467472
 31
0.0
 11
87.14205163008896
 21
137.5200897336079
 31
0.0
 11
87.17208891436529
 21
137.4750852204683
 31
0.0
 11
87.29712953826537
 21
137.3616703336541
 31
0.0
 11
87.43614423136204
 21
137.2887527886676
 31
0.0
 11
87.68113007947358
 21
137.2069914014463
 31
0.0
 11
87.93064406933594
 21
137.1368268485953
 31
0.0
 11
88.28784374392647
 21
137.0535275937645
 31
0.0
 11
88.6478937815159
 21
136.985534711863
 31
0.0
 11
89.10785720409115
 21
136.9142297337941
 31
0.0
 11
89.56932224033514
 21
136.8536240607001
 31
0.0
 11
90.1176853677142
 21
136.7929712385306
 31
0.0
 11
90.66700864480252
 21
136.7420071448616
 31
0.0
 11
91.28712981596661
 21
136.6943065807401
 31
0.0
 11
91.90783940850017
 21
136.6551920743493
 31
0.0
 11
92.58082231337164
 21
136.6214648720866
 31
0.0
 11
93.25415271352882
 21
136.5957359721129
 31
0.0
 11
93.95953357087097
 21
136.5768094603847
 31
0.0
 11
94.66507575243156
 21
136.5655411403624
 31
0.0
 11
95.38141605081455
 21
136.561765032411
 31
0.0
 11
96.09775634919751
 21
136.5655411403624
 31
0.0
 11
96.80329853075807
 21
136.5768094603847
 31
0.0
 11
97.50867938810025
 21
136.5957359721129
 31
0.0
 11
98.18200978825746
 21
136.6214648720866
 31
0.0
 11
98.8549926931289
 21
136.6551920743493
 31
0.0
 11
99.47570228566245
 21
136.6943065807401
 31
0.0
 11
100.0958234568266
 21
136.7420071448616
 31
0.0
 11
100.645146733915
 21
136.7929712385305
 31
0.0
 11
101.193509861294
 21
136.8536240607001
 31
0.0
 11
101.6549748975379
 21
136.9142297337941
 31
0.0
 11
102.1149383201132
 21
136.985534711863
 31
0.0
 11
102.4749883577026
 21
137.0535275937645
 31
0.0
 11
102.8321880322931
 21
137.1368268485953
 31
0.0
 11
103.0817020221555
 21
137.2069914014463
 31
0.0
 11
103.326687870267
 21
137.2887527886676
 31
0.0
 11
103.4657025633636
 21
137.3616703336541
 31
0.0
 11
103.5907431872637
 21
137.4750852204683
 31
0.0
 11
103.6207804715351
 21
137.520089733597
 31
0.0
 11
103.6313950492516
 21
137.5650942467257
 31
0.0
  0
ARC
  5
CB
330
47
100
AcDbEntity
  8
0
  6
Continuous
 62
     7
100
AcDbCircle
 10
108.1314160508145
 20
362.5650361823407
 30
0.0
 40
4.0
100
AcDbArc
 50
90.0
 51
180.0
  0
ARC
  5
CC
330
47
100
AcDbEntity
  8
0
  6
Continuous
 62
     7
100
AcDbCircle
 10
82.63141605081458
 20
362.5650361823407
 30
0.0
 40
3.999999999999886
100
AcDbArc
 50
0.0
 51
90.0
  0
ARC
  5
CD
330
47
100
AcDbEntity
  8
1
  6
Continuous
 62
     7
100
AcDbCircle
 10
179.8285066801728
 20
146.3839779493848
 30
0.0
 40
7.00000000000009
100
AcDbArc
 50
66.75006883398784
 51
172.9999999999996
  0
ARC
  5
CE
330
47
100
AcDbEntity
  8
1
  6
Continuous
 62
     7
100
AcDbCircle
 10
172.2727751070357
 20
154.5943094100335
 30
0.0
 40
14.99999999999993
100
AcDbArc
 50
100.3185208330362
 51
173.0000000000001
  0
ARC
  5
CF
330
47
100
AcDbEntity
  8
1
  6
Continuous
 62
     7
100
AcDbCircle
 10
216.3814160508146
 20
177.899208092537
 30
0.0
 40
6.0
100
AcDbArc
 50
180.0
 51
239.9118061840567
  0
ARC
  5
D0
330
47
100
AcDbEntity
  8
1
  6
Continuous
 62
     7
100
AcDbCircle
 10
222.4009393599895
 20
201.3171871155035
 30
0.0
 40
29.9999999999999
100
AcDbArc
 50
252.4872952996483
 51
270.0
  0
ARC
  5
D1
330
47
100
AcDbEntity
  8
1
  6
Continuous
 62
     7
100
AcDbCircle
 10
222.4009393599895
 20
123.8171871155035
 30
0.0
 40
29.99999999999999
100
AcDbArc
 50
90.0
 51
110.0680546208192
  0
ARC
  5
D2
330
47
100
AcDbEntity
  8
1
  6
Continuous
 62
     7
100
AcDbCircle
 10
56.63141605081447
 20
348.1208229125532
 30
0.0
 40
29.99999999999993
100
AcDbArc
 50
343.6603718092958
 51
0.0
  0
ARC
  5
D3
330
47
100
AcDbEntity
  8
1
  6
Continuous
 62
     7
100
AcDbCircle
 10
56.63141605081447
 20
300.0817762942033
 30
0.0
 40
29.99999999999999
100
AcDbArc
 50
0.0
 51
20.06805462081948
  0
ARC
  5
D4
330
47
100
AcDbEntity
  8
1
  6
Continuous
 62
     7
100
AcDbCircle
 10
134.1314160508145
 20
300.0817762942033
 30
0.0
 40
30.00000000000002
100
AcDbArc
 50
159.9319453791805
 51
180.0
  0
ARC
  5
D5
330
47
100
AcDbEntity
  8
1
  6
Continuous
 62
     7
100
AcDbCircle
 10
72.88141605081447
 20
367.0634948492073
 30
0.0
 40
0.5
100
AcDbArc
 50
180.0
 51
265.5000000000034
  0
ARC
  5
D6
330
47
100
AcDbEntity
  8
1
  6
Continuous
 62
     7
100
AcDbCircle
 10
117.8814160508145
 20
367.0634948492073
 30
0.0
 40
0.5000000000000461
100
AcDbArc
 50
274.4999999999983
 51
0.0
  0
ARC
  5
D7
330
47
100
AcDbEntity
  8
1
  6
Continuous
 62
     7
100
AcDbCircle
 10
241.387790009529
 20
185.0671871155035
 30
0.0
 40
0.5
100
AcDbArc
 50
90.0
 51
175.5000000000001
  0
ARC
  5
D8
330
47
100
AcDbEntity
  8
1
  6
Continuous
 62
     7
100
AcDbCircle
 10
134.1314160508145
 20
348.1208229125532
 30
0.0
 40
30.0
100
AcDbArc
 50
180.0
 51
196.3396281907041
  0
ARC
  5
D9
330
47
100
AcDbEntity
  8
1
  6
Continuous
 62
     7
100
AcDbCircle
 10
113.3814160508146
 20
168.6499496458017
 30
0.0
 40
6.0
100
AcDbArc
 50
180.0
 51
198.6717180640075
  0
ARC
  5
DA
330
47
100
AcDbEntity
  8
1
  6
Continuous
 62
     7
100
AcDbCircle
 10
241.387790009529
 20
140.0671871155035
 30
0.0
 40
0.500000000000045
100
AcDbArc
 50
184.4999999999967
 51
270.0
  0
ARC
  5
DB
330
47
100
AcDbEntity
  8
0
  6
Continuous
 62
     7
100
AcDbCircle
 10
236.845152629777
 20
149.8171871155035
 30
0.0
 40
4.0
100
AcDbArc
 50
0.0
 51
90.0
  0
ARC
  5
DC
330
47
100
AcDbEntity
  8
0
  6
Continuous
 62
     7
100
AcDbCircle
 10
236.845152629777
 20
175.3171871155035
 30
0.0
 40
4.0
100
AcDbArc
 50
270.0
 51
0.0
  0
ARC
  5
DD
330
47
100
AcDbEntity
  8
1
  6
Continuous
 62
     7
100
AcDbCircle
 10
77.38141605081458
 20
168.6499496458017
 30
0.0
 40
5.999999999999907
100
AcDbArc
 50
341.3282819359919
 51
0.0
  0
ENDBLK
  5
49
330
47
100
AcDbEntity
  8
0
100
AcDbBlockEnd
  0
BLOCK
  5
4B
330
4A
100
AcDbEntity
  8
0
100
AcDbBlockBegin
  2
36-1A-13-M4
 70
     0
 10
135.5029987846265
 20
112.1475468277337
 30
0.0
  3
36-1A-13-M4
  1

  0
LINE
  5
DE
330
4A
100
AcDbEntity
  8
1
  6
Continuous
 62
     7
100
AcDbLine
 10
100.1314160508146
 20
204.5671871155037
 30
0.0
 11
100.1314160508146
 21
201.9968784036885
 31
0.0
  0
LINE
  5
DF
330
4A
100
AcDbEntity
  8
1
  6
Continuous
 62
     7
100
AcDbLine
 10
90.63141605081438
 20
201.9968784036885
 30
0.0
 11
90.63141605081438
 21
204.5671871155037
 31
0.0
  0
LINE
  5
E0
330
4A
100
AcDbEntity
  8
1
  6
Continuous
 62
     7
100
AcDbLine
 10
203.1314160508146
 20
204.5671871155037
 30
0.0
 11
203.1314160508146
 21
201.9968784036885
 31
0.0
  0
LINE
  5
E1
330
4A
100
AcDbEntity
  8
1
  6
Continuous
 62
     7
100
AcDbLine
 10
193.6314160508145
 20
201.9968784036885
 30
0.0
 11
193.6314160508145
 21
204.5671871155037
 31
0.0
  0
ENDBLK
  5
4C
330
4A
100
AcDbEntity
  8
0
100
AcDbBlockEnd
  0
BLOCK
  5
4E
330
4D
100
AcDbEntity
  8
0
100
AcDbBlockBegin
  2
42-1
 70
     0
 10
308.6868548880827
 20
167.5446181365253
 30
0.0
  3
42-1
  1

  0
LINE
  5
E2
330
4D
100
AcDbEntity
  8
1
  6
Continuous
 62
     7
100
AcDbLine
 10
88.38141605081458
 20
218.5671871155035
 30
0.0
 11
102.3814160508144
 21
218.5671871155035
 31
0.0
  0
LINE
  5
E3
330
4D
100
AcDbEntity
  8
1
  6
Continuous
 62
     7
100
AcDbLine
 10
89.63141605081458
 20
218.8969528357073
 30
0.0
 11
101.1314160508144
 21
218.8969528357073
 31
0.0
  0
LINE
  5
E4
330
4D
100
AcDbEntity
  8
1
  6
Continuous
 62
     2
100
AcDbLine
 10
94.38141605081458
 20
217.8095252176748
 30
0.0
 11
94.38141605081458
 21
216.5442861270643
 31
0.0
  0
LINE
  5
E5
330
4D
100
AcDbEntity
  8
1
  6
Continuous
 62
     2
100
AcDbLine
 10
93.38141605081458
 20
218.0528404274075
 30
0.0
 11
93.38141605081458
 21
216.2847499033493
 31
0.0
  0
LINE
  5
E6
330
4D
100
AcDbEntity
  8
1
  6
Continuous
 62
     2
100
AcDbLine
 10
92.38141605081458
 20
218.2637136091759
 30
0.0
 11
92.38141605081458
 21
215.9278875957413
 31
0.0
  0
LINE
  5
E7
330
4D
100
AcDbEntity
  8
1
  6
Continuous
 62
     2
100
AcDbLine
 10
91.38141605081458
 20
218.3772607070512
 30
0.0
 11
91.38141605081458
 21
215.733235427955
 31
0.0
  0
LINE
  5
E8
330
4D
100
AcDbEntity
  8
1
  6
Continuous
 62
     2
100
AcDbLine
 10
90.38141605081458
 20
218.5671871155035
 30
0.0
 11
90.38141605081458
 21
215.5671871155035
 31
0.0
  0
LINE
  5
E9
330
4D
100
AcDbEntity
  8
1
  6
Continuous
 62
     7
100
AcDbLine
 10
88.38141605081458
 20
215.5671871155035
 30
0.0
 11
102.3814160508144
 21
215.5671871155035
 31
0.0
  0
LINE
  5
EA
330
4D
100
AcDbEntity
  8
1
  6
Continuous
 62
     2
100
AcDbLine
 10
89.38141605081458
 20
218.5671871155035
 30
0.0
 11
89.38141605081458
 21
215.5671871155035
 31
0.0
  0
LINE
  5
EB
330
4D
100
AcDbEntity
  8
1
  6
Continuous
 62
     7
100
AcDbLine
 10
88.38141605081458
 20
218.5671871155035
 30
0.0
 11
89.38141605081438
 21
218.8365093145267
 31
0.0
  0
LINE
  5
EC
330
4D
100
AcDbEntity
  8
1
  6
Continuous
 62
     7
100
AcDbLine
 10
88.38141605081458
 20
215.5671871155035
 30
0.0
 11
88.38141605081458
 21
218.5671871155035
 31
0.0
  0
LINE
  5
ED
330
4D
100
AcDbEntity
  8
1
  6
Continuous
 62
     7
100
AcDbLine
 10
102.3814160508144
 20
218.5671871155035
 30
0.0
 11
102.3814160508144
 21
215.5671871155035
 31
0.0
  0
LINE
  5
EE
330
4D
100
AcDbEntity
  8
1
  6
Continuous
 62
     7
100
AcDbLine
 10
101.3814160508147
 20
218.8365093145267
 30
0.0
 11
102.3814160508144
 21
218.5671871155035
 31
0.0
  0
LINE
  5
EF
330
4D
100
AcDbEntity
  8
1
  6
Continuous
 62
     2
100
AcDbLine
 10
101.3814160508144
 20
215.5671871155035
 30
0.0
 11
101.3814160508144
 21
218.5671871155035
 31
0.0
  0
LINE
  5
F0
330
4D
100
AcDbEntity
  8
1
  6
Continuous
 62
     2
100
AcDbLine
 10
100.3814160508144
 20
215.5671871155035
 30
0.0
 11
100.3814160508144
 21
218.5671871155035
 31
0.0
  0
LINE
  5
F1
330
4D
100
AcDbEntity
  8
1
  6
Continuous
 62
     2
100
AcDbLine
 10
99.38141605081435
 20
215.733235427955
 30
0.0
 11
99.38141605081435
 21
218.3772607070512
 31
0.0
  0
LINE
  5
F2
330
4D
100
AcDbEntity
  8
1
  6
Continuous
 62
     2
100
AcDbLine
 10
98.38141605081458
 20
215.9278875957413
 30
0.0
 11
98.38141605081458
 21
218.2637136091759
 31
0.0
  0
LINE
  5
F3
330
4D
100
AcDbEntity
  8
1
  6
Continuous
 62
     2
100
AcDbLine
 10
97.38141605081435
 20
216.2847499033493
 30
0.0
 11
97.38141605081435
 21
218.0528404274075
 31
0.0
  0
LINE
  5
F4
330
4D
100
AcDbEntity
  8
1
  6
Continuous
 62
     2
100
AcDbLine
 10
96.38141605081435
 20
216.5442861270643
 30
0.0
 11
96.38141605081435
 21
217.8095252176748
 31
0.0
  0
LINE
  5
F5
330
4D
100
AcDbEntity
  8
1
  6
Continuous
 62
     7
100
AcDbLine
 10
191.3814160508146
 20
215.5671871155035
 30
0.0
 11
191.3814160508146
 21
218.5671871155035
 31
0.0
  0
LINE
  5
F6
330
4D
100
AcDbEntity
  8
1
  6
Continuous
 62
     2
100
AcDbLine
 10
192.3814160508146
 20
218.5671871155035
 30
0.0
 11
192.3814160508146
 21
215.5671871155035
 31
0.0
  0
LINE
  5
F7
330
4D
100
AcDbEntity
  8
1
  6
Continuous
 62
     2
100
AcDbLine
 10
193.3814160508146
 20
218.5671871155035
 30
0.0
 11
193.3814160508146
 21
215.5671871155035
 31
0.0
  0
LINE
  5
F8
330
4D
100
AcDbEntity
  8
1
  6
Continuous
 62
     2
100
AcDbLine
 10
194.3814160508146
 20
218.3772607070512
 30
0.0
 11
194.3814160508146
 21
215.733235427955
 31
0.0
  0
LINE
  5
F9
330
4D
100
AcDbEntity
  8
1
  6
Continuous
 62
     2
100
AcDbLine
 10
195.3814160508146
 20
218.2637136091759
 30
0.0
 11
195.3814160508146
 21
215.9278875957413
 31
0.0
  0
LINE
  5
FA
330
4D
100
AcDbEntity
  8
1
  6
Continuous
 62
     7
100
AcDbLine
 10
205.3814160508145
 20
215.5671871155035
 30
0.0
 11
191.3814160508146
 21
215.5671871155035
 31
0.0
  0
LINE
  5
FB
330
4D
100
AcDbEntity
  8
1
  6
Continuous
 62
     2
100
AcDbLine
 10
203.3814160508145
 20
215.5671871155035
 30
0.0
 11
203.3814160508145
 21
218.5671871155035
 31
0.0
  0
LINE
  5
FC
330
4D
100
AcDbEntity
  8
1
  6
Continuous
 62
     2
100
AcDbLine
 10
202.3814160508145
 20
215.733235427955
 30
0.0
 11
202.3814160508145
 21
218.3772607070512
 31
0.0
  0
LINE
  5
FD
330
4D
100
AcDbEntity
  8
1
  6
Continuous
 62
     2
100
AcDbLine
 10
201.3814160508145
 20
215.9278875957413
 30
0.0
 11
201.3814160508145
 21
218.2637136091759
 31
0.0
  0
LINE
  5
FE
330
4D
100
AcDbEntity
  8
1
  6
Continuous
 62
     2
100
AcDbLine
 10
200.3814160508145
 20
216.2847499033493
 30
0.0
 11
200.3814160508145
 21
218.0528404274075
 31
0.0
  0
LINE
  5
FF
330
4D
100
AcDbEntity
  8
1
  6
Continuous
 62
     2
100
AcDbLine
 10
199.3814160508145
 20
216.5442861270643
 30
0.0
 11
199.3814160508145
 21
217.8095252176748
 31
0.0
  0
LINE
  5
100
330
4D
100
AcDbEntity
  8
1
  6
Continuous
 62
     7
100
AcDbLine
 10
193.3814160508146
 20
218.5671871155035
 30
0.0
 11
203.3814160508145
 21
218.5671871155035
 31
0.0
  0
LINE
  5
101
330
4D
100
AcDbEntity
  8
1
  6
Continuous
 62
     7
100
AcDbLine
 10
192.8814160508146
 20
218.5671871155035
 30
0.0
 11
193.3814160508146
 21
218.5671871155035
 31
0.0
  0
LINE
  5
102
330
4D
100
AcDbEntity
  8
1
  6
Continuous
 62
     7
100
AcDbLine
 10
191.8814160508146
 20
218.5671871155035
 30
0.0
 11
192.3814160508146
 21
218.5671871155035
 31
0.0
  0
LINE
  5
103
330
4D
100
AcDbEntity
  8
1
  6
Continuous
 62
     7
100
AcDbLine
 10
191.3814160508146
 20
218.5671871155035
 30
0.0
 11
192.3814160508144
 21
218.8365093145267
 31
0.0
  0
LINE
  5
104
330
4D
100
AcDbEntity
  8
1
  6
Continuous
 62
     7
100
AcDbLine
 10
191.3814160508146
 20
218.5671871155035
 30
0.0
 11
191.8814160508146
 21
218.5671871155035
 31
0.0
  0
LINE
  5
105
330
4D
100
AcDbEntity
  8
1
  6
Continuous
 62
     7
100
AcDbLine
 10
192.3814160508146
 20
218.5671871155035
 30
0.0
 11
192.8814160508146
 21
218.5671871155035
 31
0.0
  0
LINE
  5
106
330
4D
100
AcDbEntity
  8
1
  6
Continuous
 62
     2
100
AcDbLine
 10
196.3814160508146
 20
218.0528404274075
 30
0.0
 11
196.3814160508146
 21
216.2847499033493
 31
0.0
  0
LINE
  5
107
330
4D
100
AcDbEntity
  8
1
  6
Continuous
 62
     2
100
AcDbLine
 10
197.3814160508146
 20
217.8095252176748
 30
0.0
 11
197.3814160508146
 21
216.5442861270643
 31
0.0
  0
LINE
  5
108
330
4D
100
AcDbEntity
  8
1
  6
Continuous
 62
     7
100
AcDbLine
 10
192.6314160508146
 20
218.8969528357073
 30
0.0
 11
198.3814160508146
 21
218.8969528357073
 31
0.0
  0
LINE
  5
109
330
4D
100
AcDbEntity
  8
1
  6
Continuous
 62
     7
100
AcDbLine
 10
203.3814160508145
 20
218.5671871155035
 30
0.0
 11
203.8814160508145
 21
218.5671871155035
 31
0.0
  0
LINE
  5
10A
330
4D
100
AcDbEntity
  8
1
  6
Continuous
 62
     7
100
AcDbLine
 10
204.3814160508145
 20
218.5671871155035
 30
0.0
 11
204.8814160508145
 21
218.5671871155035
 31
0.0
  0
LINE
  5
10B
330
4D
100
AcDbEntity
  8
1
  6
Continuous
 62
     7
100
AcDbLine
 10
205.3814160508145
 20
218.5671871155035
 30
0.0
 11
205.3814160508145
 21
215.5671871155035
 31
0.0
  0
LINE
  5
10C
330
4D
100
AcDbEntity
  8
1
  6
Continuous
 62
     7
100
AcDbLine
 10
204.3814160508146
 20
218.8365093145267
 30
0.0
 11
205.3814160508145
 21
218.5671871155035
 31
0.0
  0
LINE
  5
10D
330
4D
100
AcDbEntity
  8
1
  6
Continuous
 62
     7
100
AcDbLine
 10
204.8814160508145
 20
218.5671871155035
 30
0.0
 11
205.3814160508145
 21
218.5671871155035
 31
0.0
  0
LINE
  5
10E
330
4D
100
AcDbEntity
  8
1
  6
Continuous
 62
     2
100
AcDbLine
 10
204.3814160508145
 20
215.5671871155035
 30
0.0
 11
204.3814160508145
 21
218.5671871155035
 31
0.0
  0
LINE
  5
10F
330
4D
100
AcDbEntity
  8
1
  6
Continuous
 62
     7
100
AcDbLine
 10
203.8814160508145
 20
218.5671871155035
 30
0.0
 11
204.3814160508145
 21
218.5671871155035
 31
0.0
  0
LINE
  5
110
330
4D
100
AcDbEntity
  8
1
  6
Continuous
 62
     7
100
AcDbLine
 10
198.3814160508146
 20
218.8969528357073
 30
0.0
 11
204.1314160508145
 21
218.8969528357073
 31
0.0
  0
ARC
  5
111
330
4D
100
AcDbEntity
  8
1
  6
Continuous
 62
     7
100
AcDbCircle
 10
95.38141605081458
 20
194.5671871155035
 30
0.0
 40
25.0
100
AcDbArc
 50
90.0
 51
103.8865403626294
  0
ARC
  5
112
330
4D
100
AcDbEntity
  8
1
  6
Continuous
 62
     7
100
AcDbCircle
 10
95.38141605081458
 20
194.5671871155035
 30
0.0
 40
25.00000000000005
100
AcDbArc
 50
76.11345963737074
 51
90.0
  0
ARC
  5
113
330
4D
100
AcDbEntity
  8
1
  6
Continuous
 62
     7
100
AcDbCircle
 10
198.3814160508146
 20
194.5671871155035
 30
0.0
 40
25.0000000000001
100
AcDbArc
 50
103.297071747209
 51
103.8865403626294
  0
ARC
  5
114
330
4D
100
AcDbEntity
  8
1
  6
Continuous
 62
     7
100
AcDbCircle
 10
198.3814160508146
 20
194.5671871155035
 30
0.0
 40
25.00000000000001
100
AcDbArc
 50
76.11345963737102
 51
76.70292825279124
  0
ARC
  5
115
330
4D
100
AcDbEntity
  8
1
  6
Continuous
 62
     7
100
AcDbCircle
 10
198.3814160508146
 20
194.5671871155035
 30
0.0
 40
25.0
100
AcDbArc
 50
90.0
 51
103.297071747209
  0
ARC
  5
116
330
4D
100
AcDbEntity
  8
1
  6
Continuous
 62
     7
100
AcDbCircle
 10
198.3814160508146
 20
194.5671871155035
 30
0.0
 40
25.00000000000008
100
AcDbArc
 50
76.70292825279124
 51
90.0
  0
CIRCLE
  5
117
330
4D
100
AcDbEntity
  8
1
  6
Continuous
 62
     7
100
AcDbCircle
 10
95.38141605081458
 20
324.1012996033784
 30
0.0
 40
6.999999999999915
  0
CIRCLE
  5
118
330
4D
100
AcDbEntity
  8
1
  6
Continuous
 62
     7
100
AcDbCircle
 10
95.38141605081458
 20
324.1012996033784
 30
0.0
 40
5.749999999999915
  0
ENDBLK
  5
4F
330
4D
100
AcDbEntity
  8
0
100
AcDbBlockEnd
  0
BLOCK
  5
51
330
50
100
AcDbEntity
  8
0
100
AcDbBlockBegin
  2
21-1C
 70
     0
 10
-95.1761630290502
 20
151.5070913905122
 30
0.0
  3
21-1C
  1

  0
LINE
  5
119
330
50
100
AcDbEntity
  8
1
  6
Continuous
 62
     7
100
AcDbLine
 10
89.58586109308007
 20
297.5483853327633
 30
0.0
 11
85.93445188160968
 21
311.1756300291962
 31
0.0
  0
LINE
  5
11A
330
50
100
AcDbEntity
  8
1
  6
Continuous
 62
     7
100
AcDbLine
 10
69.48814026908428
 20
332.3586589162591
 30
0.0
 11
79.46397575404666
 21
322.3828234312969
 31
0.0
  0
LINE
  5
11B
330
50
100
AcDbEntity
  8
1
  6
Continuous
 62
     7
100
AcDbLine
 10
75.28369522681868
 20
342.396854561113
 30
0.0
 11
88.91093992325148
 21
338.7454453496424
 31
0.0
  0
LINE
  5
11C
330
50
100
AcDbEntity
  8
1
  6
Continuous
 62
     7
100
AcDbLine
 10
116.2396417774309
 20
342.6006312356099
 30
0.0
 11
101.8518921783776
 21
338.7454453496424
 31
0.0
  0
LINE
  5
11D
330
50
100
AcDbEntity
  8
1
  6
Continuous
 62
     7
100
AcDbLine
 10
121.2746918325448
 20
332.3586589162591
 30
0.0
 11
111.2988563475825
 21
322.3828234312969
 31
0.0
  0
LINE
  5
11E
330
50
100
AcDbEntity
  8
1
  6
Continuous
 62
     7
100
AcDbLine
 10
101.176971008549
 20
297.5483853327633
 30
0.0
 11
104.8283802200194
 21
311.1756300291961
 31
0.0
  0
LINE
  5
11F
330
50
100
AcDbEntity
  8
1
  6
Continuous
 62
     7
100
AcDbLine
 10
216.3061903387401
 20
204.5671871155037
 30
0.0
 11
198.3814160508146
 21
204.5671871155037
 31
0.0
  0
LINE
  5
120
330
50
100
AcDbEntity
  8
1
  6
Continuous
 62
     7
100
AcDbLine
 10
167.9133743190467
 20
208.3522668708544
 30
0.0
 11
167.4614662200543
 21
205.1367736659837
 31
0.0
  0
LINE
  5
121
330
50
100
AcDbEntity
  8
1
  6
Continuous
 62
     7
100
AcDbLine
 10
216.1841019051657
 20
209.5262637212473
 30
0.0
 11
216.8013193991732
 21
205.1368090482163
 31
0.0
  0
LINE
  5
122
330
50
100
AcDbEntity
  8
1
  6
Continuous
 62
     7
100
AcDbLine
 10
167.9566002544251
 20
204.5671871155037
 30
0.0
 11
198.3814160508146
 21
204.5671871155037
 31
0.0
  0
LINE
  5
123
330
50
100
AcDbEntity
  8
1
  6
Continuous
 62
     7
100
AcDbLine
 10
68.23078095620366
 20
204.5671871155037
 30
0.0
 11
122.5320511454257
 21
204.5671871155037
 31
0.0
  0
LINE
  5
124
330
50
100
AcDbEntity
  8
1
  6
Continuous
 62
     7
100
AcDbLine
 10
123.0271851797966
 20
205.1367736659839
 30
0.0
 11
122.575277080804
 21
208.3522668708544
 31
0.0
  0
LINE
  5
125
330
50
100
AcDbEntity
  8
1
  6
Continuous
 62
     7
100
AcDbLine
 10
68.18755502082539
 20
208.3522668708544
 30
0.0
 11
67.73564692183288
 21
205.1367736659839
 31
0.0
  0
ARC
  5
126
330
50
100
AcDbEntity
  8
1
  6
Continuous
 62
     7
100
AcDbCircle
 10
95.38141605081447
 20
299.1012996033785
 30
0.0
 40
6.000000000000004
100
AcDbArc
 50
195.0000000000006
 51
270.0
  0
ARC
  5
127
330
50
100
AcDbEntity
  8
1
  6
Continuous
 62
     7
100
AcDbCircle
 10
73.73078095620357
 20
336.6012996033785
 30
0.0
 40
6.000000000000091
100
AcDbArc
 50
75.00000000000043
 51
225.0000000000006
  0
ARC
  5
128
330
50
100
AcDbEntity
  8
1
  6
Continuous
 62
     7
100
AcDbCircle
 10
117.0320511454256
 20
336.6012996033785
 30
0.0
 40
6.000000000000008
100
AcDbArc
 50
314.9999999999989
 51
97.52424107894126
  0
ARC
  5
129
330
50
100
AcDbEntity
  8
1
  6
Continuous
 62
     7
100
AcDbCircle
 10
95.38141605081447
 20
299.1012996033785
 30
0.0
 40
6.0
100
AcDbArc
 50
270.0
 51
344.9999999999997
  0
ARC
  5
12A
330
50
100
AcDbEntity
  8
1
  6
Continuous
 62
     7
100
AcDbCircle
 10
198.3814160508146
 20
65.56718711550371
 30
0.0
 40
150.0533238552215
100
AcDbArc
 50
91.52752544221293
 51
99.8029017937678
  0
ARC
  5
12B
330
50
100
AcDbEntity
  8
1
  6
Continuous
 62
     7
100
AcDbCircle
 10
198.7456117160613
 20
140.6553661068045
 30
0.0
 40
74.99999999999996
100
AcDbArc
 50
80.40850751733497
 51
87.22136103403737
  0
ARC
  5
12C
330
50
100
AcDbEntity
  8
1
  6
Continuous
 62
     7
100
AcDbCircle
 10
93.74432569992538
 20
88.1970345751794
 30
0.0
 40
127.494833408141
100
AcDbArc
 50
79.19050675364775
 51
87.46588310520265
  0
ARC
  5
12D
330
50
100
AcDbEntity
  8
1
  6
Continuous
 62
     7
100
AcDbCircle
 10
97.01850640170395
 20
88.1970345751794
 30
0.0
 40
127.4948334081408
100
AcDbArc
 50
92.53411689479742
 51
100.8094932463522
  0
ARC
  5
12E
330
50
100
AcDbEntity
  8
1
  6
Continuous
 62
     7
100
AcDbCircle
 10
61.78630622438288
 20
304.7051539016331
 30
0.0
 40
25.00000000000012
100
AcDbArc
 50
15.0000000000002
 51
45.00000000000008
  0
ARC
  5
12F
330
50
100
AcDbEntity
  8
1
  6
Continuous
 62
     7
100
AcDbCircle
 10
95.38141605081447
 20
362.8935910068691
 30
0.0
 40
24.99999999999996
100
AcDbArc
 50
255.0
 51
285.0000000000003
  0
ARC
  5
130
330
50
100
AcDbEntity
  8
1
  6
Continuous
 62
     7
100
AcDbCircle
 10
128.9765258772462
 20
304.7051539016331
 30
0.0
 40
25.0000000000001
100
AcDbArc
 50
134.9999999999998
 51
165.0000000000001
  0
ARC
  5
131
330
50
100
AcDbEntity
  8
1
  6
Continuous
 62
     7
100
AcDbCircle
 10
173.8549827314961
 20
207.5172282650941
 30
0.0
 40
5.999999999999911
100
AcDbArc
 50
99.80290179376824
 51
172.0000000000008
  0
ARC
  5
132
330
50
100
AcDbEntity
  8
1
  6
Continuous
 62
     7
100
AcDbCircle
 10
210.2425531799685
 20
208.6908005286959
 30
0.0
 40
6.000000000000063
100
AcDbArc
 50
8.00409437170091
 51
80.4085075173346
  0
ARC
  5
133
330
50
100
AcDbEntity
  8
1
  6
Continuous
 62
     7
100
AcDbCircle
 10
167.9566002544251
 20
205.0671871155035
 30
0.0
 40
0.5000000000000461
100
AcDbArc
 50
171.9999999999802
 51
270.0
  0
ARC
  5
134
330
50
100
AcDbEntity
  8
1
  6
Continuous
 62
     7
100
AcDbCircle
 10
216.3061903387401
 20
205.0671871155035
 30
0.0
 40
0.4999999999997726
100
AcDbArc
 50
270.0
 51
8.00409437172242
  0
ARC
  5
135
330
50
100
AcDbEntity
  8
1
  6
Continuous
 62
     7
100
AcDbCircle
 10
116.6336686683547
 20
207.5172282650942
 30
0.0
 40
5.999999999999853
100
AcDbArc
 50
7.99999999999851
 51
80.19709820623207
  0
ARC
  5
136
330
50
100
AcDbEntity
  8
1
  6
Continuous
 62
     7
100
AcDbCircle
 10
122.5320511454257
 20
205.0671871155035
 30
0.0
 40
0.4999999999997726
100
AcDbArc
 50
270.0
 51
8.00000000004076
  0
ARC
  5
137
330
50
100
AcDbEntity
  8
1
  6
Continuous
 62
     7
100
AcDbCircle
 10
68.23078095620366
 20
205.0671871155035
 30
0.0
 40
0.5000000000000456
100
AcDbArc
 50
171.9999999999572
 51
270.0
  0
ARC
  5
138
330
50
100
AcDbEntity
  8
1
  6
Continuous
 62
     7
100
AcDbCircle
 10
74.12916343327458
 20
207.5172282650942
 30
0.0
 40
5.99999999999992
100
AcDbArc
 50
99.80290179376712
 51
172.0000000000014
  0
ENDBLK
  5
52
330
50
100
AcDbEntity
  8
0
100
AcDbBlockEnd
  0
BLOCK
  5
54
330
53
100
AcDbEntity
  8
0
100
AcDbBlockBegin
  2
37-1-13
 70
     0
 10
-17.25007120374224
 20
160.6532280086533
 30
0.0
  3
37-1-13
  1

  0
LINE
  5
139
330
53
100
AcDbEntity
  8
1
  6
Continuous
 62
     7
100
AcDbLine
 10
84.88141605081478
 20
195.4968784036886
 30
0.0
 11
105.3814160508146
 21
195.4968784036885
 31
0.0
  0
LINE
  5
13A
330
53
100
AcDbEntity
  8
1
  6
Continuous
 62
     7
100
AcDbLine
 10
84.35704688653587
 20
315.4551151090901
 30
0.0
 11
83.31926718549278
 21
316.0542774988469
 31
0.0
  0
LINE
  5
13B
330
53
100
AcDbEntity
  8
1
  6
Continuous
 62
     7
100
AcDbLine
 10
108.3814160508145
 20
318.8770080935593
 30
0.0
 11
108.3814160508145
 21
317.6786833140458
 31
0.0
  0
LINE
  5
13C
330
53
100
AcDbEntity
  8
1
  6
Continuous
 62
     7
100
AcDbLine
 10
93.40578521509306
 20
337.9717756074855
 30
0.0
 11
94.44356491613618
 21
338.5709379972423
 31
0.0
  0
LINE
  5
13D
330
53
100
AcDbEntity
  8
1
  6
Continuous
 62
     7
100
AcDbLine
 10
107.4435649161362
 20
316.0542774988469
 30
0.0
 11
106.4057852150931
 21
315.4551151090901
 31
0.0
  0
LINE
  5
13E
330
53
100
AcDbEntity
  8
1
  6
Continuous
 62
     7
100
AcDbLine
 10
96.31926718549269
 20
338.5709379972423
 30
0.0
 11
97.35704688653587
 21
337.9717756074855
 31
0.0
  0
LINE
  5
13F
330
53
100
AcDbEntity
  8
1
  6
Continuous
 62
     7
100
AcDbLine
 10
82.38141605081447
 20
317.6786833140458
 30
0.0
 11
82.38141605081447
 21
318.8770080935594
 31
0.0
  0
LINE
  5
140
330
53
100
AcDbEntity
  8
1
  6
Continuous
 62
     7
100
AcDbLine
 10
204.3814160508146
 20
201.9968784036885
 30
0.0
 11
192.3814160508146
 21
201.9968784036885
 31
0.0
  0
LINE
  5
141
330
53
100
AcDbEntity
  8
1
  6
Continuous
 62
     7
100
AcDbLine
 10
211.4521302650859
 20
187.9968784036885
 30
0.0
 11
185.310701836543
 21
187.9968784036885
 31
0.0
  0
LINE
  5
142
330
53
100
AcDbEntity
  8
1
  6
Continuous
 62
     7
100
AcDbLine
 10
185.8814160508147
 20
195.4968784036886
 30
0.0
 11
198.3814160508146
 21
195.4968784036885
 31
0.0
  0
LINE
  5
143
330
53
100
AcDbEntity
  8
1
  6
Continuous
 62
     7
100
AcDbLine
 10
198.3814160508146
 20
195.4968784036885
 30
0.0
 11
210.8814160508143
 21
195.4968784036886
 31
0.0
  0
LINE
  5
144
330
53
100
AcDbEntity
  8
1
  6
Continuous
 62
     7
100
AcDbLine
 10
95.38141605081458
 20
201.9968784036885
 30
0.0
 11
90.38141605081458
 21
201.9968784036885
 31
0.0
  0
LINE
  5
145
330
53
100
AcDbEntity
  8
1
  6
Continuous
 62
     7
100
AcDbLine
 10
95.38141605081458
 20
201.9968784036885
 30
0.0
 11
101.3814160508146
 21
201.9968784036885
 31
0.0
  0
LINE
  5
146
330
53
100
AcDbEntity
  8
1
  6
Continuous
 62
     7
100
AcDbLine
 10
90.38141605081458
 20
201.9968784036885
 30
0.0
 11
89.38141605081458
 21
201.9968784036885
 31
0.0
  0
LINE
  5
147
330
53
100
AcDbEntity
  8
1
  6
Continuous
 62
     7
100
AcDbLine
 10
95.38141605081458
 20
187.9968784036885
 30
0.0
 11
108.3814160508146
 21
187.9968784036885
 31
0.0
  0
LINE
  5
148
330
53
100
AcDbEntity
  8
1
  6
Continuous
 62
     7
100
AcDbLine
 10
95.38141605081458
 20
187.9968784036885
 30
0.0
 11
82.38141605081458
 21
187.9968784036885
 31
0.0
  0
LINE
  5
149
330
53
100
AcDbEntity
  8
1
  6
Continuous
 62
     7
100
AcDbLine
 10
108.3814160508146
 20
195.0675926179599
 30
0.0
 11
108.3814160508146
 21
187.9968784036885
 31
0.0
  0
LINE
  5
14A
330
53
100
AcDbEntity
  8
1
  6
Continuous
 62
     7
100
AcDbLine
 10
82.38141605081458
 20
187.9968784036885
 30
0.0
 11
82.38141605081458
 21
195.0675926179599
 31
0.0
  0
ARC
  5
14B
330
53
100
AcDbEntity
  8
1
  6
Continuous
 62
     7
100
AcDbCircle
 10
95.38141605081458
 20
324.1012996033785
 30
0.0
 40
14.49999999999982
100
AcDbArc
 50
86.29155527472987
 51
90.00000000000045
  0
ARC
  5
14C
330
53
100
AcDbEntity
  8
1
  6
Continuous
 62
     7
100
AcDbCircle
 10
95.38141605081458
 20
324.1012996033785
 30
0.0
 40
14.5
100
AcDbArc
 50
326.2915552747285
 51
333.7084447252702
  0
ARC
  5
14D
330
53
100
AcDbEntity
  8
1
  6
Continuous
 62
     7
100
AcDbCircle
 10
95.38141605081458
 20
324.1012996033785
 30
0.0
 40
14.49999999999989
100
AcDbArc
 50
90.00000000000045
 51
93.70844472527126
  0
ARC
  5
14E
330
53
100
AcDbEntity
  8
1
  6
Continuous
 62
     7
100
AcDbCircle
 10
95.38141605081458
 20
324.1012996033785
 30
0.0
 40
14.50000000000015
100
AcDbArc
 50
206.2915552747295
 51
213.7084447252711
  0
ARC
  5
14F
330
53
100
AcDbEntity
  8
1
  6
Continuous
 62
     7
100
AcDbCircle
 10
188.8814160508146
 20
191.4968784036885
 30
0.0
 40
5.00000000000004
100
AcDbArc
 50
126.8698976458425
 51
224.4270040008041
  0
ARC
  5
150
330
53
100
AcDbEntity
  8
1
  6
Continuous
 62
     7
100
AcDbCircle
 10
172.4749608456995
 20
215.4033336088035
 30
0.0
 40
24.00000000000012
100
AcDbArc
 50
303.959192500098
 51
326.0408074999025
  0
ARC
  5
151
330
53
100
AcDbEntity
  8
1
  6
Continuous
 62
     7
100
AcDbCircle
 10
207.8814160508146
 20
191.4968784036885
 30
0.0
 40
4.999999999999915
100
AcDbArc
 50
315.5729959991933
 51
53.13010235415963
  0
ARC
  5
152
330
53
100
AcDbEntity
  8
1
  6
Continuous
 62
     7
100
AcDbCircle
 10
224.2878712559294
 20
215.4033336088035
 30
0.0
 40
23.99999999999993
100
AcDbArc
 50
213.9591925000979
 51
236.0408074999021
  0
ARC
  5
153
330
53
100
AcDbEntity
  8
1
  6
Continuous
 62
     7
100
AcDbCircle
 10
121.2878712559296
 20
215.4033336088035
 30
0.0
 40
24.00000000000012
100
AcDbArc
 50
213.9591925000975
 51
236.0408074999023
  0
ARC
  5
154
330
53
100
AcDbEntity
  8
1
  6
Continuous
 62
     7
100
AcDbCircle
 10
104.8814160508146
 20
191.4968784036885
 30
0.0
 40
4.999999999999975
100
AcDbArc
 50
45.57299599919402
 51
53.13010235415676
  0
ARC
  5
155
330
53
100
AcDbEntity
  8
1
  6
Continuous
 62
     7
100
AcDbCircle
 10
69.47496084569968
 20
215.4033336088035
 30
0.0
 40
23.99999999999996
100
AcDbArc
 50
303.9591925000975
 51
326.0408074999023
  0
ARC
  5
156
330
53
100
AcDbEntity
  8
1
  6
Continuous
 62
     7
100
AcDbCircle
 10
85.88141605081458
 20
191.4968784036885
 30
0.0
 40
5.000000000000091
100
AcDbArc
 50
126.8698976458433
 51
134.427004000806
  0
SPLINE
  5
157
330
53
100
AcDbEntity
  8
1
  6
Continuous
 62
     7
100
AcDbSpline
210
0.0
220
0.0
230
1.0
 70
    11
 71
     3
 72
    79
 73
    75
 74
    73
 42
0.000000001
 43
0.0000000001
 44
0.00000001
 40
0.0
 40
0.0
 40
0.0
 40
0.0
 40
0.3102615582252694
 40
0.6205595420822205
 40
0.9422162975289445
 40
1.263944872753847
 40
1.606039020845022
 40
1.94819346890695
 40
2.316051885190453
 40
2.683951048239897
 40
3.079084664080319
 40
3.474244780173657
 40
3.89489795920755
 40
4.315568207494282
 40
4.75745212673646
 40
5.199346674241622
 40
5.656354161987029
 40
6.113367478658105
 40
6.578223037733259
 40
7.043080455842852
 40
7.50793787395031
 40
7.972793433018651
 40
8.429806749677535
 40
8.886814237403497
 40
9.328708784880309
 40
9.77059270408142
 40
10.19126295231266
 40
10.61191613126927
 40
11.00707624726315
 40
11.40220986296876
 40
11.77010902584985
 40
12.13796744190983
 40
12.48012188969625
 40
12.82221603741914
 40
13.14394461216137
 40
13.4656013668247
 40
13.77589934864139
 40
14.08616091447255
 40
14.39642248030365
 40
14.70672046212028
 40
15.02837721678358
 40
15.35010579152584
 40
15.69219993924868
 40
16.03435438703506
 40
16.4022128030951
 40
16.77011196597626
 40
17.16524558168189
 40
17.56040569767575
 40
17.98105887663231
 40
18.40172912486352
 40
18.84361304406463
 40
19.28550759154145
 40
19.74251507926742
 40
20.19952839592634
 40
20.66438395499466
 40
21.12924137310213
 40
21.59409879121172
 40
22.05895435028687
 40
22.51596766695795
 40
22.97297515470339
 40
23.41486970220855
 40
23.85675362145074
 40
24.27742386973743
 40
24.69807704877127
 40
25.09323716486463
 40
25.48837078070504
 40
25.85626994375457
 40
26.22412836003812
 40
26.56628280810001
 40
26.90837695619112
 40
27.230105531416
 40
27.55176228686275
 40
27.86206027071967
 40
28.17232182894486
 40
28.17232182894486
 40
28.17232182894486
 40
28.17232182894486
 10
94.44356491613638
 20
191.5322355108242
 30
0.0
 10
94.43953172442038
 20
191.6357256927464
 30
0.0
 10
94.43146487574964
 20
191.8427182070911
 30
0.0
 10
94.36748089794013
 20
192.1515670751137
 30
0.0
 10
94.26606010164272
 20
192.4535339888478
 30
0.0
 10
94.12363760154506
 20
192.7504436449626
 30
0.0
 10
93.94453502878503
 20
193.0347617533228
 30
0.0
 10
93.72656476092457
 20
193.3102627996192
 30
0.0
 10
93.47628260688964
 20
193.5688688202877
 30
0.0
 10
93.18982044511793
 20
193.8146267099005
 30
0.0
 10
92.8759896928307
 20
194.0402719700951
 30
0.0
 10
92.5300755277995
 20
194.249043637983
 30
0.0
 10
92.16195673564893
 20
194.4352644062544
 30
0.0
 10
91.76726280073211
 20
194.600948936601
 30
0.0
 10
91.35570960076014
 20
194.7422567094507
 30
0.0
 10
90.92428390116571
 20
194.8600361980251
 30
0.0
 10
90.48150987245515
 20
194.9521544996637
 30
0.0
 10
90.02645187386123
 20
195.0186404270565
 30
0.0
 10
89.56568477178014
 20
195.0586979839669
 30
0.0
 10
89.1007625963492
 20
195.0720399412621
 30
0.0
 10
88.63584042092221
 20
195.0586979840454
 30
0.0
 10
88.17507331882953
 20
195.0186404272177
 30
0.0
 10
87.72001532027726
 20
194.9521544999162
 30
0.0
 10
87.27724129141234
 20
194.8600361983813
 30
0.0
 10
86.84581559237058
 20
194.7422567099286
 30
0.0
 10
86.43426239037187
 20
194.6009489372206
 30
0.0
 10
86.03956846264958
 20
194.4352644070434
 30
0.0
 10
85.67144964442757
 20
194.2490436389695
 30
0.0
 10
85.3255355710045
 20
194.0402719713169
 30
0.0
 10
85.01170448906645
 20
193.8146267113943
 30
0.0
 10
84.7252434765934
 20
193.568868822103
 30
0.0
 10
84.47495719752035
 20
193.3102628018041
 30
0.0
 10
84.2570012995134
 20
193.0347617559477
 30
0.0
 10
84.0778469857743
 20
192.7504436481084
 30
0.0
 10
83.93560663438655
 20
192.4535339926959
 30
0.0
 10
83.8335229823464
 20
192.1515670801868
 30
0.0
 10
83.77192974241848
 20
191.8427182110402
 30
0.0
 10
83.75097593895705
 20
191.5322355108243
 30
0.0
 10
83.77192974241851
 20
191.2217528106082
 30
0.0
 10
83.8335229823464
 20
190.9129039414617
 30
0.0
 10
83.93560663438655
 20
190.6109370289526
 30
0.0
 10
84.07784698577426
 20
190.3140273735402
 30
0.0
 10
84.25700129951343
 20
190.0297092657009
 30
0.0
 10
84.4749571975204
 20
189.7542082198445
 30
0.0
 10
84.7252434765934
 20
189.4956021995455
 30
0.0
 10
85.0117044890664
 20
189.2498443102541
 30
0.0
 10
85.32553557100445
 20
189.0241990503314
 30
0.0
 10
85.67144964442755
 20
188.8154273826789
 30
0.0
 10
86.0395684626496
 20
188.6292066146052
 30
0.0
 10
86.43426239037187
 20
188.463522084428
 30
0.0
 10
86.8458155923706
 20
188.3222143117201
 30
0.0
 10
87.27724129141234
 20
188.2044348232672
 30
0.0
 10
87.72001532027724
 20
188.1123165217322
 30
0.0
 10
88.17507331882956
 20
188.0458305944306
 30
0.0
 10
88.6358404209222
 20
188.005773037603
 30
0.0
 10
89.10076259634918
 20
187.9924310803865
 30
0.0
 10
89.56568477178016
 20
188.0057730376816
 30
0.0
 10
90.02645187386123
 20
188.0458305945918
 30
0.0
 10
90.48150987245512
 20
188.1123165219848
 30
0.0
 10
90.92428390116572
 20
188.2044348236236
 30
0.0
 10
91.35570960076014
 20
188.3222143121979
 30
0.0
 10
91.76726280073207
 20
188.4635220850477
 30
0.0
 10
92.16195673564893
 20
188.6292066153941
 30
0.0
 10
92.53007552779954
 20
188.8154273836654
 30
0.0
 10
92.8759896928307
 20
189.0241990515533
 30
0.0
 10
93.18982044511799
 20
189.2498443117478
 30
0.0
 10
93.47628260688958
 20
189.4956022013608
 30
0.0
 10
93.72656476092457
 20
189.7542082220294
 30
0.0
 10
93.94453502878503
 20
190.0297092683258
 30
0.0
 10
94.12363760154508
 20
190.3140273766859
 30
0.0
 10
94.26606010164274
 20
190.6109370328007
 30
0.0
 10
94.36748089794011
 20
190.9129039465346
 30
0.0
 10
94.43146487574958
 20
191.2217528145574
 30
0.0
 10
94.4395317244204
 20
191.428745328902
 30
0.0
 10
94.44356491613638
 20
191.5322355108242
 30
0.0
 11
94.44356491613638
 21
191.5322355108242
 31
0.0
 11
94.42294782293563
 21
191.8418113089609
 31
0.0
 11
94.36239574353758
 21
192.1461438298802
 31
0.0
 11
94.25992885490567
 21
192.4510431651435
 31
0.0
 11
94.12135450997678
 21
192.7413988553142
 31
0.0
 11
93.93956246561955
 21
193.0311919860057
 31
0.0
 11
93.72776513136338
 21
193.2999140643921
 31
0.0
 11
93.47240862108953
 21
193.564702408161
 31
0.0
 11
93.19358662180028
 21
193.8047192551082
 31
0.0
 11
92.87309469417534
 21
194.0358371874335
 31
0.0
 11
92.53504972499348
 21
194.2404761771867
 31
0.0
 11
92.15988600114926
 21
194.4307425097779
 31
0.0
 11
91.77216375131638
 21
194.5939445770536
 31
0.0
 11
91.3543274268551
 21
194.7377298476356
 31
0.0
 11
90.92810860504056
 21
194.8543844962427
 31
0.0
 11
90.48071863895065
 21
194.9476478979421
 31
0.0
 11
90.02853047467298
 21
195.0138825995982
 31
0.0
 11
89.56542726146063
 21
195.054207588365
 31
0.0
 11
89.10076258649636
 21
195.0675926179599
 31
0.0
 11
88.63609791153206
 21
195.0542075883649
 31
0.0
 11
88.17299469831968
 21
195.0138825995982
 31
0.0
 11
87.72080653404197
 21
194.9476478979421
 31
0.0
 11
87.27341656795198
 21
194.8543844962427
 31
0.0
 11
86.84719774613751
 21
194.7377298476356
 31
0.0
 11
86.42936142167628
 21
194.5939445770536
 31
0.0
 11
86.04163917184351
 21
194.4307425097779
 31
0.0
 11
85.66647544799937
 21
194.2404761771867
 31
0.0
 11
85.32843047881742
 21
194.0358371874335
 31
0.0
 11
85.00793855119238
 21
193.8047192551082
 31
0.0
 11
84.72911655190313
 21
193.564702408161
 31
0.0
 11
84.47376004162928
 21
193.2999140643921
 31
0.0
 11
84.26196270737316
 21
193.0311919860057
 31
0.0
 11
84.08017066301596
 21
192.7413988553142
 31
0.0
 11
83.94159631808704
 21
192.4510431651436
 31
0.0
 11
83.83912942945508
 21
192.1461438298802
 31
0.0
 11
83.77857735005702
 21
191.8418113089609
 31
0.0
 11
83.75796025685628
 21
191.5322355108242
 31
0.0
 11
83.77857735005703
 21
191.2226597126875
 31
0.0
 11
83.83912942945508
 21
190.9183271917683
 31
0.0
 11
83.94159631808702
 21
190.6134278565049
 31
0.0
 11
84.08017066301596
 21
190.3230721663343
 31
0.0
 11
84.26196270737319
 21
190.0332790356429
 31
0.0
 11
84.47376004162928
 21
189.7645569572565
 31
0.0
 11
84.72911655190313
 21
189.4997686134875
 31
0.0
 11
85.00793855119238
 21
189.2597517665402
 31
0.0
 11
85.32843047881741
 21
189.0286338342149
 31
0.0
 11
85.66647544799937
 21
188.8239948444617
 31
0.0
 11
86.04163917184351
 21
188.6337285118707
 31
0.0
 11
86.42936142167628
 21
188.470526444595
 31
0.0
 11
86.84719774613751
 21
188.326741174013
 31
0.0
 11
87.27341656795198
 21
188.2100865254059
 31
0.0
 11
87.72080653404196
 21
188.1168231237064
 31
0.0
 11
88.17299469831968
 21
188.0505884220502
 31
0.0
 11
88.63609791153205
 21
188.0102634332835
 31
0.0
 11
89.10076258649636
 21
187.9968784036886
 31
0.0
 11
89.56542726146063
 21
188.0102634332835
 31
0.0
 11
90.02853047467298
 21
188.0505884220502
 31
0.0
 11
90.48071863895063
 21
188.1168231237064
 31
0.0
 11
90.92810860504056
 21
188.2100865254059
 31
0.0
 11
91.3543274268551
 21
188.326741174013
 31
0.0
 11
91.77216375131638
 21
188.470526444595
 31
0.0
 11
92.15988600114926
 21
188.6337285118706
 31
0.0
 11
92.53504972499348
 21
188.8239948444617
 31
0.0
 11
92.87309469417535
 21
189.0286338342149
 31
0.0
 11
93.19358662180028
 21
189.2597517665402
 31
0.0
 11
93.47240862108953
 21
189.4997686134875
 31
0.0
 11
93.72776513136338
 21
189.7645569572565
 31
0.0
 11
93.93956246561953
 21
190.0332790356429
 31
0.0
 11
94.12135450997678
 21
190.3230721663343
 31
0.0
 11
94.25992885490568
 21
190.6134278565049
 31
0.0
 11
94.36239574353758
 21
190.9183271917683
 31
0.0
 11
94.42294782293561
 21
191.2226597126875
 31
0.0
 11
94.44356491613638
 21
191.5322355108242
 31
0.0
  0
SPLINE
  5
158
330
53
100
AcDbEntity
  8
1
  6
Continuous
 62
     7
100
AcDbSpline
210
0.0
220
0.0
230
1.0
 70
    11
 71
     3
 72
    79
 73
    75
 74
    73
 42
0.000000001
 43
0.0000000001
 44
0.00000001
 40
0.0
 40
0.0
 40
0.0
 40
0.0
 40
0.310261558225241
 40
0.6205595420822145
 40
0.942216297528979
 40
1.263944872753824
 40
1.606039020845045
 40
1.948193468907025
 40
2.316051885190508
 40
2.683951048239889
 40
3.079084664080356
 40
3.474244780173767
 40
3.894897959207571
 40
4.315568207494185
 40
4.757452126736462
 40
5.199346674241691
 40
5.656354161987078
 40
6.113367478658131
 40
6.578223037733411
 40
7.043080455843161
 40
7.507937873950563
 40
7.97279343301879
 40
8.429806749677605
 40
8.88681423740354
 40
9.328708784880325
 40
9.77059270408145
 40
10.1912629523128
 40
10.61191613126948
 40
11.00707624726336
 40
11.40220986296898
 40
11.77010902584996
 40
12.1379674419099
 40
12.48012188969635
 40
12.82221603741925
 40
13.14394461216147
 40
13.46560136682474
 40
13.77589934864148
 40
14.08616091447262
 40
14.39642248030367
 40
14.70672046212038
 40
15.02837721678367
 40
15.35010579152587
 40
15.69219993924866
 40
16.03435438703513
 40
16.4022128030951
 40
16.77011196597618
 40
17.16524558168176
 40
17.56040569767568
 40
17.98105887663231
 40
18.40172912486363
 40
18.84361304406474
 40
19.28550759154154
 40
19.74251507926748
 40
20.19952839592633
 40
20.66438395499455
 40
21.12924137310195
 40
21.59409879121171
 40
22.05895435028697
 40
22.51596766695803
 40
22.97297515470344
 40
23.41486970220869
 40
23.85675362145096
 40
24.27742386973754
 40
24.69807704877129
 40
25.09323716486471
 40
25.48837078070517
 40
25.85626994375465
 40
26.22412836003816
 40
26.56628280810014
 40
26.90837695619127
 40
27.23010553141614
 40
27.55176228686288
 40
27.86206027071982
 40
28.17232182894498
 40
28.17232182894498
 40
28.17232182894498
 40
28.17232182894498
 10
96.31926718549298
 20
191.5322355108242
 30
0.0
 10
96.32330037720897
 20
191.6357256927464
 30
0.0
 10
96.33136722587977
 20
191.8427182070911
 30
0.0
 10
96.39535120368916
 20
192.1515670751137
 30
0.0
 10
96.49677199998658
 20
192.4535339888479
 30
0.0
 10
96.63919450008422
 20
192.7504436449626
 30
0.0
 10
96.8182970728443
 20
193.0347617533228
 30
0.0
 10
97.03626734070484
 20
193.3102627996192
 30
0.0
 10
97.28654949473982
 20
193.5688688202877
 30
0.0
 10
97.57301165651141
 20
193.8146267099006
 30
0.0
 10
97.88684240879866
 20
194.0402719700951
 30
0.0
 10
98.23275657382993
 20
194.249043637983
 30
0.0
 10
98.60087536598043
 20
194.4352644062544
 30
0.0
 10
98.99556930089719
 20
194.600948936601
 30
0.0
 10
99.40712250086918
 20
194.7422567094507
 30
0.0
 10
99.83854820046369
 20
194.8600361980251
 30
0.0
 10
100.2813222291742
 20
194.9521544996636
 30
0.0
 10
100.7363802277682
 20
195.0186404270566
 30
0.0
 10
101.1971473298494
 20
195.0586979839669
 30
0.0
 10
101.6620695052804
 20
195.0720399412621
 30
0.0
 10
102.1269916807073
 20
195.0586979840453
 30
0.0
 10
102.5877587828
 20
195.0186404272177
 30
0.0
 10
103.0428167813522
 20
194.9521544999162
 30
0.0
 10
103.4855908102171
 20
194.8600361983814
 30
0.0
 10
103.9170165092588
 20
194.7422567099286
 30
0.0
 10
104.3285697112576
 20
194.6009489372206
 30
0.0
 10
104.7232636389799
 20
194.4352644070434
 30
0.0
 10
105.091382457202
 20
194.2490436389695
 30
0.0
 10
105.4372965306251
 20
194.040271971317
 30
0.0
 10
105.7511276125631
 20
193.8146267113943
 30
0.0
 10
106.037588625036
 20
193.5688688221029
 30
0.0
 10
106.287874904109
 20
193.3102628018041
 30
0.0
 10
106.505830802116
 20
193.0347617559477
 30
0.0
 10
106.6849851158552
 20
192.7504436481084
 30
0.0
 10
106.8272254672427
 20
192.4535339926959
 30
0.0
 10
106.9293091192829
 20
192.1515670801867
 30
0.0
 10
106.9909023592109
 20
191.8427182110402
 30
0.0
 10
107.0118561626725
 20
191.5322355108242
 30
0.0
 10
106.9909023592109
 20
191.2217528106082
 30
0.0
 10
106.9293091192828
 20
190.9129039414617
 30
0.0
 10
106.8272254672427
 20
190.6109370289525
 30
0.0
 10
106.6849851158553
 20
190.3140273735401
 30
0.0
 10
106.505830802116
 20
190.0297092657009
 30
0.0
 10
106.287874904109
 20
189.7542082198445
 30
0.0
 10
106.037588625036
 20
189.4956021995455
 30
0.0
 10
105.7511276125632
 20
189.2498443102542
 30
0.0
 10
105.4372965306252
 20
189.0241990503314
 30
0.0
 10
105.091382457202
 20
188.8154273826789
 30
0.0
 10
104.7232636389799
 20
188.6292066146052
 30
0.0
 10
104.3285697112575
 20
188.463522084428
 30
0.0
 10
103.9170165092588
 20
188.3222143117201
 30
0.0
 10
103.485590810217
 20
188.2044348232673
 30
0.0
 10
103.0428167813522
 20
188.1123165217323
 30
0.0
 10
102.5877587828
 20
188.0458305944306
 30
0.0
 10
102.1269916807074
 20
188.0057730376031
 30
0.0
 10
101.6620695052804
 20
187.9924310803864
 30
0.0
 10
101.1971473298494
 20
188.0057730376816
 30
0.0
 10
100.7363802277682
 20
188.0458305945917
 30
0.0
 10
100.2813222291742
 20
188.1123165219848
 30
0.0
 10
99.83854820046368
 20
188.2044348236235
 30
0.0
 10
99.4071225008692
 20
188.3222143121979
 30
0.0
 10
98.99556930089722
 20
188.4635220850477
 30
0.0
 10
98.60087536598043
 20
188.6292066153941
 30
0.0
 10
98.23275657382993
 20
188.8154273836655
 30
0.0
 10
97.88684240879869
 20
189.0241990515532
 30
0.0
 10
97.57301165651138
 20
189.2498443117479
 30
0.0
 10
97.28654949473977
 20
189.4956022013608
 30
0.0
 10
97.03626734070485
 20
189.7542082220294
 30
0.0
 10
96.81829707284437
 20
190.0297092683258
 30
0.0
 10
96.63919450008416
 20
190.3140273766859
 30
0.0
 10
96.49677199998655
 20
190.6109370328006
 30
0.0
 10
96.3953512036892
 20
190.9129039465348
 30
0.0
 10
96.33136722587979
 20
191.2217528145573
 30
0.0
 10
96.32330037720898
 20
191.4287453289021
 30
0.0
 10
96.31926718549298
 20
191.5322355108242
 30
0.0
 11
96.31926718549298
 21
191.5322355108242
 31
0.0
 11
96.33988427869373
 21
191.8418113089609
 31
0.0
 11
96.40043635809175
 21
192.1461438298802
 31
0.0
 11
96.50290324672362
 21
192.4510431651436
 31
0.0
 11
96.64147759165249
 21
192.7413988553142
 31
0.0
 11
96.82326963600981
 21
193.0311919860057
 31
0.0
 11
97.03506697026606
 21
193.2999140643921
 31
0.0
 11
97.29042348053989
 21
193.564702408161
 31
0.0
 11
97.56924547982905
 21
193.8047192551082
 31
0.0
 11
97.88973740745405
 21
194.0358371874335
 31
0.0
 11
98.22778237663599
 21
194.2404761771867
 31
0.0
 11
98.60294610048011
 21
194.4307425097779
 31
0.0
 11
98.99066835031286
 21
194.5939445770536
 31
0.0
 11
99.40850467477424
 21
194.7377298476356
 31
0.0
 11
99.83472349658885
 21
194.8543844962427
 31
0.0
 11
100.2821134626788
 21
194.947647897942
 31
0.0
 11
100.7343016269564
 21
195.0138825995982
 31
0.0
 11
101.1974048401689
 21
195.054207588365
 31
0.0
 11
101.6620695151333
 21
195.0675926179599
 31
0.0
 11
102.1267341900975
 21
195.0542075883649
 31
0.0
 11
102.5898374033098
 21
195.0138825995982
 31
0.0
 11
103.0420255675874
 21
194.9476478979421
 31
0.0
 11
103.4894155336774
 21
194.8543844962427
 31
0.0
 11
103.9156343554918
 21
194.7377298476356
 31
0.0
 11
104.3334706799531
 21
194.5939445770536
 31
0.0
 11
104.721192929786
 21
194.4307425097779
 31
0.0
 11
105.0963566536302
 21
194.2404761771867
 31
0.0
 11
105.4344016228121
 21
194.0358371874335
 31
0.0
 11
105.7548935504372
 21
193.8047192551082
 31
0.0
 11
106.0337155497263
 21
193.564702408161
 31
0.0
 11
106.2890720600001
 21
193.2999140643921
 31
0.0
 11
106.5008693942563
 21
193.0311919860057
 31
0.0
 11
106.6826614386135
 21
192.7413988553142
 31
0.0
 11
106.8212357835423
 21
192.4510431651435
 31
0.0
 11
106.9237026721742
 21
192.1461438298802
 31
0.0
 11
106.9842547515724
 21
191.8418113089609
 31
0.0
 11
107.0048718447732
 21
191.5322355108242
 31
0.0
 11
106.9842547515724
 21
191.2226597126876
 31
0.0
 11
106.9237026721742
 21
190.9183271917683
 31
0.0
 11
106.8212357835423
 21
190.6134278565049
 31
0.0
 11
106.6826614386135
 21
190.3230721663343
 31
0.0
 11
106.5008693942563
 21
190.033279035643
 31
0.0
 11
106.2890720600001
 21
189.7645569572565
 31
0.0
 11
106.0337155497263
 21
189.4997686134875
 31
0.0
 11
105.7548935504372
 21
189.2597517665402
 31
0.0
 11
105.4344016228122
 21
189.0286338342149
 31
0.0
 11
105.0963566536302
 21
188.8239948444617
 31
0.0
 11
104.721192929786
 21
188.6337285118707
 31
0.0
 11
104.3334706799531
 21
188.470526444595
 31
0.0
 11
103.9156343554918
 21
188.326741174013
 31
0.0
 11
103.4894155336774
 21
188.2100865254059
 31
0.0
 11
103.0420255675875
 21
188.1168231237064
 31
0.0
 11
102.5898374033098
 21
188.0505884220502
 31
0.0
 11
102.1267341900975
 21
188.0102634332835
 31
0.0
 11
101.6620695151333
 21
187.9968784036886
 31
0.0
 11
101.1974048401689
 21
188.0102634332835
 31
0.0
 11
100.7343016269564
 21
188.0505884220502
 31
0.0
 11
100.2821134626788
 21
188.1168231237064
 31
0.0
 11
99.83472349658885
 21
188.2100865254059
 31
0.0
 11
99.40850467477424
 21
188.326741174013
 31
0.0
 11
98.99066835031286
 21
188.470526444595
 31
0.0
 11
98.60294610048011
 21
188.6337285118706
 31
0.0
 11
98.22778237663599
 21
188.8239948444617
 31
0.0
 11
97.88973740745404
 21
189.0286338342149
 31
0.0
 11
97.56924547982905
 21
189.2597517665402
 31
0.0
 11
97.29042348053987
 21
189.4997686134875
 31
0.0
 11
97.03506697026606
 21
189.7645569572565
 31
0.0
 11
96.82326963600983
 21
190.0332790356429
 31
0.0
 11
96.64147759165249
 21
190.3230721663343
 31
0.0
 11
96.50290324672362
 21
190.6134278565049
 31
0.0
 11
96.40043635809175
 21
190.9183271917683
 31
0.0
 11
96.33988427869375
 21
191.2226597126876
 31
0.0
 11
96.31926718549298
 21
191.5322355108242
 31
0.0
  0
SPLINE
  5
159
330
53
100
AcDbEntity
  8
1
  6
Continuous
 62
     7
100
AcDbSpline
210
0.0
220
0.0
230
1.0
 70
    11
 71
     3
 72
    79
 73
    75
 74
    73
 42
0.000000001
 43
0.0000000001
 44
0.00000001
 40
0.0
 40
0.0
 40
0.0
 40
0.0
 40
0.2803981055170415
 40
0.5607977780793441
 40
0.8427454767814568
 40
1.124697465942863
 40
1.409536444711831
 40
1.694381494092039
 40
1.983071303433738
 40
2.271767836809121
 40
2.564776135645515
 40
2.857790848031784
 40
3.155055692063516
 40
3.452325972452694
 40
3.753284820909558
 40
4.054247736388306
 40
4.357919800455262
 40
4.661594361771442
 40
4.966700742338096
 40
5.271807963175714
 40
5.576915184003012
 40
5.882021564538542
 40
6.185696125802627
 40
6.489368189796015
 40
6.790331105179865
 40
7.091289953518751
 40
7.388560233767538
 40
7.685825077633757
 40
7.978839789830556
 40
8.271848088449259
 40
8.560544621579863
 40
8.849234430642634
 40
9.13407947970738
 40
9.418918458106281
 40
9.700870446812873
 40
9.982818144856134
 40
10.26321781600887
 40
10.54361593035238
 40
10.82401404469592
 40
11.10441371584863
 40
11.386361413892
 40
11.6683134025986
 40
11.95315238099755
 40
12.23799743006235
 40
12.52668723912509
 40
12.81538377225563
 40
13.10839207087424
 40
13.401406783071
 40
13.69867162693722
 40
13.99594190718607
 40
14.29690075552496
 40
14.59786367090879
 40
14.90153573490215
 40
15.20521029616627
 40
15.51031667670181
 40
15.81542389752912
 40
16.12053111836673
 40
16.4256374989334
 40
16.72931206024962
 40
17.03298412431654
 40
17.33394703979531
 40
17.63490588825214
 40
17.93217616864133
 40
18.22944101267311
 40
18.52245572505938
 40
18.81546402389564
 40
19.10416055727101
 40
19.39285036661263
 40
19.67769541599289
 40
19.96253439476191
 40
20.24448638392336
 40
20.52643408262553
 40
20.80683375518784
 40
21.08723186070488
 40
21.08723186070488
 40
21.08723186070488
 40
21.08723186070488
 10
209.6397463000122
 20
194.9968784036885
 30
0.0
 10
209.7332468400543
 20
194.9942970178824
 30
0.0
 10
209.9202484428565
 20
194.9891342371778
 30
0.0
 10
210.1987328540494
 20
194.9476618886144
 30
0.0
 10
210.4726750512021
 20
194.8817617287729
 30
0.0
 10
210.7406032169709
 20
194.7895296198155
 30
0.0
 10
210.9996490048413
 20
194.6724474306866
 30
0.0
 10
211.2488082992583
 20
194.5309711492876
 30
0.0
 10
211.4851183196724
 20
194.3666888034512
 30
0.0
 10
211.7078933138102
 20
194.1802286553724
 30
0.0
 10
211.9143493463164
 20
193.9738041805595
 30
0.0
 10
212.1039620901564
 20
193.7480864862359
 30
0.0
 10
212.2743612662749
 20
193.5057956879911
 30
0.0
 10
212.4250740740707
 20
193.2477381952471
 30
0.0
 10
212.5542972107798
 20
192.9769109918546
 30
0.0
 10
212.6615768841448
 20
192.6943941384413
 30
0.0
 10
212.7457313878782
 20
192.4032061679264
 30
0.0
 10
212.806374661886
 20
192.1048273950851
 30
0.0
 10
212.8429084243324
 20
191.802066423274
 30
0.0
 10
212.8551274552441
 20
191.4968784130915
 30
0.0
 10
212.8429084246825
 20
191.1916904029067
 30
0.0
 10
212.806374662587
 20
190.8889294310802
 30
0.0
 10
212.7457313889325
 20
190.5905506582373
 30
0.0
 10
212.6615768855555
 20
190.2993626876334
 30
0.0
 10
212.554297212551
 20
190.0168458344173
 30
0.0
 10
212.4250740762074
 20
189.7460186301212
 30
0.0
 10
212.274361268784
 20
189.4879611404946
 30
0.0
 10
212.1039620930449
 20
189.2456703304381
 30
0.0
 10
211.9143493495938
 20
189.0199526792764
 30
0.0
 10
211.707893317487
 20
188.8135280442824
 30
0.0
 10
211.4851183237631
 20
188.6270684851343
 30
0.0
 10
211.2488083037813
 20
188.4627839574488
 30
0.0
 10
210.999649009827
 20
188.3213157144005
 30
0.0
 10
210.7406032224666
 20
188.2042037108168
 30
0.0
 10
210.4726750573327
 20
188.1120817923579
 30
0.0
 10
210.198732861133
 20
188.0457720268001
 30
0.0
 10
209.9202484480963
 20
188.0058203617102
 30
0.0
 10
209.6397463000123
 20
187.9924074520894
 30
0.0
 10
209.359244151928
 20
188.0058203617102
 30
0.0
 10
209.0807597388914
 20
188.0457720268001
 30
0.0
 10
208.8068175426916
 20
188.1120817923578
 30
0.0
 10
208.5388893775577
 20
188.2042037108168
 30
0.0
 10
208.2798435901972
 20
188.3213157144005
 30
0.0
 10
208.0306842962429
 20
188.4627839574487
 30
0.0
 10
207.7943742762611
 20
188.6270684851343
 30
0.0
 10
207.5715992825373
 20
188.8135280442824
 30
0.0
 10
207.3651432504307
 20
189.0199526792763
 30
0.0
 10
207.1755305069796
 20
189.2456703304382
 30
0.0
 10
207.0051313312405
 20
189.4879611404946
 30
0.0
 10
206.8544185238169
 20
189.7460186301211
 30
0.0
 10
206.7251953874734
 20
190.0168458344173
 30
0.0
 10
206.617915714469
 20
190.2993626876334
 30
0.0
 10
206.5337612110919
 20
190.5905506582373
 30
0.0
 10
206.4731179374375
 20
190.8889294310802
 30
0.0
 10
206.4365841753417
 20
191.1916904029067
 30
0.0
 10
206.4243651447802
 20
191.4968784130914
 30
0.0
 10
206.4365841756918
 20
191.802066423274
 30
0.0
 10
206.4731179381385
 20
192.104827395085
 30
0.0
 10
206.5337612121463
 20
192.4032061679264
 30
0.0
 10
206.6179157158796
 20
192.6943941384414
 30
0.0
 10
206.7251953892447
 20
192.9769109918546
 30
0.0
 10
206.8544185259537
 20
193.2477381952471
 30
0.0
 10
207.0051313337497
 20
193.505795687991
 30
0.0
 10
207.1755305098681
 20
193.748086486236
 30
0.0
 10
207.365143253708
 20
193.9738041805594
 30
0.0
 10
207.5715992862141
 20
194.1802286553725
 30
0.0
 10
207.7943742803518
 20
194.3666888034512
 30
0.0
 10
208.030684300766
 20
194.5309711492876
 30
0.0
 10
208.2798435951828
 20
194.6724474306865
 30
0.0
 10
208.5388893830534
 20
194.7895296198155
 30
0.0
 10
208.8068175488223
 20
194.8817617287728
 30
0.0
 10
209.0807597459749
 20
194.9476618886144
 30
0.0
 10
209.359244157168
 20
194.9891342371779
 30
0.0
 10
209.5462457599702
 20
194.9942970178824
 30
0.0
 10
209.6397463000122
 20
194.9968784036885
 30
0.0
 11
209.6397463000122
 21
194.9968784036885
 31
0.0
 11
209.9198262988818
 21
194.9835256183904
 31
0.0
 11
210.1973841072604
 21
194.9437055392313
 31
0.0
 11
210.4714355116393
 21
194.8774459565074
 31
0.0
 11
210.7380783719138
 21
194.7858025764392
 31
0.0
 11
210.9976667964497
 21
194.6685545761541
 31
0.0
 11
211.2454003723452
 21
194.5279673169341
 31
0.0
 11
211.4825008569542
 21
194.363270121582
 31
0.0
 11
211.7039353862891
 21
194.1780339546049
 31
0.0
 11
211.911218775599
 21
193.9709410776897
 31
0.0
 11
212.0997510593766
 21
193.7466350375914
 31
0.0
 11
212.2708396059502
 21
193.5035402068906
 31
0.0
 11
212.4208207326731
 21
193.2468784036885
 31
0.0
 11
212.5504975125475
 21
192.9752901837174
 31
0.0
 11
212.6573888666248
 21
192.6939489053284
 31
0.0
 11
212.7417549279551
 21
192.402231421783
 31
0.0
 11
212.8022674581908
 21
192.1046470255228
 31
0.0
 11
212.8388464067537
 21
191.8017412909885
 31
0.0
 11
212.8510544446784
 21
191.4968784036885
 31
0.0
 11
212.8388464067537
 21
191.1920155163885
 31
0.0
 11
212.8022674581908
 21
190.8891097818542
 31
0.0
 11
212.7417549279551
 21
190.5915253855941
 31
0.0
 11
212.6573888666248
 21
190.2998079020487
 31
0.0
 11
212.5504975125474
 21
190.0184666236597
 31
0.0
 11
212.4208207326731
 21
189.7468784036885
 31
0.0
 11
212.2708396059502
 21
189.4902166004864
 31
0.0
 11
212.0997510593766
 21
189.2471217697856
 31
0.0
 11
211.9112187755989
 21
189.0228157296873
 31
0.0
 11
211.7039353862891
 21
188.8157228527721
 31
0.0
 11
211.4825008569542
 21
188.6304866857951
 31
0.0
 11
211.2454003723452
 21
188.4657894904431
 31
0.0
 11
210.9976667964497
 21
188.3252022312231
 31
0.0
 11
210.7380783719138
 21
188.207954230938
 31
0.0
 11
210.4714355116393
 21
188.1163108508698
 31
0.0
 11
210.1973841072604
 21
188.0500512681458
 31
0.0
 11
209.9198262988818
 21
188.0102311889866
 31
0.0
 11
209.6397463000122
 21
187.9968784036885
 31
0.0
 11
209.3596663011426
 21
188.0102311889866
 31
0.0
 11
209.082108492764
 21
188.0500512681458
 31
0.0
 11
208.808057088385
 21
188.1163108508698
 31
0.0
 11
208.5414142281105
 21
188.207954230938
 31
0.0
 11
208.2818258035745
 21
188.3252022312231
 31
0.0
 11
208.034092227679
 21
188.4657894904431
 31
0.0
 11
207.79699174307
 21
188.6304866857951
 31
0.0
 11
207.5755572137352
 21
188.8157228527721
 31
0.0
 11
207.3682738244255
 21
189.0228157296873
 31
0.0
 11
207.1797415406479
 21
189.2471217697856
 31
0.0
 11
207.0086529940743
 21
189.4902166004864
 31
0.0
 11
206.8586718673513
 21
189.7468784036885
 31
0.0
 11
206.7289950874769
 21
190.0184666236597
 31
0.0
 11
206.6221037333996
 21
190.2998079020487
 31
0.0
 11
206.5377376720694
 21
190.5915253855941
 31
0.0
 11
206.4772251418336
 21
190.8891097818542
 31
0.0
 11
206.4406461932705
 21
191.1920155163885
 31
0.0
 11
206.4284381553458
 21
191.4968784036885
 31
0.0
 11
206.4406461932705
 21
191.8017412909885
 31
0.0
 11
206.4772251418336
 21
192.1046470255228
 31
0.0
 11
206.5377376720694
 21
192.402231421783
 31
0.0
 11
206.6221037333996
 21
192.6939489053284
 31
0.0
 11
206.728995087477
 21
192.9752901837174
 31
0.0
 11
206.8586718673513
 21
193.2468784036885
 31
0.0
 11
207.0086529940743
 21
193.5035402068906
 31
0.0
 11
207.1797415406479
 21
193.7466350375914
 31
0.0
 11
207.3682738244255
 21
193.9709410776897
 31
0.0
 11
207.5755572137352
 21
194.1780339546049
 31
0.0
 11
207.79699174307
 21
194.363270121582
 31
0.0
 11
208.034092227679
 21
194.5279673169341
 31
0.0
 11
208.2818258035745
 21
194.6685545761541
 31
0.0
 11
208.5414142281105
 21
194.7858025764392
 31
0.0
 11
208.808057088385
 21
194.8774459565074
 31
0.0
 11
209.082108492764
 21
194.9437055392313
 31
0.0
 11
209.3596663011426
 21
194.9835256183904
 31
0.0
 11
209.6397463000122
 21
194.9968784036885
 31
0.0
  0
SPLINE
  5
15A
330
53
100
AcDbEntity
  8
1
  6
Continuous
 62
     7
100
AcDbSpline
210
0.0
220
0.0
230
1.0
 70
     8
 71
     3
 72
    29
 73
    25
 74
    23
 42
0.000000001
 43
0.0000000001
 44
0.00000001
 40
0.0
 40
0.0
 40
0.0
 40
0.0
 40
0.6069077071334358
 40
1.212222618921964
 40
1.842666699980875
 40
2.474631891987636
 40
3.102420163134857
 40
3.72933388162437
 40
4.271042929453088
 40
4.812985317241301
 40
5.340107969103956
 40
5.866248914948557
 40
6.263874824440208
 40
6.661485222726658
 40
7.280966483141062
 40
7.902596723210204
 40
8.549168899022714
 40
9.195896755584894
 40
9.722415956711924
 40
10.24911839923905
 40
11.07897535377078
 40
11.90732205839656
 40
12.67331707894443
 40
13.44191268485654
 40
13.44191268485654
 40
13.44191268485654
 40
13.44191268485654
 10
198.3814160508146
 20
194.9968784036885
 30
0.0
 10
198.5834758783603
 20
194.9870030303245
 30
0.0
 10
198.9870652380374
 20
194.9672781891117
 30
0.0
 10
199.5987707861213
 20
194.9034878408906
 30
0.0
 10
200.2081878472633
 20
194.76930454315
 30
0.0
 10
200.8065940222415
 20
194.5688489236236
 30
0.0
 10
201.3811565537152
 20
194.3102878073932
 30
0.0
 10
201.8960543510838
 20
194.0013584182888
 30
0.0
 10
202.3450732248399
 20
193.6475414943444
 30
0.0
 10
202.7190148271378
 20
193.2595168268275
 30
0.0
 10
203.0259807284448
 20
192.8225864237525
 30
0.0
 10
203.2332893858839
 20
192.3823724573161
 30
0.0
 10
203.3491919741045
 20
191.9556633372637
 30
0.0
 10
203.3998951789818
 20
191.4847478954615
 30
0.0
 10
203.339438855741
 20
190.9357733032206
 30
0.0
 10
203.1264916241116
 20
190.3380272378987
 30
0.0
 10
202.7792546869593
 20
189.7964249927583
 30
0.0
 10
202.357896961379
 20
189.3558170253682
 30
0.0
 10
201.9104834713988
 20
189.0059431023986
 30
0.0
 10
201.3746470858535
 20
188.6770327200572
 30
0.0
 10
200.7097560364678
 20
188.3732940996554
 30
0.0
 10
199.930094975831
 20
188.1485242339391
 30
0.0
 10
199.1476893597268
 20
188.0441374345482
 30
0.0
 10
198.637128893553
 20
188.0127149440421
 30
0.0
 10
198.3814160508146
 20
187.9969770797754
 30
0.0
 11
198.3814160508146
 21
194.9968784036885
 31
0.0
 11
198.9873020725728
 21
194.9616775379262
 31
0.0
 11
199.5887448920541
 21
194.893320545842
 31
0.0
 11
200.2046361037953
 21
194.7586440600177
 31
0.0
 11
200.8040975653439
 21
194.5585791680726
 31
0.0
 11
201.3757963386639
 21
194.2991979298222
 31
0.0
 11
201.912361555677
 21
193.9749779750442
 31
0.0
 11
202.3367940944561
 21
193.6383688350631
 31
0.0
 11
202.7115430697367
 21
193.2468784036885
 31
0.0
 11
203.0130989556967
 21
192.81453324247
 31
0.0
 11
203.2351192695304
 21
192.3375308568539
 31
0.0
 11
203.3388799866735
 21
191.9536818267241
 31
0.0
 11
203.3806380844943
 21
191.5582702809098
 31
0.0
 11
203.316044472873
 21
190.9421658266999
 31
0.0
 11
203.1084263027216
 21
190.3562316564231
 31
0.0
 11
202.7630537018667
 21
189.8096300225091
 31
0.0
 11
202.3187795752637
 21
189.3396540424287
 31
0.0
 11
201.9049091564891
 21
189.0141793948576
 31
0.0
 11
201.4568703092649
 21
188.737273896678
 31
0.0
 11
200.7021096026273
 21
188.3923118085006
 31
0.0
 11
199.9059532922391
 21
188.1636343187543
 31
0.0
 11
199.1479441616396
 21
188.0533141897396
 31
0.0
 11
198.3814160508146
 21
187.9969770797754
 31
0.0
  0
SPLINE
  5
15B
330
53
100
AcDbEntity
  8
1
  6
Continuous
 62
     7
100
AcDbSpline
210
0.0
220
0.0
230
1.0
 70
    11
 71
     3
 72
    79
 73
    75
 74
    73
 42
0.000000001
 43
0.0000000001
 44
0.00000001
 40
0.0
 40
0.0
 40
0.0
 40
0.0
 40
0.2803981055170415
 40
0.5607977780794284
 40
0.8427454767816241
 40
1.124697465943084
 40
1.409536444712076
 40
1.694381494092255
 40
1.983071303433899
 40
2.271767836809318
 40
2.564776135645592
 40
2.857790848031861
 40
3.155055692063649
 40
3.452325972452817
 40
3.753284820909643
 40
4.054247736388388
 40
4.357919800455328
 40
4.661594361771519
 40
4.966700742338188
 40
5.271807963175809
 40
5.576915184003111
 40
5.882021564538652
 40
6.185696125802749
 40
6.489368189796122
 40
6.790331105179921
 40
7.091289953518819
 40
7.388560233767621
 40
7.685825077633873
 40
7.978839789830636
 40
8.271848088449259
 40
8.560544621579883
 40
8.849234430642612
 40
9.134079479707358
 40
9.41891845810626
 40
9.700870446812905
 40
9.982818144856248
 40
10.26321781600904
 40
10.54361593035258
 40
10.82401404469607
 40
11.10441371584875
 40
11.38636141389203
 40
11.6683134025986
 40
11.95315238099756
 40
12.23799743006235
 40
12.52668723912511
 40
12.81538377225573
 40
13.10839207087437
 40
13.4014067830711
 40
13.6986716269373
 40
13.9959419071861
 40
14.29690075552502
 40
14.59786367090886
 40
14.90153573490223
 40
15.20521029616634
 40
15.51031667670188
 40
15.81542389752918
 40
16.1205311183668
 40
16.42563749893346
 40
16.72931206024966
 40
17.0329841243166
 40
17.33394703979533
 40
17.63490588825223
 40
17.93217616864139
 40
18.22944101267314
 40
18.52245572505939
 40
18.81546402389567
 40
19.10416055727109
 40
19.39285036661276
 40
19.67769541599296
 40
19.96253439476203
 40
20.24448638392346
 40
20.52643408262555
 40
20.80683375518782
 40
21.08723186070481
 40
21.08723186070481
 40
21.08723186070481
 40
21.08723186070481
 10
187.1230858016169
 20
194.9968784036885
 30
0.0
 10
187.0295852615748
 20
194.9942970178824
 30
0.0
 10
186.8425836587727
 20
194.9891342371779
 30
0.0
 10
186.5640992475795
 20
194.9476618886144
 30
0.0
 10
186.2901570504269
 20
194.8817617287729
 30
0.0
 10
186.022228884658
 20
194.7895296198155
 30
0.0
 10
185.7631830967875
 20
194.6724474306865
 30
0.0
 10
185.5140238023706
 20
194.5309711492876
 30
0.0
 10
185.2777137819564
 20
194.3666888034512
 30
0.0
 10
185.0549387878187
 20
194.1802286553725
 30
0.0
 10
184.8484827553127
 20
193.9738041805594
 30
0.0
 10
184.6588700114727
 20
193.748086486236
 30
0.0
 10
184.4884708353542
 20
193.505795687991
 30
0.0
 10
184.3377580275584
 20
193.2477381952472
 30
0.0
 10
184.2085348908493
 20
192.9769109918545
 30
0.0
 10
184.1012552174843
 20
192.6943941384413
 30
0.0
 10
184.0171007137511
 20
192.4032061679264
 30
0.0
 10
183.9564574397431
 20
192.104827395085
 30
0.0
 10
183.9199236772966
 20
191.8020664232741
 30
0.0
 10
183.9077046463848
 20
191.4968784130914
 30
0.0
 10
183.9199236769465
 20
191.1916904029067
 30
0.0
 10
183.9564574390422
 20
190.8889294310802
 30
0.0
 10
184.0171007126966
 20
190.5905506582374
 30
0.0
 10
184.1012552160737
 20
190.2993626876334
 30
0.0
 10
184.2085348890779
 20
190.0168458344173
 30
0.0
 10
184.3377580254216
 20
189.7460186301212
 30
0.0
 10
184.488470832845
 20
189.4879611404945
 30
0.0
 10
184.6588700085842
 20
189.2456703304382
 30
0.0
 10
184.8484827520352
 20
189.0199526792763
 30
0.0
 10
185.0549387841419
 20
188.8135280442824
 30
0.0
 10
185.2777137778657
 20
188.6270684851343
 30
0.0
 10
185.5140237978476
 20
188.4627839574488
 30
0.0
 10
185.7631830918019
 20
188.3213157144005
 30
0.0
 10
186.0222288791623
 20
188.2042037108168
 30
0.0
 10
186.2901570442962
 20
188.1120817923578
 30
0.0
 10
186.5640992404961
 20
188.0457720268001
 30
0.0
 10
186.8425836535327
 20
188.0058203617102
 30
0.0
 10
187.1230858016169
 20
187.9924074520894
 30
0.0
 10
187.4035879497011
 20
188.0058203617103
 30
0.0
 10
187.6820723627375
 20
188.0457720268
 30
0.0
 10
187.9560145589374
 20
188.1120817923579
 30
0.0
 10
188.2239427240712
 20
188.2042037108168
 30
0.0
 10
188.4829885114317
 20
188.3213157144005
 30
0.0
 10
188.732147805386
 20
188.4627839574487
 30
0.0
 10
188.9684578253679
 20
188.6270684851343
 30
0.0
 10
189.1912328190917
 20
188.8135280442824
 30
0.0
 10
189.3976888511984
 20
189.0199526792763
 30
0.0
 10
189.5873015946494
 20
189.2456703304382
 30
0.0
 10
189.7577007703885
 20
189.4879611404946
 30
0.0
 10
189.908413577812
 20
189.7460186301212
 30
0.0
 10
190.0376367141556
 20
190.0168458344173
 30
0.0
 10
190.14491638716
 20
190.2993626876334
 30
0.0
 10
190.2290708905371
 20
190.5905506582373
 30
0.0
 10
190.2897141641915
 20
190.8889294310802
 30
0.0
 10
190.3262479262872
 20
191.1916904029067
 30
0.0
 10
190.3384669568487
 20
191.4968784130914
 30
0.0
 10
190.3262479259371
 20
191.802066423274
 30
0.0
 10
190.2897141634904
 20
192.104827395085
 30
0.0
 10
190.2290708894828
 20
192.4032061679264
 30
0.0
 10
190.1449163857494
 20
192.6943941384413
 30
0.0
 10
190.0376367123843
 20
192.9769109918545
 30
0.0
 10
189.9084135756751
 20
193.2477381952471
 30
0.0
 10
189.7577007678793
 20
193.505795687991
 30
0.0
 10
189.5873015917609
 20
193.748086486236
 30
0.0
 10
189.3976888479209
 20
193.9738041805595
 30
0.0
 10
189.1912328154149
 20
194.1802286553725
 30
0.0
 10
188.9684578212772
 20
194.3666888034513
 30
0.0
 10
188.7321478008629
 20
194.5309711492875
 30
0.0
 10
188.482988506446
 20
194.6724474306866
 30
0.0
 10
188.2239427185755
 20
194.7895296198155
 30
0.0
 10
187.9560145528066
 20
194.8817617287728
 30
0.0
 10
187.682072355654
 20
194.9476618886144
 30
0.0
 10
187.4035879444611
 20
194.989134237178
 30
0.0
 10
187.216586341659
 20
194.9942970178824
 30
0.0
 10
187.1230858016169
 20
194.9968784036885
 30
0.0
 11
187.1230858016169
 21
194.9968784036885
 31
0.0
 11
186.8430058027473
 21
194.9835256183904
 31
0.0
 11
186.5654479943686
 21
194.9437055392313
 31
0.0
 11
186.2913965899896
 21
194.8774459565074
 31
0.0
 11
186.0247537297151
 21
194.7858025764392
 31
0.0
 11
185.7651653051792
 21
194.668554576154
 31
0.0
 11
185.5174317292837
 21
194.5279673169341
 31
0.0
 11
185.2803312446747
 21
194.363270121582
 31
0.0
 11
185.0588967153398
 21
194.1780339546049
 31
0.0
 11
184.8516133260301
 21
193.9709410776897
 31
0.0
 11
184.6630810422525
 21
193.7466350375914
 31
0.0
 11
184.4919924956789
 21
193.5035402068906
 31
0.0
 11
184.3420113689559
 21
193.2468784036885
 31
0.0
 11
184.2123345890816
 21
192.9752901837174
 31
0.0
 11
184.1054432350043
 21
192.6939489053284
 31
0.0
 11
184.0210771736741
 21
192.402231421783
 31
0.0
 11
183.9605646434383
 21
192.1046470255228
 31
0.0
 11
183.9239856948753
 21
191.8017412909885
 31
0.0
 11
183.9117776569505
 21
191.4968784036885
 31
0.0
 11
183.9239856948753
 21
191.1920155163885
 31
0.0
 11
183.9605646434383
 21
190.8891097818542
 31
0.0
 11
184.0210771736741
 21
190.5915253855941
 31
0.0
 11
184.1054432350043
 21
190.2998079020487
 31
0.0
 11
184.2123345890815
 21
190.0184666236597
 31
0.0
 11
184.3420113689559
 21
189.7468784036885
 31
0.0
 11
184.4919924956789
 21
189.4902166004864
 31
0.0
 11
184.6630810422525
 21
189.2471217697856
 31
0.0
 11
184.8516133260301
 21
189.0228157296873
 31
0.0
 11
185.0588967153398
 21
188.8157228527721
 31
0.0
 11
185.2803312446747
 21
188.6304866857951
 31
0.0
 11
185.5174317292837
 21
188.4657894904431
 31
0.0
 11
185.7651653051791
 21
188.3252022312231
 31
0.0
 11
186.0247537297151
 21
188.207954230938
 31
0.0
 11
186.2913965899896
 21
188.1163108508698
 31
0.0
 11
186.5654479943686
 21
188.0500512681458
 31
0.0
 11
186.8430058027473
 21
188.0102311889866
 31
0.0
 11
187.1230858016169
 21
187.9968784036885
 31
0.0
 11
187.4031658004864
 21
188.0102311889866
 31
0.0
 11
187.680723608865
 21
188.0500512681458
 31
0.0
 11
187.9547750132439
 21
188.1163108508698
 31
0.0
 11
188.2214178735184
 21
188.207954230938
 31
0.0
 11
188.4810062980544
 21
188.3252022312231
 31
0.0
 11
188.7287398739499
 21
188.4657894904431
 31
0.0
 11
188.9658403585589
 21
188.6304866857951
 31
0.0
 11
189.1872748878938
 21
188.8157228527721
 31
0.0
 11
189.3945582772036
 21
189.0228157296873
 31
0.0
 11
189.5830905609811
 21
189.2471217697856
 31
0.0
 11
189.7541791075546
 21
189.4902166004864
 31
0.0
 11
189.9041602342776
 21
189.7468784036885
 31
0.0
 11
190.033837014152
 21
190.0184666236597
 31
0.0
 11
190.1407283682294
 21
190.2998079020487
 31
0.0
 11
190.2250944295596
 21
190.5915253855941
 31
0.0
 11
190.2856069597954
 21
190.8891097818542
 31
0.0
 11
190.3221859083584
 21
191.1920155163885
 31
0.0
 11
190.3343939462831
 21
191.4968784036885
 31
0.0
 11
190.3221859083584
 21
191.8017412909885
 31
0.0
 11
190.2856069597954
 21
192.1046470255228
 31
0.0
 11
190.2250944295597
 21
192.402231421783
 31
0.0
 11
190.1407283682294
 21
192.6939489053284
 31
0.0
 11
190.033837014152
 21
192.9752901837174
 31
0.0
 11
189.9041602342776
 21
193.2468784036885
 31
0.0
 11
189.7541791075547
 21
193.5035402068906
 31
0.0
 11
189.5830905609811
 21
193.7466350375914
 31
0.0
 11
189.3945582772035
 21
193.9709410776897
 31
0.0
 11
189.1872748878938
 21
194.1780339546049
 31
0.0
 11
188.9658403585589
 21
194.363270121582
 31
0.0
 11
188.7287398739499
 21
194.5279673169341
 31
0.0
 11
188.4810062980544
 21
194.668554576154
 31
0.0
 11
188.2214178735184
 21
194.7858025764392
 31
0.0
 11
187.9547750132439
 21
194.8774459565074
 31
0.0
 11
187.680723608865
 21
194.9437055392313
 31
0.0
 11
187.4031658004864
 21
194.9835256183904
 31
0.0
 11
187.1230858016169
 21
194.9968784036885
 31
0.0
  0
SPLINE
  5
15C
330
53
100
AcDbEntity
  8
1
  6
Continuous
 62
     7
100
AcDbSpline
210
0.0
220
0.0
230
1.0
 70
     8
 71
     3
 72
    29
 73
    25
 74
    23
 42
0.000000001
 43
0.0000000001
 44
0.00000001
 40
0.0
 40
0.0
 40
0.0
 40
0.0
 40
0.6069077071334925
 40
1.212222618922162
 40
1.842666699980995
 40
2.474631891987828
 40
3.102420163135101
 40
3.729333881624663
 40
4.271042929453381
 40
4.812985317241594
 40
5.340107969104281
 40
5.866248914948906
 40
6.26387482444052
 40
6.661485222726952
 40
7.280966483141361
 40
7.902596723210446
 40
8.549168899022972
 40
9.195896755585151
 40
9.722415956712247
 40
10.24911839923937
 40
11.07897535377105
 40
11.9073220583968
 40
12.67331707894475
 40
13.44191268485697
 40
13.44191268485697
 40
13.44191268485697
 40
13.44191268485697
 10
198.3814160508146
 20
194.9968784036885
 30
0.0
 10
198.1793562232689
 20
194.9870030303245
 30
0.0
 10
197.7757668635917
 20
194.9672781891118
 30
0.0
 10
197.1640613155078
 20
194.9034878408904
 30
0.0
 10
196.5546442543658
 20
194.76930454315
 30
0.0
 10
195.9562380793875
 20
194.5688489236236
 30
0.0
 10
195.3816755479137
 20
194.3102878073932
 30
0.0
 10
194.8667777505451
 20
194.0013584182889
 30
0.0
 10
194.4177588767891
 20
193.6475414943443
 30
0.0
 10
194.0438172744911
 20
193.2595168268275
 30
0.0
 10
193.7368513731842
 20
192.8225864237525
 30
0.0
 10
193.5295427157448
 20
192.3823724573163
 30
0.0
 10
193.4136401275245
 20
191.9556633372636
 30
0.0
 10
193.3629369226472
 20
191.4847478954615
 30
0.0
 10
193.4233932458883
 20
190.9357733032207
 30
0.0
 10
193.6363404775173
 20
190.3380272378987
 30
0.0
 10
193.9835774146698
 20
189.7964249927583
 30
0.0
 10
194.40493514025
 20
189.3558170253683
 30
0.0
 10
194.8523486302303
 20
189.0059431023986
 30
0.0
 10
195.3881850157755
 20
188.6770327200573
 30
0.0
 10
196.0530760651613
 20
188.3732940996554
 30
0.0
 10
196.832737125798
 20
188.1485242339391
 30
0.0
 10
197.6151427419023
 20
188.0441374345482
 30
0.0
 10
198.1257032080761
 20
188.0127149440422
 30
0.0
 10
198.3814160508146
 20
187.9969770797754
 30
0.0
 11
198.3814160508146
 21
194.9968784036885
 31
0.0
 11
197.7755300290564
 21
194.9616775379262
 31
0.0
 11
197.1740872095749
 21
194.893320545842
 31
0.0
 11
196.5581959978338
 21
194.7586440600176
 31
0.0
 11
195.9587345362851
 21
194.5585791680726
 31
0.0
 11
195.387035762965
 21
194.2991979298222
 31
0.0
 11
194.8504705459519
 21
193.9749779750442
 31
0.0
 11
194.4260380071728
 21
193.6383688350631
 31
0.0
 11
194.0512890318922
 21
193.2468784036885
 31
0.0
 11
193.7497331459321
 21
192.81453324247
 31
0.0
 11
193.5277128320984
 21
192.3375308568539
 31
0.0
 11
193.4239521149554
 21
191.9536818267241
 31
0.0
 11
193.3821940171348
 21
191.5582702809098
 31
0.0
 11
193.4467876287562
 21
190.9421658266999
 31
0.0
 11
193.6544057989074
 21
190.3562316564231
 31
0.0
 11
193.9997783997624
 21
189.8096300225091
 31
0.0
 11
194.4440525263653
 21
189.3396540424287
 31
0.0
 11
194.85792294514
 21
189.0141793948576
 31
0.0
 11
195.3059617923642
 21
188.737273896678
 31
0.0
 11
196.0607224990018
 21
188.3923118085006
 31
0.0
 11
196.8568788093899
 21
188.1636343187543
 31
0.0
 11
197.6148879399895
 21
188.0533141897396
 31
0.0
 11
198.3814160508146
 21
187.9969770797754
 31
0.0
  0
ENDBLK
  5
55
330
53
100
AcDbEntity
  8
0
100
AcDbBlockEnd
  0
BLOCK
  5
5B
330
56
100
AcDbEntity
  8
0
100
AcDbBlockBegin
  2
R10A-13
 70
     0
 10
-225.1185839491854
 20
170.5671871155035
 30
0.0
  3
R10A-13
  1

  0
INSERT
  5
57
330
56
100
AcDbEntity
  8
1
100
AcDbBlockReference
  2
36-1A-13-M4
 10
135.5029987846265
 20
112.1475468277337
 30
0.0
  0
INSERT
  5
58
330
56
100
AcDbEntity
  8
1
100
AcDbBlockReference
  2
42-1
 10
308.6868548880827
 20
167.5446181365253
 30
0.0
  0
INSERT
  5
59
330
56
100
AcDbEntity
  8
0
100
AcDbBlockReference
  2
21-1C
 10
-95.1761630290502
 20
151.5070913905122
 30
0.0
  0
INSERT
  5
5A
330
56
100
AcDbEntity
  8
1
100
AcDbBlockReference
  2
37-1-13
 10
-17.25007120374224
 20
160.6532280086533
 30
0.0
  0
LINE
  5
15D
330
56
100
AcDbEntity
  8
1
  6
PHANTOM
 62
     4
100
AcDbLine
 10
198.3814160508146
 20
201.7415175630352
 30
0.0
 11
198.3814160508146
 21
217.0671871155035
 31
0.0
  0
ENDBLK
  5
5C
330
56
100
AcDbEntity
  8
0
100
AcDbBlockEnd
  0
BLOCK
  5
5E
330
5D
100
AcDbEntity
  8
0
100
AcDbBlockBegin
  2
開示A4
 70
     0
 10
0.0
 20
0.0
 30
0.0
  3
開示A4
  1

  0
POINT
  5
15E
330
5D
100
AcDbEntity
  8
1
 62
     4
100
AcDbPoint
 10
93.75
 20
17.0
 30
0.0
  0
POINT
  5
15F
330
5D
100
AcDbEntity
  8
1
 62
     4
100
AcDbPoint
 10
85.25
 20
17.0
 30
0.0
  0
POINT
  5
160
330
5D
100
AcDbEntity
  8
1
 62
     4
100
AcDbPoint
 10
106.5
 20
19.00000000000001
 30
0.0
  0
POINT
  5
161
330
5D
100
AcDbEntity
  8
1
 62
     4
100
AcDbPoint
 10
106.5
 20
12.5
 30
0.0
  0
POINT
  5
162
330
5D
100
AcDbEntity
  8
1
 62
     4
100
AcDbPoint
 10
112.25
 20
12.5
 30
0.0
  0
POINT
  5
163
330
5D
100
AcDbEntity
  8
1
 62
     4
100
AcDbPoint
 10
100.75
 20
12.5
 30
0.0
  0
POINT
  5
164
330
5D
100
AcDbEntity
  8
1
 62
     4
100
AcDbPoint
 10
123.5
 20
19.00000000000001
 30
0.0
  0
POINT
  5
165
330
5D
100
AcDbEntity
  8
1
 62
     4
100
AcDbPoint
 10
123.5
 20
12.5
 30
0.0
  0
POINT
  5
166
330
5D
100
AcDbEntity
  8
1
 62
     4
100
AcDbPoint
 10
129.25
 20
12.5
 30
0.0
  0
POINT
  5
167
330
5D
100
AcDbEntity
  8
1
 62
     4
100
AcDbPoint
 10
117.75
 20
12.5
 30
0.0
  0
POINT
  5
168
330
5D
100
AcDbEntity
  8
1
 62
     4
100
AcDbPoint
 10
140.5
 20
19.00000000000001
 30
0.0
  0
POINT
  5
169
330
5D
100
AcDbEntity
  8
1
 62
     4
100
AcDbPoint
 10
140.5
 20
12.5
 30
0.0
  0
POINT
  5
16A
330
5D
100
AcDbEntity
  8
1
 62
     4
100
AcDbPoint
 10
146.25
 20
12.5
 30
0.0
  0
POINT
  5
16B
330
5D
100
AcDbEntity
  8
1
 62
     4
100
AcDbPoint
 10
134.75
 20
12.5
 30
0.0
  0
POINT
  5
16C
330
5D
100
AcDbEntity
  8
1
 62
     4
100
AcDbPoint
 10
151.75
 20
12.5
 30
0.0
  0
POINT
  5
16D
330
5D
100
AcDbEntity
  8
1
 62
     4
100
AcDbPoint
 10
163.25
 20
12.5
 30
0.0
  0
POINT
  5
16E
330
5D
100
AcDbEntity
  8
1
 62
     4
100
AcDbPoint
 10
157.5
 20
12.5
 30
0.0
  0
POINT
  5
16F
330
5D
100
AcDbEntity
  8
1
 62
     4
100
AcDbPoint
 10
57.0
 20
14.25
 30
0.0
  0
POINT
  5
170
330
5D
100
AcDbEntity
  8
1
 62
     4
100
AcDbPoint
 10
57.0
 20
22.75000000000001
 30
0.0
  0
POINT
  5
171
330
5D
100
AcDbEntity
  8
1
 62
     4
100
AcDbPoint
 10
47.5
 20
282.0000000000003
 30
0.0
  0
POINT
  5
172
330
5D
100
AcDbEntity
  8
1
 62
     4
100
AcDbPoint
 10
157.5
 20
19.00000000000001
 30
0.0
  0
POINT
  5
173
330
5D
100
AcDbEntity
  8
1
 62
     4
100
AcDbPoint
 10
57.0
 20
16.25
 30
0.0
  0
POINT
  5
174
330
5D
100
AcDbEntity
  8
1
 62
     4
100
AcDbPoint
 10
57.0
 20
24.75000000000001
 30
0.0
  0
POINT
  5
175
330
5D
100
AcDbEntity
  8
1
 62
     4
100
AcDbPoint
 10
57.0
 20
20.75000000000001
 30
0.0
  0
POINT
  5
176
330
5D
100
AcDbEntity
  8
1
 62
     4
100
AcDbPoint
 10
57.0
 20
12.25
 30
0.0
  0
POINT
  5
177
330
5D
100
AcDbEntity
  8
1
 62
     4
100
AcDbPoint
 10
34.0
 20
34.00000000000001
 30
0.0
  0
LINE
  5
178
330
5D
100
AcDbEntity
  8
1
  6
Continuous
 62
     7
100
AcDbLine
 10
105.0
 20
10.0
 30
0.0
 11
200.0
 21
10.0
 31
0.0
  0
LINE
  5
179
330
5D
100
AcDbEntity
  8
1
  6
Continuous
 62
     2
100
AcDbLine
 10
105.0
 20
10.0
 30
0.0
 11
105.0
 21
5.0
 31
0.0
  0
LINE
  5
17A
330
5D
100
AcDbEntity
  8
1
  6
Continuous
 62
     7
100
AcDbLine
 10
200.0
 20
148.5
 30
0.0
 11
200.0
 21
287.0000000000003
 31
0.0
  0
LINE
  5
17B
330
5D
100
AcDbEntity
  8
1
  6
Continuous
 62
     2
100
AcDbLine
 10
200.0
 20
148.5
 30
0.0
 11
205.0
 21
148.5
 31
0.0
  0
LINE
  5
17C
330
5D
100
AcDbEntity
  8
1
  6
Continuous
 62
     7
100
AcDbLine
 10
25.0
 20
148.5
 30
0.0
 11
25.0
 21
287.0000000000003
 31
0.0
  0
LINE
  5
17D
330
5D
100
AcDbEntity
  8
1
  6
Continuous
 62
     2
100
AcDbLine
 10
25.0
 20
148.5
 30
0.0
 11
20.0
 21
148.5
 31
0.0
  0
LINE
  5
17E
330
5D
100
AcDbEntity
  8
1
  6
Continuous
 62
     7
100
AcDbLine
 10
105.0
 20
287.0000000000003
 30
0.0
 11
25.0
 21
287.0000000000003
 31
0.0
  0
LINE
  5
17F
330
5D
100
AcDbEntity
  8
1
  6
Continuous
 62
     2
100
AcDbLine
 10
105.0
 20
287.0000000000003
 30
0.0
 11
105.0
 21
292.0000000000003
 31
0.0
  0
LINE
  5
180
330
5D
100
AcDbEntity
  8
1
  6
Continuous
 62
     2
100
AcDbLine
 10
166.0
 20
20.00000000000001
 30
0.0
 11
200.0
 21
20.00000000000001
 31
0.0
  0
LINE
  5
181
330
5D
100
AcDbEntity
  8
1
  6
Continuous
 62
     2
100
AcDbLine
 10
98.0
 20
27.00000000000001
 30
0.0
 11
98.0
 21
9.99999999999999
 31
0.0
  0
LINE
  5
182
330
5D
100
AcDbEntity
  8
1
  6
Continuous
 62
     2
100
AcDbLine
 10
115.0
 20
27.00000000000001
 30
0.0
 11
115.0
 21
9.99999999999999
 31
0.0
  0
LINE
  5
183
330
5D
100
AcDbEntity
  8
1
  6
Continuous
 62
     2
100
AcDbLine
 10
149.0
 20
27.00000000000001
 30
0.0
 11
149.0
 21
10.0
 31
0.0
  0
LINE
  5
184
330
5D
100
AcDbEntity
  8
1
  6
Continuous
 62
     2
100
AcDbLine
 10
132.0
 20
27.00000000000001
 30
0.0
 11
132.0
 21
9.99999999999999
 31
0.0
  0
LINE
  5
185
330
5D
100
AcDbEntity
  8
1
  6
Continuous
 62
     2
100
AcDbLine
 10
166.0
 20
27.00000000000001
 30
0.0
 11
166.0
 21
10.0
 31
0.0
  0
LINE
  5
186
330
5D
100
AcDbEntity
  8
1
  6
Continuous
 62
     2
100
AcDbLine
 10
55.0
 20
277.0000000000003
 30
0.0
 11
25.0
 21
277.0000000000003
 31
0.0
  0
LINE
  5
187
330
5D
100
AcDbEntity
  8
1
  6
Continuous
 62
     7
100
AcDbLine
 10
25.0
 20
10.0
 30
0.0
 11
25.0
 21
148.5
 31
0.0
  0
LINE
  5
188
330
5D
100
AcDbEntity
  8
1
  6
Continuous
 62
     2
100
AcDbLine
 10
40.0
 20
287.0000000000003
 30
0.0
 11
40.0
 21
277.0000000000003
 31
0.0
  0
LINE
  5
189
330
5D
100
AcDbEntity
  8
1
  6
Continuous
 62
     2
100
AcDbLine
 10
55.0
 20
287.0000000000003
 30
0.0
 11
55.0
 21
277.0000000000003
 31
0.0
  0
LINE
  5
18A
330
5D
100
AcDbEntity
  8
1
  6
Continuous
 62
     2
100
AcDbLine
 10
33.0
 20
41.00000000000001
 30
0.0
 11
33.0
 21
27.0
 31
0.0
  0
LINE
  5
18B
330
5D
100
AcDbEntity
  8
1
  6
Continuous
 62
     7
100
AcDbLine
 10
200.0
 20
27.00000000000001
 30
0.0
 11
25.0
 21
27.00000000000001
 31
0.0
  0
LINE
  5
18C
330
5D
100
AcDbEntity
  8
1
  6
Continuous
 62
     7
100
AcDbLine
 10
25.0
 20
41.0
 30
0.0
 11
200.0
 21
41.0
 31
0.0
  0
LINE
  5
18D
330
5D
100
AcDbEntity
  8
1
  6
PHANTOM
 62
     4
100
AcDbLine
 10
0.0
 20
0.0
 30
0.0
 11
210.0
 21
0.0
 31
0.0
  0
LINE
  5
18E
330
5D
100
AcDbEntity
  8
1
  6
PHANTOM
 62
     4
100
AcDbLine
 10
210.0
 20
0.0
 30
0.0
 11
210.0
 21
297.0
 31
0.0
  0
LINE
  5
18F
330
5D
100
AcDbEntity
  8
1
  6
PHANTOM
 62
     4
100
AcDbLine
 10
210.0
 20
297.0
 30
0.0
 11
0.0
 21
297.0
 31
0.0
  0
LINE
  5
190
330
5D
100
AcDbEntity
  8
1
  6
PHANTOM
 62
     4
100
AcDbLine
 10
0.0
 20
297.0
 30
0.0
 11
0.0
 21
0.0
 31
0.0
  0
LINE
  5
191
330
5D
100
AcDbEntity
  8
1
  6
Continuous
 62
     7
100
AcDbLine
 10
25.0
 20
10.0
 30
0.0
 11
105.0
 21
10.0
 31
0.0
  0
LINE
  5
192
330
5D
100
AcDbEntity
  8
1
  6
Continuous
 62
     7
100
AcDbLine
 10
200.0
 20
10.0
 30
0.0
 11
200.0
 21
148.5
 31
0.0
  0
LINE
  5
193
330
5D
100
AcDbEntity
  8
1
  6
Continuous
 62
     7
100
AcDbLine
 10
200.0
 20
287.0000000000003
 30
0.0
 11
105.0
 21
287.0000000000003
 31
0.0
  0
LINE
  5
194
330
5D
100
AcDbEntity
  8
1
  6
Continuous
 62
     2
100
AcDbLine
 10
25.0
 20
18.50000000000001
 30
0.0
 11
81.0
 21
18.50000000000001
 31
0.0
  0
LINE
  5
195
330
5D
100
AcDbEntity
  8
1
  6
Continuous
 62
     2
100
AcDbLine
 10
33.0
 20
27.0
 30
0.0
 11
33.0
 21
10.0
 31
0.0
  0
LINE
  5
196
330
5D
100
AcDbEntity
  8
1
  6
Continuous
 62
     7
100
AcDbLine
 10
191.0
 20
24.70000000000001
 30
0.0
 11
191.0
 21
22.30000000000001
 31
0.0
  0
LINE
  5
197
330
5D
100
AcDbEntity
  8
1
  6
Continuous
 62
     7
100
AcDbLine
 10
191.0
 20
24.70000000000001
 30
0.0
 11
196.0
 21
25.50000000000001
 31
0.0
  0
LINE
  5
198
330
5D
100
AcDbEntity
  8
1
  6
Continuous
 62
     7
100
AcDbLine
 10
196.0
 20
25.50000000000001
 30
0.0
 11
196.0
 21
21.50000000000001
 31
0.0
  0
LINE
  5
199
330
5D
100
AcDbEntity
  8
1
  6
Continuous
 62
     7
100
AcDbLine
 10
196.0
 20
21.50000000000001
 30
0.0
 11
191.0
 21
22.30000000000001
 31
0.0
  0
LINE
  5
19A
330
5D
100
AcDbEntity
  8
1
  6
DOT_CENTER
 62
     2
100
AcDbLine
 10
184.0
 20
23.50000000000001
 30
0.0
 11
197.0
 21
23.50000000000001
 31
0.0
  0
LINE
  5
19B
330
5D
100
AcDbEntity
  8
1
  6
DOT_CENTER
 62
     2
100
AcDbLine
 10
187.0
 20
26.50000000000001
 30
0.0
 11
187.0
 21
20.50000000000001
 31
0.0
  0
LINE
  5
19C
330
5D
100
AcDbEntity
  8
1
  6
Continuous
 62
     2
100
AcDbLine
 10
81.0
 20
27.00000000000001
 30
0.0
 11
81.0
 21
10.0
 31
0.0
  0
CIRCLE
  5
19D
330
5D
100
AcDbEntity
  8
1
  6
Continuous
 62
     7
100
AcDbCircle
 10
103.5
 20
12.5
 30
0.0
 40
0.2999999999999972
  0
CIRCLE
  5
19E
330
5D
100
AcDbEntity
  8
1
  6
Continuous
 62
     7
100
AcDbCircle
 10
109.5
 20
12.5
 30
0.0
 40
0.2999999999999972
  0
CIRCLE
  5
19F
330
5D
100
AcDbEntity
  8
1
  6
Continuous
 62
     7
100
AcDbCircle
 10
120.5
 20
12.5
 30
0.0
 40
0.2999999999999972
  0
CIRCLE
  5
1A0
330
5D
100
AcDbEntity
  8
1
  6
Continuous
 62
     7
100
AcDbCircle
 10
126.5
 20
12.5
 30
0.0
 40
0.2999999999999972
  0
CIRCLE
  5
1A1
330
5D
100
AcDbEntity
  8
1
  6
Continuous
 62
     7
100
AcDbCircle
 10
137.5
 20
12.5
 30
0.0
 40
0.3000000000000114
  0
CIRCLE
  5
1A2
330
5D
100
AcDbEntity
  8
1
  6
Continuous
 62
     7
100
AcDbCircle
 10
143.5
 20
12.5
 30
0.0
 40
0.3000000000000114
  0
CIRCLE
  5
1A3
330
5D
100
AcDbEntity
  8
1
  6
Continuous
 62
     7
100
AcDbCircle
 10
160.5
 20
12.5
 30
0.0
 40
0.3000000000000114
  0
CIRCLE
  5
1A4
330
5D
100
AcDbEntity
  8
1
  6
Continuous
 62
     7
100
AcDbCircle
 10
154.5
 20
12.5
 30
0.0
 40
0.3000000000000114
  0
CIRCLE
  5
1A5
330
5D
100
AcDbEntity
  8
1
  6
Continuous
 62
     7
100
AcDbCircle
 10
187.0
 20
23.50000000000001
 30
0.0
 40
1.200000000000102
  0
CIRCLE
  5
1A6
330
5D
100
AcDbEntity
  8
1
  6
Continuous
 62
     7
100
AcDbCircle
 10
187.0
 20
23.50000000000001
 30
0.0
 40
2.0
  0
CIRCLE
  5
1A7
330
5D
100
AcDbEntity
  8
1
  6
DOT_CENTER
 62
     7
100
AcDbCircle
 10
89.5
 20
16.0
 30
0.0
 40
0.1000000000000227
  0
CIRCLE
  5
1A8
330
5D
100
AcDbEntity
  8
1
  6
DOT_CENTER
 62
     7
100
AcDbCircle
 10
89.5
 20
18.0
 30
0.0
 40
0.1000000000000227
  0
MTEXT
  5
1AA
330
5D
100
AcDbEntity
  8
1
 62
     7
100
AcDbMText
 10
188.5
 20
15.0
 30
0.0
 40
3.0
 41
0.0
 71
     5
 72
     1
  1
三栄水栓製作所
  7
CONVERTER_11
 73
     1
 44
1.0
  0
MTEXT
  5
1AB
330
5D
100
AcDbEntity
  8
1
 62
     7
100
AcDbMText
 10
171.5
 20
15.0
 30
0.0
 40
2.5
 41
0.0
 71
     5
 72
     1
  1
株式会社
  7
CONVERTER_11
 73
     1
 44
1.0
  0
MTEXT
  5
1AC
330
5D
100
AcDbEntity
  8
1
 62
     2
100
AcDbMText
 10
32.5
 20
282.0000000000003
 30
0.0
 40
5.0
 41
0.0
 71
     5
 72
     1
  1
図番
  7
CONVERTER_11
 73
     1
 44
0.45454545454545
  0
MTEXT
  5
1AD
330
5D
100
AcDbEntity
  8
1
 62
     2
100
AcDbMText
 10
29.0
 20
34.00000000000001
 30
0.0
 40
3.5
 41
0.0
 71
     5
 72
     1
  1
備考
  7
CONVERTER_11
 73
     1
 44
0.45454545454545
  0
MTEXT
  5
1AE
330
5D
100
AcDbEntity
  8
1
 62
     2
100
AcDbMText
 10
29.0
 20
22.75
 30
0.0
 40
3.5
 41
0.0
 71
     5
 72
     1
  1
品名
  7
CONVERTER_11
 73
     1
 44
0.72727272727273
  0
MTEXT
  5
1AF
330
5D
100
AcDbEntity
  8
1
 62
     2
100
AcDbMText
 10
29.0
 20
14.25
 30
0.0
 40
3.5
 41
0.0
 71
     5
 72
     1
  1
品番
  7
CONVERTER_11
 73
     1
 44
0.72727272727273
  0
MTEXT
  5
1B0
330
5D
100
AcDbEntity
  8
1
 62
     2
100
AcDbMText
 10
101.5
 20
25.00000000000001
 30
0.0
 40
3.0
 41
0.0
 71
     5
 72
     1
  1
承認
  7
CONVERTER_11
 73
     1
 44
0.59090909090909
  0
MTEXT
  5
1B1
330
5D
100
AcDbEntity
  8
1
 62
     2
100
AcDbMText
 10
175.0
 20
23.50000000000001
 30
0.0
 40
3.5
 41
0.0
 71
     5
 72
     1
  1
第三角法
  7
CONVERTER_11
 73
     1
 44
0.54545454545455
  0
MTEXT
  5
1B2
330
5D
100
AcDbEntity
  8
1
 62
     2
100
AcDbMText
 10
118.5
 20
25.00000000000001
 30
0.0
 40
3.0
 41
0.0
 71
     5
 72
     1
  1
検図
  7
CONVERTER_11
 73
     1
 44
0.59090909090909
  0
MTEXT
  5
1B3
330
5D
100
AcDbEntity
  8
1
 62
     2
100
AcDbMText
 10
152.5
 20
25.00000000000001
 30
0.0
 40
3.0
 41
0.0
 71
     5
 72
     1
  1
設計
  7
CONVERTER_11
 73
     1
 44
0.59090909090909
  0
MTEXT
  5
1B4
330
5D
100
AcDbEntity
  8
1
 62
     2
100
AcDbMText
 10
135.5
 20
25.00000000000001
 30
0.0
 40
3.0
 41
0.0
 71
     5
 72
     1
  1
製図
  7
CONVERTER_11
 73
     1
 44
0.59090909090909
  0
MTEXT
  5
1B5
330
5D
100
AcDbEntity
  8
1
 62
     2
100
AcDbMText
 10
89.5
 20
24.00000000000001
 30
0.0
 40
3.5
 41
0.0
 71
     5
 72
     1
  1
尺度
  7
CONVERTER_11
 73
     1
 44
0.54545454545455
  0
MTEXT
  5
1B6
330
5D
100
AcDbEntity
  8
1
 62
   250
100
AcDbMText
 10
25.0
 20
5.0
 30
0.0
 40
3.5
 41
0.0
 71
     4
 72
     1
  1
備考欄の文字列 原点位置=4
  7
CONVERTER_11
 73
     1
 44
0.54545454545455
  0
ENDBLK
  5
5F
330
5D
100
AcDbEntity
  8
0
100
AcDbBlockEnd
  0
BLOCK
  5
1D3
330
1CC
100
AcDbEntity
  8
0
100
AcDbBlockBegin
  2
*D8
 70
     1
 10
0.0
 20
0.0
 30
0.0
  3
*D8
  1

  0
LINE
  5
1CD
330
1CC
100
AcDbEntity
  8
1
  6
Continuous
 62
     2
100
AcDbLine
 10
198.3814160508144
 20
121.5617650324111
 30
0.0
 11
163.3814160508144
 21
121.5617650324111
 31
0.0
  0
LINE
  5
1CE
330
1CC
100
AcDbEntity
  8
1
  6
Continuous
 62
     2
100
AcDbLine
 10
198.3814160508144
 20
147.5671871155036
 30
0.0
 11
198.3814160508144
 21
120.0617650324111
 31
0.0
  0
LINE
  5
1CF
330
1CC
100
AcDbEntity
  8
1
  6
Continuous
 62
     2
100
AcDbLine
 10
163.3814160508144
 20
137.5671871155036
 30
0.0
 11
163.3814160508144
 21
120.0617650324111
 31
0.0
  0
SOLID
  5
1D0
330
1CC
100
AcDbEntity
  8
1
 62
     2
100
AcDbTrace
 10
193.1314160508144
 20
120.8705894200773
 30
0.0
 11
193.1314160508144
 21
122.2529406447449
 31
0.0
 12
198.3814160508144
 22
121.5617650324111
 32
0.0
 13
198.3814160508144
 23
121.5617650324111
 33
0.0
  0
SOLID
  5
1D1
330
1CC
100
AcDbEntity
  8
1
 62
     2
100
AcDbTrace
 10
168.6314160508144
 20
122.2529406447449
 30
0.0
 11
168.6314160508144
 21
120.8705894200773
 31
0.0
 12
163.3814160508144
 22
121.5617650324111
 32
0.0
 13
163.3814160508144
 23
121.5617650324111
 33
0.0
  0
MTEXT
  5
1D2
330
1CC
100
AcDbEntity
  8
1
 62
     7
100
AcDbMText
 10
176.9439160508146
 20
123.0617650324111
 30
0.0
 40
5.25
 41
0.0
 71
     7
 72
     1
  1
35
  7
CONVERTER_12
 11
0.9999999999970619
 21
2.424068405545306E-6
 31
0.0
 73
     1
 44
0.60024009603842
  0
ENDBLK
  5
1D4
330
1CC
100
AcDbEntity
  8
0
100
AcDbBlockEnd
  0
BLOCK
  5
1DE
330
1D7
100
AcDbEntity
  8
0
100
AcDbBlockBegin
  2
*D9
 70
     1
 10
0.0
 20
0.0
 30
0.0
  3
*D9
  1

  0
LINE
  5
1D8
330
1D7
100
AcDbEntity
  8
1
  6
Continuous
 62
     2
100
AcDbLine
 10
243.3814160508144
 20
121.5617650324111
 30
0.0
 11
198.3814160508145
 21
121.5617650324111
 31
0.0
  0
LINE
  5
1D9
330
1D7
100
AcDbEntity
  8
1
  6
Continuous
 62
     2
100
AcDbLine
 10
243.3814160508144
 20
139.5671871155036
 30
0.0
 11
243.3814160508144
 21
120.0617650324111
 31
0.0
  0
LINE
  5
1DA
330
1D7
100
AcDbEntity
  8
1
  6
Continuous
 62
     2
100
AcDbLine
 10
198.3814160508145
 20
147.5671871155036
 30
0.0
 11
198.3814160508145
 21
120.0617650324111
 31
0.0
  0
SOLID
  5
1DB
330
1D7
100
AcDbEntity
  8
1
 62
     2
100
AcDbTrace
 10
238.1314160508144
 20
120.8705894200773
 30
0.0
 11
238.1314160508144
 21
122.2529406447449
 31
0.0
 12
243.3814160508144
 22
121.5617650324111
 32
0.0
 13
243.3814160508144
 23
121.5617650324111
 33
0.0
  0
SOLID
  5
1DC
330
1D7
100
AcDbEntity
  8
1
 62
     2
100
AcDbTrace
 10
203.6314160508145
 20
122.2529406447449
 30
0.0
 11
203.6314160508145
 21
120.8705894200773
 31
0.0
 12
198.3814160508145
 22
121.5617650324111
 32
0.0
 13
198.3814160508145
 23
121.5617650324111
 33
0.0
  0
MTEXT
  5
1DD
330
1D7
100
AcDbEntity
  8
1
 62
     7
100
AcDbMText
 10
216.9439160508145
 20
123.0617650324111
 30
0.0
 40
5.25
 41
0.0
 71
     7
 72
     1
  1
45
  7
CONVERTER_12
 11
0.9999999999970619
 21
2.424068405545306E-6
 31
0.0
 73
     1
 44
0.60024009603842
  0
ENDBLK
  5
1DF
330
1D7
100
AcDbEntity
  8
0
100
AcDbBlockEnd
  0
BLOCK
  5
1E9
330
1E2
100
AcDbEntity
  8
0
100
AcDbBlockBegin
  2
*D10
 70
     1
 10
0.0
 20
0.0
 30
0.0
  3
*D10
  1

  0
LINE
  5
1E3
330
1E2
100
AcDbEntity
  8
1
  6
Continuous
 62
     2
100
AcDbLine
 10
257.3814160508144
 20
121.5617650324111
 30
0.0
 11
243.3814160508145
 21
121.5617650324111
 31
0.0
  0
LINE
  5
1E4
330
1E2
100
AcDbEntity
  8
1
  6
Continuous
 62
     2
100
AcDbLine
 10
266.3814160508144
 20
121.5617650324111
 30
0.0
 11
257.3814160508144
 21
121.5617650324111
 31
0.0
  0
LINE
  5
1E5
330
1E2
100
AcDbEntity
  8
1
  6
Continuous
 62
     2
100
AcDbLine
 10
257.3814160508144
 20
153.0671871155036
 30
0.0
 11
257.3814160508144
 21
120.0617650324111
 31
0.0
  0
LINE
  5
1E6
330
1E2
100
AcDbEntity
  8
1
  6
Continuous
 62
     2
100
AcDbLine
 10
243.3814160508145
 20
139.5671871155036
 30
0.0
 11
243.3814160508145
 21
120.0617650324111
 31
0.0
  0
SOLID
  5
1E7
330
1E2
100
AcDbEntity
  8
1
 62
     2
100
AcDbTrace
 10
261.8814160508144
 20
122.1542012715544
 30
0.0
 11
261.8814160508144
 21
120.9693287932678
 31
0.0
 12
257.3814160508144
 22
121.5617650324111
 32
0.0
 13
257.3814160508144
 23
121.5617650324111
 33
0.0
  0
MTEXT
  5
1E8
330
1E2
100
AcDbEntity
  8
1
 62
     7
100
AcDbMText
 10
247.2314160508144
 20
123.0617650324111
 30
0.0
 40
5.25
 41
0.0
 71
     7
 72
     1
  1
14
  7
CONVERTER_12
 11
0.9999999999970619
 21
2.424068405545306E-6
 31
0.0
 73
     1
 44
0.60024009603842
  0
ENDBLK
  5
1EA
330
1E2
100
AcDbEntity
  8
0
100
AcDbBlockEnd
  0
BLOCK
  5
1EC
330
1EB
100
AcDbEntity
  8
0
100
AcDbBlockBegin
  2
_NONE
 70
     0
 10
0.0
 20
0.0
 30
0.0
  3
_NONE
  1

  0
ENDBLK
  5
1ED
330
1EB
100
AcDbEntity
  8
0
100
AcDbBlockEnd
  0
BLOCK
  5
1F7
330
1F0
100
AcDbEntity
  8
0
100
AcDbBlockBegin
  2
*D12
 70
     1
 10
0.0
 20
0.0
 30
0.0
  3
*D12
  1

  0
LINE
  5
1F1
330
1F0
100
AcDbEntity
  8
1
  6
Continuous
 62
     2
100
AcDbLine
 10
140.1929102997736
 20
162.5671871155035
 30
0.0
 11
140.1929102997736
 21
137.5671871155035
 31
0.0
  0
LINE
  5
1F2
330
1F0
100
AcDbEntity
  8
1
  6
Continuous
 62
     2
100
AcDbLine
 10
155.1929102997736
 20
162.5671871155035
 30
0.0
 11
138.6929102997736
 21
162.5671871155035
 31
0.0
  0
LINE
  5
1F3
330
1F0
100
AcDbEntity
  8
1
  6
Continuous
 62
     2
100
AcDbLine
 10
163.3814160508146
 20
137.5671871155035
 30
0.0
 11
138.6929102997736
 21
137.5671871155035
 31
0.0
  0
SOLID
  5
1F4
330
1F0
100
AcDbEntity
  8
1
 62
     2
100
AcDbTrace
 10
140.8840859121074
 20
157.3171871155035
 30
0.0
 11
139.5017346874398
 21
157.3171871155035
 31
0.0
 12
140.1929102997736
 22
162.5671871155035
 32
0.0
 13
140.1929102997736
 23
162.5671871155035
 33
0.0
  0
SOLID
  5
1F5
330
1F0
100
AcDbEntity
  8
1
 62
     2
100
AcDbTrace
 10
139.5017346874398
 20
142.8171871155035
 30
0.0
 11
140.8840859121074
 21
142.8171871155035
 31
0.0
 12
140.1929102997736
 22
137.5671871155035
 32
0.0
 13
140.1929102997736
 23
137.5671871155035
 33
0.0
  0
MTEXT
  5
1F6
330
1F0
100
AcDbEntity
  8
1
 62
     7
100
AcDbMText
 10
138.6929102997736
 20
146.1296871155035
 30
0.0
 40
5.25
 41
0.0
 71
     7
 72
     1
  1
25
  7
CONVERTER_12
 11
0.0
 21
1.0
 31
0.0
 73
     1
 44
0.60024009603842
  0
ENDBLK
  5
1F8
330
1F0
100
AcDbEntity
  8
0
100
AcDbBlockEnd
  0
BLOCK
  5
202
330
1FB
100
AcDbEntity
  8
0
100
AcDbBlockBegin
  2
*D13
 70
     1
 10
0.0
 20
0.0
 30
0.0
  3
*D13
  1

  0
LINE
  5
1FC
330
1FB
100
AcDbEntity
  8
1
  6
Continuous
 62
     2
100
AcDbLine
 10
272.3814160508144
 20
139.5671871155035
 30
0.0
 11
272.3814160508144
 21
185.5671871155035
 31
0.0
  0
LINE
  5
1FD
330
1FB
100
AcDbEntity
  8
1
  6
Continuous
 62
     2
100
AcDbLine
 10
243.3814160508144
 20
139.5671871155035
 30
0.0
 11
273.8814160508144
 21
139.5671871155035
 31
0.0
  0
LINE
  5
1FE
330
1FB
100
AcDbEntity
  8
1
  6
Continuous
 62
     2
100
AcDbLine
 10
243.3814160508144
 20
185.5671871155035
 30
0.0
 11
273.8814160508144
 21
185.5671871155035
 31
0.0
  0
SOLID
  5
1FF
330
1FB
100
AcDbEntity
  8
1
 62
     2
100
AcDbTrace
 10
271.6902404384805
 20
144.8171871155035
 30
0.0
 11
273.0725916631482
 21
144.8171871155035
 31
0.0
 12
272.3814160508144
 22
139.5671871155035
 32
0.0
 13
272.3814160508144
 23
139.5671871155035
 33
0.0
  0
SOLID
  5
200
330
1FB
100
AcDbEntity
  8
1
 62
     2
100
AcDbTrace
 10
273.0725916631482
 20
180.3171871155035
 30
0.0
 11
271.6902404384805
 21
180.3171871155035
 31
0.0
 12
272.3814160508144
 22
185.5671871155035
 32
0.0
 13
272.3814160508144
 23
185.5671871155035
 33
0.0
  0
MTEXT
  5
201
330
1FB
100
AcDbEntity
  8
1
 62
     7
100
AcDbMText
 10
270.8814160508144
 20
157.4746871155035
 30
0.0
 40
5.25
 41
0.0
 71
     7
 72
     1
  1
\C7;{\Fgdt;n}\C7;46
  7
CONVERTER_12
 11
0.0
 21
1.0
 31
0.0
 73
     1
 44
0.60024009603842
  0
ENDBLK
  5
203
330
1FB
100
AcDbEntity
  8
0
100
AcDbBlockEnd
  0
BLOCK
  5
20D
330
206
100
AcDbEntity
  8
0
100
AcDbBlockBegin
  2
*D14
 70
     1
 10
0.0
 20
0.0
 30
0.0
  3
*D14
  1

  0
LINE
  5
207
330
206
100
AcDbEntity
  8
1
  6
Continuous
 62
     2
100
AcDbLine
 10
140.1929102997736
 20
219.5671871155035
 30
0.0
 11
140.1929102997736
 21
162.5671871155035
 31
0.0
  0
LINE
  5
208
330
206
100
AcDbEntity
  8
1
  6
Continuous
 62
     2
100
AcDbLine
 10
155.1929102997736
 20
162.5671871155035
 30
0.0
 11
138.6929102997736
 21
162.5671871155035
 31
0.0
  0
LINE
  5
209
330
206
100
AcDbEntity
  8
1
  6
Continuous
 62
     2
100
AcDbLine
 10
198.3814160508146
 20
219.5671871155035
 30
0.0
 11
138.6929102997736
 21
219.5671871155035
 31
0.0
  0
SOLID
  5
20A
330
206
100
AcDbEntity
  8
1
 62
     2
100
AcDbTrace
 10
140.8840859121074
 20
214.3171871155035
 30
0.0
 11
139.5017346874398
 21
214.3171871155035
 31
0.0
 12
140.1929102997736
 22
219.5671871155035
 32
0.0
 13
140.1929102997736
 23
219.5671871155035
 33
0.0
  0
SOLID
  5
20B
330
206
100
AcDbEntity
  8
1
 62
     2
100
AcDbTrace
 10
139.5017346874398
 20
167.8171871155035
 30
0.0
 11
140.8840859121074
 21
167.8171871155035
 31
0.0
 12
140.1929102997736
 22
162.5671871155035
 32
0.0
 13
140.1929102997736
 23
162.5671871155035
 33
0.0
  0
MTEXT
  5
20C
330
206
100
AcDbEntity
  8
1
 62
     7
100
AcDbMText
 10
138.6929102997736
 20
176.8921871155035
 30
0.0
 40
5.25
 41
0.0
 71
     7
 72
     1
  1
57リフト5
  7
CONVERTER_11
 11
0.0
 21
1.0
 31
0.0
 73
     1
 44
0.45454545454545
  0
ENDBLK
  5
20E
330
206
100
AcDbEntity
  8
0
100
AcDbBlockEnd
  0
ENDSEC
  0
SECTION
  2
ENTITIES
  0
INSERT
  5
60
330
1F
100
AcDbEntity
  8
0
100
AcDbBlockReference
  2
Y10-0-13
 10
-165.6185839491855
 20
162.5671871155035
 30
0.0
  0
INSERT
  5
61
330
1F
100
AcDbEntity
  8
1
100
AcDbBlockReference
  2
R10A-13
 10
-225.1185839491854
 20
170.5671871155035
 30
0.0
  0
INSERT
  5
62
330
1F
100
AcDbEntity
  8
1
100
AcDbBlockReference
  2
開示A4
 10
0.0
 20
0.0
 30
0.0
 41
1.5
 42
1.5
 43
1.5
  0
LINE
  5
1B7
330
1F
100
AcDbEntity
  8
1
  6
DASH_CENTER
 62
     2
100
AcDbLine
 10
82.63143708857625
 20
137.5645234636372
 30
0.0
 11
108.1314160146152
 21
137.5677578986135
 31
0.0
  0
LINE
  5
1B8
330
1F
100
AcDbEntity
  8
1
  6
DASH_CENTER
 62
     2
100
AcDbLine
 10
84.13141605081458
 20
289.1012996033785
 30
0.0
 11
106.6314160508146
 21
289.1012996033785
 31
0.0
  0
LINE
  5
1B9
330
1F
100
AcDbEntity
  8
1
  6
DASH_CENTER
 62
     2
100
AcDbLine
 10
162.8620784685465
 20
133.337521932446
 30
0.0
 11
167.8240181476065
 21
173.7492776334238
 31
0.0
  0
LINE
  5
1BA
330
1F
100
AcDbEntity
  8
1
  6
DASH_CENTER
 62
     2
100
AcDbLine
 10
73.39452854217586
 20
324.1012996033785
 30
0.0
 11
116.7827595055455
 21
324.1012996033785
 31
0.0
  0
LINE
  5
1BB
330
1F
100
AcDbEntity
  8
1
  6
DASH_CENTER
 62
     2
100
AcDbLine
 10
185.3814160508146
 20
162.5671871155035
 30
0.0
 11
155.1929102997736
 21
162.5671871155035
 31
0.0
  0
LINE
  5
1BC
330
1F
100
AcDbEntity
  8
1
  6
DASH_CENTER
 62
     2
100
AcDbLine
 10
260.4192225825676
 20
162.5671871155035
 30
0.0
 11
185.3814160508146
 21
162.5671871155035
 31
0.0
  0
LINE
  5
1BD
330
1F
100
AcDbEntity
  8
1
  6
DASH_CENTER
 62
     2
100
AcDbLine
 10
95.38141605081458
 20
277.9095959822737
 30
0.0
 11
95.38141605081458
 21
386.1012996033785
 31
0.0
  0
LINE
  5
1BE
330
1F
100
AcDbEntity
  8
1
  6
DASH_CENTER
 62
     2
100
AcDbLine
 10
104.041670088659
 20
319.1012996033785
 30
0.0
 11
65.93655232214357
 21
341.1012996033785
 31
0.0
  0
LINE
  5
1BF
330
1F
100
AcDbEntity
  8
1
  6
DASH_CENTER
 62
     2
100
AcDbLine
 10
86.72116201297018
 20
319.1012996033785
 30
0.0
 11
124.8262797794855
 21
341.1012996033785
 31
0.0
  0
LINE
  5
1C0
330
1F
100
AcDbEntity
  8
1
  6
DASH_CENTER
 62
     2
100
AcDbLine
 10
198.3814160508146
 20
223.0671531339653
 30
0.0
 11
198.3814160508146
 21
147.5671871155035
 31
0.0
  0
LINE
  5
1C1
330
1F
100
AcDbEntity
  8
1
  6
DASH_CENTER
 62
     2
100
AcDbLine
 10
95.38141605081458
 20
226.9124619070766
 30
0.0
 11
95.38141605081458
 21
134.9124619070766
 31
0.0
  0
LINE
  5
1C2
330
1F
100
AcDbEntity
  8
1
  6
DASH_CENTER
 62
     2
100
AcDbLine
 10
121.0836085319675
 20
162.5671871155035
 30
0.0
 11
67.72669084238768
 21
162.5671871155035
 31
0.0
  0
SOLID
  5
1C3
330
1F
100
AcDbEntity
  8
1
 62
     2
100
AcDbTrace
 10
107.9078404120572
 20
380.4935207794134
 30
0.0
 11
109.1049916895719
 21
379.8023451670796
 31
0.0
 12
105.8814160508145
 22
375.6012996033782
 32
0.0
 13
105.8814160508145
 23
375.6012996033782
 33
0.0
  0
LEADER
  5
1C4
330
1F
100
AcDbEntity
  8
1
  6
Continuous
 62
     2
100
AcDbLeader
  3
Standard
 71
     0
 76
     3
 10
105.8814160508145
 20
375.6012996033782
 30
0.0
 10
116.8263555009872
 20
394.5584908168423
 30
0.0
 10
144.588679268462
 20
394.5584908168423
 30
0.0
  0
MTEXT
  5
1C6
330
1F
100
AcDbEntity
  8
1
 62
     7
100
AcDbMText
 10
130.7075173847246
 20
399.0584908168424
 30
0.0
 40
5.25
 41
0.0
 71
     5
 72
     1
  1
PJ1/2
  7
CONVERTER_12
 73
     1
 44
1.32052821128451
  0
MTEXT
  5
1C7
330
1F
100
AcDbEntity
  8
1
 62
     7
100
AcDbMText
 10
140.625
 20
25.5
 30
0.0
 40
5.25
 41
0.0
 71
     5
 72
     1
  1
1,5
  7
CONVERTER_12
 73
     1
 44
1.32052821128451
  0
MTEXT
  5
1C8
330
1F
100
AcDbEntity
  8
1
 62
     7
100
AcDbMText
 10
127.875
 20
25.5
 30
0.0
 40
5.25
 41
0.0
 71
     5
 72
     1
  1
1
  7
CONVERTER_12
 73
     1
 44
1.32052821128451
  0
MTEXT
  5
1C9
330
1F
100
AcDbEntity
  8
1
 62
     7
100
AcDbMText
 10
85.5
 20
21.375
 30
0.0
 40
5.25
 41
0.0
 71
     5
 72
     1
  1
Y10E-13
  7
CONVERTER_12
 73
     1
 44
0.90036014405762
  0
MTEXT
  5
1CA
330
1F
100
AcDbEntity
  8
1
 62
     7
100
AcDbMText
 10
85.5
 20
34.12500000000001
 30
0.0
 40
5.25
 41
0.0
 71
     5
 72
     1
  1
横水栓
  7
CONVERTER_11
 73
     1
 44
1.0
  0
MTEXT
  5
1CB
330
1F
100
AcDbEntity
  8
1
 62
     7
100
AcDbMText
 10
51.0
 20
51.00000000000001
 30
0.0
 40
5.25
 41
0.0
 71
     4
 72
     1
  1
JIS
  7
CONVERTER_12
 73
     1
 44
0.7202881152461
  0
DIMENSION
  5
1D6
330
1F
100
AcDbEntity
  8
1
100
AcDbDimension
  2
*D8
 10
198.3814160508144
 20
121.5617650324111
 30
0.0
 11
180.8814160508146
 21
125.6867650324111
 31
0.0
 70
    32
  1
<>
 71
     5
 42
-1.0
 53
0.00013888888889
  3
ME10_DIM_10
100
AcDbAlignedDimension
 13
163.3814160508146
 23
137.5671871155035
 33
0.0
 14
198.3814160508146
 24
147.5671871155035
 34
0.0
100
AcDbRotatedDimension
  0
DIMENSION
  5
1E1
330
1F
100
AcDbEntity
  8
1
100
AcDbDimension
  2
*D9
 10
243.3814160508144
 20
121.5617650324111
 30
0.0
 11
220.8814160508145
 21
125.6867650324111
 31
0.0
 70
    32
  1
<>
 71
     5
 42
-1.0
 53
0.00013888888889
  3
ME10_DIM_11
100
AcDbAlignedDimension
 13
198.3814160508146
 23
147.5671871155035
 33
0.0
 14
243.3814160508145
 24
139.5671871155035
 34
0.0
100
AcDbRotatedDimension
  0
DIMENSION
  5
1EF
330
1F
100
AcDbEntity
  8
1
100
AcDbDimension
  2
*D10
 10
257.3814160508144
 20
121.5617650324111
 30
0.0
 11
250.3814160508144
 21
125.6867650324111
 31
0.0
 70
    32
  1
<>
 71
     5
 42
-1.0
 53
0.00013888888889
  3
ME10_DIM_12
100
AcDbAlignedDimension
 13
243.3814160508145
 23
139.5671871155035
 33
0.0
 14
257.3814160508144
 24
153.0671871155035
 34
0.0
100
AcDbRotatedDimension
  0
DIMENSION
  5
1FA
330
1F
100
AcDbEntity
  8
1
100
AcDbDimension
  2
*D12
 10
140.1929102997736
 20
162.5671871155035
 30
0.0
 11
136.0679102997736
 21
150.0671871155035
 31
0.0
 70
    32
  1
<>
 71
     5
 42
-1.0
 53
90.0
  3
ME10_DIM_13
100
AcDbAlignedDimension
 13
163.3814160508146
 23
137.5671871155035
 33
0.0
 14
155.1929102997736
 24
162.5671871155035
 34
0.0
 50
90.0
100
AcDbRotatedDimension
  0
DIMENSION
  5
205
330
1F
100
AcDbEntity
  8
1
100
AcDbDimension
  2
*D13
 10
272.3814160508144
 20
139.5671871155035
 30
0.0
 11
268.2564160508144
 21
162.5671871155035
 31
0.0
 70
    32
  1
<>
 71
     5
 42
-1.0
 53
90.0
  3
ME10_DIM_14
100
AcDbAlignedDimension
 13
243.3814160508145
 23
185.5671871155035
 33
0.0
 14
243.3814160508145
 24
139.5671871155035
 34
0.0
 50
90.0
100
AcDbRotatedDimension
  0
DIMENSION
  5
210
330
1F
100
AcDbEntity
  8
1
100
AcDbDimension
  2
*D14
 10
140.1929102997736
 20
219.5671871155035
 30
0.0
 11
136.0679102997736
 21
191.0671871155035
 31
0.0
 70
    32
  1
57リフト5
 71
     5
 42
-1.0
 53
90.0
  3
ME10_DIM_15
100
AcDbAlignedDimension
 13
155.1929102997736
 23
162.5671871155035
 33
0.0
 14
198.3814160508146
 24
219.5671871155035
 34
0.0
 50
90.0
100
AcDbRotatedDimension
  0
ENDSEC
  0
SECTION
  2
OBJECTS
  0
DICTIONARY
  5
C
330
0
100
AcDbDictionary
281
     1
  3
ACAD_GROUP
350
D
  3
ACAD_LAYOUT
350
1A
  3
ACAD_MATERIAL
350
3B
  3
ACAD_MLEADERSTYLE
350
213
  3
ACAD_MLINESTYLE
350
17
  3
ACAD_PLOTSETTINGS
350
19
  3
ACAD_PLOTSTYLENAME
350
E
  3
ACAD_VISUALSTYLE
350
2A
  3
AcDbVariableDictionary
350
211
  0
DICTIONARY
  5
D
102
{ACAD_REACTORS
330
C
102
}
330
C
100
AcDbDictionary
281
     1
  0
DICTIONARY
  5
1A
102
{ACAD_REACTORS
330
C
102
}
330
C
100
AcDbDictionary
281
     1
  3
Layout1
350
1E
  3
Layout2
350
26
  3
Model
350
22
  0
DICTIONARY
  5
3B
102
{ACAD_REACTORS
330
C
102
}
330
C
100
AcDbDictionary
281
     1
  3
ByBlock
350
3D
  3
ByLayer
350
3C
  3
Global
350
3E
  0
DICTIONARY
  5
213
102
{ACAD_REACTORS
330
C
102
}
330
C
100
AcDbDictionary
281
     1
  0
DICTIONARY
  5
17
102
{ACAD_REACTORS
330
C
102
}
330
C
100
AcDbDictionary
281
     1
  3
Standard
350
18
  0
DICTIONARY
  5
19
102
{ACAD_REACTORS
330
C
102
}
330
C
100
AcDbDictionary
281
     1
  0
ACDBDICTIONARYWDFLT
  5
E
102
{ACAD_REACTORS
330
C
102
}
330
C
100
AcDbDictionary
281
     1
  3
Normal
350
F
100
AcDbDictionaryWithDefault
340
F
  0
DICTIONARY
  5
2A
102
{ACAD_REACTORS
330
C
102
}
330
C
100
AcDbDictionary
281
     1
  3
2dWireframe
350
2F
  3
3D Hidden
350
31
  3
3dWireframe
350
30
  3
Basic
350
32
  3
Brighten
350
36
  3
ColorChange
350
3A
  3
Conceptual
350
34
  3
Dim
350
35
  3
Facepattern
350
39
  3
Flat
350
2B
  3
FlatWithEdges
350
2C
  3
Gouraud
350
2D
  3
GouraudWithEdges
350
2E
  3
Linepattern
350
38
  3
Realistic
350
33
  3
Thicken
350
37
  0
DICTIONARY
  5
211
102
{ACAD_REACTORS
330
C
102
}
330
C
100
AcDbDictionary
281
     1
  3
DIMASSOC
350
214
  3
HIDETEXT
350
215
  0
LAYOUT
  5
1E
102
{ACAD_REACTORS
330
1A
102
}
330
1A
100
AcDbPlotSettings
  1

  2
none_device
  4

  6

 40
0.0
 41
0.0
 42
0.0
 43
0.0
 44
0.0
 45
0.0
 46
0.0
 47
0.0
 48
0.0
 49
0.0
140
0.0
141
0.0
142
1.0
143
1.0
 70
   688
 72
     0
 73
     0
 74
     5
  7

 75
    16
147
1.0
148
0.0
149
0.0
100
AcDbLayout
  1
Layout1
 70
     1
 71
     1
 10
0.0
 20
0.0
 11
12.0
 21
9.0
 12
0.0
 22
0.0
 32
0.0
 14
1.00000000000000E+20
 24
1.00000000000000E+20
 34
1.00000000000000E+20
 15
-1.00000000000000E+20
 25
-1.00000000000000E+20
 35
-1.00000000000000E+20
146
0.0
 13
0.0
 23
0.0
 33
0.0
 16
1.0
 26
0.0
 36
0.0
 17
0.0
 27
1.0
 37
0.0
 76
     0
330
1B
  0
LAYOUT
  5
26
102
{ACAD_REACTORS
330
1A
102
}
330
1A
100
AcDbPlotSettings
  1

  2
none_device
  4

  6

 40
0.0
 41
0.0
 42
0.0
 43
0.0
 44
0.0
 45
0.0
 46
0.0
 47
0.0
 48
0.0
 49
0.0
140
0.0
141
0.0
142
1.0
143
1.0
 70
   688
 72
     0
 73
     0
 74
     5
  7

 75
    16
147
1.0
148
0.0
149
0.0
100
AcDbLayout
  1
Layout2
 70
     1
 71
     2
 10
0.0
 20
0.0
 11
0.0
 21
0.0
 12
0.0
 22
0.0
 32
0.0
 14
0.0
 24
0.0
 34
0.0
 15
0.0
 25
0.0
 35
0.0
146
0.0
 13
0.0
 23
0.0
 33
0.0
 16
1.0
 26
0.0
 36
0.0
 17
0.0
 27
1.0
 37
0.0
 76
     0
330
23
  0
LAYOUT
  5
22
102
{ACAD_REACTORS
330
1A
102
}
330
1A
100
AcDbPlotSettings
  1

  2
none_device
  4

  6

 40
0.0
 41
0.0
 42
0.0
 43
0.0
 44
0.0
 45
0.0
 46
0.0
 47
0.0
 48
0.0
 49
0.0
140
0.0
141
0.0
142
1.0
143
1.0
 70
  1712
 72
     0
 73
     0
 74
     0
  7

 75
     0
147
1.0
148
0.0
149
0.0
100
AcDbLayout
  1
Model
 70
     1
 71
     0
 10
0.0
 20
0.0
 11
12.0
 21
9.0
 12
0.0
 22
0.0
 32
0.0
 14
0.0
 24
0.0
 34
0.0
 15
315.0
 25
445.5
 35
0.0
146
0.0
 13
0.0
 23
0.0
 33
0.0
 16
1.0
 26
0.0
 36
0.0
 17
0.0
 27
1.0
 37
0.0
 76
     0
330
1F
331
29
  0
MATERIAL
  5
3D
102
{ACAD_REACTORS
330
3B
102
}
102
{ACAD_XDICTIONARY
360
238
102
}
330
3B
100
AcDbMaterial
  1
ByBlock
  0
MATERIAL
  5
3C
102
{ACAD_REACTORS
330
3B
102
}
102
{ACAD_XDICTIONARY
360
236
102
}
330
3B
100
AcDbMaterial
  1
ByLayer
  0
MATERIAL
  5
3E
102
{ACAD_REACTORS
330
3B
102
}
102
{ACAD_XDICTIONARY
360
23A
102
}
330
3B
100
AcDbMaterial
  1
Global
  0
MLINESTYLE
  5
18
102
{ACAD_REACTORS
330
17
102
}
330
17
100
AcDbMlineStyle
  2
Standard
 70
     0
  3

 62
   256
 51
90.0
 52
90.0
 71
     2
 49
0.5
 62
   256
  6
BYLAYER
 49
-0.5
 62
   256
  6
BYLAYER
  0
ACDBPLACEHOLDER
  5
F
102
{ACAD_REACTORS
330
E
102
}
330
E
  0
VISUALSTYLE
  5
2F
102
{ACAD_REACTORS
330
2A
102
}
102
{ACAD_XDICTIONARY
360
21E
102
}
330
2A
100
AcDbVisualStyle
  2
2dWireframe
 70
     4
 71
     0
 72
     2
 73
     0
 90
        0
 40
-0.6
 41
-30.0
 62
     5
 63
     7
 74
     1
 91
        4
 64
     7
 65
   257
 75
     1
175
     1
 42
1.0
 92
        0
 66
   257
 43
1.0
 76
     1
 77
     6
 78
     2
 67
     7
 79
     5
170
     0
171
     0
290
     0
174
     0
 93
        1
 44
0.0
173
     0
291
     0
 45
0.0
1001
ACAD
1000
AcDbSavedByObjectVersion
1070
     0
  0
VISUALSTYLE
  5
31
102
{ACAD_REACTORS
330
2A
102
}
102
{ACAD_XDICTIONARY
360
222
102
}
330
2A
100
AcDbVisualStyle
  2
3D Hidden
 70
     6
 71
     1
 72
     2
 73
     2
 90
        0
 40
-0.6
 41
-30.0
 62
     5
 63
     7
 74
     2
 91
        2
 64
     7
 65
   257
 75
     2
175
     1
 42
40.0
 92
        0
 66
   257
 43
1.0
 76
     1
 77
     6
 78
     2
 67
     7
 79
     3
170
     0
171
     0
290
     0
174
     0
 93
        1
 44
0.0
173
     0
291
     0
 45
0.0
1001
ACAD
1000
AcDbSavedByObjectVersion
1070
     0
  0
VISUALSTYLE
  5
30
102
{ACAD_REACTORS
330
2A
102
}
102
{ACAD_XDICTIONARY
360
220
102
}
330
2A
100
AcDbVisualStyle
  2
3dWireframe
 70
     5
 71
     0
 72
     2
 73
     0
 90
        0
 40
-0.6
 41
-30.0
 62
     5
 63
     7
 74
     1
 91
        4
 64
     7
 65
   257
 75
     1
175
     1
 42
1.0
 92
        0
 66
   257
 43
1.0
 76
     1
 77
     6
 78
     2
 67
     7
 79
     5
170
     0
171
     0
290
     0
174
     0
 93
        1
 44
0.0
173
     0
291
     0
 45
0.0
1001
ACAD
1000
AcDbSavedByObjectVersion
1070
     0
  0
VISUALSTYLE
  5
32
102
{ACAD_REACTORS
330
2A
102
}
102
{ACAD_XDICTIONARY
360
224
102
}
330
2A
100
AcDbVisualStyle
  2
Basic
 70
     7
 71
     1
 72
     0
 73
     1
 90
        0
 40
-0.6
 41
-30.0
 62
     5
 63
     7
 74
     0
 91
        4
 64
     7
 65
   257
 75
     1
175
     1
 42
1.0
 92
        8
 66
     7
 43
1.0
 76
     1
 77
     6
 78
     2
 67
     7
 79
     5
170
     0
171
     0
290
     0
174
     0
 93
        1
 44
0.0
173
     0
291
     1
 45
0.0
1001
ACAD
1000
AcDbSavedByObjectVersion
1070
     0
  0
VISUALSTYLE
  5
36
102
{ACAD_REACTORS
330
2A
102
}
102
{ACAD_XDICTIONARY
360
22C
102
}
330
2A
100
AcDbVisualStyle
  2
Brighten
 70
    12
 71
     2
 72
     2
 73
     0
 90
        0
 40
-0.6
 41
-30.0
 62
     5
 63
     7
 74
     1
 91
        4
 64
     7
 65
   257
 75
     1
175
     1
 42
1.0
 92
        8
 66
     7
 43
1.0
 76
     1
 77
     6
 78
     2
 67
     7
 79
     5
170
     0
171
     0
290
     0
174
     0
 93
        1
 44
50.0
173
     0
291
     1
 45
0.0
1001
ACAD
1000
AcDbSavedByObjectVersion
1070
     0
  0
VISUALSTYLE
  5
3A
102
{ACAD_REACTORS
330
2A
102
}
102
{ACAD_XDICTIONARY
360
234
102
}
330
2A
100
AcDbVisualStyle
  2
ColorChange
 70
    16
 71
     2
 72
     2
 73
     3
 90
        0
 40
-0.6
 41
-30.0
 62
     5
 63
     8
 74
     1
 91
        4
 64
     7
 65
   257
 75
     1
175
     1
 42
1.0
 92
        8
 66
     8
 43
1.0
 76
     1
 77
     6
 78
     2
 67
     7
 79
     5
170
     0
171
     0
290
     0
174
     0
 93
        1
 44
0.0
173
     0
291
     1
 45
0.0
1001
ACAD
1000
AcDbSavedByObjectVersion
1070
     0
  0
VISUALSTYLE
  5
34
102
{ACAD_REACTORS
330
2A
102
}
102
{ACAD_XDICTIONARY
360
228
102
}
330
2A
100
AcDbVisualStyle
  2
Conceptual
 70
     9
 71
     3
 72
     2
 73
     0
 90
        0
 40
-0.6
 41
-30.0
 62
     5
 63
     7
 74
     2
 91
        2
 64
     7
 65
   257
 75
     1
175
     1
 42
40.0
 92
        8
 66
     7
 43
1.0
 76
     1
 77
     6
 78
     2
 67
     7
 79
     3
170
     0
171
     0
290
     0
174
     0
 93
        1
 44
0.0
173
     0
291
     0
 45
0.0
1001
ACAD
1000
AcDbSavedByObjectVersion
1070
     0
  0
VISUALSTYLE
  5
35
102
{ACAD_REACTORS
330
2A
102
}
102
{ACAD_XDICTIONARY
360
22A
102
}
330
2A
100
AcDbVisualStyle
  2
Dim
 70
    11
 71
     2
 72
     2
 73
     0
 90
        0
 40
-0.6
 41
-30.0
 62
     5
 63
     7
 74
     1
 91
        4
 64
     7
 65
   257
 75
     1
175
     1
 42
1.0
 92
        8
 66
     7
 43
1.0
 76
     1
 77
     6
 78
     2
 67
     7
 79
     5
170
     0
171
     0
290
     0
174
     0
 93
        1
 44
-50.0
173
     0
291
     1
 45
0.0
1001
ACAD
1000
AcDbSavedByObjectVersion
1070
     0
  0
VISUALSTYLE
  5
39
102
{ACAD_REACTORS
330
2A
102
}
102
{ACAD_XDICTIONARY
360
232
102
}
330
2A
100
AcDbVisualStyle
  2
Facepattern
 70
    15
 71
     2
 72
     2
 73
     0
 90
        0
 40
-0.6
 41
-30.0
 62
     5
 63
     7
 74
     1
 91
        4
 64
     7
 65
   257
 75
     1
175
     1
 42
1.0
 92
        8
 66
     7
 43
1.0
 76
     1
 77
     6
 78
     2
 67
     7
 79
     5
170
     0
171
     0
290
     0
174
     0
 93
        1
 44
0.0
173
     0
291
     1
 45
0.0
1001
ACAD
1000
AcDbSavedByObjectVersion
1070
     0
  0
VISUALSTYLE
  5
2B
102
{ACAD_REACTORS
330
2A
102
}
102
{ACAD_XDICTIONARY
360
216
102
}
330
2A
100
AcDbVisualStyle
  2
Flat
 70
     0
 71
     2
 72
     1
 73
     1
 90
        2
 40
-0.6
 41
30.0
 62
     5
 63
     7
 74
     0
 91
        4
 64
     7
 65
   257
 75
     1
175
     1
 42
1.0
 92
        8
 66
     7
 43
1.0
 76
     1
 77
     6
 78
     2
 67
     7
 79
     5
170
     0
171
     0
290
     0
174
     0
 93
       13
 44
0.0
173
     0
291
     1
 45
0.0
1001
ACAD
1000
AcDbSavedByObjectVersion
1070
     0
  0
VISUALSTYLE
  5
2C
102
{ACAD_REACTORS
330
2A
102
}
102
{ACAD_XDICTIONARY
360
218
102
}
330
2A
100
AcDbVisualStyle
  2
FlatWithEdges
 70
     1
 71
     2
 72
     1
 73
     1
 90
        2
 40
-0.6
 41
30.0
 62
     5
 63
     7
 74
     1
 91
        4
 64
     7
 65
   257
 75
     1
175
     1
 42
1.0
 92
        0
 66
   257
 43
1.0
 76
     1
 77
     6
 78
     2
 67
     7
 79
     5
170
     0
171
     0
290
     0
174
     0
 93
       13
 44
0.0
173
     0
291
     1
 45
0.0
1001
ACAD
1000
AcDbSavedByObjectVersion
1070
     0
  0
VISUALSTYLE
  5
2D
102
{ACAD_REACTORS
330
2A
102
}
102
{ACAD_XDICTIONARY
360
21A
102
}
330
2A
100
AcDbVisualStyle
  2
Gouraud
 70
     2
 71
     2
 72
     2
 73
     1
 90
        2
 40
-0.6
 41
30.0
 62
     5
 63
     7
 74
     0
 91
        4
 64
     7
 65
   257
 75
     1
175
     1
 42
1.0
 92
        0
 66
     7
 43
1.0
 76
     1
 77
     6
 78
     2
 67
     7
 79
     5
170
     0
171
     0
290
     0
174
     0
 93
       13
 44
0.0
173
     0
291
     1
 45
0.0
1001
ACAD
1000
AcDbSavedByObjectVersion
1070
     0
  0
VISUALSTYLE
  5
2E
102
{ACAD_REACTORS
330
2A
102
}
102
{ACAD_XDICTIONARY
360
21C
102
}
330
2A
100
AcDbVisualStyle
  2
GouraudWithEdges
 70
     3
 71
     2
 72
     2
 73
     1
 90
        2
 40
-0.6
 41
30.0
 62
     5
 63
     7
 74
     1
 91
        4
 64
     7
 65
   257
 75
     1
175
     1
 42
1.0
 92
        0
 66
   257
 43
1.0
 76
     1
 77
     6
 78
     2
 67
     7
 79
     5
170
     0
171
     0
290
     0
174
     0
 93
       13
 44
0.0
173
     0
291
     1
 45
0.0
1001
ACAD
1000
AcDbSavedByObjectVersion
1070
     0
  0
VISUALSTYLE
  5
38
102
{ACAD_REACTORS
330
2A
102
}
102
{ACAD_XDICTIONARY
360
230
102
}
330
2A
100
AcDbVisualStyle
  2
Linepattern
 70
    14
 71
     2
 72
     2
 73
     0
 90
        0
 40
-0.6
 41
-30.0
 62
     5
 63
     7
 74
     1
 91
        4
 64
     7
 65
   257
 75
     7
175
     7
 42
1.0
 92
        8
 66
     7
 43
1.0
 76
     1
 77
     6
 78
     2
 67
     7
 79
     5
170
     0
171
     0
290
     0
174
     0
 93
        1
 44
0.0
173
     0
291
     1
 45
0.0
1001
ACAD
1000
AcDbSavedByObjectVersion
1070
     0
  0
VISUALSTYLE
  5
33
102
{ACAD_REACTORS
330
2A
102
}
102
{ACAD_XDICTIONARY
360
226
102
}
330
2A
100
AcDbVisualStyle
  2
Realistic
 70
     8
 71
     2
 72
     2
 73
     0
 90
        0
 40
-0.6
 41
-30.0
 62
     5
 63
     7
 74
     1
 91
        0
 64
     7
 65
   257
 75
     1
175
     1
 42
1.0
 92
        8
 66
     8
 43
1.0
 76
     1
 77
     6
 78
     2
 67
     7
 79
     5
170
     0
171
     0
290
     0
174
     0
 93
       13
 44
0.0
173
     0
291
     0
 45
0.0
1001
ACAD
1000
AcDbSavedByObjectVersion
1070
     0
  0
VISUALSTYLE
  5
37
102
{ACAD_REACTORS
330
2A
102
}
102
{ACAD_XDICTIONARY
360
22E
102
}
330
2A
100
AcDbVisualStyle
  2
Thicken
 70
    13
 71
     2
 72
     2
 73
     0
 90
        0
 40
-0.6
 41
-30.0
 62
     5
 63
     7
 74
     1
 91
        4
 64
     7
 65
   257
 75
     1
175
     1
 42
1.0
 92
       12
 66
     7
 43
1.0
 76
     1
 77
     6
 78
     2
 67
     7
 79
     5
170
     0
171
     0
290
     0
174
     0
 93
        1
 44
0.0
173
     0
291
     1
 45
0.0
1001
ACAD
1000
AcDbSavedByObjectVersion
1070
     0
  0
DICTIONARYVAR
  5
214
102
{ACAD_REACTORS
330
211
102
}
330
211
100
DictionaryVariables
280
     0
  1
2
  0
DICTIONARYVAR
  5
215
102
{ACAD_REACTORS
330
211
102
}
330
211
100
DictionaryVariables
280
     0
  1
1
  0
DICTIONARY
  5
238
330
3D
100
AcDbDictionary
280
     1
281
     1
  3
ACAD_XREC_ROUNDTRIP
360
239
  0
DICTIONARY
  5
236
330
3C
100
AcDbDictionary
280
     1
281
     1
  3
ACAD_XREC_ROUNDTRIP
360
237
  0
DICTIONARY
  5
23A
330
3E
100
AcDbDictionary
280
     1
281
     1
  3
ACAD_XREC_ROUNDTRIP
360
23B
  0
DICTIONARY
  5
21E
330
2F
100
AcDbDictionary
280
     1
281
     1
  3
ACAD_XREC_ROUNDTRIP
360
21F
  0
DICTIONARY
  5
222
330
31
100
AcDbDictionary
280
     1
281
     1
  3
ACAD_XREC_ROUNDTRIP
360
223
  0
DICTIONARY
  5
220
330
30
100
AcDbDictionary
280
     1
281
     1
  3
ACAD_XREC_ROUNDTRIP
360
221
  0
DICTIONARY
  5
224
330
32
100
AcDbDictionary
280
     1
281
     1
  3
ACAD_XREC_ROUNDTRIP
360
225
  0
DICTIONARY
  5
22C
330
36
100
AcDbDictionary
280
     1
281
     1
  3
ACAD_XREC_ROUNDTRIP
360
22D
  0
DICTIONARY
  5
234
330
3A
100
AcDbDictionary
280
     1
281
     1
  3
ACAD_XREC_ROUNDTRIP
360
235
  0
DICTIONARY
  5
228
330
34
100
AcDbDictionary
280
     1
281
     1
  3
ACAD_XREC_ROUNDTRIP
360
229
  0
DICTIONARY
  5
22A
330
35
100
AcDbDictionary
280
     1
281
     1
  3
ACAD_XREC_ROUNDTRIP
360
22B
  0
DICTIONARY
  5
232
330
39
100
AcDbDictionary
280
     1
281
     1
  3
ACAD_XREC_ROUNDTRIP
360
233
  0
DICTIONARY
  5
216
330
2B
100
AcDbDictionary
280
     1
281
     1
  3
ACAD_XREC_ROUNDTRIP
360
217
  0
DICTIONARY
  5
218
330
2C
100
AcDbDictionary
280
     1
281
     1
  3
ACAD_XREC_ROUNDTRIP
360
219
  0
DICTIONARY
  5
21A
330
2D
100
AcDbDictionary
280
     1
281
     1
  3
ACAD_XREC_ROUNDTRIP
360
21B
  0
DICTIONARY
  5
21C
330
2E
100
AcDbDictionary
280
     1
281
     1
  3
ACAD_XREC_ROUNDTRIP
360
21D
  0
DICTIONARY
  5
230
330
38
100
AcDbDictionary
280
     1
281
     1
  3
ACAD_XREC_ROUNDTRIP
360
231
  0
DICTIONARY
  5
226
330
33
100
AcDbDictionary
280
     1
281
     1
  3
ACAD_XREC_ROUNDTRIP
360
227
  0
DICTIONARY
  5
22E
330
37
100
AcDbDictionary
280
     1
281
     1
  3
ACAD_XREC_ROUNDTRIP
360
22F
  0
XRECORD
  5
239
102
{ACAD_REACTORS
330
238
102
}
330
238
100
AcDbXrecord
280
     1
102
MATERIAL
148
0.0
149
0.0
149
0.0
 93
        0
 94
      127
282
     0
 72
     1
 77
     1
171
     1
175
     1
179
     1
273
     0
  0
XRECORD
  5
237
102
{ACAD_REACTORS
330
236
102
}
330
236
100
AcDbXrecord
280
     1
102
MATERIAL
148
0.0
149
0.0
149
0.0
 93
        0
 94
      127
282
     0
 72
     1
 77
     1
171
     1
175
     1
179
     1
273
     0
  0
XRECORD
  5
23B
102
{ACAD_REACTORS
330
23A
102
}
330
23A
100
AcDbXrecord
280
     1
102
MATERIAL
148
0.0
149
0.0
149
0.0
 93
        0
 94
      127
282
     0
 72
     1
 77
     1
171
     1
175
     1
179
     1
273
     0
  0
XRECORD
  5
21F
102
{ACAD_REACTORS
330
21E
102
}
330
21E
100
AcDbXrecord
280
     1
102
RTVSPropertyOp0
 70
     1
102
RTVSPropertyOp1
 70
     1
102
RTVSPropertyOp2
 70
     1
102
RTVSPropertyOp3
 70
     1
102
RTVSPropertyOp4
 70
     1
102
RTVSPropertyOp5
 70
     1
102
RTVSPropertyOp6
 70
     1
102
RTVSPropertyOp7
 70
     1
102
RTVSPropertyOp8
 70
     1
102
RTVSPropertyOp9
 70
     1
102
RTVSPropertyOp10
 70
     1
102
RTVSPropertyOp11
 70
     1
102
RTVSPropertyOp12
 70
     1
102
RTVSPropertyOp13
 70
     1
102
RTVSPropertyOp14
 70
     1
102
RTVSPropertyOp15
 70
     1
102
RTVSPropertyOp16
 70
     1
102
RTVSPropertyOp17
 70
     1
102
RTVSPropertyOp18
 70
     1
102
RTVSPropertyOp19
 70
     1
102
RTVSPropertyOp20
 70
     1
102
RTVSPropertyOp21
 70
     1
102
RTVSPropertyOp22
 70
     1
102
RTVSPropertyOp23
 70
     1
102
RTVSPropertyOp24
 70
     1
102
RTVSPropertyOp25
 70
     1
102
RTVSPropertyOp26
 70
     1
102
RTVSPropertyOp27
 70
     1
102
RTVSPropertyOp28
 70
     1
102
RTVSPropertyOp29
 70
     1
102
RTVSPropertyOp30
 70
     1
102
RTVSPropertyOp31
 70
     1
102
RTVSPropertyOp32
 70
     1
  0
XRECORD
  5
223
102
{ACAD_REACTORS
330
222
102
}
330
222
100
AcDbXrecord
280
     1
102
RTVSPropertyOp0
 70
     1
102
RTVSPropertyOp1
 70
     1
102
RTVSPropertyOp2
 70
     1
102
RTVSPropertyOp3
 70
     1
102
RTVSPropertyOp4
 70
     1
102
RTVSPropertyOp5
 70
     1
102
RTVSPropertyOp6
 70
     1
102
RTVSPropertyOp7
 70
     1
102
RTVSPropertyOp8
 70
     1
102
RTVSPropertyOp9
 70
     1
102
RTVSPropertyOp10
 70
     1
102
RTVSPropertyOp11
 70
     1
102
RTVSPropertyOp12
 70
     1
102
RTVSPropertyOp13
 70
     1
102
RTVSPropertyOp14
 70
     1
102
RTVSPropertyOp15
 70
     1
102
RTVSPropertyOp16
 70
     1
102
RTVSPropertyOp17
 70
     1
102
RTVSPropertyOp18
 70
     1
102
RTVSPropertyOp19
 70
     1
102
RTVSPropertyOp20
 70
     1
102
RTVSPropertyOp21
 70
     1
102
RTVSPropertyOp22
 70
     1
102
RTVSPropertyOp23
 70
     1
102
RTVSPropertyOp24
 70
     1
102
RTVSPropertyOp25
 70
     1
102
RTVSPropertyOp26
 70
     1
102
RTVSPropertyOp27
 70
     1
102
RTVSPropertyOp28
 70
     1
102
RTVSPropertyOp29
 70
     1
102
RTVSPropertyOp30
 70
     1
102
RTVSPropertyOp31
 70
     1
102
RTVSPropertyOp32
 70
     1
  0
XRECORD
  5
221
102
{ACAD_REACTORS
330
220
102
}
330
220
100
AcDbXrecord
280
     1
102
RTVSPropertyOp0
 70
     1
102
RTVSPropertyOp1
 70
     1
102
RTVSPropertyOp2
 70
     1
102
RTVSPropertyOp3
 70
     1
102
RTVSPropertyOp4
 70
     1
102
RTVSPropertyOp5
 70
     1
102
RTVSPropertyOp6
 70
     1
102
RTVSPropertyOp7
 70
     1
102
RTVSPropertyOp8
 70
     1
102
RTVSPropertyOp9
 70
     1
102
RTVSPropertyOp10
 70
     1
102
RTVSPropertyOp11
 70
     1
102
RTVSPropertyOp12
 70
     1
102
RTVSPropertyOp13
 70
     1
102
RTVSPropertyOp14
 70
     1
102
RTVSPropertyOp15
 70
     1
102
RTVSPropertyOp16
 70
     1
102
RTVSPropertyOp17
 70
     1
102
RTVSPropertyOp18
 70
     1
102
RTVSPropertyOp19
 70
     1
102
RTVSPropertyOp20
 70
     1
102
RTVSPropertyOp21
 70
     1
102
RTVSPropertyOp22
 70
     1
102
RTVSPropertyOp23
 70
     1
102
RTVSPropertyOp24
 70
     1
102
RTVSPropertyOp25
 70
     1
102
RTVSPropertyOp26
 70
     1
102
RTVSPropertyOp27
 70
     1
102
RTVSPropertyOp28
 70
     1
102
RTVSPropertyOp29
 70
     1
102
RTVSPropertyOp30
 70
     1
102
RTVSPropertyOp31
 70
     1
102
RTVSPropertyOp32
 70
     1
  0
XRECORD
  5
225
102
{ACAD_REACTORS
330
224
102
}
330
224
100
AcDbXrecord
280
     1
102
RTVSPropertyOp0
 70
     1
102
RTVSPropertyOp1
 70
     1
102
RTVSPropertyOp2
 70
     1
102
RTVSPropertyOp3
 70
     1
102
RTVSPropertyOp4
 70
     1
102
RTVSPropertyOp5
 70
     1
102
RTVSPropertyOp6
 70
     1
102
RTVSPropertyOp7
 70
     1
102
RTVSPropertyOp8
 70
     1
102
RTVSPropertyOp9
 70
     1
102
RTVSPropertyOp10
 70
     1
102
RTVSPropertyOp11
 70
     1
102
RTVSPropertyOp12
 70
     1
102
RTVSPropertyOp13
 70
     1
102
RTVSPropertyOp14
 70
     1
102
RTVSPropertyOp15
 70
     1
102
RTVSPropertyOp16
 70
     1
102
RTVSPropertyOp17
 70
     1
102
RTVSPropertyOp18
 70
     1
102
RTVSPropertyOp19
 70
     1
102
RTVSPropertyOp20
 70
     1
102
RTVSPropertyOp21
 70
     1
102
RTVSPropertyOp22
 70
     1
102
RTVSPropertyOp23
 70
     1
102
RTVSPropertyOp24
 70
     1
102
RTVSPropertyOp25
 70
     1
102
RTVSPropertyOp26
 70
     1
102
RTVSPropertyOp27
 70
     1
102
RTVSPropertyOp28
 70
     1
102
RTVSPropertyOp29
 70
     1
102
RTVSPropertyOp30
 70
     1
102
RTVSPropertyOp31
 70
     1
102
RTVSPropertyOp32
 70
     1
  0
XRECORD
  5
22D
102
{ACAD_REACTORS
330
22C
102
}
330
22C
100
AcDbXrecord
280
     1
102
RTVSPropertyOp0
 70
     1
102
RTVSPropertyOp1
 70
     1
102
RTVSPropertyOp2
 70
     1
102
RTVSPropertyOp3
 70
     1
102
RTVSPropertyOp4
 70
     1
102
RTVSPropertyOp5
 70
     1
102
RTVSPropertyOp6
 70
     1
102
RTVSPropertyOp7
 70
     1
102
RTVSPropertyOp8
 70
     1
102
RTVSPropertyOp9
 70
     1
102
RTVSPropertyOp10
 70
     1
102
RTVSPropertyOp11
 70
     1
102
RTVSPropertyOp12
 70
     1
102
RTVSPropertyOp13
 70
     1
102
RTVSPropertyOp14
 70
     1
102
RTVSPropertyOp15
 70
     1
102
RTVSPropertyOp16
 70
     1
102
RTVSPropertyOp17
 70
     1
102
RTVSPropertyOp18
 70
     1
102
RTVSPropertyOp19
 70
     1
102
RTVSPropertyOp20
 70
     1
102
RTVSPropertyOp21
 70
     1
102
RTVSPropertyOp22
 70
     1
102
RTVSPropertyOp23
 70
     1
102
RTVSPropertyOp24
 70
     1
102
RTVSPropertyOp25
 70
     1
102
RTVSPropertyOp26
 70
     1
102
RTVSPropertyOp27
 70
     1
102
RTVSPropertyOp28
 70
     1
102
RTVSPropertyOp29
 70
     1
102
RTVSPropertyOp30
 70
     1
102
RTVSPropertyOp31
 70
     1
102
RTVSPropertyOp32
 70
     1
  0
XRECORD
  5
235
102
{ACAD_REACTORS
330
234
102
}
330
234
100
AcDbXrecord
280
     1
102
RTVSPropertyOp0
 70
     1
102
RTVSPropertyOp1
 70
     1
102
RTVSPropertyOp2
 70
     1
102
RTVSPropertyOp3
 70
     1
102
RTVSPropertyOp4
 70
     1
102
RTVSPropertyOp5
 70
     1
102
RTVSPropertyOp6
 70
     1
102
RTVSPropertyOp7
 70
     1
102
RTVSPropertyOp8
 70
     1
102
RTVSPropertyOp9
 70
     1
102
RTVSPropertyOp10
 70
     1
102
RTVSPropertyOp11
 70
     1
102
RTVSPropertyOp12
 70
     1
102
RTVSPropertyOp13
 70
     1
102
RTVSPropertyOp14
 70
     1
102
RTVSPropertyOp15
 70
     1
102
RTVSPropertyOp16
 70
     1
102
RTVSPropertyOp17
 70
     1
102
RTVSPropertyOp18
 70
     1
102
RTVSPropertyOp19
 70
     1
102
RTVSPropertyOp20
 70
     1
102
RTVSPropertyOp21
 70
     1
102
RTVSPropertyOp22
 70
     1
102
RTVSPropertyOp23
 70
     1
102
RTVSPropertyOp24
 70
     1
102
RTVSPropertyOp25
 70
     1
102
RTVSPropertyOp26
 70
     1
102
RTVSPropertyOp27
 70
     1
102
RTVSPropertyOp28
 70
     1
102
RTVSPropertyOp29
 70
     1
102
RTVSPropertyOp30
 70
     1
102
RTVSPropertyOp31
 70
     1
102
RTVSPropertyOp32
 70
     1
  0
XRECORD
  5
229
102
{ACAD_REACTORS
330
228
102
}
330
228
100
AcDbXrecord
280
     1
102
RTVSPropertyOp0
 70
     1
102
RTVSPropertyOp1
 70
     1
102
RTVSPropertyOp2
 70
     1
102
RTVSPropertyOp3
 70
     1
102
RTVSPropertyOp4
 70
     1
102
RTVSPropertyOp5
 70
     1
102
RTVSPropertyOp6
 70
     1
102
RTVSPropertyOp7
 70
     1
102
RTVSPropertyOp8
 70
     1
102
RTVSPropertyOp9
 70
     1
102
RTVSPropertyOp10
 70
     1
102
RTVSPropertyOp11
 70
     1
102
RTVSPropertyOp12
 70
     1
102
RTVSPropertyOp13
 70
     1
102
RTVSPropertyOp14
 70
     1
102
RTVSPropertyOp15
 70
     1
102
RTVSPropertyOp16
 70
     1
102
RTVSPropertyOp17
 70
     1
102
RTVSPropertyOp18
 70
     1
102
RTVSPropertyOp19
 70
     1
102
RTVSPropertyOp20
 70
     1
102
RTVSPropertyOp21
 70
     1
102
RTVSPropertyOp22
 70
     1
102
RTVSPropertyOp23
 70
     1
102
RTVSPropertyOp24
 70
     1
102
RTVSPropertyOp25
 70
     1
102
RTVSPropertyOp26
 70
     1
102
RTVSPropertyOp27
 70
     1
102
RTVSPropertyOp28
 70
     1
102
RTVSPropertyOp29
 70
     1
102
RTVSPropertyOp30
 70
     1
102
RTVSPropertyOp31
 70
     1
102
RTVSPropertyOp32
 70
     1
  0
XRECORD
  5
22B
102
{ACAD_REACTORS
330
22A
102
}
330
22A
100
AcDbXrecord
280
     1
102
RTVSPropertyOp0
 70
     1
102
RTVSPropertyOp1
 70
     1
102
RTVSPropertyOp2
 70
     1
102
RTVSPropertyOp3
 70
     1
102
RTVSPropertyOp4
 70
     1
102
RTVSPropertyOp5
 70
     1
102
RTVSPropertyOp6
 70
     1
102
RTVSPropertyOp7
 70
     1
102
RTVSPropertyOp8
 70
     1
102
RTVSPropertyOp9
 70
     1
102
RTVSPropertyOp10
 70
     1
102
RTVSPropertyOp11
 70
     1
102
RTVSPropertyOp12
 70
     1
102
RTVSPropertyOp13
 70
     1
102
RTVSPropertyOp14
 70
     1
102
RTVSPropertyOp15
 70
     1
102
RTVSPropertyOp16
 70
     1
102
RTVSPropertyOp17
 70
     1
102
RTVSPropertyOp18
 70
     1
102
RTVSPropertyOp19
 70
     1
102
RTVSPropertyOp20
 70
     1
102
RTVSPropertyOp21
 70
     1
102
RTVSPropertyOp22
 70
     1
102
RTVSPropertyOp23
 70
     1
102
RTVSPropertyOp24
 70
     1
102
RTVSPropertyOp25
 70
     1
102
RTVSPropertyOp26
 70
     1
102
RTVSPropertyOp27
 70
     1
102
RTVSPropertyOp28
 70
     1
102
RTVSPropertyOp29
 70
     1
102
RTVSPropertyOp30
 70
     1
102
RTVSPropertyOp31
 70
     1
102
RTVSPropertyOp32
 70
     1
  0
XRECORD
  5
233
102
{ACAD_REACTORS
330
232
102
}
330
232
100
AcDbXrecord
280
     1
102
RTVSPropertyOp0
 70
     1
102
RTVSPropertyOp1
 70
     1
102
RTVSPropertyOp2
 70
     1
102
RTVSPropertyOp3
 70
     1
102
RTVSPropertyOp4
 70
     1
102
RTVSPropertyOp5
 70
     1
102
RTVSPropertyOp6
 70
     1
102
RTVSPropertyOp7
 70
     1
102
RTVSPropertyOp8
 70
     1
102
RTVSPropertyOp9
 70
     1
102
RTVSPropertyOp10
 70
     1
102
RTVSPropertyOp11
 70
     1
102
RTVSPropertyOp12
 70
     1
102
RTVSPropertyOp13
 70
     1
102
RTVSPropertyOp14
 70
     1
102
RTVSPropertyOp15
 70
     1
102
RTVSPropertyOp16
 70
     1
102
RTVSPropertyOp17
 70
     1
102
RTVSPropertyOp18
 70
     1
102
RTVSPropertyOp19
 70
     1
102
RTVSPropertyOp20
 70
     1
102
RTVSPropertyOp21
 70
     1
102
RTVSPropertyOp22
 70
     1
102
RTVSPropertyOp23
 70
     1
102
RTVSPropertyOp24
 70
     1
102
RTVSPropertyOp25
 70
     1
102
RTVSPropertyOp26
 70
     1
102
RTVSPropertyOp27
 70
     1
102
RTVSPropertyOp28
 70
     1
102
RTVSPropertyOp29
 70
     1
102
RTVSPropertyOp30
 70
     1
102
RTVSPropertyOp31
 70
     1
102
RTVSPropertyOp32
 70
     1
  0
XRECORD
  5
217
102
{ACAD_REACTORS
330
216
102
}
330
216
100
AcDbXrecord
280
     1
102
RTVSPropertyOp0
 70
     1
102
RTVSPropertyOp1
 70
     1
102
RTVSPropertyOp2
 70
     1
102
RTVSPropertyOp3
 70
     1
102
RTVSPropertyOp4
 70
     1
102
RTVSPropertyOp5
 70
     1
102
RTVSPropertyOp6
 70
     1
102
RTVSPropertyOp7
 70
     1
102
RTVSPropertyOp8
 70
     1
102
RTVSPropertyOp9
 70
     1
102
RTVSPropertyOp10
 70
     1
102
RTVSPropertyOp11
 70
     1
102
RTVSPropertyOp12
 70
     1
102
RTVSPropertyOp13
 70
     1
102
RTVSPropertyOp14
 70
     1
102
RTVSPropertyOp15
 70
     1
102
RTVSPropertyOp16
 70
     1
102
RTVSPropertyOp17
 70
     1
102
RTVSPropertyOp18
 70
     1
102
RTVSPropertyOp19
 70
     1
102
RTVSPropertyOp20
 70
     1
102
RTVSPropertyOp21
 70
     1
102
RTVSPropertyOp22
 70
     1
102
RTVSPropertyOp23
 70
     1
102
RTVSPropertyOp24
 70
     1
102
RTVSPropertyOp25
 70
     1
102
RTVSPropertyOp26
 70
     1
102
RTVSPropertyOp27
 70
     1
102
RTVSPropertyOp28
 70
     1
102
RTVSPropertyOp29
 70
     1
102
RTVSPropertyOp30
 70
     1
102
RTVSPropertyOp31
 70
     1
102
RTVSPropertyOp32
 70
     1
  0
XRECORD
  5
219
102
{ACAD_REACTORS
330
218
102
}
330
218
100
AcDbXrecord
280
     1
102
RTVSPropertyOp0
 70
     1
102
RTVSPropertyOp1
 70
     1
102
RTVSPropertyOp2
 70
     1
102
RTVSPropertyOp3
 70
     1
102
RTVSPropertyOp4
 70
     1
102
RTVSPropertyOp5
 70
     1
102
RTVSPropertyOp6
 70
     1
102
RTVSPropertyOp7
 70
     1
102
RTVSPropertyOp8
 70
     1
102
RTVSPropertyOp9
 70
     1
102
RTVSPropertyOp10
 70
     1
102
RTVSPropertyOp11
 70
     1
102
RTVSPropertyOp12
 70
     1
102
RTVSPropertyOp13
 70
     1
102
RTVSPropertyOp14
 70
     1
102
RTVSPropertyOp15
 70
     1
102
RTVSPropertyOp16
 70
     1
102
RTVSPropertyOp17
 70
     1
102
RTVSPropertyOp18
 70
     1
102
RTVSPropertyOp19
 70
     1
102
RTVSPropertyOp20
 70
     1
102
RTVSPropertyOp21
 70
     1
102
RTVSPropertyOp22
 70
     1
102
RTVSPropertyOp23
 70
     1
102
RTVSPropertyOp24
 70
     1
102
RTVSPropertyOp25
 70
     1
102
RTVSPropertyOp26
 70
     1
102
RTVSPropertyOp27
 70
     1
102
RTVSPropertyOp28
 70
     1
102
RTVSPropertyOp29
 70
     1
102
RTVSPropertyOp30
 70
     1
102
RTVSPropertyOp31
 70
     1
102
RTVSPropertyOp32
 70
     1
  0
XRECORD
  5
21B
102
{ACAD_REACTORS
330
21A
102
}
330
21A
100
AcDbXrecord
280
     1
102
RTVSPropertyOp0
 70
     1
102
RTVSPropertyOp1
 70
     1
102
RTVSPropertyOp2
 70
     1
102
RTVSPropertyOp3
 70
     1
102
RTVSPropertyOp4
 70
     1
102
RTVSPropertyOp5
 70
     1
102
RTVSPropertyOp6
 70
     1
102
RTVSPropertyOp7
 70
     1
102
RTVSPropertyOp8
 70
     1
102
RTVSPropertyOp9
 70
     1
102
RTVSPropertyOp10
 70
     1
102
RTVSPropertyOp11
 70
     1
102
RTVSPropertyOp12
 70
     1
102
RTVSPropertyOp13
 70
     1
102
RTVSPropertyOp14
 70
     1
102
RTVSPropertyOp15
 70
     1
102
RTVSPropertyOp16
 70
     1
102
RTVSPropertyOp17
 70
     1
102
RTVSPropertyOp18
 70
     1
102
RTVSPropertyOp19
 70
     1
102
RTVSPropertyOp20
 70
     1
102
RTVSPropertyOp21
 70
     1
102
RTVSPropertyOp22
 70
     1
102
RTVSPropertyOp23
 70
     1
102
RTVSPropertyOp24
 70
     1
102
RTVSPropertyOp25
 70
     1
102
RTVSPropertyOp26
 70
     1
102
RTVSPropertyOp27
 70
     1
102
RTVSPropertyOp28
 70
     1
102
RTVSPropertyOp29
 70
     1
102
RTVSPropertyOp30
 70
     1
102
RTVSPropertyOp31
 70
     1
102
RTVSPropertyOp32
 70
     1
  0
XRECORD
  5
21D
102
{ACAD_REACTORS
330
21C
102
}
330
21C
100
AcDbXrecord
280
     1
102
RTVSPropertyOp0
 70
     1
102
RTVSPropertyOp1
 70
     1
102
RTVSPropertyOp2
 70
     1
102
RTVSPropertyOp3
 70
     1
102
RTVSPropertyOp4
 70
     1
102
RTVSPropertyOp5
 70
     1
102
RTVSPropertyOp6
 70
     1
102
RTVSPropertyOp7
 70
     1
102
RTVSPropertyOp8
 70
     1
102
RTVSPropertyOp9
 70
     1
102
RTVSPropertyOp10
 70
     1
102
RTVSPropertyOp11
 70
     1
102
RTVSPropertyOp12
 70
     1
102
RTVSPropertyOp13
 70
     1
102
RTVSPropertyOp14
 70
     1
102
RTVSPropertyOp15
 70
     1
102
RTVSPropertyOp16
 70
     1
102
RTVSPropertyOp17
 70
     1
102
RTVSPropertyOp18
 70
     1
102
RTVSPropertyOp19
 70
     1
102
RTVSPropertyOp20
 70
     1
102
RTVSPropertyOp21
 70
     1
102
RTVSPropertyOp22
 70
     1
102
RTVSPropertyOp23
 70
     1
102
RTVSPropertyOp24
 70
     1
102
RTVSPropertyOp25
 70
     1
102
RTVSPropertyOp26
 70
     1
102
RTVSPropertyOp27
 70
     1
102
RTVSPropertyOp28
 70
     1
102
RTVSPropertyOp29
 70
     1
102
RTVSPropertyOp30
 70
     1
102
RTVSPropertyOp31
 70
     1
102
RTVSPropertyOp32
 70
     1
  0
XRECORD
  5
231
102
{ACAD_REACTORS
330
230
102
}
330
230
100
AcDbXrecord
280
     1
102
RTVSPropertyOp0
 70
     1
102
RTVSPropertyOp1
 70
     1
102
RTVSPropertyOp2
 70
     1
102
RTVSPropertyOp3
 70
     1
102
RTVSPropertyOp4
 70
     1
102
RTVSPropertyOp5
 70
     1
102
RTVSPropertyOp6
 70
     1
102
RTVSPropertyOp7
 70
     1
102
RTVSPropertyOp8
 70
     1
102
RTVSPropertyOp9
 70
     1
102
RTVSPropertyOp10
 70
     1
102
RTVSPropertyOp11
 70
     1
102
RTVSPropertyOp12
 70
     1
102
RTVSPropertyOp13
 70
     1
102
RTVSPropertyOp14
 70
     1
102
RTVSPropertyOp15
 70
     1
102
RTVSPropertyOp16
 70
     1
102
RTVSPropertyOp17
 70
     1
102
RTVSPropertyOp18
 70
     1
102
RTVSPropertyOp19
 70
     1
102
RTVSPropertyOp20
 70
     1
102
RTVSPropertyOp21
 70
     1
102
RTVSPropertyOp22
 70
     1
102
RTVSPropertyOp23
 70
     1
102
RTVSPropertyOp24
 70
     1
102
RTVSPropertyOp25
 70
     1
102
RTVSPropertyOp26
 70
     1
102
RTVSPropertyOp27
 70
     1
102
RTVSPropertyOp28
 70
     1
102
RTVSPropertyOp29
 70
     1
102
RTVSPropertyOp30
 70
     1
102
RTVSPropertyOp31
 70
     1
102
RTVSPropertyOp32
 70
     1
  0
XRECORD
  5
227
102
{ACAD_REACTORS
330
226
102
}
330
226
100
AcDbXrecord
280
     1
102
RTVSPropertyOp0
 70
     1
102
RTVSPropertyOp1
 70
     1
102
RTVSPropertyOp2
 70
     1
102
RTVSPropertyOp3
 70
     1
102
RTVSPropertyOp4
 70
     1
102
RTVSPropertyOp5
 70
     1
102
RTVSPropertyOp6
 70
     1
102
RTVSPropertyOp7
 70
     1
102
RTVSPropertyOp8
 70
     1
102
RTVSPropertyOp9
 70
     1
102
RTVSPropertyOp10
 70
     1
102
RTVSPropertyOp11
 70
     1
102
RTVSPropertyOp12
 70
     1
102
RTVSPropertyOp13
 70
     1
102
RTVSPropertyOp14
 70
     1
102
RTVSPropertyOp15
 70
     1
102
RTVSPropertyOp16
 70
     1
102
RTVSPropertyOp17
 70
     1
102
RTVSPropertyOp18
 70
     1
102
RTVSPropertyOp19
 70
     1
102
RTVSPropertyOp20
 70
     1
102
RTVSPropertyOp21
 70
     1
102
RTVSPropertyOp22
 70
     1
102
RTVSPropertyOp23
 70
     1
102
RTVSPropertyOp24
 70
     1
102
RTVSPropertyOp25
 70
     1
102
RTVSPropertyOp26
 70
     1
102
RTVSPropertyOp27
 70
     1
102
RTVSPropertyOp28
 70
     1
102
RTVSPropertyOp29
 70
     1
102
RTVSPropertyOp30
 70
     1
102
RTVSPropertyOp31
 70
     1
102
RTVSPropertyOp32
 70
     1
  0
XRECORD
  5
22F
102
{ACAD_REACTORS
330
22E
102
}
330
22E
100
AcDbXrecord
280
     1
102
RTVSPropertyOp0
 70
     1
102
RTVSPropertyOp1
 70
     1
102
RTVSPropertyOp2
 70
     1
102
RTVSPropertyOp3
 70
     1
102
RTVSPropertyOp4
 70
     1
102
RTVSPropertyOp5
 70
     1
102
RTVSPropertyOp6
 70
     1
102
RTVSPropertyOp7
 70
     1
102
RTVSPropertyOp8
 70
     1
102
RTVSPropertyOp9
 70
     1
102
RTVSPropertyOp10
 70
     1
102
RTVSPropertyOp11
 70
     1
102
RTVSPropertyOp12
 70
     1
102
RTVSPropertyOp13
 70
     1
102
RTVSPropertyOp14
 70
     1
102
RTVSPropertyOp15
 70
     1
102
RTVSPropertyOp16
 70
     1
102
RTVSPropertyOp17
 70
     1
102
RTVSPropertyOp18
 70
     1
102
RTVSPropertyOp19
 70
     1
102
RTVSPropertyOp20
 70
     1
102
RTVSPropertyOp21
 70
     1
102
RTVSPropertyOp22
 70
     1
102
RTVSPropertyOp23
 70
     1
102
RTVSPropertyOp24
 70
     1
102
RTVSPropertyOp25
 70
     1
102
RTVSPropertyOp26
 70
     1
102
RTVSPropertyOp27
 70
     1
102
RTVSPropertyOp28
 70
     1
102
RTVSPropertyOp29
 70
     1
102
RTVSPropertyOp30
 70
     1
102
RTVSPropertyOp31
 70
     1
102
RTVSPropertyOp32
 70
     1
  0
ENDSEC
  0
EOF
