  0
SECTION
  2
HEADER
  9
$ACADVER
  1
AC1015
  9
$ACADMAINTVER
 70
     6
  9
$DWGCODEPAGE
  3
DOS932
  9
$INSBASE
 10
0.0
 20
0.0
 30
0.0
  9
$EXTMIN
 10
0.0
 20
0.0
 30
0.0
  9
$EXTMAX
 10
420.0
 20
594.0
 30
0.0
  9
$LIMMIN
 10
0.0
 20
0.0
  9
$LIMMAX
 10
12.0
 20
9.0
  9
$ORTHOMODE
 70
     0
  9
$REGENMODE
 70
     1
  9
$FILLMODE
 70
     1
  9
$QTEXTMODE
 70
     0
  9
$MIRRTEXT
 70
     1
  9
$LTSCALE
 40
1.0
  9
$ATTMODE
 70
     1
  9
$TEXTSIZE
 40
0.2
  9
$TRACEWID
 40
0.05
  9
$TEXTSTYLE
  7
Standard
  9
$CLAYER
  8
0
  9
$CELTYPE
  6
ByLayer
  9
$CECOLOR
 62
   256
  9
$CELTSCALE
 40
1.0
  9
$DISPSILH
 70
     0
  9
$DIMSCALE
 40
1.0
  9
$DIMASZ
 40
0.18
  9
$DIMEXO
 40
0.0625
  9
$DIMDLI
 40
0.38
  9
$DIMRND
 40
0.0
  9
$DIMDLE
 40
0.0
  9
$DIMEXE
 40
0.18
  9
$DIMTP
 40
0.0
  9
$DIMTM
 40
0.0
  9
$DIMTXT
 40
0.18
  9
$DIMCEN
 40
0.09
  9
$DIMTSZ
 40
0.0
  9
$DIMTOL
 70
     0
  9
$DIMLIM
 70
     0
  9
$DIMTIH
 70
     1
  9
$DIMTOH
 70
     1
  9
$DIMSE1
 70
     0
  9
$DIMSE2
 70
     0
  9
$DIMTAD
 70
     0
  9
$DIMZIN
 70
     0
  9
$DIMBLK
  1

  9
$DIMASO
 70
     1
  9
$DIMSHO
 70
     1
  9
$DIMPOST
  1

  9
$DIMAPOST
  1

  9
$DIMALT
 70
     0
  9
$DIMALTD
 70
     2
  9
$DIMALTF
 40
25.4
  9
$DIMLFAC
 40
1.0
  9
$DIMTOFL
 70
     0
  9
$DIMTVP
 40
0.0
  9
$DIMTIX
 70
     0
  9
$DIMSOXD
 70
     0
  9
$DIMSAH
 70
     0
  9
$DIMBLK1
  1

  9
$DIMBLK2
  1

  9
$DIMSTYLE
  2
Standard
  9
$DIMCLRD
 70
     0
  9
$DIMCLRE
 70
     0
  9
$DIMCLRT
 70
     0
  9
$DIMTFAC
 40
1.0
  9
$DIMGAP
 40
0.09
  9
$DIMJUST
 70
     0
  9
$DIMSD1
 70
     0
  9
$DIMSD2
 70
     0
  9
$DIMTOLJ
 70
     1
  9
$DIMTZIN
 70
     0
  9
$DIMALTZ
 70
     0
  9
$DIMALTTZ
 70
     0
  9
$DIMUPT
 70
     0
  9
$DIMDEC
 70
     4
  9
$DIMTDEC
 70
     4
  9
$DIMALTU
 70
     2
  9
$DIMALTTD
 70
     2
  9
$DIMTXSTY
  7
Standard
  9
$DIMAUNIT
 70
     0
  9
$DIMADEC
 70
     0
  9
$DIMALTRND
 40
0.0
  9
$DIMAZIN
 70
     0
  9
$DIMDSEP
 70
    46
  9
$DIMATFIT
 70
     3
  9
$DIMFRAC
 70
     0
  9
$DIMLDRBLK
  1

  9
$DIMLUNIT
 70
     2
  9
$DIMLWD
 70
    -2
  9
$DIMLWE
 70
    -2
  9
$DIMTMOVE
 70
     0
  9
$LUNITS
 70
     2
  9
$LUPREC
 70
     4
  9
$SKETCHINC
 40
0.1
  9
$FILLETRAD
 40
0.5
  9
$AUNITS
 70
     0
  9
$AUPREC
 70
     0
  9
$MENU
  1
.
  9
$ELEVATION
 40
0.0
  9
$PELEVATION
 40
0.0
  9
$THICKNESS
 40
0.0
  9
$LIMCHECK
 70
     0
  9
$CHAMFERA
 40
0.5
  9
$CHAMFERB
 40
0.5
  9
$CHAMFERC
 40
1.0
  9
$CHAMFERD
 40
0.0
  9
$SKPOLY
 70
     0
  9
$TDCREATE
 40
2456142.572996771
  9
$TDUCREATE
 40
2456142.197996771
  9
$TDUPDATE
 40
2456142.572996783
  9
$TDUUPDATE
 40
2456142.197996783
  9
$TDINDWG
 40
0.0000000116
  9
$TDUSRTIMER
 40
0.0000000116
  9
$USRTIMER
 70
     1
  9
$ANGBASE
 50
0.0
  9
$ANGDIR
 70
     0
  9
$PDMODE
 70
     0
  9
$PDSIZE
 40
0.0
  9
$PLINEWID
 40
0.0
  9
$SPLFRAME
 70
     0
  9
$SPLINETYPE
 70
     6
  9
$SPLINESEGS
 70
     8
  9
$HANDSEED
  5
2EF
  9
$SURFTAB1
 70
     6
  9
$SURFTAB2
 70
     6
  9
$SURFTYPE
 70
     6
  9
$SURFU
 70
     6
  9
$SURFV
 70
     6
  9
$UCSBASE
  2

  9
$UCSNAME
  2

  9
$UCSORG
 10
0.0
 20
0.0
 30
0.0
  9
$UCSXDIR
 10
1.0
 20
0.0
 30
0.0
  9
$UCSYDIR
 10
0.0
 20
1.0
 30
0.0
  9
$UCSORTHOREF
  2

  9
$UCSORTHOVIEW
 70
     0
  9
$UCSORGTOP
 10
0.0
 20
0.0
 30
0.0
  9
$UCSORGBOTTOM
 10
0.0
 20
0.0
 30
0.0
  9
$UCSORGLEFT
 10
0.0
 20
0.0
 30
0.0
  9
$UCSORGRIGHT
 10
0.0
 20
0.0
 30
0.0
  9
$UCSORGFRONT
 10
0.0
 20
0.0
 30
0.0
  9
$UCSORGBACK
 10
0.0
 20
0.0
 30
0.0
  9
$PUCSBASE
  2

  9
$PUCSNAME
  2

  9
$PUCSORG
 10
0.0
 20
0.0
 30
0.0
  9
$PUCSXDIR
 10
1.0
 20
0.0
 30
0.0
  9
$PUCSYDIR
 10
0.0
 20
1.0
 30
0.0
  9
$PUCSORTHOREF
  2

  9
$PUCSORTHOVIEW
 70
     0
  9
$PUCSORGTOP
 10
0.0
 20
0.0
 30
0.0
  9
$PUCSORGBOTTOM
 10
0.0
 20
0.0
 30
0.0
  9
$PUCSORGLEFT
 10
0.0
 20
0.0
 30
0.0
  9
$PUCSORGRIGHT
 10
0.0
 20
0.0
 30
0.0
  9
$PUCSORGFRONT
 10
0.0
 20
0.0
 30
0.0
  9
$PUCSORGBACK
 10
0.0
 20
0.0
 30
0.0
  9
$USERI1
 70
     0
  9
$USERI2
 70
     0
  9
$USERI3
 70
     0
  9
$USERI4
 70
     0
  9
$USERI5
 70
     0
  9
$USERR1
 40
13.2
  9
$USERR2
 40
0.0
  9
$USERR3
 40
0.0
  9
$USERR4
 40
0.0
  9
$USERR5
 40
0.0
  9
$WORLDVIEW
 70
     1
  9
$SHADEDGE
 70
     3
  9
$SHADEDIF
 70
    70
  9
$TILEMODE
 70
     1
  9
$MAXACTVP
 70
    64
  9
$PINSBASE
 10
0.0
 20
0.0
 30
0.0
  9
$PLIMCHECK
 70
     0
  9
$PEXTMIN
 10
1.00000000000000E+20
 20
1.00000000000000E+20
 30
1.00000000000000E+20
  9
$PEXTMAX
 10
-1.00000000000000E+20
 20
-1.00000000000000E+20
 30
-1.00000000000000E+20
  9
$PLIMMIN
 10
0.0
 20
0.0
  9
$PLIMMAX
 10
12.0
 20
9.0
  9
$UNITMODE
 70
     0
  9
$VISRETAIN
 70
     1
  9
$PLINEGEN
 70
     0
  9
$PSLTSCALE
 70
     1
  9
$TREEDEPTH
 70
  3020
  9
$CMLSTYLE
  2
Standard
  9
$CMLJUST
 70
     0
  9
$CMLSCALE
 40
1.0
  9
$PROXYGRAPHICS
 70
     1
  9
$MEASUREMENT
 70
     1
  9
$CELWEIGHT
370
    -1
  9
$ENDCAPS
280
     0
  9
$JOINSTYLE
280
     0
  9
$LWDISPLAY
290
     0
  9
$INSUNITS
 70
     1
  9
$HYPERLINKBASE
  1

  9
$STYLESHEET
  1

  9
$XEDIT
290
     1
  9
$CEPSNTYPE
380
     0
  9
$PSTYLEMODE
290
     0
  9
$FINGERPRINTGUID
  2
{FAEB1C30-E019-11D5-929B-00C0DF256EC4}
  9
$VERSIONGUID
  2
{FAEB1C32-E019-11D5-929B-00C0DF256EC4}
  9
$EXTNAMES
290
     1
  9
$PSVPSCALE
 40
0.0
  9
$OLESTARTUP
290
     0
  0
ENDSEC
  0
SECTION
  2
CLASSES
  0
CLASS
  1
ACDBDICTIONARYWDFLT
  2
AcDbDictionaryWithDefault
  3
ObjectDBX Classes
 90
        0
280
     0
281
     0
  0
CLASS
  1
TABLESTYLE
  2
AcDbTableStyle
  3
ObjectDBX Classes
 90
     2047
280
     0
281
     0
  0
CLASS
  1
DICTIONARYVAR
  2
AcDbDictionaryVar
  3
ObjectDBX Classes
 90
        0
280
     0
281
     0
  0
CLASS
  1

  2
exOdDbSpline
  3

 90
        0
280
     0
281
     1
  0
CLASS
  1

  2
exOdDbCircle
  3

 90
        0
280
     0
281
     1
  0
CLASS
  1
ACDBPLACEHOLDER
  2
AcDbPlaceHolder
  3
ObjectDBX Classes
 90
        0
280
     0
281
     0
  0
CLASS
  1
LAYOUT
  2
AcDbLayout
  3
ObjectDBX Classes
 90
        0
280
     0
281
     0
  0
ENDSEC
  0
SECTION
  2
TABLES
  0
TABLE
  2
VPORT
  5
8
330
0
100
AcDbSymbolTable
 70
     2
  0
VPORT
  5
29
330
8
100
AcDbSymbolTableRecord
100
AcDbViewportTableRecord
  2
*Active
 70
     0
 10
0.0
 20
0.0
 11
1.0
 21
1.0
 12
210.0
 22
297.0
 13
0.0
 23
0.0
 14
0.5
 24
0.5
 15
0.5
 25
0.5
 16
0.0
 26
0.0
 36
1.0
 17
0.0
 27
0.0
 37
0.0
 40
653.4000000000001
 41
1.60267857142857
 42
50.0
 43
0.0
 44
0.0
 50
0.0
 51
0.0
 71
     0
 72
   100
 73
     1
 74
     3
 75
     0
 76
     0
 77
     0
 78
     0
281
     0
 65
     1
110
0.0
120
0.0
130
0.0
111
1.0
121
0.0
131
0.0
112
0.0
122
1.0
132
0.0
 79
     0
146
0.0
  0
ENDTAB
  0
TABLE
  2
LTYPE
  5
5
330
0
100
AcDbSymbolTable
 70
     8
  0
LTYPE
  5
14
330
5
100
AcDbSymbolTableRecord
100
AcDbLinetypeTableRecord
  2
ByBlock
 70
     0
  3

 72
    65
 73
     0
 40
0.0
  0
LTYPE
  5
15
330
5
100
AcDbSymbolTableRecord
100
AcDbLinetypeTableRecord
  2
ByLayer
 70
     0
  3

 72
    65
 73
     0
 40
0.0
  0
LTYPE
  5
16
330
5
100
AcDbSymbolTableRecord
100
AcDbLinetypeTableRecord
  2
Continuous
 70
     0
  3
Solid line
 72
    65
 73
     0
 40
0.0
  0
LTYPE
  5
2E
330
5
100
AcDbSymbolTableRecord
100
AcDbLinetypeTableRecord
  2
DASHED
 70
     0
  3
Dashed
 72
    65
 73
     2
 40
15.0
 49
7.0
 74
     0
 49
-8.0
 74
     0
  0
LTYPE
  5
2F
330
5
100
AcDbSymbolTableRecord
100
AcDbLinetypeTableRecord
  2
DOTTED
 70
     0
  3
Dotted
 72
    65
 73
     2
 40
1.0
 49
0.0
 74
     0
 49
-1.0
 74
     0
  0
LTYPE
  5
30
330
5
100
AcDbSymbolTableRecord
100
AcDbLinetypeTableRecord
  2
DOT_CENTER
 70
     0
  3
Dot_Center
 72
    65
 73
     4
 40
14.0
 49
12.0
 74
     0
 49
-1.0
 74
     0
 49
0.0
 74
     0
 49
-1.0
 74
     0
  0
LTYPE
  5
31
330
5
100
AcDbSymbolTableRecord
100
AcDbLinetypeTableRecord
  2
LONG_DASHED
 70
     0
  3
Long_Dashed
 72
    65
 73
     2
 40
15.0
 49
10.0
 74
     0
 49
-5.0
 74
     0
  0
LTYPE
  5
32
330
5
100
AcDbSymbolTableRecord
100
AcDbLinetypeTableRecord
  2
DASH_CENTER
 70
     0
  3
Dash_Center
 72
    65
 73
     4
 40
14.0
 49
11.0
 74
     0
 49
-1.0
 74
     0
 49
1.0
 74
     0
 49
-1.0
 74
     0
  0
LTYPE
  5
33
330
5
100
AcDbSymbolTableRecord
100
AcDbLinetypeTableRecord
  2
PHANTOM
 70
     0
  3
Phantom
 72
    65
 73
     6
 40
13.0
 49
10.0
 74
     0
 49
-1.0
 74
     0
 49
0.0
 74
     0
 49
-1.0
 74
     0
 49
0.0
 74
     0
 49
-1.0
 74
     0
  0
LTYPE
  5
34
330
5
100
AcDbSymbolTableRecord
100
AcDbLinetypeTableRecord
  2
CENTER_DASH_DASH
 70
     0
  3
Center_Dash_Dash
 72
    65
 73
     6
 40
14.0
 49
9.0
 74
     0
 49
-1.0
 74
     0
 49
1.0
 74
     0
 49
-1.0
 74
     0
 49
1.0
 74
     0
 49
-1.0
 74
     0
  0
ENDTAB
  0
TABLE
  2
LAYER
  5
2
330
0
100
AcDbSymbolTable
 70
     2
  0
LAYER
  5
10
330
2
100
AcDbSymbolTableRecord
100
AcDbLayerTableRecord
  2
0
 70
     0
 62
     7
  6
Continuous
370
    -3
390
F
  0
LAYER
  5
35
330
2
100
AcDbSymbolTableRecord
100
AcDbLayerTableRecord
  2
1
 70
     0
 62
     7
  6
Continuous
370
    -3
390
F
  0
ENDTAB
  0
TABLE
  2
STYLE
  5
3
330
0
100
AcDbSymbolTable
 70
     3
  0
STYLE
  5
11
330
3
100
AcDbSymbolTableRecord
100
AcDbTextStyleTableRecord
  2
Standard
 70
     0
 40
0.0
 41
1.0
 50
0.0
 71
     0
 42
0.2
  3
txt
  4

  0
STYLE
  5
24D
330
3
100
AcDbSymbolTableRecord
100
AcDbTextStyleTableRecord
  2
CONVERTER_1
 70
     0
 40
0.0
 41
0.89
 50
0.0
 71
     0
 42
0.2
  3
msmincho.ttc
  4

1001
ACAD
1000
MS Mincho
1071
    32785
  0
STYLE
  5
26F
330
3
100
AcDbSymbolTableRecord
100
AcDbTextStyleTableRecord
  2
CONVERTER_2
 70
     0
 40
0.0
 41
0.9
 50
0.0
 71
     0
 42
0.2
  3
txt.shx
  4

  0
ENDTAB
  0
TABLE
  2
VIEW
  5
6
330
0
100
AcDbSymbolTable
 70
     0
  0
ENDTAB
  0
TABLE
  2
UCS
  5
7
330
0
100
AcDbSymbolTable
 70
     0
  0
ENDTAB
  0
TABLE
  2
APPID
  5
9
330
0
100
AcDbSymbolTable
 70
     1
  0
APPID
  5
12
330
9
100
AcDbSymbolTableRecord
100
AcDbRegAppTableRecord
  2
ACAD
 70
     0
  0
ENDTAB
  0
TABLE
  2
DIMSTYLE
  5
A
330
0
100
AcDbSymbolTable
 70
    11
100
AcDbDimStyleTable
  0
DIMSTYLE
105
27
330
A
100
AcDbSymbolTableRecord
100
AcDbDimStyleTableRecord
  2
Standard
 70
     0
340
11
  0
DIMSTYLE
105
284
102
{ACAD_REACTORS
330
285
102
}
330
A
100
AcDbSymbolTableRecord
100
AcDbDimStyleTableRecord
  2
ME10_DIM_0
 70
     0
 41
7.0
 42
0.0
 44
2.0
 73
     0
 74
     0
 77
     1
 78
     8
140
7.0
147
0.625
172
     1
173
     1
176
     2
177
     2
178
     7
271
     2
340
26F
344
281
  0
DIMSTYLE
105
28F
102
{ACAD_REACTORS
330
290
102
}
330
A
100
AcDbSymbolTableRecord
100
AcDbDimStyleTableRecord
  2
ME10_DIM_1
 70
     0
 41
7.0
 42
0.0
 44
2.0
 73
     0
 74
     0
 77
     1
 78
     8
140
7.0
147
0.625
172
     1
173
     1
176
     2
177
     2
178
     7
271
     2
340
26F
  0
DIMSTYLE
105
29B
102
{ACAD_REACTORS
330
29C
102
}
330
A
100
AcDbSymbolTableRecord
100
AcDbDimStyleTableRecord
  2
ME10_DIM_2
 70
     0
  3
{\Fgdt;n}<>
 41
7.0
 42
0.0
 44
2.0
 73
     0
 74
     0
 77
     1
 78
     8
140
7.0
147
0.625
172
     1
173
     1
176
     2
177
     2
178
     7
271
     2
340
26F
  0
DIMSTYLE
105
2A6
102
{ACAD_REACTORS
330
2A7
102
}
330
A
100
AcDbSymbolTableRecord
100
AcDbDimStyleTableRecord
  2
ME10_DIM_3
 70
     0
 41
7.0
 42
0.0
 44
2.0
 73
     0
 74
     0
 77
     1
 78
     8
140
7.0
147
0.625
172
     1
173
     1
176
     2
177
     2
178
     7
271
     2
340
26F
  0
DIMSTYLE
105
2B2
102
{ACAD_REACTORS
330
2B3
102
}
330
A
100
AcDbSymbolTableRecord
100
AcDbDimStyleTableRecord
  2
ME10_DIM_4
 70
     0
 41
7.0
 42
0.0
 44
2.0
 73
     0
 74
     0
 77
     1
 78
     8
140
7.0
147
0.625
172
     1
173
     1
176
     2
177
     2
178
     7
271
     2
340
26F
  0
DIMSTYLE
105
2BD
102
{ACAD_REACTORS
330
2BE
102
}
330
A
100
AcDbSymbolTableRecord
100
AcDbDimStyleTableRecord
  2
ME10_DIM_5
 70
     0
 41
7.0
 42
0.0
 44
2.0
 73
     0
 74
     0
 77
     1
 78
     8
140
7.0
147
0.625
172
     1
173
     1
176
     2
177
     2
178
     7
271
     2
340
26F
  0
DIMSTYLE
105
2CA
102
{ACAD_REACTORS
330
2CB
102
}
330
A
100
AcDbSymbolTableRecord
100
AcDbDimStyleTableRecord
  2
ME10_DIM_6
 70
     0
  3
{\Fgdt;n}<>
 41
7.0
 42
0.0
 44
2.0
 73
     0
 74
     0
 77
     1
 78
     8
140
7.0
147
0.625
172
     1
173
     1
176
     2
177
     2
178
     7
271
     2
340
26F
  0
DIMSTYLE
105
2D5
102
{ACAD_REACTORS
330
2D6
102
}
330
A
100
AcDbSymbolTableRecord
100
AcDbDimStyleTableRecord
  2
ME10_DIM_7
 70
     0
 41
7.0
 42
0.0
 44
2.0
 73
     0
 74
     0
 77
     1
 78
     8
140
7.0
147
0.625
172
     1
173
     1
176
     2
177
     2
178
     7
271
     2
340
26F
  0
DIMSTYLE
105
2E0
102
{ACAD_REACTORS
330
2E1
102
}
330
A
100
AcDbSymbolTableRecord
100
AcDbDimStyleTableRecord
  2
ME10_DIM_8
 70
     0
  3
{\Fgdt;n}<>
 41
7.0
 42
0.0
 44
2.0
 73
     0
 74
     0
 77
     1
 78
     8
140
7.0
147
0.625
172
     1
173
     1
176
     2
177
     2
178
     7
271
     2
340
26F
  0
DIMSTYLE
105
2ED
102
{ACAD_REACTORS
330
2EE
102
}
330
A
100
AcDbSymbolTableRecord
100
AcDbDimStyleTableRecord
  2
ME10_DIM_9
 70
     0
 41
7.0
 42
0.0
 44
2.0
 73
     0
 74
     0
 77
     1
 78
     8
140
7.0
147
0.625
172
     1
173
     1
176
     2
177
     2
178
     7
271
     2
340
26F
  0
ENDTAB
  0
TABLE
  2
BLOCK_RECORD
  5
1
330
0
100
AcDbSymbolTable
 70
    25
  0
BLOCK_RECORD
  5
1F
330
1
100
AcDbSymbolTableRecord
100
AcDbBlockTableRecord
  2
*Model_Space
340
22
  0
BLOCK_RECORD
  5
1B
330
1
100
AcDbSymbolTableRecord
100
AcDbBlockTableRecord
  2
*Paper_Space
340
1E
  0
BLOCK_RECORD
  5
23
330
1
100
AcDbSymbolTableRecord
100
AcDbBlockTableRecord
  2
*Paper_Space0
340
26
  0
BLOCK_RECORD
  5
36
330
1
100
AcDbSymbolTableRecord
100
AcDbBlockTableRecord
  2
Y125-0A-13-M1
340
0
102
{BLKREFS
331
60
102
}
  0
BLOCK_RECORD
  5
39
330
1
100
AcDbSymbolTableRecord
100
AcDbBlockTableRecord
  2
84-177
340
0
102
{BLKREFS
331
4F
102
}
  0
BLOCK_RECORD
  5
3C
330
1
100
AcDbSymbolTableRecord
100
AcDbBlockTableRecord
  2
88-249
340
0
102
{BLKREFS
331
50
102
}
  0
BLOCK_RECORD
  5
3F
330
1
100
AcDbSymbolTableRecord
100
AcDbBlockTableRecord
  2
81-93A
340
0
102
{BLKREFS
331
51
102
}
  0
BLOCK_RECORD
  5
42
330
1
100
AcDbSymbolTableRecord
100
AcDbBlockTableRecord
  2
14-39A
340
0
102
{BLKREFS
331
52
102
}
  0
BLOCK_RECORD
  5
45
330
1
100
AcDbSymbolTableRecord
100
AcDbBlockTableRecord
  2
14-34
340
0
102
{BLKREFS
331
53
102
}
  0
BLOCK_RECORD
  5
48
330
1
100
AcDbSymbolTableRecord
100
AcDbBlockTableRecord
  2
32-1-17
340
0
102
{BLKREFS
331
54
102
}
  0
BLOCK_RECORD
  5
4B
330
1
100
AcDbSymbolTableRecord
100
AcDbBlockTableRecord
  2
14-42
340
0
102
{BLKREFS
331
55
102
}
  0
BLOCK_RECORD
  5
4E
330
1
100
AcDbSymbolTableRecord
100
AcDbBlockTableRecord
  2
Y121-4TVX-16
340
0
102
{BLKREFS
331
61
102
}
  0
BLOCK_RECORD
  5
58
330
1
100
AcDbSymbolTableRecord
100
AcDbBlockTableRecord
  2
81-100K
340
0
102
{BLKREFS
331
5C
102
}
  0
BLOCK_RECORD
  5
5B
330
1
100
AcDbSymbolTableRecord
100
AcDbBlockTableRecord
  2
81-100X
340
0
102
{BLKREFS
331
62
102
}
  0
BLOCK_RECORD
  5
5F
330
1
100
AcDbSymbolTableRecord
100
AcDbBlockTableRecord
  2
Y1235TV-1-13
340
0
102
{BLKREFS
331
68
102
}
  0
BLOCK_RECORD
  5
65
330
1
100
AcDbSymbolTableRecord
100
AcDbBlockTableRecord
  2
_J__A4
340
0
102
{BLKREFS
331
69
102
}
  0
BLOCK_RECORD
  5
278
330
1
100
AcDbSymbolTableRecord
100
AcDbBlockTableRecord
  2
*D014
340
0
  0
BLOCK_RECORD
  5
281
330
1
100
AcDbSymbolTableRecord
100
AcDbBlockTableRecord
  2
_None
340
0
  0
BLOCK_RECORD
  5
286
330
1
100
AcDbSymbolTableRecord
100
AcDbBlockTableRecord
  2
*D116
340
0
  0
BLOCK_RECORD
  5
291
330
1
100
AcDbSymbolTableRecord
100
AcDbBlockTableRecord
  2
*D217
340
0
  0
BLOCK_RECORD
  5
29D
330
1
100
AcDbSymbolTableRecord
100
AcDbBlockTableRecord
  2
*D318
340
0
  0
BLOCK_RECORD
  5
2A8
330
1
100
AcDbSymbolTableRecord
100
AcDbBlockTableRecord
  2
*D419
340
0
  0
BLOCK_RECORD
  5
2B4
330
1
100
AcDbSymbolTableRecord
100
AcDbBlockTableRecord
  2
*D520
340
0
  0
BLOCK_RECORD
  5
2BF
330
1
100
AcDbSymbolTableRecord
100
AcDbBlockTableRecord
  2
*D621
340
0
  0
BLOCK_RECORD
  5
2CC
330
1
100
AcDbSymbolTableRecord
100
AcDbBlockTableRecord
  2
*D722
340
0
  0
BLOCK_RECORD
  5
2D7
330
1
100
AcDbSymbolTableRecord
100
AcDbBlockTableRecord
  2
*D823
340
0
  0
BLOCK_RECORD
  5
2E2
330
1
100
AcDbSymbolTableRecord
100
AcDbBlockTableRecord
  2
*D924
340
0
  0
ENDTAB
  0
ENDSEC
  0
SECTION
  2
BLOCKS
  0
BLOCK
  5
20
330
1F
100
AcDbEntity
  8
0
100
AcDbBlockBegin
  2
*Model_Space
 70
     0
 71
     0
 10
0.0
 20
0.0
 30
0.0
  3
*Model_Space
  1

  0
ENDBLK
  5
21
330
1F
100
AcDbEntity
  8
0
100
AcDbBlockEnd
  0
BLOCK
  5
1C
330
1B
100
AcDbEntity
 67
     1
  8
0
100
AcDbBlockBegin
  2
*Paper_Space
 70
     0
 71
     0
 10
0.0
 20
0.0
 30
0.0
  3
*Paper_Space
  1

  0
ENDBLK
  5
1D
330
1B
100
AcDbEntity
 67
     1
  8
0
100
AcDbBlockEnd
  0
BLOCK
  5
24
330
23
100
AcDbEntity
  8
0
100
AcDbBlockBegin
  2
*Paper_Space0
 70
     0
 71
     0
 10
0.0
 20
0.0
 30
0.0
  3
*Paper_Space0
  1

  0
ENDBLK
  5
25
330
23
100
AcDbEntity
  8
0
100
AcDbBlockEnd
  0
BLOCK
  5
37
330
36
100
AcDbEntity
  8
0
100
AcDbBlockBegin
  2
Y125-0A-13-M1
 70
     0
 71
     0
 10
565.9874668674211
 20
159.4711693511709
 30
0.0
  3
Y125-0A-13-M1
  1

  0
LINE
  5
6A
330
36
100
AcDbEntity
  8
1
  6
Continuous
 62
     7
100
AcDbLine
 10
276.652897822009
 20
254.792637134988
 30
0.0
 11
279.8528978220089
 21
252.392637134988
 31
0.0
  0
LINE
  5
6B
330
36
100
AcDbEntity
  8
1
  6
Continuous
 62
     7
100
AcDbLine
 10
279.8528978220089
 20
239.192637134988
 30
0.0
 11
276.652897822009
 21
236.792637134988
 31
0.0
  0
LINE
  5
6C
330
36
100
AcDbEntity
  8
1
  6
Continuous
 62
     7
100
AcDbLine
 10
297.4528978220089
 20
239.192637134988
 30
0.0
 11
300.652897822009
 21
236.792637134988
 31
0.0
  0
LINE
  5
6D
330
36
100
AcDbEntity
  8
1
  6
Continuous
 62
     7
100
AcDbLine
 10
300.652897822009
 20
254.792637134988
 30
0.0
 11
297.4528978220089
 21
252.392637134988
 31
0.0
  0
LINE
  5
6E
330
36
100
AcDbEntity
  8
1
  6
Continuous
 62
     2
100
AcDbLine
 10
264.152897822009
 20
233.6056371349878
 30
0.0
 11
265.5612793552353
 21
233.6056371349878
 31
0.0
  0
LINE
  5
6F
330
36
100
AcDbEntity
  8
1
  6
Continuous
 62
     2
100
AcDbLine
 10
264.152897822009
 20
257.979637134988
 30
0.0
 11
263.652897822009
 21
257.979637134988
 31
0.0
  0
LINE
  5
70
330
36
100
AcDbEntity
  8
1
  6
Continuous
 62
     7
100
AcDbLine
 10
264.152897822009
 20
257.979637134988
 30
0.0
 11
264.152897822009
 21
233.6056371349878
 31
0.0
  0
LINE
  5
71
330
36
100
AcDbEntity
  8
1
  6
Continuous
 62
     7
100
AcDbLine
 10
347.652897822009
 20
239.292637134988
 30
0.0
 11
347.652897822009
 21
252.292637134988
 31
0.0
  0
LINE
  5
72
330
36
100
AcDbEntity
  8
1
  6
Continuous
 62
     7
100
AcDbLine
 10
301.1613331094326
 20
267.592637134988
 30
0.0
 11
301.3432439472817
 21
262.0840389739891
 31
0.0
  0
LINE
  5
73
330
36
100
AcDbEntity
  8
1
  6
Continuous
 62
     2
100
AcDbLine
 10
263.652897822009
 20
233.6056371349878
 30
0.0
 11
264.152897822009
 21
233.6056371349878
 31
0.0
  0
LINE
  5
74
330
36
100
AcDbEntity
  8
1
  6
Continuous
 62
     7
100
AcDbLine
 10
263.652897822009
 20
258.792637134988
 30
0.0
 11
264.152897822009
 21
258.792637134988
 31
0.0
  0
LINE
  5
75
330
36
100
AcDbEntity
  8
1
  6
Continuous
 62
     7
100
AcDbLine
 10
102.9999999999999
 20
402.9873386810706
 30
0.0
 11
94.0
 21
402.9873386810706
 31
0.0
  0
LINE
  5
76
330
36
100
AcDbEntity
  8
1
  6
Continuous
 62
     7
100
AcDbLine
 10
94.0
 20
402.4873386810706
 30
0.0
 11
94.0
 21
402.9873386810706
 31
0.0
  0
LINE
  5
77
330
36
100
AcDbEntity
  8
1
  6
Continuous
 62
     2
100
AcDbLine
 10
94.81299999999987
 20
402.4873386810706
 30
0.0
 11
94.81299999999987
 21
404.395720214297
 31
0.0
  0
LINE
  5
78
330
36
100
AcDbEntity
  8
1
  6
Continuous
 62
     7
100
AcDbLine
 10
89.35538522606788
 20
469.9873386810707
 30
0.0
 11
84.46077045213588
 21
469.9873386810707
 31
0.0
  0
LINE
  5
79
330
36
100
AcDbEntity
  8
1
  6
Continuous
 62
     7
100
AcDbLine
 10
331.152897822009
 20
268.3318666828519
 30
0.0
 11
331.152897822009
 21
245.792637134988
 31
0.0
  0
LINE
  5
7A
330
36
100
AcDbEntity
  8
1
  6
Continuous
 62
     7
100
AcDbLine
 10
333.652897822009
 20
268.792637134988
 30
0.0
 11
331.6513564888755
 21
268.792637134988
 31
0.0
  0
LINE
  5
7B
330
36
100
AcDbEntity
  8
1
  6
Continuous
 62
     7
100
AcDbLine
 10
333.652897822009
 20
268.792637134988
 30
0.0
 11
333.652897822009
 21
245.792637134988
 31
0.0
  0
LINE
  5
7C
330
36
100
AcDbEntity
  8
1
  6
Continuous
 62
     7
100
AcDbLine
 10
333.652897822009
 20
256.292637134988
 30
0.0
 11
335.3849486295778
 21
256.292637134988
 31
0.0
  0
LINE
  5
7D
330
36
100
AcDbEntity
  8
1
  6
Continuous
 62
     2
100
AcDbLine
 10
333.652897822009
 20
256.292637134988
 30
0.0
 11
335.3849486295778
 21
255.292637134988
 31
0.0
  0
LINE
  5
7E
330
36
100
AcDbEntity
  8
1
  6
Continuous
 62
     2
100
AcDbLine
 10
335.3849486295778
 20
255.292637134988
 30
0.0
 11
347.652897822009
 21
255.292637134988
 31
0.0
  0
LINE
  5
7F
330
36
100
AcDbEntity
  8
1
  6
Continuous
 62
     7
100
AcDbLine
 10
347.652897822009
 20
255.292637134988
 30
0.0
 11
347.652897822009
 21
252.292637134988
 31
0.0
  0
LINE
  5
80
330
36
100
AcDbEntity
  8
1
  6
Continuous
 62
     7
100
AcDbLine
 10
347.652897822009
 20
255.292637134988
 30
0.0
 11
346.652897822009
 21
256.292637134988
 31
0.0
  0
LINE
  5
81
330
36
100
AcDbEntity
  8
1
  6
Continuous
 62
     7
100
AcDbLine
 10
335.3849486295778
 20
236.292637134988
 30
0.0
 11
335.3849486295778
 21
256.292637134988
 31
0.0
  0
LINE
  5
82
330
36
100
AcDbEntity
  8
1
  6
Continuous
 62
     7
100
AcDbLine
 10
335.3849486295778
 20
256.292637134988
 30
0.0
 11
346.652897822009
 21
256.292637134988
 31
0.0
  0
LINE
  5
83
330
36
100
AcDbEntity
  8
1
  6
Continuous
 62
     2
100
AcDbLine
 10
347.652897822009
 20
236.292637134988
 30
0.0
 11
335.3849486295778
 21
236.292637134988
 31
0.0
  0
LINE
  5
84
330
36
100
AcDbEntity
  8
1
  6
Continuous
 62
     7
100
AcDbLine
 10
346.652897822009
 20
235.292637134988
 30
0.0
 11
335.3849486295778
 21
235.292637134988
 31
0.0
  0
LINE
  5
85
330
36
100
AcDbEntity
  8
1
  6
Continuous
 62
     7
100
AcDbLine
 10
335.3849486295778
 20
235.292637134988
 30
0.0
 11
335.3849486295778
 21
236.292637134988
 31
0.0
  0
LINE
  5
86
330
36
100
AcDbEntity
  8
1
  6
Continuous
 62
     7
100
AcDbLine
 10
346.652897822009
 20
235.292637134988
 30
0.0
 11
347.652897822009
 21
236.292637134988
 31
0.0
  0
LINE
  5
87
330
36
100
AcDbEntity
  8
1
  6
Continuous
 62
     2
100
AcDbLine
 10
335.3849486295778
 20
236.292637134988
 30
0.0
 11
333.652897822009
 21
235.292637134988
 31
0.0
  0
LINE
  5
88
330
36
100
AcDbEntity
  8
1
  6
Continuous
 62
     7
100
AcDbLine
 10
335.3849486295778
 20
235.292637134988
 30
0.0
 11
333.652897822009
 21
235.292637134988
 31
0.0
  0
LINE
  5
89
330
36
100
AcDbEntity
  8
1
  6
Continuous
 62
     7
100
AcDbLine
 10
333.652897822009
 20
245.792637134988
 30
0.0
 11
333.652897822009
 21
222.792637134988
 31
0.0
  0
LINE
  5
8A
330
36
100
AcDbEntity
  8
1
  6
Continuous
 62
     7
100
AcDbLine
 10
331.6513564888755
 20
222.792637134988
 30
0.0
 11
333.652897822009
 21
222.792637134988
 31
0.0
  0
LINE
  5
8B
330
36
100
AcDbEntity
  8
1
  6
Continuous
 62
     7
100
AcDbLine
 10
331.152897822009
 20
245.792637134988
 30
0.0
 11
331.152897822009
 21
223.2534075871241
 31
0.0
  0
LINE
  5
8C
330
36
100
AcDbEntity
  8
1
  6
Continuous
 62
     7
100
AcDbLine
 10
347.652897822009
 20
239.292637134988
 30
0.0
 11
347.652897822009
 21
236.292637134988
 31
0.0
  0
LINE
  5
8D
330
36
100
AcDbEntity
  8
1
  6
Continuous
 62
     7
100
AcDbLine
 10
327.1652284870766
 20
254.792637134988
 30
0.0
 11
312.6724211311839
 21
254.792637134988
 31
0.0
  0
LINE
  5
8E
330
36
100
AcDbEntity
  8
1
  6
Continuous
 62
     7
100
AcDbLine
 10
311.9767054013909
 20
236.792637134988
 30
0.0
 11
327.1652284870766
 21
236.792637134988
 31
0.0
  0
LINE
  5
8F
330
36
100
AcDbEntity
  8
1
  6
Continuous
 62
     7
100
AcDbLine
 10
264.152897822009
 20
232.792637134988
 30
0.0
 11
263.652897822009
 21
232.792637134988
 31
0.0
  0
LINE
  5
90
330
36
100
AcDbEntity
  8
1
  6
Continuous
 62
     7
100
AcDbLine
 10
264.152897822009
 20
232.792637134988
 30
0.0
 11
264.152897822009
 21
233.6056371349878
 31
0.0
  0
LINE
  5
91
330
36
100
AcDbEntity
  8
1
  6
Continuous
 62
     7
100
AcDbLine
 10
264.152897822009
 20
257.979637134988
 30
0.0
 11
264.152897822009
 21
258.792637134988
 31
0.0
  0
LINE
  5
92
330
36
100
AcDbEntity
  8
1
  6
Continuous
 62
     2
100
AcDbLine
 10
265.5612793552353
 20
257.979637134988
 30
0.0
 11
264.152897822009
 21
257.979637134988
 31
0.0
  0
LINE
  5
93
330
36
100
AcDbEntity
  8
1
  6
Continuous
 62
     7
100
AcDbLine
 10
275.9713713451938
 20
262.1118579004052
 30
0.0
 11
276.145364336768
 21
267.592637134988
 31
0.0
  0
LINE
  5
94
330
36
100
AcDbEntity
  8
1
  6
Continuous
 62
     7
100
AcDbLine
 10
116.0
 20
465.9873386810707
 30
0.0
 11
116.0
 21
450.8111462604512
 31
0.0
  0
LINE
  5
95
330
36
100
AcDbEntity
  8
1
  6
Continuous
 62
     7
100
AcDbLine
 10
129.5392295478638
 20
469.9873386810707
 30
0.0
 11
89.35538522606788
 21
469.9873386810707
 31
0.0
  0
LINE
  5
96
330
36
100
AcDbEntity
  8
1
  6
Continuous
 62
     7
100
AcDbLine
 10
98.0
 20
465.9873386810707
 30
0.0
 11
98.0
 21
450.8111462604521
 31
0.0
  0
LINE
  5
97
330
36
100
AcDbEntity
  8
1
  6
Continuous
 62
     7
100
AcDbLine
 10
97.5
 20
485.4873386810707
 30
0.0
 11
116.5
 21
485.4873386810707
 31
0.0
  0
LINE
  5
98
330
36
100
AcDbEntity
  8
1
  6
Continuous
 62
     7
100
AcDbLine
 10
97.5
 20
474.2193894886395
 30
0.0
 11
116.5
 21
474.2193894886395
 31
0.0
  0
LINE
  5
99
330
36
100
AcDbEntity
  8
1
  6
Continuous
 62
     7
100
AcDbLine
 10
96.5
 20
472.4873386810707
 30
0.0
 11
117.5
 21
472.4873386810707
 31
0.0
  0
LINE
  5
9A
330
36
100
AcDbEntity
  8
1
  6
Continuous
 62
     7
100
AcDbLine
 10
117.5
 20
474.2193894886395
 30
0.0
 11
117.5
 21
472.4873386810707
 31
0.0
  0
LINE
  5
9B
330
36
100
AcDbEntity
  8
1
  6
Continuous
 62
     7
100
AcDbLine
 10
116.5
 20
486.4873386810707
 30
0.0
 11
97.5
 21
486.4873386810707
 31
0.0
  0
LINE
  5
9C
330
36
100
AcDbEntity
  8
1
  6
Continuous
 62
     7
100
AcDbLine
 10
117.5
 20
485.4873386810707
 30
0.0
 11
116.5
 21
486.4873386810707
 31
0.0
  0
LINE
  5
9D
330
36
100
AcDbEntity
  8
1
  6
Continuous
 62
     7
100
AcDbLine
 10
117.5
 20
474.2193894886395
 30
0.0
 11
116.5
 21
474.2193894886395
 31
0.0
  0
LINE
  5
9E
330
36
100
AcDbEntity
  8
1
  6
Continuous
 62
     7
100
AcDbLine
 10
117.5
 20
485.4873386810707
 30
0.0
 11
117.5
 21
474.2193894886395
 31
0.0
  0
LINE
  5
9F
330
36
100
AcDbEntity
  8
1
  6
Continuous
 62
     7
100
AcDbLine
 10
116.5
 20
485.4873386810707
 30
0.0
 11
117.5
 21
485.4873386810707
 31
0.0
  0
LINE
  5
A0
330
36
100
AcDbEntity
  8
1
  6
Continuous
 62
     7
100
AcDbLine
 10
96.5
 20
485.4873386810707
 30
0.0
 11
97.5
 21
485.4873386810707
 31
0.0
  0
LINE
  5
A1
330
36
100
AcDbEntity
  8
1
  6
Continuous
 62
     7
100
AcDbLine
 10
96.5
 20
474.2193894886395
 30
0.0
 11
96.5
 21
485.4873386810707
 31
0.0
  0
LINE
  5
A2
330
36
100
AcDbEntity
  8
1
  6
Continuous
 62
     7
100
AcDbLine
 10
97.5
 20
474.2193894886395
 30
0.0
 11
96.5
 21
474.2193894886395
 31
0.0
  0
LINE
  5
A3
330
36
100
AcDbEntity
  8
1
  6
Continuous
 62
     7
100
AcDbLine
 10
97.5
 20
486.4873386810707
 30
0.0
 11
96.5
 21
485.4873386810707
 31
0.0
  0
LINE
  5
A4
330
36
100
AcDbEntity
  8
1
  6
Continuous
 62
     7
100
AcDbLine
 10
96.5
 20
472.4873386810707
 30
0.0
 11
96.5
 21
474.2193894886395
 31
0.0
  0
LINE
  5
A5
330
36
100
AcDbEntity
  8
1
  6
Continuous
 62
     2
100
AcDbLine
 10
97.5
 20
485.4873386810707
 30
0.0
 11
97.5
 21
486.4873386810707
 31
0.0
  0
LINE
  5
A6
330
36
100
AcDbEntity
  8
1
  6
Continuous
 62
     2
100
AcDbLine
 10
97.5
 20
474.2193894886395
 30
0.0
 11
97.5
 21
485.4873386810707
 31
0.0
  0
LINE
  5
A7
330
36
100
AcDbEntity
  8
1
  6
Continuous
 62
     2
100
AcDbLine
 10
96.5
 20
472.4873386810707
 30
0.0
 11
97.5
 21
474.2193894886395
 31
0.0
  0
LINE
  5
A8
330
36
100
AcDbEntity
  8
1
  6
Continuous
 62
     7
100
AcDbLine
 10
84.0
 20
472.4873386810707
 30
0.0
 11
96.5
 21
472.4873386810707
 31
0.0
  0
LINE
  5
A9
330
36
100
AcDbEntity
  8
1
  6
Continuous
 62
     7
100
AcDbLine
 10
84.0
 20
472.4873386810707
 30
0.0
 11
84.0
 21
470.4857973479371
 31
0.0
  0
LINE
  5
AA
330
36
100
AcDbEntity
  8
1
  6
Continuous
 62
     7
100
AcDbLine
 10
129.9999999999998
 20
470.4857973479371
 30
0.0
 11
129.9999999999998
 21
472.4873386810707
 31
0.0
  0
LINE
  5
AB
330
36
100
AcDbEntity
  8
1
  6
Continuous
 62
     7
100
AcDbLine
 10
117.5
 20
472.4873386810707
 30
0.0
 11
129.9999999999998
 21
472.4873386810707
 31
0.0
  0
LINE
  5
AC
330
36
100
AcDbEntity
  8
1
  6
Continuous
 62
     2
100
AcDbLine
 10
116.5
 20
474.2193894886395
 30
0.0
 11
117.5
 21
472.4873386810707
 31
0.0
  0
LINE
  5
AD
330
36
100
AcDbEntity
  8
1
  6
Continuous
 62
     2
100
AcDbLine
 10
116.5
 20
485.4873386810707
 30
0.0
 11
116.5
 21
474.2193894886395
 31
0.0
  0
LINE
  5
AE
330
36
100
AcDbEntity
  8
1
  6
Continuous
 62
     2
100
AcDbLine
 10
116.5
 20
486.4873386810707
 30
0.0
 11
116.5
 21
485.4873386810707
 31
0.0
  0
LINE
  5
AF
330
36
100
AcDbEntity
  8
1
  6
Continuous
 62
     7
100
AcDbLine
 10
120.0
 20
402.9873386810706
 30
0.0
 11
120.0
 21
402.4873386810706
 31
0.0
  0
LINE
  5
B0
330
36
100
AcDbEntity
  8
1
  6
Continuous
 62
     7
100
AcDbLine
 10
120.0
 20
402.9873386810706
 30
0.0
 11
111.0
 21
402.9873386810706
 31
0.0
  0
LINE
  5
B1
330
36
100
AcDbEntity
  8
1
  6
Continuous
 62
     2
100
AcDbLine
 10
119.1869999999999
 20
404.395720214297
 30
0.0
 11
119.1869999999999
 21
402.4873386810706
 31
0.0
  0
LINE
  5
B2
330
36
100
AcDbEntity
  8
1
  6
Continuous
 62
     7
100
AcDbLine
 10
119.4968301645437
 20
267.5926371349866
 30
0.0
 11
119.8681676609813
 21
251.5043169458538
 31
0.0
  0
LINE
  5
B3
330
36
100
AcDbEntity
  8
1
  6
Continuous
 62
     7
100
AcDbLine
 10
94.5031698354569
 20
267.5926371349866
 30
0.0
 11
94.13183233901901
 21
251.5043169458538
 31
0.0
  0
ARC
  5
B4
330
36
100
AcDbEntity
  8
1
  6
Continuous
 62
     7
100
AcDbCircle
 10
80.0
 20
427.4873386810706
 30
0.0
 40
39.99999999999973
100
AcDbArc
 50
-17.14772915687004
 51
-14.75721083396183
  0
ARC
  5
B5
330
36
100
AcDbEntity
  8
1
  6
Continuous
 62
     7
100
AcDbCircle
 10
133.9999999999997
 20
427.4873386810706
 30
0.0
 40
39.99999999999979
100
AcDbArc
 50
160.5370490536843
 51
165.242789166038
  0
ARC
  5
B6
330
36
100
AcDbEntity
  8
1
  6
Continuous
 62
     7
100
AcDbCircle
 10
288.652897822009
 20
272.792637134988
 30
0.0
 40
40.00000000000019
100
AcDbArc
 50
-105.127394126313
 51
-70.53704905368419
  0
ARC
  5
B7
330
36
100
AcDbEntity
  8
1
  6
Continuous
 62
     7
100
AcDbCircle
 10
272.402897822009
 20
220.1273310125391
 30
0.0
 40
15.11530612244877
100
AcDbArc
 50
116.9124518081927
 51
123.079648002458
  0
ARC
  5
B8
330
36
100
AcDbEntity
  8
1
  6
Continuous
 62
     7
100
AcDbCircle
 10
272.402897822009
 20
220.1273310125391
 30
0.0
 40
15.11530612244896
100
AcDbArc
 50
115.7636685918719
 51
116.9124518081927
  0
ARC
  5
B9
330
36
100
AcDbEntity
  8
1
  6
Continuous
 62
     7
100
AcDbCircle
 10
272.402897822009
 20
271.457943257437
 30
0.0
 40
15.115306122449
100
AcDbArc
 50
-123.0796480024578
 51
-116.9124518081922
  0
ARC
  5
BA
330
36
100
AcDbEntity
  8
1
  6
Continuous
 62
     7
100
AcDbCircle
 10
272.7339664293975
 20
277.6788632266554
 30
0.0
 40
21.00000000001273
100
AcDbArc
 50
-109.1852368123727
 51
-99.75152724237036
  0
ARC
  5
BB
330
36
100
AcDbEntity
  8
1
  6
Continuous
 62
     7
100
AcDbCircle
 10
272.402897822009
 20
271.457943257437
 30
0.0
 40
15.11530612244903
100
AcDbArc
 50
-116.9124518081922
 51
-115.7636685918864
  0
ARC
  5
BC
330
36
100
AcDbEntity
  8
1
  6
Continuous
 62
     7
100
AcDbCircle
 10
272.7339664293975
 20
213.9064110433208
 30
0.0
 40
21.00000000001309
100
AcDbArc
 50
74.87260587368709
 51
109.1852368123624
  0
ARC
  5
BD
330
36
100
AcDbEntity
  8
1
  6
Continuous
 62
     7
100
AcDbCircle
 10
309.6020614168904
 20
263.5130015360206
 30
0.0
 40
8.500000000000089
100
AcDbArc
 50
-158.7187460892334
 51
-98.21033277535688
  0
ARC
  5
BE
330
36
100
AcDbEntity
  8
1
  6
Continuous
 62
     7
100
AcDbCircle
 10
270.1933298165819
 20
262.8955900572247
 30
0.0
 40
6.00000000000015
100
AcDbArc
 50
-99.75152724237043
 51
-38.68820061032322
  0
ARC
  5
BF
330
36
100
AcDbEntity
  8
1
  6
Continuous
 62
     7
100
AcDbCircle
 10
120.0
 20
465.9873386810707
 30
0.0
 40
4.0
100
AcDbArc
 50
90.0
 51
180.0
  0
ARC
  5
C0
330
36
100
AcDbEntity
  8
1
  6
Continuous
 62
     7
100
AcDbCircle
 10
94.0
 20
465.9873386810707
 30
0.0
 40
4.0
100
AcDbArc
 50
0.0
 51
90.0
  0
ARC
  5
C1
330
36
100
AcDbEntity
  8
1
  6
Continuous
 62
     7
100
AcDbCircle
 10
80.0
 20
427.4873386810706
 30
0.0
 40
39.99999999999991
100
AcDbArc
 50
14.75721083396234
 51
19.46295094631474
  0
ARC
  5
C2
330
36
100
AcDbEntity
  8
1
  6
Continuous
 62
     7
100
AcDbCircle
 10
132.6653061224488
 20
411.2373386810706
 30
0.0
 40
15.11530612244909
100
AcDbArc
 50
162.8522708431298
 51
-153.0875481918081
  0
ARC
  5
C3
330
36
100
AcDbEntity
  8
1
  6
Continuous
 62
     7
100
AcDbCircle
 10
132.6653061224488
 20
411.2373386810706
 30
0.0
 40
15.1153061224489
100
AcDbArc
 50
-153.0875481918081
 51
-146.9203519975418
  0
ARC
  5
C4
330
36
100
AcDbEntity
  8
1
  6
Continuous
 62
     7
100
AcDbCircle
 10
81.33469387755099
 20
411.2373386810706
 30
0.0
 40
15.115306122449
100
AcDbArc
 50
-33.07964800245779
 51
-26.91245180819198
  0
ARC
  5
C5
330
36
100
AcDbEntity
  8
1
  6
Continuous
 62
     7
100
AcDbCircle
 10
81.33469387755099
 20
411.2373386810706
 30
0.0
 40
15.11530612244887
100
AcDbArc
 50
-26.91245180819198
 51
17.14772915687056
  0
ARC
  5
C6
330
36
100
AcDbEntity
  8
1
  6
Continuous
 62
     7
100
AcDbCircle
 10
133.9999999999997
 20
427.4873386810706
 30
0.0
 40
39.99999999999995
100
AcDbArc
 50
-165.2427891660387
 51
-162.85227084313
  0
ARC
  5
C7
330
36
100
AcDbEntity
  8
1
  6
Continuous
 62
     7
100
AcDbCircle
 10
68.0
 20
450.8111462604521
 30
0.0
 40
30.00000000000003
100
AcDbArc
 50
-19.46295094631547
 51
0.0
  0
ARC
  5
C8
330
36
100
AcDbEntity
  8
1
  6
Continuous
 62
     7
100
AcDbCircle
 10
146.0
 20
450.8111462604512
 30
0.0
 40
30.0
100
AcDbArc
 50
180.0
 51
-160.5370490536851
  0
ARC
  5
C9
330
36
100
AcDbEntity
  8
1
  6
Continuous
 62
     7
100
AcDbCircle
 10
311.9767054013909
 20
206.792637134988
 30
0.0
 40
30.0
100
AcDbArc
 50
90.0
 51
109.4629509463158
  0
ARC
  5
CA
330
36
100
AcDbEntity
  8
1
  6
Continuous
 62
     7
100
AcDbCircle
 10
107.0
 20
245.792637134988
 30
0.0
 40
23.0
100
AcDbArc
 50
0.0
 51
56.91528303803218
  0
ARC
  5
CB
330
36
100
AcDbEntity
  8
1
  6
Continuous
 62
     7
100
AcDbCircle
 10
107.0
 20
245.792637134988
 30
0.0
 40
22.99999999999992
100
AcDbArc
 50
-36.76035244420749
 51
0.0
  0
ARC
  5
CC
330
36
100
AcDbEntity
  8
1
  6
Continuous
 62
     7
100
AcDbCircle
 10
107.0
 20
245.792637134988
 30
0.0
 40
22.99999999999992
100
AcDbArc
 50
123.084716961967
 51
-143.2396475557925
  0
ARC
  5
CD
330
36
100
AcDbEntity
  8
1
  6
Continuous
 62
     7
100
AcDbCircle
 10
312.672421131184
 20
284.792637134988
 30
0.0
 40
29.99999999999992
100
AcDbArc
 50
-98.21033277535668
 51
-90.00000000000021
  0
ARC
  5
CE
330
36
100
AcDbEntity
  8
1
  6
Continuous
 62
     7
100
AcDbCircle
 10
331.6513564888755
 20
268.292637134988
 30
0.0
 40
0.5
100
AcDbArc
 50
90.0
 51
175.5000000000023
  0
ARC
  5
CF
330
36
100
AcDbEntity
  8
1
  6
Continuous
 62
     7
100
AcDbCircle
 10
327.1652284870766
 20
258.792637134988
 30
0.0
 40
4.0
100
AcDbArc
 50
-90.0
 51
-4.5000000000005
  0
ARC
  5
D0
330
36
100
AcDbEntity
  8
1
  6
Continuous
 62
     7
100
AcDbCircle
 10
327.1652284870766
 20
232.792637134988
 30
0.0
 40
3.999999999999865
100
AcDbArc
 50
4.50000000000009
 51
90.0
  0
ARC
  5
D1
330
36
100
AcDbEntity
  8
1
  6
Continuous
 62
     7
100
AcDbCircle
 10
331.6513564888755
 20
223.292637134988
 30
0.0
 40
0.4999999999999339
100
AcDbArc
 50
-175.4999999999991
 51
-90.0
  0
ARC
  5
D2
330
36
100
AcDbEntity
  8
1
  6
Continuous
 62
     7
100
AcDbCircle
 10
306.3407263237586
 20
262.2426892081629
 30
0.0
 40
5.000000000000071
100
AcDbArc
 50
-178.1816970355488
 51
-158.7187460892336
  0
ARC
  5
D3
330
36
100
AcDbEntity
  8
1
  6
Continuous
 62
     7
100
AcDbCircle
 10
270.973888968717
 20
262.2705081345793
 30
0.0
 40
5.000000000000045
100
AcDbArc
 50
-38.68820061032305
 51
-1.81830296445455
  0
ARC
  5
D4
330
36
100
AcDbEntity
  8
1
  6
Continuous
 62
     7
100
AcDbCircle
 10
84.5
 20
470.4857973479371
 30
0.0
 40
0.5
100
AcDbArc
 50
180.0
 51
-94.5000000000247
  0
ARC
  5
D5
330
36
100
AcDbEntity
  8
1
  6
Continuous
 62
     7
100
AcDbCircle
 10
129.4999999999998
 20
470.4857973479371
 30
0.0
 40
0.4999999999998273
100
AcDbArc
 50
-85.49999999998829
 51
0.0
  0
ENDBLK
  5
38
330
36
100
AcDbEntity
  8
0
100
AcDbBlockEnd
  0
BLOCK
  5
3A
330
39
100
AcDbEntity
  8
0
100
AcDbBlockBegin
  2
84-177
 70
     0
 71
     0
 10
338.0152339715303
 20
409.9038174146556
 30
0.0
  3
84-177
  1

  0
LINE
  5
D6
330
39
100
AcDbEntity
  8
1
  6
Continuous
 62
     7
100
AcDbLine
 10
227.2189084381698
 20
211.5998599032795
 30
0.0
 11
227.3603297944126
 21
211.7412812595217
 31
0.0
  0
LINE
  5
D7
330
39
100
AcDbEntity
  8
1
  6
Continuous
 62
     7
100
AcDbLine
 10
228.0674365755986
 20
212.0241239719976
 30
0.0
 11
228.0674365755989
 21
212.6655453282343
 31
0.0
  0
LINE
  5
D8
330
39
100
AcDbEntity
  8
1
  6
Continuous
 62
     7
100
AcDbLine
 10
227.9209899661951
 20
213.0190987188282
 30
0.0
 11
227.5724618287665
 21
213.3676268562514
 31
0.0
  0
LINE
  5
D9
330
39
100
AcDbEntity
  8
1
  6
Continuous
 62
     7
100
AcDbLine
 10
227.3603297944126
 20
211.7412812595217
 30
0.0
 11
227.7845938631278
 21
211.7412812595233
 31
0.0
  0
LINE
  5
DA
330
39
100
AcDbEntity
  8
1
  6
Continuous
 62
     7
100
AcDbLine
 10
227.7845938631278
 20
211.7412812595233
 30
0.0
 11
228.0674365755986
 21
212.0241239719976
 31
0.0
  0
LINE
  5
DB
330
39
100
AcDbEntity
  8
1
  6
Continuous
 62
     7
100
AcDbLine
 10
226.5118016569847
 20
212.306966684472
 30
0.0
 11
227.5724618287665
 21
213.3676268562514
 31
0.0
  0
ARC
  5
DC
330
39
100
AcDbEntity
  8
1
  6
Continuous
 62
     7
100
AcDbCircle
 10
227.5674365755945
 20
212.665545328233
 30
0.0
 40
0.5000000000043769
100
AcDbArc
 50
0.00000000014656
 51
44.99999999956244
  0
ENDBLK
  5
3B
330
39
100
AcDbEntity
  8
0
100
AcDbBlockEnd
  0
BLOCK
  5
3D
330
3C
100
AcDbEntity
  8
0
100
AcDbBlockBegin
  2
88-249
 70
     0
 71
     0
 10
897.420229446074
 20
138.7540655497932
 30
0.0
  3
88-249
  1

  0
LINE
  5
DD
330
3C
100
AcDbEntity
  8
1
  6
Continuous
 62
     7
100
AcDbLine
 10
213.5717475612795
 20
221.711486874259
 30
0.0
 11
228.0674365755901
 21
207.2157978599262
 31
0.0
  0
LINE
  5
DE
330
3C
100
AcDbEntity
  8
1
  6
Continuous
 62
     7
100
AcDbLine
 10
199.4296119375449
 20
238.682049622726
 30
0.0
 11
199.076058546944
 21
238.3284962321307
 31
0.0
  0
LINE
  5
DF
330
3C
100
AcDbEntity
  8
1
  6
Continuous
 62
     7
100
AcDbLine
 10
199.0760585469506
 20
236.2071758885733
 30
0.0
 11
213.5717475612732
 21
221.7114868742527
 31
0.0
  0
LINE
  5
E0
330
3C
100
AcDbEntity
  8
1
  6
Continuous
 62
     7
100
AcDbLine
 10
230.5423103097514
 20
208.2764580317086
 30
0.0
 11
215.3395145142158
 21
223.4792538271953
 31
0.0
  0
LINE
  5
E1
330
3C
100
AcDbEntity
  8
1
  6
Continuous
 62
     7
100
AcDbLine
 10
215.3395145142388
 20
223.4792538272184
 30
0.0
 11
200.1367187187284
 21
238.6820496227262
 31
0.0
  0
LINE
  5
E2
330
3C
100
AcDbEntity
  8
1
  6
Continuous
 62
     7
100
AcDbLine
 10
230.188756919153
 20
207.2157978599295
 30
0.0
 11
230.5423103097434
 21
207.569351250521
 31
0.0
  0
SPLINE
  5
E3
330
3C
100
AcDbEntity
  8
0
  6
Continuous
 62
     7
100
AcDbSpline
210
0.0
220
0.0
230
1.0
 70
     8
 71
     3
 72
    73
 73
    69
 74
    67
 42
0.0000000001
 43
0.0000000001
 44
0.00000001
 40
0.0
 40
0.0
 40
0.0
 40
0.0
 40
0.74674459091904
 40
1.494292563270446
 40
3.286447562768361
 40
5.078987265925587
 40
6.786610236152514
 40
8.494794154993414
 40
10.10776236894897
 40
11.72148479259644
 40
13.24036596876862
 40
14.76015560141372
 40
16.19805546726221
 40
17.63685319141448
 40
19.01960241232561
 40
20.40293577765857
 40
21.76626468163836
 40
23.12959358561806
 40
24.51292695095098
 40
25.89567617186206
 40
27.33447389601427
 40
28.77237376186274
 40
30.29216339450791
 40
31.81104457068017
 40
33.4247669943276
 40
35.0377352082831
 40
36.74591912712402
 40
38.45354209735098
 40
40.24608180050819
 40
42.03823680000596
 40
43.89677451317396
 40
45.75507498169402
 40
47.65546393416129
 40
49.55574021747229
 40
51.47041895786128
 40
53.38509769825026
 40
55.28537398156125
 40
57.18576293402843
 40
59.04406340254847
 40
60.90260111571649
 40
62.69475611521439
 40
64.48729581837165
 40
66.19491878859864
 40
67.90310270743946
 40
69.51607092139497
 40
71.12979334504242
 40
72.6486745212146
 40
74.16846415385977
 40
75.60636401970818
 40
77.04516174386033
 40
78.42791096477139
 40
79.8112443301044
 40
81.17457323408415
 40
82.53790213806396
 40
83.921235503397
 40
85.30398472430809
 40
86.74278244846032
 40
88.18068231430878
 40
89.70047194695395
 40
91.21935312312616
 40
92.83307554677363
 40
94.44604376072915
 40
96.15422767957007
 40
97.86185064979699
 40
99.65439035295418
 40
101.4465453524521
 40
102.1940933248015
 40
102.9408379157187
 40
102.9408379157187
 40
102.9408379157187
 40
102.9408379157187
 10
99.15000000000725
 20
208.9471330960603
 30
0.0
 10
98.9102191356223
 20
209.0139993507622
 30
0.0
 10
98.43039943980901
 20
209.1478037978917
 30
0.0
 10
97.38513428364205
 20
209.476200090917
 30
0.0
 10
96.0279917028579
 20
209.9731040346816
 30
0.0
 10
94.41657300940102
 20
210.6948205566543
 30
0.0
 10
92.88730913651125
 20
211.5200261859062
 30
0.0
 10
91.47638251922282
 20
212.4284847200573
 30
0.0
 10
90.16950660300347
 20
213.4305593291317
 30
0.0
 10
89.0010486145743
 20
214.5001169488403
 30
0.0
 10
87.95709443630295
 20
215.6500009166734
 30
0.0
 10
87.06695165876076
 20
216.8509086310697
 30
0.0
 10
86.31951207125434
 20
218.1147021904039
 30
0.0
 10
85.73717900409829
 20
219.4130054668164
 30
0.0
 10
85.31185757690733
 20
220.7519592524496
 30
0.0
 10
85.05910120587006
 20
222.1085352965266
 30
0.0
 10
84.97144959504894
 20
223.4792538271912
 30
0.0
 10
85.0591012058578
 20
224.849972357886
 30
0.0
 10
85.31185757695721
 20
226.2065484018708
 30
0.0
 10
85.73717900390878
 20
227.5455021878467
 30
0.0
 10
86.31951207199413
 20
228.843805462932
 30
0.0
 10
87.06695165593902
 20
230.1075990273515
 30
0.0
 10
87.95709444749991
 20
231.3085067217313
 30
0.0
 10
89.00104857179107
 20
232.4583907666406
 30
0.0
 10
90.16950677375719
 20
233.5279480814475
 30
0.0
 10
91.47638186771445
 20
234.5300238646002
 30
0.0
 10
92.88731172758932
 20
235.4384777687795
 30
0.0
 10
94.41656315856447
 20
236.263701163391
 30
0.0
 10
96.02803049910487
 20
236.9853482239535
 30
0.0
 10
97.73302236293498
 20
237.609946572868
 30
0.0
 10
99.49743003982826
 20
238.1238000718349
 30
0.0
 10
101.3265685154381
 20
238.5298914614915
 30
0.0
 10
103.1916393522116
 20
238.8205601304607
 30
0.0
 10
105.0898068590127
 20
238.9967110323318
 30
0.0
 10
106.9999999999998
 20
239.0551224174634
 30
0.0
 10
108.9101931409869
 20
238.9967110323317
 30
0.0
 10
110.808360647788
 20
238.8205601304608
 30
0.0
 10
112.6734314845615
 20
238.5298914614915
 30
0.0
 10
114.5025699601713
 20
238.1238000718348
 30
0.0
 10
116.2669776370646
 20
237.609946572868
 30
0.0
 10
117.9719695008947
 20
236.9853482239534
 30
0.0
 10
119.5834368414353
 20
236.263701163391
 30
0.0
 10
121.1126882724105
 20
235.4384777687795
 30
0.0
 10
122.5236181322854
 20
234.5300238646005
 30
0.0
 10
123.8304932262427
 20
233.5279480814476
 30
0.0
 10
124.9989514282086
 20
232.4583907666407
 30
0.0
 10
126.0429055524997
 20
231.3085067217313
 30
0.0
 10
126.9330483440605
 20
230.1075990273516
 30
0.0
 10
127.6804879280054
 20
228.843805462932
 30
0.0
 10
128.2628209960909
 20
227.5455021878469
 30
0.0
 10
128.6881424230425
 20
226.206548401871
 30
0.0
 10
128.9408987941418
 20
224.8499723578861
 30
0.0
 10
129.0285504049506
 20
223.4792538271912
 30
0.0
 10
128.9408987941295
 20
222.1085352965266
 30
0.0
 10
128.6881424230923
 20
220.7519592524495
 30
0.0
 10
128.2628209959014
 20
219.4130054668165
 30
0.0
 10
127.6804879287454
 20
218.1147021904039
 30
0.0
 10
126.9330483412389
 20
216.8509086310698
 30
0.0
 10
126.0429055636967
 20
215.6500009166733
 30
0.0
 10
124.9989513854253
 20
214.5001169488403
 30
0.0
 10
123.8304933969962
 20
213.4305593291317
 30
0.0
 10
122.5236174807768
 20
212.4284847200573
 30
0.0
 10
121.1126908634885
 20
211.5200261859061
 30
0.0
 10
119.5834269905986
 20
210.6948205566543
 30
0.0
 10
117.9720082971418
 20
209.9731040346816
 30
0.0
 10
116.6148657163583
 20
209.4762000909172
 30
0.0
 10
115.5696005601926
 20
209.1478037978922
 30
0.0
 10
115.0897808643805
 20
209.0139993507631
 30
0.0
 10
114.8499999999961
 20
208.9471330960614
 30
0.0
 11
99.15000000000725
 21
208.9471330960603
 31
0.0
 11
98.43179497464588
 21
209.1516056507284
 31
0.0
 11
97.71842833730126
 21
209.375069320461
 31
0.0
 11
96.03598160897718
 21
209.9924772476671
 31
0.0
 11
94.40069128207011
 21
210.7266598776163
 31
0.0
 11
92.8986119312662
 21
211.538899886687
 31
0.0
 11
91.46350195961426
 21
212.4653725899286
 31
0.0
 11
90.1847065400823
 21
213.4484029730883
 31
0.0
 11
88.99584370692621
 21
214.5395973758061
 31
0.0
 11
87.97669314863127
 21
215.6657999183611
 31
0.0
 11
87.07318765872682
 21
216.8878630743429
 31
0.0
 11
86.34359303172965
 21
218.1269142050328
 31
0.0
 11
85.75561082561947
 21
219.4400843449322
 31
0.0
 11
85.33952479025284
 21
220.7587457188654
 31
0.0
 11
85.08566295127707
 21
222.1185859176958
 31
0.0
 11
85.00052459046037
 21
223.4792538271962
 31
0.0
 11
85.08566295127707
 21
224.8399217366965
 31
0.0
 11
85.33952479025294
 21
226.1997619355269
 31
0.0
 11
85.75561082561957
 21
227.51842330946
 31
0.0
 11
86.34359303172967
 21
228.8315934493594
 31
0.0
 11
87.0731876587268
 21
230.0706445800493
 31
0.0
 11
87.97669314863126
 21
231.2927077360312
 31
0.0
 11
88.99584370692622
 21
232.4189102785862
 31
0.0
 11
90.18470654008226
 21
233.5101046813041
 31
0.0
 11
91.46350195961419
 21
234.4931350644637
 31
0.0
 11
92.89861193126616
 21
235.4196077677053
 31
0.0
 11
94.40069128207014
 21
236.2318477767759
 31
0.0
 11
96.03598160897718
 21
236.9660304067252
 31
0.0
 11
97.71842833730113
 21
237.5834383339312
 31
0.0
 11
99.50248019823189
 21
238.1043235312417
 31
0.0
 11
101.3164903524768
 21
238.507619689912
 31
0.0
 11
103.194089827536
 21
238.8010449477158
 31
0.0
 11
105.0862261796439
 21
238.9767434905272
 31
0.0
 11
106.9999999999998
 21
239.0356030132723
 31
0.0
 11
108.9137738203558
 21
238.9767434905272
 31
0.0
 11
110.8059101724637
 21
238.8010449477158
 31
0.0
 11
112.6835096475227
 21
238.507619689912
 31
0.0
 11
114.4975198017676
 21
238.1043235312417
 31
0.0
 11
116.2815716626984
 21
237.5834383339312
 31
0.0
 11
117.9640183910225
 21
236.9660304067251
 31
0.0
 11
119.5993087179296
 21
236.2318477767759
 31
0.0
 11
121.1013880687337
 21
235.4196077677053
 31
0.0
 11
122.5364980403856
 21
234.4931350644638
 31
0.0
 11
123.8152934599175
 21
233.5101046813042
 31
0.0
 11
125.0041562930735
 21
232.4189102785863
 31
0.0
 11
126.0233068513684
 21
231.2927077360312
 31
0.0
 11
126.9268123412727
 21
230.0706445800493
 31
0.0
 11
127.6564069682698
 21
228.8315934493595
 31
0.0
 11
128.2443891743801
 21
227.5184233094602
 31
0.0
 11
128.6604752097468
 21
226.1997619355271
 31
0.0
 11
128.9143370487225
 21
224.8399217366966
 31
0.0
 11
128.9994754095392
 21
223.4792538271963
 31
0.0
 11
128.9143370487225
 21
222.1185859176958
 31
0.0
 11
128.6604752097468
 21
220.7587457188653
 31
0.0
 11
128.2443891743802
 21
219.4400843449322
 31
0.0
 11
127.6564069682701
 21
218.1269142050328
 31
0.0
 11
126.9268123412729
 21
216.8878630743429
 31
0.0
 11
126.0233068513684
 21
215.6657999183611
 31
0.0
 11
125.0041562930734
 21
214.5395973758061
 31
0.0
 11
123.8152934599173
 21
213.4484029730883
 31
0.0
 11
122.5364980403854
 21
212.4653725899286
 31
0.0
 11
121.1013880687335
 21
211.538899886687
 31
0.0
 11
119.5993087179295
 21
210.7266598776163
 31
0.0
 11
117.9640183910225
 21
209.9924772476671
 31
0.0
 11
116.2815716626985
 21
209.375069320461
 31
0.0
 11
115.5682050253557
 21
209.151605650729
 31
0.0
 11
114.8499999999961
 21
208.9471330960614
 31
0.0
  0
SPLINE
  5
E4
330
3C
100
AcDbEntity
  8
0
  6
Continuous
 62
     7
100
AcDbSpline
210
0.0
220
0.0
230
1.0
 70
     8
 71
     3
 72
    57
 73
    53
 74
    51
 42
0.0000000001
 43
0.0000000001
 44
0.00000001
 40
0.0
 40
0.0
 40
0.0
 40
0.0
 40
1.270761394089337
 40
2.543341555296323
 40
3.88320972207076
 40
5.223914629188046
 40
6.512387721284492
 40
7.801405203939177
 40
9.071780405612627
 40
10.34215560728607
 40
11.6311730899409
 40
12.91964618203748
 40
14.26035108915469
 40
15.60021925592906
 40
17.01640050379178
 40
18.43173515428892
 40
19.93545198665114
 40
21.43846598149412
 40
23.03021076406576
 40
24.62143281629711
 40
26.29178787183894
 40
27.96178443921023
 40
29.69364221015186
 40
31.42527890551094
 40
33.19613726302295
 40
34.96689063076123
 40
36.7510654344626
 40
38.53524023816399
 40
40.30599360590224
 40
42.07685196341419
 40
43.80848865877336
 40
45.54034642971507
 40
47.21034299708639
 40
48.88069805262825
 40
50.47192010485968
 40
52.06366488743126
 40
53.56667888227417
 40
55.07039571463637
 40
56.48573036513349
 40
57.90191161299625
 40
59.24177977977066
 40
60.5824846868879
 40
61.87095777898438
 40
63.1599752616391
 40
64.43035046331264
 40
65.70072566498614
 40
66.98974314764084
 40
68.27821623973722
 40
69.61892114685448
 40
70.95878931362903
 40
72.23136947483575
 40
73.50213086892529
 40
73.50213086892529
 40
73.50213086892529
 40
73.50213086892529
 10
90.02117977792068
 20
213.5874873988018
 30
0.0
 10
89.73573199360268
 20
213.9008040955234
 30
0.0
 10
89.16442788010029
 20
214.5278859209918
 30
0.0
 10
88.40204169720786
 20
215.5771616235288
 30
0.0
 10
87.72884783556518
 20
216.7124743951805
 30
0.0
 10
87.18650687936975
 20
217.9225369565196
 30
0.0
 10
86.79009688037024
 20
219.1701272004663
 30
0.0
 10
86.55458853668196
 20
220.434229246412
 30
0.0
 10
86.47290552239785
 20
221.711485817063
 30
0.0
 10
86.55458457637712
 20
222.9887487618775
 30
0.0
 10
86.79011299033448
 20
224.2528314070072
 30
0.0
 10
87.18644549171818
 20
225.5004939404412
 30
0.0
 10
87.72908731676375
 20
226.7102765672288
 30
0.0
 10
88.4255824883337
 20
227.8879028944966
 30
0.0
 10
89.25505364240991
 20
229.0069299810676
 30
0.0
 10
90.22785284452766
 20
230.0784129672353
 30
0.0
 10
91.31666918754763
 20
231.0750451638531
 30
0.0
 10
92.53446852287031
 20
232.0087975246937
 30
0.0
 10
93.84922949620625
 20
232.8553106927002
 30
0.0
 10
95.2742478709457
 20
233.6242687115511
 30
0.0
 10
96.77587766093257
 20
234.2967120396542
 30
0.0
 10
98.36465790035004
 20
234.8787239934136
 30
0.0
 10
100.0088036741005
 20
235.3575416894056
 30
0.0
 10
101.7132686031955
 20
235.7359449245725
 30
0.0
 10
103.4512164378689
 20
236.0067950975506
 30
0.0
 10
105.2200052869226
 20
236.1709356713501
 30
0.0
 10
106.9999999999998
 20
236.2253644086592
 30
0.0
 10
108.779994713077
 20
236.1709356713502
 30
0.0
 10
110.5487835621306
 20
236.0067950975505
 30
0.0
 10
112.286731396804
 20
235.7359449245725
 30
0.0
 10
113.9911963258991
 20
235.3575416894057
 30
0.0
 10
115.6353420996496
 20
234.8787239934134
 30
0.0
 10
117.2241223390671
 20
234.2967120396543
 30
0.0
 10
118.7257521290541
 20
233.6242687115509
 30
0.0
 10
120.1507705037934
 20
232.8553106927002
 30
0.0
 10
121.4655314771294
 20
232.0087975246935
 30
0.0
 10
122.683330812452
 20
231.0750451638532
 30
0.0
 10
123.7721471554719
 20
230.0784129672351
 30
0.0
 10
124.7449463575896
 20
229.0069299810675
 30
0.0
 10
125.574417511666
 20
227.8879028944965
 30
0.0
 10
126.2709126832361
 20
226.710276567229
 30
0.0
 10
126.8135545082816
 20
225.5004939404411
 30
0.0
 10
127.2098870096652
 20
224.2528314070073
 30
0.0
 10
127.4454154236224
 20
222.9887487618775
 30
0.0
 10
127.5270944776017
 20
221.7114858170631
 30
0.0
 10
127.4454114633177
 20
220.434229246412
 30
0.0
 10
127.2099031196295
 20
219.1701272004663
 30
0.0
 10
126.8134931206302
 20
217.9225369565195
 30
0.0
 10
126.2711521644347
 20
216.7124743951806
 30
0.0
 10
125.597958302792
 20
215.5771616235288
 30
0.0
 10
124.8355721198995
 20
214.5278859209919
 30
0.0
 10
124.2642680063972
 20
213.9008040955235
 30
0.0
 10
123.9788202220791
 20
213.5874873988018
 30
0.0
 11
90.02117977792068
 21
213.5874873988018
 31
0.0
 11
89.18280388395176
 21
214.542453566328
 31
0.0
 11
88.43139202005639
 21
215.5695078382606
 31
0.0
 11
87.75152673265669
 21
216.7240769766513
 31
0.0
 11
87.20362028601542
 21
217.9477142487615
 31
0.0
 11
86.81589449282116
 21
219.1764663060735
 31
0.0
 11
86.5793354757603
 21
220.4435913599008
 31
0.0
 11
86.4999999999998
 21
221.7114868742523
 31
0.0
 11
86.57933547576016
 21
222.9793823886038
 31
0.0
 11
86.81589449282106
 21
224.2465074424312
 31
0.0
 11
87.20362028601531
 21
225.4752594997433
 31
0.0
 11
87.75152673265659
 21
226.6988967718534
 31
0.0
 11
88.43139202005631
 21
227.8534659102441
 31
0.0
 11
89.27331615094593
 21
228.9922077969874
 31
0.0
 11
90.22300087214029
 21
230.0416224448878
 31
0.0
 11
91.33083253609139
 21
231.0584180567375
 31
0.0
 11
92.52246457541966
 21
231.9744225062574
 31
0.0
 11
93.85975910038088
 21
232.8377270911825
 31
0.0
 11
95.25945612016545
 21
233.594586306832
 31
0.0
 11
96.78328651684024
 21
234.2787112469885
 31
0.0
 11
98.35105730914712
 21
234.854022708565
 31
0.0
 11
100.0135094018148
 21
235.3393930603128
 31
0.0
 11
101.7038765673271
 21
235.7151915308686
 31
0.0
 11
103.4534997811559
 21
235.9886104987573
 31
0.0
 11
105.2166683966034
 21
236.1523295350899
 31
0.0
 11
106.9999999999998
 21
236.2071758885733
 31
0.0
 11
108.7833316033962
 21
236.1523295350899
 31
0.0
 11
110.5465002188436
 21
235.9886104987573
 31
0.0
 11
112.2961234326724
 21
235.7151915308686
 31
0.0
 11
113.9864905981848
 21
235.3393930603128
 31
0.0
 11
115.6489426908525
 21
234.854022708565
 31
0.0
 11
117.2167134831594
 21
234.2787112469885
 31
0.0
 11
118.7405438798343
 21
233.594586306832
 31
0.0
 11
120.1402408996189
 21
232.8377270911824
 31
0.0
 11
121.47753542458
 21
231.9744225062573
 31
0.0
 11
122.6691674639082
 21
231.0584180567374
 31
0.0
 11
123.7769991278593
 21
230.0416224448877
 31
0.0
 11
124.7266838490537
 21
228.9922077969874
 31
0.0
 11
125.5686079799434
 21
227.8534659102441
 31
0.0
 11
126.2484732673432
 21
226.6988967718534
 31
0.0
 11
126.7963797139845
 21
225.4752594997433
 31
0.0
 11
127.1841055071786
 21
224.2465074424312
 31
0.0
 11
127.4206645242394
 21
222.9793823886039
 31
0.0
 11
127.4999999999998
 21
221.7114868742523
 31
0.0
 11
127.4206645242394
 21
220.4435913599007
 31
0.0
 11
127.1841055071786
 21
219.1764663060735
 31
0.0
 11
126.7963797139845
 21
217.9477142487615
 31
0.0
 11
126.2484732673432
 21
216.7240769766513
 31
0.0
 11
125.5686079799434
 21
215.5695078382605
 31
0.0
 11
124.8171961160481
 21
214.5424535663282
 31
0.0
 11
123.9788202220791
 21
213.5874873988018
 31
0.0
  0
SPLINE
  5
E5
330
3C
100
AcDbEntity
  8
1
  6
Continuous
 62
     7
100
AcDbSpline
210
0.0
220
0.0
230
1.0
 70
     8
 71
     3
 72
    73
 73
    69
 74
    67
 42
0.0000000001
 43
0.0000000001
 44
0.00000001
 40
0.0
 40
0.0
 40
0.0
 40
0.0
 40
0.5002452246490311
 40
1.000921731287708
 40
2.791318011933274
 40
4.582100705669586
 40
6.286685907327501
 40
7.991836829450816
 40
9.600247859150448
 40
11.20942365015837
 40
12.72213077690462
 40
14.23576517599255
 40
15.66599990334761
 40
17.09715727177436
 40
18.4711664017181
 40
19.84577878064353
 40
21.19997936268933
 40
22.55417994473491
 40
23.92879232366017
 40
25.30280145360396
 40
26.73395882203072
 40
28.16419354938578
 40
29.6778279484737
 40
31.19053507521999
 40
32.79971086622786
 40
34.40812189592754
 40
36.11327281805084
 40
37.81785801970887
 40
39.60864071344525
 40
41.39903699409079
 40
43.25677237653296
 40
45.11427011218449
 40
47.01444437933977
 40
48.9145059643542
 40
50.82916817425681
 40
52.74383038415941
 40
54.64389196917385
 40
56.54406623632917
 40
58.40156397198073
 40
60.25929935442294
 40
62.04969563506843
 40
63.84047832880482
 40
65.5450635304629
 40
67.25021445258616
 40
68.85862548228577
 40
70.46780127329372
 40
71.98050840004004
 40
73.494142799128
 40
74.92437752648303
 40
76.35553489490975
 40
77.72954402485347
 40
79.1041564037788
 40
80.45835698582438
 40
81.81255756787019
 40
83.18716994679555
 40
84.56117907673935
 40
85.99233644516606
 40
87.42257117252113
 40
88.93620557160902
 40
90.44891269835532
 40
92.05808848936327
 40
93.66649951906291
 40
95.37165044118621
 40
97.07623564284418
 40
98.86701833658054
 40
100.657414617226
 40
101.1580911238673
 40
101.6583363485197
 40
101.6583363485197
 40
101.6583363485197
 40
101.6583363485197
 10
115.3245422807439
 20
368.3690700935077
 30
0.0
 10
115.4845748752712
 20
368.3222067354395
 30
0.0
 10
115.8047780350097
 20
368.2284396164741
 30
0.0
 10
116.6919383996219
 20
367.9478118885147
 30
0.0
 10
117.9715936223146
 20
367.4821025777161
 30
0.0
 10
119.5828986819405
 20
366.7656001289732
 30
0.0
 10
121.1122241645864
 20
365.946031284565
 30
0.0
 10
122.5230393923812
 20
365.0439897560752
 30
0.0
 10
123.8300445900478
 20
364.0487682968211
 30
0.0
 10
124.9984625618384
 20
362.9867366965061
 30
0.0
 10
126.0426169851758
 20
361.8446550771297
 30
0.0
 10
126.9328236219927
 20
360.6521015811448
 30
0.0
 10
127.6805160835698
 20
359.3967724776694
 30
0.0
 10
128.2629791104893
 20
358.1073046769589
 30
0.0
 10
128.6885294693467
 20
356.7771871408944
 30
0.0
 10
128.9413566403645
 20
355.4296174400314
 30
0.0
 10
129.029102350686
 20
354.0678893561203
 30
0.0
 10
128.9413566403696
 20
352.7061612722366
 30
0.0
 10
128.6885294693258
 20
351.3585915712898
 30
0.0
 10
128.2629791105689
 20
350.0284740355385
 30
0.0
 10
127.6805160832593
 20
348.7390062336143
 30
0.0
 10
126.9328236231777
 20
347.483677134791
 30
0.0
 10
126.0426169804671
 20
346.2911236204712
 30
0.0
 10
124.9984625798392
 20
345.1490420717436
 30
0.0
 10
123.8300445181043
 20
344.0870101916137
 30
0.0
 10
122.5230396669922
 20
343.091789810487
 30
0.0
 10
121.1122230711709
 20
342.1897440260772
 30
0.0
 10
119.5829028402037
 20
341.3701915196048
 30
0.0
 10
117.9715772309911
 20
340.653625141238
 30
0.0
 10
116.2665646218747
 20
340.0333294832135
 30
0.0
 10
114.5022947292294
 20
339.5230825205965
 30
0.0
 10
112.6731749625787
 20
339.119792030043
 30
0.0
 10
110.8082202623685
 20
338.8311593830525
 30
0.0
 10
108.9101065633606
 20
338.6562214913108
 30
0.0
 10
106.9999999999996
 20
338.5982246362746
 30
0.0
 10
105.0898934366386
 20
338.6562214913108
 30
0.0
 10
103.1917797376308
 20
338.8311593830525
 30
0.0
 10
101.3268250374205
 20
339.1197920300431
 30
0.0
 10
99.49770527076977
 20
339.5230825205962
 30
0.0
 10
97.73343537812441
 20
340.0333294832136
 30
0.0
 10
96.02842276900812
 20
340.6536251412381
 30
0.0
 10
94.41709715979545
 20
341.3701915196048
 30
0.0
 10
92.8877769288282
 20
342.1897440260771
 30
0.0
 10
91.47696033300706
 20
343.0917898104869
 30
0.0
 10
90.16995548189482
 20
344.0870101916135
 30
0.0
 10
89.00153742016001
 20
345.1490420717436
 30
0.0
 10
87.95738301953199
 20
346.2911236204711
 30
0.0
 10
87.06717637682147
 20
347.483677134791
 30
0.0
 10
86.31948391673986
 20
348.7390062336144
 30
0.0
 10
85.73702088943045
 20
350.0284740355385
 30
0.0
 10
85.31147053067349
 20
351.3585915712898
 30
0.0
 10
85.05864335962971
 20
352.7061612722366
 30
0.0
 10
84.9708976493132
 20
354.0678893561202
 30
0.0
 10
85.0586433596348
 20
355.4296174400313
 30
0.0
 10
85.31147053065247
 20
356.7771871408944
 30
0.0
 10
85.73702088950986
 20
358.1073046769589
 30
0.0
 10
86.31948391642945
 20
359.3967724776693
 30
0.0
 10
87.06717637800645
 20
360.6521015811449
 30
0.0
 10
87.95738301482328
 20
361.8446550771296
 30
0.0
 10
89.00153743816072
 20
362.9867366965063
 30
0.0
 10
90.16995540995156
 20
364.0487682968209
 30
0.0
 10
91.47696060761804
 20
365.0439897560755
 30
0.0
 10
92.88777583541283
 20
365.9460312845649
 30
0.0
 10
94.41710131805877
 20
366.7656001289731
 30
0.0
 10
96.02840637768462
 20
367.4821025777164
 30
0.0
 10
97.30806160037818
 20
367.9478118885148
 30
0.0
 10
98.19522196499227
 20
368.2284396164748
 30
0.0
 10
98.51542512473273
 20
368.3222067354409
 30
0.0
 10
98.67545771926109
 20
368.3690700935093
 30
0.0
 11
115.3245422807439
 21
368.3690700935077
 31
0.0
 11
115.8041200812302
 21
368.2267661298776
 31
0.0
 11
116.2815549497374
 21
368.0759917599287
 31
0.0
 11
117.9637210871408
 21
367.4629371718839
 31
0.0
 11
119.5992966698543
 21
366.73369429779
 31
0.0
 11
121.1010402914434
 21
365.927234872445
 31
0.0
 11
122.5365144611454
 21
365.0069340654605
 31
0.0
 11
123.8149702952869
 21
364.0309541883069
 31
0.0
 11
125.0042450397773
 21
362.9469466659698
 31
0.0
 11
126.0231272716651
 21
361.8288402985555
 31
0.0
 11
126.9270291839163
 21
360.6147355143088
 31
0.0
 11
127.6564972102825
 21
359.3845128621674
 31
0.0
 11
128.2447637796029
 21
358.0798466762707
 31
0.0
 11
128.6608641232178
 21
356.7703576181979
 31
0.0
 11
128.9148249548063
 21
355.4194086597565
 31
0.0
 11
128.9999999999996
 21
354.0678893561247
 31
0.0
 11
128.9148249548063
 21
352.7163700524931
 31
0.0
 11
128.6608641232178
 21
351.3654210940518
 31
0.0
 11
128.2447637796029
 21
350.055932035979
 31
0.0
 11
127.6564972102824
 21
348.7512658500824
 31
0.0
 11
126.9270291839163
 21
347.5210431979409
 31
0.0
 11
126.0231272716651
 21
346.3069384136942
 31
0.0
 11
125.0042450397773
 21
345.1888320462799
 31
0.0
 11
123.8149702952869
 21
344.1048245239429
 31
0.0
 11
122.5365144611454
 21
343.1288446467892
 31
0.0
 11
121.1010402914434
 21
342.2085438398047
 31
0.0
 11
119.5992966698543
 21
341.4020844144595
 31
0.0
 11
117.9637210871407
 21
340.6728415403655
 31
0.0
 11
116.2815549497373
 21
340.0597869523208
 31
0.0
 11
114.4973101437294
 21
339.5424367581475
 31
0.0
 11
112.6834979033026
 21
339.1419583012628
 31
0.0
 11
110.8058030645437
 21
338.850540494571
 31
0.0
 11
108.913769768814
 21
338.6760583043684
 31
0.0
 11
106.9999999999996
 21
338.6176061872012
 31
0.0
 11
105.0862302311853
 21
338.6760583043684
 31
0.0
 11
103.1941969354556
 21
338.850540494571
 31
0.0
 11
101.3165020966966
 21
339.1419583012628
 31
0.0
 11
99.50268985626981
 21
339.5424367581474
 31
0.0
 11
97.71844505026184
 21
340.0597869523208
 31
0.0
 11
96.03627891285851
 21
340.6728415403656
 31
0.0
 11
94.40070333014489
 21
341.4020844144595
 31
0.0
 11
92.89895970855577
 21
342.2085438398047
 31
0.0
 11
91.4634855388538
 21
343.1288446467892
 31
0.0
 11
90.18502970471231
 21
344.1048245239429
 31
0.0
 11
88.99575496022186
 21
345.1888320462799
 31
0.0
 11
87.97687272833402
 21
346.3069384136941
 31
0.0
 11
87.07297081608279
 21
347.5210431979409
 31
0.0
 11
86.34350278971672
 21
348.7512658500824
 31
0.0
 11
85.7552362203964
 21
350.055932035979
 31
0.0
 11
85.33913587678153
 21
351.3654210940518
 31
0.0
 11
85.08517504519293
 21
352.7163700524931
 31
0.0
 11
84.99999999999957
 21
354.0678893561247
 31
0.0
 11
85.0851750451929
 21
355.4194086597565
 31
0.0
 11
85.33913587678138
 21
356.7703576181979
 31
0.0
 11
85.75523622039634
 21
358.0798466762707
 31
0.0
 11
86.34350278971678
 21
359.3845128621673
 31
0.0
 11
87.07297081608284
 21
360.6147355143088
 31
0.0
 11
87.97687272833403
 21
361.8288402985555
 31
0.0
 11
88.99575496022185
 21
362.9469466659698
 31
0.0
 11
90.18502970471231
 21
364.0309541883068
 31
0.0
 11
91.46348553885385
 21
365.0069340654605
 31
0.0
 11
92.89895970855581
 21
365.927234872445
 31
0.0
 11
94.40070333014492
 21
366.73369429779
 31
0.0
 11
96.03627891285851
 21
367.4629371718839
 31
0.0
 11
97.71844505026176
 21
368.0759917599287
 31
0.0
 11
98.19587991877144
 21
368.2267661298782
 31
0.0
 11
98.67545771926109
 21
368.3690700935093
 31
0.0
  0
SPLINE
  5
E6
330
3C
100
AcDbEntity
  8
1
  6
Continuous
 62
     7
100
AcDbSpline
210
0.0
220
0.0
230
1.0
 70
     8
 71
     3
 72
     9
 73
     5
 74
     3
 42
0.0000000001
 43
0.0000000001
 44
0.00000001
 40
0.0
 40
0.0
 40
0.0
 40
0.0
 40
1.118214778537624
 40
2.238966048311156
 40
2.238966048311156
 40
2.238966048311156
 40
2.238966048311156
 10
128.9635701068963
 20
353.1840058796374
 30
0.0
 10
128.9845459275468
 20
352.8112281893684
 30
0.0
 10
129.0265451491395
 20
352.0648272223092
 30
0.0
 10
128.9520931347763
 20
351.3209587129628
 30
0.0
 10
128.9148249548065
 20
350.9486030995209
 30
0.0
 11
128.9635701068963
 21
353.1840058796374
 31
0.0
 11
128.9974506854287
 21
352.0663044895791
 31
0.0
 11
128.9148249548065
 21
350.9486030995209
 31
0.0
  0
SPLINE
  5
E7
330
3C
100
AcDbEntity
  8
1
  6
Continuous
 62
     7
100
AcDbSpline
210
0.0
220
0.0
230
1.0
 70
     8
 71
     3
 72
    43
 73
    39
 74
    37
 42
0.0000000001
 43
0.0000000001
 44
0.00000001
 40
0.0
 40
0.0
 40
0.0
 40
0.0
 40
1.374612378926012
 40
2.748621508870463
 40
4.179778877297885
 40
5.610013604653435
 40
7.123648003741669
 40
8.636355130488488
 40
10.24553092149679
 40
11.85394195119682
 40
13.55909287332045
 40
15.26367807497863
 40
17.0544607687152
 40
18.84485704936087
 40
20.70259243180318
 40
22.56009016745475
 40
24.46026443461001
 40
26.36032601962446
 40
28.27498822952708
 40
30.18965043942965
 40
32.0897120244441
 40
33.98988629159948
 40
35.8473840272511
 40
37.70511940969335
 40
39.49551569033898
 40
41.28629838407552
 40
42.99088358573381
 40
44.69603450785738
 40
46.30444553755734
 40
47.91362132856565
 40
49.42632845531237
 40
50.93996285440068
 40
52.37019758175631
 40
53.80135495018369
 40
55.1753640801282
 40
56.54997645905417
 40
57.67072772883424
 40
58.78894250737849
 40
58.78894250737849
 40
58.78894250737849
 40
58.78894250737849
 10
128.9148249548065
 20
350.9486030995209
 30
0.0
 10
128.8418599096718
 20
350.4956315780791
 30
0.0
 10
128.6959618401304
 20
349.5898873218596
 30
0.0
 10
128.2608958134001
 20
348.26096980722
 30
0.0
 10
127.6810823959858
 20
346.9711678629287
 30
0.0
 10
126.9326620628379
 20
345.7159305561946
 30
0.0
 10
126.0426611803005
 20
344.5233510934537
 30
0.0
 10
124.9984498976585
 20
343.3812767181177
 30
0.0
 10
123.8300479959364
 20
342.3192428000476
 30
0.0
 10
122.5230386728151
 20
341.3240229828856
 30
0.0
 10
121.1122233435516
 20
340.4219770387495
 30
0.0
 10
119.5829027631167
 20
339.6024245763481
 30
0.0
 10
117.9715772520444
 20
338.8858581856044
 30
0.0
 10
116.2665646159977
 20
338.2655625309757
 30
0.0
 10
114.5022947308272
 20
337.7553155674154
 30
0.0
 10
112.6731749621397
 20
337.352025077119
 30
0.0
 10
110.8082202624871
 20
337.0633924300582
 30
0.0
 10
108.9101065633287
 20
336.8884545383353
 30
0.0
 10
107.0000000000077
 20
336.8304576832938
 30
0.0
 10
105.0898934366386
 20
336.8884545383316
 30
0.0
 10
103.1917797376233
 20
337.0633924300732
 30
0.0
 10
101.3268250374504
 20
337.3520250770631
 30
0.0
 10
99.49770527066013
 20
337.7553155676189
 30
0.0
 10
97.73343537852738
 20
338.2655625302274
 30
0.0
 10
96.02842276756435
 20
338.8858581882855
 30
0.0
 10
94.41709716508153
 20
339.6024245665316
 30
0.0
 10
92.88777691015001
 20
340.4219770734351
 30
0.0
 10
91.47696040118117
 20
341.3240228562846
 30
0.0
 10
90.16995524340777
 20
342.3192432429233
 30
0.0
 10
89.00153828982107
 20
343.3812751031377
 30
0.0
 10
87.9573799885961
 20
344.5233567219692
 30
0.0
 10
87.06718745557447
 20
345.7159099827031
 30
0.0
 10
86.3194450827112
 20
346.971239978585
 30
0.0
 10
85.73716374834578
 20
348.260704515032
 30
0.0
 10
85.31096086721826
 20
349.5908337782468
 30
0.0
 10
85.07478606583044
 20
350.8616864424502
 30
0.0
 10
84.97774507060815
 20
352.065413771144
 30
0.0
 10
85.01688306522202
 20
352.8114235579346
 30
0.0
 10
85.03642989310384
 20
353.1840058796506
 30
0.0
 11
128.9148249548065
 21
350.9486030995209
 31
0.0
 11
128.6608641232178
 21
349.5976541410789
 31
0.0
 11
128.2447637796029
 21
348.2881650830054
 31
0.0
 11
127.6564972102825
 21
346.983498897108
 31
0.0
 11
126.9270291839164
 21
345.753276244966
 31
0.0
 11
126.0231272716653
 21
344.5391714607188
 31
0.0
 11
125.0042450397774
 21
343.4210650933038
 31
0.0
 11
123.814970295287
 21
342.3370575709663
 31
0.0
 11
122.5365144611454
 21
341.361077693812
 31
0.0
 11
121.1010402914434
 21
340.4407768868269
 31
0.0
 11
119.5992966698543
 21
339.6343174614814
 31
0.0
 11
117.9637210871408
 21
338.9050745873869
 31
0.0
 11
116.2815549497373
 21
338.2920199993419
 31
0.0
 11
114.4973101437294
 21
337.7746698051681
 31
0.0
 11
112.6834979033026
 21
337.3741913482834
 31
0.0
 11
110.8058030645437
 21
337.0827735415916
 31
0.0
 11
108.913769768814
 21
336.9082913513889
 31
0.0
 11
106.9999999999996
 21
336.8498392342217
 31
0.0
 11
105.0862302311853
 21
336.9082913513889
 31
0.0
 11
103.1941969354556
 21
337.0827735415916
 31
0.0
 11
101.3165020966965
 21
337.3741913482834
 31
0.0
 11
99.50268985626971
 21
337.7746698051681
 31
0.0
 11
97.71844505026181
 21
338.2920199993419
 31
0.0
 11
96.03627891285846
 21
338.9050745873871
 31
0.0
 11
94.40070333014485
 21
339.6343174614814
 31
0.0
 11
92.89895970855569
 21
340.4407768868269
 31
0.0
 11
91.46348553885376
 21
341.361077693812
 31
0.0
 11
90.18502970471225
 21
342.3370575709663
 31
0.0
 11
88.99575496022182
 21
343.4210650933039
 31
0.0
 11
87.976872728334
 21
344.5391714607187
 31
0.0
 11
87.0729708160828
 21
345.753276244966
 31
0.0
 11
86.3435027897167
 21
346.9834988971081
 31
0.0
 11
85.75523622039627
 21
348.2881650830054
 31
0.0
 11
85.33913587678131
 21
349.597654141079
 31
0.0
 11
85.08517504519283
 21
350.9486030995209
 31
0.0
 11
85.00254931457033
 21
352.0663044895857
 31
0.0
 11
85.03642989310384
 21
353.1840058796506
 31
0.0
  0
ARC
  5
E8
330
3C
100
AcDbEntity
  8
1
  6
Continuous
 62
     7
100
AcDbCircle
 10
200.1367187187236
 20
237.2678360603513
 30
0.0
 40
1.499999999993734
100
AcDbArc
 50
165.0000000000223
 51
-134.9999999998649
  0
ARC
  5
E9
330
3C
100
AcDbEntity
  8
1
  6
Continuous
 62
     7
100
AcDbCircle
 10
199.7831653281379
 20
238.3284962321338
 30
0.0
 40
0.4999999999974115
100
AcDbArc
 50
45.0000000001543
 51
135.0000000000645
  0
ARC
  5
EA
330
3C
100
AcDbEntity
  8
1
  6
Continuous
 62
     7
100
AcDbCircle
 10
229.1280967473734
 20
208.276458031707
 30
0.0
 40
1.500000000003147
100
AcDbArc
 50
-135.0000000000676
 51
-44.99999999994319
  0
ARC
  5
EB
330
3C
100
AcDbEntity
  8
1
  6
Continuous
 62
     7
100
AcDbCircle
 10
230.1887569191504
 20
207.9229046411133
 30
0.0
 40
0.4999999999991198
100
AcDbArc
 50
-44.99999999994012
 51
44.99999999953711
  0
ARC
  5
EC
330
3C
100
AcDbEntity
  8
1
  6
Continuous
 62
     7
100
AcDbCircle
 10
200.1367187187236
 20
237.2678360603513
 30
0.0
 40
1.49999999999955
100
AcDbArc
 50
135.0000000000054
 51
165.0000000000223
  0
ENDBLK
  5
3E
330
3C
100
AcDbEntity
  8
0
100
AcDbBlockEnd
  0
BLOCK
  5
40
330
3F
100
AcDbEntity
  8
0
100
AcDbBlockBegin
  2
81-93A
 70
     0
 71
     0
 10
-1354.556338136989
 20
409.1692223995934
 30
0.0
  3
81-93A
  1

  0
LINE
  5
ED
330
3F
100
AcDbEntity
  8
0
  6
Continuous
 62
     7
100
AcDbLine
 10
193.1484058472996
 20
204.114169918288
 30
0.0
 11
198.0153137847899
 21
208.9810778557782
 31
0.0
  0
LINE
  5
EE
330
3F
100
AcDbEntity
  8
0
  6
Continuous
 62
     7
100
AcDbLine
 10
198.7659018940858
 20
204.0748117155815
 30
0.0
 11
200.8437409095362
 21
206.1526507310317
 31
0.0
  0
LINE
  5
EF
330
3F
100
AcDbEntity
  8
0
  6
Continuous
 62
     7
100
AcDbLine
 10
196.9818478439037
 20
199.1493570717855
 30
0.0
 11
199.335590182682
 21
196.7956147330071
 31
0.0
  0
LINE
  5
F0
330
3F
100
AcDbEntity
  8
0
  6
Continuous
 62
     7
100
AcDbLine
 10
199.335590182682
 20
196.7956147330071
 30
0.0
 11
198.4517067061988
 21
195.9117312565239
 31
0.0
  0
LINE
  5
F1
330
3F
100
AcDbEntity
  8
0
  6
Continuous
 62
     7
100
AcDbLine
 10
198.0274426374868
 20
195.9117312565239
 30
0.0
 11
197.5324678906563
 21
196.4067060033545
 31
0.0
  0
LINE
  5
F2
330
3F
100
AcDbEntity
  8
0
  6
Continuous
 62
     7
100
AcDbLine
 10
192.9716291520032
 20
198.9169350765668
 30
0.0
 11
197.5324678906563
 21
196.4067060033545
 31
0.0
  0
LINE
  5
F3
330
3F
100
AcDbEntity
  8
0
  6
Continuous
 62
     7
100
AcDbLine
 10
192.9716291520032
 20
198.9169350765668
 30
0.0
 11
193.1484058472996
 21
204.114169918288
 31
0.0
  0
LINE
  5
F4
330
3F
100
AcDbEntity
  8
0
  6
PHANTOM
 62
     4
100
AcDbLine
 10
195.1204331940808
 20
203.2577701403226
 30
0.0
 11
199.429527347163
 21
207.5668642934049
 31
0.0
  0
LINE
  5
F5
330
3F
100
AcDbEntity
  8
0
  6
Continuous
 62
     7
100
AcDbLine
 10
196.9818478439037
 20
199.1493570717855
 30
0.0
 11
197.0120103485995
 21
200.0361347098431
 31
0.0
  0
LINE
  5
F6
330
3F
100
AcDbEntity
  8
0
  6
Continuous
 62
     7
100
AcDbLine
 10
197.5203390379593
 20
209.4760526026088
 30
0.0
 11
192.4581962759263
 21
204.4139098405757
 31
0.0
  0
LINE
  5
F7
330
3F
100
AcDbEntity
  8
0
  6
Continuous
 62
     7
100
AcDbLine
 10
192.2942639769813
 20
199.5943002515886
 30
0.0
 11
192.4581962759263
 21
204.4139098405757
 31
0.0
  0
LINE
  5
F8
330
3F
100
AcDbEntity
  8
0
  6
Continuous
 62
     7
100
AcDbLine
 10
192.9716291520032
 20
198.9169350765668
 30
0.0
 11
192.2942639769813
 21
199.5943002515886
 31
0.0
  0
LINE
  5
F9
330
3F
100
AcDbEntity
  8
0
  6
Continuous
 62
     7
100
AcDbLine
 10
199.0759739565698
 20
207.9204176839982
 30
0.0
 11
194.6274263573854
 21
203.4718700848139
 31
0.0
  0
LINE
  5
FA
330
3F
100
AcDbEntity
  8
0
  6
Continuous
 62
     7
100
AcDbLine
 10
199.7830807377563
 20
207.2133109028117
 30
0.0
 11
195.6134400307759
 21
203.0436701958314
 31
0.0
  0
LINE
  5
FB
330
3F
100
AcDbEntity
  8
0
  6
PHANTOM
 62
     4
100
AcDbLine
 10
194.9071512247856
 20
196.9872802430455
 30
0.0
 11
195.1204331940808
 21
203.2577701403226
 31
0.0
  0
LINE
  5
FC
330
3F
100
AcDbEntity
  8
0
  6
Continuous
 62
     7
100
AcDbLine
 10
195.4827147857523
 20
199.2003479921308
 30
0.0
 11
195.6134400307759
 21
203.0436701958314
 31
0.0
  0
LINE
  5
FD
330
3F
100
AcDbEntity
  8
0
  6
Continuous
 62
     7
100
AcDbLine
 10
194.4832927469846
 20
199.2343419390277
 30
0.0
 11
194.6274263573854
 21
203.4718700848139
 31
0.0
  0
LINE
  5
FE
330
3F
100
AcDbEntity
  8
0
  6
Continuous
 62
     7
100
AcDbLine
 10
201.3387156563668
 20
205.6576759842011
 30
0.0
 11
199.2608766409164
 21
203.5798369687509
 31
0.0
  0
LINE
  5
FF
330
3F
100
AcDbEntity
  8
0
  6
Continuous
 62
     7
100
AcDbLine
 10
197.6592130189255
 20
198.4719918967636
 30
0.0
 11
197.7116057757369
 21
200.0123389470154
 31
0.0
  0
LINE
  5
100
330
3F
100
AcDbEntity
  8
0
  6
Continuous
 62
     7
100
AcDbLine
 10
194.4832927469846
 20
199.2343419390277
 30
0.0
 11
195.4827147857523
 21
199.2003479921308
 31
0.0
  0
LINE
  5
101
330
3F
100
AcDbEntity
  8
0
  6
Continuous
 62
     7
100
AcDbLine
 10
198.1567351410273
 20
208.8396564995409
 30
0.0
 11
193.3456085819777
 21
204.0285299404915
 31
0.0
  0
LINE
  5
102
330
3F
100
AcDbEntity
  8
0
  6
Continuous
 62
     7
100
AcDbLine
 10
193.1680673569612
 20
198.8088179250008
 30
0.0
 11
193.3456085819777
 21
204.0285299404915
 31
0.0
  0
LINE
  5
103
330
3F
100
AcDbEntity
  8
0
  6
Continuous
 62
     7
100
AcDbLine
 10
198.4870620452582
 20
197.3613001579563
 30
0.0
 11
196.77901090016
 21
199.0693513030546
 31
0.0
  0
LINE
  5
104
330
3F
100
AcDbEntity
  8
0
  6
Continuous
 62
     7
100
AcDbLine
 10
196.77901090016
 20
199.0693513030546
 30
0.0
 11
196.8148076139213
 21
200.1217746876396
 31
0.0
  0
LINE
  5
105
330
3F
100
AcDbEntity
  8
0
  6
Continuous
 62
     7
100
AcDbLine
 10
198.6244805378485
 20
204.2162330718188
 30
0.0
 11
200.7023195532988
 21
206.2940720872691
 31
0.0
  0
LINE
  5
106
330
3F
100
AcDbEntity
  8
0
  6
Continuous
 62
     7
100
AcDbLine
 10
197.5324678906563
 20
196.4067060033545
 30
0.0
 11
198.6284834014956
 21
197.5027215141937
 31
0.0
  0
LINE
  5
107
330
3F
100
AcDbEntity
  8
0
  6
Continuous
 62
     7
100
AcDbLine
 10
196.77901090016
 20
199.0693513030546
 30
0.0
 11
196.9818478439037
 21
199.1493570717855
 31
0.0
  0
LINE
  5
108
330
3F
100
AcDbEntity
  8
0
  6
Continuous
 62
     7
100
AcDbLine
 10
193.1484058472996
 20
204.114169918288
 30
0.0
 11
193.3456085819777
 21
204.0285299404915
 31
0.0
  0
LINE
  5
109
330
3F
100
AcDbEntity
  8
1
  6
Continuous
 62
     7
100
AcDbLine
 10
107.4999999999996
 20
331.2926371349877
 30
0.0
 11
108.9999999999996
 21
331.2926371349877
 31
0.0
  0
LINE
  5
10A
330
3F
100
AcDbEntity
  8
1
  6
Continuous
 62
     7
100
AcDbLine
 10
107.4999999999996
 20
332.9402188507983
 30
0.0
 11
107.4999999999996
 21
331.2926371349877
 31
0.0
  0
LINE
  5
10B
330
3F
100
AcDbEntity
  8
1
  6
Continuous
 62
     7
100
AcDbLine
 10
106.4999999999996
 20
331.2926371349877
 30
0.0
 11
107.4999999999996
 21
331.2926371349877
 31
0.0
  0
LINE
  5
10C
330
3F
100
AcDbEntity
  8
1
  6
Continuous
 62
     7
100
AcDbLine
 10
106.4999999999996
 20
331.2926371349877
 30
0.0
 11
106.4999999999996
 21
332.9402188507983
 31
0.0
  0
LINE
  5
10D
330
3F
100
AcDbEntity
  8
1
  6
Continuous
 62
     7
100
AcDbLine
 10
108.9999999999996
 20
331.2926371349877
 30
0.0
 11
108.9999999999996
 21
333.1657669924134
 31
0.0
  0
LINE
  5
10E
330
3F
100
AcDbEntity
  8
1
  6
Continuous
 62
     7
100
AcDbLine
 10
104.9999999999996
 20
331.2926371349877
 30
0.0
 11
106.4999999999996
 21
331.2926371349877
 31
0.0
  0
LINE
  5
10F
330
3F
100
AcDbEntity
  8
1
  6
Continuous
 62
     7
100
AcDbLine
 10
104.9999999999996
 20
333.1657669924134
 30
0.0
 11
104.9999999999996
 21
331.2926371349877
 31
0.0
  0
LINE
  5
110
330
3F
100
AcDbEntity
  8
1
  6
Continuous
 62
     7
100
AcDbLine
 10
106.5
 20
209.3254899139851
 30
0.0
 11
107.5
 21
209.3254899139851
 31
0.0
  0
LINE
  5
111
330
3F
100
AcDbEntity
  8
0
  6
Continuous
 62
     7
100
AcDbLine
 10
108.8000000000001
 20
195.9117312565241
 30
0.0
 11
108.8000000000001
 21
210.4216230317792
 31
0.0
  0
LINE
  5
112
330
3F
100
AcDbEntity
  8
0
  6
Continuous
 62
     7
100
AcDbLine
 10
105.2
 20
195.9117312565241
 30
0.0
 11
105.2
 21
210.4216230317792
 31
0.0
  0
LINE
  5
113
330
3F
100
AcDbEntity
  8
0
  6
Continuous
 62
     7
100
AcDbLine
 10
107.5
 20
208.0254899139853
 30
0.0
 11
106.5
 21
208.0254899139853
 31
0.0
  0
LINE
  5
114
330
3F
100
AcDbEntity
  8
0
  6
Continuous
 62
     7
100
AcDbLine
 10
109.7000000000004
 20
204.326301952644
 30
0.0
 11
109.0000000000002
 21
204.326301952644
 31
0.0
  0
LINE
  5
115
330
3F
100
AcDbEntity
  8
0
  6
Continuous
 62
     7
100
AcDbLine
 10
109.7000000000003
 20
199.4294769999354
 30
0.0
 11
109.0000000000002
 21
199.4294769999354
 31
0.0
  0
LINE
  5
116
330
3F
100
AcDbEntity
  8
0
  6
Continuous
 62
     7
100
AcDbLine
 10
104.3
 20
204.326301952644
 30
0.0
 11
105.0000000000002
 21
204.326301952644
 31
0.0
  0
LINE
  5
117
330
3F
100
AcDbEntity
  8
0
  6
Continuous
 62
     7
100
AcDbLine
 10
104.3
 20
199.4294769999353
 30
0.0
 11
105.0000000000002
 21
199.4294769999354
 31
0.0
  0
LINE
  5
118
330
3F
100
AcDbEntity
  8
0
  6
Continuous
 62
     7
100
AcDbLine
 10
104.3
 20
209.0195333867962
 30
0.0
 11
104.3
 21
199.4294769999353
 31
0.0
  0
LINE
  5
119
330
3F
100
AcDbEntity
  8
0
  6
Continuous
 62
     7
100
AcDbLine
 10
106.5
 20
199.8064322859447
 30
0.0
 11
105.0
 21
199.8064322859447
 31
0.0
  0
LINE
  5
11A
330
3F
100
AcDbEntity
  8
0
  6
Continuous
 62
     7
100
AcDbLine
 10
109.0
 20
199.8064322859447
 30
0.0
 11
107.5
 21
199.8064322859447
 31
0.0
  0
LINE
  5
11B
330
3F
100
AcDbEntity
  8
0
  6
Continuous
 62
     7
100
AcDbLine
 10
107.5
 20
199.1290671109228
 30
0.0
 11
106.5
 21
199.1290671109228
 31
0.0
  0
LINE
  5
11C
330
3F
100
AcDbEntity
  8
0
  6
Continuous
 62
     7
100
AcDbLine
 10
107.5
 20
195.9117312565241
 30
0.0
 11
107.5
 21
209.3254899139851
 31
0.0
  0
LINE
  5
11D
330
3F
100
AcDbEntity
  8
0
  6
Continuous
 62
     7
100
AcDbLine
 10
106.5
 20
195.9117312565241
 30
0.0
 11
106.5
 21
209.3254899139851
 31
0.0
  0
LINE
  5
11E
330
3F
100
AcDbEntity
  8
0
  6
Continuous
 62
     7
100
AcDbLine
 10
105.2
 20
195.9117312565241
 30
0.0
 11
105.0
 21
196.111731256524
 31
0.0
  0
LINE
  5
11F
330
3F
100
AcDbEntity
  8
0
  6
Continuous
 62
     7
100
AcDbLine
 10
109.0
 20
196.111731256524
 30
0.0
 11
108.8000000000001
 21
195.9117312565241
 31
0.0
  0
LINE
  5
120
330
3F
100
AcDbEntity
  8
0
  6
Continuous
 62
     7
100
AcDbLine
 10
108.8000000000001
 20
195.9117312565241
 30
0.0
 11
105.2
 21
195.9117312565241
 31
0.0
  0
LINE
  5
121
330
3F
100
AcDbEntity
  8
0
  6
Continuous
 62
     7
100
AcDbLine
 10
109.0
 20
196.111731256524
 30
0.0
 11
109.0
 21
210.2834432501364
 31
0.0
  0
LINE
  5
122
330
3F
100
AcDbEntity
  8
0
  6
Continuous
 62
     7
100
AcDbLine
 10
109.7000000000002
 20
209.0195333867962
 30
0.0
 11
109.7000000000003
 21
199.4294769999354
 31
0.0
  0
LINE
  5
123
330
3F
100
AcDbEntity
  8
0
  6
Continuous
 62
     7
100
AcDbLine
 10
105.0
 20
196.111731256524
 30
0.0
 11
105.0
 21
210.2834432501364
 31
0.0
  0
ARC
  5
124
330
3F
100
AcDbEntity
  8
1
  6
Continuous
 62
     7
100
AcDbCircle
 10
203.008542581205
 20
199.8321710284621
 30
0.0
 40
5.299999999999995
100
AcDbArc
 50
134.9999999999987
 51
178.0519149934857
  0
ARC
  5
125
330
3F
100
AcDbEntity
  8
1
  6
Continuous
 62
     7
100
AcDbCircle
 10
203.008542581205
 20
199.8321710284621
 30
0.0
 40
6.199999999999998
100
AcDbArc
 50
134.9999999999987
 51
178.0519149934862
  0
ARC
  5
126
330
3F
100
AcDbEntity
  8
0
  6
Continuous
 62
     7
100
AcDbCircle
 10
198.2395746718429
 20
196.1238632908799
 30
0.0
 40
0.2999999999999747
100
AcDbArc
 50
-134.9999969295186
 51
-45.00000153523496
  0
SPLINE
  5
127
330
3F
100
AcDbEntity
  8
0
  6
Continuous
 62
     7
100
AcDbSpline
210
0.0
220
0.0
230
1.0
 70
     8
 71
     3
 72
    35
 73
    31
 74
    29
 42
0.0000000001
 43
0.0000000001
 44
0.00000001
 40
0.0
 40
0.0
 40
0.0
 40
0.0
 40
0.1449156908895297
 40
0.2899798118859235
 40
0.5095062977821525
 40
0.7289851432346729
 40
0.9568617483845556
 40
1.18470914562038
 40
1.417876066228383
 40
1.651029162498394
 40
1.886001756471911
 40
2.120974350445357
 40
2.354127446715296
 40
2.587294367323275
 40
2.815141764559094
 40
3.043018369709031
 40
3.262497215161573
 40
3.482023701057803
 40
3.69079245034443
 40
3.899631269101822
 40
4.096384012073862
 40
4.293232068704574
 40
4.47801221188075
 40
4.662908807956645
 40
4.837357204775781
 40
5.011922381866533
 40
5.179318431168051
 40
5.346791275748504
 40
5.429453305469728
 40
5.511783879260633
 40
5.511783879260633
 40
5.511783879260633
 40
5.511783879260633
 10
108.8000000000001
 20
210.4216230317792
 30
0.0
 10
108.7586238057786
 20
210.4465757164592
 30
0.0
 10
108.6758290377086
 20
210.4965066436427
 30
0.0
 10
108.524608189471
 20
210.574057368152
 30
0.0
 10
108.3464497406246
 20
210.652931920439
 30
0.0
 10
108.1371632242222
 20
210.7283834264759
 30
0.0
 10
107.9206749514008
 20
210.790515483343
 30
0.0
 10
107.6961979500154
 20
210.8396101009609
 30
0.0
 10
107.4673403867852
 20
210.8747476738436
 30
0.0
 10
107.2344036867673
 20
210.8960459109672
 30
0.0
 10
107.0000000121481
 20
210.9031054089835
 30
0.0
 10
106.7655962648287
 20
210.8960459874208
 30
0.0
 10
106.5326597812285
 20
210.8747473707825
 30
0.0
 10
106.3038014317585
 20
210.8396112268595
 30
0.0
 10
106.0793272967293
 20
210.7905113863352
 30
0.0
 10
105.8628285089629
 20
210.7283984927248
 30
0.0
 10
105.6535798527245
 20
210.6528779864524
 30
0.0
 10
105.4558516966799
 20
210.565651909226
 30
0.0
 10
105.2681580521119
 20
210.4658701773343
 30
0.0
 10
105.0950333349581
 20
210.356067998486
 30
0.0
 10
104.9346145620934
 20
210.2348942467476
 30
0.0
 10
104.791227841083
 20
210.1056152246443
 30
0.0
 10
104.6630567092882
 20
209.9665514629981
 30
0.0
 10
104.5537997169292
 20
209.8213707930728
 30
0.0
 10
104.4619990294081
 20
209.6685029114475
 30
0.0
 10
104.3905173821275
 20
209.511492480467
 30
0.0
 10
104.3381914490855
 20
209.3495112496198
 30
0.0
 10
104.3124706570994
 20
209.2123623466102
 30
0.0
 10
104.3015142517767
 20
209.1019915025261
 30
0.0
 10
104.3005040741389
 20
209.0469825893148
 30
0.0
 10
104.3
 20
209.0195333867936
 30
0.0
 11
108.8000000000001
 21
210.4216230317792
 31
0.0
 11
108.6750545325717
 21
210.4950341183744
 31
0.0
 11
108.5462334608814
 21
210.5617329241285
 31
0.0
 11
108.3454693108483
 21
210.6505340168663
 31
0.0
 11
108.1390666135
 21
210.7251590135397
 31
0.0
 11
107.9200701369365
 21
210.7881533817596
 31
0.0
 11
107.69749962595
 21
210.8369058593001
 31
0.0
 11
107.4670482145891
 21
210.8723876837682
 31
0.0
 11
107.2348648103012
 21
210.8936299311438
 31
0.0
 11
107.0
 21
210.9007461661635
 31
0.0
 11
106.765135189699
 21
210.8936299311438
 31
0.0
 11
106.5329517854111
 21
210.8723876837682
 31
0.0
 11
106.3025003740502
 21
210.8369058593001
 31
0.0
 11
106.0799298630637
 21
210.7881533817596
 31
0.0
 11
105.8609333865002
 21
210.7251590135397
 31
0.0
 11
105.6545306891518
 21
210.6505340168664
 31
0.0
 11
105.4537665391187
 21
210.5617329241286
 31
0.0
 11
105.2695139419648
 21
210.463572997882
 31
0.0
 11
105.0932958403039
 21
210.3514978763472
 31
0.0
 11
104.9364468154076
 21
210.2327122490345
 31
0.0
 11
104.7904363245806
 21
210.1006891678412
 31
0.0
 11
104.6654333764248
 21
209.9646084408275
 31
0.0
 11
104.5544468021271
 21
209.8167276389427
 31
0.0
 11
104.4649418753528
 21
209.6669908323923
 31
0.0
 11
104.3927069301511
 21
209.5080722565605
 31
0.0
 11
104.3416395178325
 21
209.3486559565129
 31
0.0
 11
104.3104582768083
 21
209.1841114826463
 31
0.0
 11
104.3026145692019
 21
209.10182243472
 31
0.0
 11
104.3
 21
209.0195333867936
 31
0.0
  0
SPLINE
  5
128
330
3F
100
AcDbEntity
  8
0
  6
Continuous
 62
     7
100
AcDbSpline
210
0.0
220
0.0
230
1.0
 70
     8
 71
     3
 72
    19
 73
    15
 74
    13
 42
0.0000000001
 43
0.0000000001
 44
0.00000001
 40
0.0
 40
0.0
 40
0.0
 40
0.0
 40
0.0823305737909038
 40
0.16499260351213
 40
0.3324654480926104
 40
0.4998614973941858
 40
0.6744266744849932
 40
0.8488750713040684
 40
1.033771667379859
 40
1.218551810555996
 40
1.415399867186711
 40
1.612152610158876
 40
1.676042508840531
 40
1.73984581947266
 40
1.73984581947266
 40
1.73984581947266
 40
1.73984581947266
 10
109.7000000000002
 20
209.0195333867936
 30
0.0
 10
109.6994959258482
 20
209.0469825892783
 30
0.0
 10
109.6984857481841
 20
209.1019915024163
 30
0.0
 10
109.6875293431271
 20
209.2123623472398
 30
0.0
 10
109.6618085490515
 20
209.3495112444377
 30
0.0
 10
109.6094826247948
 20
209.5114924997202
 30
0.0
 10
109.5380009435749
 20
209.6685028363035
 30
0.0
 10
109.44620038622
 20
209.8213710799679
 30
0.0
 10
109.336942880146
 20
209.9665503210649
 30
0.0
 10
109.2087737293256
 20
210.1056195925195
 30
0.0
 10
109.0653791514293
 20
210.2348767617735
 30
0.0
 10
108.9435806588265
 20
210.3269597017965
 30
0.0
 10
108.8539169868542
 20
210.3874485484701
 30
0.0
 10
108.8179642024909
 20
210.4102366881795
 30
0.0
 10
108.8000000000001
 20
210.4216230317792
 30
0.0
 11
109.7000000000002
 21
209.0195333867936
 31
0.0
 11
109.6973854307983
 21
209.10182243472
 31
0.0
 11
109.6895417231919
 21
209.1841114826463
 31
0.0
 11
109.6583604821677
 21
209.348655956513
 31
0.0
 11
109.607293069849
 21
209.5080722565605
 31
0.0
 11
109.5350581246472
 21
209.6669908323924
 31
0.0
 11
109.445553197873
 21
209.8167276389427
 31
0.0
 11
109.3345666235754
 21
209.9646084408275
 31
0.0
 11
109.2095636754196
 21
210.1006891678412
 31
0.0
 11
109.0635531845927
 21
210.2327122490344
 31
0.0
 11
108.9067041596962
 21
210.3514978763472
 31
0.0
 11
108.8537269393188
 21
210.3872096849634
 31
0.0
 11
108.8000000000001
 21
210.4216230317792
 31
0.0
  0
ARC
  5
129
330
3F
100
AcDbEntity
  8
1
  6
Continuous
 62
     7
100
AcDbCircle
 10
203.008542581205
 20
199.8321710284621
 30
0.0
 40
6.000000000000008
100
AcDbArc
 50
134.9999999999989
 51
178.0519149934864
  0
ENDBLK
  5
41
330
3F
100
AcDbEntity
  8
0
100
AcDbBlockEnd
  0
BLOCK
  5
43
330
42
100
AcDbEntity
  8
0
100
AcDbBlockBegin
  2
14-39A
 70
     0
 71
     0
 10
-1357.066567210202
 20
407.4368107856866
 30
0.0
  3
14-39A
  1

  0
SPLINE
  5
12A
330
42
100
AcDbEntity
  8
0
  6
Continuous
 62
     7
100
AcDbSpline
210
0.0
220
0.0
230
1.0
 70
     8
 71
     3
 72
    69
 73
    65
 74
    63
 42
0.0000000001
 43
0.0000000001
 44
0.00000001
 40
0.0
 40
0.0
 40
0.0
 40
0.0
 40
0.2151531983575625
 40
0.4305944375922512
 40
0.8497456123264202
 40
1.269034481881915
 40
1.664950363450392
 40
2.061051382706873
 40
2.433871241862361
 40
2.806914107153224
 40
3.15985499010864
 40
3.51301628271525
 40
3.852418950877439
 40
4.191965019479254
 40
4.526600438456815
 40
4.861235857434428
 40
5.200781926036308
 40
5.540184594198451
 40
5.893345886805036
 40
6.246286769760329
 40
6.619329635051132
 40
6.992149494206643
 40
7.388250513463143
 40
7.784166395031604
 40
8.203455264587081
 40
8.622606439321253
 40
9.062602405171324
 40
9.502503939991176
 40
9.958700621117348
 40
10.41483906769976
 40
10.88130907406872
 40
11.34775142459489
 40
11.81772917776498
 40
12.28770693093508
 40
12.75414928146124
 40
13.22061928783022
 40
13.67675773441261
 40
14.13295441553877
 40
14.57285595035861
 40
15.01285191620862
 40
15.43200309094273
 40
15.85129196049827
 40
16.24720784206677
 40
16.64330886132322
 40
17.01612872047868
 40
17.38917158576938
 40
17.74211246872466
 40
18.0952737613313
 40
18.43467642949351
 40
18.77422249809542
 40
19.10885791707298
 40
19.44349333605057
 40
19.78303940465241
 40
20.12244207281456
 40
20.47560336542117
 40
20.82854424837654
 40
21.20158711366737
 40
21.57440697282291
 40
21.97050799207942
 40
22.36642387364787
 40
22.78571274320334
 40
23.20486391793752
 40
23.420305157166
 40
23.63545835552979
 40
23.63545835552979
 40
23.63545835552979
 40
23.63545835552979
 10
109.7
 20
204.2625400977626
 30
0.0
 10
109.7661047199597
 20
204.290371656704
 30
0.0
 10
109.8984026589655
 20
204.3460720346725
 30
0.0
 10
110.1546336641358
 20
204.4669759890859
 30
0.0
 10
110.4641169458037
 20
204.6338889327562
 30
0.0
 10
110.8104297789351
 20
204.8568929668874
 30
0.0
 10
111.1312196089542
 20
205.1028519120663
 30
0.0
 10
111.4180288162217
 20
205.3653807397472
 30
0.0
 10
111.6742786024897
 20
205.647624704152
 30
0.0
 10
111.8927733812203
 20
205.9423929021255
 30
0.0
 10
112.0762404157479
 20
206.2525968862368
 30
0.0
 10
112.2191802172347
 20
206.5712713472907
 30
0.0
 10
112.323579971075
 20
206.899923889468
 30
0.0
 10
112.3856217052438
 20
207.2329018535965
 30
0.0
 10
112.407136782557
 20
207.5693512504989
 30
0.0
 10
112.3856217052985
 20
207.9058006475325
 30
0.0
 10
112.3235799708533
 20
208.2387786112622
 30
0.0
 10
112.2191802180796
 20
208.5674311549258
 30
0.0
 10
112.0762404124519
 20
208.8861056102238
 30
0.0
 10
111.8927733937925
 20
209.1963096163874
 30
0.0
 10
111.674278552601
 20
209.4910777275597
 30
0.0
 10
111.4180290068446
 20
209.7733220261997
 30
0.0
 10
111.1312188481479
 20
210.0358495316945
 30
0.0
 10
110.8104326817833
 20
210.2818135681965
 30
0.0
 10
110.4641054009985
 20
210.5047975246506
 30
0.0
 10
110.0887347071658
 20
210.7073523198592
 30
0.0
 10
109.6931834454128
 20
210.8844837331161
 30
0.0
 10
109.2746754799078
 20
211.0377941989843
 30
0.0
 10
108.8415834224319
 20
211.1639217871971
 30
0.0
 10
108.3926024167191
 20
211.2635987369483
 30
0.0
 10
107.9348015236832
 20
211.3349446361718
 30
0.0
 10
107.4688766561276
 20
211.3781816653679
 30
0.0
 10
107.0
 20
211.3925189912932
 30
0.0
 10
106.5311233438724
 20
211.3781816653678
 30
0.0
 10
106.0651984763168
 20
211.3349446361718
 30
0.0
 10
105.6073975832809
 20
211.2635987369483
 30
0.0
 10
105.1584165775681
 20
211.1639217871971
 30
0.0
 10
104.7253245200923
 20
211.0377941989844
 30
0.0
 10
104.3068165545872
 20
210.884483733116
 30
0.0
 10
103.9112652928344
 20
210.7073523198593
 30
0.0
 10
103.5358945990016
 20
210.5047975246505
 30
0.0
 10
103.1895673182168
 20
210.2818135681965
 30
0.0
 10
102.8687811518522
 20
210.0358495316946
 30
0.0
 10
102.5819709931556
 20
209.7733220261997
 30
0.0
 10
102.3257214473992
 20
209.4910777275597
 30
0.0
 10
102.1072266062077
 20
209.1963096163875
 30
0.0
 10
101.9237595875484
 20
208.8861056102238
 30
0.0
 10
101.7808197819206
 20
208.567431154926
 30
0.0
 10
101.6764200291469
 20
208.2387786112622
 30
0.0
 10
101.6143782947017
 20
207.9058006475325
 30
0.0
 10
101.5928632174431
 20
207.569351250499
 30
0.0
 10
101.6143782947563
 20
207.2329018535964
 30
0.0
 10
101.676420028925
 20
206.899923889468
 30
0.0
 10
101.7808197827654
 20
206.5712713472906
 30
0.0
 10
101.9237595842521
 20
206.2525968862369
 30
0.0
 10
102.1072266187799
 20
205.9423929021256
 30
0.0
 10
102.3257213975105
 20
205.6476247041522
 30
0.0
 10
102.5819711837785
 20
205.3653807397473
 30
0.0
 10
102.8687803910459
 20
205.1028519120662
 30
0.0
 10
103.189570221065
 20
204.8568929668874
 30
0.0
 10
103.5358830541963
 20
204.6338889327562
 30
0.0
 10
103.8453663358624
 20
204.4669759890866
 30
0.0
 10
104.1015973410327
 20
204.3460720346737
 30
0.0
 10
104.2338952800386
 20
204.2903716567049
 30
0.0
 10
104.3000000000001
 20
204.2625400977626
 30
0.0
 11
109.7
 21
204.2625400977626
 31
0.0
 11
109.8977006953565
 21
204.3474243355165
 31
0.0
 11
110.0926310707855
 21
204.4391689609616
 31
0.0
 11
110.4613317491678
 21
204.6385367543523
 31
0.0
 11
110.8135946972064
 21
204.8659438157473
 31
0.0
 11
111.1274880148832
 21
205.1072327926941
 31
0.0
 11
111.4193070873386
 21
205.3750716367912
 31
0.0
 11
111.6694679407265
 21
205.6515028123358
 31
0.0
 11
111.8912430776438
 21
205.9514640898196
 31
0.0
 11
112.070329543593
 21
206.2555944970057
 31
0.0
 11
112.2146561197813
 21
206.5779184613666
 31
0.0
 11
112.3167887677446
 21
206.9015897350002
 31
0.0
 11
112.3791018746777
 21
207.2353690174718
 31
0.0
 11
112.4
 21
207.5693512505207
 31
0.0
 11
112.3791018746778
 21
207.9033334835696
 31
0.0
 11
112.3167887677446
 21
208.2371127660413
 31
0.0
 11
112.2146561197813
 21
208.5607840396749
 31
0.0
 11
112.070329543593
 21
208.8831080040358
 31
0.0
 11
111.8912430776438
 21
209.1872384112217
 31
0.0
 11
111.6694679407264
 21
209.4871996887054
 31
0.0
 11
111.4193070873386
 21
209.7636308642501
 31
0.0
 11
111.1274880148832
 21
210.0314697083472
 31
0.0
 11
110.8135946972065
 21
210.272758685294
 31
0.0
 11
110.4613317491679
 21
210.5001657466891
 31
0.0
 11
110.0926310707857
 21
210.6995335400798
 31
0.0
 11
109.6912318443445
 21
210.8797420609016
 31
0.0
 11
109.2782580746636
 21
211.0312875190731
 31
0.0
 11
108.8403438648877
 21
211.1591411727043
 31
0.0
 11
108.3950764164112
 21
211.2581319893385
 31
0.0
 11
107.9342000576466
 21
211.3301545467336
 31
0.0
 11
107.4697556418703
 21
211.373280536792
 31
0.0
 11
107.0
 21
211.3877278689291
 31
0.0
 11
106.5302443581298
 21
211.373280536792
 31
0.0
 11
106.0657999423534
 21
211.3301545467336
 31
0.0
 11
105.6049235835887
 21
211.2581319893385
 31
0.0
 11
105.1596561351123
 21
211.1591411727043
 31
0.0
 11
104.7217419253364
 21
211.0312875190731
 31
0.0
 11
104.3087681556555
 21
210.8797420609016
 31
0.0
 11
103.9073689292144
 21
210.6995335400798
 31
0.0
 11
103.5386682508322
 21
210.5001657466891
 31
0.0
 11
103.1864053027936
 21
210.272758685294
 31
0.0
 11
102.8725119851169
 21
210.0314697083472
 31
0.0
 11
102.5806929126615
 21
209.7636308642501
 31
0.0
 11
102.3305320592738
 21
209.4871996887054
 31
0.0
 11
102.1087569223565
 21
209.1872384112218
 31
0.0
 11
101.9296704564073
 21
208.8831080040359
 31
0.0
 11
101.7853438802189
 21
208.560784039675
 31
0.0
 11
101.6832112322555
 21
208.2371127660413
 31
0.0
 11
101.6208981253224
 21
207.9033334835696
 31
0.0
 11
101.6000000000001
 21
207.5693512505207
 31
0.0
 11
101.6208981253224
 21
207.2353690174718
 31
0.0
 11
101.6832112322555
 21
206.9015897350002
 31
0.0
 11
101.7853438802187
 21
206.5779184613666
 31
0.0
 11
101.9296704564071
 21
206.2555944970057
 31
0.0
 11
102.1087569223564
 21
205.9514640898197
 31
0.0
 11
102.3305320592737
 21
205.6515028123359
 31
0.0
 11
102.5806929126616
 21
205.3750716367912
 31
0.0
 11
102.872511985117
 21
205.1072327926941
 31
0.0
 11
103.1864053027937
 21
204.8659438157473
 31
0.0
 11
103.5386682508323
 21
204.6385367543523
 31
0.0
 11
103.9073689292146
 21
204.4391689609616
 31
0.0
 11
104.102299304638
 21
204.3474243355192
 31
0.0
 11
104.3000000000001
 21
204.2625400977626
 31
0.0
  0
SPLINE
  5
12B
330
42
100
AcDbEntity
  8
0
  6
Continuous
 62
     7
100
AcDbSpline
210
0.0
220
0.0
230
1.0
 70
     8
 71
     3
 72
    23
 73
    19
 74
    17
 42
0.0000000001
 43
0.0000000001
 44
0.00000001
 40
0.0
 40
0.0
 40
0.0
 40
0.0
 40
0.1446171932464253
 40
0.2897243577337024
 40
0.5348485069618819
 40
0.7800762231742342
 40
1.021757359102333
 40
1.263438495030517
 40
1.50866621124295
 40
1.753790360471117
 40
2.008851294020265
 40
2.263753042821312
 40
2.533172889975733
 40
2.802431677143522
 40
3.088504635495418
 40
3.374443883294908
 40
3.407406827382021
 40
3.440349494927441
 40
3.440349494927441
 40
3.440349494927441
 40
3.440349494927441
 10
103.3541903332283
 20
210.38589926343
 30
0.0
 10
103.3322168392923
 20
210.3429747506709
 30
0.0
 10
103.2881954039785
 20
210.2569802944726
 30
0.0
 10
103.2195740266215
 20
210.0922616229541
 30
0.0
 10
103.155158543476
 20
209.8899536235244
 30
0.0
 10
103.1103932096193
 20
209.6494572176478
 30
0.0
 10
103.0948432925944
 20
209.406469243186
 30
0.0
 10
103.1103849655088
 20
209.1634771351415
 30
0.0
 10
103.1551920793619
 20
208.922993310504
 30
0.0
 10
103.2305920775725
 20
208.6856329855916
 30
0.0
 10
103.3338264947204
 20
208.4554795803298
 30
0.0
 10
103.4663297998225
 20
208.2314420070792
 30
0.0
 10
103.6241342610813
 20
208.0185592092281
 30
0.0
 10
103.8091932274964
 20
207.8146957690881
 30
0.0
 10
104.0163740543243
 20
207.6251730138588
 30
0.0
 10
104.1764807220312
 20
207.5021144044242
 30
0.0
 10
104.2727614360716
 20
207.4351445317502
 30
0.0
 10
104.2909223411538
 20
207.4227830330242
 30
0.0
 10
104.3
 20
207.4166041852325
 30
0.0
 11
103.3541903332283
 21
210.38589926343
 31
0.0
 11
103.2899764719387
 21
210.2563202813351
 31
0.0
 11
103.233859469047
 21
210.1225033497756
 31
0.0
 11
103.1600970010734
 21
209.8887407632626
 31
0.0
 11
103.1150930905106
 21
209.6476779481442
 31
0.0
 11
103.1
 21
209.4064685576091
 31
0.0
 11
103.1150930905106
 21
209.1652591670738
 31
0.0
 11
103.1600970010734
 21
208.9241963519554
 31
0.0
 11
103.2338594690469
 21
208.6904337654423
 31
0.0
 11
103.3380953296274
 21
208.4576442356262
 31
0.0
 11
103.4674355550352
 21
208.2379944971031
 31
0.0
 11
103.6276064872533
 21
208.0213557966982
 31
0.0
 11
103.8082782147
 21
207.8217110588049
 31
0.0
 11
104.0190364336956
 21
207.6282718936237
 31
0.0
 11
104.2457371631288
 21
207.4540076324954
 31
0.0
 11
104.2727985390874
 21
207.4351864313084
 31
0.0
 11
104.3
 21
207.4166041852325
 31
0.0
  0
SPLINE
  5
12C
330
42
100
AcDbEntity
  8
0
  6
Continuous
 62
     7
100
AcDbSpline
210
0.0
220
0.0
230
1.0
 70
     8
 71
     3
 72
    23
 73
    19
 74
    17
 42
0.0000000001
 43
0.0000000001
 44
0.00000001
 40
0.0
 40
0.0
 40
0.0
 40
0.0
 40
0.032942667550477
 40
0.0659056116325557
 40
0.3518448594319207
 40
0.637917817783737
 40
0.9071766049515395
 40
1.176596452106008
 40
1.431498200907116
 40
1.68655913445629
 40
1.931683283684478
 40
2.176910999896894
 40
2.418592135825071
 40
2.660273271753201
 40
2.905500987965623
 40
3.150625137193826
 40
3.295732301660426
 40
3.440349494886204
 40
3.440349494886204
 40
3.440349494886204
 40
3.440349494886204
 10
109.7000000000002
 20
207.4166041852325
 30
0.0
 10
109.7090776588478
 20
207.4227830330251
 30
0.0
 10
109.72723856393
 20
207.435144531751
 30
0.0
 10
109.8235192779704
 20
207.5021144044254
 30
0.0
 10
109.9836259456758
 20
207.6251730138586
 30
0.0
 10
110.1908067725037
 20
207.814695769088
 30
0.0
 10
110.3758657389187
 20
208.018559209228
 30
0.0
 10
110.5336702001775
 20
208.2314420070792
 30
0.0
 10
110.6661735052797
 20
208.4554795803298
 30
0.0
 10
110.7694079224278
 20
208.6856329855915
 30
0.0
 10
110.8448079206384
 20
208.922993310504
 30
0.0
 10
110.8896150344915
 20
209.1634771351415
 30
0.0
 10
110.9051567074058
 20
209.4064692431859
 30
0.0
 10
110.8896067903808
 20
209.6494572176478
 30
0.0
 10
110.844841456524
 20
209.8899536235244
 30
0.0
 10
110.7804259733807
 20
210.0922616229477
 30
0.0
 10
110.7118045960297
 20
210.2569802944537
 30
0.0
 10
110.6677831607235
 20
210.3429747506404
 30
0.0
 10
110.6458096667914
 20
210.3858992633937
 30
0.0
 11
109.7000000000002
 21
207.4166041852325
 31
0.0
 11
109.727201460917
 21
207.4351864313113
 31
0.0
 11
109.7542628368715
 21
207.4540076324954
 31
0.0
 11
109.9809635663045
 21
207.6282718936236
 31
0.0
 11
110.1917217853001
 21
207.8217110588048
 31
0.0
 11
110.3723935127468
 21
208.0213557966981
 31
0.0
 11
110.5325644449649
 21
208.237994497103
 31
0.0
 11
110.6619046703727
 21
208.4576442356262
 31
0.0
 11
110.7661405309534
 21
208.6904337654423
 31
0.0
 11
110.839902998927
 21
208.9241963519554
 31
0.0
 11
110.8849069094897
 21
209.1652591670738
 31
0.0
 11
110.9000000000001
 21
209.406468557609
 31
0.0
 11
110.8849069094895
 21
209.6476779481442
 31
0.0
 11
110.8399029989266
 21
209.8887407632626
 31
0.0
 11
110.7661405309531
 21
210.1225033497757
 31
0.0
 11
110.71002352807
 21
210.2563202813164
 31
0.0
 11
110.6458096667914
 21
210.3858992633937
 31
0.0
  0
ENDBLK
  5
44
330
42
100
AcDbEntity
  8
0
100
AcDbBlockEnd
  0
BLOCK
  5
46
330
45
100
AcDbEntity
  8
0
100
AcDbBlockBegin
  2
14-34
 70
     0
 71
     0
 10
641.3558091772675
 20
203.6019065856463
 30
0.0
  3
14-34
  1

  0
LINE
  5
12D
330
45
100
AcDbEntity
  8
1
  6
Continuous
 62
     7
100
AcDbLine
 10
223.017499656504
 20
242.4703066646522
 30
0.0
 11
234.3305673516729
 21
231.1565981656672
 31
0.0
  0
LINE
  5
12E
330
45
100
AcDbEntity
  8
1
  6
Continuous
 62
     7
100
AcDbLine
 10
222.3097520715021
 20
242.4703066646522
 30
0.0
 11
234.3305673516729
 21
230.4494913844806
 31
0.0
  0
LINE
  5
12F
330
45
100
AcDbEntity
  8
1
  6
Continuous
 62
     7
100
AcDbLine
 10
251.652897822009
 20
254.2926371349881
 30
0.0
 11
251.652897822009
 21
237.2926371349881
 31
0.0
  0
LINE
  5
130
330
45
100
AcDbEntity
  8
1
  6
Continuous
 62
     7
100
AcDbLine
 10
251.652897822009
 20
237.2926371349881
 30
0.0
 11
252.652897822009
 21
237.2926371349881
 31
0.0
  0
LINE
  5
131
330
45
100
AcDbEntity
  8
1
  6
Continuous
 62
     7
100
AcDbLine
 10
251.652897822009
 20
254.2926371349881
 30
0.0
 11
252.652897822009
 21
254.2926371349881
 31
0.0
  0
LINE
  5
132
330
45
100
AcDbEntity
  8
1
  6
Continuous
 62
     7
100
AcDbLine
 10
251.652897822009
 20
254.2926371349881
 30
0.0
 11
251.152897822009
 21
253.7926371349881
 31
0.0
  0
LINE
  5
133
330
45
100
AcDbEntity
  8
1
  6
Continuous
 62
     7
100
AcDbLine
 10
251.152897822009
 20
253.7926371349881
 30
0.0
 11
250.0793046932051
 21
253.7926371349881
 31
0.0
  0
LINE
  5
134
330
45
100
AcDbEntity
  8
1
  6
Continuous
 62
     7
100
AcDbLine
 10
251.152897822009
 20
237.7926371349881
 30
0.0
 11
251.652897822009
 21
237.2926371349881
 31
0.0
  0
LINE
  5
135
330
45
100
AcDbEntity
  8
1
  6
Continuous
 62
     7
100
AcDbLine
 10
213.9960381871413
 20
233.449485999105
 30
0.0
 11
219.6528930275483
 21
227.7926323405276
 31
0.0
  0
LINE
  5
136
330
45
100
AcDbEntity
  8
1
  6
Continuous
 62
     7
100
AcDbLine
 10
222.3097520715021
 20
242.4703066646522
 30
0.0
 11
213.9960381502092
 21
234.1565927433593
 31
0.0
  0
LINE
  5
137
330
45
100
AcDbEntity
  8
1
  6
Continuous
 62
     7
100
AcDbLine
 10
234.3305673516729
 20
230.4494913844806
 30
0.0
 11
226.0168959218329
 21
222.1358199546404
 31
0.0
  0
LINE
  5
138
330
45
100
AcDbEntity
  8
1
  6
Continuous
 62
     7
100
AcDbLine
 10
219.6527549303357
 20
227.7924942433151
 30
0.0
 11
225.3097785548742
 21
222.1358093685514
 31
0.0
  0
LINE
  5
139
330
45
100
AcDbEntity
  8
1
  6
Continuous
 62
     7
100
AcDbLine
 10
234.3305673516729
 20
231.1565981656672
 30
0.0
 11
234.5229555070977
 21
231.3489863210919
 31
0.0
  0
LINE
  5
13A
330
45
100
AcDbEntity
  8
1
  6
Continuous
 62
     7
100
AcDbLine
 10
250.0793046932018
 20
237.7926371349881
 30
0.0
 11
251.152897822009
 21
237.7926371349881
 31
0.0
  0
LINE
  5
13B
330
45
100
AcDbEntity
  8
1
  6
Continuous
 62
     7
100
AcDbLine
 10
223.3604275280677
 20
242.8130294902873
 30
0.0
 11
223.017499656504
 21
242.4703066646522
 31
0.0
  0
LINE
  5
13C
330
45
100
AcDbEntity
  8
1
  6
Continuous
 62
     7
100
AcDbLine
 10
213.9960381502092
 20
234.1565927433593
 30
0.0
 11
213.9960381871413
 21
233.449485999105
 31
0.0
  0
LINE
  5
13D
330
45
100
AcDbEntity
  8
1
  6
Continuous
 62
     7
100
AcDbLine
 10
225.3097785548742
 20
222.1358093685514
 30
0.0
 11
226.0168959218329
 21
222.1358199546404
 31
0.0
  0
LINE
  5
13E
330
45
100
AcDbEntity
  8
1
  6
Continuous
 62
     7
100
AcDbLine
 10
234.3305673516729
 20
231.1565981656672
 30
0.0
 11
234.3305673516729
 21
230.4494913844806
 31
0.0
  0
LINE
  5
13F
330
45
100
AcDbEntity
  8
1
  6
Continuous
 62
     7
100
AcDbLine
 10
223.017499656504
 20
242.4703066646522
 30
0.0
 11
222.3097520715021
 21
242.4703066646522
 31
0.0
  0
LINE
  5
140
330
45
100
AcDbEntity
  8
1
  6
Continuous
 62
     7
100
AcDbLine
 10
114.9999999999996
 20
367.5088941708435
 30
0.0
 11
114.9999999999996
 21
391.4873386810706
 31
0.0
  0
LINE
  5
141
330
45
100
AcDbEntity
  8
1
  6
Continuous
 62
     7
100
AcDbLine
 10
98.99999999999955
 20
367.508474378959
 30
0.0
 11
98.99999999999955
 21
391.4873386810706
 31
0.0
  0
LINE
  5
142
330
45
100
AcDbEntity
  8
1
  6
Continuous
 62
     7
100
AcDbLine
 10
98.49999999999955
 20
361.1424367017763
 30
0.0
 11
98.49999999999955
 21
367.1538562771906
 31
0.0
  0
LINE
  5
143
330
45
100
AcDbEntity
  8
1
  6
Continuous
 62
     7
100
AcDbLine
 10
115.4999999999996
 20
361.1424367017763
 30
0.0
 11
115.4999999999996
 21
367.1538562771906
 31
0.0
  0
LINE
  5
144
330
45
100
AcDbEntity
  8
1
  6
Continuous
 62
     7
100
AcDbLine
 10
99.00000000000051
 20
245.792637134988
 30
0.0
 11
99.00000000000091
 21
237.9776618629192
 31
0.0
  0
LINE
  5
145
330
45
100
AcDbEntity
  8
1
  6
Continuous
 62
     7
100
AcDbLine
 10
115.0
 20
245.792637134988
 30
0.0
 11
115.0
 21
237.9776618629192
 31
0.0
  0
ARC
  5
146
330
45
100
AcDbEntity
  8
1
  6
Continuous
 62
     7
100
AcDbCircle
 10
250.0793046932018
 20
215.7926371349881
 30
0.0
 40
22.0
100
AcDbArc
 50
90.0
 51
135.0000000000006
  0
ARC
  5
147
330
45
100
AcDbEntity
  8
1
  6
Continuous
 62
     7
100
AcDbCircle
 10
107.0
 20
245.792637134988
 30
0.0
 40
8.499999999999574
100
AcDbArc
 50
89.99999999999666
 51
-160.2500772043543
  0
ARC
  5
148
330
45
100
AcDbEntity
  8
1
  6
Continuous
 62
     7
100
AcDbCircle
 10
107.0
 20
245.792637134988
 30
0.0
 40
8.500000000000069
100
AcDbArc
 50
-19.74992279564388
 51
89.99999999999666
  0
ARC
  5
149
330
45
100
AcDbEntity
  8
1
  6
Continuous
 62
     7
100
AcDbCircle
 10
107.0
 20
245.792637134988
 30
0.0
 40
7.999999999999574
100
AcDbArc
 50
89.99999999999643
 51
180.0
  0
ARC
  5
14A
330
45
100
AcDbEntity
  8
1
  6
Continuous
 62
     7
100
AcDbCircle
 10
107.0
 20
245.792637134988
 30
0.0
 40
8.0
100
AcDbArc
 50
0.0
 51
89.99999999999643
  0
ARC
  5
14B
330
45
100
AcDbEntity
  8
1
  6
PHANTOM
 62
     4
100
AcDbCircle
 10
250.0791989660338
 20
215.7928923829513
 30
0.0
 40
29.99974475222311
100
AcDbArc
 50
89.99979807426507
 51
134.9997980742651
  0
SPLINE
  5
14C
330
45
100
AcDbEntity
  8
1
  6
Continuous
 62
     7
100
AcDbSpline
210
0.0
220
0.0
230
1.0
 70
     8
 71
     3
 72
    55
 73
    51
 74
    49
 42
0.0000000001
 43
0.0000000001
 44
0.00000001
 40
0.0
 40
0.0
 40
0.0
 40
0.0
 40
0.2568096014509693
 40
0.5144817888035497
 40
1.048665367743789
 40
1.583074801384699
 40
2.109751675497521
 40
2.636428549610466
 40
3.170837983251623
 40
3.705021562192117
 40
4.260869891114106
 40
4.816371107269057
 40
5.403524858050056
 40
5.990327449470592
 40
6.613787671560571
 40
7.236956399031517
 40
7.896926593025885
 40
8.556680011253937
 40
9.249253633676402
 40
9.941678602274815
 40
10.65976003233576
 40
11.37774979382916
 40
12.11200631328907
 40
12.8462193001878
 40
13.58599866057238
 40
14.32577802095686
 40
15.05999100785541
 40
15.79424752731525
 40
16.51223728880874
 40
17.23031871886976
 40
17.92274368746822
 40
18.61531730989066
 40
19.27507072811877
 40
19.9350409221136
 40
20.55820964958531
 40
21.18166987167536
 40
21.76847246309578
 40
22.3556262138769
 40
22.91112743003152
 40
23.46697575895327
 40
24.00115933789349
 40
24.5355687715343
 40
24.79954848996388
 40
25.06250140751228
 40
25.32545432505636
 40
25.58943404348373
 40
26.12384347712475
 40
26.65802705606495
 40
26.92961775221333
 40
27.20029061086956
 40
27.20029061086956
 40
27.20029061086956
 40
27.20029061086956
 10
98.99999999999955
 20
369.1845176840229
 30
0.0
 10
98.96251555862006
 20
369.1075360922305
 30
0.0
 10
98.88742077110321
 20
368.9533143387345
 30
0.0
 10
98.75459656036178
 20
368.6297723940811
 30
0.0
 10
98.62024533804674
 20
368.2074584774352
 30
0.0
 10
98.52264517464857
 20
367.6833893774245
 30
0.0
 10
98.48876273810264
 20
367.1538562954779
 30
0.0
 10
98.52263383918907
 20
366.6243231032696
 30
0.0
 10
98.62029144948244
 20
366.1002543388608
 30
0.0
 10
98.78462621813556
 20
365.5829929013909
 30
0.0
 10
99.00962478235147
 20
365.0814376981554
 30
0.0
 10
99.29841712270752
 20
364.5932130076417
 30
0.0
 10
99.64234448241537
 20
364.12928477692
 30
0.0
 10
100.0457014803186
 20
363.6850660898861
 30
0.0
 10
100.4971614474778
 20
363.2718811498851
 30
0.0
 10
101.002103330611
 20
362.8847636395337
 30
0.0
 10
101.5472471038901
 20
362.5338153409724
 30
0.0
 10
102.1381086119387
 20
362.215018882802
 30
0.0
 10
102.7607343410163
 20
361.9362365723981
 30
0.0
 10
103.4194967422063
 20
361.6949447369223
 30
0.0
 10
104.101214463165
 20
361.4964358814301
 30
0.0
 10
104.8079433878761
 20
361.3395566349525
 30
0.0
 10
105.528554778967
 20
361.2272671941901
 30
0.0
 10
106.2619543385658
 20
361.1592174200532
 30
0.0
 10
106.9999999999997
 20
361.136652316635
 30
0.0
 10
107.7380456614334
 20
361.1592174200532
 30
0.0
 10
108.4714452210326
 20
361.2272671941898
 30
0.0
 10
109.1920566121218
 20
361.3395566349545
 30
0.0
 10
109.898785536839
 20
361.4964358814227
 30
0.0
 10
110.5805032577756
 20
361.6949447369487
 30
0.0
 10
111.2392656590451
 20
361.9362365723031
 30
0.0
 10
111.861891387833
 20
362.2150188831499
 30
0.0
 10
112.4527528969143
 20
362.533815339742
 30
0.0
 10
112.9978966664497
 20
362.8847636440272
 30
0.0
 10
113.5028385628154
 20
363.2718811341509
 30
0.0
 10
113.9542984821294
 20
363.685066147292
 30
0.0
 10
114.3576556486391
 20
364.1292845765821
 30
0.0
 10
114.7015823980411
 20
364.5932137402609
 30
0.0
 10
114.9903768998924
 20
365.0814351265574
 30
0.0
 10
115.2153675912464
 20
365.5830023648139
 30
0.0
 10
115.3797306604307
 20
366.1002205400621
 30
0.0
 10
115.4612196446386
 20
366.5381227113738
 30
0.0
 10
115.4945167590015
 20
366.8905084516853
 30
0.0
 10
115.502735986542
 20
367.1538562384378
 30
0.0
 10
115.494517927403
 20
367.4172042580312
 30
0.0
 10
115.4612129449421
 20
367.7695890573123
 30
0.0
 10
115.3797857608171
 20
368.2074983819671
 30
0.0
 10
115.2439700445199
 20
368.634184875283
 30
0.0
 10
115.1072070988964
 20
368.9661579470763
 30
0.0
 10
115.0272821236396
 20
369.1283322788979
 30
0.0
 10
114.9873872766799
 20
369.2092821963429
 30
0.0
 11
98.99999999999955
 21
369.1845176840229
 31
0.0
 11
98.89002095785922
 21
368.9524491991153
 31
0.0
 11
98.79174591283658
 21
368.7142539605801
 31
0.0
 11
98.63098152748702
 21
368.2048357547682
 31
0.0
 11
98.53289543725117
 21
367.6795048479422
 31
0.0
 11
98.4999999999997
 21
367.1538562771905
 31
0.0
 11
98.53289543725131
 21
366.6282077064387
 31
0.0
 11
98.63098152748729
 21
366.1028767996125
 31
0.0
 11
98.79174591283697
 21
365.5934585938004
 31
0.0
 11
99.01892851165744
 21
365.0861564830631
 31
0.0
 11
99.30082287795851
 21
364.6074946322776
 31
0.0
 11
99.64991598201047
 21
364.1353892078653
 31
0.0
 11
100.043685662049
 21
363.7003228676593
 31
0.0
 11
100.5030331772459
 21
363.2787751137679
 31
0.0
 11
100.9971219309683
 21
362.899017867171
 31
0.0
 11
101.5516122144404
 21
362.5411056118681
 31
0.0
 11
102.1319717972221
 21
362.2273265055895
 31
0.0
 11
102.7638056392296
 21
361.9436996052971
 31
0.0
 11
103.4138546983332
 21
361.705186381561
 31
0.0
 11
104.1031651579582
 21
361.5039600650665
 31
0.0
 11
104.8040474142468
 21
361.3481609622797
 31
0.0
 11
105.5295012971839
 21
361.2348062089571
 31
0.0
 11
106.2605701715323
 21
361.1669312423659
 31
0.0
 11
106.9999999999997
 21
361.1441929305637
 31
0.0
 11
107.7394298284671
 21
361.1669312423659
 31
0.0
 11
108.4704987028153
 21
361.2348062089572
 31
0.0
 11
109.1959525857524
 21
361.3481609622796
 31
0.0
 11
109.896834842041
 21
361.5039600650665
 31
0.0
 11
110.5861453016661
 21
361.705186381561
 31
0.0
 11
111.2361943607698
 21
361.9436996052971
 31
0.0
 11
111.8680282027772
 21
362.2273265055895
 31
0.0
 11
112.448387785559
 21
362.5411056118682
 31
0.0
 11
113.0028780690314
 21
362.8990178671714
 31
0.0
 11
113.4969668227542
 21
363.2787751137689
 31
0.0
 11
113.9563143379513
 21
363.7003228676603
 31
0.0
 11
114.3500840179898
 21
364.1353892078661
 31
0.0
 11
114.6991771220417
 21
364.6074946322786
 31
0.0
 11
114.9810714883425
 21
365.0861564830639
 31
0.0
 11
115.2082540871628
 21
365.593458593801
 31
0.0
 11
115.3690184725123
 21
366.1028767996129
 31
0.0
 11
115.4671045627482
 21
366.6282077064388
 31
0.0
 11
115.4917761406869
 21
366.8910319918163
 31
0.0
 11
115.4999999999996
 21
367.1538562771957
 31
0.0
 11
115.4917761406867
 21
367.4166805625708
 31
0.0
 11
115.467104562748
 21
367.6795048479461
 31
0.0
 11
115.3690184725122
 21
368.2048357547722
 31
0.0
 11
115.2082540871627
 21
368.7142539605841
 31
0.0
 11
115.104323589379
 21
368.9651721900231
 31
0.0
 11
114.9873872766799
 21
369.2092821963429
 31
0.0
  0
SPLINE
  5
14D
330
45
100
AcDbEntity
  8
1
  6
Continuous
 62
     7
100
AcDbSpline
210
0.0
220
0.0
230
1.0
 70
     8
 71
     3
 72
    45
 73
    41
 74
    39
 42
0.0000000001
 43
0.0000000001
 44
0.00000001
 40
0.0
 40
0.0
 40
0.0
 40
0.0
 40
0.2474924358671437
 40
0.4959512406115197
 40
0.9989388272636224
 40
1.501713874925823
 40
2.02487752480893
 40
2.547714519577609
 40
3.100339728356091
 40
3.65263446420464
 40
4.239427901870331
 40
4.825947008620879
 40
5.447100354059558
 40
6.068049683000799
 40
6.719886567393435
 40
7.371583545135288
 40
8.047426250099386
 40
8.723182679468241
 40
9.414248057206462
 40
10.10527246317126
 40
10.80153549155798
 40
11.49779851994456
 40
12.18882292590922
 40
12.87988830364733
 40
13.55564473301625
 40
14.23148743798048
 40
14.88318441572247
 40
15.53502130011514
 40
16.15597062905639
 40
16.77712397449499
 40
17.36364308124556
 40
17.95043651891116
 40
18.50273125475986
 40
19.05535646353831
 40
19.57819345830695
 40
20.10135710819008
 40
20.6041321558523
 40
21.10711974250422
 40
21.35557854724934
 40
21.60307098311745
 40
21.60307098311745
 40
21.60307098311745
 40
21.60307098311745
 10
98.99999997770948
 20
367.5084743631559
 30
0.0
 10
99.00149464637963
 20
367.4259604278362
 30
0.0
 10
99.00448981986311
 20
367.2606103699802
 30
0.0
 10
99.03691113918073
 20
366.9289444729839
 30
0.0
 10
99.11308543464513
 20
366.5167912800777
 30
0.0
 10
99.26796535016815
 20
366.0299875860987
 30
0.0
 10
99.4796854163116
 20
365.557915681078
 30
0.0
 10
99.75151688907019
 20
365.0984067499044
 30
0.0
 10
100.0752203144293
 20
364.6617626270782
 30
0.0
 10
100.4548623079621
 20
364.2436721351951
 30
0.0
 10
100.8797757804592
 20
363.854791197266
 30
0.0
 10
101.3550246948446
 20
363.4904467935479
 30
0.0
 10
101.8681100618343
 20
363.1601456865438
 30
0.0
 10
102.4242228386781
 20
362.8601074538973
 30
0.0
 10
103.0102306957117
 20
362.5977313245679
 30
0.0
 10
103.6302483589815
 20
362.3706424897484
 30
0.0
 10
104.2718702282638
 20
362.1838216724073
 30
0.0
 10
104.9370308381667
 20
362.0361835744318
 30
0.0
 10
105.6152563552648
 20
361.9305139224193
 30
0.0
 10
106.3055166046653
 20
361.866483240541
 30
0.0
 10
107.0001485855916
 20
361.8452630565168
 30
0.0
 10
107.6947794520118
 20
361.8665196919928
 30
0.0
 10
108.38503634039
 20
361.9305865958533
 30
0.0
 10
109.0632563114378
 20
362.0362918382564
 30
0.0
 10
109.7284091729736
 20
362.1839648409714
 30
0.0
 10
110.3700212377706
 20
362.3708193277798
 30
0.0
 10
110.990026983482
 20
362.5979406983097
 30
0.0
 10
111.5760210712691
 20
362.8603475786033
 30
0.0
 10
112.1321181025524
 20
363.1604149933897
 30
0.0
 10
112.6451861359675
 20
363.4907430245867
 30
0.0
 10
113.1204159303753
 20
363.8551123669473
 30
0.0
 10
113.5453089953864
 20
364.244015602084
 30
0.0
 10
113.9249290486957
 20
364.6621260154702
 30
0.0
 10
114.2486095602891
 20
365.0987871243437
 30
0.0
 10
114.5204169195004
 20
365.5583103195025
 30
0.0
 10
114.7321122129252
 20
366.0303933340872
 30
0.0
 10
114.886966582743
 20
366.5172051548684
 30
0.0
 10
114.9631192499676
 20
366.9293623445269
 30
0.0
 10
114.9955231647537
 20
367.2610299424068
 30
0.0
 10
114.9985096613297
 20
367.4263801572103
 30
0.0
 10
114.9999999999996
 20
367.5088941708509
 30
0.0
 11
98.99999997770948
 21
367.5084743631559
 31
0.0
 11
99.00774655740722
 21
367.2611031920093
 31
0.0
 11
99.03097331545023
 21
367.0137324270313
 31
0.0
 11
99.12330246168511
 21
366.519291489121
 31
0.0
 11
99.27462269161543
 21
366.03982831372
 31
0.0
 11
99.48845370715637
 21
365.5623594651532
 31
0.0
 11
99.75377810095969
 21
365.1118469912397
 31
0.0
 11
100.0823473787446
 21
364.6675083241474
 31
0.0
 11
100.4529653461242
 21
364.2580308552905
 31
0.0
 11
100.8853022175056
 21
363.861279840003
 31
0.0
 11
101.350336895686
 21
363.5038621422416
 31
0.0
 11
101.8722184149906
 21
363.1670073391617
 31
0.0
 11
102.4184475420896
 21
362.8716908820833
 31
0.0
 11
103.0131212978529
 21
362.6047555939309
 31
0.0
 11
103.6249385813804
 21
362.3802816257856
 31
0.0
 11
104.2737060958487
 21
362.1909035013259
 31
0.0
 11
104.933364219072
 21
362.0442818375146
 31
0.0
 11
105.6161470632425
 21
361.9376097042513
 31
0.0
 11
106.3042138009711
 21
361.8737434841461
 31
0.0
 11
107.0001483993736
 21
361.8523603261799
 31
0.0
 11
107.6960818747159
 21
361.8737800039538
 31
0.0
 11
108.3841452600557
 21
361.9376823309348
 31
0.0
 11
109.0669225055632
 21
362.0443902937375
 31
0.0
 11
109.7265729337655
 21
362.1910465735414
 31
0.0
 11
110.3753305095415
 21
362.3804587424395
 31
0.0
 11
110.9871360127395
 21
362.6049648159758
 31
0.0
 11
111.5817957599982
 21
362.8719313098378
 31
0.0
 11
112.1280093893299
 21
363.1672764304083
 31
0.0
 11
112.6498732311362
 21
363.5041586192589
 31
0.0
 11
113.1148891528389
 21
363.8616007196703
 31
0.0
 11
113.5472052037339
 21
364.2583744217045
 31
0.0
 11
113.9178016828794
 21
364.6678713385319
 31
0.0
 11
114.246347643113
 21
365.1122272470012
 31
0.0
 11
114.5116483954758
 21
365.562753643447
 31
0.0
 11
114.7254543550854
 21
366.0402337123446
 31
0.0
 11
114.8767494245163
 21
366.51970482776
 31
0.0
 11
114.9690526243604
 21
367.0141506100501
 31
0.0
 11
114.9922664013528
 21
367.2615225935347
 31
0.0
 11
114.9999999999996
 21
367.5088941708509
 31
0.0
  0
SPLINE
  5
14E
330
45
100
AcDbEntity
  8
1
  6
Continuous
 62
     7
100
AcDbSpline
210
0.0
220
0.0
230
1.0
 70
     8
 71
     3
 72
    45
 73
    41
 74
    39
 42
0.0000000001
 43
0.0000000001
 44
0.00000001
 40
0.0
 40
0.0
 40
0.0
 40
0.0
 40
1.989721192215632
 40
2.828528549626958
 40
3.362919461197368
 40
3.897084478189085
 40
4.452916561285061
 40
5.008401479678703
 40
5.595542116795833
 40
6.182331554867113
 40
6.805782060107215
 40
7.4289410482918
 40
8.088904725213217
 40
8.748651616112426
 40
9.441221421175067
 40
10.13364256866998
 40
10.85172220248942
 40
11.56971016681124
 40
12.30396613457985
 40
13.03817856972289
 40
13.77795779814446
 40
14.51773702656607
 40
15.25194946170917
 40
15.98620542947776
 40
16.70419339379959
 40
17.42227302761908
 40
18.11469417511407
 40
18.80726398017659
 40
19.46701087107567
 40
20.12697454799708
 40
20.75013353618174
 40
21.37358404142177
 40
21.96037347949313
 40
22.54751411661026
 40
23.10299903500391
 40
23.6588311180999
 40
24.19299613509167
 40
24.72738704666202
 40
25.56619440407084
 40
27.55591559628374
 40
27.55591559628374
 40
27.55591559628374
 40
27.55591559628374
 10
98.49999999999955
 20
361.1424367017763
 30
0.0
 10
98.50671329589872
 20
360.4799534552594
 30
0.0
 10
98.5162567179557
 20
359.5381869485984
 30
0.0
 10
98.49897303013252
 20
358.4130767930266
 30
0.0
 10
98.62127288745525
 20
357.7863258552054
 30
0.0
 10
98.78435222956641
 20
357.269118532621
 30
0.0
 10
99.00970041190337
 20
356.7675722472528
 30
0.0
 10
99.29839732725803
 20
356.2793682238132
 30
0.0
 10
99.64235186192897
 20
355.8154569606132
 30
0.0
 10
100.0457017494263
 20
355.3712550450675
 30
0.0
 10
100.4971636984439
 20
354.9580860174626
 30
0.0
 10
101.0021052046088
 20
354.5709830748256
 30
0.0
 10
101.5472488352852
 20
354.2200483739409
 30
0.0
 10
102.1381103672679
 20
353.9012639546926
 30
0.0
 10
102.7607357289347
 20
353.6224924295689
 30
0.0
 10
103.4194980851071
 20
353.3812097279688
 30
0.0
 10
104.1012154263801
 20
353.1827085290834
 30
0.0
 10
104.8079442188956
 20
353.0258352285545
 30
0.0
 10
105.528555269544
 20
352.9135501103685
 30
0.0
 10
106.261954618934
 20
352.8455029112942
 30
0.0
 10
106.9999999999996
 20
352.8229386880319
 30
0.0
 10
107.7380453810654
 20
352.8455029112945
 30
0.0
 10
108.4714447304553
 20
352.9135501103684
 30
0.0
 10
109.1920557811039
 20
353.0258352285544
 30
0.0
 10
109.8987845736193
 20
353.1827085290834
 30
0.0
 10
110.5805019148923
 20
353.3812097279688
 30
0.0
 10
111.2392642710647
 20
353.6224924295689
 30
0.0
 10
111.8618896327314
 20
353.9012639546926
 30
0.0
 10
112.4527511647141
 20
354.2200483739409
 30
0.0
 10
112.9978947953904
 20
354.5709830748257
 30
0.0
 10
113.5028363015554
 20
354.9580860174626
 30
0.0
 10
113.954298250573
 20
355.3712550450675
 30
0.0
 10
114.3576481380703
 20
355.8154569606132
 30
0.0
 10
114.7016026727413
 20
356.2793682238131
 30
0.0
 10
114.9902995880959
 20
356.7675722472527
 30
0.0
 10
115.2156477704329
 20
357.269118532621
 30
0.0
 10
115.3787271125441
 20
357.7863258552056
 30
0.0
 10
115.5010269698666
 20
358.4130767930255
 30
0.0
 10
115.4837432820434
 20
359.5381869485959
 30
0.0
 10
115.4932867041004
 20
360.4799534552552
 30
0.0
 10
115.4999999999996
 20
361.1424367017711
 30
0.0
 11
98.49999999999955
 21
361.1424367017763
 31
0.0
 11
98.50822387746584
 21
359.1527325050196
 31
0.0
 11
98.53289550986423
 21
358.3142880564112
 31
0.0
 11
98.63098179499494
 21
357.7889760281477
 31
0.0
 11
98.79174619003676
 21
357.2795772897663
 31
0.0
 11
99.01892935676393
 21
356.7722932338818
 31
0.0
 11
99.30082342146645
 21
356.2936501196011
 31
0.0
 11
99.64991731535605
 21
355.8215615887054
 31
0.0
 11
100.0436863801254
 21
355.3865124325602
 31
0.0
 11
100.5030347057272
 21
354.9649799329222
 31
0.0
 11
100.9971226790377
 21
354.5852376529676
 31
0.0
 11
101.5516136611857
 21
354.2273384973775
 31
0.0
 11
102.1319724586106
 21
353.9135716630836
 31
0.0
 11
102.7638068228005
 21
353.6299552476328
 31
0.0
 11
103.4138552027966
 21
353.391451266193
 31
0.0
 11
104.1031659816404
 21
353.1902324532654
 31
0.0
 11
104.8040477266118
 21
353.0344393325031
 31
0.0
 11
105.5295017170026
 21
352.9210888405331
 31
0.0
 11
106.2605702769615
 21
352.8532164561756
 31
0.0
 11
106.9999999999996
 21
352.8304790092709
 31
0.0
 11
107.7394297230378
 21
352.8532164561757
 31
0.0
 11
108.4704982829967
 21
352.9210888405331
 31
0.0
 11
109.1959522733875
 21
353.0344393325031
 31
0.0
 11
109.8968340183589
 21
353.1902324532654
 31
0.0
 11
110.5861447972028
 21
353.391451266193
 31
0.0
 11
111.236193177199
 21
353.6299552476328
 31
0.0
 11
111.8680275413888
 21
353.9135716630836
 31
0.0
 11
112.4483863388135
 21
354.2273384973774
 31
0.0
 11
113.0028773209615
 21
354.5852376529676
 31
0.0
 11
113.4969652942721
 21
354.9649799329222
 31
0.0
 11
113.9563136198739
 21
355.38651243256
 31
0.0
 11
114.3500826846432
 21
355.8215615887054
 31
0.0
 11
114.6991765785328
 21
356.2936501196011
 31
0.0
 11
114.9810706432354
 21
356.7722932338818
 31
0.0
 11
115.2082538099626
 21
357.2795772897663
 31
0.0
 11
115.3690182050044
 21
357.7889760281478
 31
0.0
 11
115.4671044901351
 21
358.3142880564112
 31
0.0
 11
115.4917761225333
 21
359.1527325050171
 31
0.0
 11
115.4999999999996
 21
361.1424367017711
 31
0.0
  0
ARC
  5
14F
330
45
100
AcDbEntity
  8
1
  6
Continuous
 62
     7
100
AcDbCircle
 10
250.0793046932046
 20
215.7926371349881
 30
0.0
 40
38.0
100
AcDbArc
 50
89.99999999999923
 51
134.6785336545356
  0
ENDBLK
  5
47
330
45
100
AcDbEntity
  8
0
100
AcDbBlockEnd
  0
BLOCK
  5
49
330
48
100
AcDbEntity
  8
0
100
AcDbBlockBegin
  2
32-1-17
 70
     0
 71
     0
 10
782.3804363263189
 20
213.5252694988129
 30
0.0
  3
32-1-17
  1

  0
LINE
  5
150
330
48
100
AcDbEntity
  8
1
  6
PHANTOM
 62
     4
100
AcDbLine
 10
269.652897822009
 20
245.792637134988
 30
0.0
 11
250.0793046932018
 21
245.792637134988
 31
0.0
  0
LINE
  5
151
330
48
100
AcDbEntity
  8
1
  6
PHANTOM
 62
     4
100
AcDbLine
 10
269.652897822009
 20
245.792637134988
 30
0.0
 11
250.0793046932018
 21
245.792637134988
 31
0.0
  0
LINE
  5
152
330
48
100
AcDbEntity
  8
0
  6
Continuous
 62
     7
100
AcDbLine
 10
263.0278150396445
 20
231.7926371349879
 30
0.0
 11
255.4779806043736
 21
231.7926371349879
 31
0.0
  0
LINE
  5
153
330
48
100
AcDbEntity
  8
1
  6
Continuous
 62
     7
100
AcDbLine
 10
263.652897822009
 20
245.792637134988
 30
0.0
 11
263.652897822009
 21
232.4926371349879
 31
0.0
  0
LINE
  5
154
330
48
100
AcDbEntity
  8
1
  6
Continuous
 62
     7
100
AcDbLine
 10
252.652897822009
 20
235.4926371349879
 30
0.0
 11
252.652897822009
 21
247.0317778240866
 31
0.0
  0
LINE
  5
155
330
48
100
AcDbEntity
  8
1
  6
Continuous
 62
     7
100
AcDbLine
 10
253.8698582076586
 20
234.5862361897879
 30
0.0
 11
253.9952902149912
 21
234.1778423335881
 31
0.0
  0
LINE
  5
156
330
48
100
AcDbEntity
  8
1
  6
Continuous
 62
     7
100
AcDbLine
 10
252.9139295518372
 20
235.2926371349879
 30
0.0
 11
252.852897822009
 21
235.2926371349879
 31
0.0
  0
LINE
  5
157
330
48
100
AcDbEntity
  8
1
  6
Continuous
 62
     7
100
AcDbLine
 10
105.7005342342892
 20
392.7042990667202
 30
0.0
 11
97.26910991350559
 21
392.7042990667202
 31
0.0
  0
LINE
  5
158
330
48
100
AcDbEntity
  8
1
  6
Continuous
 62
     7
100
AcDbLine
 10
102.9999999999999
 20
402.4873386810706
 30
0.0
 11
93.69999999999965
 21
402.4873386810706
 31
0.0
  0
LINE
  5
159
330
48
100
AcDbEntity
  8
1
  6
Continuous
 62
     7
100
AcDbLine
 10
98.24999999999955
 20
391.4873386810706
 30
0.0
 11
115.7499999999996
 21
391.4873386810706
 31
0.0
  0
LINE
  5
15A
330
48
100
AcDbEntity
  8
1
  6
Continuous
 62
     7
100
AcDbLine
 10
96.69999999999965
 20
391.4873386810706
 30
0.0
 11
98.24999999999955
 21
391.4873386810706
 31
0.0
  0
LINE
  5
15B
330
48
100
AcDbEntity
  8
1
  6
Continuous
 62
     7
100
AcDbLine
 10
96.49999999999955
 20
391.6873386810707
 30
0.0
 11
96.49999999999955
 21
391.7483704108989
 31
0.0
  0
LINE
  5
15C
330
48
100
AcDbEntity
  8
1
  6
Continuous
 62
     7
100
AcDbLine
 10
95.38520519859986
 20
392.8297310740528
 30
0.0
 11
95.79359905479959
 21
392.7042990667202
 31
0.0
  0
LINE
  5
15D
330
48
100
AcDbEntity
  8
1
  6
Continuous
 62
     7
100
AcDbLine
 10
120.2999999999996
 20
402.4873386810706
 30
0.0
 11
111.0
 21
402.4873386810706
 31
0.0
  0
LINE
  5
15E
330
48
100
AcDbEntity
  8
1
  6
Continuous
 62
     7
100
AcDbLine
 10
115.7499999999996
 20
391.4873386810706
 30
0.0
 11
117.2999999999996
 21
391.4873386810706
 31
0.0
  0
LINE
  5
15F
330
48
100
AcDbEntity
  8
1
  6
Continuous
 62
     7
100
AcDbLine
 10
117.4999999999996
 20
391.7483704108989
 30
0.0
 11
117.4999999999996
 21
391.6873386810707
 31
0.0
  0
LINE
  5
160
330
48
100
AcDbEntity
  8
1
  6
Continuous
 62
     7
100
AcDbLine
 10
118.2064009451998
 20
392.7042990667202
 30
0.0
 11
118.6147948013994
 21
392.8297310740528
 31
0.0
  0
LINE
  5
161
330
48
100
AcDbEntity
  8
1
  6
Continuous
 62
     7
100
AcDbLine
 10
116.7308900864938
 20
392.7042990667202
 30
0.0
 11
108.2994657657107
 21
392.7042990667202
 31
0.0
  0
LINE
  5
162
330
48
100
AcDbEntity
  8
1
  6
Continuous
 62
     7
100
AcDbLine
 10
98.20167802093039
 20
258.5534964458894
 30
0.0
 11
91.54961067310529
 21
247.0317778240863
 31
0.0
  0
LINE
  5
163
330
48
100
AcDbEntity
  8
1
  6
Continuous
 62
     7
100
AcDbLine
 10
91.54961067310529
 20
244.5534964458894
 30
0.0
 11
95.94370428378397
 21
236.9427030589802
 31
0.0
  0
LINE
  5
164
330
48
100
AcDbEntity
  8
1
  6
Continuous
 62
     7
100
AcDbLine
 10
115.7983219790696
 20
258.5534964458894
 30
0.0
 11
122.4503893268945
 21
247.0317778240863
 31
0.0
  0
LINE
  5
165
330
48
100
AcDbEntity
  8
1
  6
Continuous
 62
     7
100
AcDbLine
 10
100.3479326521749
 20
259.792637134988
 30
0.0
 11
113.6520673478251
 21
259.792637134988
 31
0.0
  0
LINE
  5
166
330
48
100
AcDbEntity
  8
1
  6
Continuous
 62
     7
100
AcDbLine
 10
118.0562957162161
 20
236.9427030589802
 30
0.0
 11
122.4503893268945
 21
244.5534964458894
 31
0.0
  0
LINE
  5
167
330
48
100
AcDbEntity
  8
1
  6
Continuous
 62
     7
100
AcDbLine
 10
252.852897822009
 20
256.2926371349881
 30
0.0
 11
252.9139295518372
 21
256.2926371349881
 31
0.0
  0
LINE
  5
168
330
48
100
AcDbEntity
  8
1
  6
Continuous
 62
     7
100
AcDbLine
 10
253.9952902149912
 20
257.407431936388
 30
0.0
 11
253.8698582076586
 21
256.9990380801881
 31
0.0
  0
LINE
  5
169
330
48
100
AcDbEntity
  8
1
  6
Continuous
 62
     7
100
AcDbLine
 10
252.652897822009
 20
244.5534964458896
 30
0.0
 11
252.652897822009
 21
256.0926371349881
 31
0.0
  0
LINE
  5
16A
330
48
100
AcDbEntity
  8
1
  6
Continuous
 62
     7
100
AcDbLine
 10
263.652897822009
 20
259.0926371349881
 30
0.0
 11
263.652897822009
 21
245.792637134988
 31
0.0
  0
LINE
  5
16B
330
48
100
AcDbEntity
  8
0
  6
Continuous
 62
     7
100
AcDbLine
 10
255.4779806043736
 20
259.7926371349881
 30
0.0
 11
263.0278150396445
 21
259.7926371349881
 31
0.0
  0
ARC
  5
16C
330
48
100
AcDbEntity
  8
1
  6
Continuous
 62
     7
100
AcDbCircle
 10
259.252897822009
 20
235.7926371349881
 30
0.0
 40
5.500000000000234
100
AcDbArc
 50
-46.65824177277805
 51
-36.86989764584592
  0
ARC
  5
16D
330
48
100
AcDbEntity
  8
1
  6
Continuous
 62
     7
100
AcDbCircle
 10
259.252897822009
 20
235.7926371349881
 30
0.0
 40
5.499999999999993
100
AcDbArc
 50
-162.9264504329626
 51
-133.3417582272211
  0
ARC
  5
16E
330
48
100
AcDbEntity
  8
1
  6
Continuous
 62
     7
100
AcDbCircle
 10
107.0
 20
245.792637134988
 30
0.0
 40
8.750000000000901
100
AcDbArc
 50
-23.89550818618284
 51
-156.1044918138201
  0
ARC
  5
16F
330
48
100
AcDbEntity
  8
1
  6
Continuous
 62
     7
100
AcDbCircle
 10
107.0
 20
245.792637134988
 30
0.0
 40
10.50000000000252
100
AcDbArc
 50
-40.36759354420593
 51
-139.6324064557944
  0
ARC
  5
170
330
48
100
AcDbEntity
  8
1
  6
Continuous
 62
     7
100
AcDbCircle
 10
96.99999999999955
 20
398.0873386810707
 30
0.0
 40
5.49999999999983
100
AcDbArc
 50
126.869897645844
 51
-107.0735495670339
  0
ARC
  5
171
330
48
100
AcDbEntity
  8
1
  6
Continuous
 62
     7
100
AcDbCircle
 10
116.9999999999996
 20
398.0873386810707
 30
0.0
 40
5.500000000000044
100
AcDbArc
 50
-72.92645043296493
 51
53.13010235415515
  0
ARC
  5
172
330
48
100
AcDbEntity
  8
1
  6
Continuous
 62
     7
100
AcDbCircle
 10
107.0
 20
245.792637134988
 30
0.0
 40
15.49999999999984
100
AcDbArc
 50
-4.5853790848393
 51
0.0
  0
ARC
  5
173
330
48
100
AcDbEntity
  8
1
  6
Continuous
 62
     7
100
AcDbCircle
 10
107.0
 20
245.792637134988
 30
0.0
 40
15.50000000000003
100
AcDbArc
 50
175.4146209151619
 51
180.0
  0
ARC
  5
174
330
48
100
AcDbEntity
  8
1
  6
Continuous
 62
     7
100
AcDbCircle
 10
107.0
 20
245.792637134988
 30
0.0
 40
15.50000000000003
100
AcDbArc
 50
115.4146209151612
 51
124.5853790848392
  0
ARC
  5
175
330
48
100
AcDbEntity
  8
1
  6
Continuous
 62
     7
100
AcDbCircle
 10
107.0
 20
245.792637134988
 30
0.0
 40
15.5
100
AcDbArc
 50
180.0
 51
-175.4146209151608
  0
ARC
  5
176
330
48
100
AcDbEntity
  8
1
  6
Continuous
 62
     7
100
AcDbCircle
 10
107.0
 20
245.792637134988
 30
0.0
 40
15.5
100
AcDbArc
 50
0.0
 51
4.58537908483814
  0
ARC
  5
177
330
48
100
AcDbEntity
  8
1
  6
Continuous
 62
     7
100
AcDbCircle
 10
107.0
 20
245.792637134988
 30
0.0
 40
15.49999999999991
100
AcDbArc
 50
55.41462091516087
 51
64.58537908483883
  0
ARC
  5
178
330
48
100
AcDbEntity
  8
1
  6
Continuous
 62
     7
100
AcDbCircle
 10
259.252897822009
 20
255.7926371349881
 30
0.0
 40
5.500000000000032
100
AcDbArc
 50
133.3417582272223
 51
162.9264504329638
  0
ARC
  5
179
330
48
100
AcDbEntity
  8
1
  6
Continuous
 62
     7
100
AcDbCircle
 10
259.252897822009
 20
255.7926371349881
 30
0.0
 40
5.499999999999972
100
AcDbArc
 50
36.86989764584402
 51
46.65824177277683
  0
SPLINE
  5
17A
330
48
100
AcDbEntity
  8
1
  6
Continuous
 62
     7
100
AcDbSpline
210
0.0
220
0.0
230
1.0
 70
    11
 71
     3
 72
    79
 73
    75
 74
    73
 42
0.0000000001
 43
0.0000000001
 44
0.00000001
 40
0.0
 40
0.0
 40
0.0
 40
0.0
 40
0.2903672562529682
 40
0.580735759793511
 40
0.8724071051838072
 40
1.164081918217544
 40
1.458189931540151
 40
1.752302927360735
 40
2.049663207833933
 40
2.347029113126486
 40
2.648045792769662
 40
2.949067942939115
 40
3.253697753141779
 40
3.558332281909426
 40
3.866104864362825
 40
4.173881026138658
 40
4.483966067735209
 40
4.79405332811422
 40
5.105362224076334
 40
5.416671870214453
 40
5.727981516352684
 40
6.039290412314855
 40
6.3493776726937
 40
6.659462714290086
 40
6.967238876066021
 40
7.275011458519426
 40
7.579645987287046
 40
7.884275797489592
 40
8.185297947659237
 40
8.486314627302432
 40
8.783680532595
 40
9.081040813068158
 40
9.375153808888658
 40
9.669261822211265
 40
9.960936635245057
 40
10.25260798063535
 40
10.54297648417585
 40
10.83334374042886
 40
11.12371099668171
 40
11.41407950022217
 40
11.70575084561252
 40
11.99742565864637
 40
12.29153367196891
 40
12.58564666778938
 40
12.88300694826259
 40
13.18037285355519
 40
13.48138953319836
 40
13.78241168336796
 40
14.08704149357045
 40
14.39167602233794
 40
14.69944860479141
 40
15.0072247665675
 40
15.31730980816383
 40
15.62739706854273
 40
15.93870596450489
 40
16.25001561064312
 40
16.56132525678124
 40
16.87263415274335
 40
17.18272141312235
 40
17.49280645471891
 40
17.80058261649479
 40
18.10835519894814
 40
18.41298972771584
 40
18.71761953791846
 40
19.01864168808787
 40
19.31965836773102
 40
19.61702427302362
 40
19.91438455349685
 40
20.2084975493174
 40
20.50260556263995
 40
20.79428037567374
 40
21.0859517210641
 40
21.37632022460454
 40
21.66668748085741
 40
21.66668748085741
 40
21.66668748085741
 40
21.66668748085741
 10
119.1243556529817
 20
394.7741614313576
 30
0.0
 10
119.2211794627157
 20
394.7767930287604
 30
0.0
 10
119.4148274980955
 20
394.7820562348703
 30
0.0
 10
119.7031883764837
 20
394.8243513085639
 30
0.0
 10
119.98690051973
 20
394.8915622016062
 30
0.0
 10
120.2643255820902
 20
394.9856173671577
 30
0.0
 10
120.5326464931662
 20
395.1050488250737
 30
0.0
 10
120.7906462562766
 20
395.2493243207434
 30
0.0
 10
121.0354482592988
 20
395.4169283961064
 30
0.0
 10
121.2661444841426
 20
395.6070909504077
 30
0.0
 10
121.4800401912115
 20
395.8177136708474
 30
0.0
 10
121.6764137335907
 20
396.0479352867961
 30
0.0
 10
121.8529630785595
 20
396.2951717103022
 30
0.0
 10
122.0090658750395
 20
396.5584058846498
 30
0.0
 10
122.1429548894618
 20
396.8347694393253
 30
0.0
 10
122.2540829062804
 20
397.1229828832746
 30
0.0
 10
122.3412736660797
 20
397.4201213265104
 30
0.0
 10
122.4040992725385
 20
397.7245444806198
 30
0.0
 10
122.4419478223128
 20
398.0334810929854
 30
0.0
 10
122.4546100842707
 20
398.3448756456293
 30
0.0
 10
122.4419478223128
 20
398.6562701982717
 30
0.0
 10
122.4040992725385
 20
398.9652068106421
 30
0.0
 10
122.3412736660797
 20
399.2696299647346
 30
0.0
 10
122.2540829062803
 20
399.5667684080327
 30
0.0
 10
122.1429548894619
 20
399.8549818517503
 30
0.0
 10
122.0090658750395
 20
400.1313454072867
 30
0.0
 10
121.8529630785595
 20
400.394579578453
 30
0.0
 10
121.6764137335906
 20
400.6418160137583
 30
0.0
 10
121.4800401912116
 20
400.8720375861724
 30
0.0
 10
121.2661444841426
 20
401.0826604680233
 30
0.0
 10
121.0354482592989
 20
401.2728224269305
 30
0.0
 10
120.7906462562766
 20
401.4404287105503
 30
0.0
 10
120.5326464931662
 20
401.5846960510343
 30
0.0
 10
120.2643255820902
 20
401.7041577903913
 30
0.0
 10
119.98690051973
 20
401.7981008374598
 30
0.0
 10
119.7031883764837
 20
401.8657288099072
 30
0.0
 10
119.4148274980955
 20
401.9064739347563
 30
0.0
 10
119.1243556529818
 20
401.9201478126831
 30
0.0
 10
118.8338838078681
 20
401.9064739347562
 30
0.0
 10
118.5455229294798
 20
401.8657288099074
 30
0.0
 10
118.2618107862336
 20
401.7981008374598
 30
0.0
 10
117.9843857238733
 20
401.7041577903913
 30
0.0
 10
117.7160648127974
 20
401.5846960510342
 30
0.0
 10
117.4580650496871
 20
401.4404287105504
 30
0.0
 10
117.2132630466646
 20
401.2728224269306
 30
0.0
 10
116.9825668218209
 20
401.0826604680233
 30
0.0
 10
116.7686711147519
 20
400.8720375861723
 30
0.0
 10
116.5722975723731
 20
400.6418160137583
 30
0.0
 10
116.395748227404
 20
400.3945795784531
 30
0.0
 10
116.2396454309241
 20
400.1313454072869
 30
0.0
 10
116.1057564165017
 20
399.8549818517503
 30
0.0
 10
115.9946283996833
 20
399.5667684080328
 30
0.0
 10
115.9074376398839
 20
399.2696299647346
 30
0.0
 10
115.8446120334251
 20
398.9652068106421
 30
0.0
 10
115.8067634836508
 20
398.6562701982717
 30
0.0
 10
115.7941012216931
 20
398.3448756456294
 30
0.0
 10
115.8067634836507
 20
398.0334810929855
 30
0.0
 10
115.8446120334252
 20
397.72454448062
 30
0.0
 10
115.9074376398838
 20
397.4201213265102
 30
0.0
 10
115.9946283996833
 20
397.1229828832748
 30
0.0
 10
116.1057564165017
 20
396.8347694393252
 30
0.0
 10
116.2396454309241
 20
396.5584058846497
 30
0.0
 10
116.395748227404
 20
396.2951717103023
 30
0.0
 10
116.572297572373
 20
396.0479352867963
 30
0.0
 10
116.768671114752
 20
395.8177136708473
 30
0.0
 10
116.9825668218209
 20
395.6070909504077
 30
0.0
 10
117.2132630466647
 20
395.4169283961065
 30
0.0
 10
117.458065049687
 20
395.2493243207434
 30
0.0
 10
117.7160648127974
 20
395.1050488250736
 30
0.0
 10
117.9843857238733
 20
394.9856173671577
 30
0.0
 10
118.2618107862336
 20
394.8915622016062
 30
0.0
 10
118.5455229294798
 20
394.824351308564
 30
0.0
 10
118.8338838078681
 20
394.7820562348702
 30
0.0
 10
119.0275318432477
 20
394.7767930287603
 30
0.0
 10
119.1243556529817
 20
394.7741614313576
 30
0.0
 11
119.1243556529817
 21
394.7741614313576
 31
0.0
 11
119.4144034147798
 21
394.7877790442101
 31
0.0
 11
119.7019153393155
 21
394.8284086036237
 31
0.0
 11
119.9856526491841
 21
394.8959757014622
 31
0.0
 11
120.2619261668393
 21
394.9895018475428
 31
0.0
 11
120.5306432289381
 21
395.1090454129805
 31
0.0
 11
120.7873724899381
 21
395.2525464264158
 31
0.0
 11
121.0327897797203
 21
395.4204555991226
 31
0.0
 11
121.262288887973
 21
395.6095498638205
 31
0.0
 11
121.4768434470098
 21
395.8206834296501
 31
0.0
 11
121.6722452665091
 21
396.0496647909637
 31
0.0
 11
121.8493486716494
 21
396.2975230269612
 31
0.0
 11
122.0047853084326
 21
396.5595185384934
 31
0.0
 11
122.1390385370557
 21
396.8364662467604
 31
0.0
 11
122.2498049528428
 21
397.1236194582889
 31
0.0
 11
122.3371627083158
 21
397.4211448447363
 31
0.0
 11
122.3998594018305
 21
397.7248276293515
 31
0.0
 11
122.4377418217997
 21
398.033823019224
 31
0.0
 11
122.4503893268944
 21
398.3448756456291
 31
0.0
 11
122.4377418217997
 21
398.6559282720343
 31
0.0
 11
122.3998594018305
 21
398.9649236619068
 31
0.0
 11
122.3371627083158
 21
399.2686064465219
 31
0.0
 11
122.2498049528428
 21
399.5661318329691
 31
0.0
 11
122.1390385370557
 21
399.8532850444977
 31
0.0
 11
122.0047853084326
 21
400.1302327527647
 31
0.0
 11
121.8493486716493
 21
400.3922282642968
 31
0.0
 11
121.6722452665091
 21
400.6400865002943
 31
0.0
 11
121.4768434470098
 21
400.8690678616081
 31
0.0
 11
121.262288887973
 21
401.0802014274377
 31
0.0
 11
121.0327897797203
 21
401.2692956921357
 31
0.0
 11
120.7873724899381
 21
401.4372048648424
 31
0.0
 11
120.5306432289381
 21
401.5807058782775
 31
0.0
 11
120.2619261668393
 21
401.7002494437152
 31
0.0
 11
119.9856526491841
 21
401.793775589796
 31
0.0
 11
119.7019153393155
 21
401.8613426876345
 31
0.0
 11
119.4144034147798
 21
401.901972247048
 31
0.0
 11
119.1243556529817
 21
401.9155898599005
 31
0.0
 11
118.8343078911837
 21
401.901972247048
 31
0.0
 11
118.5467959666481
 21
401.8613426876345
 31
0.0
 11
118.2630586567795
 21
401.793775589796
 31
0.0
 11
117.9867851391242
 21
401.7002494437152
 31
0.0
 11
117.7180680770255
 21
401.5807058782775
 31
0.0
 11
117.4613388160255
 21
401.4372048648424
 31
0.0
 11
117.2159215262433
 21
401.2692956921357
 31
0.0
 11
116.9864224179905
 21
401.0802014274377
 31
0.0
 11
116.7718678589537
 21
400.8690678616081
 31
0.0
 11
116.5764660394545
 21
400.6400865002943
 31
0.0
 11
116.3993626343142
 21
400.3922282642969
 31
0.0
 11
116.243925997531
 21
400.1302327527649
 31
0.0
 11
116.1096727689079
 21
399.8532850444979
 31
0.0
 11
115.9989063531208
 21
399.5661318329691
 31
0.0
 11
115.9115485976478
 21
399.268606446522
 31
0.0
 11
115.8488519041331
 21
398.9649236619068
 31
0.0
 11
115.810969484164
 21
398.6559282720343
 31
0.0
 11
115.7983219790693
 21
398.3448756456291
 31
0.0
 11
115.810969484164
 21
398.033823019224
 31
0.0
 11
115.8488519041331
 21
397.7248276293515
 31
0.0
 11
115.9115485976478
 21
397.4211448447363
 31
0.0
 11
115.9989063531208
 21
397.1236194582889
 31
0.0
 11
116.1096727689079
 21
396.8364662467603
 31
0.0
 11
116.243925997531
 21
396.5595185384934
 31
0.0
 11
116.3993626343142
 21
396.2975230269612
 31
0.0
 11
116.5764660394545
 21
396.0496647909637
 31
0.0
 11
116.7718678589537
 21
395.8206834296501
 31
0.0
 11
116.9864224179905
 21
395.6095498638205
 31
0.0
 11
117.2159215262433
 21
395.4204555991226
 31
0.0
 11
117.4613388160255
 21
395.2525464264158
 31
0.0
 11
117.7180680770255
 21
395.1090454129805
 31
0.0
 11
117.9867851391242
 21
394.9895018475428
 31
0.0
 11
118.2630586567795
 21
394.8959757014622
 31
0.0
 11
118.5467959666481
 21
394.8284086036237
 31
0.0
 11
118.8343078911837
 21
394.7877790442101
 31
0.0
 11
119.1243556529817
 21
394.7741614313576
 31
0.0
  0
SPLINE
  5
17B
330
48
100
AcDbEntity
  8
1
  6
Continuous
 62
     7
100
AcDbSpline
210
0.0
220
0.0
230
1.0
 70
    11
 71
     3
 72
    79
 73
    75
 74
    73
 42
0.0000000001
 43
0.0000000001
 44
0.00000001
 40
0.0
 40
0.0
 40
0.0
 40
0.0
 40
0.2903672562529114
 40
0.580735759793412
 40
0.8724071051837081
 40
1.164081918217499
 40
1.458189931540132
 40
1.752302927360678
 40
2.04966320783383
 40
2.347029113126339
 40
2.648045792769556
 40
2.949067942939045
 40
3.25369775314166
 40
3.558332281909285
 40
3.866104864362734
 40
4.173881026138613
 40
4.483966067735188
 40
4.794053328114181
 40
5.105362224076272
 40
5.416671870214385
 40
5.727981516352611
 40
6.03929041231476
 40
6.34937767269359
 40
6.659462714289997
 40
6.967238876065988
 40
7.275011458519431
 40
7.579645987286958
 40
7.884275797489527
 40
8.185297947659146
 40
8.486314627302443
 40
8.783680532594893
 40
9.081040813068068
 40
9.375153808888555
 40
9.669261822211162
 40
9.960936635245007
 40
10.2526079806353
 40
10.54297648417579
 40
10.83334374042871
 40
11.12371099668162
 40
11.41407950022211
 40
11.70575084561241
 40
11.99742565864625
 40
12.29153367196888
 40
12.5856466677894
 40
12.88300694826259
 40
13.18037285355512
 40
13.48138953319833
 40
13.78241168336796
 40
14.08704149357032
 40
14.39167602233781
 40
14.69944860479129
 40
15.00722476656741
 40
15.31730980816374
 40
15.62739706854264
 40
15.93870596450481
 40
16.25001561064304
 40
16.56132525678116
 40
16.87263415274326
 40
17.18272141312232
 40
17.49280645471883
 40
17.80058261649474
 40
18.10835519894811
 40
18.41298972771575
 40
18.7176195379183
 40
19.01864168808775
 40
19.31965836773092
 40
19.61702427302348
 40
19.91438455349667
 40
20.20849754931727
 40
20.5026055626399
 40
20.79428037567368
 40
21.08595172106399
 40
21.3763202246045
 40
21.66668748085739
 40
21.66668748085739
 40
21.66668748085739
 40
21.66668748085739
 10
94.8756443470175
 20
394.7741614313576
 30
0.0
 10
94.77882053728349
 20
394.7767930287604
 30
0.0
 10
94.58517250190381
 20
394.7820562348702
 30
0.0
 10
94.29681162351554
 20
394.8243513085641
 30
0.0
 10
94.01309948026932
 20
394.8915622016062
 30
0.0
 10
93.73567441790902
 20
394.9856173671577
 30
0.0
 10
93.46735350683304
 20
395.1050488250736
 30
0.0
 10
93.20935374372273
 20
395.2493243207434
 30
0.0
 10
92.96455174070044
 20
395.4169283961064
 30
0.0
 10
92.73385551585677
 20
395.6070909504078
 30
0.0
 10
92.5199598087878
 20
395.8177136708473
 30
0.0
 10
92.32358626640857
 20
396.0479352867963
 30
0.0
 10
92.14703692143979
 20
396.2951717103024
 30
0.0
 10
91.99093412495995
 20
396.5584058846499
 30
0.0
 10
91.85704511053746
 20
396.8347694393253
 30
0.0
 10
91.74591709371873
 20
397.1229828832746
 30
0.0
 10
91.65872633391936
 20
397.4201213265103
 30
0.0
 10
91.59590072746063
 20
397.7245444806198
 30
0.0
 10
91.55805217768646
 20
398.0334810929855
 30
0.0
 10
91.5453899157289
 20
398.3448756456294
 30
0.0
 10
91.55805217768648
 20
398.6562701982716
 30
0.0
 10
91.59590072746062
 20
398.965206810642
 30
0.0
 10
91.65872633391936
 20
399.2696299647347
 30
0.0
 10
91.74591709371879
 20
399.5667684080327
 30
0.0
 10
91.85704511053746
 20
399.8549818517503
 30
0.0
 10
91.99093412495988
 20
400.1313454072866
 30
0.0
 10
92.14703692143985
 20
400.394579578453
 30
0.0
 10
92.3235862664086
 20
400.6418160137583
 30
0.0
 10
92.5199598087878
 20
400.8720375861723
 30
0.0
 10
92.73385551585665
 20
401.0826604680232
 30
0.0
 10
92.9645517407005
 20
401.2728224269305
 30
0.0
 10
93.20935374372269
 20
401.4404287105504
 30
0.0
 10
93.46735350683308
 20
401.5846960510343
 30
0.0
 10
93.73567441790911
 20
401.7041577903914
 30
0.0
 10
94.01309948026928
 20
401.7981008374597
 30
0.0
 10
94.29681162351552
 20
401.8657288099074
 30
0.0
 10
94.58517250190383
 20
401.9064739347562
 30
0.0
 10
94.8756443470175
 20
401.9201478126831
 30
0.0
 10
95.1661161921312
 20
401.906473934756
 30
0.0
 10
95.45447707051946
 20
401.8657288099074
 30
0.0
 10
95.73818921376569
 20
401.7981008374597
 30
0.0
 10
96.01561427612596
 20
401.7041577903915
 30
0.0
 10
96.28393518720191
 20
401.5846960510341
 30
0.0
 10
96.54193495031234
 20
401.4404287105502
 30
0.0
 10
96.78673695333465
 20
401.2728224269305
 30
0.0
 10
97.01743317817842
 20
401.0826604680232
 30
0.0
 10
97.23132888524735
 20
400.8720375861726
 30
0.0
 10
97.42770242762639
 20
400.6418160137584
 30
0.0
 10
97.60425177259522
 20
400.394579578453
 30
0.0
 10
97.76035456907502
 20
400.1313454072867
 30
0.0
 10
97.89424358349751
 20
399.8549818517505
 30
0.0
 10
98.005371600316
 20
399.5667684080328
 30
0.0
 10
98.09256236011541
 20
399.2696299647348
 30
0.0
 10
98.15538796657421
 20
398.9652068106421
 30
0.0
 10
98.19323651634849
 20
398.6562701982716
 30
0.0
 10
98.20589877830622
 20
398.3448756456295
 30
0.0
 10
98.19323651634846
 20
398.0334810929856
 30
0.0
 10
98.15538796657415
 20
397.7245444806198
 30
0.0
 10
98.09256236011549
 20
397.4201213265103
 30
0.0
 10
98.00537160031604
 20
397.1229828832746
 30
0.0
 10
97.8942435834975
 20
396.8347694393254
 30
0.0
 10
97.76035456907498
 20
396.5584058846499
 30
0.0
 10
97.60425177259522
 20
396.2951717103022
 30
0.0
 10
97.42770242762646
 20
396.0479352867962
 30
0.0
 10
97.23132888524731
 20
395.8177136708474
 30
0.0
 10
97.01743317817844
 20
395.6070909504077
 30
0.0
 10
96.78673695333463
 20
395.4169283961065
 30
0.0
 10
96.54193495031235
 20
395.2493243207435
 30
0.0
 10
96.28393518720195
 20
395.1050488250735
 30
0.0
 10
96.015614276126
 20
394.9856173671578
 30
0.0
 10
95.73818921376569
 20
394.8915622016061
 30
0.0
 10
95.45447707051946
 20
394.824351308564
 30
0.0
 10
95.16611619213118
 20
394.7820562348701
 30
0.0
 10
94.97246815675152
 20
394.7767930287605
 30
0.0
 10
94.8756443470175
 20
394.7741614313576
 30
0.0
 11
94.8756443470175
 21
394.7741614313576
 31
0.0
 11
94.58559658521948
 21
394.7877790442101
 31
0.0
 11
94.2980846606838
 21
394.8284086036237
 31
0.0
 11
94.0143473508152
 21
394.8959757014622
 31
0.0
 11
93.73807383315995
 21
394.9895018475428
 31
0.0
 11
93.46935677106112
 21
395.1090454129805
 31
0.0
 11
93.21262751006117
 21
395.2525464264158
 31
0.0
 11
92.96721022027907
 21
395.4204555991226
 31
0.0
 11
92.73771111202638
 21
395.6095498638205
 31
0.0
 11
92.52315655298949
 21
395.8206834296501
 31
0.0
 11
92.32775473349017
 21
396.0496647909637
 31
0.0
 11
92.15065132834997
 21
396.2975230269612
 31
0.0
 11
91.99521469156679
 21
396.5595185384934
 31
0.0
 11
91.86096146294362
 21
396.8364662467604
 31
0.0
 11
91.75019504715635
 21
397.1236194582889
 31
0.0
 11
91.6628372916833
 21
397.4211448447363
 31
0.0
 11
91.60014059816865
 21
397.7248276293515
 31
0.0
 11
91.56225817819964
 21
398.033823019224
 31
0.0
 11
91.54961067310507
 21
398.3448756456291
 31
0.0
 11
91.56225817819963
 21
398.6559282720343
 31
0.0
 11
91.60014059816865
 21
398.9649236619068
 31
0.0
 11
91.66283729168332
 21
399.2686064465219
 31
0.0
 11
91.75019504715635
 21
399.5661318329691
 31
0.0
 11
91.86096146294364
 21
399.8532850444977
 31
0.0
 11
91.99521469156679
 21
400.1302327527647
 31
0.0
 11
92.15065132834997
 21
400.3922282642968
 31
0.0
 11
92.32775473349017
 21
400.6400865002943
 31
0.0
 11
92.52315655298949
 21
400.869067861608
 31
0.0
 11
92.73771111202638
 21
401.0802014274377
 31
0.0
 11
92.96721022027904
 21
401.2692956921356
 31
0.0
 11
93.21262751006117
 21
401.4372048648424
 31
0.0
 11
93.46935677106114
 21
401.5807058782775
 31
0.0
 11
93.73807383315995
 21
401.7002494437152
 31
0.0
 11
94.0143473508152
 21
401.793775589796
 31
0.0
 11
94.2980846606838
 21
401.8613426876345
 31
0.0
 11
94.58559658521946
 21
401.901972247048
 31
0.0
 11
94.8756443470175
 21
401.9155898599005
 31
0.0
 11
95.16569210881552
 21
401.901972247048
 31
0.0
 11
95.4532040333512
 21
401.8613426876345
 31
0.0
 11
95.7369413432198
 21
401.793775589796
 31
0.0
 11
96.01321486087505
 21
401.7002494437152
 31
0.0
 11
96.28193192297387
 21
401.5807058782775
 31
0.0
 11
96.53866118397389
 21
401.4372048648424
 31
0.0
 11
96.78407847375607
 21
401.2692956921356
 31
0.0
 11
97.01357758200879
 21
401.0802014274377
 31
0.0
 11
97.22813214104561
 21
400.8690678616081
 31
0.0
 11
97.42353396054489
 21
400.6400865002943
 31
0.0
 11
97.60063736568505
 21
400.392228264297
 31
0.0
 11
97.75607400246815
 21
400.1302327527649
 31
0.0
 11
97.89032723109128
 21
399.8532850444979
 31
0.0
 11
98.00109364687847
 21
399.5661318329691
 31
0.0
 11
98.08845140235144
 21
399.268606446522
 31
0.0
 11
98.15114809586618
 21
398.9649236619068
 31
0.0
 11
98.18903051583534
 21
398.6559282720343
 31
0.0
 11
98.20167802092999
 21
398.3448756456291
 31
0.0
 11
98.1890305158353
 21
398.033823019224
 31
0.0
 11
98.15114809586618
 21
397.7248276293515
 31
0.0
 11
98.0884514023515
 21
397.4211448447362
 31
0.0
 11
98.00109364687847
 21
397.1236194582889
 31
0.0
 11
97.89032723109126
 21
396.8364662467603
 31
0.0
 11
97.75607400246815
 21
396.5595185384934
 31
0.0
 11
97.60063736568505
 21
396.2975230269612
 31
0.0
 11
97.42353396054489
 21
396.0496647909637
 31
0.0
 11
97.22813214104562
 21
395.8206834296501
 31
0.0
 11
97.01357758200879
 21
395.6095498638205
 31
0.0
 11
96.78407847375604
 21
395.4204555991226
 31
0.0
 11
96.53866118397389
 21
395.2525464264158
 31
0.0
 11
96.28193192297388
 21
395.1090454129805
 31
0.0
 11
96.01321486087505
 21
394.9895018475428
 31
0.0
 11
95.73694134321981
 21
394.8959757014622
 31
0.0
 11
95.4532040333512
 21
394.8284086036237
 31
0.0
 11
95.16569210881551
 21
394.7877790442101
 31
0.0
 11
94.8756443470175
 21
394.7741614313576
 31
0.0
  0
SPLINE
  5
17C
330
48
100
AcDbEntity
  8
1
  6
Continuous
 62
     7
100
AcDbSpline
210
0.0
220
0.0
230
1.0
 70
    11
 71
     3
 72
    79
 73
    75
 74
    73
 42
0.0000000001
 43
0.0000000001
 44
0.00000001
 40
0.0
 40
0.0
 40
0.0
 40
0.0
 40
0.3187769860185492
 40
0.6372782068787147
 40
0.9763021194777684
 40
1.31494542065788
 40
1.682822129083941
 40
2.050365944152661
 40
2.450896110687068
 40
2.851184804526478
 40
3.283854516057073
 40
3.71636244586916
 40
4.177250052635065
 40
4.638034732704624
 40
5.120731896813221
 40
5.60336866636756
 40
6.099790091980261
 40
6.596183634798699
 40
7.097276409638825
 40
7.59836918447898
 40
8.094762727297416
 40
8.591184152910081
 40
9.073820922464487
 40
9.556518086573098
 40
10.01730276664268
 40
10.47819037340854
 40
10.91069830322068
 40
11.34336801475117
 40
11.74365670859058
 40
12.14418687512498
 40
12.51173069019368
 40
12.87960739861977
 40
13.21825069979994
 40
13.55727461239912
 40
13.87577583325924
 40
14.19455281927779
 40
14.50588192277198
 40
14.81721102626618
 40
15.13598801228466
 40
15.45448923314479
 40
15.79351314574397
 40
16.13215644692406
 40
16.5000331553501
 40
16.86757697041884
 40
17.26810713695327
 40
17.66839583079272
 40
18.10106554232331
 40
18.53357347213535
 40
18.9944610789012
 40
19.45524575897078
 40
19.93794292307945
 40
20.42057969263382
 40
20.91700111824648
 40
21.41339466106494
 40
21.91448743590506
 40
22.41558021074518
 40
22.91197375356362
 40
23.4083951791763
 40
23.89103194873061
 40
24.37372911283919
 40
24.83451379290875
 40
25.29540139967471
 40
25.7279093294868
 40
26.16057904101739
 40
26.56086773485676
 40
26.96139790139119
 40
27.32894171645989
 40
27.69681842488598
 40
28.03546172606606
 40
28.37448563866522
 40
28.6929868595254
 40
29.0117638455439
 40
29.32309294903809
 40
29.6344220525324
 40
29.6344220525324
 40
29.6344220525324
 40
29.6344220525324
 10
259.1840952063716
 20
233.054282279103
 30
0.0
 10
259.0794157693336
 20
233.0735746040239
 30
0.0
 10
258.8701474505447
 20
233.1121425646089
 30
0.0
 10
258.5641743212805
 20
233.2272722832533
 30
0.0
 10
258.2684578553398
 20
233.3796976622807
 30
0.0
 10
257.9800599411098
 20
233.5768416478426
 30
0.0
 10
257.7075383874847
 20
233.8100318684493
 30
0.0
 10
257.445603396082
 20
234.0842403581704
 30
0.0
 10
257.2032302127353
 20
234.3897519690131
 30
0.0
 10
256.9751927631251
 20
234.7323869072608
 30
0.0
 10
256.7693291917676
 20
235.1010345003679
 30
0.0
 10
256.5816253801673
 20
235.5015915909862
 30
0.0
 10
256.4180077553842
 20
235.9226450243962
 30
0.0
 10
256.2759697440325
 20
236.3689954784565
 30
0.0
 10
256.1593976524999
 20
236.830145102728
 30
0.0
 10
256.0670590935428
 20
237.3088243009883
 30
0.0
 10
256.0010952647484
 20
237.7964528034589
 30
0.0
 10
255.9610325480503
 20
238.2930472632291
 30
0.0
 10
255.9477982537888
 20
238.7926371349853
 30
0.0
 10
255.9610325480489
 20
239.2922270067576
 30
0.0
 10
256.0010952647539
 20
239.7888214664799
 30
0.0
 10
256.0670590935227
 20
240.2764499691249
 30
0.0
 10
256.1593976525721
 20
240.7551291667519
 30
0.0
 10
256.2759697437683
 20
241.2162787933379
 30
0.0
 10
256.4180077563206
 20
241.662629239135
 30
0.0
 10
256.5816253767571
 20
242.0836827024587
 30
0.0
 10
256.7693292036281
 20
242.4842396879821
 30
0.0
 10
256.9751927201512
 20
242.852887658467
 30
0.0
 10
257.203230359871
 20
243.1955212883548
 30
0.0
 10
257.4456028643282
 20
243.5010375714055
 30
0.0
 10
257.7075401919459
 20
243.7752299829787
 30
0.0
 10
257.9800534074739
 20
244.0084775875033
 30
0.0
 10
258.2684801066808
 20
244.2054234709387
 30
0.0
 10
258.5640930752523
 20
244.3585611329412
 30
0.0
 10
258.870430452322
 20
244.4711840486359
 30
0.0
 10
259.1806005285727
 20
244.5377602972408
 30
0.0
 10
259.4946098762134
 20
244.5612715192187
 30
0.0
 10
259.8086192238541
 20
244.5377602972409
 30
0.0
 10
260.1187893001049
 20
244.4711840486359
 30
0.0
 10
260.4251266771743
 20
244.3585611329411
 30
0.0
 10
260.7207396457459
 20
244.2054234709387
 30
0.0
 10
261.0091663449528
 20
244.0084775875034
 30
0.0
 10
261.2816795604809
 20
243.7752299829788
 30
0.0
 10
261.5436168880984
 20
243.5010375714056
 30
0.0
 10
261.7859893925559
 20
243.1955212883548
 30
0.0
 10
262.0140270322754
 20
242.852887658467
 30
0.0
 10
262.2198905487988
 20
242.4842396879821
 30
0.0
 10
262.4075943756695
 20
242.0836827024587
 30
0.0
 10
262.5712119961063
 20
241.662629239135
 30
0.0
 10
262.7132500086585
 20
241.2162787933378
 30
0.0
 10
262.8298220998549
 20
240.7551291667519
 30
0.0
 10
262.9221606589041
 20
240.2764499691248
 30
0.0
 10
262.988124487673
 20
239.78882146648
 30
0.0
 10
263.028187204378
 20
239.292227006757
 30
0.0
 10
263.0414214986375
 20
238.7926371349878
 30
0.0
 10
263.0281872043781
 20
238.2930472632198
 30
0.0
 10
262.9881244876725
 20
237.7964528034934
 30
0.0
 10
262.9221606589055
 20
237.3088243008609
 30
0.0
 10
262.8298220998498
 20
236.8301451031889
 30
0.0
 10
262.7132500086772
 20
236.3689954767673
 30
0.0
 10
262.5712119960398
 20
235.9226450303838
 30
0.0
 10
262.4075943759115
 20
235.5015915691824
 30
0.0
 10
262.2198905479575
 20
235.1010345762032
 30
0.0
 10
262.014027035324
 20
234.7323866324904
 30
0.0
 10
261.7859893821175
 20
234.3897529097837
 30
0.0
 10
261.5436169258226
 20
234.0842369581939
 30
0.0
 10
261.2816794324668
 20
233.810043405987
 30
0.0
 10
261.0091668084692
 20
233.5767998724562
 30
0.0
 10
260.7207380671665
 20
233.3798399350388
 30
0.0
 10
260.4251324410207
 20
233.2267528046093
 30
0.0
 10
260.1187692230772
 20
233.1139520485043
 30
0.0
 10
259.8086936399878
 20
233.0480261146912
 30
0.0
 10
259.4943393327146
 20
233.022140833593
 30
0.0
 10
259.2875099151526
 20
233.043568463933
 30
0.0
 10
259.1840952063716
 20
233.054282279103
 30
0.0
 11
259.1840952063716
 21
233.054282279103
 31
0.0
 11
258.8724452857829
 21
233.1213128229773
 31
0.0
 11
258.5731588774339
 21
233.2302654432624
 31
0.0
 11
258.2719097724165
 21
233.3857845418971
 31
0.0
 11
257.9917116823818
 21
233.5759642352797
 31
0.0
 11
257.7117126979126
 21
233.8145723686251
 31
0.0
 11
257.4572794070634
 21
234.0798121780484
 31
0.0
 11
257.207702450045
 21
234.3930784495006
 31
0.0
 11
256.9854484136957
 21
234.725996129629
 31
0.0
 11
256.7738745757877
 21
235.103407828426
 31
0.0
 11
256.589982071283
 21
235.4948751401359
 31
0.0
 11
256.4225318940373
 21
235.9242675296944
 31
0.0
 11
256.2825516093178
 21
236.3632755492984
 31
0.0
 11
256.1638751220556
 21
236.8311563499406
 31
0.0
 11
256.0723223798633
 21
237.3050301165947
 31
0.0
 11
256.0055346699734
 21
237.7969382722651
 31
0.0
 11
255.9656016473894
 21
238.2917229760092
 31
0.0
 11
255.9522235185395
 21
238.792637134988
 31
0.0
 11
255.9656016473894
 21
239.2935512939668
 31
0.0
 11
256.0055346699734
 21
239.7883359977109
 31
0.0
 11
256.0723223798632
 21
240.2802441533813
 31
0.0
 11
256.1638751220556
 21
240.7541179200354
 31
0.0
 11
256.2825516093178
 21
241.2219987206776
 31
0.0
 11
256.4225318940372
 21
241.6610067402817
 31
0.0
 11
256.5899820712829
 21
242.0903991298402
 31
0.0
 11
256.7738745757877
 21
242.48186644155
 31
0.0
 11
256.9854484136956
 21
242.859278140347
 31
0.0
 11
257.207702450045
 21
243.1921958204754
 31
0.0
 11
257.4572794070632
 21
243.5054620919276
 31
0.0
 11
257.7117126979124
 21
243.7707019013509
 31
0.0
 11
257.9917116823817
 21
244.0093100346963
 31
0.0
 11
258.2719097724165
 21
244.1994897280789
 31
0.0
 11
258.573158877434
 21
244.3550088267136
 31
0.0
 11
258.8724452857829
 21
244.4639614469988
 31
0.0
 11
259.1840952063717
 21
244.5309919908731
 31
0.0
 11
259.4946098762134
 21
244.5534964458894
 31
0.0
 11
259.8051245460551
 21
244.5309919908731
 31
0.0
 11
260.1167744666439
 21
244.4639614469988
 31
0.0
 11
260.4160608749928
 21
244.3550088267136
 31
0.0
 11
260.7173099800103
 21
244.1994897280789
 31
0.0
 11
260.997508070045
 21
244.0093100346963
 31
0.0
 11
261.2775070545143
 21
243.770701901351
 31
0.0
 11
261.5319403453635
 21
243.5054620919276
 31
0.0
 11
261.7815173023818
 21
243.1921958204754
 31
0.0
 11
262.0037713387311
 21
242.8592781403469
 31
0.0
 11
262.2153451766391
 21
242.4818664415499
 31
0.0
 11
262.3992376811438
 21
242.0903991298401
 31
0.0
 11
262.5666878583896
 21
241.6610067402817
 31
0.0
 11
262.706668143109
 21
241.2219987206776
 31
0.0
 11
262.8253446303713
 21
240.7541179200354
 31
0.0
 11
262.9168973725636
 21
240.2802441533813
 31
0.0
 11
262.9836850824534
 21
239.7883359977109
 31
0.0
 11
263.0236181050374
 21
239.2935512939668
 31
0.0
 11
263.0369962338872
 21
238.792637134988
 31
0.0
 11
263.0236181050374
 21
238.2917229760092
 31
0.0
 11
262.9836850824534
 21
237.7969382722651
 31
0.0
 11
262.9168973725636
 21
237.3050301165947
 31
0.0
 11
262.8253446303713
 21
236.8311563499407
 31
0.0
 11
262.706668143109
 21
236.3632755492985
 31
0.0
 11
262.5666878583896
 21
235.9242675296945
 31
0.0
 11
262.3992376811438
 21
235.4948751401359
 31
0.0
 11
262.2153451766391
 21
235.103407828426
 31
0.0
 11
262.0037713387311
 21
234.725996129629
 31
0.0
 11
261.7815173023818
 21
234.3930784495007
 31
0.0
 11
261.5319403453635
 21
234.0798121780484
 31
0.0
 11
261.2775070545143
 21
233.8145723686251
 31
0.0
 11
260.997508070045
 21
233.5759642352797
 31
0.0
 11
260.7173099800103
 21
233.3857845418972
 31
0.0
 11
260.4160608749928
 21
233.2302654432624
 31
0.0
 11
260.1167744666439
 21
233.1213128229772
 31
0.0
 11
259.8051245460551
 21
233.0542822791029
 31
0.0
 11
259.4946098762134
 21
233.0317778240865
 31
0.0
 11
259.1840952063716
 21
233.054282279103
 31
0.0
  0
SPLINE
  5
17D
330
48
100
AcDbEntity
  8
1
  6
Continuous
 62
     7
100
AcDbSpline
210
0.0
220
0.0
230
1.0
 70
    11
 71
     3
 72
    79
 73
    75
 74
    73
 42
0.0000000001
 43
0.0000000001
 44
0.00000001
 40
0.0
 40
0.0
 40
0.0
 40
0.0
 40
0.3187769860185551
 40
0.637278206878711
 40
0.9763021194777777
 40
1.314945420657858
 40
1.682822129083919
 40
2.050365944152618
 40
2.450896110687113
 40
2.851184804526501
 40
3.28385451605707
 40
3.716362445869131
 40
4.17725005263501
 40
4.638034732704597
 40
5.120731896813221
 40
5.603368666367616
 40
6.099790091980346
 40
6.596183634798726
 40
7.097276409638853
 40
7.598369184478922
 40
8.09476272729736
 40
8.591184152910081
 40
9.073820922464458
 40
9.556518086573041
 40
10.0173027666426
 40
10.47819037340851
 40
10.91069830322067
 40
11.34336801475121
 40
11.74365670859062
 40
12.14418687512496
 40
12.51173069019368
 40
12.87960739861975
 40
13.21825069979994
 40
13.55727461239913
 40
13.87577583325926
 40
14.1945528192778
 40
14.50588192277199
 40
14.81721102626618
 40
15.13598801228467
 40
15.45448923314479
 40
15.793513145744
 40
16.13215644692406
 40
16.50003315535018
 40
16.86757697041884
 40
17.26810713695332
 40
17.66839583079269
 40
18.10106554232334
 40
18.53357347213538
 40
18.99446107890125
 40
19.45524575897078
 40
19.93794292307942
 40
20.42057969263382
 40
20.91700111824653
 40
21.41339466106493
 40
21.91448743590506
 40
22.41558021074515
 40
22.91197375356355
 40
23.40839517917624
 40
23.89103194873063
 40
24.37372911283927
 40
24.83451379290889
 40
25.29540139967476
 40
25.7279093294868
 40
26.16057904101734
 40
26.56086773485673
 40
26.96139790139119
 40
27.32894171645997
 40
27.69681842488604
 40
28.03546172606615
 40
28.37448563866524
 40
28.69298685952542
 40
29.0117638455439
 40
29.3230929490381
 40
29.6344220525324
 40
29.6344220525324
 40
29.6344220525324
 40
29.6344220525324
 10
259.1840952063716
 20
258.5309919908731
 30
0.0
 10
259.0794157693337
 20
258.5116996659522
 30
0.0
 10
258.8701474505448
 20
258.4731317053672
 30
0.0
 10
258.5641743212805
 20
258.3580019867226
 30
0.0
 10
258.2684578553397
 20
258.2055766076954
 30
0.0
 10
257.9800599411099
 20
258.0084326221334
 30
0.0
 10
257.7075383874848
 20
257.7752424015267
 30
0.0
 10
257.4456033960819
 20
257.5010339118057
 30
0.0
 10
257.2032302127354
 20
257.195522300963
 30
0.0
 10
256.9751927631251
 20
256.8528873627152
 30
0.0
 10
256.7693291917676
 20
256.4842397696082
 30
0.0
 10
256.5816253801673
 20
256.0836826789899
 30
0.0
 10
256.4180077553841
 20
255.6626292455798
 30
0.0
 10
256.2759697440325
 20
255.2162787915195
 30
0.0
 10
256.1593976524999
 20
254.7551291672481
 30
0.0
 10
256.0670590935427
 20
254.2764499689876
 30
0.0
 10
256.0010952647484
 20
253.7888214665172
 30
0.0
 10
255.9610325480502
 20
253.2922270067469
 30
0.0
 10
255.9477982537888
 20
252.7926371349907
 30
0.0
 10
255.9610325480488
 20
252.2930472632184
 30
0.0
 10
256.0010952647538
 20
251.7964528034962
 30
0.0
 10
256.0670590935227
 20
251.3088243008513
 30
0.0
 10
256.1593976525721
 20
250.8301451032242
 30
0.0
 10
256.2759697437682
 20
250.3689954766383
 30
0.0
 10
256.4180077563206
 20
249.922645030841
 30
0.0
 10
256.5816253767571
 20
249.5015915675173
 30
0.0
 10
256.7693292036282
 20
249.101034581994
 30
0.0
 10
256.9751927201512
 20
248.7323866115088
 30
0.0
 10
257.203230359871
 20
248.3897529816212
 30
0.0
 10
257.4456028643282
 20
248.0842366985704
 30
0.0
 10
257.7075401919458
 20
247.8100442869974
 30
0.0
 10
257.980053407474
 20
247.5767966824727
 30
0.0
 10
258.2684801066808
 20
247.3798507990373
 30
0.0
 10
258.5640930752523
 20
247.2267131370347
 30
0.0
 10
258.870430452322
 20
247.1140902213401
 30
0.0
 10
259.1806005285728
 20
247.0475139727351
 30
0.0
 10
259.4946098762134
 20
247.0240027507573
 30
0.0
 10
259.8086192238541
 20
247.0475139727351
 30
0.0
 10
260.1187893001048
 20
247.1140902213401
 30
0.0
 10
260.4251266771743
 20
247.2267131370348
 30
0.0
 10
260.720739645746
 20
247.3798507990373
 30
0.0
 10
261.0091663449527
 20
247.5767966824727
 30
0.0
 10
261.2816795604808
 20
247.8100442869974
 30
0.0
 10
261.5436168880984
 20
248.0842366985705
 30
0.0
 10
261.7859893925557
 20
248.3897529816212
 30
0.0
 10
262.0140270322755
 20
248.732386611509
 30
0.0
 10
262.2198905487987
 20
249.101034581994
 30
0.0
 10
262.4075943756696
 20
249.5015915675174
 30
0.0
 10
262.5712119961062
 20
249.922645030841
 30
0.0
 10
262.7132500086585
 20
250.3689954766382
 30
0.0
 10
262.8298220998549
 20
250.8301451032241
 30
0.0
 10
262.9221606589041
 20
251.3088243008513
 30
0.0
 10
262.988124487673
 20
251.7964528034961
 30
0.0
 10
263.0281872043779
 20
252.2930472632191
 30
0.0
 10
263.0414214986374
 20
252.7926371349882
 30
0.0
 10
263.0281872043781
 20
253.2922270067563
 30
0.0
 10
262.9881244876725
 20
253.7888214664826
 30
0.0
 10
262.9221606589056
 20
254.2764499691152
 30
0.0
 10
262.8298220998497
 20
254.7551291667871
 30
0.0
 10
262.7132500086772
 20
255.2162787932088
 30
0.0
 10
262.5712119960398
 20
255.6626292395923
 30
0.0
 10
262.4075943759114
 20
256.0836827007937
 30
0.0
 10
262.2198905479574
 20
256.484239693773
 30
0.0
 10
262.0140270353242
 20
256.8528876374854
 30
0.0
 10
261.7859893821174
 20
257.1955213601923
 30
0.0
 10
261.5436169258226
 20
257.5010373117821
 30
0.0
 10
261.2816794324667
 20
257.7752308639892
 30
0.0
 10
261.0091668084693
 20
258.0084743975201
 30
0.0
 10
260.7207380671665
 20
258.2054343349374
 30
0.0
 10
260.4251324410207
 20
258.3585214653667
 30
0.0
 10
260.1187692230772
 20
258.4713222214716
 30
0.0
 10
259.8086936399878
 20
258.5372481552849
 30
0.0
 10
259.4943393327146
 20
258.5631334363828
 30
0.0
 10
259.2875099151526
 20
258.5417058060431
 30
0.0
 10
259.1840952063716
 20
258.5309919908731
 30
0.0
 11
259.1840952063716
 21
258.5309919908731
 31
0.0
 11
258.8724452857829
 21
258.4639614469987
 31
0.0
 11
258.5731588774339
 21
258.3550088267136
 31
0.0
 11
258.2719097724165
 21
258.1994897280789
 31
0.0
 11
257.9917116823818
 21
258.0093100346964
 31
0.0
 11
257.7117126979126
 21
257.770701901351
 31
0.0
 11
257.4572794070634
 21
257.5054620919277
 31
0.0
 11
257.207702450045
 21
257.1921958204754
 31
0.0
 11
256.9854484136957
 21
256.859278140347
 31
0.0
 11
256.7738745757877
 21
256.48186644155
 31
0.0
 11
256.589982071283
 21
256.0903991298402
 31
0.0
 11
256.4225318940373
 21
255.6610067402817
 31
0.0
 11
256.2825516093178
 21
255.2219987206776
 31
0.0
 11
256.1638751220556
 21
254.7541179200354
 31
0.0
 11
256.0723223798633
 21
254.2802441533813
 31
0.0
 11
256.0055346699734
 21
253.7883359977109
 31
0.0
 11
255.9656016473894
 21
253.2935512939668
 31
0.0
 11
255.9522235185395
 21
252.792637134988
 31
0.0
 11
255.9656016473894
 21
252.2917229760093
 31
0.0
 11
256.0055346699734
 21
251.7969382722652
 31
0.0
 11
256.0723223798632
 21
251.3050301165948
 31
0.0
 11
256.1638751220556
 21
250.8311563499407
 31
0.0
 11
256.2825516093178
 21
250.3632755492985
 31
0.0
 11
256.4225318940372
 21
249.9242675296944
 31
0.0
 11
256.5899820712829
 21
249.4948751401359
 31
0.0
 11
256.7738745757877
 21
249.103407828426
 31
0.0
 11
256.9854484136956
 21
248.725996129629
 31
0.0
 11
257.207702450045
 21
248.3930784495006
 31
0.0
 11
257.4572794070632
 21
248.0798121780484
 31
0.0
 11
257.7117126979124
 21
247.8145723686251
 31
0.0
 11
257.9917116823817
 21
247.5759642352797
 31
0.0
 11
258.2719097724165
 21
247.3857845418972
 31
0.0
 11
258.573158877434
 21
247.2302654432624
 31
0.0
 11
258.8724452857829
 21
247.1213128229772
 31
0.0
 11
259.1840952063717
 21
247.054282279103
 31
0.0
 11
259.4946098762134
 21
247.0317778240866
 31
0.0
 11
259.8051245460551
 21
247.054282279103
 31
0.0
 11
260.1167744666439
 21
247.1213128229773
 31
0.0
 11
260.4160608749928
 21
247.2302654432624
 31
0.0
 11
260.7173099800103
 21
247.3857845418972
 31
0.0
 11
260.997508070045
 21
247.5759642352797
 31
0.0
 11
261.2775070545143
 21
247.8145723686252
 31
0.0
 11
261.5319403453635
 21
248.0798121780484
 31
0.0
 11
261.7815173023818
 21
248.3930784495007
 31
0.0
 11
262.0037713387311
 21
248.7259961296291
 31
0.0
 11
262.2153451766391
 21
249.1034078284261
 31
0.0
 11
262.3992376811438
 21
249.4948751401359
 31
0.0
 11
262.5666878583896
 21
249.9242675296944
 31
0.0
 11
262.706668143109
 21
250.3632755492984
 31
0.0
 11
262.8253446303713
 21
250.8311563499406
 31
0.0
 11
262.9168973725636
 21
251.3050301165948
 31
0.0
 11
262.9836850824534
 21
251.7969382722652
 31
0.0
 11
263.0236181050374
 21
252.2917229760092
 31
0.0
 11
263.0369962338872
 21
252.792637134988
 31
0.0
 11
263.0236181050374
 21
253.2935512939668
 31
0.0
 11
262.9836850824534
 21
253.7883359977109
 31
0.0
 11
262.9168973725636
 21
254.2802441533813
 31
0.0
 11
262.8253446303713
 21
254.7541179200354
 31
0.0
 11
262.706668143109
 21
255.2219987206776
 31
0.0
 11
262.5666878583896
 21
255.6610067402817
 31
0.0
 11
262.3992376811438
 21
256.0903991298402
 31
0.0
 11
262.2153451766391
 21
256.48186644155
 31
0.0
 11
262.0037713387311
 21
256.8592781403469
 31
0.0
 11
261.7815173023818
 21
257.1921958204753
 31
0.0
 11
261.5319403453635
 21
257.5054620919276
 31
0.0
 11
261.2775070545143
 21
257.770701901351
 31
0.0
 11
260.997508070045
 21
258.0093100346964
 31
0.0
 11
260.7173099800103
 21
258.199489728079
 31
0.0
 11
260.4160608749928
 21
258.3550088267136
 31
0.0
 11
260.1167744666439
 21
258.4639614469988
 31
0.0
 11
259.8051245460551
 21
258.5309919908731
 31
0.0
 11
259.4946098762134
 21
258.5534964458895
 31
0.0
 11
259.1840952063716
 21
258.5309919908731
 31
0.0
  0
SPLINE
  5
17E
330
48
100
AcDbEntity
  8
1
  6
Continuous
 62
     7
100
AcDbSpline
210
0.0
220
0.0
230
1.0
 70
     8
 71
     3
 72
    29
 73
    25
 74
    23
 42
0.0000000001
 43
0.0000000001
 44
0.00000001
 40
0.0
 40
0.0
 40
0.0
 40
0.0
 40
0.4582124341406005
 40
0.916696262972257
 40
1.359051145668917
 40
1.801705719889461
 40
2.198281160500399
 40
2.595326089989619
 40
2.950470013806975
 40
3.306245044149438
 40
3.631764481900917
 40
3.957798168780404
 40
4.272622625450483
 40
4.587447082120562
 40
4.913480769000159
 40
5.239000206751634
 40
5.594775237094061
 40
5.949919160911407
 40
6.346964090400697
 40
6.743539531011542
 40
7.186194105232039
 40
7.628548987928784
 40
8.011596257902635
 40
8.394252252963378
 40
8.394252252963378
 40
8.394252252963378
 40
8.394252252963378
 10
103.1406244356118
 20
395.4360441205683
 30
0.0
 10
102.9988493337476
 20
395.4929758976796
 30
0.0
 10
102.715215158029
 20
395.6068731720301
 30
0.0
 10
102.3083923242257
 20
395.807235969635
 30
0.0
 10
101.920536295731
 20
396.0317844811218
 30
0.0
 10
101.5685110257898
 20
396.2747966906667
 30
0.0
 10
101.2512524817713
 20
396.5386609796696
 30
0.0
 10
100.9819656203402
 20
396.8119614115329
 30
0.0
 10
100.7533206890908
 20
397.103060580649
 30
0.0
 10
100.5757263936086
 20
397.4006117408293
 30
0.0
 10
100.4441097050913
 20
397.7108324992864
 30
0.0
 10
100.366683395881
 20
398.02490107381
 30
0.0
 10
100.3387212647828
 20
398.3436917911815
 30
0.0
 10
100.3666833953977
 20
398.662482511016
 30
0.0
 10
100.4441097071034
 20
398.9765510778913
 30
0.0
 10
100.5757263857897
 20
399.2867718654282
 30
0.0
 10
100.7533207212926
 20
399.5843229075283
 30
0.0
 10
100.9819654947837
 20
399.8754225420244
 30
0.0
 10
101.2512530119524
 20
400.1487210395157
 30
0.0
 10
101.5685089603064
 20
400.4125929855078
 30
0.0
 10
101.9205450031484
 20
400.6555734159164
 30
0.0
 10
102.2865838597119
 20
400.8676293403253
 30
0.0
 10
102.6472579504718
 20
401.0473492367144
 30
0.0
 10
102.882459379523
 20
401.146594339924
 30
0.0
 10
102.9999999999999
 20
401.1961915343697
 30
0.0
 11
103.1406244356118
 21
395.4360441205683
 31
0.0
 11
102.7176045906739
 21
395.6121487644303
 31
0.0
 11
102.3060496248369
 21
395.814212940857
 31
0.0
 11
101.9237210278021
 21
396.0367049320275
 31
0.0
 11
101.5600695115089
 21
396.2890948026167
 31
0.0
 11
101.2557743711061
 21
396.5434106448739
 31
0.0
 11
100.9780220515677
 21
396.8271329122837
 31
0.0
 11
100.759662985496
 21
397.1072159801202
 31
0.0
 11
100.5781020194547
 21
397.4131759249256
 31
0.0
 11
100.4523961266456
 21
397.7134440265733
 31
0.0
 11
100.3742215874397
 21
398.0299668636643
 31
0.0
 11
100.3479326521746
 21
398.3436917915872
 31
0.0
 11
100.3742215874397
 21
398.6574167195101
 31
0.0
 11
100.4523961266457
 21
398.9739395566013
 31
0.0
 11
100.5781020194547
 21
399.274207658249
 31
0.0
 11
100.759662985496
 21
399.5801676030544
 31
0.0
 11
100.9780220515678
 21
399.8602506708908
 31
0.0
 11
101.2557743711062
 21
400.1439729383006
 31
0.0
 11
101.560069511509
 21
400.3982887805577
 31
0.0
 11
101.9237210278021
 21
400.6506786511469
 31
0.0
 11
102.3060496248369
 21
400.8731706423175
 31
0.0
 11
102.6490253136116
 21
401.0437370163306
 31
0.0
 11
102.9999999999999
 21
401.1961915343697
 31
0.0
  0
SPLINE
  5
17F
330
48
100
AcDbEntity
  8
1
  6
Continuous
 62
     7
100
AcDbSpline
210
0.0
220
0.0
230
1.0
 70
     8
 71
     3
 72
    19
 73
    15
 74
    13
 42
0.0000000001
 43
0.0000000001
 44
0.00000001
 40
0.0
 40
0.0
 40
0.0
 40
0.0
 40
0.3826559950574578
 40
0.7657032650282575
 40
1.208058147725032
 40
1.650712721945599
 40
2.047288162556512
 40
2.444333092045702
 40
2.799477015862996
 40
3.155252046205522
 40
3.48077148395696
 40
3.806805170836506
 40
4.121629627506527
 40
4.436454084176553
 40
4.436454084176553
 40
4.436454084176553
 40
4.436454084176553
 10
111.0000000000054
 20
401.1961915343675
 30
0.0
 10
111.1175406221379
 20
401.1465943396428
 30
0.0
 10
111.352742054502
 20
401.0473492358743
 30
0.0
 10
111.713416119093
 20
400.8676293438992
 30
0.0
 10
112.0794550902205
 20
400.6555734001691
 30
0.0
 10
112.4314907078056
 20
400.4125930414829
 30
0.0
 10
112.7487480842435
 20
400.1487208546342
 30
0.0
 10
113.0180305770652
 20
399.8754232045351
 30
0.0
 10
113.2466922398902
 20
399.5843207215324
 30
0.0
 10
113.4242267125662
 20
399.2867797757237
 30
0.0
 10
113.5560489826867
 20
398.9765243137296
 30
0.0
 10
113.632730194817
 20
398.6625814131961
 30
0.0
 10
113.663383985084
 20
398.3433367258215
 30
0.0
 10
113.6383136034011
 20
398.1344234843834
 30
0.0
 10
113.6257784125597
 20
398.0299668636644
 30
0.0
 11
111.0000000000054
 21
401.1961915343675
 31
0.0
 11
111.3509746863905
 21
401.0437370163293
 31
0.0
 11
111.6939503751624
 21
400.8731706423174
 31
0.0
 11
112.0762789721973
 21
400.6506786511469
 31
0.0
 11
112.4399304884905
 21
400.3982887805577
 31
0.0
 11
112.7442256288933
 21
400.1439729383005
 31
0.0
 11
113.0219779484317
 21
399.8602506708908
 31
0.0
 11
113.2403370145033
 21
399.5801676030544
 31
0.0
 11
113.4218979805447
 21
399.2742076582489
 31
0.0
 11
113.5476038733538
 21
398.9739395566012
 31
0.0
 11
113.6257784125598
 21
398.6574167195101
 31
0.0
 11
113.6520673478248
 21
398.3436917915873
 31
0.0
 11
113.6257784125597
 21
398.0299668636644
 31
0.0
  0
SPLINE
  5
180
330
48
100
AcDbEntity
  8
1
  6
Continuous
 62
     7
100
AcDbSpline
210
0.0
220
0.0
230
1.0
 70
     8
 71
     3
 72
    17
 73
    13
 74
    11
 42
0.0000000001
 43
0.0000000001
 44
0.00000001
 40
0.0
 40
0.0
 40
0.0
 40
0.0
 40
0.3260336868795355
 40
0.6515531246310785
 40
1.007328154973563
 40
1.362472078790971
 40
1.759517008280261
 40
2.156092448891109
 40
2.598747023111506
 40
3.041101905808239
 40
3.499585734630489
 40
3.957798168761522
 40
3.957798168761522
 40
3.957798168761522
 40
3.957798168761522
 10
113.6257784125597
 20
398.0299668636644
 30
0.0
 10
113.6032204477566
 20
397.9234062347983
 30
0.0
 10
113.5581400985647
 20
397.7104530539017
 30
0.0
 10
113.4236086645115
 20
397.4007238880055
 30
0.0
 10
113.2468630663518
 20
397.103029588987
 30
0.0
 10
113.0179786889421
 20
396.8119708041681
 30
0.0
 10
112.7487630588895
 20
396.5386583586267
 30
0.0
 10
112.4314842709407
 20
396.2747974839062
 30
0.0
 10
112.0794650194708
 20
396.0317842593037
 30
0.0
 10
111.6916073108445
 20
395.8072360311848
 30
0.0
 10
111.2847849345051
 20
395.606873156429
 30
0.0
 10
111.0011506971024
 20
395.4929758924848
 30
0.0
 10
110.8593755644052
 20
395.4360441205752
 30
0.0
 11
113.6257784125597
 21
398.0299668636644
 31
0.0
 11
113.5476038733537
 21
397.7134440265733
 31
0.0
 11
113.4218979805446
 21
397.4131759249256
 31
0.0
 11
113.2403370145033
 21
397.1072159801202
 31
0.0
 11
113.0219779484315
 21
396.8271329122837
 31
0.0
 11
112.7442256288931
 21
396.5434106448739
 31
0.0
 11
112.4399304884904
 21
396.2890948026167
 31
0.0
 11
112.0762789721973
 21
396.0367049320276
 31
0.0
 11
111.6939503751625
 21
395.814212940857
 31
0.0
 11
111.282395409334
 21
395.6121487644343
 31
0.0
 11
110.8593755644052
 21
395.4360441205752
 31
0.0
  0
ARC
  5
181
330
48
100
AcDbEntity
  8
1
  6
Continuous
 62
     7
100
AcDbCircle
 10
252.852897822009
 20
235.4926371349879
 30
0.0
 40
0.1999999999999886
100
AcDbArc
 50
180.0
 51
-90.0
  0
ARC
  5
182
330
48
100
AcDbEntity
  8
1
  6
Continuous
 62
     7
100
AcDbCircle
 10
252.9139295518372
 20
234.2926371349879
 30
0.0
 40
0.9999999999999802
100
AcDbArc
 50
17.0735495670385
 51
90.0
  0
ARC
  5
183
330
48
100
AcDbEntity
  8
1
  6
Continuous
 62
     7
100
AcDbCircle
 10
96.69999999999965
 20
391.6873386810707
 30
0.0
 40
0.2000000000001023
100
AcDbArc
 50
180.0
 51
-90.0
  0
ARC
  5
184
330
48
100
AcDbEntity
  8
1
  6
Continuous
 62
     7
100
AcDbCircle
 10
95.49999999999955
 20
391.7483704108989
 30
0.0
 40
1.0
100
AcDbArc
 50
0.0
 51
47.6436020291814
  0
ARC
  5
185
330
48
100
AcDbEntity
  8
1
  6
Continuous
 62
     7
100
AcDbCircle
 10
96.69999999999965
 20
391.6873386810707
 30
0.0
 40
0.2000000000001023
100
AcDbArc
 50
180.0
 51
-90.0
  0
ARC
  5
186
330
48
100
AcDbEntity
  8
1
  6
Continuous
 62
     7
100
AcDbCircle
 10
95.49999999999955
 20
391.7483704108989
 30
0.0
 40
1.000000000000002
100
AcDbArc
 50
47.6436020291814
 51
72.92645043295852
  0
ARC
  5
187
330
48
100
AcDbEntity
  8
1
  6
Continuous
 62
     7
100
AcDbCircle
 10
117.2999999999996
 20
391.6873386810707
 30
0.0
 40
0.2000000000001023
100
AcDbArc
 50
-90.0
 51
0.0
  0
ARC
  5
188
330
48
100
AcDbEntity
  8
1
  6
Continuous
 62
     7
100
AcDbCircle
 10
118.4999999999996
 20
391.7483704108989
 30
0.0
 40
0.9999999999999834
100
AcDbArc
 50
132.3563979708174
 51
180.0
  0
ARC
  5
189
330
48
100
AcDbEntity
  8
1
  6
Continuous
 62
     7
100
AcDbCircle
 10
117.2999999999996
 20
391.6873386810707
 30
0.0
 40
0.2000000000001023
100
AcDbArc
 50
-90.0
 51
0.0
  0
ARC
  5
18A
330
48
100
AcDbEntity
  8
1
  6
Continuous
 62
     7
100
AcDbCircle
 10
118.4999999999996
 20
391.7483704108989
 30
0.0
 40
0.9999999999998361
100
AcDbArc
 50
107.0735495670283
 51
132.3563979708174
  0
ARC
  5
18B
330
48
100
AcDbEntity
  8
1
  6
Continuous
 62
     7
100
AcDbCircle
 10
252.9139295518372
 20
257.2926371349881
 30
0.0
 40
1.0
100
AcDbArc
 50
-90.0
 51
-17.07354956704005
  0
ARC
  5
18C
330
48
100
AcDbEntity
  8
1
  6
Continuous
 62
     7
100
AcDbCircle
 10
252.852897822009
 20
256.0926371349881
 30
0.0
 40
0.2000000000000455
100
AcDbArc
 50
90.0
 51
180.0
  0
ENDBLK
  5
4A
330
48
100
AcDbEntity
  8
0
100
AcDbBlockEnd
  0
BLOCK
  5
4C
330
4B
100
AcDbEntity
  8
0
100
AcDbBlockBegin
  2
14-42
 70
     0
 71
     0
 10
1121.123031563545
 20
253.0355284211468
 30
0.0
  3
14-42
  1

  0
LINE
  5
18D
330
4B
100
AcDbEntity
  8
1
  6
PHANTOM
 62
     4
100
AcDbLine
 10
199.4296119375407
 20
207.5693512505208
 30
0.0
 11
190.2025106418148
 21
198.342249954795
 31
0.0
  0
LINE
  5
18E
330
4B
100
AcDbEntity
  8
1
  6
Continuous
 62
     7
100
AcDbLine
 10
194.0909557395822
 20
213.3322715171905
 30
0.0
 11
205.1925322042116
 21
202.2306950525613
 31
0.0
  0
LINE
  5
18F
330
4B
100
AcDbEntity
  8
0
  6
Continuous
 62
     7
100
AcDbLine
 10
199.4296119375407
 20
207.5693512505208
 30
0.0
 11
204.7682681355002
 21
202.2306950525613
 31
0.0
  0
LINE
  5
190
330
4B
100
AcDbEntity
  8
0
  6
Continuous
 62
     7
100
AcDbLine
 10
204.7682681355002
 20
202.2306950525613
 30
0.0
 11
205.1925322042116
 21
202.2306950525613
 31
0.0
  0
LINE
  5
191
330
4B
100
AcDbEntity
  8
0
  6
Continuous
 62
     7
100
AcDbLine
 10
205.1925322042116
 20
202.2306950525613
 30
0.0
 11
211.1791262154527
 21
208.2172890638028
 31
0.0
  0
LINE
  5
192
330
4B
100
AcDbEntity
  8
1
  6
Continuous
 62
     7
100
AcDbLine
 10
201.2680895686259
 20
221.2872228055389
 30
0.0
 11
213.1474834925602
 21
209.4078288816049
 31
0.0
  0
LINE
  5
193
330
4B
100
AcDbEntity
  8
1
  6
Continuous
 62
     7
100
AcDbLine
 10
202.2933944013464
 20
222.3125276382598
 30
0.0
 11
214.1727883252809
 21
210.4331337143254
 31
0.0
  0
LINE
  5
194
330
4B
100
AcDbEntity
  8
1
  6
Continuous
 62
     7
100
AcDbLine
 10
204.4854254230249
 20
222.3125276382596
 30
0.0
 11
214.1727883252809
 21
212.6251647360037
 31
0.0
  0
LINE
  5
195
330
4B
100
AcDbEntity
  8
1
  6
Continuous
 62
     7
100
AcDbLine
 10
201.3034449076852
 20
220.5447606852928
 30
0.0
 11
212.405021372314
 21
209.4431842206641
 31
0.0
  0
LINE
  5
196
330
4B
100
AcDbEntity
  8
0
  6
Continuous
 62
     7
100
AcDbLine
 10
218.3648193469592
 20
214.6251647360037
 30
0.0
 11
219.5114445232389
 21
215.7717899122835
 31
0.0
  0
LINE
  5
197
330
4B
100
AcDbEntity
  8
0
  6
Continuous
 62
     7
100
AcDbLine
 10
211.1791262154527
 20
208.2172890638028
 30
0.0
 11
211.5779416993487
 21
208.6161045476987
 31
0.0
  0
LINE
  5
198
330
4B
100
AcDbEntity
  8
0
  6
Continuous
 62
     7
100
AcDbLine
 10
211.5779416993487
 20
208.6161045476987
 30
0.0
 11
212.405021372314
 21
209.4431842206641
 31
0.0
  0
LINE
  5
199
330
4B
100
AcDbEntity
  8
0
  6
Continuous
 62
     7
100
AcDbLine
 10
202.2933944013464
 20
222.3125276382598
 30
0.0
 11
201.2680895686259
 21
221.2872228055389
 31
0.0
  0
LINE
  5
19A
330
4B
100
AcDbEntity
  8
0
  6
Continuous
 62
     7
100
AcDbLine
 10
201.2680895686259
 20
221.2872228055389
 30
0.0
 11
201.3034449076852
 21
220.5447606852928
 31
0.0
  0
LINE
  5
19B
330
4B
100
AcDbEntity
  8
0
  6
Continuous
 62
     7
100
AcDbLine
 10
215.5870018876539
 20
214.0393782983767
 30
0.0
 11
216.9506057845863
 21
214.039378298376
 31
0.0
  0
LINE
  5
19C
330
4B
100
AcDbEntity
  8
0
  6
Continuous
 62
     7
100
AcDbLine
 10
221.2792114762056
 20
217.5395568652498
 30
0.0
 11
225.5925628414434
 21
221.8529082304879
 31
0.0
  0
LINE
  5
19D
330
4B
100
AcDbEntity
  8
0
  6
Continuous
 62
     7
100
AcDbLine
 10
219.6528658794762
 20
227.7926051924554
 30
0.0
 11
225.5925628414434
 21
221.8529082304879
 31
0.0
  0
LINE
  5
19E
330
4B
100
AcDbEntity
  8
0
  6
Continuous
 62
     7
100
AcDbLine
 10
212.405021372314
 20
209.4431842206641
 30
0.0
 11
213.1474834925602
 21
209.4078288816049
 31
0.0
  0
LINE
  5
19F
330
4B
100
AcDbEntity
  8
0
  6
Continuous
 62
     7
100
AcDbLine
 10
214.1727883252809
 20
212.6251647360037
 30
0.0
 11
214.1727883252809
 21
210.4331337143254
 31
0.0
  0
LINE
  5
1A0
330
4B
100
AcDbEntity
  8
0
  6
Continuous
 62
     7
100
AcDbLine
 10
213.1474834925602
 20
209.4078288816049
 30
0.0
 11
214.1727883252809
 21
210.4331337143254
 31
0.0
  0
LINE
  5
1A1
330
4B
100
AcDbEntity
  8
0
  6
Continuous
 62
     7
100
AcDbLine
 10
214.1727883252809
 20
212.6251647360037
 30
0.0
 11
215.5870018876539
 21
214.0393782983767
 31
0.0
  0
LINE
  5
1A2
330
4B
100
AcDbEntity
  8
0
  6
Continuous
 62
     7
100
AcDbLine
 10
194.0909557395825
 20
212.9080074484793
 30
0.0
 11
199.4296119375418
 21
207.5693512505218
 31
0.0
  0
LINE
  5
1A3
330
4B
100
AcDbEntity
  8
0
  6
Continuous
 62
     7
100
AcDbLine
 10
205.8996389853975
 20
225.0903450975649
 30
0.0
 11
205.8996389853977
 21
223.7267412006327
 31
0.0
  0
LINE
  5
1A4
330
4B
100
AcDbEntity
  8
0
  6
Continuous
 62
     7
100
AcDbLine
 10
207.6320505993047
 20
227.6511838362178
 30
0.0
 11
206.4854254230247
 21
226.504558659938
 31
0.0
  0
LINE
  5
1A5
330
4B
100
AcDbEntity
  8
0
  6
Continuous
 62
     7
100
AcDbLine
 10
213.7131689175091
 20
233.7323021544223
 30
0.0
 11
209.3998175522709
 21
229.4189507891844
 31
0.0
  0
LINE
  5
1A6
330
4B
100
AcDbEntity
  8
0
  6
Continuous
 62
     7
100
AcDbLine
 10
213.7131689175091
 20
233.7323021544223
 30
0.0
 11
219.6528658794762
 21
227.7926051924554
 31
0.0
  0
LINE
  5
1A7
330
4B
100
AcDbEntity
  8
0
  6
Continuous
 62
     7
100
AcDbLine
 10
194.0909557395822
 20
213.3322715171905
 30
0.0
 11
194.0909557395825
 21
212.9080074484793
 31
0.0
  0
LINE
  5
1A8
330
4B
100
AcDbEntity
  8
0
  6
Continuous
 62
     7
100
AcDbLine
 10
201.3034449076852
 20
220.5447606852928
 30
0.0
 11
194.0909557395822
 21
213.3322715171905
 31
0.0
  0
LINE
  5
1A9
330
4B
100
AcDbEntity
  8
0
  6
Continuous
 62
     7
100
AcDbLine
 10
202.2933944013464
 20
222.3125276382598
 30
0.0
 11
204.4854254230249
 21
222.3125276382596
 31
0.0
  0
LINE
  5
1AA
330
4B
100
AcDbEntity
  8
0
  6
Continuous
 62
     7
100
AcDbLine
 10
205.8996389853977
 20
223.7267412006327
 30
0.0
 11
204.4854254230249
 21
222.3125276382596
 31
0.0
  0
LINE
  5
1AB
330
4B
100
AcDbEntity
  8
1
  6
PHANTOM
 62
     4
100
AcDbLine
 10
219.8440041203935
 20
227.9837434333722
 30
0.0
 11
199.4296119375407
 21
207.5693512505208
 31
0.0
  0
LINE
  5
1AC
330
4B
100
AcDbEntity
  8
0
  6
Continuous
 62
     7
100
AcDbLine
 10
99.15000000000038
 20
207.7814832848761
 30
0.0
 11
99.15000000000038
 21
214.9939724529787
 31
0.0
  0
LINE
  5
1AD
330
4B
100
AcDbEntity
  8
0
  6
Continuous
 62
     7
100
AcDbLine
 10
114.8500000000004
 20
207.7814832848761
 30
0.0
 11
114.8500000000004
 21
214.9939724529787
 31
0.0
  0
LINE
  5
1AE
330
4B
100
AcDbEntity
  8
1
  6
Continuous
 62
     7
100
AcDbLine
 10
98.59999999999945
 20
353.3252986992936
 30
0.0
 11
98.59999999999945
 21
357.9215087111429
 31
0.0
  0
LINE
  5
1AF
330
4B
100
AcDbEntity
  8
1
  6
Continuous
 62
     7
100
AcDbLine
 10
115.3999999999995
 20
357.9215097728195
 30
0.0
 11
115.3999999999995
 21
353.3252997609703
 31
0.0
  0
LINE
  5
1B0
330
4B
100
AcDbEntity
  8
0
  6
Continuous
 62
     7
100
AcDbLine
 10
98.60000000000036
 20
216.3728306762926
 30
0.0
 11
98.60000000000036
 21
215.347525843572
 31
0.0
  0
LINE
  5
1B1
330
4B
100
AcDbEntity
  8
0
  6
Continuous
 62
     7
100
AcDbLine
 10
115.4000000000004
 20
215.347525843572
 30
0.0
 11
115.4000000000004
 21
216.3728306762926
 31
0.0
  0
ARC
  5
1B2
330
4B
100
AcDbEntity
  8
0
  6
Continuous
 62
     7
100
AcDbCircle
 10
207.8996389853876
 20
225.0903450975682
 30
0.0
 40
1.99999999999047
100
AcDbArc
 50
134.9999999998601
 51
159.4698005206743
  0
ARC
  5
1B3
330
4B
100
AcDbEntity
  8
0
  6
Continuous
 62
     7
100
AcDbCircle
 10
216.9506057845895
 20
216.0393782983662
 30
0.0
 40
1.999999999990195
100
AcDbArc
 50
-90.000000000092
 51
-44.99999999985376
  0
ARC
  5
1B4
330
4B
100
AcDbEntity
  8
0
  6
Continuous
 62
     7
100
AcDbCircle
 10
207.8996389853876
 20
225.0903450975682
 30
0.0
 40
1.999999999990163
100
AcDbArc
 50
159.4698005206743
 51
-179.9999999999056
  0
ARC
  5
1B5
330
4B
100
AcDbEntity
  8
1
  6
Continuous
 62
     7
100
AcDbCircle
 10
106.9999999999998
 20
341.3660740517489
 30
0.0
 40
8.440677453107147
100
AcDbArc
 50
-155.1289959300435
 51
-24.87100406995709
  0
SPLINE
  5
1B6
330
4B
100
AcDbEntity
  8
0
  6
Continuous
 62
     7
100
AcDbSpline
210
0.0
220
0.0
230
1.0
 70
     8
 71
     3
 72
    23
 73
    19
 74
    17
 42
0.0000000001
 43
0.0000000001
 44
0.00000001
 40
0.0
 40
0.0
 40
0.0
 40
0.0
 40
0.3187063523449374
 40
0.6377714794638643
 40
1.277257969896267
 40
1.916881735067121
 40
2.526203350189873
 40
3.135725132784425
 40
3.711269516175566
 40
4.287083034909449
 40
4.829052644977981
 40
5.371346439891305
 40
5.884417908631851
 40
6.397809787698821
 40
6.891200703452914
 40
7.384800080957314
 40
7.628622616661763
 40
7.871497000598494
 40
7.871497000598494
 40
7.871497000598494
 40
7.871497000598494
 10
109.700000000006
 20
202.5693658532405
 30
0.0
 10
109.8025869784491
 20
202.5970019174126
 30
0.0
 10
110.0078764197607
 20
202.6523051562843
 30
0.0
 10
110.4144402782047
 20
202.7789933748232
 30
0.0
 10
110.915107843369
 20
202.9622242588852
 30
0.0
 10
111.4901007417338
 20
203.2197693240992
 30
0.0
 10
112.0357839986475
 20
203.5142115812019
 30
0.0
 10
112.5392397948179
 20
203.8383674208392
 30
0.0
 10
113.0055682868787
 20
204.195925413686
 30
0.0
 10
113.4225048514151
 20
204.5775629010474
 30
0.0
 10
113.7950169565877
 20
204.9878621915726
 30
0.0
 10
114.1126394836851
 20
205.4163685618789
 30
0.0
 10
114.3793611393172
 20
205.8673102201659
 30
0.0
 10
114.5870987393286
 20
206.33057956925
 30
0.0
 10
114.7390610487064
 20
206.8083030432644
 30
0.0
 10
114.8137961782294
 20
207.2127669016319
 30
0.0
 10
114.845600744499
 20
207.5382442334953
 30
0.0
 10
114.8485354872592
 20
207.7005089723423
 30
0.0
 10
114.8500000000004
 20
207.7814832848798
 30
0.0
 11
109.700000000006
 21
202.5693658532405
 31
0.0
 11
110.0071914604421
 21
202.654260762747
 31
0.0
 11
110.3119122011318
 21
202.7488537092968
 31
0.0
 11
110.9122536996493
 21
202.96915590312
 31
0.0
 11
111.4957692417906
 21
203.2311256972775
 31
0.0
 11
112.0317507835129
 21
203.5209473969287
 31
0.0
 11
112.5438367357542
 21
203.8515298843269
 31
0.0
 11
113.0001446142287
 21
204.2022925637772
 31
0.0
 11
113.4243630806685
 21
204.5916508834369
 31
0.0
 11
113.78802283976
 21
204.9934999071452
 31
0.0
 11
114.110418177686
 21
205.4295547271909
 31
0.0
 11
114.3707568365196
 21
205.871670226526
 31
0.0
 11
114.5805649148677
 21
206.3402337673097
 31
0.0
 11
114.7290355234811
 21
206.8107558965732
 31
0.0
 11
114.819620317819
 21
207.2959720757217
 31
0.0
 11
114.8424050794552
 21
207.5387276803007
 31
0.0
 11
114.8500000000004
 21
207.7814832848798
 31
0.0
  0
SPLINE
  5
1B7
330
4B
100
AcDbEntity
  8
0
  6
Continuous
 62
     7
100
AcDbSpline
210
0.0
220
0.0
230
1.0
 70
     8
 71
     3
 72
    13
 73
     9
 74
     7
 42
0.0000000001
 43
0.0000000001
 44
0.00000001
 40
0.0
 40
0.0
 40
0.0
 40
0.0
 40
0.3141370706973974
 40
0.6293367988551819
 40
1.157296504885026
 40
1.685479278265546
 40
1.946384921551045
 40
2.206275982053313
 40
2.206275982053313
 40
2.206275982053313
 40
2.206275982053313
 10
114.8500000000032
 20
213.2332963253663
 30
0.0
 10
114.8978186859576
 20
213.3264929163861
 30
0.0
 10
114.9936178180919
 20
213.5132013622452
 30
0.0
 10
115.1421574186704
 20
213.8695938752818
 30
0.0
 10
115.2813669421181
 20
214.3061378990609
 30
0.0
 10
115.3612500371525
 20
214.7389658982852
 30
0.0
 10
115.3952941849626
 20
215.0872440758052
 30
0.0
 10
115.3984334335488
 20
215.2608780084667
 30
0.0
 10
115.4000000000004
 20
215.3475258435439
 30
0.0
 11
114.8500000000032
 21
213.2332963253663
 31
0.0
 11
114.9897128732332
 21
213.514654481886
 31
0.0
 11
115.111687297438
 21
213.8052970604437
 31
0.0
 11
115.270560305381
 21
214.3087857083179
 31
0.0
 11
115.3674918050547
 21
214.827997925496
 31
0.0
 11
115.3918729512631
 21
215.0877618845199
 31
0.0
 11
115.4000000000004
 21
215.3475258435439
 31
0.0
  0
SPLINE
  5
1B8
330
4B
100
AcDbEntity
  8
0
  6
Continuous
 62
     7
100
AcDbSpline
210
0.0
220
0.0
230
1.0
 70
     8
 71
     3
 72
    23
 73
    19
 74
    17
 42
0.0000000001
 43
0.0000000001
 44
0.00000001
 40
0.0
 40
0.0
 40
0.0
 40
0.0
 40
0.2428743839367329
 40
0.4866969196411001
 40
0.9802962971454365
 40
1.473687212899581
 40
1.987079091966563
 40
2.500150560707063
 40
3.042444355620457
 40
3.58441396568893
 40
4.160227484422808
 40
4.735771867813893
 40
5.3452936504084
 40
5.954615265531278
 40
6.594239030702275
 40
7.233725521134651
 40
7.552790648264406
 40
7.871497000620051
 40
7.871497000620051
 40
7.871497000620051
 40
7.871497000620051
 10
99.15000000000038
 20
207.7814832848798
 30
0.0
 10
99.15146451274158
 20
207.7005089723422
 30
0.0
 10
99.15439925550183
 20
207.5382442334953
 30
0.0
 10
99.18620382177156
 20
207.2127669016319
 30
0.0
 10
99.26093895129444
 20
206.8083030432645
 30
0.0
 10
99.41290126067221
 20
206.3305795692501
 30
0.0
 10
99.62063886068344
 20
205.8673102201658
 30
0.0
 10
99.88736051631551
 20
205.416368561879
 30
0.0
 10
100.2049830434128
 20
204.9878621915726
 30
0.0
 10
100.5774951485857
 20
204.5775629010475
 30
0.0
 10
100.9944317131221
 20
204.1959254136862
 30
0.0
 10
101.4607602051829
 20
203.8383674208394
 30
0.0
 10
101.964216001353
 20
203.5142115812019
 30
0.0
 10
102.509899258267
 20
203.2197693240991
 30
0.0
 10
103.0848921566318
 20
202.9622242588853
 30
0.0
 10
103.5855597217996
 20
202.7789933748219
 30
0.0
 10
103.9921235802504
 20
202.6523051562812
 30
0.0
 10
104.1974130215691
 20
202.5970019174081
 30
0.0
 10
104.3000000000157
 20
202.5693658532352
 30
0.0
 11
99.15000000000038
 21
207.7814832848798
 31
0.0
 11
99.15759492054565
 21
207.5387276803007
 31
0.0
 11
99.18037968218184
 21
207.2959720757218
 31
0.0
 11
99.27096447651969
 21
206.8107558965733
 31
0.0
 11
99.41943508513303
 21
206.3402337673098
 31
0.0
 11
99.62924316348101
 21
205.871670226526
 31
0.0
 11
99.88958182231457
 21
205.4295547271909
 31
0.0
 11
100.2119771602407
 21
204.9934999071452
 31
0.0
 11
100.5756369193322
 21
204.591650883437
 31
0.0
 11
100.9998553857721
 21
204.2022925637775
 31
0.0
 11
101.4561632642465
 21
203.8515298843271
 31
0.0
 11
101.9682492164876
 21
203.5209473969288
 31
0.0
 11
102.5042307582101
 21
203.2311256972776
 31
0.0
 11
103.0877463003516
 21
202.96915590312
 31
0.0
 11
103.688087798869
 21
202.7488537092968
 31
0.0
 11
103.9928085395691
 21
202.6542607627441
 31
0.0
 11
104.3000000000157
 21
202.5693658532352
 31
0.0
  0
SPLINE
  5
1B9
330
4B
100
AcDbEntity
  8
0
  6
Continuous
 62
     7
100
AcDbSpline
210
0.0
220
0.0
230
1.0
 70
     8
 71
     3
 72
    45
 73
    41
 74
    39
 42
0.0000000001
 43
0.0000000001
 44
0.00000001
 40
0.0
 40
0.0
 40
0.0
 40
0.0
 40
0.2428743839357443
 40
0.4866969196372876
 40
0.9802962971417941
 40
1.473687212895897
 40
1.987079091962856
 40
2.500150560703368
 40
3.042444355616762
 40
3.584413965685295
 40
4.160227484419156
 40
4.735771867810292
 40
5.34529365040482
 40
5.95461526552761
 40
6.594239030698514
 40
7.233725521130864
 40
7.896900326101168
 40
8.559990475299692
 40
9.238099651225067
 40
9.916168623749307
 40
10.5993770241911
 40
11.2825854246328
 40
11.96065439715697
 40
12.63876357308232
 40
13.30185372228084
 40
13.96502852725122
 40
14.60451501768368
 40
15.2441387828545
 40
15.85346039797728
 40
16.46298218057188
 40
17.03852656396309
 40
17.61434008269688
 40
18.15630969276531
 40
18.69860348767873
 40
19.21167495641929
 40
19.72506683548625
 40
20.21845775124034
 40
20.71205712874474
 40
20.95587966444637
 40
21.19875404838214
 40
21.19875404838214
 40
21.19875404838214
 40
21.19875404838214
 10
114.8500000000004
 20
207.7814832848761
 30
0.0
 10
114.848535487259
 20
207.862457597413
 30
0.0
 10
114.8456007444982
 20
208.0247223362579
 30
0.0
 10
114.8137961782319
 20
208.3501996681274
 30
0.0
 10
114.7390610486838
 20
208.7546635264366
 30
0.0
 10
114.5870987394123
 20
209.2323870006915
 30
0.0
 10
114.3793611389913
 20
209.6956563488491
 30
0.0
 10
114.1126394849283
 20
210.1465980106848
 30
0.0
 10
113.7950169516545
 20
210.5751043670226
 30
0.0
 10
113.4225048702651
 20
210.9854037113346
 30
0.0
 10
113.0055682116455
 20
211.3670409859239
 30
0.0
 10
112.5392400818695
 20
211.7245997980892
 30
0.0
 10
112.0357828570259
 20
212.0487524067368
 30
0.0
 10
111.4901050819892
 20
212.3432070612773
 30
0.0
 10
110.9150907497808
 20
212.6007036531799
 30
0.0
 10
110.3067041697463
 20
212.8235716451167
 30
0.0
 10
109.6771166419019
 20
213.0069237872717
 30
0.0
 10
109.0244312909628
 20
213.1518245382906
 30
0.0
 10
108.3589244372091
 20
213.2555403362383
 30
0.0
 10
107.6816077315927
 20
213.3183941657171
 30
0.0
 10
107.0000000000003
 20
213.339236389516
 30
0.0
 10
106.318392268408
 20
213.3183941657171
 30
0.0
 10
105.6410755627917
 20
213.2555403362384
 30
0.0
 10
104.975568709038
 20
213.1518245382908
 30
0.0
 10
104.3228833580989
 20
213.0069237872719
 30
0.0
 10
103.6932958302544
 20
212.8235716451169
 30
0.0
 10
103.0849092502199
 20
212.6007036531798
 30
0.0
 10
102.5098949180115
 20
212.3432070612773
 30
0.0
 10
101.9642171429749
 20
212.0487524067367
 30
0.0
 10
101.4607599181313
 20
211.724599798089
 30
0.0
 10
100.9944317883552
 20
211.3670409859238
 30
0.0
 10
100.5774951297356
 20
210.9854037113346
 30
0.0
 10
100.2049830483461
 20
210.5751043670228
 30
0.0
 10
99.88736051507226
 20
210.146598010685
 30
0.0
 10
99.62063886100944
 20
209.6956563488492
 30
0.0
 10
99.41290126058844
 20
209.2323870006914
 30
0.0
 10
99.260938951317
 20
208.7546635264367
 30
0.0
 10
99.1862038217688
 20
208.3501996681274
 30
0.0
 10
99.15439925550254
 20
208.024722336258
 30
0.0
 10
99.15146451274183
 20
207.862457597413
 30
0.0
 10
99.15000000000038
 20
207.7814832848761
 30
0.0
 11
114.8500000000004
 21
207.7814832848761
 31
0.0
 11
114.842405079455
 21
208.0242388894542
 31
0.0
 11
114.819620317819
 21
208.2669944940303
 31
0.0
 11
114.7290355234811
 21
208.752210673179
 31
0.0
 11
114.5805649148678
 21
209.2227328024424
 31
0.0
 11
114.3707568365197
 21
209.6912963432262
 31
0.0
 11
114.1104181776861
 21
210.1334118425612
 31
0.0
 11
113.78802283976
 21
210.5694666626069
 31
0.0
 11
113.4243630806685
 21
210.9713156863153
 31
0.0
 11
113.0001446142288
 21
211.3606740059749
 31
0.0
 11
112.5438367357543
 21
211.7114366854253
 31
0.0
 11
112.031750783513
 21
212.0420191728235
 31
0.0
 11
111.4957692417906
 21
212.3318408724747
 31
0.0
 11
110.9122536996493
 21
212.5938106666322
 31
0.0
 11
110.3119122011318
 21
212.8141128604553
 31
0.0
 11
109.6753146924762
 21
212.999974190271
 31
0.0
 11
109.0280277534873
 21
213.1438775070448
 31
0.0
 11
108.3580500838016
 21
213.2485769654804
 31
0.0
 11
107.6828855164229
 21
213.3112693769541
 31
0.0
 11
107.0000000000003
 21
213.3322715171904
 31
0.0
 11
106.3171144835778
 21
213.3112693769542
 31
0.0
 11
105.6419499161992
 21
213.2485769654805
 31
0.0
 11
104.9719722465135
 21
213.143877507045
 31
0.0
 11
104.3246853075246
 21
212.9999741902712
 31
0.0
 11
103.6880877988689
 21
212.8141128604555
 31
0.0
 11
103.0877463003513
 21
212.5938106666322
 31
0.0
 11
102.5042307582101
 21
212.3318408724747
 31
0.0
 11
101.9682492164878
 21
212.0420191728234
 31
0.0
 11
101.4561632642465
 21
211.7114366854252
 31
0.0
 11
100.9998553857719
 21
211.3606740059748
 31
0.0
 11
100.5756369193321
 21
210.9713156863153
 31
0.0
 11
100.2119771602406
 21
210.5694666626071
 31
0.0
 11
99.88958182231457
 21
210.1334118425613
 31
0.0
 11
99.62924316348099
 21
209.6912963432262
 31
0.0
 11
99.419435085133
 21
209.2227328024424
 31
0.0
 11
99.27096447651965
 21
208.752210673179
 31
0.0
 11
99.18037968218175
 21
208.2669944940304
 31
0.0
 11
99.15759492054583
 21
208.0242388894542
 31
0.0
 11
99.15000000000038
 21
207.7814832848761
 31
0.0
  0
SPLINE
  5
1BA
330
4B
100
AcDbEntity
  8
0
  6
Continuous
 62
     7
100
AcDbSpline
210
0.0
220
0.0
230
1.0
 70
     8
 71
     3
 72
    45
 73
    41
 74
    39
 42
0.0000000001
 43
0.0000000001
 44
0.00000001
 40
0.0
 40
0.0
 40
0.0
 40
0.0
 40
0.2428743839375403
 40
0.4866969196372539
 40
0.9802962971417299
 40
1.473687212895837
 40
1.987079091962718
 40
2.500150560703279
 40
3.042444355616688
 40
3.584413965685124
 40
4.160227484418911
 40
4.735771867810076
 40
5.345293650404628
 40
5.954615265527433
 40
6.594239030698287
 40
7.233725521130673
 40
7.896900326101012
 40
8.55999047529958
 40
9.238099651224975
 40
9.91616862374917
 40
10.59937702419087
 40
11.28258542463258
 40
11.96065439715669
 40
12.63876357308197
 40
13.30185372228044
 40
13.96502852725088
 40
14.60451501768339
 40
15.24413878285423
 40
15.85346039797692
 40
16.46298218057148
 40
17.03852656396266
 40
17.61434008269643
 40
18.15630969276486
 40
18.69860348767828
 40
19.21167495641886
 40
19.72506683548577
 40
20.21845775123982
 40
20.7120571287443
 40
20.9558796644487
 40
21.19875404838162
 40
21.19875404838162
 40
21.19875404838162
 40
21.19875404838162
 10
114.8500000000004
 20
214.9939724529787
 30
0.0
 10
114.8485354872589
 20
215.0749467655162
 30
0.0
 10
114.8456007444981
 20
215.2372115043611
 30
0.0
 10
114.8137961782319
 20
215.5626888362306
 30
0.0
 10
114.7390610486838
 20
215.9671526945391
 30
0.0
 10
114.5870987394124
 20
216.4448761687941
 30
0.0
 10
114.3793611389912
 20
216.9081455169516
 30
0.0
 10
114.1126394849284
 20
217.3590871787874
 30
0.0
 10
113.7950169516545
 20
217.7875935351252
 30
0.0
 10
113.4225048702651
 20
218.197892879437
 30
0.0
 10
113.0055682116454
 20
218.5795301540261
 30
0.0
 10
112.5392400818694
 20
218.9370889661914
 30
0.0
 10
112.0357828570258
 20
219.2612415748392
 30
0.0
 10
111.4901050819892
 20
219.5556962293796
 30
0.0
 10
110.9150907497808
 20
219.8131928212821
 30
0.0
 10
110.3067041697463
 20
220.0360608132192
 30
0.0
 10
109.6771166419018
 20
220.2194129553742
 30
0.0
 10
109.0244312909628
 20
220.364313706393
 30
0.0
 10
108.3589244372089
 20
220.4680295043406
 30
0.0
 10
107.6816077315927
 20
220.5308833338193
 30
0.0
 10
107.0000000000003
 20
220.5517255576182
 30
0.0
 10
106.318392268408
 20
220.5308833338193
 30
0.0
 10
105.6410755627918
 20
220.4680295043406
 30
0.0
 10
104.975568709038
 20
220.364313706393
 30
0.0
 10
104.322883358099
 20
220.2194129553742
 30
0.0
 10
103.6932958302545
 20
220.0360608132191
 30
0.0
 10
103.08490925022
 20
219.8131928212821
 30
0.0
 10
102.5098949180115
 20
219.5556962293797
 30
0.0
 10
101.9642171429749
 20
219.2612415748391
 30
0.0
 10
101.4607599181313
 20
218.9370889661915
 30
0.0
 10
100.9944317883554
 20
218.5795301540262
 30
0.0
 10
100.5774951297357
 20
218.197892879437
 30
0.0
 10
100.2049830483463
 20
217.7875935351252
 30
0.0
 10
99.88736051507237
 20
217.3590871787874
 30
0.0
 10
99.62063886100944
 20
216.9081455169517
 30
0.0
 10
99.41290126058843
 20
216.444876168794
 30
0.0
 10
99.2609389513168
 20
215.9671526945392
 30
0.0
 10
99.18620382176874
 20
215.5626888362291
 30
0.0
 10
99.15439925550218
 20
215.2372115043595
 30
0.0
 10
99.15146451274168
 20
215.0749467655147
 30
0.0
 10
99.15000000000038
 20
214.9939724529787
 30
0.0
 11
114.8500000000004
 21
214.9939724529787
 31
0.0
 11
114.8424050794548
 21
215.2367280575586
 31
0.0
 11
114.819620317819
 21
215.4794836621329
 31
0.0
 11
114.7290355234811
 21
215.9646998412815
 31
0.0
 11
114.5805649148678
 21
216.435221970545
 31
0.0
 11
114.3707568365197
 21
216.9037855113287
 31
0.0
 11
114.1104181776861
 21
217.3459010106637
 31
0.0
 11
113.78802283976
 21
217.7819558307095
 31
0.0
 11
113.4243630806685
 21
218.1838048544177
 31
0.0
 11
113.0001446142287
 21
218.5731631740772
 31
0.0
 11
112.5438367357542
 21
218.9239258535276
 31
0.0
 11
112.031750783513
 21
219.2545083409258
 31
0.0
 11
111.4957692417906
 21
219.5443300405771
 31
0.0
 11
110.9122536996493
 21
219.8062998347346
 31
0.0
 11
110.3119122011318
 21
220.0266020285578
 31
0.0
 11
109.6753146924762
 21
220.2124633583735
 31
0.0
 11
109.0280277534872
 21
220.3563666751472
 31
0.0
 11
108.3580500838015
 21
220.4610661335827
 31
0.0
 11
107.6828855164228
 21
220.5237585450564
 31
0.0
 11
107.0000000000003
 21
220.5447606852926
 31
0.0
 11
106.3171144835778
 21
220.5237585450564
 31
0.0
 11
105.6419499161992
 21
220.4610661335827
 31
0.0
 11
104.9719722465136
 21
220.3563666751472
 31
0.0
 11
104.3246853075247
 21
220.2124633583735
 31
0.0
 11
103.688087798869
 21
220.0266020285578
 31
0.0
 11
103.0877463003514
 21
219.8062998347346
 31
0.0
 11
102.5042307582101
 21
219.544330040577
 31
0.0
 11
101.9682492164878
 21
219.2545083409258
 31
0.0
 11
101.4561632642466
 21
218.9239258535276
 31
0.0
 11
100.999855385772
 21
218.5731631740772
 31
0.0
 11
100.5756369193323
 21
218.1838048544177
 31
0.0
 11
100.2119771602408
 21
217.7819558307095
 31
0.0
 11
99.88958182231468
 21
217.3459010106638
 31
0.0
 11
99.62924316348101
 21
216.9037855113287
 31
0.0
 11
99.41943508513296
 21
216.435221970545
 31
0.0
 11
99.27096447651957
 21
215.9646998412816
 31
0.0
 11
99.18037968218171
 21
215.479483662133
 31
0.0
 11
99.15759492054545
 21
215.236728057554
 31
0.0
 11
99.15000000000038
 21
214.9939724529787
 31
0.0
  0
SPLINE
  5
1BB
330
4B
100
AcDbEntity
  8
0
  6
Continuous
 62
     7
100
AcDbSpline
210
0.0
220
0.0
230
1.0
 70
     8
 71
     3
 72
    45
 73
    41
 74
    39
 42
0.0000000001
 43
0.0000000001
 44
0.00000001
 40
0.0
 40
0.0
 40
0.0
 40
0.0
 40
0.259891060519608
 40
0.5207967038155905
 40
1.048979477196121
 40
1.576939183225976
 40
2.126301193947266
 40
2.675320345211144
 40
3.255609246774558
 40
3.835551249905167
 40
4.451708390970616
 40
5.067577540077006
 40
5.719804670496623
 40
6.37181760897201
 40
7.056255778072101
 40
7.740547054458421
 40
8.450186336210107
 40
9.159735030893812
 40
9.88535504080115
 40
10.61093203050861
 40
11.34200853543994
 40
12.07308504037118
 40
12.79866203007849
 40
13.52428203998585
 40
14.23383073466965
 40
14.94347001642142
 40
15.62776129280774
 40
16.31219946190778
 40
16.9642124003831
 40
17.61643953080278
 40
18.23230867990919
 40
18.84846582097463
 40
19.42840782410517
 40
20.00869672566852
 40
20.55771587693236
 40
21.10707788765366
 40
21.63503759368346
 40
22.16322036706406
 40
22.42412601037065
 40
22.68401707087977
 40
22.68401707087977
 40
22.68401707087977
 40
22.68401707087977
 10
98.60000000000036
 20
215.347525843572
 30
0.0
 10
98.60156712191485
 20
215.4341735155868
 30
0.0
 10
98.60470748359529
 20
215.6078071214845
 30
0.0
 10
98.63874039526843
 20
215.956088597625
 30
0.0
 10
98.71871174408449
 20
216.3888906880443
 30
0.0
 10
98.88132109413286
 20
216.9000852337436
 30
0.0
 10
99.10361355827763
 20
217.3958129438741
 30
0.0
 10
99.38902271676533
 20
217.8783492444374
 30
0.0
 10
99.72889905810293
 20
218.3368783391173
 30
0.0
 10
100.1275107120739
 20
218.7759247712471
 30
0.0
 10
100.5736594932719
 20
219.1843009631643
 30
0.0
 10
101.0726602945608
 20
219.5669116666277
 30
0.0
 10
101.6113915924826
 20
219.9137756045437
 30
0.0
 10
102.195301568318
 20
220.2288608399756
 30
0.0
 10
102.8106035288978
 20
220.5043985943681
 30
0.0
 10
103.4616159202724
 20
220.7428815411543
 30
0.0
 10
104.1353146761824
 20
220.9390800117403
 30
0.0
 10
104.8337295740024
 20
221.0941330446779
 30
0.0
 10
105.5458642964905
 20
221.2051155545838
 30
0.0
 10
106.2706363126913
 20
221.2723731555547
 30
0.0
 10
107.0000000000004
 20
221.2946756625497
 30
0.0
 10
107.7293636873094
 20
221.2723731555546
 30
0.0
 10
108.4541357035102
 20
221.2051155545837
 30
0.0
 10
109.1662704259983
 20
221.0941330446779
 30
0.0
 10
109.8646853238184
 20
220.9390800117403
 30
0.0
 10
110.5383840797284
 20
220.7428815411542
 30
0.0
 10
111.189396471103
 20
220.5043985943682
 30
0.0
 10
111.8046984316827
 20
220.2288608399755
 30
0.0
 10
112.388608407518
 20
219.9137756045437
 30
0.0
 10
112.9273397054399
 20
219.5669116666276
 30
0.0
 10
113.4263405067289
 20
219.1843009631643
 30
0.0
 10
113.8724892879269
 20
218.7759247712471
 30
0.0
 10
114.2711009418977
 20
218.3368783391174
 30
0.0
 10
114.6109772832353
 20
217.8783492444374
 30
0.0
 10
114.8963864417229
 20
217.3958129438742
 30
0.0
 10
115.1186789058677
 20
216.9000852337438
 30
0.0
 10
115.2812882559165
 20
216.3888906880444
 30
0.0
 10
115.361259604732
 20
215.9560885976215
 30
0.0
 10
115.3952925164066
 20
215.607807121481
 30
0.0
 10
115.3984328780863
 20
215.4341735155833
 30
0.0
 10
115.4000000000004
 20
215.347525843572
 30
0.0
 11
98.60000000000036
 21
215.347525843572
 31
0.0
 11
98.60812704873715
 21
215.6072898026133
 31
0.0
 11
98.63250819494598
 21
215.8670537616478
 31
0.0
 11
98.72943969461973
 21
216.3862659788258
 31
0.0
 11
98.8883127025627
 21
216.8897546267001
 31
0.0
 11
99.11282070996694
 21
217.3911474601502
 31
0.0
 11
99.39139965699911
 21
217.8642392046617
 31
0.0
 11
99.73638320331493
 21
218.330845636303
 31
0.0
 11
100.1255223085848
 21
218.7608496871501
 31
0.0
 11
100.5794630879599
 21
219.1774878890788
 31
0.0
 11
101.0677415821236
 21
219.5528262976625
 31
0.0
 11
101.6157061679614
 21
219.906570615388
 31
0.0
 11
102.1892405565561
 21
220.2166982939957
 31
0.0
 11
102.8136393532423
 21
220.4970226597184
 31
0.0
 11
103.4560429949681
 21
220.7327600390962
 31
0.0
 11
104.1372428768417
 21
220.9316435003001
 31
0.0
 11
104.8298811300272
 21
221.0856292150646
 31
0.0
 11
105.5467999103277
 21
221.1976643043459
 31
0.0
 11
106.2692690015355
 21
221.2647491777701
 31
0.0
 11
107.0000000000004
 21
221.2872228055388
 31
0.0
 11
107.7307309984652
 21
221.2647491777701
 31
0.0
 11
108.4532000896729
 21
221.1976643043459
 31
0.0
 11
109.1701188699735
 21
221.0856292150646
 31
0.0
 11
109.862757123159
 21
220.9316435003001
 31
0.0
 11
110.5439570050327
 21
220.7327600390962
 31
0.0
 11
111.1863606467585
 21
220.4970226597185
 31
0.0
 11
111.8107594434447
 21
220.2166982939957
 31
0.0
 11
112.3842938320393
 21
219.906570615388
 31
0.0
 11
112.9322584178771
 21
219.5528262976625
 31
0.0
 11
113.4205369120409
 21
219.1774878890787
 31
0.0
 11
113.8744776914159
 21
218.7608496871501
 31
0.0
 11
114.2636167966858
 21
218.3308456363031
 31
0.0
 11
114.6086003430015
 21
217.8642392046618
 31
0.0
 11
114.8871792900337
 21
217.3911474601503
 31
0.0
 11
115.111687297438
 21
216.8897546267002
 31
0.0
 11
115.270560305381
 21
216.386265978826
 31
0.0
 11
115.3674918050545
 21
215.8670537616478
 31
0.0
 11
115.3918729512648
 21
215.6072898026029
 31
0.0
 11
115.4000000000004
 21
215.347525843572
 31
0.0
  0
SPLINE
  5
1BC
330
4B
100
AcDbEntity
  8
0
  6
Continuous
 62
     7
100
AcDbSpline
210
0.0
220
0.0
230
1.0
 70
     8
 71
     3
 72
    41
 73
    37
 74
    35
 42
0.0000000001
 43
0.0000000001
 44
0.00000001
 40
0.0
 40
0.0
 40
0.0
 40
0.0
 40
0.0845191608874537
 40
0.1692255843322529
 40
0.6172172240275269
 40
1.064929269998612
 40
1.53814105282116
 40
2.011069948231185
 40
2.51353142636195
 40
3.015758053907115
 40
3.547633749546998
 40
4.079334776756073
 40
4.637477807510305
 40
5.19550105075387
 40
5.774194988849019
 40
6.352815055347056
 40
6.944540896759608
 40
7.536231656223404
 40
8.132407139411434
 40
8.728582622599408
 40
9.320273382063165
 40
9.911999223475769
 40
10.49061928997387
 40
11.069313228069
 40
11.62733647131254
 40
12.18547950206676
 40
12.71718052927585
 40
13.24905622491579
 40
13.75128285246096
 40
14.25374433059166
 40
14.72667322600167
 40
15.1998850088242
 40
15.64759705479528
 40
16.09558869449059
 40
16.18029511792574
 40
16.26481427880357
 40
16.26481427880357
 40
16.26481427880357
 40
16.26481427880357
 10
113.6716858007415
 20
219.9813138607744
 30
0.0
 10
113.6626763635328
 20
220.0080094322265
 30
0.0
 10
113.6446375276033
 20
220.0614597224405
 30
0.0
 10
113.5729852837711
 20
220.2543310717492
 30
0.0
 10
113.4394512647615
 20
220.5534775696121
 30
0.0
 10
113.2065319796806
 20
220.9468607750546
 30
0.0
 10
112.9294203014835
 20
221.3208124256347
 30
0.0
 10
112.6043483449814
 20
221.6788354719611
 30
0.0
 10
112.240528508025
 20
222.0118590489636
 30
0.0
 10
111.8336041648348
 20
222.3238682721056
 30
0.0
 10
111.3942819212608
 20
222.6067277516667
 30
0.0
 10
110.9181171550394
 20
222.8636722048432
 30
0.0
 10
110.4163530796776
 20
223.088366698362
 30
0.0
 10
109.8854679683758
 20
223.2828438591216
 30
0.0
 10
109.3360826751619
 20
223.4428390416518
 30
0.0
 10
108.7665419544297
 20
223.5692810979575
 30
0.0
 10
108.1858130439622
 20
223.6597846924315
 30
0.0
 10
107.5947787211917
 20
223.7146316646279
 30
0.0
 10
107.0000000000003
 20
223.7328188280784
 30
0.0
 10
106.405221278809
 20
223.714631664628
 30
0.0
 10
105.8141869560386
 20
223.6597846924314
 30
0.0
 10
105.2334580455709
 20
223.5692810979575
 30
0.0
 10
104.6639173248388
 20
223.4428390416519
 30
0.0
 10
104.1145320316248
 20
223.2828438591217
 30
0.0
 10
103.5836469203231
 20
223.0883666983619
 30
0.0
 10
103.0818828449613
 20
222.8636722048432
 30
0.0
 10
102.6057180787398
 20
222.6067277516667
 30
0.0
 10
102.166395835166
 20
222.3238682721054
 30
0.0
 10
101.7594714919756
 20
222.0118590489636
 30
0.0
 10
101.3956516550192
 20
221.6788354719611
 30
0.0
 10
101.0705796985172
 20
221.3208124256346
 30
0.0
 10
100.7934680203202
 20
220.9468607750546
 30
0.0
 10
100.5605487352393
 20
220.5534775696119
 30
0.0
 10
100.4270147162309
 20
220.2543310717525
 30
0.0
 10
100.3553624724007
 20
220.0614597224495
 30
0.0
 10
100.337323636473
 20
220.0080094322417
 30
0.0
 10
100.3283141992652
 20
219.9813138607927
 30
0.0
 11
113.6716858007415
 21
219.9813138607744
 31
0.0
 11
113.6442567714332
 21
220.0612584472598
 31
0.0
 11
113.6148878556488
 21
220.1407106024128
 31
0.0
 11
113.4318069210395
 21
220.5495845201668
 31
0.0
 11
113.2046324225669
 21
220.9353795737267
 31
0.0
 11
112.9233065544403
 21
221.3158860090533
 31
0.0
 11
112.6059728793095
 21
221.6665440743273
 31
0.0
 11
112.235794981843
 21
222.006302608043
 31
0.0
 11
111.8376154955309
 21
222.3123821436143
 31
0.0
 11
111.390763422556
 21
222.6008522122358
 31
0.0
 11
110.9230597842377
 21
222.8537539501481
 31
0.0
 11
110.4138774321781
 21
223.0823517960053
 31
0.0
 11
109.8900125576756
 21
223.274590016093
 31
0.0
 11
109.3345102730524
 21
223.4367747433843
 31
0.0
 11
108.7696802689666
 21
223.5623464274481
 31
0.0
 11
108.1850500731262
 21
223.6537083752548
 31
0.0
 11
107.5958937308913
 21
223.7084144922732
 31
0.0
 11
107.0000000000003
 21
223.7267412006323
 31
0.0
 11
106.4041062691094
 21
223.7084144922733
 31
0.0
 11
105.8149499268745
 21
223.6537083752548
 31
0.0
 11
105.2303197310341
 21
223.5623464274481
 31
0.0
 11
104.6654897269482
 21
223.4367747433844
 31
0.0
 11
104.1099874423251
 21
223.274590016093
 31
0.0
 11
103.5861225678226
 21
223.0823517960053
 31
0.0
 11
103.076940215763
 21
222.8537539501481
 31
0.0
 11
102.6092365774447
 21
222.6008522122358
 31
0.0
 11
102.1623845044698
 21
222.3123821436143
 31
0.0
 11
101.7642050181576
 21
222.0063026080429
 31
0.0
 11
101.3940271206911
 21
221.6665440743273
 31
0.0
 11
101.0766934455604
 21
221.3158860090533
 31
0.0
 11
100.7953675774338
 21
220.9353795737267
 31
0.0
 11
100.5681930789612
 21
220.5495845201668
 31
0.0
 11
100.3851121443518
 21
220.1407106024128
 31
0.0
 11
100.3557432285707
 21
220.0612584472689
 31
0.0
 11
100.3283141992652
 21
219.9813138607927
 31
0.0
  0
SPLINE
  5
1BD
330
4B
100
AcDbEntity
  8
0
  6
Continuous
 62
     7
100
AcDbSpline
210
0.0
220
0.0
230
1.0
 70
     8
 71
     3
 72
    57
 73
    53
 74
    51
 42
0.0000000001
 43
0.0000000001
 44
0.00000001
 40
0.0
 40
0.0
 40
0.0
 40
0.0
 40
0.092591195527488
 40
0.1853117776321924
 40
0.7343309288958511
 40
1.283692939617139
 40
1.811652645646866
 40
2.339835419027269
 40
2.860379404103176
 40
3.380923389179205
 40
3.909106162559556
 40
4.437065868589225
 40
4.986427879310461
 40
5.535447030574209
 40
6.11573593213752
 40
6.695677935267976
 40
7.311835076333359
 40
7.927704225439749
 40
8.579931355859426
 40
9.231944294334733
 40
9.916382463434765
 40
10.60067373982102
 40
11.31031302157268
 40
12.01986171625638
 40
12.74548172616373
 40
13.47105871587113
 40
14.20213522080245
 40
14.93321172573377
 40
15.65878871544115
 40
16.38440872534843
 40
17.09395742003207
 40
17.80359670178378
 40
18.48788797817007
 40
19.17232614727011
 40
19.8243390857454
 40
20.47656621616502
 40
21.09243536527142
 40
21.70859250633695
 40
22.28853450946748
 40
22.86882341103074
 40
23.41784256229433
 40
23.96720457301552
 40
24.49516427904522
 40
25.02334705242568
 40
25.54389103750163
 40
26.06443502257751
 40
26.59261779595793
 40
27.12057750198763
 40
27.66993951270885
 40
28.21895866397253
 40
28.31167924606213
 40
28.40427044157445
 40
28.40427044157445
 40
28.40427044157445
 40
28.40427044157445
 10
114.5034951755465
 20
219.0421587752541
 30
0.0
 10
114.5212796554919
 20
219.0673844409055
 30
0.0
 10
114.5568734673461
 20
219.1178710224555
 30
0.0
 10
114.694099022835
 20
219.3205691025437
 30
0.0
 10
114.8962804335314
 20
219.6633044956931
 30
0.0
 10
115.1187487701798
 20
220.1588919321496
 30
0.0
 10
115.2811180741867
 20
220.6701623333017
 30
0.0
 10
115.3776354315353
 20
221.1881193238127
 30
0.0
 10
115.4111012178365
 20
221.7114873591457
 30
0.0
 10
115.3776338846804
 20
222.2348524708877
 30
0.0
 10
115.2811243665749
 20
222.75281835983
 30
0.0
 10
115.1187247927879
 20
223.2640556044877
 30
0.0
 10
114.8963739724502
 20
223.759771436493
 30
0.0
 10
114.6109808354936
 20
224.2423109981624
 30
0.0
 10
114.2710999705202
 20
224.7008391720779
 30
0.0
 10
113.8724895662582
 20
225.1398858585799
 30
0.0
 10
113.4263404304376
 20
225.5482619783151
 30
0.0
 10
112.9273397272232
 20
225.9308727017411
 30
0.0
 10
112.3886084015523
 20
226.2777366340089
 30
0.0
 10
111.8046984333695
 20
226.5928218709983
 30
0.0
 10
111.1893964706423
 20
226.8683596249536
 30
0.0
 10
110.5383840798568
 20
227.1068425718595
 30
0.0
 10
109.8646853237834
 20
227.3030410424123
 30
0.0
 10
109.1662704260079
 20
227.4580940753587
 30
0.0
 10
108.4541357035076
 20
227.5690765852619
 30
0.0
 10
107.72936368731
 20
227.6363341862336
 30
0.0
 10
107.0000000000003
 20
227.6586366932286
 30
0.0
 10
106.2706363126906
 20
227.6363341862336
 30
0.0
 10
105.545864296493
 20
227.5690765852619
 30
0.0
 10
104.8337295739928
 20
227.4580940753586
 30
0.0
 10
104.1353146762174
 20
227.3030410424124
 30
0.0
 10
103.4616159201438
 20
227.1068425718594
 30
0.0
 10
102.8106035293584
 20
226.8683596249538
 30
0.0
 10
102.1953015666311
 20
226.5928218709983
 30
0.0
 10
101.6113915984484
 20
226.2777366340088
 30
0.0
 10
101.0726602727775
 20
225.9308727017412
 30
0.0
 10
100.5736595695632
 20
225.548261978315
 30
0.0
 10
100.1275104337425
 20
225.1398858585797
 30
0.0
 10
99.72890002948051
 20
224.7008391720777
 30
0.0
 10
99.38901916450705
 20
224.2423109981623
 30
0.0
 10
99.10362602755042
 20
223.7597714364931
 30
0.0
 10
98.88127520721284
 20
223.2640556044877
 30
0.0
 10
98.71887563342604
 20
222.7528183598299
 30
0.0
 10
98.62236611532026
 20
222.2348524708876
 30
0.0
 10
98.58889878216414
 20
221.7114873591457
 30
0.0
 10
98.62236456846551
 20
221.1881193238126
 30
0.0
 10
98.71888192581417
 20
220.6701623333017
 30
0.0
 10
98.88125122982102
 20
220.1588919321495
 30
0.0
 10
99.1037195664691
 20
219.6633044956932
 30
0.0
 10
99.30590097716319
 20
219.320569102548
 30
0.0
 10
99.44312653264632
 20
219.1178710224681
 30
0.0
 10
99.47872034449428
 20
219.0673844409262
 30
0.0
 10
99.49650482443667
 20
219.0421587752788
 30
0.0
 11
114.5034951755465
 21
219.0421587752541
 31
0.0
 11
114.5566078735135
 21
219.1180018422008
 31
0.0
 11
114.6086003430017
 21
219.1947735131632
 31
0.0
 11
114.8871792900337
 21
219.6678652576745
 31
0.0
 11
115.111687297438
 21
220.1692580911246
 31
0.0
 11
115.270560305381
 21
220.6727467389987
 31
0.0
 11
115.3674918050546
 21
221.1919589561767
 31
0.0
 11
115.4000000000003
 21
221.7114868742524
 31
0.0
 11
115.3674918050545
 21
222.2310147923282
 31
0.0
 11
115.270560305381
 21
222.7502270095061
 31
0.0
 11
115.111687297438
 21
223.2537156573802
 31
0.0
 11
114.8871792900337
 21
223.7551084908302
 31
0.0
 11
114.6086003430015
 21
224.2282002353416
 31
0.0
 11
114.2636167966858
 21
224.6948066669828
 31
0.0
 11
113.8744776914159
 21
225.1248107178298
 31
0.0
 11
113.4205369120409
 21
225.5414489197583
 31
0.0
 11
112.9322584178771
 21
225.916787328342
 31
0.0
 11
112.3842938320393
 21
226.2705316460675
 31
0.0
 11
111.8107594434446
 21
226.5806593246751
 31
0.0
 11
111.1863606467584
 21
226.8609836903977
 31
0.0
 11
110.5439570050326
 21
227.0967210697753
 31
0.0
 11
109.862757123159
 21
227.2956045309792
 31
0.0
 11
109.1701188699735
 21
227.4495902457434
 31
0.0
 11
108.4532000896729
 21
227.5616253350247
 31
0.0
 11
107.7307309984652
 21
227.6287102084489
 31
0.0
 11
107.0000000000003
 21
227.6511838362177
 31
0.0
 11
106.2692690015354
 21
227.6287102084489
 31
0.0
 11
105.5467999103277
 21
227.5616253350247
 31
0.0
 11
104.8298811300272
 21
227.4495902457434
 31
0.0
 11
104.1372428768417
 21
227.2956045309792
 31
0.0
 11
103.4560429949681
 21
227.0967210697753
 31
0.0
 11
102.8136393532423
 21
226.8609836903977
 31
0.0
 11
102.1892405565561
 21
226.5806593246751
 31
0.0
 11
101.6157061679614
 21
226.2705316460675
 31
0.0
 11
101.0677415821236
 21
225.916787328342
 31
0.0
 11
100.5794630879599
 21
225.5414489197583
 31
0.0
 11
100.1255223085848
 21
225.1248107178296
 31
0.0
 11
99.73638320331484
 21
224.6948066669826
 31
0.0
 11
99.39139965699906
 21
224.2282002353415
 31
0.0
 11
99.11282070996695
 21
223.7551084908303
 31
0.0
 11
98.88831270256279
 21
223.2537156573802
 31
0.0
 11
98.72943969461987
 21
222.7502270095061
 31
0.0
 11
98.63250819494616
 21
222.2310147923281
 31
0.0
 11
98.60000000000038
 21
221.7114868742524
 31
0.0
 11
98.63250819494614
 21
221.1919589561767
 31
0.0
 11
98.72943969461986
 21
220.6727467389987
 31
0.0
 11
98.88831270256279
 21
220.1692580911246
 31
0.0
 11
99.11282070996697
 21
219.6678652576746
 31
0.0
 11
99.3913996569992
 21
219.1947735131633
 31
0.0
 11
99.44339212647877
 21
219.1180018422133
 31
0.0
 11
99.49650482443667
 21
219.0421587752788
 31
0.0
  0
SPLINE
  5
1BE
330
4B
100
AcDbEntity
  8
1
  6
Continuous
 62
     7
100
AcDbSpline
210
0.0
220
0.0
230
1.0
 70
     8
 71
     3
 72
    41
 73
    37
 74
    35
 42
0.0000000001
 43
0.0000000001
 44
0.00000001
 40
0.0
 40
0.0
 40
0.0
 40
0.0
 40
0.3347292766228283
 40
0.6705178109798275
 40
1.226418314257856
 40
1.781971871495713
 40
2.369167739985267
 40
2.95601257653524
 40
3.579504009629582
 40
4.202704020159099
 40
4.862695150848214
 40
5.522469538713684
 40
6.215055429022193
 40
6.907492677537
 40
7.625579885560266
 40
8.343575428008311
 40
9.077833729075268
 40
9.812048497790272
 40
10.55182829199441
 40
11.29160808619852
 40
12.02582285491349
 40
12.76008115598059
 40
13.47807669842872
 40
14.19616390645194
 40
14.88860115496662
 40
15.58118704527515
 40
16.24096143314058
 40
16.90095256382967
 40
17.52415257435922
 40
18.14764400745347
 40
18.73448884400347
 40
19.321684712493
 40
19.87723826973087
 40
20.43313877300894
 40
20.76892785037598
 40
21.10365766970772
 40
21.10365766970772
 40
21.10365766970772
 40
21.10365766970772
 10
98.59999999999945
 20
353.3252986992936
 30
0.0
 10
98.62609933941691
 20
353.2167558798742
 30
0.0
 10
98.67838061015237
 20
352.9993267550334
 30
0.0
 10
98.8124038087233
 20
352.6125629042707
 30
0.0
 10
99.00941354199325
 20
352.1711334162786
 30
0.0
 10
99.29847139651177
 20
351.6829458948056
 30
0.0
 10
99.64232305228495
 20
351.2189339408342
 30
0.0
 10
100.0456996958173
 20
350.7746694702846
 30
0.0
 10
100.4971542109357
 20
350.3614311376983
 30
0.0
 10
101.0020970607118
 20
349.9742674785073
 30
0.0
 10
101.5472413700454
 20
349.623275333129
 30
0.0
 10
102.1381027896067
 20
349.3044402626591
 30
0.0
 10
102.7607297123351
 20
349.0256233025219
 30
0.0
 10
103.4194922654725
 20
348.7843021383239
 30
0.0
 10
104.1012112153094
 20
348.5857686933099
 30
0.0
 10
104.8079405739988
 20
348.4288703522874
 30
0.0
 10
105.5285530681421
 20
348.3165670298907
 30
0.0
 10
106.2619533127316
 20
348.2485089862126
 30
0.0
 10
106.9999998845338
 20
348.225941056243
 30
0.0
 10
107.7380464563359
 20
348.2485089862126
 30
0.0
 10
108.4714467009254
 20
348.3165670298908
 30
0.0
 10
109.1920591950689
 20
348.4288703522875
 30
0.0
 10
109.8987885537583
 20
348.5857686933098
 30
0.0
 10
110.5805075035951
 20
348.7843021383238
 30
0.0
 10
111.2392700567325
 20
349.025623302522
 30
0.0
 10
111.8618969794607
 20
349.3044402626592
 30
0.0
 10
112.4527583990222
 20
349.623275333129
 30
0.0
 10
112.9979027083557
 20
349.974267478507
 30
0.0
 10
113.5028455581321
 20
350.3614311376991
 30
0.0
 10
113.9543000732491
 20
350.7746694702818
 30
0.0
 10
114.3576767167861
 20
351.218933940843
 30
0.0
 10
114.7015283725423
 20
351.6829458947732
 30
0.0
 10
114.9905862271209
 20
352.171133416392
 30
0.0
 10
115.1875960341173
 20
352.6125630695435
 30
0.0
 10
115.3216193317407
 20
352.9993272715312
 30
0.0
 10
115.3739006411971
 20
353.2167567598631
 30
0.0
 10
115.3999999999995
 20
353.3252997609703
 30
0.0
 11
98.59999999999945
 21
353.3252986992936
 31
0.0
 11
98.6835297063264
 21
353.0011591046907
 31
0.0
 11
98.79174479592143
 21
352.683285805734
 31
0.0
 11
99.01892557456434
 21
352.1759257133342
 31
0.0
 11
99.30082091290517
 21
351.6972036925525
 31
0.0
 11
99.64991148574747
 21
351.2250440162524
 31
0.0
 11
100.0436831464965
 21
350.7899224914155
 31
0.0
 11
100.5030280657703
 21
350.3683257501101
 31
0.0
 11
100.9971193319476
 21
349.9885204397058
 31
0.0
 11
101.551607379429
 21
349.6305661160993
 31
0.0
 11
102.1319694918573
 21
349.3167475995313
 31
0.0
 11
102.7638016656035
 21
349.0330870282959
 31
0.0
 11
103.41385291423
 21
348.7945441237903
 31
0.0
 11
104.1031623581129
 21
348.5932937103736
 31
0.0
 11
104.8040462658704
 21
348.437475396874
 31
0.0
 11
105.5294998135905
 21
348.3241069586468
 31
0.0
 11
106.2605697074592
 21
348.2562236994587
 31
0.0
 11
106.9999998845338
 21
348.2334826101213
 31
0.0
 11
107.7394300616083
 21
348.2562236994588
 31
0.0
 11
108.470499955477
 21
348.3241069586468
 31
0.0
 11
109.1959535031972
 21
348.437475396874
 31
0.0
 11
109.8968374109548
 21
348.5932937103736
 31
0.0
 11
110.5861468548377
 21
348.7945441237904
 31
0.0
 11
111.236198103464
 21
349.0330870282959
 31
0.0
 11
111.8680302772102
 21
349.3167475995314
 31
0.0
 11
112.4483923896385
 21
349.6305661160993
 31
0.0
 11
113.0028804371199
 21
349.9885204397058
 31
0.0
 11
113.4969717032972
 21
350.3683257501102
 31
0.0
 11
113.956316622571
 21
350.7899224914154
 31
0.0
 11
114.35008828332
 21
351.2250440162524
 31
0.0
 11
114.6991788561622
 21
351.6972036925525
 31
0.0
 11
114.9810741945031
 21
352.1759257133342
 31
0.0
 11
115.2082549731461
 21
352.683285805734
 31
0.0
 11
115.3164702182468
 21
353.0011596253651
 31
0.0
 11
115.3999999999995
 21
353.3252997609703
 31
0.0
  0
SPLINE
  5
1BF
330
4B
100
AcDbEntity
  8
1
  6
Continuous
 62
     7
100
AcDbSpline
210
0.0
220
0.0
230
1.0
 70
     8
 71
     3
 72
    41
 73
    37
 74
    35
 42
0.0000000001
 43
0.0000000001
 44
0.00000001
 40
0.0
 40
0.0
 40
0.0
 40
0.0
 40
0.271388935958634
 40
0.5437128348749143
 40
1.093105498030993
 40
1.642155399670864
 40
2.222469044712728
 40
2.80243586618946
 40
3.418611342032097
 40
4.034498868263646
 40
4.686738296112254
 40
5.338763551385642
 40
6.023208923823124
 40
6.707507410625161
 40
7.4171500819227
 40
8.126702167916495
 40
8.852323218884804
 40
9.57790124977894
 40
10.30897800373003
 40
11.040054757681
 40
11.76563278857499
 40
12.49125383954327
 40
13.20080592553712
 40
13.91044859683463
 40
14.59474708363665
 40
15.27919245607409
 40
15.93121771134746
 40
16.5834571391961
 40
17.1993446654276
 40
17.81552014127026
 40
18.39548696274704
 40
18.97580060778889
 40
19.52485050942887
 40
20.0742431725849
 40
20.34656707150171
 40
20.61795600746078
 40
20.61795600746078
 40
20.61795600746078
 40
20.61795600746078
 10
115.2742911361907
 20
357.4639476083513
 30
0.0
 10
115.2510770840693
 20
357.3764791444061
 30
0.0
 10
115.2045690050157
 20
357.2012408786094
 30
0.0
 10
115.0831851246974
 20
356.8573744910042
 30
0.0
 10
114.8965756123016
 20
356.4392192959064
 30
0.0
 10
114.6109266949508
 20
355.9567548049663
 30
0.0
 10
114.2711184842574
 20
355.4981624132514
 30
0.0
 10
113.8724887578997
 20
355.0590929809237
 30
0.0
 10
113.4263450375112
 20
354.6506843144433
 30
0.0
 10
112.9273431597555
 20
354.2680468041633
 30
0.0
 10
112.3886116963656
 20
353.9211570192612
 30
0.0
 10
111.8047017373202
 20
353.6060491226988
 30
0.0
 10
111.189399091625
 20
353.3304910044931
 30
0.0
 10
110.5383866131863
 20
353.09199082868
 30
0.0
 10
109.8646871415049
 20
352.8957779109429
 30
0.0
 10
109.1662719940943
 20
352.7407136599301
 30
0.0
 10
108.4541366292538
 20
352.6297229943544
 30
0.0
 10
107.7293642163722
 20
352.5624605349667
 30
0.0
 10
106.9999999999994
 20
352.5401563673242
 30
0.0
 10
106.2706357836266
 20
352.5624605349667
 30
0.0
 10
105.5458633707452
 20
352.6297229943546
 30
0.0
 10
104.8337280059047
 20
352.74071365993
 30
0.0
 10
104.1353128584941
 20
352.895777910943
 30
0.0
 10
103.4616133868127
 20
353.09199082868
 30
0.0
 10
102.810600908374
 20
353.330491004493
 30
0.0
 10
102.1952982626788
 20
353.6060491226989
 30
0.0
 10
101.6113883036335
 20
353.921157019261
 30
0.0
 10
101.0726568402435
 20
354.2680468041633
 30
0.0
 10
100.5736549624878
 20
354.6506843144432
 30
0.0
 10
100.1275112420994
 20
355.0590929809238
 30
0.0
 10
99.72888151574163
 20
355.4981624132514
 30
0.0
 10
99.38907330504819
 20
355.9567548049663
 30
0.0
 10
99.1034243876974
 20
356.4392192959065
 30
0.0
 10
98.91681487530163
 20
356.8573744910043
 30
0.0
 10
98.79543099498321
 20
357.2012408786101
 30
0.0
 10
98.74892291592947
 20
357.376479144407
 30
0.0
 10
98.72570886380805
 20
357.4639476083523
 30
0.0
 11
115.2742911361907
 21
357.4639476083513
 31
0.0
 11
115.2011937679185
 21
357.2025882210846
 31
0.0
 11
115.1116878202318
 21
356.9453937591503
 31
0.0
 11
114.8871808839002
 21
356.443966861319
 31
0.0
 11
114.608601368146
 21
355.9708397664566
 31
0.0
 11
114.2636193117043
 21
355.504201461819
 31
0.0
 11
113.874479045981
 21
355.0741649894046
 31
0.0
 11
113.4205397955097
 21
354.6574980073776
 31
0.0
 11
112.9322598291805
 21
354.2821313606852
 31
0.0
 11
112.3842965616132
 21
353.9283623277877
 31
0.0
 11
111.8107606913344
 21
353.6182114950983
 31
0.0
 11
111.1863628799881
 21
353.3378673475992
 31
0.0
 11
110.5439579569074
 21
353.1021125303817
 31
0.0
 11
109.8627586774193
 21
352.9032149121176
 31
0.0
 11
109.1701194594033
 21
352.7492179108339
 31
0.0
 11
108.4532008818825
 21
352.6371747815758
 31
0.0
 11
107.730731197413
 21
352.570085036169
 31
0.0
 11
106.9999999999994
 21
352.5476097765705
 31
0.0
 11
106.2692688025858
 21
352.570085036169
 31
0.0
 11
105.5467991181164
 21
352.6371747815758
 31
0.0
 11
104.8298805405957
 21
352.7492179108339
 31
0.0
 11
104.1372413225797
 21
352.9032149121176
 31
0.0
 11
103.4560420430915
 21
353.1021125303817
 31
0.0
 11
102.8136371200109
 21
353.3378673475992
 31
0.0
 11
102.1892393086646
 21
353.6182114950983
 31
0.0
 11
101.6157034383858
 21
353.9283623277876
 31
0.0
 11
101.0677401708185
 21
354.2821313606852
 31
0.0
 11
100.5794602044893
 21
354.6574980073776
 31
0.0
 11
100.125520954018
 21
355.0741649894046
 31
0.0
 11
99.73638068829474
 21
355.5042014618191
 31
0.0
 11
99.39139863185298
 21
355.9708397664566
 31
0.0
 11
99.11281911609876
 21
356.4439668613191
 31
0.0
 11
98.88831217976733
 21
356.9453937591504
 31
0.0
 11
98.7988062320804
 21
357.2025882210852
 31
0.0
 11
98.72570886380805
 21
357.4639476083523
 31
0.0
  0
SPLINE
  5
1C0
330
4B
100
AcDbEntity
  8
0
  6
Continuous
 62
     7
100
AcDbSpline
210
0.0
220
0.0
230
1.0
 70
     8
 71
     3
 72
    45
 73
    41
 74
    39
 42
0.0000000001
 43
0.0000000001
 44
0.00000001
 40
0.0
 40
0.0
 40
0.0
 40
0.0
 40
0.2598910605007804
 40
0.5207967037902284
 40
1.048979477171013
 40
1.576939183200889
 40
2.126301193922165
 40
2.67532034518594
 40
3.25560924674932
 40
3.835551249879891
 40
4.451708390945349
 40
5.067577540051826
 40
5.719804670471485
 40
6.371817608946796
 40
7.056255778046896
 40
7.740547054433233
 40
8.450186336184968
 40
9.159735030868648
 40
9.885355040775908
 40
10.6109320304834
 40
11.34200853541477
 40
12.07308504034607
 40
12.79866203005341
 40
13.5242820399607
 40
14.23383073464439
 40
14.94347001639615
 40
15.6277612927825
 40
16.31219946188253
 40
16.96421240035782
 40
17.61643953077751
 40
18.23230867988403
 40
18.84846582094963
 40
19.42840782408021
 40
20.00869672564354
 40
20.5577158769073
 40
21.10707788762871
 40
21.63503759365861
 40
22.16322036703921
 40
22.42412601033792
 40
22.68401707085232
 40
22.68401707085232
 40
22.68401707085232
 40
22.68401707085232
 10
98.599999999999
 20
216.3728306763181
 30
0.0
 10
98.60156712191403
 20
216.4594783483266
 30
0.0
 10
98.60470748359558
 20
216.6331119542159
 30
0.0
 10
98.63874039526938
 20
216.9813934303478
 30
0.0
 10
98.71871174408436
 20
217.4141955207652
 30
0.0
 10
98.88132109413306
 20
217.9253900664645
 30
0.0
 10
99.10361355827784
 20
218.4211177765949
 30
0.0
 10
99.38902271676543
 20
218.9036540771581
 30
0.0
 10
99.72889905810304
 20
219.3621831718381
 30
0.0
 10
100.1275107120739
 20
219.8012296039679
 30
0.0
 10
100.5736594932719
 20
220.2096057958851
 30
0.0
 10
101.0726602945609
 20
220.5922164993486
 30
0.0
 10
101.6113915924827
 20
220.9390804372647
 30
0.0
 10
102.1953015683181
 20
221.2541656726965
 30
0.0
 10
102.8106035288978
 20
221.5297034270891
 30
0.0
 10
103.4616159202724
 20
221.7681863738751
 30
0.0
 10
104.1353146761824
 20
221.9643848444614
 30
0.0
 10
104.8337295740024
 20
222.1194378773988
 30
0.0
 10
105.5458642964905
 20
222.2304203873044
 30
0.0
 10
106.2706363126913
 20
222.2976779882754
 30
0.0
 10
107.0000000000004
 20
222.3199804952705
 30
0.0
 10
107.7293636873095
 20
222.2976779882754
 30
0.0
 10
108.4541357035103
 20
222.2304203873045
 30
0.0
 10
109.1662704259984
 20
222.1194378773988
 30
0.0
 10
109.8646853238184
 20
221.9643848444613
 30
0.0
 10
110.5383840797284
 20
221.7681863738752
 30
0.0
 10
111.189396471103
 20
221.5297034270892
 30
0.0
 10
111.8046984316827
 20
221.2541656726964
 30
0.0
 10
112.3886084075181
 20
220.9390804372648
 30
0.0
 10
112.9273397054399
 20
220.5922164993486
 30
0.0
 10
113.4263405067289
 20
220.2096057958852
 30
0.0
 10
113.872489287927
 20
219.8012296039678
 30
0.0
 10
114.271100941898
 20
219.3621831718382
 30
0.0
 10
114.6109772832355
 20
218.903654077158
 30
0.0
 10
114.896386441723
 20
218.4211177765949
 30
0.0
 10
115.1186789058678
 20
217.9253900664644
 30
0.0
 10
115.2812882559164
 20
217.4141955207649
 30
0.0
 10
115.3612596047322
 20
216.9813934303448
 30
0.0
 10
115.3952925164057
 20
216.633111954205
 30
0.0
 10
115.3984328780861
 20
216.4594783483081
 30
0.0
 10
115.4000000000005
 20
216.3728306762951
 30
0.0
 11
98.599999999999
 21
216.3728306763181
 31
0.0
 11
98.6081270487369
 21
216.6325946353406
 31
0.0
 11
98.63250819494607
 21
216.8923585943684
 31
0.0
 11
98.72943969461983
 21
217.4115708115467
 31
0.0
 11
98.88831270256287
 21
217.915059459421
 31
0.0
 11
99.11282070996714
 21
218.4164522928711
 31
0.0
 11
99.39139965699926
 21
218.8895440373825
 31
0.0
 11
99.73638320331502
 21
219.3561504690238
 31
0.0
 11
100.1255223085849
 21
219.7861545198709
 31
0.0
 11
100.5794630879599
 21
220.2027927217996
 31
0.0
 11
101.0677415821237
 21
220.5781311303834
 31
0.0
 11
101.6157061679614
 21
220.931875448109
 31
0.0
 11
102.1892405565561
 21
221.2420031267167
 31
0.0
 11
102.8136393532423
 21
221.5223274924394
 31
0.0
 11
103.4560429949681
 21
221.7580648718171
 31
0.0
 11
104.1372428768417
 21
221.9569483330211
 31
0.0
 11
104.8298811300272
 21
222.1109340477855
 31
0.0
 11
105.5467999103277
 21
222.2229691370667
 31
0.0
 11
106.2692690015355
 21
222.2900540104909
 31
0.0
 11
107.0000000000005
 21
222.3125276382596
 31
0.0
 11
107.7307309984654
 21
222.2900540104908
 31
0.0
 11
108.453200089673
 21
222.2229691370667
 31
0.0
 11
109.1701188699736
 21
222.1109340477855
 31
0.0
 11
109.862757123159
 21
221.9569483330211
 31
0.0
 11
110.5439570050327
 21
221.7580648718171
 31
0.0
 11
111.1863606467585
 21
221.5223274924394
 31
0.0
 11
111.8107594434447
 21
221.2420031267167
 31
0.0
 11
112.3842938320393
 21
220.931875448109
 31
0.0
 11
112.9322584178771
 21
220.5781311303834
 31
0.0
 11
113.420536912041
 21
220.2027927217996
 31
0.0
 11
113.8744776914161
 21
219.7861545198708
 31
0.0
 11
114.263616796686
 21
219.3561504690238
 31
0.0
 11
114.6086003430017
 21
218.8895440373825
 31
0.0
 11
114.8871792900337
 21
218.416452292871
 31
0.0
 11
115.111687297438
 21
217.9150594594208
 31
0.0
 11
115.270560305381
 21
217.4115708115465
 31
0.0
 11
115.3674918050547
 21
216.8923585943684
 31
0.0
 11
115.3918729512639
 21
216.6325946353313
 31
0.0
 11
115.4000000000005
 21
216.3728306762951
 31
0.0
  0
SPLINE
  5
1C1
330
4B
100
AcDbEntity
  8
0
  6
Continuous
 62
     7
100
AcDbSpline
210
0.0
220
0.0
230
1.0
 70
     8
 71
     3
 72
    13
 73
     9
 74
     7
 42
0.0000000001
 43
0.0000000001
 44
0.00000001
 40
0.0
 40
0.0
 40
0.0
 40
0.0
 40
0.2598910605231345
 40
0.5207967038297043
 40
1.048979477210332
 40
1.576939183240163
 40
1.892138911395418
 40
2.206275982090261
 40
2.206275982090261
 40
2.206275982090261
 40
2.206275982090261
 10
98.60000000000019
 20
215.3475258435859
 30
0.0
 10
98.60156656645113
 20
215.2608780085017
 30
0.0
 10
98.60470581503606
 20
215.0872440758262
 30
0.0
 10
98.63874996284689
 20
214.7389658982922
 30
0.0
 10
98.71863305788264
 20
214.3061378990609
 30
0.0
 10
98.85784258133018
 20
213.8695938752826
 30
0.0
 10
99.00638218190784
 20
213.5132013622475
 30
0.0
 10
99.10218131404123
 20
213.3264929163899
 30
0.0
 10
99.1499999999952
 20
213.2332963253708
 30
0.0
 11
98.60000000000019
 21
215.3475258435859
 31
0.0
 11
98.60812704873619
 21
215.087761884541
 31
0.0
 11
98.63250819494598
 21
214.8279979254961
 31
0.0
 11
98.7294396946198
 21
214.3087857083179
 31
0.0
 11
98.88831270256279
 21
213.8052970604437
 31
0.0
 11
99.0102871267665
 21
213.5146544818883
 31
0.0
 11
99.1499999999952
 21
213.2332963253708
 31
0.0
  0
SPLINE
  5
1C2
330
4B
100
AcDbEntity
  8
0
  6
Continuous
 62
     7
100
AcDbSpline
210
0.0
220
0.0
230
1.0
 70
     8
 71
     3
 72
    73
 73
    69
 74
    67
 42
0.0000000001
 43
0.0000000001
 44
0.00000001
 40
0.0
 40
0.0
 40
0.0
 40
0.0
 40
0.1326067984635561
 40
0.2653155651865627
 40
0.8355582955084336
 40
1.405923436425099
 40
1.949267551821149
 40
2.492790160504157
 40
3.006014451426155
 40
3.519478735647508
 40
4.002763738256435
 40
4.486337822892512
 40
4.943853782278945
 40
5.401655457880035
 40
5.841621879571664
 40
6.281774190722175
 40
6.715560844952202
 40
7.149347499182272
 40
7.589499810332719
 40
8.029466232024296
 40
8.487267907625446
 40
8.944783867011925
 40
9.428357951648104
 40
9.911642954256987
 40
10.42510723847821
 40
10.93833152940026
 40
11.48185413808328
 40
12.02519825347939
 40
12.59556339439607
 40
13.16580612471799
 40
13.7571721928444
 40
14.34846277174752
 40
14.95314611333698
 40
15.55779360475984
 40
16.16702402553597
 40
16.77625444631207
 40
17.38090193773492
 40
17.98558527932429
 40
18.57687585822734
 40
19.16824192635377
 40
19.7384846566757
 40
20.30884979759241
 40
20.8521939129885
 40
21.3957165216715
 40
21.90894081259354
 40
22.42240509681485
 40
22.90569009942374
 40
23.38926418405985
 40
23.84678014344633
 40
24.3045818190475
 40
24.7445482407391
 40
25.18470055188958
 40
25.61848720611959
 40
26.0522738603497
 40
26.49242617150018
 40
26.93239259319173
 40
27.39019426879283
 40
27.84771022817925
 40
28.33128431281539
 40
28.81456931542427
 40
29.32803359964559
 40
29.84125789056756
 40
30.38478049925053
 40
30.92812461464668
 40
31.49848975556342
 40
32.06873248588527
 40
32.20144125261083
 40
32.33404805107185
 40
32.33404805107185
 40
32.33404805107185
 40
32.33404805107185
 10
109.7000000000005
 20
203.0027322556231
 30
0.0
 10
109.7423352000634
 20
203.0154465180276
 30
0.0
 10
109.8270381539249
 20
203.0408848194938
 30
0.0
 10
110.0923130402205
 20
203.1257791135314
 30
0.0
 10
110.4911663796081
 20
203.2719855577097
 30
0.0
 10
111.003914687242
 20
203.5015649094798
 30
0.0
 10
111.490507178551
 20
203.764145005186
 30
0.0
 10
111.9394497281128
 20
204.0531959196041
 30
0.0
 10
112.3552837037252
 20
204.372038788221
 30
0.0
 10
112.7270746355758
 20
204.712352065693
 30
0.0
 10
113.0592499763602
 20
205.0782243439988
 30
0.0
 10
113.3424840287976
 20
205.4603311445641
 30
0.0
 10
113.5803116458218
 20
205.8624474514448
 30
0.0
 10
113.7656039863874
 20
206.2755439668951
 30
0.0
 10
113.9009369992566
 20
206.7015750421867
 30
0.0
 10
113.9813614698362
 20
207.1332131432812
 30
0.0
 10
114.0092513847764
 20
207.5693512505233
 30
0.0
 10
113.9813614698368
 20
208.0054893577496
 30
0.0
 10
113.9009369992531
 20
208.4371274588912
 30
0.0
 10
113.7656039864002
 20
208.8631585340078
 30
0.0
 10
113.5803116457711
 20
209.2762550501356
 30
0.0
 10
113.3424840289905
 20
209.6783713544214
 30
0.0
 10
113.059249975594
 20
210.0604781652003
 30
0.0
 10
112.7270746385026
 20
210.426350404178
 30
0.0
 10
112.355283692044
 20
210.7666638372269
 30
0.0
 10
111.9394497726825
 20
211.0855061067663
 30
0.0
 10
111.4905070012946
 20
211.3745593836511
 30
0.0
 10
111.003915361141
 20
211.637130414477
 30
0.0
 10
110.4911637255354
 20
211.8667452094392
 30
0.0
 10
109.9486533998808
 20
212.0654809985279
 30
0.0
 10
109.3872377698196
 20
212.2289797239886
 30
0.0
 10
108.8052253550067
 20
212.3581905847774
 30
0.0
 10
108.2117797529231
 20
212.4506760096967
 30
0.0
 10
107.6078030727584
 20
212.5067240105065
 30
0.0
 10
107.0000000000003
 20
212.525309433002
 30
0.0
 10
106.3921969272422
 20
212.5067240105065
 30
0.0
 10
105.7882202470776
 20
212.4506760096967
 30
0.0
 10
105.194774644994
 20
212.3581905847774
 30
0.0
 10
104.6127622301811
 20
212.2289797239886
 30
0.0
 10
104.05134660012
 20
212.0654809985278
 30
0.0
 10
103.5088362744653
 20
211.8667452094394
 30
0.0
 10
102.9960846388596
 20
211.637130414477
 30
0.0
 10
102.5094929987061
 20
211.3745593836511
 30
0.0
 10
102.0605502273182
 20
211.0855061067663
 30
0.0
 10
101.6447163079568
 20
210.7666638372268
 30
0.0
 10
101.2729253614982
 20
210.426350404178
 30
0.0
 10
100.9407500244066
 20
210.0604781652004
 30
0.0
 10
100.6575159710102
 20
209.6783713544214
 30
0.0
 10
100.4196883542297
 20
209.2762550501356
 30
0.0
 10
100.2343960136005
 20
208.8631585340078
 30
0.0
 10
100.0990630007476
 20
208.4371274588911
 30
0.0
 10
100.0186385301637
 20
208.0054893577496
 30
0.0
 10
99.99074861522442
 20
207.5693512505232
 30
0.0
 10
100.0186385301645
 20
207.1332131432812
 30
0.0
 10
100.0990630007441
 20
206.7015750421867
 30
0.0
 10
100.2343960136135
 20
206.2755439668951
 30
0.0
 10
100.4196883541791
 20
205.8624474514448
 30
0.0
 10
100.6575159712032
 20
205.4603311445641
 30
0.0
 10
100.9407500236406
 20
205.0782243439988
 30
0.0
 10
101.272925364425
 20
204.712352065693
 30
0.0
 10
101.6447162962755
 20
204.3720387882209
 30
0.0
 10
102.0605502718879
 20
204.0531959196042
 30
0.0
 10
102.5094928214496
 20
203.7641450051859
 30
0.0
 10
102.9960853127587
 20
203.5015649094798
 30
0.0
 10
103.5088336203926
 20
203.2719855577096
 30
0.0
 10
103.9076869597811
 20
203.125779113531
 30
0.0
 10
104.1729618460766
 20
203.0408848194933
 30
0.0
 10
104.2576647999382
 20
203.0154465180273
 30
0.0
 10
104.3000000000003
 20
203.0027322556231
 30
0.0
 11
109.7000000000005
 21
203.0027322556231
 31
0.0
 11
109.8268881943856
 21
203.0412543158542
 31
0.0
 11
109.953297504194
 21
203.0816560875838
 31
0.0
 11
110.4886338722988
 21
203.2781039037318
 31
0.0
 11
111.0089662028706
 21
203.5117075418341
 31
0.0
 11
111.4869115266995
 21
203.7701472740071
 31
0.0
 11
111.9435486815643
 21
204.064934205445
 31
0.0
 11
112.3504474267007
 21
204.3777162125981
 31
0.0
 11
112.7287314095133
 21
204.7249147142055
 31
0.0
 11
113.0530139972383
 21
205.0832514232448
 31
0.0
 11
113.3405002858348
 21
205.4720901162791
 31
0.0
 11
113.5726494083616
 21
205.8663332367052
 31
0.0
 11
113.7597394145318
 21
206.2841605979136
 31
0.0
 11
113.8921335878175
 21
206.7037344711423
 31
0.0
 11
113.9729098375456
 21
207.1364113187908
 31
0.0
 11
114.0000000000004
 21
207.5693512505206
 31
0.0
 11
113.9729098375454
 21
208.0022911822505
 31
0.0
 11
113.8921335878174
 21
208.4349680298989
 31
0.0
 11
113.7597394145317
 21
208.8545419031275
 31
0.0
 11
113.5726494083615
 21
209.2723692643361
 31
0.0
 11
113.3405002858347
 21
209.6666123847622
 31
0.0
 11
113.0530139972381
 21
210.0554510777966
 31
0.0
 11
112.7287314095133
 21
210.4137877868359
 31
0.0
 11
112.3504474267008
 21
210.7609862884432
 31
0.0
 11
111.9435486815643
 21
211.0737682955964
 31
0.0
 11
111.4869115266995
 21
211.3685552270343
 31
0.0
 11
111.0089662028706
 21
211.6269949592073
 31
0.0
 11
110.4886338722987
 21
211.8605985973095
 31
0.0
 11
109.9532975041939
 21
212.0570464134576
 31
0.0
 11
109.385630935966
 21
212.2227826311276
 31
0.0
 11
108.8084323916447
 21
212.351104060098
 31
0.0
 11
108.2110000747275
 21
212.444466634499
 31
0.0
 11
107.6089424987211
 21
212.5003706956858
 31
0.0
 11
107.0000000000003
 21
212.5190987188264
 31
0.0
 11
106.3910575012795
 21
212.5003706956858
 31
0.0
 11
105.7889999252731
 21
212.444466634499
 31
0.0
 11
105.191567608356
 21
212.351104060098
 31
0.0
 11
104.6143690640348
 21
212.2227826311276
 31
0.0
 11
104.0467024958068
 21
212.0570464134576
 31
0.0
 11
103.511366127702
 21
211.8605985973096
 31
0.0
 11
102.9910337971301
 21
211.6269949592073
 31
0.0
 11
102.5130884733012
 21
211.3685552270343
 31
0.0
 11
102.0564513184364
 21
211.0737682955964
 31
0.0
 11
101.6495525733
 21
210.7609862884432
 31
0.0
 11
101.2712685904874
 21
210.4137877868359
 31
0.0
 11
100.9469860027625
 21
210.0554510777966
 31
0.0
 11
100.659499714166
 21
209.6666123847623
 31
0.0
 11
100.4273505916392
 21
209.2723692643361
 31
0.0
 11
100.2402605854691
 21
208.8545419031275
 31
0.0
 11
100.1078664121833
 21
208.4349680298989
 31
0.0
 11
100.0270901624552
 21
208.0022911822505
 31
0.0
 11
100.0000000000004
 21
207.5693512505206
 31
0.0
 11
100.0270901624552
 21
207.1364113187907
 31
0.0
 11
100.1078664121833
 21
206.7037344711423
 31
0.0
 11
100.240260585469
 21
206.2841605979137
 31
0.0
 11
100.4273505916392
 21
205.8663332367052
 31
0.0
 11
100.659499714166
 21
205.4720901162791
 31
0.0
 11
100.9469860027625
 21
205.0832514232447
 31
0.0
 11
101.2712685904874
 21
204.7249147142055
 31
0.0
 11
101.6495525733
 21
204.3777162125981
 31
0.0
 11
102.0564513184364
 21
204.064934205445
 31
0.0
 11
102.5130884733012
 21
203.7701472740071
 31
0.0
 11
102.9910337971301
 21
203.511707541834
 31
0.0
 11
103.5113661277019
 21
203.2781039037317
 31
0.0
 11
104.0467024958067
 21
203.0816560875837
 31
0.0
 11
104.1731118056176
 21
203.0412543158534
 31
0.0
 11
104.3000000000003
 21
203.0027322556231
 31
0.0
  0
ENDBLK
  5
4D
330
4B
100
AcDbEntity
  8
0
100
AcDbBlockEnd
  0
BLOCK
  5
56
330
4E
100
AcDbEntity
  8
0
100
AcDbBlockBegin
  2
Y121-4TVX-16
 70
     0
 71
     0
 10
334.6972840297096
 20
928.523218519978
 30
0.0
  3
Y121-4TVX-16
  1

  0
INSERT
  5
4F
330
4E
100
AcDbEntity
  8
1
100
AcDbBlockReference
  2
84-177
 10
338.0152339715303
 20
409.9038174146556
 30
0.0
  0
INSERT
  5
50
330
4E
100
AcDbEntity
  8
0
100
AcDbBlockReference
  2
88-249
 10
897.420229446074
 20
138.7540655497932
 30
0.0
  0
INSERT
  5
51
330
4E
100
AcDbEntity
  8
1
100
AcDbBlockReference
  2
81-93A
 10
-1354.556338136989
 20
409.1692223995934
 30
0.0
  0
INSERT
  5
52
330
4E
100
AcDbEntity
  8
1
100
AcDbBlockReference
  2
14-39A
 10
-1357.066567210202
 20
407.4368107856866
 30
0.0
  0
INSERT
  5
53
330
4E
100
AcDbEntity
  8
1
100
AcDbBlockReference
  2
14-34
 10
641.3558091772675
 20
203.6019065856463
 30
0.0
  0
INSERT
  5
54
330
4E
100
AcDbEntity
  8
0
100
AcDbBlockReference
  2
32-1-17
 10
782.3804363263189
 20
213.5252694988129
 30
0.0
  0
INSERT
  5
55
330
4E
100
AcDbEntity
  8
1
100
AcDbBlockReference
  2
14-42
 10
1121.123031563545
 20
253.0355284211468
 30
0.0
  0
ENDBLK
  5
57
330
4E
100
AcDbEntity
  8
0
100
AcDbBlockEnd
  0
BLOCK
  5
59
330
58
100
AcDbEntity
  8
0
100
AcDbBlockBegin
  2
81-100K
 70
     0
 71
     0
 10
227.7189814251104
 20
437.4347586284189
 30
0.0
  3
81-100K
  1

  0
LINE
  5
1C3
330
58
100
AcDbEntity
  8
1
  6
Continuous
 62
     7
100
AcDbLine
 10
103.0
 20
443.4873386810708
 30
0.0
 11
103.0
 21
442.4623178129427
 31
0.0
  0
LINE
  5
1C4
330
58
100
AcDbEntity
  8
1
  6
Continuous
 62
     7
100
AcDbLine
 10
111.0
 20
443.4873386810708
 30
0.0
 11
111.0
 21
442.4623178129426
 31
0.0
  0
LINE
  5
1C5
330
58
100
AcDbEntity
  8
1
  6
Continuous
 62
     7
100
AcDbLine
 10
102.9999999999999
 20
396.4873386810709
 30
0.0
 11
102.9999999999999
 21
411.9873386810706
 31
0.0
  0
LINE
  5
1C6
330
58
100
AcDbEntity
  8
1
  6
Continuous
 62
     7
100
AcDbLine
 10
111.0
 20
396.4873386810708
 30
0.0
 11
111.0
 21
411.9873386810706
 31
0.0
  0
LINE
  5
1C7
330
58
100
AcDbEntity
  8
1
  6
Continuous
 62
     7
100
AcDbLine
 10
111.0
 20
411.9873386810706
 30
0.0
 11
111.0
 21
411.987338681073
 31
0.0
  0
LINE
  5
1C8
330
58
100
AcDbEntity
  8
1
  6
Continuous
 62
     7
100
AcDbLine
 10
102.9999999999999
 20
411.9873386810706
 30
0.0
 11
102.9999999999999
 21
412.5123595491987
 31
0.0
  0
LINE
  5
1C9
330
58
100
AcDbEntity
  8
1
  6
Continuous
 62
     7
100
AcDbLine
 10
111.0
 20
411.9873386810706
 30
0.0
 11
111.0
 21
412.5123595491987
 31
0.0
  0
LINE
  5
1CA
330
58
100
AcDbEntity
  8
1
  6
PHANTOM
 62
     5
100
AcDbLine
 10
137.9999999999999
 20
423.4873386810706
 30
0.0
 11
124.4999999999999
 21
423.4873386810706
 31
0.0
  0
LINE
  5
1CB
330
58
100
AcDbEntity
  8
1
  6
PHANTOM
 62
     5
100
AcDbLine
 10
137.9999999999999
 20
431.4873386810706
 30
0.0
 11
124.4999999999999
 21
431.4873386810706
 31
0.0
  0
LINE
  5
1CC
330
58
100
AcDbEntity
  8
1
  6
Continuous
 62
     7
100
AcDbLine
 10
288.652897822009
 20
267.592637134988
 30
0.0
 11
303.152897822009
 21
267.592637134988
 31
0.0
  0
LINE
  5
1CD
330
58
100
AcDbEntity
  8
1
  6
Continuous
 62
     7
100
AcDbLine
 10
91.5
 20
267.5926371349866
 30
0.0
 11
122.5
 21
267.5926371349866
 31
0.0
  0
LINE
  5
1CE
330
58
100
AcDbEntity
  8
1
  6
Continuous
 62
     7
100
AcDbLine
 10
122.5
 20
280.0926371349866
 30
0.0
 11
122.5
 21
267.5926371349866
 31
0.0
  0
LINE
  5
1CF
330
58
100
AcDbEntity
  8
1
  6
Continuous
 62
     7
100
AcDbLine
 10
91.5
 20
280.0926371349866
 30
0.0
 11
91.5
 21
267.5926371349866
 31
0.0
  0
LINE
  5
1D0
330
58
100
AcDbEntity
  8
1
  6
Continuous
 62
     7
100
AcDbLine
 10
273.3528978220093
 20
267.592637134988
 30
0.0
 11
288.652897822009
 21
267.592637134988
 31
0.0
  0
LINE
  5
1D1
330
58
100
AcDbEntity
  8
1
  6
Continuous
 62
     7
100
AcDbLine
 10
273.152897822009
 20
280.0926371349879
 30
0.0
 11
273.152897822009
 21
273.2602246189945
 31
0.0
  0
LINE
  5
1D2
330
58
100
AcDbEntity
  8
1
  6
Continuous
 62
     7
100
AcDbLine
 10
304.152897822009
 20
280.0926371349879
 30
0.0
 11
304.152897822009
 21
277.5123375637479
 31
0.0
  0
LINE
  5
1D3
330
58
100
AcDbEntity
  8
1
  6
Continuous
 62
     7
100
AcDbLine
 10
303.152897822009
 20
267.592637134988
 30
0.0
 11
303.9528978220091
 21
267.592637134988
 31
0.0
  0
LINE
  5
1D4
330
58
100
AcDbEntity
  8
1
  6
Continuous
 62
     7
100
AcDbLine
 10
304.152897822009
 20
277.5123375637479
 30
0.0
 11
304.152897822009
 21
267.7926371349881
 31
0.0
  0
LINE
  5
1D5
330
58
100
AcDbEntity
  8
1
  6
Continuous
 62
     7
100
AcDbLine
 10
273.152897822009
 20
273.2602246189945
 30
0.0
 11
273.1528978220091
 21
267.7926371349881
 31
0.0
  0
ARC
  5
1D6
330
58
100
AcDbEntity
  8
1
  6
Continuous
 62
     7
100
AcDbCircle
 10
288.652897822009
 20
280.092637134988
 30
0.0
 40
15.49999999999997
100
AcDbArc
 50
61.4977761969173
 51
90.0
  0
ARC
  5
1D7
330
58
100
AcDbEntity
  8
1
  6
Continuous
 62
     7
100
AcDbCircle
 10
281.1528978220091
 20
235.5926371349879
 30
0.0
 40
60.00000000000001
100
AcDbArc
 50
85.24207666485533
 51
90.0
  0
ARC
  5
1D8
330
58
100
AcDbEntity
  8
1
  6
Continuous
 62
     7
100
AcDbCircle
 10
288.652897822009
 20
280.092637134988
 30
0.0
 40
15.5
100
AcDbArc
 50
90.0
 51
99.36885182365491
  0
ARC
  5
1D9
330
58
100
AcDbEntity
  8
1
  6
Continuous
 62
     7
100
AcDbCircle
 10
107.0
 20
396.4873386810708
 30
0.0
 40
4.0000000000001
100
AcDbArc
 50
179.9999999999984
 51
0.0
  0
ARC
  5
1DA
330
58
100
AcDbEntity
  8
1
  6
Continuous
 62
     7
100
AcDbCircle
 10
107.0
 20
427.4873386810706
 30
0.0
 40
15.49999999999993
100
AcDbArc
 50
-75.04475168335659
 51
75.04475168335677
  0
ARC
  5
1DB
330
58
100
AcDbEntity
  8
1
  6
Continuous
 62
     7
100
AcDbCircle
 10
107.0
 20
427.4873386810706
 30
0.0
 40
15.50000000000015
100
AcDbArc
 50
104.9552483166432
 51
-104.9552483166438
  0
ARC
  5
1DC
330
58
100
AcDbEntity
  8
1
  6
Continuous
 62
     7
100
AcDbCircle
 10
107.0
 20
443.4873386810708
 30
0.0
 40
4.0
100
AcDbArc
 50
0.0
 51
180.0
  0
ARC
  5
1DD
330
58
100
AcDbEntity
  8
1
  6
PHANTOM
 62
     5
100
AcDbCircle
 10
137.9999999999999
 20
427.4873386810706
 30
0.0
 40
4.0
100
AcDbArc
 50
-90.0
 51
90.0
  0
ARC
  5
1DE
330
58
100
AcDbEntity
  8
1
  6
PHANTOM
 62
     5
100
AcDbCircle
 10
90.99999999999989
 20
427.4873386810706
 30
0.0
 40
4.000000000000133
100
AcDbArc
 50
100.0000000000023
 51
-100.0000000000028
  0
ARC
  5
1DF
330
58
100
AcDbEntity
  8
1
  6
Continuous
 62
     7
100
AcDbCircle
 10
107.0
 20
280.0926371349866
 30
0.0
 40
15.5
100
AcDbArc
 50
0.0
 51
180.0
  0
ARC
  5
1E0
330
58
100
AcDbEntity
  8
1
  6
Continuous
 62
     7
100
AcDbCircle
 10
11.00000000000011
 20
284.5926371349867
 30
0.0
 40
99.99999999999989
100
AcDbArc
 50
0.0
 51
4.33382936637411
  0
ARC
  5
1E1
330
58
100
AcDbEntity
  8
1
  6
Continuous
 62
     7
100
AcDbCircle
 10
107.0
 20
291.8679180338645
 30
0.0
 40
3.72471910112148
100
AcDbArc
 50
90.0
 51
175.6661706336257
  0
ARC
  5
1E2
330
58
100
AcDbEntity
  8
1
  6
Continuous
 62
     7
100
AcDbCircle
 10
203.0000000000002
 20
284.5926371349867
 30
0.0
 40
99.99999999999994
100
AcDbArc
 50
175.6661706336259
 51
180.0
  0
ARC
  5
1E3
330
58
100
AcDbEntity
  8
1
  6
Continuous
 62
     7
100
AcDbCircle
 10
11.00000000000011
 20
284.5926371349867
 30
0.0
 40
100.0000000000001
100
AcDbArc
 50
-4.33382936637437
 51
0.0
  0
ARC
  5
1E4
330
58
100
AcDbEntity
  8
1
  6
Continuous
 62
     7
100
AcDbCircle
 10
107.0
 20
277.3173562361086
 30
0.0
 40
3.72471910112381
100
AcDbArc
 50
-90.0
 51
-4.33382936637556
  0
ARC
  5
1E5
330
58
100
AcDbEntity
  8
1
  6
Continuous
 62
     7
100
AcDbCircle
 10
203.0000000000002
 20
284.5926371349867
 30
0.0
 40
100.0000000000002
100
AcDbArc
 50
180.0
 51
-175.6661706336256
  0
ARC
  5
1E6
330
58
100
AcDbEntity
  8
1
  6
Continuous
 62
     7
100
AcDbCircle
 10
107.0
 20
277.3173562361086
 30
0.0
 40
3.724719101123242
100
AcDbArc
 50
-175.666170633624
 51
-90.0
  0
ARC
  5
1E7
330
58
100
AcDbEntity
  8
1
  6
Continuous
 62
     7
100
AcDbCircle
 10
107.0
 20
291.8679180338645
 30
0.0
 40
3.72471910112363
100
AcDbArc
 50
4.33382936637382
 51
90.0
  0
ARC
  5
1E8
330
58
100
AcDbEntity
  8
1
  6
Continuous
 62
     7
100
AcDbCircle
 10
288.652897822009
 20
280.092637134988
 30
0.0
 40
15.5
100
AcDbArc
 50
99.36885182365491
 51
-179.9999999999996
  0
ARC
  5
1E9
330
58
100
AcDbEntity
  8
1
  6
Continuous
 62
     7
100
AcDbCircle
 10
301.6528978220091
 20
284.5926371349879
 30
0.0
 40
7.0
100
AcDbArc
 50
0.0
 51
47.3771453921841
  0
ARC
  5
1EA
330
58
100
AcDbEntity
  8
1
  6
Continuous
 62
     7
100
AcDbCircle
 10
281.1528978220091
 20
235.5926371349879
 30
0.0
 40
60.00000000000018
100
AcDbArc
 50
66.58728051639267
 51
75.62455135571636
  0
ARC
  5
1EB
330
58
100
AcDbEntity
  8
1
  6
Continuous
 62
     7
100
AcDbCircle
 10
301.6528978220091
 20
284.5926371349879
 30
0.0
 40
7.000000000000006
100
AcDbArc
 50
-47.37714539218442
 51
0.0
  0
ARC
  5
1EC
330
58
100
AcDbEntity
  8
1
  6
Continuous
 62
     7
100
AcDbCircle
 10
281.1528978220091
 20
333.592637134988
 30
0.0
 40
59.99999999999992
100
AcDbArc
 50
-113.4127194836078
 51
-98.48444974137644
  0
ARC
  5
1ED
330
58
100
AcDbEntity
  8
1
  6
Continuous
 62
     7
100
AcDbCircle
 10
260.6528978220091
 20
284.5926371349879
 30
0.0
 40
6.999999999999886
100
AcDbArc
 50
180.0
 51
-132.6228546078329
  0
ARC
  5
1EE
330
58
100
AcDbEntity
  8
1
  6
Continuous
 62
     7
100
AcDbCircle
 10
281.1528978220091
 20
333.592637134988
 30
0.0
 40
59.99999999999991
100
AcDbArc
 50
-66.83112021488155
 51
-66.58728051639274
  0
ARC
  5
1EF
330
58
100
AcDbEntity
  8
1
  6
Continuous
 62
     7
100
AcDbCircle
 10
281.1528978220091
 20
235.5926371349879
 30
0.0
 40
60.0
100
AcDbArc
 50
90.0
 51
113.4127194836066
  0
ARC
  5
1F0
330
58
100
AcDbEntity
  8
1
  6
Continuous
 62
     7
100
AcDbCircle
 10
260.6528978220091
 20
284.5926371349879
 30
0.0
 40
6.999999999999863
100
AcDbArc
 50
132.622854607804
 51
180.0
  0
ARC
  5
1F1
330
58
100
AcDbEntity
  8
1
  6
Continuous
 62
     7
100
AcDbCircle
 10
288.652897822009
 20
280.092637134988
 30
0.0
 40
15.5
100
AcDbArc
 50
-0.00000000000042
 51
61.4977761969173
  0
SPLINE
  5
1F2
330
58
100
AcDbEntity
  8
1
  6
Continuous
 62
     7
100
AcDbSpline
210
0.0
220
0.0
230
1.0
 70
     8
 71
     3
 72
    25
 73
    21
 74
    19
 42
0.0000000001
 43
0.0000000001
 44
0.00000001
 40
0.0
 40
0.0
 40
0.0
 40
0.0
 40
0.4083061231954304
 40
0.8124159456219563
 40
1.325418698287125
 40
1.835613200614841
 40
2.477513317515745
 40
3.118661299451472
 40
3.892123822366681
 40
4.665151316851043
 40
5.55781224448293
 40
6.450283438426504
 40
7.442185186515905
 40
8.433982355323922
 40
9.500014430648633
 40
10.56599316854547
 40
11.67776158901331
 40
12.78950677057438
 40
13.35317621785152
 40
13.91674531799764
 40
13.91674531799764
 40
13.91674531799764
 40
13.91674531799764
 10
106.64275009399
 20
424.9087663894296
 30
0.0
 10
106.5146018576106
 20
424.8607304801702
 30
0.0
 10
106.2596224078214
 20
424.7651523430135
 30
0.0
 10
105.9077903389749
 20
424.489464375688
 30
0.0
 10
105.5833535202682
 20
424.140478755531
 30
0.0
 10
105.2577848178875
 20
423.6893353576028
 30
0.0
 10
104.9609602365691
 20
423.1694951833055
 30
0.0
 10
104.6666366867869
 20
422.5498487717247
 30
0.0
 10
104.4003937810995
 20
421.8703976503949
 30
0.0
 10
104.144119754412
 20
421.0984874451528
 30
0.0
 10
103.9160921669999
 20
420.2764745771315
 30
0.0
 10
103.70503233892
 20
419.3749641088978
 30
0.0
 10
103.5227721260586
 20
418.4334914546738
 30
0.0
 10
103.3629961042237
 20
417.4293802310053
 30
0.0
 10
103.2326879620342
 20
416.3961202681772
 30
0.0
 10
103.1288101316025
 20
415.3197185100702
 30
0.0
 10
103.0548773532113
 20
414.2255672243747
 30
0.0
 10
103.0175702678787
 20
413.2971446891388
 30
0.0
 10
103.0021897483752
 20
412.5509456355633
 30
0.0
 10
103.0007298728055
 20
412.1751965161331
 30
0.0
 10
102.9999999999999
 20
411.9873386810706
 30
0.0
 11
106.64275009399
 21
424.9087663894296
 31
0.0
 11
106.2682381641142
 21
424.7461173666242
 31
0.0
 11
105.9434878016783
 21
424.5056138309342
 31
0.0
 11
105.5908895903458
 21
424.1329929436947
 31
0.0
 11
105.290314961547
 21
423.7207389895258
 31
0.0
 11
104.9680311650812
 21
423.1656093518618
 31
0.0
 11
104.6917961157204
 21
422.5870206099692
 31
0.0
 11
104.4067764878486
 21
421.8679878665686
 31
0.0
 11
104.1624040468474
 21
421.1346028262876
 31
0.0
 11
103.9219386360576
 21
420.2749401494577
 31
0.0
 11
103.7179290133138
 21
419.4060990213756
 31
0.0
 11
103.5282107632408
 21
418.4325097530227
 31
0.0
 11
103.3719883629258
 21
417.4530935056102
 31
0.0
 11
103.2378512245091
 21
416.3955342336456
 31
0.0
 11
103.1352586075272
 21
415.3345038737647
 31
0.0
 11
103.0599299865162
 21
414.2252903597801
 31
0.0
 11
103.0150409543808
 21
413.1144517920673
 31
0.0
 11
103.0037602385951
 21
412.550895236569
 31
0.0
 11
102.9999999999999
 21
411.9873386810706
 31
0.0
  0
SPLINE
  5
1F3
330
58
100
AcDbEntity
  8
1
  6
Continuous
 62
     7
100
AcDbSpline
210
0.0
220
0.0
230
1.0
 70
     8
 71
     3
 72
    27
 73
    23
 74
    21
 42
0.0000000001
 43
0.0000000001
 44
0.00000001
 40
0.0
 40
0.0
 40
0.0
 40
0.0
 40
0.5635691001448704
 40
1.127238547420825
 40
2.238983728981895
 40
3.350752149449786
 40
4.416730887346454
 40
5.482762962671132
 40
6.474560131479121
 40
7.466461879568589
 40
8.358933073512333
 40
9.251594001144325
 40
10.02462149562879
 40
10.79808401854378
 40
11.43923200047935
 40
12.08113211738024
 40
12.59132661970796
 40
13.10432937237297
 40
13.50843919479947
 40
13.91674531799497
 40
14.27825505646384
 40
14.63976479493272
 40
14.63976479493272
 40
14.63976479493272
 40
14.63976479493272
 10
111.0
 20
411.987338681073
 30
0.0
 10
110.9992701271939
 20
412.1751965161338
 30
0.0
 10
110.9978102516231
 20
412.5509456355604
 30
0.0
 10
110.9824297321296
 20
413.2971446891619
 30
0.0
 10
110.9451226467197
 20
414.2255672241932
 30
0.0
 10
110.8711898686439
 20
415.3197185107226
 30
0.0
 10
110.7673120370883
 20
416.3961202658577
 30
0.0
 10
110.6370038989578
 20
417.4293802394176
 30
0.0
 10
110.4772278629803
 20
418.4334914256975
 30
0.0
 10
110.294967700351
 20
419.374964212721
 30
0.0
 10
110.0839077026586
 20
420.2764742325466
 30
0.0
 10
109.855880706227
 20
421.0984886629565
 30
0.0
 10
109.5996047534489
 20
421.8703937761483
 30
0.0
 10
109.3333684150083
 20
422.5498622594603
 30
0.0
 10
109.0390242981099
 20
423.1694542972795
 30
0.0
 10
108.7422683019271
 20
423.6894757916867
 30
0.0
 10
108.4164925167262
 20
424.1400717199714
 30
0.0
 10
108.0927400456559
 20
424.4908665658087
 30
0.0
 10
107.7388525366397
 20
424.7611205183995
 30
0.0
 10
107.3774600155954
 20
424.91786198522
 30
0.0
 10
106.9988625682664
 20
424.9887595772689
 30
0.0
 10
106.7614542520821
 20
424.935430785376
 30
0.0
 10
106.64275009399
 20
424.9087663894296
 30
0.0
 11
111.0
 21
411.987338681073
 31
0.0
 11
110.9962397614047
 21
412.5508952365702
 31
0.0
 11
110.9849590456189
 21
413.1144517920673
 31
0.0
 11
110.9400700134835
 21
414.2252903597801
 31
0.0
 11
110.8647413924725
 21
415.3345038737647
 31
0.0
 11
110.7621487754906
 21
416.3955342336454
 31
0.0
 11
110.6280116370737
 21
417.4530935056101
 31
0.0
 11
110.4717892367585
 21
418.4325097530224
 31
0.0
 11
110.2820709866855
 21
419.4060990213754
 31
0.0
 11
110.0780613639417
 21
420.2749401494577
 31
0.0
 11
109.8375959531519
 21
421.1346028262877
 31
0.0
 11
109.5932235121508
 21
421.8679878665688
 31
0.0
 11
109.3082038842791
 21
422.5870206099692
 31
0.0
 11
109.0319688349184
 21
423.1656093518617
 31
0.0
 11
108.7096850384527
 21
423.7207389895258
 31
0.0
 11
108.409110409654
 21
424.1329929436947
 31
0.0
 11
108.0565121983215
 21
424.505613830934
 31
0.0
 11
107.7317618358856
 21
424.7461173666239
 31
0.0
 11
107.3572499060097
 21
424.9087663894294
 31
0.0
 11
106.9999999999999
 21
424.9640998843832
 31
0.0
 11
106.64275009399
 21
424.9087663894296
 31
0.0
  0
SPLINE
  5
1F4
330
58
100
AcDbEntity
  8
1
  6
Continuous
 62
     7
100
AcDbSpline
210
0.0
220
0.0
230
1.0
 70
     8
 71
     3
 72
    25
 73
    21
 74
    19
 42
0.0000000001
 43
0.0000000001
 44
0.00000001
 40
0.0
 40
0.0
 40
0.0
 40
0.0
 40
0.3693884427296164
 40
0.7379631341202186
 40
1.148273677444094
 40
1.55766004792461
 40
2.023771439164218
 40
2.489267634410605
 40
3.01618335288472
 40
3.54273364357466
 40
4.127686796922381
 40
4.712425915422044
 40
5.347208699556441
 40
5.981867037412981
 40
6.654590126533604
 40
7.327244195060185
 40
8.023627745486857
 40
8.719980409859209
 40
9.07228506346854
 40
9.424428410662134
 40
9.424428410662134
 40
9.424428410662134
 40
9.424428410662134
 10
106.6477897385637
 20
434.9161255974861
 30
0.0
 10
106.5274924216048
 20
434.9438600104696
 30
0.0
 10
106.2871627989634
 20
434.9992677383805
 30
0.0
 10
105.9391246483125
 20
435.1644178454864
 30
0.0
 10
105.6059859164328
 20
435.3802768930045
 30
0.0
 10
105.2796536854991
 20
435.6599027703553
 30
0.0
 10
104.9745102618331
 20
435.9876766808996
 30
0.0
 10
104.6789383487765
 20
436.3744923222126
 30
0.0
 10
104.4076628866797
 20
436.8027229632476
 30
0.0
 10
104.1505569461727
 20
437.2850446138482
 30
0.0
 10
103.9197991007449
 20
437.8017019778961
 30
0.0
 10
103.7082025059968
 20
438.3650903395374
 30
0.0
 10
103.5245053316421
 20
438.9555647606485
 30
0.0
 10
103.364389472569
 20
439.5831105146645
 30
0.0
 10
103.2333509434393
 20
440.2302559092992
 30
0.0
 10
103.1292751688638
 20
440.9030688726641
 30
0.0
 10
103.0550085554008
 20
441.5877513000072
 30
0.0
 10
103.0176393129477
 20
442.1684090301574
 30
0.0
 10
103.0021936450312
 20
442.6351343677737
 30
0.0
 10
103.0007311033782
 20
442.8699551666074
 30
0.0
 10
103.0
 20
442.9873386810721
 30
0.0
 11
106.6477897385637
 21
434.9161255974861
 31
0.0
 11
106.2910708033835
 21
435.0120392195952
 31
0.0
 11
105.9557409948086
 21
435.1650138011923
 31
0.0
 11
105.6111819511583
 21
435.3878002626337
 31
0.0
 11
105.2990743757247
 21
435.6527267839413
 31
0.0
 11
104.9801768898565
 21
435.9926741659731
 31
0.0
 11
104.6966382002463
 21
436.3618523333706
 31
0.0
 11
104.4133085932047
 21
436.8061095878401
 31
0.0
 11
104.1649306941533
 21
437.2703978903941
 31
0.0
 11
103.925263248121
 21
437.8039985902847
 31
0.0
 11
103.7191707634717
 21
438.3512149318489
 31
0.0
 11
103.5297717166198
 21
438.9570838814452
 31
0.0
 11
103.3725377937377
 21
439.5719567945793
 31
0.0
 11
103.238461468503
 21
440.2311835337575
 31
0.0
 11
103.1354474538958
 21
440.8959027291324
 31
0.0
 11
103.0600713548846
 21
441.5881949311705
 31
0.0
 11
103.0150752765973
 21
442.2830923236805
 31
0.0
 11
103.0037688191493
 21
442.6352155023762
 31
0.0
 11
103.0
 21
442.9873386810721
 31
0.0
  0
SPLINE
  5
1F5
330
58
100
AcDbEntity
  8
1
  6
Continuous
 62
     7
100
AcDbSpline
210
0.0
220
0.0
230
1.0
 70
     8
 71
     3
 72
    27
 73
    23
 74
    21
 42
0.0000000001
 43
0.0000000001
 44
0.00000001
 40
0.0
 40
0.0
 40
0.0
 40
0.0
 40
0.3521433471925717
 40
0.7044480008014498
 40
1.400800665173696
 40
2.097184215600366
 40
2.769838284126939
 40
3.442561373247621
 40
4.077219711104116
 40
4.712002495238493
 40
5.296741613738277
 40
5.881694767085905
 40
6.408245057775919
 40
6.935160776250047
 40
7.400656971496511
 40
7.866768362736091
 40
8.276154733216588
 40
8.686465276540414
 40
9.055039967931128
 40
9.424428410660823
 40
9.778116399126965
 40
10.13180438759336
 40
10.13180438759336
 40
10.13180438759336
 40
10.13180438759336
 10
111.0
 20
442.9873386810706
 30
0.0
 10
110.9992688966217
 20
442.8699551666066
 30
0.0
 10
110.9978063549685
 20
442.6351343677745
 30
0.0
 10
110.9823606870538
 20
442.168409030149
 30
0.0
 10
110.9449914445848
 20
441.5877513000736
 30
0.0
 10
110.8707248311869
 20
440.9030688724254
 30
0.0
 10
110.7666490563783
 20
440.2302559101544
 30
0.0
 10
110.6356105280957
 20
439.5831105115462
 30
0.0
 10
110.4754946660316
 20
438.9555647715572
 30
0.0
 10
110.2917975024135
 20
438.3650903000961
 30
0.0
 10
110.0802008705995
 20
437.8017021122736
 30
0.0
 10
109.8494431565834
 20
437.2850441319778
 30
0.0
 10
109.5923367720345
 20
436.802724563689
 30
0.0
 10
109.3210628674252
 20
436.3744866188972
 30
0.0
 10
109.0254857809804
 20
435.9876952379153
 30
0.0
 10
108.7203604028844
 20
435.6598367036198
 30
0.0
 10
108.3939685213338
 20
435.3804905547003
 30
0.0
 10
108.061039208009
 20
435.1636494498824
 30
0.0
 10
107.7122938756124
 20
435.0018156343804
 30
0.0
 10
107.3593267757129
 20
434.9079095441165
 30
0.0
 10
106.9995324245084
 20
434.8698721013359
 30
0.0
 10
106.7650373005453
 20
434.9007077654362
 30
0.0
 10
106.6477897385637
 20
434.9161255974861
 30
0.0
 11
111.0
 21
442.9873386810706
 31
0.0
 11
110.9962311808507
 21
442.6352155023757
 31
0.0
 11
110.9849247234026
 21
442.2830923236804
 31
0.0
 11
110.9399286451152
 21
441.5881949311705
 31
0.0
 11
110.864552546104
 21
440.8959027291324
 31
0.0
 11
110.7615385314969
 21
440.2311835337575
 31
0.0
 11
110.6274622062622
 21
439.5719567945793
 31
0.0
 11
110.4702282833801
 21
438.9570838814453
 31
0.0
 11
110.280829236528
 21
438.351214931849
 31
0.0
 11
110.0747367518787
 21
437.8039985902847
 31
0.0
 11
109.8350693058465
 21
437.2703978903941
 31
0.0
 11
109.5866914067951
 21
436.80610958784
 31
0.0
 11
109.3033617997534
 21
436.3618523333706
 31
0.0
 11
109.0198231101431
 21
435.9926741659731
 31
0.0
 11
108.7009256242749
 21
435.6527267839413
 31
0.0
 11
108.3888180488413
 21
435.3878002626336
 31
0.0
 11
108.0442590051911
 21
435.1650138011924
 31
0.0
 11
107.7089291966161
 21
435.0120392195952
 31
0.0
 11
107.3522102614357
 21
434.9161255974863
 31
0.0
 11
106.9999999999999
 21
434.8838281529358
 31
0.0
 11
106.6477897385637
 21
434.9161255974861
 31
0.0
  0
ARC
  5
1F6
330
58
100
AcDbEntity
  8
1
  6
Continuous
 62
     7
100
AcDbCircle
 10
305.152897822009
 20
277.5123375637479
 30
0.0
 40
1.000000000000332
100
AcDbArc
 50
113.1688797851074
 51
180.0
  0
ARC
  5
1F7
330
58
100
AcDbEntity
  8
1
  6
Continuous
 62
     7
100
AcDbCircle
 10
303.0072368944789
 20
283.1209830734701
 30
0.0
 40
5.00000000000014
100
AcDbArc
 50
-66.58728051639181
 51
-47.37714539218518
  0
ARC
  5
1F8
330
58
100
AcDbEntity
  8
1
  6
Continuous
 62
     7
100
AcDbCircle
 10
303.0072368944789
 20
286.0642911965057
 30
0.0
 40
4.999999999999921
100
AcDbArc
 50
47.37714539218518
 51
66.58728051639181
  0
ARC
  5
1F9
330
58
100
AcDbEntity
  8
1
  6
Continuous
 62
     7
100
AcDbCircle
 10
303.9528978220091
 20
267.792637134988
 30
0.0
 40
0.1999999999999886
100
AcDbArc
 50
-90.0
 51
0.00000000003257
  0
ARC
  5
1FA
330
58
100
AcDbEntity
  8
1
  6
Continuous
 62
     7
100
AcDbCircle
 10
273.3528978220093
 20
267.792637134988
 30
0.0
 40
0.200000000000216
100
AcDbArc
 50
179.9999999999674
 51
-90.0
  0
ARC
  5
1FB
330
58
100
AcDbEntity
  8
1
  6
Continuous
 62
     7
100
AcDbCircle
 10
272.152897822009
 20
273.2602246189945
 30
0.0
 40
1.0
100
AcDbArc
 50
0.0
 51
81.51555025862609
  0
ARC
  5
1FC
330
58
100
AcDbEntity
  8
1
  6
Continuous
 62
     7
100
AcDbCircle
 10
259.2985587495389
 20
283.1209830734705
 30
0.0
 40
4.999999999999996
100
AcDbArc
 50
-132.6228546078331
 51
-113.4127194836098
  0
ARC
  5
1FD
330
58
100
AcDbEntity
  8
1
  6
Continuous
 62
     7
100
AcDbCircle
 10
259.2985587495398
 20
286.0642911965059
 30
0.0
 40
5.00000000000005
100
AcDbArc
 50
113.4127194836058
 51
132.6228546078043
  0
ENDBLK
  5
5A
330
58
100
AcDbEntity
  8
0
100
AcDbBlockEnd
  0
BLOCK
  5
5D
330
5B
100
AcDbEntity
  8
0
100
AcDbBlockBegin
  2
81-100X
 70
     0
 71
     0
 10
244.0192751338736
 20
781.0130154421096
 30
0.0
  3
81-100X
  1

  0
INSERT
  5
5C
330
5B
100
AcDbEntity
  8
0
100
AcDbBlockReference
  2
81-100K
 10
227.7189814251104
 20
437.4347586284189
 30
0.0
  0
LINE
  5
1FE
330
5B
100
AcDbEntity
  8
1
  6
PHANTOM
 62
     4
100
AcDbLine
 10
288.652897822009
 20
298.5673213234175
 30
0.0
 11
288.652897822009
 21
264.7177295645578
 31
0.0
  0
LINE
  5
1FF
330
5B
100
AcDbEntity
  8
1
  6
PHANTOM
 62
     4
100
AcDbLine
 10
251.5467716121266
 20
284.5926371349879
 30
0.0
 11
311.4027444590645
 21
284.5926371349879
 31
0.0
  0
ENDBLK
  5
5E
330
5B
100
AcDbEntity
  8
0
100
AcDbBlockEnd
  0
BLOCK
  5
63
330
5F
100
AcDbEntity
  8
0
100
AcDbBlockBegin
  2
Y1235TV-1-13
 70
     0
 71
     0
 10
147.152897822009
 20
168.292637134988
 30
0.0
  3
Y1235TV-1-13
  1

  0
INSERT
  5
60
330
5F
100
AcDbEntity
  8
1
100
AcDbBlockReference
  2
Y125-0A-13-M1
 10
565.9874668674211
 20
159.4711693511709
 30
0.0
  0
INSERT
  5
61
330
5F
100
AcDbEntity
  8
1
100
AcDbBlockReference
  2
Y121-4TVX-16
 10
334.6972840297096
 20
928.523218519978
 30
0.0
  0
INSERT
  5
62
330
5F
100
AcDbEntity
  8
1
100
AcDbBlockReference
  2
81-100X
 10
244.0192751338736
 20
781.0130154421096
 30
0.0
  0
LINE
  5
200
330
5F
100
AcDbEntity
  8
0
  6
PHANTOM
 62
     4
100
AcDbLine
 10
192.294263976981
 20
198.5943002515888
 30
0.0
 11
192.294263976981
 21
199.5943002515888
 31
0.0
  0
LINE
  5
201
330
5F
100
AcDbEntity
  8
0
  6
PHANTOM
 62
     4
100
AcDbLine
 10
311.6528978220091
 20
284.592637134988
 30
0.0
 11
250.6528978220092
 21
284.592637134988
 31
0.0
  0
ENDBLK
  5
64
330
5F
100
AcDbEntity
  8
0
100
AcDbBlockEnd
  0
BLOCK
  5
66
330
65
100
AcDbEntity
  8
0
100
AcDbBlockBegin
  2
_J__A4
 70
     0
 71
     0
 10
0.0
 20
0.0
 30
0.0
  3
_J__A4
  1

  0
POINT
  5
202
330
65
100
AcDbEntity
  8
1
 62
     4
100
AcDbPoint
 10
93.75
 20
17.0
 30
0.0
  0
POINT
  5
203
330
65
100
AcDbEntity
  8
1
 62
     4
100
AcDbPoint
 10
85.25
 20
17.0
 30
0.0
  0
POINT
  5
204
330
65
100
AcDbEntity
  8
1
 62
     4
100
AcDbPoint
 10
106.5
 20
19.00000000000001
 30
0.0
  0
POINT
  5
205
330
65
100
AcDbEntity
  8
1
 62
     4
100
AcDbPoint
 10
106.5
 20
12.5
 30
0.0
  0
POINT
  5
206
330
65
100
AcDbEntity
  8
1
 62
     4
100
AcDbPoint
 10
112.25
 20
12.5
 30
0.0
  0
POINT
  5
207
330
65
100
AcDbEntity
  8
1
 62
     4
100
AcDbPoint
 10
100.75
 20
12.5
 30
0.0
  0
POINT
  5
208
330
65
100
AcDbEntity
  8
1
 62
     4
100
AcDbPoint
 10
123.5
 20
19.00000000000001
 30
0.0
  0
POINT
  5
209
330
65
100
AcDbEntity
  8
1
 62
     4
100
AcDbPoint
 10
123.5
 20
12.5
 30
0.0
  0
POINT
  5
20A
330
65
100
AcDbEntity
  8
1
 62
     4
100
AcDbPoint
 10
129.25
 20
12.5
 30
0.0
  0
POINT
  5
20B
330
65
100
AcDbEntity
  8
1
 62
     4
100
AcDbPoint
 10
117.75
 20
12.5
 30
0.0
  0
POINT
  5
20C
330
65
100
AcDbEntity
  8
1
 62
     4
100
AcDbPoint
 10
140.5
 20
19.00000000000001
 30
0.0
  0
POINT
  5
20D
330
65
100
AcDbEntity
  8
1
 62
     4
100
AcDbPoint
 10
140.5
 20
12.5
 30
0.0
  0
POINT
  5
20E
330
65
100
AcDbEntity
  8
1
 62
     4
100
AcDbPoint
 10
146.25
 20
12.5
 30
0.0
  0
POINT
  5
20F
330
65
100
AcDbEntity
  8
1
 62
     4
100
AcDbPoint
 10
134.75
 20
12.5
 30
0.0
  0
POINT
  5
210
330
65
100
AcDbEntity
  8
1
 62
     4
100
AcDbPoint
 10
151.75
 20
12.5
 30
0.0
  0
POINT
  5
211
330
65
100
AcDbEntity
  8
1
 62
     4
100
AcDbPoint
 10
163.25
 20
12.5
 30
0.0
  0
POINT
  5
212
330
65
100
AcDbEntity
  8
1
 62
     4
100
AcDbPoint
 10
157.5
 20
12.5
 30
0.0
  0
POINT
  5
213
330
65
100
AcDbEntity
  8
1
 62
     4
100
AcDbPoint
 10
57.0
 20
14.25
 30
0.0
  0
POINT
  5
214
330
65
100
AcDbEntity
  8
1
 62
     4
100
AcDbPoint
 10
57.0
 20
22.75000000000001
 30
0.0
  0
POINT
  5
215
330
65
100
AcDbEntity
  8
1
 62
     4
100
AcDbPoint
 10
47.5
 20
282.0000000000003
 30
0.0
  0
POINT
  5
216
330
65
100
AcDbEntity
  8
1
 62
     4
100
AcDbPoint
 10
157.5
 20
19.00000000000001
 30
0.0
  0
POINT
  5
217
330
65
100
AcDbEntity
  8
1
 62
     4
100
AcDbPoint
 10
57.0
 20
16.25
 30
0.0
  0
POINT
  5
218
330
65
100
AcDbEntity
  8
1
 62
     4
100
AcDbPoint
 10
57.0
 20
24.75000000000001
 30
0.0
  0
POINT
  5
219
330
65
100
AcDbEntity
  8
1
 62
     4
100
AcDbPoint
 10
57.0
 20
20.75000000000001
 30
0.0
  0
POINT
  5
21A
330
65
100
AcDbEntity
  8
1
 62
     4
100
AcDbPoint
 10
57.0
 20
12.25
 30
0.0
  0
POINT
  5
21B
330
65
100
AcDbEntity
  8
1
 62
     4
100
AcDbPoint
 10
34.0
 20
34.00000000000001
 30
0.0
  0
LINE
  5
21C
330
65
100
AcDbEntity
  8
1
  6
Continuous
 62
     7
100
AcDbLine
 10
105.0
 20
10.0
 30
0.0
 11
200.0
 21
10.0
 31
0.0
  0
LINE
  5
21D
330
65
100
AcDbEntity
  8
1
  6
Continuous
 62
     2
100
AcDbLine
 10
105.0
 20
10.0
 30
0.0
 11
105.0
 21
5.0
 31
0.0
  0
LINE
  5
21E
330
65
100
AcDbEntity
  8
1
  6
Continuous
 62
     7
100
AcDbLine
 10
200.0
 20
148.5
 30
0.0
 11
200.0
 21
287.0000000000003
 31
0.0
  0
LINE
  5
21F
330
65
100
AcDbEntity
  8
1
  6
Continuous
 62
     2
100
AcDbLine
 10
200.0
 20
148.5
 30
0.0
 11
205.0
 21
148.5
 31
0.0
  0
LINE
  5
220
330
65
100
AcDbEntity
  8
1
  6
Continuous
 62
     7
100
AcDbLine
 10
25.0
 20
148.5
 30
0.0
 11
25.0
 21
287.0000000000003
 31
0.0
  0
LINE
  5
221
330
65
100
AcDbEntity
  8
1
  6
Continuous
 62
     2
100
AcDbLine
 10
25.0
 20
148.5
 30
0.0
 11
20.0
 21
148.5
 31
0.0
  0
LINE
  5
222
330
65
100
AcDbEntity
  8
1
  6
Continuous
 62
     7
100
AcDbLine
 10
105.0
 20
287.0000000000003
 30
0.0
 11
25.0
 21
287.0000000000003
 31
0.0
  0
LINE
  5
223
330
65
100
AcDbEntity
  8
1
  6
Continuous
 62
     2
100
AcDbLine
 10
105.0
 20
287.0000000000003
 30
0.0
 11
105.0
 21
292.0000000000003
 31
0.0
  0
LINE
  5
224
330
65
100
AcDbEntity
  8
1
  6
Continuous
 62
     2
100
AcDbLine
 10
166.0
 20
20.00000000000001
 30
0.0
 11
200.0
 21
20.00000000000001
 31
0.0
  0
LINE
  5
225
330
65
100
AcDbEntity
  8
1
  6
Continuous
 62
     2
100
AcDbLine
 10
98.0
 20
27.00000000000001
 30
0.0
 11
98.0
 21
9.99999999999999
 31
0.0
  0
LINE
  5
226
330
65
100
AcDbEntity
  8
1
  6
Continuous
 62
     2
100
AcDbLine
 10
115.0
 20
27.00000000000001
 30
0.0
 11
115.0
 21
9.99999999999999
 31
0.0
  0
LINE
  5
227
330
65
100
AcDbEntity
  8
1
  6
Continuous
 62
     2
100
AcDbLine
 10
149.0
 20
27.00000000000001
 30
0.0
 11
149.0
 21
10.0
 31
0.0
  0
LINE
  5
228
330
65
100
AcDbEntity
  8
1
  6
Continuous
 62
     2
100
AcDbLine
 10
132.0
 20
27.00000000000001
 30
0.0
 11
132.0
 21
9.99999999999999
 31
0.0
  0
LINE
  5
229
330
65
100
AcDbEntity
  8
1
  6
Continuous
 62
     2
100
AcDbLine
 10
166.0
 20
27.00000000000001
 30
0.0
 11
166.0
 21
10.0
 31
0.0
  0
LINE
  5
22A
330
65
100
AcDbEntity
  8
1
  6
Continuous
 62
     2
100
AcDbLine
 10
55.0
 20
277.0000000000003
 30
0.0
 11
25.0
 21
277.0000000000003
 31
0.0
  0
LINE
  5
22B
330
65
100
AcDbEntity
  8
1
  6
Continuous
 62
     7
100
AcDbLine
 10
25.0
 20
10.0
 30
0.0
 11
25.0
 21
148.5
 31
0.0
  0
LINE
  5
22C
330
65
100
AcDbEntity
  8
1
  6
Continuous
 62
     2
100
AcDbLine
 10
40.0
 20
287.0000000000003
 30
0.0
 11
40.0
 21
277.0000000000003
 31
0.0
  0
LINE
  5
22D
330
65
100
AcDbEntity
  8
1
  6
Continuous
 62
     2
100
AcDbLine
 10
55.0
 20
287.0000000000003
 30
0.0
 11
55.0
 21
277.0000000000003
 31
0.0
  0
LINE
  5
22E
330
65
100
AcDbEntity
  8
1
  6
Continuous
 62
     2
100
AcDbLine
 10
33.0
 20
41.00000000000001
 30
0.0
 11
33.0
 21
27.0
 31
0.0
  0
LINE
  5
22F
330
65
100
AcDbEntity
  8
1
  6
Continuous
 62
     7
100
AcDbLine
 10
200.0
 20
27.00000000000001
 30
0.0
 11
25.0
 21
27.00000000000001
 31
0.0
  0
LINE
  5
230
330
65
100
AcDbEntity
  8
1
  6
Continuous
 62
     7
100
AcDbLine
 10
25.0
 20
41.0
 30
0.0
 11
200.0
 21
41.0
 31
0.0
  0
LINE
  5
231
330
65
100
AcDbEntity
  8
1
  6
PHANTOM
 62
     4
100
AcDbLine
 10
0.0
 20
0.0
 30
0.0
 11
210.0
 21
0.0
 31
0.0
  0
LINE
  5
232
330
65
100
AcDbEntity
  8
1
  6
PHANTOM
 62
     4
100
AcDbLine
 10
210.0
 20
0.0
 30
0.0
 11
210.0
 21
297.0
 31
0.0
  0
LINE
  5
233
330
65
100
AcDbEntity
  8
1
  6
PHANTOM
 62
     4
100
AcDbLine
 10
210.0
 20
297.0
 30
0.0
 11
0.0
 21
297.0
 31
0.0
  0
LINE
  5
234
330
65
100
AcDbEntity
  8
1
  6
PHANTOM
 62
     4
100
AcDbLine
 10
0.0
 20
297.0
 30
0.0
 11
0.0
 21
0.0
 31
0.0
  0
LINE
  5
235
330
65
100
AcDbEntity
  8
1
  6
Continuous
 62
     7
100
AcDbLine
 10
25.0
 20
10.0
 30
0.0
 11
105.0
 21
10.0
 31
0.0
  0
LINE
  5
236
330
65
100
AcDbEntity
  8
1
  6
Continuous
 62
     7
100
AcDbLine
 10
200.0
 20
10.0
 30
0.0
 11
200.0
 21
148.5
 31
0.0
  0
LINE
  5
237
330
65
100
AcDbEntity
  8
1
  6
Continuous
 62
     7
100
AcDbLine
 10
200.0
 20
287.0000000000003
 30
0.0
 11
105.0
 21
287.0000000000003
 31
0.0
  0
LINE
  5
238
330
65
100
AcDbEntity
  8
1
  6
Continuous
 62
     2
100
AcDbLine
 10
25.0
 20
18.50000000000001
 30
0.0
 11
81.0
 21
18.50000000000001
 31
0.0
  0
LINE
  5
239
330
65
100
AcDbEntity
  8
1
  6
Continuous
 62
     2
100
AcDbLine
 10
33.0
 20
27.0
 30
0.0
 11
33.0
 21
10.0
 31
0.0
  0
LINE
  5
23A
330
65
100
AcDbEntity
  8
1
  6
Continuous
 62
     7
100
AcDbLine
 10
191.0
 20
24.70000000000001
 30
0.0
 11
191.0
 21
22.30000000000001
 31
0.0
  0
LINE
  5
23B
330
65
100
AcDbEntity
  8
1
  6
Continuous
 62
     7
100
AcDbLine
 10
191.0
 20
24.70000000000001
 30
0.0
 11
196.0
 21
25.50000000000001
 31
0.0
  0
LINE
  5
23C
330
65
100
AcDbEntity
  8
1
  6
Continuous
 62
     7
100
AcDbLine
 10
196.0
 20
25.50000000000001
 30
0.0
 11
196.0
 21
21.50000000000001
 31
0.0
  0
LINE
  5
23D
330
65
100
AcDbEntity
  8
1
  6
Continuous
 62
     7
100
AcDbLine
 10
196.0
 20
21.50000000000001
 30
0.0
 11
191.0
 21
22.30000000000001
 31
0.0
  0
LINE
  5
23E
330
65
100
AcDbEntity
  8
1
  6
DOT_CENTER
 62
     2
100
AcDbLine
 10
184.0
 20
23.50000000000001
 30
0.0
 11
197.0
 21
23.50000000000001
 31
0.0
  0
LINE
  5
23F
330
65
100
AcDbEntity
  8
1
  6
DOT_CENTER
 62
     2
100
AcDbLine
 10
187.0
 20
26.50000000000001
 30
0.0
 11
187.0
 21
20.50000000000001
 31
0.0
  0
LINE
  5
240
330
65
100
AcDbEntity
  8
1
  6
Continuous
 62
     2
100
AcDbLine
 10
81.0
 20
27.00000000000001
 30
0.0
 11
81.0
 21
10.0
 31
0.0
  0
CIRCLE
  5
241
330
65
100
AcDbEntity
  8
1
  6
Continuous
 62
     7
100
AcDbCircle
 10
103.5
 20
12.5
 30
0.0
 40
0.2999999999999972
  0
CIRCLE
  5
242
330
65
100
AcDbEntity
  8
1
  6
Continuous
 62
     7
100
AcDbCircle
 10
109.5
 20
12.5
 30
0.0
 40
0.2999999999999972
  0
CIRCLE
  5
243
330
65
100
AcDbEntity
  8
1
  6
Continuous
 62
     7
100
AcDbCircle
 10
120.5
 20
12.5
 30
0.0
 40
0.2999999999999972
  0
CIRCLE
  5
244
330
65
100
AcDbEntity
  8
1
  6
Continuous
 62
     7
100
AcDbCircle
 10
126.5
 20
12.5
 30
0.0
 40
0.2999999999999972
  0
CIRCLE
  5
245
330
65
100
AcDbEntity
  8
1
  6
Continuous
 62
     7
100
AcDbCircle
 10
137.5
 20
12.5
 30
0.0
 40
0.3000000000000114
  0
CIRCLE
  5
246
330
65
100
AcDbEntity
  8
1
  6
Continuous
 62
     7
100
AcDbCircle
 10
143.5
 20
12.5
 30
0.0
 40
0.3000000000000114
  0
CIRCLE
  5
247
330
65
100
AcDbEntity
  8
1
  6
Continuous
 62
     7
100
AcDbCircle
 10
160.5
 20
12.5
 30
0.0
 40
0.3000000000000114
  0
CIRCLE
  5
248
330
65
100
AcDbEntity
  8
1
  6
Continuous
 62
     7
100
AcDbCircle
 10
154.5
 20
12.5
 30
0.0
 40
0.3000000000000114
  0
CIRCLE
  5
249
330
65
100
AcDbEntity
  8
1
  6
Continuous
 62
     7
100
AcDbCircle
 10
187.0
 20
23.50000000000001
 30
0.0
 40
1.200000000000102
  0
CIRCLE
  5
24A
330
65
100
AcDbEntity
  8
1
  6
Continuous
 62
     7
100
AcDbCircle
 10
187.0
 20
23.50000000000001
 30
0.0
 40
2.0
  0
CIRCLE
  5
24B
330
65
100
AcDbEntity
  8
1
  6
DOT_CENTER
 62
     7
100
AcDbCircle
 10
89.5
 20
16.0
 30
0.0
 40
0.1000000000000227
  0
CIRCLE
  5
24C
330
65
100
AcDbEntity
  8
1
  6
DOT_CENTER
 62
     7
100
AcDbCircle
 10
89.5
 20
18.0
 30
0.0
 40
0.1000000000000227
  0
MTEXT
  5
24E
330
65
100
AcDbEntity
  8
1
 62
     7
100
AcDbMText
 10
188.5
 20
15.0
 30
0.0
 40
3.0
 41
0.0
 71
     5
 72
     1
  1
三栄水栓製作所
  7
CONVERTER_1
 73
     1
 44
1.32052821128451
  0
MTEXT
  5
24F
330
65
100
AcDbEntity
  8
1
 62
     7
100
AcDbMText
 10
171.5
 20
15.0
 30
0.0
 40
2.5
 41
0.0
 71
     5
 72
     1
  1
株式会社
  7
CONVERTER_1
 73
     1
 44
1.32052821128451
  0
MTEXT
  5
250
330
65
100
AcDbEntity
  8
1
 62
     2
100
AcDbMText
 10
32.5
 20
282.0000000000003
 30
0.0
 40
5.0
 41
0.0
 71
     5
 72
     1
  1
図番
  7
CONVERTER_1
 73
     1
 44
0.60024009603842
  0
MTEXT
  5
251
330
65
100
AcDbEntity
  8
1
 62
     2
100
AcDbMText
 10
29.0
 20
34.00000000000001
 30
0.0
 40
3.5
 41
0.0
 71
     5
 72
     1
  1
備考
  7
CONVERTER_1
 73
     1
 44
0.60024009603842
  0
MTEXT
  5
252
330
65
100
AcDbEntity
  8
1
 62
     2
100
AcDbMText
 10
29.0
 20
22.75
 30
0.0
 40
3.5
 41
0.0
 71
     5
 72
     1
  1
品名
  7
CONVERTER_1
 73
     1
 44
0.96038415366146
  0
MTEXT
  5
253
330
65
100
AcDbEntity
  8
1
 62
     2
100
AcDbMText
 10
29.0
 20
14.25
 30
0.0
 40
3.5
 41
0.0
 71
     5
 72
     1
  1
品番
  7
CONVERTER_1
 73
     1
 44
0.96038415366146
  0
MTEXT
  5
254
330
65
100
AcDbEntity
  8
1
 62
     2
100
AcDbMText
 10
101.5
 20
25.00000000000001
 30
0.0
 40
3.0
 41
0.0
 71
     5
 72
     1
  1
承認
  7
CONVERTER_1
 73
     1
 44
0.78031212484994
  0
MTEXT
  5
255
330
65
100
AcDbEntity
  8
1
 62
     2
100
AcDbMText
 10
175.0
 20
23.50000000000001
 30
0.0
 40
3.5
 41
0.0
 71
     5
 72
     1
  1
第三角法
  7
CONVERTER_1
 73
     1
 44
0.7202881152461
  0
MTEXT
  5
256
330
65
100
AcDbEntity
  8
1
 62
     2
100
AcDbMText
 10
118.5
 20
25.00000000000001
 30
0.0
 40
3.0
 41
0.0
 71
     5
 72
     1
  1
検図
  7
CONVERTER_1
 73
     1
 44
0.78031212484994
  0
MTEXT
  5
257
330
65
100
AcDbEntity
  8
1
 62
     2
100
AcDbMText
 10
152.5
 20
25.00000000000001
 30
0.0
 40
3.0
 41
0.0
 71
     5
 72
     1
  1
設計
  7
CONVERTER_1
 73
     1
 44
0.78031212484994
  0
MTEXT
  5
258
330
65
100
AcDbEntity
  8
1
 62
     2
100
AcDbMText
 10
135.5
 20
25.00000000000001
 30
0.0
 40
3.0
 41
0.0
 71
     5
 72
     1
  1
製図
  7
CONVERTER_1
 73
     1
 44
0.78031212484994
  0
MTEXT
  5
259
330
65
100
AcDbEntity
  8
1
 62
     2
100
AcDbMText
 10
89.5
 20
24.00000000000001
 30
0.0
 40
3.5
 41
0.0
 71
     5
 72
     1
  1
尺度
  7
CONVERTER_1
 73
     1
 44
0.7202881152461
  0
MTEXT
  5
25A
330
65
100
AcDbEntity
  8
1
 62
   250
100
AcDbMText
 10
25.0
 20
5.0
 30
0.0
 40
3.5
 41
0.0
 71
     4
 72
     1
  1
備考欄の文字列 原点位置=4
  7
CONVERTER_1
 73
     1
 44
0.7202881152461
  0
ENDBLK
  5
67
330
65
100
AcDbEntity
  8
0
100
AcDbBlockEnd
  0
BLOCK
  5
27F
330
278
100
AcDbEntity
  8
0
100
AcDbBlockBegin
  2
*D014
 70
     1
 71
     0
 10
0.0
 20
0.0
 30
0.0
  3
*D014
  1

  0
LINE
  5
279
330
278
100
AcDbEntity
  8
0
  6
Continuous
 62
     2
100
AcDbLine
 10
347.652897822009
 20
175.9117312508399
 30
0.0
 11
359.652897822009
 21
175.9117312508399
 31
0.0
  0
LINE
  5
27A
330
278
100
AcDbEntity
  8
0
  6
Continuous
 62
     2
100
AcDbLine
 10
333.652897822009
 20
175.9117312508399
 30
0.0
 11
347.652897822009
 21
175.9117312508399
 31
0.0
  0
LINE
  5
27B
330
278
100
AcDbEntity
  8
0
  6
Continuous
 62
     2
100
AcDbLine
 10
333.652897822009
 20
222.792637134988
 30
0.0
 11
333.652897822009
 21
173.9117312508399
 31
0.0
  0
LINE
  5
27C
330
278
100
AcDbEntity
  8
0
  6
Continuous
 62
     2
100
AcDbLine
 10
347.652897822009
 20
236.292637134988
 30
0.0
 11
347.652897822009
 21
173.9117312508399
 31
0.0
  0
SOLID
  5
27D
330
278
100
AcDbEntity
  8
0
 62
     2
100
AcDbTrace
 10
353.652897822009
 20
176.7016462363643
 30
0.0
 11
353.652897822009
 21
175.1218162653155
 31
0.0
 12
347.652897822009
 22
175.9117312508399
 32
0.0
 13
347.652897822009
 23
175.9117312508399
 33
0.0
  0
MTEXT
  5
27E
330
278
100
AcDbEntity
  8
0
 62
     7
100
AcDbMText
 10
337.909956693848
 20
177.9117312508399
 30
0.0
 40
7.0
 41
0.0
 71
     7
 72
     1
  1
14
  7
CONVERTER_2
 11
0.9999999999970621
 21
2.424068405545307E-6
 31
0.0
 73
     1
 44
0.60024009603842
  0
ENDBLK
  5
280
330
278
100
AcDbEntity
  8
0
100
AcDbBlockEnd
  0
BLOCK
  5
282
330
281
100
AcDbEntity
  8
0
100
AcDbBlockBegin
  2
_None
 70
     0
 71
     0
 10
0.0
 20
0.0
 30
0.0
  3
_None
  1

  0
ENDBLK
  5
283
330
281
100
AcDbEntity
  8
0
100
AcDbBlockEnd
  0
BLOCK
  5
28D
330
286
100
AcDbEntity
  8
0
100
AcDbBlockBegin
  2
*D116
 70
     1
 71
     0
 10
0.0
 20
0.0
 30
0.0
  3
*D116
  1

  0
LINE
  5
287
330
286
100
AcDbEntity
  8
0
  6
Continuous
 62
     2
100
AcDbLine
 10
333.652897822009
 20
175.9117312508399
 30
0.0
 11
288.652897822009
 21
175.9117312508399
 31
0.0
  0
LINE
  5
288
330
286
100
AcDbEntity
  8
0
  6
Continuous
 62
     2
100
AcDbLine
 10
333.652897822009
 20
222.792637134988
 30
0.0
 11
333.652897822009
 21
173.9117312508399
 31
0.0
  0
LINE
  5
289
330
286
100
AcDbEntity
  8
0
  6
Continuous
 62
     2
100
AcDbLine
 10
288.652897822009
 20
228.4206759002735
 30
0.0
 11
288.652897822009
 21
173.9117312508399
 31
0.0
  0
SOLID
  5
28A
330
286
100
AcDbEntity
  8
0
 62
     2
100
AcDbTrace
 10
326.652897822009
 20
174.9901637677281
 30
0.0
 11
326.652897822009
 21
176.8332987339517
 31
0.0
 12
333.652897822009
 22
175.9117312508399
 32
0.0
 13
333.652897822009
 23
175.9117312508399
 33
0.0
  0
SOLID
  5
28B
330
286
100
AcDbEntity
  8
0
 62
     2
100
AcDbTrace
 10
295.652897822009
 20
176.8332987339517
 30
0.0
 11
295.652897822009
 21
174.9901637677281
 31
0.0
 12
288.652897822009
 22
175.9117312508399
 32
0.0
 13
288.652897822009
 23
175.9117312508399
 33
0.0
  0
MTEXT
  5
28C
330
286
100
AcDbEntity
  8
0
 62
     7
100
AcDbMText
 10
304.939951979462
 20
177.9117312508399
 30
0.0
 40
7.0
 41
0.0
 71
     7
 72
     1
  1
45
  7
CONVERTER_2
 11
0.9999999999970621
 21
2.424068405545307E-6
 31
0.0
 73
     1
 44
0.60024009603842
  0
ENDBLK
  5
28E
330
286
100
AcDbEntity
  8
0
100
AcDbBlockEnd
  0
BLOCK
  5
299
330
291
100
AcDbEntity
  8
0
100
AcDbBlockBegin
  2
*D217
 70
     1
 71
     0
 10
0.0
 20
0.0
 30
0.0
  3
*D217
  1

  0
LINE
  5
292
330
291
100
AcDbEntity
  8
1
  6
Continuous
 62
     2
100
AcDbLine
 10
239.1779294104799
 20
216.2049703512557
 30
0.0
 11
254.4957075934252
 21
200.8871921683072
 31
0.0
  0
LINE
  5
293
330
291
100
AcDbEntity
  8
1
  6
Continuous
 62
     2
100
AcDbLine
 10
208.0652310382814
 20
247.3176687234607
 30
0.0
 11
239.1779294104799
 21
216.2049703512557
 31
0.0
  0
LINE
  5
294
330
291
100
AcDbEntity
  8
1
  6
Continuous
 62
     2
100
AcDbLine
 10
199.4296119375449
 20
238.682049622726
 30
0.0
 11
209.4794446006546
 21
248.7318822858336
 31
0.0
  0
LINE
  5
295
330
291
100
AcDbEntity
  8
1
  6
Continuous
 62
     2
100
AcDbLine
 10
230.5423103097434
 20
207.569351250521
 30
0.0
 11
240.5921429728531
 21
217.6191839136286
 31
0.0
  0
SOLID
  5
296
330
291
100
AcDbEntity
  8
1
 62
     2
100
AcDbTrace
 10
213.6666251232161
 20
243.0195678717836
 30
0.0
 11
212.3633318899573
 21
241.7162746385251
 31
0.0
 12
208.0652310382814
 22
247.3176687234607
 32
0.0
 13
208.0652310382814
 23
247.3176687234607
 33
0.0
  0
SOLID
  5
297
330
291
100
AcDbEntity
  8
1
 62
     2
100
AcDbTrace
 10
233.5765353255451
 20
220.5030712029327
 30
0.0
 11
234.879828558804
 21
221.8063644361913
 31
0.0
 12
239.1779294104799
 22
216.2049703512557
 32
0.0
 13
239.1779294104799
 23
216.2049703512557
 33
0.0
  0
MTEXT
  5
298
330
291
100
AcDbEntity
  8
1
 62
     7
100
AcDbMText
 10
240.3677141053197
 20
217.8436127811621
 30
0.0
 40
7.0
 41
0.0
 71
     7
 72
     1
  1
\C7;{\Fgdt;n}\C7;44
  7
CONVERTER_2
 11
0.7071067811864736
 21
-0.7071067811866214
 31
0.0
 73
     1
 44
0.60024009603842
  0
ENDBLK
  5
29A
330
291
100
AcDbEntity
  8
0
100
AcDbBlockEnd
  0
BLOCK
  5
2A4
330
29D
100
AcDbEntity
  8
0
100
AcDbBlockBegin
  2
*D318
 70
     1
 71
     0
 10
0.0
 20
0.0
 30
0.0
  3
*D318
  1

  0
LINE
  5
29E
330
29D
100
AcDbEntity
  8
1
  6
Continuous
 62
     2
100
AcDbLine
 10
172.2942639769813
 20
295.592637134988
 30
0.0
 11
172.2942639769813
 21
245.792637134988
 31
0.0
  0
LINE
  5
29F
330
29D
100
AcDbEntity
  8
1
  6
Continuous
 62
     2
100
AcDbLine
 10
288.652897822009
 20
295.592637134988
 30
0.0
 11
170.2942639769813
 21
295.592637134988
 31
0.0
  0
LINE
  5
2A0
330
29D
100
AcDbEntity
  8
1
  6
Continuous
 62
     2
100
AcDbLine
 10
250.0793046932018
 20
245.792637134988
 30
0.0
 11
170.2942639769813
 21
245.792637134988
 31
0.0
  0
SOLID
  5
2A1
330
29D
100
AcDbEntity
  8
1
 62
     2
100
AcDbTrace
 10
173.2158314600931
 20
288.592637134988
 30
0.0
 11
171.3726964938695
 21
288.592637134988
 31
0.0
 12
172.2942639769813
 22
295.592637134988
 32
0.0
 13
172.2942639769813
 23
295.592637134988
 33
0.0
  0
SOLID
  5
2A2
330
29D
100
AcDbEntity
  8
1
 62
     2
100
AcDbTrace
 10
171.3726964938695
 20
252.792637134988
 30
0.0
 11
173.2158314600931
 21
252.792637134988
 31
0.0
 12
172.2942639769813
 22
245.792637134988
 32
0.0
 13
172.2942639769813
 23
245.792637134988
 33
0.0
  0
MTEXT
  5
2A3
330
29D
100
AcDbEntity
  8
1
 62
     7
100
AcDbMText
 10
170.2942639769813
 20
265.442637134988
 30
0.0
 40
7.0
 41
0.0
 71
     7
 72
     1
  1
50
  7
CONVERTER_2
 11
0.0
 21
1.0
 31
0.0
 73
     1
 44
0.60024009603842
  0
ENDBLK
  5
2A5
330
29D
100
AcDbEntity
  8
0
100
AcDbBlockEnd
  0
BLOCK
  5
2B0
330
2A8
100
AcDbEntity
  8
0
100
AcDbBlockBegin
  2
*D419
 70
     1
 71
     0
 10
0.0
 20
0.0
 30
0.0
  3
*D419
  1

  0
LINE
  5
2A9
330
2A8
100
AcDbEntity
  8
1
  6
Continuous
 62
     2
100
AcDbLine
 10
239.854370324577
 20
259.7926371349881
 30
0.0
 11
239.854370324577
 21
231.7926371349879
 31
0.0
  0
LINE
  5
2AA
330
2A8
100
AcDbEntity
  8
1
  6
Continuous
 62
     2
100
AcDbLine
 10
239.854370324577
 20
278.305662852102
 30
0.0
 11
239.854370324577
 21
259.7926371349881
 31
0.0
  0
LINE
  5
2AB
330
2A8
100
AcDbEntity
  8
1
  6
Continuous
 62
     2
100
AcDbLine
 10
255.4779806043736
 20
259.7926371349881
 30
0.0
 11
237.854370324577
 21
259.7926371349881
 31
0.0
  0
LINE
  5
2AC
330
2A8
100
AcDbEntity
  8
1
  6
Continuous
 62
     2
100
AcDbLine
 10
255.4779806043736
 20
231.7926371349879
 30
0.0
 11
237.854370324577
 21
231.7926371349879
 31
0.0
  0
SOLID
  5
2AD
330
2A8
100
AcDbEntity
  8
1
 62
     2
100
AcDbTrace
 10
240.7759378076888
 20
252.7926371349881
 30
0.0
 11
238.9328028414652
 21
252.7926371349881
 31
0.0
 12
239.854370324577
 22
259.7926371349881
 32
0.0
 13
239.854370324577
 23
259.7926371349881
 33
0.0
  0
SOLID
  5
2AE
330
2A8
100
AcDbEntity
  8
1
 62
     2
100
AcDbTrace
 10
238.9328028414652
 20
238.7926371349879
 30
0.0
 11
240.7759378076888
 21
238.7926371349879
 31
0.0
 12
239.854370324577
 22
231.7926371349879
 32
0.0
 13
239.854370324577
 23
231.7926371349879
 33
0.0
  0
MTEXT
  5
2AF
330
2A8
100
AcDbEntity
  8
1
 62
     7
100
AcDbMText
 10
237.854370324577
 20
267.805662852102
 30
0.0
 40
7.0
 41
0.0
 71
     7
 72
     1
  1
28
  7
CONVERTER_2
 11
0.0
 21
1.0
 31
0.0
 73
     1
 44
0.60024009603842
  0
ENDBLK
  5
2B1
330
2A8
100
AcDbEntity
  8
0
100
AcDbBlockEnd
  0
BLOCK
  5
2BB
330
2B4
100
AcDbEntity
  8
0
100
AcDbBlockBegin
  2
*D520
 70
     1
 71
     0
 10
0.0
 20
0.0
 30
0.0
  3
*D520
  1

  0
LINE
  5
2B5
330
2B4
100
AcDbEntity
  8
1
  6
Continuous
 62
     2
100
AcDbLine
 10
199.4296119375407
 20
175.9117312508399
 30
0.0
 11
288.652897822009
 21
175.9117312508399
 31
0.0
  0
LINE
  5
2B6
330
2B4
100
AcDbEntity
  8
1
  6
Continuous
 62
     2
100
AcDbLine
 10
199.4296119375407
 20
207.5693512505208
 30
0.0
 11
199.4296119375407
 21
173.9117312508399
 31
0.0
  0
LINE
  5
2B7
330
2B4
100
AcDbEntity
  8
1
  6
Continuous
 62
     2
100
AcDbLine
 10
288.652897822009
 20
228.4206759002735
 30
0.0
 11
288.652897822009
 21
173.9117312508399
 31
0.0
  0
SOLID
  5
2B8
330
2B4
100
AcDbEntity
  8
1
 62
     2
100
AcDbTrace
 10
206.4296119375407
 20
176.8332987339517
 30
0.0
 11
206.4296119375407
 21
174.9901637677281
 31
0.0
 12
199.4296119375407
 22
175.9117312508399
 32
0.0
 13
199.4296119375407
 23
175.9117312508399
 33
0.0
  0
SOLID
  5
2B9
330
2B4
100
AcDbEntity
  8
1
 62
     2
100
AcDbTrace
 10
281.652897822009
 20
174.9901637677281
 30
0.0
 11
281.652897822009
 21
176.8332987339517
 31
0.0
 12
288.652897822009
 22
175.9117312508399
 32
0.0
 13
288.652897822009
 23
175.9117312508399
 33
0.0
  0
MTEXT
  5
2BA
330
2B4
100
AcDbEntity
  8
1
 62
     7
100
AcDbMText
 10
232.73589111672
 20
177.9117312508399
 30
0.0
 40
7.0
 41
0.0
 71
     7
 72
     1
  1
90
  7
CONVERTER_2
 11
0.9999999999970621
 21
2.424068405545307E-6
 31
0.0
 73
     1
 44
0.60024009603842
  0
ENDBLK
  5
2BC
330
2B4
100
AcDbEntity
  8
0
100
AcDbBlockEnd
  0
BLOCK
  5
2C8
330
2BF
100
AcDbEntity
  8
0
100
AcDbBlockBegin
  2
*D621
 70
     1
 71
     0
 10
0.0
 20
0.0
 30
0.0
  3
*D621
  1

  0
LINE
  5
2C0
330
2BF
100
AcDbEntity
  8
1
  6
Continuous
 62
     2
100
AcDbLine
 10
162.2819936651374
 20
201.3222993159686
 30
0.0
 11
172.1814886017491
 21
191.422804379357
 31
0.0
  0
LINE
  5
2C1
330
2BF
100
AcDbEntity
  8
1
  6
Continuous
 62
     2
100
AcDbLine
 10
172.1814886017491
 20
191.422804379357
 30
0.0
 11
183.2830650663785
 21
180.3212279147278
 31
0.0
  0
LINE
  5
2C2
330
2BF
100
AcDbEntity
  8
1
  6
Continuous
 62
     2
100
AcDbLine
 10
183.2830650663785
 20
180.3212279147278
 30
0.0
 11
222.9285021039302
 21
140.6757908771768
 31
0.0
  0
LINE
  5
2C3
330
2BF
100
AcDbEntity
  8
1
  6
Continuous
 62
     2
100
AcDbLine
 10
205.1925322042116
 20
202.2306950525613
 30
0.0
 11
181.8688515040054
 21
178.9070143523547
 31
0.0
  0
LINE
  5
2C4
330
2BF
100
AcDbEntity
  8
1
  6
Continuous
 62
     2
100
AcDbLine
 10
194.0909557395822
 20
213.3322715171905
 30
0.0
 11
170.767275039376
 21
190.0085908169839
 31
0.0
  0
SOLID
  5
2C5
330
2BF
100
AcDbEntity
  8
1
 62
     2
100
AcDbTrace
 10
166.5800945168139
 20
195.7209052310335
 30
0.0
 11
167.8833877500726
 21
197.0241984642922
 31
0.0
 12
172.1814886017491
 22
191.422804379357
 32
0.0
 13
172.1814886017491
 23
191.422804379357
 33
0.0
  0
SOLID
  5
2C6
330
2BF
100
AcDbEntity
  8
1
 62
     2
100
AcDbTrace
 10
188.8844591513137
 20
176.0231270630514
 30
0.0
 11
187.581165918055
 21
174.7198338297927
 31
0.0
 12
183.2830650663785
 22
180.3212279147278
 32
0.0
 13
183.2830650663785
 23
180.3212279147278
 33
0.0
  0
MTEXT
  5
2C7
330
2BF
100
AcDbEntity
  8
1
 62
     7
100
AcDbMText
 10
204.5932232677628
 20
162.8294463317513
 30
0.0
 40
7.0
 41
0.0
 71
     7
 72
     1
  1
\C7;{\Fgdt;n}\C7;15,7
  7
CONVERTER_2
 11
0.7071067811865535
 21
-0.7071067811865416
 31
0.0
 73
     1
 44
0.60024009603842
  0
ENDBLK
  5
2C9
330
2BF
100
AcDbEntity
  8
0
100
AcDbBlockEnd
  0
BLOCK
  5
2D3
330
2CC
100
AcDbEntity
  8
0
100
AcDbBlockBegin
  2
*D722
 70
     1
 71
     0
 10
0.0
 20
0.0
 30
0.0
  3
*D722
  1

  0
LINE
  5
2CD
330
2CC
100
AcDbEntity
  8
1
  6
Continuous
 62
     2
100
AcDbLine
 10
172.2942639769813
 20
207.5693512505208
 30
0.0
 11
172.2942639769813
 21
245.792637134988
 31
0.0
  0
LINE
  5
2CE
330
2CC
100
AcDbEntity
  8
1
  6
Continuous
 62
     2
100
AcDbLine
 10
199.4296119375407
 20
207.5693512505208
 30
0.0
 11
170.2942639769813
 21
207.5693512505208
 31
0.0
  0
LINE
  5
2CF
330
2CC
100
AcDbEntity
  8
1
  6
Continuous
 62
     2
100
AcDbLine
 10
250.0793046932018
 20
245.792637134988
 30
0.0
 11
170.2942639769813
 21
245.792637134988
 31
0.0
  0
SOLID
  5
2D0
330
2CC
100
AcDbEntity
  8
1
 62
     2
100
AcDbTrace
 10
171.3726964938695
 20
214.5693512505208
 30
0.0
 11
173.2158314600931
 21
214.5693512505208
 31
0.0
 12
172.2942639769813
 22
207.5693512505208
 32
0.0
 13
172.2942639769813
 23
207.5693512505208
 33
0.0
  0
SOLID
  5
2D1
330
2CC
100
AcDbEntity
  8
1
 62
     2
100
AcDbTrace
 10
173.2158314600931
 20
238.792637134988
 30
0.0
 11
171.3726964938695
 21
238.792637134988
 31
0.0
 12
172.2942639769813
 22
245.792637134988
 32
0.0
 13
172.2942639769813
 23
245.792637134988
 33
0.0
  0
MTEXT
  5
2D2
330
2CC
100
AcDbEntity
  8
1
 62
     7
100
AcDbMText
 10
170.2942639769813
 20
221.42773643758
 30
0.0
 40
7.0
 41
0.0
 71
     7
 72
     1
  1
39
  7
CONVERTER_2
 11
0.0
 21
1.0
 31
0.0
 73
     1
 44
0.60024009603842
  0
ENDBLK
  5
2D4
330
2CC
100
AcDbEntity
  8
0
100
AcDbBlockEnd
  0
BLOCK
  5
2DE
330
2D7
100
AcDbEntity
  8
0
100
AcDbBlockBegin
  2
*D823
 70
     1
 71
     0
 10
0.0
 20
0.0
 30
0.0
  3
*D823
  1

  0
LINE
  5
2D8
330
2D7
100
AcDbEntity
  8
0
  6
Continuous
 62
     2
100
AcDbLine
 10
367.652897822009
 20
268.792637134988
 30
0.0
 11
367.652897822009
 21
222.792637134988
 31
0.0
  0
LINE
  5
2D9
330
2D7
100
AcDbEntity
  8
0
  6
Continuous
 62
     2
100
AcDbLine
 10
333.652897822009
 20
268.792637134988
 30
0.0
 11
369.652897822009
 21
268.792637134988
 31
0.0
  0
LINE
  5
2DA
330
2D7
100
AcDbEntity
  8
0
  6
Continuous
 62
     2
100
AcDbLine
 10
333.652897822009
 20
222.792637134988
 30
0.0
 11
369.652897822009
 21
222.792637134988
 31
0.0
  0
SOLID
  5
2DB
330
2D7
100
AcDbEntity
  8
0
 62
     2
100
AcDbTrace
 10
368.5744653051207
 20
261.792637134988
 30
0.0
 11
366.7313303388972
 21
261.792637134988
 31
0.0
 12
367.652897822009
 22
268.792637134988
 32
0.0
 13
367.652897822009
 23
268.792637134988
 33
0.0
  0
SOLID
  5
2DC
330
2D7
100
AcDbEntity
  8
0
 62
     2
100
AcDbTrace
 10
366.7313303388972
 20
229.792637134988
 30
0.0
 11
368.5744653051207
 21
229.792637134988
 31
0.0
 12
367.652897822009
 22
222.792637134988
 32
0.0
 13
367.652897822009
 23
222.792637134988
 33
0.0
  0
MTEXT
  5
2DD
330
2D7
100
AcDbEntity
  8
0
 62
     7
100
AcDbMText
 10
365.652897822009
 20
233.262637134988
 30
0.0
 40
7.0
 41
0.0
 71
     7
 72
     1
  1
\C7;{\Fgdt;n}\C7;46
  7
CONVERTER_2
 11
0.0
 21
1.0
 31
0.0
 73
     1
 44
0.60024009603842
  0
ENDBLK
  5
2DF
330
2D7
100
AcDbEntity
  8
0
100
AcDbBlockEnd
  0
BLOCK
  5
2EB
330
2E2
100
AcDbEntity
  8
0
100
AcDbBlockBegin
  2
*D924
 70
     1
 71
     0
 10
0.0
 20
0.0
 30
0.0
  3
*D924
  1

  0
LINE
  5
2E3
330
2E2
100
AcDbEntity
  8
1
  6
Continuous
 62
     2
100
AcDbLine
 10
192.2942639769811
 20
198.5943002515888
 30
0.0
 11
192.2942639769811
 21
153.6748191780652
 31
0.0
  0
LINE
  5
2E4
330
2E2
100
AcDbEntity
  8
1
  6
Continuous
 62
     2
100
AcDbLine
 10
188.0811902982554
 20
196.2209296112357
 30
0.0
 11
159.2305278087086
 21
167.3702671216898
 31
0.0
  0
LINE
  5
2E5
330
2E2
100
AcDbEntity
  8
1
  6
Continuous
 62
     2
100
AcDbLine
 10
192.2942639769811
 20
153.6748191780652
 30
0.0
 11
192.2942639769811
 21
151.6748191780652
 31
0.0
  0
LINE
  5
2E6
330
2E2
100
AcDbEntity
  8
1
  6
Continuous
 62
     2
100
AcDbLine
 10
159.2305278087086
 20
167.3702671216898
 30
0.0
 11
157.8163142463355
 21
165.9560535593167
 31
0.0
  0
ARC
  5
2E7
330
2E2
100
AcDbEntity
  8
1
  6
Continuous
 62
     2
100
AcDbCircle
 10
192.2942639769811
 20
200.4340032899612
 30
0.0
 40
46.75918411189599
100
AcDbArc
 50
-135.000000000001
 51
-90.0
  0
SOLID
  5
2E8
330
2E2
100
AcDbEntity
  8
1
 62
     2
100
AcDbTrace
 10
165.1376569906903
 20
163.5030832039909
 30
0.0
 11
163.9354755959959
 21
162.105976766397
 31
0.0
 12
159.2305278087086
 22
167.3702671216898
 32
0.0
 13
159.2305278087086
 23
167.3702671216898
 33
0.0
  0
SOLID
  5
2E9
330
2E2
100
AcDbEntity
  8
1
 62
     2
100
AcDbTrace
 10
185.2449480830991
 20
153.2793042552223
 30
0.0
 11
185.3827809027564
 21
155.1172783076891
 31
0.0
 12
192.2942639769811
 22
153.6748191780652
 32
0.0
 13
192.2942639769811
 23
153.6748191780652
 33
0.0
  0
MTEXT
  5
2EA
330
2E2
100
AcDbEntity
  8
1
 62
     7
100
AcDbMText
 10
168.4503194635007
 20
161.7798848496103
 30
0.0
 40
7.0
 41
0.0
 71
     7
 72
     1
  1
45{\Fgdt;~}
  7
CONVERTER_2
 11
0.9238795325112835
 21
-0.3826834323650977
 31
0.0
 73
     1
 44
0.60024009603842
  0
ENDBLK
  5
2EC
330
2E2
100
AcDbEntity
  8
0
100
AcDbBlockEnd
  0
ENDSEC
  0
SECTION
  2
ENTITIES
  0
INSERT
  5
68
330
1F
100
AcDbEntity
  8
1
100
AcDbBlockReference
  2
Y1235TV-1-13
 10
147.152897822009
 20
168.292637134988
 30
0.0
  0
INSERT
  5
69
330
1F
100
AcDbEntity
  8
1
100
AcDbBlockReference
  2
_J__A4
 10
0.0
 20
0.0
 30
0.0
 41
2.0
 42
2.0
 43
2.0
  0
LINE
  5
25B
330
1F
100
AcDbEntity
  8
1
  6
DASH_CENTER
 62
     2
100
AcDbLine
 10
228.8661012576054
 20
237.0058405705844
 30
0.0
 11
188.0811902982553
 21
196.2209296112357
 31
0.0
  0
LINE
  5
25C
330
1F
100
AcDbEntity
  8
0
  6
DASH_CENTER
 62
     2
100
AcDbLine
 10
125.5
 20
427.4873386810706
 30
0.0
 11
88.5
 21
427.4873386810706
 31
0.0
  0
LINE
  5
25D
330
1F
100
AcDbEntity
  8
1
  6
DASH_CENTER
 62
     2
100
AcDbLine
 10
288.652897822009
 20
228.4206759002735
 30
0.0
 11
288.652897822009
 21
298.592637134988
 31
0.0
  0
LINE
  5
25E
330
1F
100
AcDbEntity
  8
1
  6
DASH_CENTER
 62
     2
100
AcDbLine
 10
250.0793046932018
 20
245.792637134988
 30
0.0
 11
350.652897822009
 21
245.7926371349881
 31
0.0
  0
LINE
  5
25F
330
1F
100
AcDbEntity
  8
0
  6
DASH_CENTER
 62
     2
100
AcDbLine
 10
117.8500000000001
 20
207.5714832848761
 30
0.0
 11
96.15000000000009
 21
207.5714832848761
 31
0.0
  0
LINE
  5
260
330
1F
100
AcDbEntity
  8
0
  6
DASH_CENTER
 62
     2
100
AcDbLine
 10
107.0
 20
192.9117312565241
 30
0.0
 11
107.0
 21
259.7926371349881
 31
0.0
  0
LINE
  5
261
330
1F
100
AcDbEntity
  8
1
  6
DASH_CENTER
 62
     2
100
AcDbLine
 10
133.0
 20
245.792637134988
 30
0.0
 11
81.0
 21
245.792637134988
 31
0.0
  0
LINE
  5
262
330
1F
100
AcDbEntity
  8
0
  6
DASH_CENTER
 62
     2
100
AcDbLine
 10
107.0
 20
259.7926371349881
 30
0.0
 11
107.0
 21
298.5926371349879
 31
0.0
  0
LINE
  5
263
330
1F
100
AcDbEntity
  8
0
  6
DASH_CENTER
 62
     2
100
AcDbLine
 10
107.0
 20
489.4873386810707
 30
0.0
 11
107.0
 21
328.2926371349877
 31
0.0
  0
LINE
  5
264
330
1F
100
AcDbEntity
  8
1
  6
Continuous
 62
     2
100
AcDbLine
 10
150.654735969913
 20
415.1620755199967
 30
0.0
 11
171.138949335667
 21
415.1620755199967
 31
0.0
  0
LINE
  5
265
330
1F
100
AcDbEntity
  8
1
  6
Continuous
 62
     2
100
AcDbLine
 10
128.988741063827
 20
385.7012115930224
 30
0.0
 11
149.079027249471
 21
385.7012115930224
 31
0.0
  0
LINE
  5
266
330
1F
100
AcDbEntity
  8
1
  6
DASH_CENTER
 62
     2
100
AcDbLine
 10
247.6528978220091
 20
284.5926371349879
 30
0.0
 11
314.652897822009
 21
284.5926371349879
 31
0.0
  0
ARC
  5
267
330
1F
100
AcDbEntity
  8
1
  6
DASH_CENTER
 62
     2
100
AcDbCircle
 10
250.0793046932018
 20
215.792637134988
 30
0.0
 40
30.0
100
AcDbArc
 50
90.0
 51
135.0
  0
ARC
  5
268
330
1F
100
AcDbEntity
  8
1
  6
Continuous
 62
     2
100
AcDbCircle
 10
116.0
 20
430.4873386810706
 30
0.0
 40
29.99999999999992
100
AcDbArc
 50
-65.00000000000033
 51
-25.00000000000002
  0
SOLID
  5
269
330
1F
100
AcDbEntity
  8
1
 62
     2
100
AcDbTrace
 10
141.9113660886195
 20
412.8877806458771
 30
0.0
 11
140.2409185161716
 21
413.666723141456
 31
0.0
 12
144.0344701345808
 22
419.6214064029229
 32
0.0
 13
144.0344701345808
 23
419.6214064029229
 33
0.0
  0
LEADER
  5
26A
330
1F
100
AcDbEntity
  8
1
  6
Continuous
 62
     2
100
AcDbLeader
  3
Standard
 71
     0
 76
     2
 10
144.0344701345808
 20
419.6214064029229
 30
0.0
 10
143.1892336110993
 20
417.8087908288497
 30
0.0
  0
SOLID
  5
26B
330
1F
100
AcDbEntity
  8
1
 62
     2
100
AcDbTrace
 10
132.8206155396147
 20
406.2464201648986
 30
0.0
 11
133.5995580351936
 21
404.5759725924506
 31
0.0
 12
126.8659322781476
 22
402.4528685464897
 32
0.0
 13
126.8659322781476
 23
402.4528685464897
 33
0.0
  0
LEADER
  5
26C
330
1F
100
AcDbEntity
  8
1
  6
Continuous
 62
     2
100
AcDbLeader
  3
Standard
 71
     0
 76
     2
 10
126.8659322781476
 20
402.4528685464897
 30
0.0
 10
128.6785478522208
 20
403.2981050699711
 30
0.0
  0
SOLID
  5
26D
330
1F
100
AcDbEntity
  8
1
 62
     2
100
AcDbTrace
 10
120.2018991483236
 20
485.5103002491176
 30
0.0
 11
121.7981008516765
 21
484.5887327660058
 31
0.0
 12
117.5
 22
478.9873386810707
 32
0.0
 13
117.5
 23
478.9873386810707
 33
0.0
  0
LEADER
  5
26E
330
1F
100
AcDbEntity
  8
1
  6
Continuous
 62
     2
100
AcDbLeader
  3
Standard
 71
     0
 76
     3
 10
117.5
 20
478.9873386810707
 30
0.0
 10
128.7170007435028
 20
498.4157538773555
 30
0.0
 10
161.665130522956
 20
498.4157538773555
 30
0.0
  0
MTEXT
  5
270
330
1F
100
AcDbEntity
  8
1
 62
     7
100
AcDbMText
 10
68.0
 20
68.00000000000001
 30
0.0
 40
7.0
 41
0.0
 71
     4
 72
     1
  1
JIS
  7
CONVERTER_2
 73
     1
 44
0.7202881152461
  0
MTEXT
  5
271
330
1F
100
AcDbEntity
  8
0
 62
     7
100
AcDbMText
 10
187.5
 20
34.0
 30
0.0
 40
7.0
 41
0.0
 71
     5
 72
     1
  1
2
  7
CONVERTER_2
 73
     1
 44
0.7202881152461
  0
MTEXT
  5
272
330
1F
100
AcDbEntity
  8
0
 62
     7
100
AcDbMText
 10
170.5
 20
34.0
 30
0.0
 40
7.0
 41
0.0
 71
     5
 72
     1
  1
1
  7
CONVERTER_2
 73
     1
 44
0.7202881152461
  0
MTEXT
  5
273
330
1F
100
AcDbEntity
  8
1
 62
     7
100
AcDbMText
 10
145.1910656332294
 20
504.4157538773555
 30
0.0
 40
7.0
 41
0.0
 71
     5
 72
     1
  1
PJ1/2
  7
CONVERTER_2
 73
     1
 44
1.32052821128451
  0
MTEXT
  5
274
330
1F
100
AcDbEntity
  8
1
 62
     7
100
AcDbMText
 10
139.1796803670025
 20
392.7012115930224
 30
0.0
 40
10.0
 41
0.0
 71
     5
 72
     1
  1
止水
  7
CONVERTER_1
 73
     1
 44
0.7202881152461
  0
MTEXT
  5
275
330
1F
100
AcDbEntity
  8
1
 62
     7
100
AcDbMText
 10
114.0
 20
28.5
 30
0.0
 40
7.0
 41
0.0
 71
     5
 72
     1
  1
Y1235TV-1-13
  7
CONVERTER_2
 73
     1
 44
0.7202881152461
  0
MTEXT
  5
276
330
1F
100
AcDbEntity
  8
1
 62
     7
100
AcDbMText
 10
114.0
 20
45.50000000000002
 30
0.0
 40
7.0
 41
0.0
 71
     5
 72
     1
  1
ミニセラ洗濯機用ホーム水栓
  7
CONVERTER_1
 73
     1
 44
0.7202881152461
  0
MTEXT
  5
277
330
1F
100
AcDbEntity
  8
1
 62
     7
100
AcDbMText
 10
160.5477424888056
 20
422.1620755199967
 30
0.0
 40
10.0
 41
0.0
 71
     5
 72
     1
  1
吐水
  7
CONVERTER_1
 73
     1
 44
0.7202881152461
  0
DIMENSION
  5
285
330
1F
100
AcDbEntity
  8
0
100
AcDbDimension
  2
*D014
 10
333.652897822009
 20
175.9117312508399
 30
0.0
 11
342.109956693848
 21
181.4117312508399
 31
0.0
  1
<>
 71
     5
 42
0.0
 53
0.00013888888889
  3
ME10_DIM_0
100
AcDbAlignedDimension
 13
347.652897822009
 23
236.292637134988
 33
0.0
 14
333.652897822009
 24
222.792637134988
 34
0.0
100
AcDbRotatedDimension
  0
DIMENSION
  5
290
330
1F
100
AcDbEntity
  8
0
100
AcDbDimension
  2
*D116
 10
333.652897822009
 20
175.9117312508399
 30
0.0
 11
310.189951979462
 21
181.4117312508399
 31
0.0
  1
<>
 71
     5
 42
0.0
 53
0.00013888888889
  3
ME10_DIM_1
100
AcDbAlignedDimension
 13
288.652897822009
 23
228.4206759002735
 33
0.0
 14
333.652897822009
 24
222.792637134988
 34
0.0
100
AcDbRotatedDimension
  0
DIMENSION
  5
29C
330
1F
100
AcDbEntity
  8
1
100
AcDbDimension
  2
*D217
 10
208.0652310382814
 20
247.3176687234607
 30
0.0
 11
251.7026358077394
 21
211.4584385470464
 31
0.0
 70
     1
  1
<>
 71
     5
 42
0.0
 53
-45.00000000000598
  3
ME10_DIM_2
100
AcDbAlignedDimension
 13
230.5423103097434
 23
207.569351250521
 33
0.0
 14
199.4296119375449
 24
238.682049622726
 34
0.0
  0
DIMENSION
  5
2A7
330
1F
100
AcDbEntity
  8
1
100
AcDbDimension
  2
*D318
 10
172.2942639769813
 20
295.592637134988
 30
0.0
 11
166.7942639769813
 21
270.692637134988
 31
0.0
  1
50
 71
     5
 42
0.0
 53
90.0
  3
ME10_DIM_3
100
AcDbAlignedDimension
 13
250.0793046932018
 23
245.792637134988
 33
0.0
 14
288.652897822009
 24
295.592637134988
 34
0.0
 50
90.0
100
AcDbRotatedDimension
  0
DIMENSION
  5
2B3
330
1F
100
AcDbEntity
  8
1
100
AcDbDimension
  2
*D419
 10
239.854370324577
 20
259.7926371349881
 30
0.0
 11
234.354370324577
 21
273.055662852102
 31
0.0
 70
     1
  1
<>
 71
     5
 42
0.0
 53
90.0
  3
ME10_DIM_4
100
AcDbAlignedDimension
 13
255.4779806043736
 23
231.7926371349879
 33
0.0
 14
255.4779806043736
 24
259.7926371349881
 34
0.0
  0
DIMENSION
  5
2BE
330
1F
100
AcDbEntity
  8
1
100
AcDbDimension
  2
*D520
 10
199.4296119375407
 20
175.9117312508399
 30
0.0
 11
237.98589111672
 21
181.4117312508399
 31
0.0
  1
90
 71
     5
 42
0.0
 53
0.00013888888889
  3
ME10_DIM_5
100
AcDbAlignedDimension
 13
288.652897822009
 23
228.4206759002735
 33
0.0
 14
199.4296119375407
 24
207.5693512505208
 34
0.0
100
AcDbRotatedDimension
  0
DIMENSION
  5
2CB
330
1F
100
AcDbEntity
  8
1
100
AcDbDimension
  2
*D621
 10
172.1814886017491
 20
191.422804379357
 30
0.0
 11
218.0317876442132
 21
153.8456546767763
 31
0.0
 70
     1
  1
<>
 71
     5
 42
0.0
 53
-44.99999999999948
  3
ME10_DIM_6
100
AcDbAlignedDimension
 13
205.1925322042116
 23
202.2306950525613
 33
0.0
 14
194.0909557395822
 24
213.3322715171905
 34
0.0
  0
DIMENSION
  5
2D6
330
1F
100
AcDbEntity
  8
1
100
AcDbDimension
  2
*D722
 10
172.2942639769813
 20
207.5693512505208
 30
0.0
 11
166.7942639769813
 21
226.67773643758
 31
0.0
  1
39
 71
     5
 42
0.0
 53
90.0
  3
ME10_DIM_7
100
AcDbAlignedDimension
 13
250.0793046932018
 23
245.792637134988
 33
0.0
 14
199.4296119375407
 24
207.5693512505208
 34
0.0
 50
90.0
100
AcDbRotatedDimension
  0
DIMENSION
  5
2E1
330
1F
100
AcDbEntity
  8
0
100
AcDbDimension
  2
*D823
 10
367.652897822009
 20
268.792637134988
 30
0.0
 11
362.152897822009
 21
245.792637134988
 31
0.0
  1
<>
 71
     5
 42
0.0
 53
90.0
  3
ME10_DIM_8
100
AcDbAlignedDimension
 13
333.652897822009
 23
222.792637134988
 33
0.0
 14
333.652897822009
 24
268.792637134988
 34
0.0
 50
90.0
100
AcDbRotatedDimension
  0
DIMENSION
  5
2EE
330
1F
100
AcDbEntity
  8
1
100
AcDbDimension
  2
*D924
 10
174.4002989064481
 20
157.2341501320541
 30
0.0
 11
176.9001641191883
 21
162.1542179829922
 31
0.0
 70
     5
  1
<>
 71
     5
 42
0.0
  3
ME10_DIM_9
100
AcDb3PointAngularDimension
 13
188.0811902982553
 23
196.2209296112357
 33
0.0
 14
192.294263976981
 24
198.5943002515888
 34
0.0
 15
192.2942639769811
 25
200.4340032899612
 35
0.0
  0
ENDSEC
  0
SECTION
  2
OBJECTS
  0
DICTIONARY
  5
C
330
0
100
AcDbDictionary
281
     1
  3
ACAD_GROUP
350
D
  3
ACAD_LAYOUT
350
1A
  3
ACAD_MLINESTYLE
350
17
  3
ACAD_PLOTSETTINGS
350
19
  3
ACAD_PLOTSTYLENAME
350
E
  3
ACAD_TABLESTYLE
350
2A
  3
AcDbVariableDictionary
350
2C
  0
DICTIONARY
  5
D
102
{ACAD_REACTORS
330
C
102
}
330
C
100
AcDbDictionary
281
     1
  0
DICTIONARY
  5
1A
102
{ACAD_REACTORS
330
C
102
}
330
C
100
AcDbDictionary
281
     1
  3
Layout1
350
1E
  3
Layout2
350
26
  3
Model
350
22
  0
DICTIONARY
  5
17
102
{ACAD_REACTORS
330
C
102
}
330
C
100
AcDbDictionary
281
     1
  3
Standard
350
18
  0
DICTIONARY
  5
19
102
{ACAD_REACTORS
330
C
102
}
330
C
100
AcDbDictionary
281
     1
  0
ACDBDICTIONARYWDFLT
  5
E
102
{ACAD_REACTORS
330
C
102
}
330
C
100
AcDbDictionary
281
     1
  3
Normal
350
F
100
AcDbDictionaryWithDefault
340
F
  0
DICTIONARY
  5
2A
102
{ACAD_REACTORS
330
C
102
}
330
C
100
AcDbDictionary
281
     1
  3
Standard
350
2B
  0
DICTIONARY
  5
2C
102
{ACAD_REACTORS
330
C
102
}
330
C
100
AcDbDictionary
281
     1
  3
CTABLESTYLE
350
2D
  0
LAYOUT
  5
1E
102
{ACAD_REACTORS
330
1A
102
}
330
1A
100
AcDbPlotSettings
  1

  2

  4

  6

 40
0.0
 41
0.0
 42
0.0
 43
0.0
 44
0.0
 45
0.0
 46
0.0
 47
0.0
 48
0.0
 49
0.0
140
0.0
141
0.0
142
1.0
143
1.0
 70
   688
 72
     0
 73
     0
 74
     5
  7

 75
    16
147
1.0
148
0.0
149
0.0
100
AcDbLayout
  1
Layout1
 70
     1
 71
     1
 10
0.0
 20
0.0
 11
12.0
 21
9.0
 12
0.0
 22
0.0
 32
0.0
 14
1.00000000000000E+20
 24
1.00000000000000E+20
 34
1.00000000000000E+20
 15
-1.00000000000000E+20
 25
-1.00000000000000E+20
 35
-1.00000000000000E+20
146
0.0
 13
0.0
 23
0.0
 33
0.0
 16
1.0
 26
0.0
 36
0.0
 17
0.0
 27
1.0
 37
0.0
 76
     0
330
1B
  0
LAYOUT
  5
26
102
{ACAD_REACTORS
330
1A
102
}
330
1A
100
AcDbPlotSettings
  1

  2

  4

  6

 40
0.0
 41
0.0
 42
0.0
 43
0.0
 44
0.0
 45
0.0
 46
0.0
 47
0.0
 48
0.0
 49
0.0
140
0.0
141
0.0
142
1.0
143
1.0
 70
   688
 72
     0
 73
     0
 74
     5
  7

 75
    16
147
1.0
148
0.0
149
0.0
100
AcDbLayout
  1
Layout2
 70
     1
 71
     2
 10
0.0
 20
0.0
 11
0.0
 21
0.0
 12
0.0
 22
0.0
 32
0.0
 14
0.0
 24
0.0
 34
0.0
 15
0.0
 25
0.0
 35
0.0
146
0.0
 13
0.0
 23
0.0
 33
0.0
 16
1.0
 26
0.0
 36
0.0
 17
0.0
 27
1.0
 37
0.0
 76
     0
330
23
  0
LAYOUT
  5
22
102
{ACAD_REACTORS
330
1A
102
}
330
1A
100
AcDbPlotSettings
  1

  2

  4

  6

 40
0.0
 41
0.0
 42
0.0
 43
0.0
 44
0.0
 45
0.0
 46
0.0
 47
0.0
 48
0.0
 49
0.0
140
0.0
141
0.0
142
1.0
143
1.0
 70
  1712
 72
     0
 73
     0
 74
     0
  7

 75
     0
147
1.0
148
0.0
149
0.0
100
AcDbLayout
  1
Model
 70
     1
 71
     0
 10
0.0
 20
0.0
 11
0.0
 21
0.0
 12
0.0
 22
0.0
 32
0.0
 14
0.0
 24
0.0
 34
0.0
 15
420.0
 25
594.0
 35
0.0
146
0.0
 13
0.0
 23
0.0
 33
0.0
 16
1.0
 26
0.0
 36
0.0
 17
0.0
 27
1.0
 37
0.0
 76
     0
330
1F
  0
MLINESTYLE
  5
18
102
{ACAD_REACTORS
330
17
102
}
330
17
100
AcDbMlineStyle
  2
Standard
 70
     0
  3

 62
   256
 51
90.0
 52
90.0
 71
     2
 49
0.5
 62
   256
  6
BYLAYER
 49
-0.5
 62
   256
  6
BYLAYER
  0
ACDBPLACEHOLDER
  5
F
102
{ACAD_REACTORS
330
E
102
}
330
E
  0
TABLESTYLE
  5
2B
102
{ACAD_REACTORS
330
2A
102
}
330
2A
100
AcDbTableStyle
  3
Standard
 70
     0
 71
     0
 40
0.06
 41
0.06
280
     0
281
     0
  7
Standard
140
0.18
170
     2
 62
     0
 63
     7
283
     0
274
    -2
284
     1
 64
     0
275
    -2
285
     1
 65
     0
276
    -2
286
     1
 66
     0
277
    -2
287
     1
 67
     0
278
    -2
288
     1
 68
     0
279
    -2
289
     1
 69
     0
  7
Standard
140
0.25
170
     5
 62
     0
 63
     7
283
     0
274
    -2
284
     1
 64
     0
275
    -2
285
     1
 65
     0
276
    -2
286
     1
 66
     0
277
    -2
287
     1
 67
     0
278
    -2
288
     1
 68
     0
279
    -2
289
     1
 69
     0
  7
Standard
140
0.18
170
     5
 62
     0
 63
     7
283
     0
274
    -2
284
     1
 64
     0
275
    -2
285
     1
 65
     0
276
    -2
286
     1
 66
     0
277
    -2
287
     1
 67
     0
278
    -2
288
     1
 68
     0
279
    -2
289
     1
 69
     0
  0
DICTIONARYVAR
  5
2D
102
{ACAD_REACTORS
330
2C
102
}
330
2C
100
DictionaryVariables
280
     0
  1
Standard
  0
ENDSEC
  0
EOF
