  0
SECTION
  2
HEADER
  9
$ACADVER
  1
AC1015
  9
$ACADMAINTVER
 70
     6
  9
$DWGCODEPAGE
  3
DOS932
  9
$INSBASE
 10
0.0
 20
0.0
 30
0.0
  9
$EXTMIN
 10
0.0
 20
0.0
 30
0.0
  9
$EXTMAX
 10
315.0
 20
445.5
 30
0.0
  9
$LIMMIN
 10
0.0
 20
0.0
  9
$LIMMAX
 10
12.0
 20
9.0
  9
$ORTHOMODE
 70
     0
  9
$REGENMODE
 70
     1
  9
$FILLMODE
 70
     1
  9
$QTEXTMODE
 70
     0
  9
$MIRRTEXT
 70
     1
  9
$LTSCALE
 40
1.0
  9
$ATTMODE
 70
     1
  9
$TEXTSIZE
 40
0.2
  9
$TRACEWID
 40
0.05
  9
$TEXTSTYLE
  7
Standard
  9
$CLAYER
  8
0
  9
$CELTYPE
  6
ByLayer
  9
$CECOLOR
 62
   256
  9
$CELTSCALE
 40
1.0
  9
$DISPSILH
 70
     0
  9
$DIMSCALE
 40
1.0
  9
$DIMASZ
 40
0.18
  9
$DIMEXO
 40
0.0625
  9
$DIMDLI
 40
0.38
  9
$DIMRND
 40
0.0
  9
$DIMDLE
 40
0.0
  9
$DIMEXE
 40
0.18
  9
$DIMTP
 40
0.0
  9
$DIMTM
 40
0.0
  9
$DIMTXT
 40
0.18
  9
$DIMCEN
 40
0.09
  9
$DIMTSZ
 40
0.0
  9
$DIMTOL
 70
     0
  9
$DIMLIM
 70
     0
  9
$DIMTIH
 70
     1
  9
$DIMTOH
 70
     1
  9
$DIMSE1
 70
     0
  9
$DIMSE2
 70
     0
  9
$DIMTAD
 70
     0
  9
$DIMZIN
 70
     0
  9
$DIMBLK
  1

  9
$DIMASO
 70
     1
  9
$DIMSHO
 70
     1
  9
$DIMPOST
  1

  9
$DIMAPOST
  1

  9
$DIMALT
 70
     0
  9
$DIMALTD
 70
     2
  9
$DIMALTF
 40
25.4
  9
$DIMLFAC
 40
1.0
  9
$DIMTOFL
 70
     0
  9
$DIMTVP
 40
0.0
  9
$DIMTIX
 70
     0
  9
$DIMSOXD
 70
     0
  9
$DIMSAH
 70
     0
  9
$DIMBLK1
  1

  9
$DIMBLK2
  1

  9
$DIMSTYLE
  2
Standard
  9
$DIMCLRD
 70
     0
  9
$DIMCLRE
 70
     0
  9
$DIMCLRT
 70
     0
  9
$DIMTFAC
 40
1.0
  9
$DIMGAP
 40
0.09
  9
$DIMJUST
 70
     0
  9
$DIMSD1
 70
     0
  9
$DIMSD2
 70
     0
  9
$DIMTOLJ
 70
     1
  9
$DIMTZIN
 70
     0
  9
$DIMALTZ
 70
     0
  9
$DIMALTTZ
 70
     0
  9
$DIMUPT
 70
     0
  9
$DIMDEC
 70
     4
  9
$DIMTDEC
 70
     4
  9
$DIMALTU
 70
     2
  9
$DIMALTTD
 70
     2
  9
$DIMTXSTY
  7
Standard
  9
$DIMAUNIT
 70
     0
  9
$DIMADEC
 70
     0
  9
$DIMALTRND
 40
0.0
  9
$DIMAZIN
 70
     0
  9
$DIMDSEP
 70
    46
  9
$DIMATFIT
 70
     3
  9
$DIMFRAC
 70
     0
  9
$DIMLDRBLK
  1

  9
$DIMLUNIT
 70
     2
  9
$DIMLWD
 70
    -2
  9
$DIMLWE
 70
    -2
  9
$DIMTMOVE
 70
     0
  9
$LUNITS
 70
     2
  9
$LUPREC
 70
     4
  9
$SKETCHINC
 40
0.1
  9
$FILLETRAD
 40
0.5
  9
$AUNITS
 70
     0
  9
$AUPREC
 70
     0
  9
$MENU
  1
.
  9
$ELEVATION
 40
0.0
  9
$PELEVATION
 40
0.0
  9
$THICKNESS
 40
0.0
  9
$LIMCHECK
 70
     0
  9
$CHAMFERA
 40
0.5
  9
$CHAMFERB
 40
0.5
  9
$CHAMFERC
 40
1.0
  9
$CHAMFERD
 40
0.0
  9
$SKPOLY
 70
     0
  9
$TDCREATE
 40
2456143.584177326
  9
$TDUCREATE
 40
2456143.209177326
  9
$TDUPDATE
 40
2456143.584177338
  9
$TDUUPDATE
 40
2456143.209177338
  9
$TDINDWG
 40
0.0000000116
  9
$TDUSRTIMER
 40
0.0000000116
  9
$USRTIMER
 70
     1
  9
$ANGBASE
 50
0.0
  9
$ANGDIR
 70
     0
  9
$PDMODE
 70
     0
  9
$PDSIZE
 40
0.0
  9
$PLINEWID
 40
0.0
  9
$SPLFRAME
 70
     0
  9
$SPLINETYPE
 70
     6
  9
$SPLINESEGS
 70
     8
  9
$HANDSEED
  5
34F
  9
$SURFTAB1
 70
     6
  9
$SURFTAB2
 70
     6
  9
$SURFTYPE
 70
     6
  9
$SURFU
 70
     6
  9
$SURFV
 70
     6
  9
$UCSBASE
  2

  9
$UCSNAME
  2

  9
$UCSORG
 10
0.0
 20
0.0
 30
0.0
  9
$UCSXDIR
 10
1.0
 20
0.0
 30
0.0
  9
$UCSYDIR
 10
0.0
 20
1.0
 30
0.0
  9
$UCSORTHOREF
  2

  9
$UCSORTHOVIEW
 70
     0
  9
$UCSORGTOP
 10
0.0
 20
0.0
 30
0.0
  9
$UCSORGBOTTOM
 10
0.0
 20
0.0
 30
0.0
  9
$UCSORGLEFT
 10
0.0
 20
0.0
 30
0.0
  9
$UCSORGRIGHT
 10
0.0
 20
0.0
 30
0.0
  9
$UCSORGFRONT
 10
0.0
 20
0.0
 30
0.0
  9
$UCSORGBACK
 10
0.0
 20
0.0
 30
0.0
  9
$PUCSBASE
  2

  9
$PUCSNAME
  2

  9
$PUCSORG
 10
0.0
 20
0.0
 30
0.0
  9
$PUCSXDIR
 10
1.0
 20
0.0
 30
0.0
  9
$PUCSYDIR
 10
0.0
 20
1.0
 30
0.0
  9
$PUCSORTHOREF
  2

  9
$PUCSORTHOVIEW
 70
     0
  9
$PUCSORGTOP
 10
0.0
 20
0.0
 30
0.0
  9
$PUCSORGBOTTOM
 10
0.0
 20
0.0
 30
0.0
  9
$PUCSORGLEFT
 10
0.0
 20
0.0
 30
0.0
  9
$PUCSORGRIGHT
 10
0.0
 20
0.0
 30
0.0
  9
$PUCSORGFRONT
 10
0.0
 20
0.0
 30
0.0
  9
$PUCSORGBACK
 10
0.0
 20
0.0
 30
0.0
  9
$USERI1
 70
     0
  9
$USERI2
 70
     0
  9
$USERI3
 70
     0
  9
$USERI4
 70
     0
  9
$USERI5
 70
     0
  9
$USERR1
 40
13.2
  9
$USERR2
 40
0.0
  9
$USERR3
 40
0.0
  9
$USERR4
 40
0.0
  9
$USERR5
 40
0.0
  9
$WORLDVIEW
 70
     1
  9
$SHADEDGE
 70
     3
  9
$SHADEDIF
 70
    70
  9
$TILEMODE
 70
     1
  9
$MAXACTVP
 70
    64
  9
$PINSBASE
 10
0.0
 20
0.0
 30
0.0
  9
$PLIMCHECK
 70
     0
  9
$PEXTMIN
 10
1.00000000000000E+20
 20
1.00000000000000E+20
 30
1.00000000000000E+20
  9
$PEXTMAX
 10
-1.00000000000000E+20
 20
-1.00000000000000E+20
 30
-1.00000000000000E+20
  9
$PLIMMIN
 10
0.0
 20
0.0
  9
$PLIMMAX
 10
12.0
 20
9.0
  9
$UNITMODE
 70
     0
  9
$VISRETAIN
 70
     1
  9
$PLINEGEN
 70
     0
  9
$PSLTSCALE
 70
     1
  9
$TREEDEPTH
 70
  3020
  9
$CMLSTYLE
  2
Standard
  9
$CMLJUST
 70
     0
  9
$CMLSCALE
 40
1.0
  9
$PROXYGRAPHICS
 70
     1
  9
$MEASUREMENT
 70
     1
  9
$CELWEIGHT
370
    -1
  9
$ENDCAPS
280
     0
  9
$JOINSTYLE
280
     0
  9
$LWDISPLAY
290
     0
  9
$INSUNITS
 70
     1
  9
$HYPERLINKBASE
  1

  9
$STYLESHEET
  1

  9
$XEDIT
290
     1
  9
$CEPSNTYPE
380
     0
  9
$PSTYLEMODE
290
     0
  9
$FINGERPRINTGUID
  2
{FAEB1C30-E019-11D5-929B-00C0DF256EC4}
  9
$VERSIONGUID
  2
{FAEB1C32-E019-11D5-929B-00C0DF256EC4}
  9
$EXTNAMES
290
     1
  9
$PSVPSCALE
 40
0.0
  9
$OLESTARTUP
290
     0
  0
ENDSEC
  0
SECTION
  2
CLASSES
  0
CLASS
  1
ACDBDICTIONARYWDFLT
  2
AcDbDictionaryWithDefault
  3
ObjectDBX Classes
 90
        0
280
     0
281
     0
  0
CLASS
  1
TABLESTYLE
  2
AcDbTableStyle
  3
ObjectDBX Classes
 90
     2047
280
     0
281
     0
  0
CLASS
  1
DICTIONARYVAR
  2
AcDbDictionaryVar
  3
ObjectDBX Classes
 90
        0
280
     0
281
     0
  0
CLASS
  1

  2
exOdDbCircle
  3

 90
        0
280
     0
281
     1
  0
CLASS
  1

  2
exOdDbSpline
  3

 90
        0
280
     0
281
     1
  0
CLASS
  1
ACDBPLACEHOLDER
  2
AcDbPlaceHolder
  3
ObjectDBX Classes
 90
        0
280
     0
281
     0
  0
CLASS
  1
LAYOUT
  2
AcDbLayout
  3
ObjectDBX Classes
 90
        0
280
     0
281
     0
  0
ENDSEC
  0
SECTION
  2
TABLES
  0
TABLE
  2
VPORT
  5
8
330
0
100
AcDbSymbolTable
 70
     2
  0
VPORT
  5
29
330
8
100
AcDbSymbolTableRecord
100
AcDbViewportTableRecord
  2
*Active
 70
     0
 10
0.0
 20
0.0
 11
1.0
 21
1.0
 12
157.5
 22
222.75
 13
0.0
 23
0.0
 14
0.5
 24
0.5
 15
0.5
 25
0.5
 16
0.0
 26
0.0
 36
1.0
 17
0.0
 27
0.0
 37
0.0
 40
490.05
 41
1.60267857142857
 42
50.0
 43
0.0
 44
0.0
 50
0.0
 51
0.0
 71
     0
 72
   100
 73
     1
 74
     3
 75
     0
 76
     0
 77
     0
 78
     0
281
     0
 65
     1
110
0.0
120
0.0
130
0.0
111
1.0
121
0.0
131
0.0
112
0.0
122
1.0
132
0.0
 79
     0
146
0.0
  0
ENDTAB
  0
TABLE
  2
LTYPE
  5
5
330
0
100
AcDbSymbolTable
 70
     8
  0
LTYPE
  5
14
330
5
100
AcDbSymbolTableRecord
100
AcDbLinetypeTableRecord
  2
ByBlock
 70
     0
  3

 72
    65
 73
     0
 40
0.0
  0
LTYPE
  5
15
330
5
100
AcDbSymbolTableRecord
100
AcDbLinetypeTableRecord
  2
ByLayer
 70
     0
  3

 72
    65
 73
     0
 40
0.0
  0
LTYPE
  5
16
330
5
100
AcDbSymbolTableRecord
100
AcDbLinetypeTableRecord
  2
Continuous
 70
     0
  3
Solid line
 72
    65
 73
     0
 40
0.0
  0
LTYPE
  5
2E
330
5
100
AcDbSymbolTableRecord
100
AcDbLinetypeTableRecord
  2
DASHED
 70
     0
  3
Dashed
 72
    65
 73
     2
 40
15.0
 49
7.0
 74
     0
 49
-8.0
 74
     0
  0
LTYPE
  5
2F
330
5
100
AcDbSymbolTableRecord
100
AcDbLinetypeTableRecord
  2
DOTTED
 70
     0
  3
Dotted
 72
    65
 73
     2
 40
1.0
 49
0.0
 74
     0
 49
-1.0
 74
     0
  0
LTYPE
  5
30
330
5
100
AcDbSymbolTableRecord
100
AcDbLinetypeTableRecord
  2
DOT_CENTER
 70
     0
  3
Dot_Center
 72
    65
 73
     4
 40
14.0
 49
12.0
 74
     0
 49
-1.0
 74
     0
 49
0.0
 74
     0
 49
-1.0
 74
     0
  0
LTYPE
  5
31
330
5
100
AcDbSymbolTableRecord
100
AcDbLinetypeTableRecord
  2
LONG_DASHED
 70
     0
  3
Long_Dashed
 72
    65
 73
     2
 40
15.0
 49
10.0
 74
     0
 49
-5.0
 74
     0
  0
LTYPE
  5
32
330
5
100
AcDbSymbolTableRecord
100
AcDbLinetypeTableRecord
  2
DASH_CENTER
 70
     0
  3
Dash_Center
 72
    65
 73
     4
 40
14.0
 49
11.0
 74
     0
 49
-1.0
 74
     0
 49
1.0
 74
     0
 49
-1.0
 74
     0
  0
LTYPE
  5
33
330
5
100
AcDbSymbolTableRecord
100
AcDbLinetypeTableRecord
  2
PHANTOM
 70
     0
  3
Phantom
 72
    65
 73
     6
 40
13.0
 49
10.0
 74
     0
 49
-1.0
 74
     0
 49
0.0
 74
     0
 49
-1.0
 74
     0
 49
0.0
 74
     0
 49
-1.0
 74
     0
  0
LTYPE
  5
34
330
5
100
AcDbSymbolTableRecord
100
AcDbLinetypeTableRecord
  2
CENTER_DASH_DASH
 70
     0
  3
Center_Dash_Dash
 72
    65
 73
     6
 40
14.0
 49
9.0
 74
     0
 49
-1.0
 74
     0
 49
1.0
 74
     0
 49
-1.0
 74
     0
 49
1.0
 74
     0
 49
-1.0
 74
     0
  0
ENDTAB
  0
TABLE
  2
LAYER
  5
2
330
0
100
AcDbSymbolTable
 70
     2
  0
LAYER
  5
10
330
2
100
AcDbSymbolTableRecord
100
AcDbLayerTableRecord
  2
0
 70
     0
 62
     7
  6
Continuous
370
    -3
390
F
  0
LAYER
  5
35
330
2
100
AcDbSymbolTableRecord
100
AcDbLayerTableRecord
  2
1
 70
     0
 62
     7
  6
Continuous
370
    -3
390
F
  0
ENDTAB
  0
TABLE
  2
STYLE
  5
3
330
0
100
AcDbSymbolTable
 70
     3
  0
STYLE
  5
11
330
3
100
AcDbSymbolTableRecord
100
AcDbTextStyleTableRecord
  2
Standard
 70
     0
 40
0.0
 41
1.0
 50
0.0
 71
     0
 42
0.2
  3
txt
  4

  0
STYLE
  5
2C1
330
3
100
AcDbSymbolTableRecord
100
AcDbTextStyleTableRecord
  2
CONVERTER_1
 70
     0
 40
0.0
 41
0.89
 50
0.0
 71
     0
 42
0.2
  3
msmincho.ttc
  4

1001
ACAD
1000
MS Mincho
1071
    32785
  0
STYLE
  5
2DE
330
3
100
AcDbSymbolTableRecord
100
AcDbTextStyleTableRecord
  2
CONVERTER_2
 70
     0
 40
0.0
 41
0.9
 50
0.0
 71
     0
 42
0.2
  3
txt.shx
  4

  0
ENDTAB
  0
TABLE
  2
VIEW
  5
6
330
0
100
AcDbSymbolTable
 70
     0
  0
ENDTAB
  0
TABLE
  2
UCS
  5
7
330
0
100
AcDbSymbolTable
 70
     0
  0
ENDTAB
  0
TABLE
  2
APPID
  5
9
330
0
100
AcDbSymbolTable
 70
     1
  0
APPID
  5
12
330
9
100
AcDbSymbolTableRecord
100
AcDbRegAppTableRecord
  2
ACAD
 70
     0
  0
ENDTAB
  0
TABLE
  2
DIMSTYLE
  5
A
330
0
100
AcDbSymbolTable
 70
    10
100
AcDbDimStyleTable
  0
DIMSTYLE
105
27
330
A
100
AcDbSymbolTableRecord
100
AcDbDimStyleTableRecord
  2
Standard
 70
     0
340
11
  0
DIMSTYLE
105
2EF
102
{ACAD_REACTORS
330
2F0
102
}
330
A
100
AcDbSymbolTableRecord
100
AcDbDimStyleTableRecord
  2
ME10_DIM_0
 70
     0
  3
{\Fgdt;n}<>
 41
5.25
 42
0.0
 44
1.5
 73
     0
 74
     0
 77
     1
 78
     8
140
5.25
147
0.625
172
     1
173
     1
176
     2
177
     2
178
     7
271
     2
340
2DE
  0
DIMSTYLE
105
2FA
102
{ACAD_REACTORS
330
2FB
102
}
330
A
100
AcDbSymbolTableRecord
100
AcDbDimStyleTableRecord
  2
ME10_DIM_1
 70
     0
 41
5.25
 42
0.0
 44
1.5
 73
     0
 74
     0
 77
     1
 78
     8
140
5.25
147
0.625
172
     1
173
     1
176
     2
177
     2
178
     7
271
     2
340
2DE
  0
DIMSTYLE
105
305
102
{ACAD_REACTORS
330
306
102
}
330
A
100
AcDbSymbolTableRecord
100
AcDbDimStyleTableRecord
  2
ME10_DIM_2
 70
     0
 41
5.25
 42
0.0
 44
1.5
 73
     0
 74
     0
 77
     1
 78
     8
140
5.25
147
0.625
172
     1
173
     1
176
     2
177
     2
178
     7
271
     2
340
2DE
  0
DIMSTYLE
105
310
102
{ACAD_REACTORS
330
311
102
}
330
A
100
AcDbSymbolTableRecord
100
AcDbDimStyleTableRecord
  2
ME10_DIM_3
 70
     0
  3
<>
 41
5.25
 42
0.0
 44
1.5
 73
     0
 74
     0
 77
     1
 78
     8
140
5.25
147
0.625
172
     1
173
     1
176
     2
177
     2
178
     7
271
     2
340
2C1
  0
DIMSTYLE
105
31E
102
{ACAD_REACTORS
330
31F
102
}
330
A
100
AcDbSymbolTableRecord
100
AcDbDimStyleTableRecord
  2
ME10_DIM_4
 70
     0
 41
5.25
 42
0.0
 44
1.5
 73
     0
 74
     0
 77
     1
 78
     8
140
5.25
147
0.625
172
     1
173
     1
176
     2
177
     2
178
     7
271
     2
340
2DE
344
31B
  0
DIMSTYLE
105
329
102
{ACAD_REACTORS
330
32A
102
}
330
A
100
AcDbSymbolTableRecord
100
AcDbDimStyleTableRecord
  2
ME10_DIM_5
 70
     0
  3
{\Fgdt;n}<>
 41
5.25
 42
0.0
 44
1.5
 73
     0
 74
     0
 77
     1
 78
     8
140
5.25
147
0.625
172
     1
173
     1
176
     2
177
     2
178
     7
271
     2
340
2DE
  0
DIMSTYLE
105
334
102
{ACAD_REACTORS
330
335
102
}
330
A
100
AcDbSymbolTableRecord
100
AcDbDimStyleTableRecord
  2
ME10_DIM_6
 70
     0
 41
5.25
 42
0.0
 44
1.5
 73
     0
 74
     0
 77
     1
 78
     8
140
5.25
147
0.625
172
     1
173
     1
176
     2
177
     2
178
     7
271
     2
340
2DE
  0
DIMSTYLE
105
340
102
{ACAD_REACTORS
330
341
102
}
330
A
100
AcDbSymbolTableRecord
100
AcDbDimStyleTableRecord
  2
ME10_DIM_7
 70
     0
 41
5.25
 42
0.0
 44
1.5
 73
     0
 74
     0
 77
     1
 78
     8
140
5.25
147
0.625
172
     1
173
     1
176
     2
177
     2
178
     7
271
     2
340
2DE
  0
DIMSTYLE
105
34D
102
{ACAD_REACTORS
330
34E
102
}
330
A
100
AcDbSymbolTableRecord
100
AcDbDimStyleTableRecord
  2
ME10_DIM_8
 70
     0
 41
5.25
 42
0.0
 44
1.5
 73
     0
 74
     0
 77
     1
 78
     8
140
5.25
147
0.625
172
     1
173
     1
176
     2
177
     2
178
     7
271
     2
340
2DE
  0
ENDTAB
  0
TABLE
  2
BLOCK_RECORD
  5
1
330
0
100
AcDbSymbolTable
 70
    23
  0
BLOCK_RECORD
  5
1F
330
1
100
AcDbSymbolTableRecord
100
AcDbBlockTableRecord
  2
*Model_Space
340
22
  0
BLOCK_RECORD
  5
1B
330
1
100
AcDbSymbolTableRecord
100
AcDbBlockTableRecord
  2
*Paper_Space
340
1E
  0
BLOCK_RECORD
  5
23
330
1
100
AcDbSymbolTableRecord
100
AcDbBlockTableRecord
  2
*Paper_Space0
340
26
  0
BLOCK_RECORD
  5
36
330
1
100
AcDbSymbolTableRecord
100
AcDbBlockTableRecord
  2
21-1A
340
0
102
{BLKREFS
331
3D
102
}
  0
BLOCK_RECORD
  5
39
330
1
100
AcDbSymbolTableRecord
100
AcDbBlockTableRecord
  2
42-1
340
0
102
{BLKREFS
331
3E
102
}
  0
BLOCK_RECORD
  5
3C
330
1
100
AcDbSymbolTableRecord
100
AcDbBlockTableRecord
  2
R20F
340
0
102
{BLKREFS
331
48
102
}
  0
BLOCK_RECORD
  5
41
330
1
100
AcDbSymbolTableRecord
100
AcDbBlockTableRecord
  2
37-1-13
340
0
102
{BLKREFS
331
49
102
}
  0
BLOCK_RECORD
  5
44
330
1
100
AcDbSymbolTableRecord
100
AcDbBlockTableRecord
  2
36-1A-13-M4
340
0
102
{BLKREFS
331
4A
102
}
  0
BLOCK_RECORD
  5
47
330
1
100
AcDbSymbolTableRecord
100
AcDbBlockTableRecord
  2
R10A-13
340
0
102
{BLKREFS
331
61
102
}
  0
BLOCK_RECORD
  5
4D
330
1
100
AcDbSymbolTableRecord
100
AcDbBlockTableRecord
  2
32-1-16
340
0
102
{BLKREFS
331
54
102
}
  0
BLOCK_RECORD
  5
50
330
1
100
AcDbSymbolTableRecord
100
AcDbBlockTableRecord
  2
75-2
340
0
102
{BLKREFS
331
55
102
}
  0
BLOCK_RECORD
  5
53
330
1
100
AcDbSymbolTableRecord
100
AcDbBlockTableRecord
  2
Y12J-64X
340
0
102
{BLKREFS
331
62
102
}
  0
BLOCK_RECORD
  5
58
330
1
100
AcDbSymbolTableRecord
100
AcDbBlockTableRecord
  2
Y12-0-13
340
0
102
{BLKREFS
331
63
102
}
  0
BLOCK_RECORD
  5
5B
330
1
100
AcDbSymbolTableRecord
100
AcDbBlockTableRecord
  2
62-1A
340
0
102
{BLKREFS
331
64
102
}
  0
BLOCK_RECORD
  5
5E
330
1
100
AcDbSymbolTableRecord
100
AcDbBlockTableRecord
  2
_J__A4
340
0
102
{BLKREFS
331
65
102
}
  0
BLOCK_RECORD
  5
2E5
330
1
100
AcDbSymbolTableRecord
100
AcDbBlockTableRecord
  2
*D013
340
0
  0
BLOCK_RECORD
  5
2F1
330
1
100
AcDbSymbolTableRecord
100
AcDbBlockTableRecord
  2
*D114
340
0
  0
BLOCK_RECORD
  5
2FC
330
1
100
AcDbSymbolTableRecord
100
AcDbBlockTableRecord
  2
*D215
340
0
  0
BLOCK_RECORD
  5
307
330
1
100
AcDbSymbolTableRecord
100
AcDbBlockTableRecord
  2
*D316
340
0
  0
BLOCK_RECORD
  5
312
330
1
100
AcDbSymbolTableRecord
100
AcDbBlockTableRecord
  2
*D417
340
0
  0
BLOCK_RECORD
  5
31B
330
1
100
AcDbSymbolTableRecord
100
AcDbBlockTableRecord
  2
_None
340
0
  0
BLOCK_RECORD
  5
320
330
1
100
AcDbSymbolTableRecord
100
AcDbBlockTableRecord
  2
*D519
340
0
  0
BLOCK_RECORD
  5
32B
330
1
100
AcDbSymbolTableRecord
100
AcDbBlockTableRecord
  2
*D620
340
0
  0
BLOCK_RECORD
  5
336
330
1
100
AcDbSymbolTableRecord
100
AcDbBlockTableRecord
  2
*D721
340
0
  0
BLOCK_RECORD
  5
342
330
1
100
AcDbSymbolTableRecord
100
AcDbBlockTableRecord
  2
*D822
340
0
  0
ENDTAB
  0
ENDSEC
  0
SECTION
  2
BLOCKS
  0
BLOCK
  5
20
330
1F
100
AcDbEntity
  8
0
100
AcDbBlockBegin
  2
*Model_Space
 70
     0
 71
     0
 10
0.0
 20
0.0
 30
0.0
  3
*Model_Space
  1

  0
ENDBLK
  5
21
330
1F
100
AcDbEntity
  8
0
100
AcDbBlockEnd
  0
BLOCK
  5
1C
330
1B
100
AcDbEntity
 67
     1
  8
0
100
AcDbBlockBegin
  2
*Paper_Space
 70
     0
 71
     0
 10
0.0
 20
0.0
 30
0.0
  3
*Paper_Space
  1

  0
ENDBLK
  5
1D
330
1B
100
AcDbEntity
 67
     1
  8
0
100
AcDbBlockEnd
  0
BLOCK
  5
24
330
23
100
AcDbEntity
  8
0
100
AcDbBlockBegin
  2
*Paper_Space0
 70
     0
 71
     0
 10
0.0
 20
0.0
 30
0.0
  3
*Paper_Space0
  1

  0
ENDBLK
  5
25
330
23
100
AcDbEntity
  8
0
100
AcDbBlockEnd
  0
BLOCK
  5
37
330
36
100
AcDbEntity
  8
0
100
AcDbBlockBegin
  2
21-1A
 70
     0
 71
     0
 10
321.5101516979425
 20
134.8152462036642
 30
0.0
  3
21-1A
  1

  0
LINE
  5
66
330
36
100
AcDbEntity
  8
1
  6
Continuous
 62
     7
100
AcDbLine
 10
103.7816001502106
 20
188.9470576025619
 30
0.0
 11
103.3296920512182
 21
192.1625508074325
 31
0.0
  0
LINE
  5
67
330
36
100
AcDbEntity
  8
1
  6
Continuous
 62
     7
100
AcDbLine
 10
82.60630714879184
 20
192.7322750371399
 30
0.0
 11
82.60630714879184
 21
188.3774710520818
 31
0.0
  0
LINE
  5
68
330
36
100
AcDbEntity
  8
1
  6
Continuous
 62
     7
100
AcDbLine
 10
69.66535489366586
 20
188.3774710520819
 30
0.0
 11
69.66535489366586
 21
192.7814731273907
 31
0.0
  0
LINE
  5
69
330
36
100
AcDbEntity
  8
1
  6
Continuous
 62
     7
100
AcDbLine
 10
48.98519592661776
 20
188.3774710520818
 30
0.0
 11
103.2864661158398
 21
188.3774710520818
 31
0.0
  0
LINE
  5
6A
330
36
100
AcDbEntity
  8
1
  6
Continuous
 62
     7
100
AcDbLine
 10
48.94196999123935
 20
192.1625508074325
 30
0.0
 11
48.49006189224704
 21
188.9470576025619
 31
0.0
  0
LINE
  5
6B
330
36
100
AcDbEntity
  8
1
  6
Continuous
 62
     7
100
AcDbLine
 10
219.8600221812979
 20
188.3753419286555
 30
0.0
 11
223.9925050657329
 21
188.3753419286555
 31
0.0
  0
LINE
  5
6C
330
36
100
AcDbEntity
  8
1
  6
Continuous
 62
     7
100
AcDbLine
 10
175.5996890460393
 20
192.1604216840061
 30
0.0
 11
175.147780947047
 21
188.9449284791355
 31
0.0
  0
LINE
  5
6D
330
36
100
AcDbEntity
  8
1
  6
Continuous
 62
     7
100
AcDbLine
 10
70.34027606349414
 20
304.6985912679961
 30
0.0
 11
66.68886685202367
 21
318.325835964429
 31
0.0
  0
LINE
  5
6E
330
36
100
AcDbEntity
  8
1
  6
Continuous
 62
     7
100
AcDbLine
 10
50.24255523949825
 20
339.5088648514919
 30
0.0
 11
60.21839072446065
 21
329.5330293665296
 31
0.0
  0
LINE
  5
6F
330
36
100
AcDbEntity
  8
1
  6
Continuous
 62
     7
100
AcDbLine
 10
56.03811019723264
 20
349.5470604963456
 30
0.0
 11
69.66535489366547
 21
345.8956512848752
 31
0.0
  0
LINE
  5
70
330
36
100
AcDbEntity
  8
1
  6
Continuous
 62
     7
100
AcDbLine
 10
96.99405674784487
 20
349.7508371708427
 30
0.0
 11
82.60630714879156
 21
345.8956512848752
 31
0.0
  0
LINE
  5
71
330
36
100
AcDbEntity
  8
1
  6
Continuous
 62
     7
100
AcDbLine
 10
102.0291068029588
 20
339.5088648514919
 30
0.0
 11
92.05327131799646
 21
329.5330293665296
 31
0.0
  0
LINE
  5
72
330
36
100
AcDbEntity
  8
1
  6
Continuous
 62
     7
100
AcDbLine
 10
81.93138597896297
 20
304.6985912679961
 30
0.0
 11
85.58279519043344
 21
318.325835964429
 31
0.0
  0
LINE
  5
73
330
36
100
AcDbEntity
  8
1
  6
Continuous
 62
     7
100
AcDbLine
 10
223.8704166321585
 20
193.3344185343991
 30
0.0
 11
224.487634126166
 21
188.9449638613681
 31
0.0
  0
LINE
  5
74
330
36
100
AcDbEntity
  8
1
  6
Continuous
 62
     7
100
AcDbLine
 10
219.8600221812979
 20
188.3753419286555
 30
0.0
 11
218.294665550206
 21
188.3753419286555
 31
0.0
  0
LINE
  5
75
330
36
100
AcDbEntity
  8
1
  6
Continuous
 62
     7
100
AcDbLine
 10
211.8177307778072
 20
188.3753419286555
 30
0.0
 11
200.3177307778072
 21
188.3753419286555
 31
0.0
  0
LINE
  5
76
330
36
100
AcDbEntity
  8
1
  6
Continuous
 62
     7
100
AcDbLine
 10
211.8177307778072
 20
188.3753419286555
 30
0.0
 11
219.8600221812979
 21
188.3753419286555
 31
0.0
  0
LINE
  5
77
330
36
100
AcDbEntity
  8
1
  6
Continuous
 62
     7
100
AcDbLine
 10
175.6429149814177
 20
188.3753419286555
 30
0.0
 11
201.3177307778072
 21
188.3753419286555
 31
0.0
  0
ARC
  5
78
330
36
100
AcDbEntity
  8
0
  6
Continuous
 62
     7
100
AcDbCircle
 10
76.13592454031576
 20
192.7814731273907
 30
0.0
 40
6.47056964665045
100
AcDbArc
 50
-0.43564481122967
 51
180.0
  0
ARC
  5
79
330
36
100
AcDbEntity
  8
1
  6
Continuous
 62
     7
100
AcDbCircle
 10
74.49874067033954
 20
72.00731851175746
 30
0.0
 40
127.494833408141
100
AcDbArc
 50
79.1905067536478
 51
87.46588310520269
  0
ARC
  5
7A
330
36
100
AcDbEntity
  8
1
  6
Continuous
 62
     7
100
AcDbCircle
 10
77.77292137211796
 20
72.00731851175746
 30
0.0
 40
127.4948334081408
100
AcDbArc
 50
92.53411689479739
 51
100.8094932463522
  0
ARC
  5
7B
330
36
100
AcDbEntity
  8
1
  6
Continuous
 62
     7
100
AcDbCircle
 10
206.0677307778072
 20
49.37534192865545
 30
0.0
 40
150.0533238552216
100
AcDbArc
 50
91.52752544221293
 51
99.80290179376776
  0
ARC
  5
7C
330
36
100
AcDbEntity
  8
1
  6
Continuous
 62
     7
100
AcDbCircle
 10
76.13583102122854
 20
306.2515055386112
 30
0.0
 40
5.999999999999974
100
AcDbArc
 50
-165.0000000000004
 51
-90.0
  0
ARC
  5
7D
330
36
100
AcDbEntity
  8
1
  6
Continuous
 62
     7
100
AcDbCircle
 10
54.48519592661756
 20
343.7515055386112
 30
0.0
 40
5.999999999999976
100
AcDbArc
 50
75.00000000000034
 51
-135.0000000000003
  0
ARC
  5
7E
330
36
100
AcDbEntity
  8
1
  6
Continuous
 62
     7
100
AcDbCircle
 10
97.78646611583955
 20
343.7515055386112
 30
0.0
 40
5.999999999999958
100
AcDbArc
 50
-45.00000000000009
 51
97.52424107894093
  0
ARC
  5
7F
330
36
100
AcDbEntity
  8
1
  6
Continuous
 62
     7
100
AcDbCircle
 10
76.13583102122854
 20
306.2515055386112
 30
0.0
 40
6.0
100
AcDbArc
 50
-90.0
 51
-14.99999999999952
  0
ARC
  5
80
330
36
100
AcDbEntity
  8
1
  6
Continuous
 62
     7
100
AcDbCircle
 10
206.431926443054
 20
124.4635209199562
 30
0.0
 40
75.0000000000001
100
AcDbArc
 50
80.40850751733491
 51
87.22136103403746
  0
ARC
  5
81
330
36
100
AcDbEntity
  8
1
  6
Continuous
 62
     7
100
AcDbCircle
 10
103.2864661158398
 20
188.8774710520818
 30
0.0
 40
0.5
100
AcDbArc
 50
-90.0
 51
8.0000000000071
  0
ARC
  5
82
330
36
100
AcDbEntity
  8
1
  6
Continuous
 62
     7
100
AcDbCircle
 10
97.38808363876876
 20
191.3275122016722
 30
0.0
 40
6.000000000000006
100
AcDbArc
 50
7.99999999999913
 51
80.19709820623221
  0
ARC
  5
83
330
36
100
AcDbEntity
  8
1
  6
Continuous
 62
     7
100
AcDbCircle
 10
54.88357840368886
 20
191.3275122016722
 30
0.0
 40
6.000000000000037
100
AcDbArc
 50
99.80290179376887
 51
172.000000000001
  0
ARC
  5
84
330
36
100
AcDbEntity
  8
1
  6
Continuous
 62
     7
100
AcDbCircle
 10
48.98519592661776
 20
188.8774710520818
 30
0.0
 40
0.4999999999999459
100
AcDbArc
 50
171.9999999999918
 51
-90.0
  0
ARC
  5
85
330
36
100
AcDbEntity
  8
1
  6
Continuous
 62
     7
100
AcDbCircle
 10
181.5412974584888
 20
191.3253830782457
 30
0.0
 40
6.000000000000019
100
AcDbArc
 50
99.8029017937678
 51
171.9999999999999
  0
ARC
  5
86
330
36
100
AcDbEntity
  8
1
  6
Continuous
 62
     7
100
AcDbCircle
 10
42.54072119479704
 20
311.8553598368659
 30
0.0
 40
24.99999999999995
100
AcDbArc
 50
15.0000000000003
 51
45.00000000000017
  0
ARC
  5
87
330
36
100
AcDbEntity
  8
1
  6
Continuous
 62
     7
100
AcDbCircle
 10
76.13583102122854
 20
370.043796942102
 30
0.0
 40
25.0000000000001
100
AcDbArc
 50
-105.0000000000001
 51
-75.00000000000006
  0
ARC
  5
88
330
36
100
AcDbEntity
  8
1
  6
Continuous
 62
     7
100
AcDbCircle
 10
109.7309408476602
 20
311.8553598368659
 30
0.0
 40
25.00000000000005
100
AcDbArc
 50
135.0
 51
164.9999999999998
  0
ARC
  5
89
330
36
100
AcDbEntity
  8
1
  6
Continuous
 62
     7
100
AcDbCircle
 10
217.9288679069613
 20
192.4989553418477
 30
0.0
 40
6.000000000000063
100
AcDbArc
 50
8.00409437170091
 51
80.4085075173346
  0
ARC
  5
8A
330
36
100
AcDbEntity
  8
1
  6
Continuous
 62
     7
100
AcDbCircle
 10
175.6429149814177
 20
188.8753419286555
 30
0.0
 40
0.4999999999999059
100
AcDbArc
 50
172.000000000001
 51
-90.0
  0
ARC
  5
8B
330
36
100
AcDbEntity
  8
1
  6
Continuous
 62
     7
100
AcDbCircle
 10
223.9925050657329
 20
188.8753419286555
 30
0.0
 40
0.5
100
AcDbArc
 50
-90.0
 51
8.00409437169984
  0
ENDBLK
  5
38
330
36
100
AcDbEntity
  8
0
100
AcDbBlockEnd
  0
BLOCK
  5
3A
330
39
100
AcDbEntity
  8
0
100
AcDbBlockBegin
  2
42-1
 70
     0
 71
     0
 10
316.3731696150755
 20
150.8527729496773
 30
0.0
  3
42-1
  1

  0
LINE
  5
8C
330
39
100
AcDbEntity
  8
1
  6
Continuous
 62
     7
100
AcDbLine
 10
83.13583102122865
 20
202.3774710520817
 30
0.0
 11
83.13583102122865
 21
199.3774710520818
 31
0.0
  0
LINE
  5
8D
330
39
100
AcDbEntity
  8
1
  6
Continuous
 62
     2
100
AcDbLine
 10
82.63583102122865
 20
199.3774710520818
 30
0.0
 11
82.63583102122865
 21
202.3774710520817
 31
0.0
  0
LINE
  5
8E
330
39
100
AcDbEntity
  8
1
  6
Continuous
 62
     2
100
AcDbLine
 10
82.13583102122865
 20
199.3774710520818
 30
0.0
 11
82.13583102122865
 21
202.3774710520817
 31
0.0
  0
LINE
  5
8F
330
39
100
AcDbEntity
  8
1
  6
Continuous
 62
     2
100
AcDbLine
 10
81.63583102122865
 20
199.3774710520818
 30
0.0
 11
81.63583102122865
 21
202.3774710520817
 31
0.0
  0
LINE
  5
90
330
39
100
AcDbEntity
  8
1
  6
Continuous
 62
     2
100
AcDbLine
 10
81.13583102122865
 20
199.3774710520818
 30
0.0
 11
81.13583102122865
 21
202.3774710520817
 31
0.0
  0
LINE
  5
91
330
39
100
AcDbEntity
  8
1
  6
Continuous
 62
     2
100
AcDbLine
 10
80.13583102122865
 20
199.5435193645334
 30
0.0
 11
80.13583102122865
 21
202.1875446436296
 31
0.0
  0
LINE
  5
92
330
39
100
AcDbEntity
  8
1
  6
Continuous
 62
     2
100
AcDbLine
 10
80.63583102122865
 20
199.4830583782693
 30
0.0
 11
80.63583102122865
 21
202.2330588170598
 31
0.0
  0
LINE
  5
93
330
39
100
AcDbEntity
  8
1
  6
Continuous
 62
     2
100
AcDbLine
 10
79.63583102122865
 20
199.6319437523439
 30
0.0
 11
79.63583102122865
 21
202.1016893693466
 31
0.0
  0
LINE
  5
94
330
39
100
AcDbEntity
  8
1
  6
Continuous
 62
     2
100
AcDbLine
 10
79.13583102122865
 20
199.7381715323197
 30
0.0
 11
79.13583102122865
 21
202.0739975457544
 31
0.0
  0
LINE
  5
95
330
39
100
AcDbEntity
  8
1
  6
Continuous
 62
     7
100
AcDbLine
 10
81.13583102122865
 20
202.3774710520817
 30
0.0
 11
71.13583102122865
 21
202.3774710520817
 31
0.0
  0
LINE
  5
96
330
39
100
AcDbEntity
  8
1
  6
Continuous
 62
     7
100
AcDbLine
 10
76.13583102122865
 20
202.7072367722856
 30
0.0
 11
81.88583102122865
 21
202.7072367722856
 31
0.0
  0
LINE
  5
97
330
39
100
AcDbEntity
  8
1
  6
Continuous
 62
     7
100
AcDbLine
 10
81.63583102122865
 20
202.3774710520817
 30
0.0
 11
82.13583102122865
 21
202.3774710520817
 31
0.0
  0
LINE
  5
98
330
39
100
AcDbEntity
  8
1
  6
Continuous
 62
     7
100
AcDbLine
 10
82.63583102122865
 20
202.3774710520817
 30
0.0
 11
83.13583102122865
 21
202.3774710520817
 31
0.0
  0
LINE
  5
99
330
39
100
AcDbEntity
  8
1
  6
Continuous
 62
     7
100
AcDbLine
 10
82.13583102122885
 20
202.6467932511051
 30
0.0
 11
83.13583102122865
 21
202.3774710520817
 31
0.0
  0
LINE
  5
9A
330
39
100
AcDbEntity
  8
1
  6
Continuous
 62
     7
100
AcDbLine
 10
82.13583102122865
 20
202.3774710520817
 30
0.0
 11
82.63583102122865
 21
202.3774710520817
 31
0.0
  0
LINE
  5
9B
330
39
100
AcDbEntity
  8
1
  6
Continuous
 62
     7
100
AcDbLine
 10
81.13583102122865
 20
202.3774710520817
 30
0.0
 11
81.63583102122865
 21
202.3774710520817
 31
0.0
  0
LINE
  5
9C
330
39
100
AcDbEntity
  8
1
  6
Continuous
 62
     2
100
AcDbLine
 10
78.63583102122865
 20
199.9910202427593
 30
0.0
 11
78.63583102122865
 21
201.9090141793677
 31
0.0
  0
LINE
  5
9D
330
39
100
AcDbEntity
  8
1
  6
Continuous
 62
     7
100
AcDbLine
 10
70.38583102122865
 20
202.7072367722856
 30
0.0
 11
76.13583102122865
 21
202.7072367722856
 31
0.0
  0
LINE
  5
9E
330
39
100
AcDbEntity
  8
1
  6
Continuous
 62
     7
100
AcDbLine
 10
70.13583102122865
 20
202.3774710520817
 30
0.0
 11
70.63583102122865
 21
202.3774710520817
 31
0.0
  0
LINE
  5
9F
330
39
100
AcDbEntity
  8
1
  6
Continuous
 62
     7
100
AcDbLine
 10
69.13583102122865
 20
202.3774710520817
 30
0.0
 11
69.63583102122865
 21
202.3774710520817
 31
0.0
  0
LINE
  5
A0
330
39
100
AcDbEntity
  8
1
  6
Continuous
 62
     7
100
AcDbLine
 10
69.63583102122865
 20
202.3774710520817
 30
0.0
 11
70.13583102122865
 21
202.3774710520817
 31
0.0
  0
LINE
  5
A1
330
39
100
AcDbEntity
  8
1
  6
Continuous
 62
     7
100
AcDbLine
 10
70.63583102122865
 20
202.3774710520817
 30
0.0
 11
71.13583102122865
 21
202.3774710520817
 31
0.0
  0
LINE
  5
A2
330
39
100
AcDbEntity
  8
1
  6
Continuous
 62
     2
100
AcDbLine
 10
78.13583102122865
 20
200.0950338399277
 30
0.0
 11
78.13583102122865
 21
201.8631243639857
 31
0.0
  0
LINE
  5
A3
330
39
100
AcDbEntity
  8
1
  6
Continuous
 62
     2
100
AcDbLine
 10
77.63583102122865
 20
200.3150648804511
 30
0.0
 11
77.63583102122865
 21
201.6637912103037
 31
0.0
  0
LINE
  5
A4
330
39
100
AcDbEntity
  8
1
  6
Continuous
 62
     2
100
AcDbLine
 10
77.13583102122865
 20
200.3545700636427
 30
0.0
 11
77.13583102122865
 21
201.6198091542531
 31
0.0
  0
LINE
  5
A5
330
39
100
AcDbEntity
  8
1
  6
Continuous
 62
     2
100
AcDbLine
 10
75.13583102122865
 20
201.6198091542531
 30
0.0
 11
75.13583102122865
 21
200.3545700636427
 31
0.0
  0
LINE
  5
A6
330
39
100
AcDbEntity
  8
1
  6
Continuous
 62
     2
100
AcDbLine
 10
74.63583102122865
 20
201.6637912103037
 30
0.0
 11
74.63583102122865
 21
200.3150648804511
 31
0.0
  0
LINE
  5
A7
330
39
100
AcDbEntity
  8
1
  6
Continuous
 62
     2
100
AcDbLine
 10
74.13583102122865
 20
201.8631243639857
 30
0.0
 11
74.13583102122865
 21
200.0950338399277
 31
0.0
  0
LINE
  5
A8
330
39
100
AcDbEntity
  8
1
  6
Continuous
 62
     2
100
AcDbLine
 10
73.63583102122865
 20
201.9090141793677
 30
0.0
 11
73.63583102122865
 21
199.9910202427593
 31
0.0
  0
LINE
  5
A9
330
39
100
AcDbEntity
  8
1
  6
Continuous
 62
     2
100
AcDbLine
 10
73.13583102122865
 20
202.0739975457544
 30
0.0
 11
73.13583102122865
 21
199.7381715323197
 31
0.0
  0
LINE
  5
AA
330
39
100
AcDbEntity
  8
1
  6
Continuous
 62
     2
100
AcDbLine
 10
72.63583102122865
 20
202.1016893693466
 30
0.0
 11
72.63583102122865
 21
199.6319437523439
 31
0.0
  0
LINE
  5
AB
330
39
100
AcDbEntity
  8
1
  6
Continuous
 62
     2
100
AcDbLine
 10
72.13583102122865
 20
202.1875446436296
 30
0.0
 11
72.13583102122865
 21
199.5435193645334
 31
0.0
  0
LINE
  5
AC
330
39
100
AcDbEntity
  8
1
  6
Continuous
 62
     2
100
AcDbLine
 10
71.13583102122865
 20
202.3774710520817
 30
0.0
 11
71.13583102122865
 21
199.3774710520818
 31
0.0
  0
LINE
  5
AD
330
39
100
AcDbEntity
  8
1
  6
Continuous
 62
     2
100
AcDbLine
 10
71.63583102122865
 20
202.2330588170598
 30
0.0
 11
71.63583102122865
 21
199.4830583782693
 31
0.0
  0
LINE
  5
AE
330
39
100
AcDbEntity
  8
1
  6
Continuous
 62
     2
100
AcDbLine
 10
70.63583102122865
 20
202.3774710520817
 30
0.0
 11
70.63583102122865
 21
199.3774710520818
 31
0.0
  0
LINE
  5
AF
330
39
100
AcDbEntity
  8
1
  6
Continuous
 62
     2
100
AcDbLine
 10
69.63583102122865
 20
202.3774710520817
 30
0.0
 11
69.63583102122865
 21
199.3774710520818
 31
0.0
  0
LINE
  5
B0
330
39
100
AcDbEntity
  8
1
  6
Continuous
 62
     2
100
AcDbLine
 10
70.13583102122865
 20
202.3774710520817
 30
0.0
 11
70.13583102122865
 21
199.3774710520818
 31
0.0
  0
LINE
  5
B1
330
39
100
AcDbEntity
  8
1
  6
Continuous
 62
     7
100
AcDbLine
 10
69.13583102122865
 20
199.3774710520818
 30
0.0
 11
69.13583102122865
 21
202.3774710520817
 31
0.0
  0
LINE
  5
B2
330
39
100
AcDbEntity
  8
1
  6
Continuous
 62
     7
100
AcDbLine
 10
69.13583102122865
 20
202.3774710520817
 30
0.0
 11
70.13583102122865
 21
202.6467932511051
 31
0.0
  0
LINE
  5
B3
330
39
100
AcDbEntity
  8
1
  6
Continuous
 62
     7
100
AcDbLine
 10
70.63583102122865
 20
199.3774710520818
 30
0.0
 11
71.13583102122865
 21
199.3774710520818
 31
0.0
  0
LINE
  5
B4
330
39
100
AcDbEntity
  8
1
  6
Continuous
 62
     7
100
AcDbLine
 10
70.13583102122865
 20
199.3774710520818
 30
0.0
 11
70.63583102122865
 21
199.3774710520818
 31
0.0
  0
LINE
  5
B5
330
39
100
AcDbEntity
  8
1
  6
Continuous
 62
     7
100
AcDbLine
 10
69.63583102122865
 20
199.3774710520818
 30
0.0
 11
70.13583102122865
 21
199.3774710520818
 31
0.0
  0
LINE
  5
B6
330
39
100
AcDbEntity
  8
1
  6
Continuous
 62
     7
100
AcDbLine
 10
69.13583102122865
 20
199.3774710520818
 30
0.0
 11
69.63583102122865
 21
199.3774710520818
 31
0.0
  0
LINE
  5
B7
330
39
100
AcDbEntity
  8
1
  6
Continuous
 62
     7
100
AcDbLine
 10
81.13583102122865
 20
199.3774710520818
 30
0.0
 11
71.13583102122865
 21
199.3774710520818
 31
0.0
  0
LINE
  5
B8
330
39
100
AcDbEntity
  8
1
  6
Continuous
 62
     7
100
AcDbLine
 10
81.13583102122865
 20
199.3774710520818
 30
0.0
 11
81.63583102122865
 21
199.3774710520818
 31
0.0
  0
LINE
  5
B9
330
39
100
AcDbEntity
  8
1
  6
Continuous
 62
     7
100
AcDbLine
 10
81.63583102122865
 20
199.3774710520818
 30
0.0
 11
82.13583102122865
 21
199.3774710520818
 31
0.0
  0
LINE
  5
BA
330
39
100
AcDbEntity
  8
1
  6
Continuous
 62
     7
100
AcDbLine
 10
82.13583102122865
 20
199.3774710520818
 30
0.0
 11
82.63583102122865
 21
199.3774710520818
 31
0.0
  0
LINE
  5
BB
330
39
100
AcDbEntity
  8
1
  6
Continuous
 62
     7
100
AcDbLine
 10
82.63583102122865
 20
199.3774710520818
 30
0.0
 11
83.13583102122865
 21
199.3774710520818
 31
0.0
  0
LINE
  5
BC
330
39
100
AcDbEntity
  8
1
  6
Continuous
 62
     7
100
AcDbLine
 10
72.13583102122865
 20
199.3774710520818
 30
0.0
 11
80.13583102122865
 21
199.3774710520818
 31
0.0
  0
LINE
  5
BD
330
39
100
AcDbEntity
  8
1
  6
Continuous
 62
     7
100
AcDbLine
 10
206.0677307778072
 20
202.7051076488592
 30
0.0
 11
211.8177307778072
 21
202.7051076488592
 31
0.0
  0
LINE
  5
BE
330
39
100
AcDbEntity
  8
1
  6
Continuous
 62
     7
100
AcDbLine
 10
211.5677307778072
 20
202.3753419286555
 30
0.0
 11
212.0677307778072
 21
202.3753419286555
 31
0.0
  0
LINE
  5
BF
330
39
100
AcDbEntity
  8
1
  6
Continuous
 62
     2
100
AcDbLine
 10
212.0677307778072
 20
199.3753419286555
 30
0.0
 11
212.0677307778072
 21
202.3753419286555
 31
0.0
  0
LINE
  5
C0
330
39
100
AcDbEntity
  8
1
  6
Continuous
 62
     7
100
AcDbLine
 10
212.5677307778072
 20
202.3753419286555
 30
0.0
 11
213.0677307778072
 21
202.3753419286555
 31
0.0
  0
LINE
  5
C1
330
39
100
AcDbEntity
  8
1
  6
Continuous
 62
     7
100
AcDbLine
 10
212.0677307778073
 20
202.6446641276787
 30
0.0
 11
213.0677307778072
 21
202.3753419286555
 31
0.0
  0
LINE
  5
C2
330
39
100
AcDbEntity
  8
1
  6
Continuous
 62
     7
100
AcDbLine
 10
213.0677307778072
 20
202.3753419286555
 30
0.0
 11
213.0677307778072
 21
199.3753419286555
 31
0.0
  0
LINE
  5
C3
330
39
100
AcDbEntity
  8
1
  6
Continuous
 62
     2
100
AcDbLine
 10
212.5677307778072
 20
199.3753419286555
 30
0.0
 11
212.5677307778072
 21
202.3753419286555
 31
0.0
  0
LINE
  5
C4
330
39
100
AcDbEntity
  8
1
  6
Continuous
 62
     7
100
AcDbLine
 10
212.0677307778072
 20
202.3753419286555
 30
0.0
 11
212.5677307778072
 21
202.3753419286555
 31
0.0
  0
LINE
  5
C5
330
39
100
AcDbEntity
  8
1
  6
Continuous
 62
     2
100
AcDbLine
 10
211.5677307778072
 20
199.3753419286555
 30
0.0
 11
211.5677307778072
 21
202.3753419286555
 31
0.0
  0
LINE
  5
C6
330
39
100
AcDbEntity
  8
1
  6
Continuous
 62
     7
100
AcDbLine
 10
211.0677307778072
 20
202.3753419286555
 30
0.0
 11
211.5677307778072
 21
202.3753419286555
 31
0.0
  0
LINE
  5
C7
330
39
100
AcDbEntity
  8
1
  6
Continuous
 62
     7
100
AcDbLine
 10
200.3177307778072
 20
202.7051076488592
 30
0.0
 11
206.0677307778072
 21
202.7051076488592
 31
0.0
  0
LINE
  5
C8
330
39
100
AcDbEntity
  8
1
  6
Continuous
 62
     2
100
AcDbLine
 10
205.0677307778072
 20
201.6176800308267
 30
0.0
 11
205.0677307778072
 21
200.3524409402162
 31
0.0
  0
LINE
  5
C9
330
39
100
AcDbEntity
  8
1
  6
Continuous
 62
     2
100
AcDbLine
 10
204.0677307778072
 20
201.8609952405594
 30
0.0
 11
204.0677307778072
 21
200.0929047165013
 31
0.0
  0
LINE
  5
CA
330
39
100
AcDbEntity
  8
1
  6
Continuous
 62
     7
100
AcDbLine
 10
200.0677307778072
 20
202.3753419286555
 30
0.0
 11
200.5677307778072
 21
202.3753419286555
 31
0.0
  0
LINE
  5
CB
330
39
100
AcDbEntity
  8
1
  6
Continuous
 62
     7
100
AcDbLine
 10
199.0677307778072
 20
202.3753419286555
 30
0.0
 11
199.5677307778072
 21
202.3753419286555
 31
0.0
  0
LINE
  5
CC
330
39
100
AcDbEntity
  8
1
  6
Continuous
 62
     7
100
AcDbLine
 10
199.0677307778072
 20
202.3753419286555
 30
0.0
 11
200.0677307778071
 21
202.6446641276787
 31
0.0
  0
LINE
  5
CD
330
39
100
AcDbEntity
  8
1
  6
Continuous
 62
     7
100
AcDbLine
 10
199.5677307778072
 20
202.3753419286555
 30
0.0
 11
200.0677307778072
 21
202.3753419286555
 31
0.0
  0
LINE
  5
CE
330
39
100
AcDbEntity
  8
1
  6
Continuous
 62
     7
100
AcDbLine
 10
200.5677307778072
 20
202.3753419286555
 30
0.0
 11
201.0677307778072
 21
202.3753419286555
 31
0.0
  0
LINE
  5
CF
330
39
100
AcDbEntity
  8
1
  6
Continuous
 62
     2
100
AcDbLine
 10
203.5677307778072
 20
201.9068850559414
 30
0.0
 11
203.5677307778072
 21
199.9888911193328
 31
0.0
  0
LINE
  5
D0
330
39
100
AcDbEntity
  8
1
  6
Continuous
 62
     2
100
AcDbLine
 10
204.5677307778072
 20
201.6616620868772
 30
0.0
 11
204.5677307778072
 21
200.3129357570247
 31
0.0
  0
LINE
  5
D1
330
39
100
AcDbEntity
  8
1
  6
Continuous
 62
     7
100
AcDbLine
 10
201.0677307778072
 20
202.3753419286555
 30
0.0
 11
211.0677307778072
 21
202.3753419286555
 31
0.0
  0
LINE
  5
D2
330
39
100
AcDbEntity
  8
1
  6
Continuous
 62
     2
100
AcDbLine
 10
207.0677307778072
 20
200.3524409402162
 30
0.0
 11
207.0677307778072
 21
201.6176800308267
 31
0.0
  0
LINE
  5
D3
330
39
100
AcDbEntity
  8
1
  6
Continuous
 62
     2
100
AcDbLine
 10
208.0677307778072
 20
200.0929047165013
 30
0.0
 11
208.0677307778072
 21
201.8609952405594
 31
0.0
  0
LINE
  5
D4
330
39
100
AcDbEntity
  8
1
  6
Continuous
 62
     2
100
AcDbLine
 10
208.5677307778072
 20
199.9888911193328
 30
0.0
 11
208.5677307778072
 21
201.9068850559414
 31
0.0
  0
LINE
  5
D5
330
39
100
AcDbEntity
  8
1
  6
Continuous
 62
     2
100
AcDbLine
 10
207.5677307778072
 20
200.3129357570247
 30
0.0
 11
207.5677307778072
 21
201.6616620868772
 31
0.0
  0
LINE
  5
D6
330
39
100
AcDbEntity
  8
1
  6
Continuous
 62
     2
100
AcDbLine
 10
209.0677307778072
 20
199.7360424088932
 30
0.0
 11
209.0677307778072
 21
202.0718684223278
 31
0.0
  0
LINE
  5
D7
330
39
100
AcDbEntity
  8
1
  6
Continuous
 62
     2
100
AcDbLine
 10
209.5677307778072
 20
199.6298146289175
 30
0.0
 11
209.5677307778072
 21
202.0995602459203
 31
0.0
  0
LINE
  5
D8
330
39
100
AcDbEntity
  8
1
  6
Continuous
 62
     2
100
AcDbLine
 10
210.0677307778072
 20
199.541390241107
 30
0.0
 11
210.0677307778072
 21
202.1854155202032
 31
0.0
  0
LINE
  5
D9
330
39
100
AcDbEntity
  8
1
  6
Continuous
 62
     2
100
AcDbLine
 10
210.5677307778072
 20
199.4809292548429
 30
0.0
 11
210.5677307778072
 21
202.2309296936332
 31
0.0
  0
LINE
  5
DA
330
39
100
AcDbEntity
  8
1
  6
Continuous
 62
     2
100
AcDbLine
 10
211.0677307778072
 20
199.3753419286555
 30
0.0
 11
211.0677307778072
 21
202.3753419286555
 31
0.0
  0
LINE
  5
DB
330
39
100
AcDbEntity
  8
1
  6
Continuous
 62
     7
100
AcDbLine
 10
213.0677307778072
 20
199.3753419286555
 30
0.0
 11
208.3677307778072
 21
199.3753419286555
 31
0.0
  0
LINE
  5
DC
330
39
100
AcDbEntity
  8
1
  6
Continuous
 62
     7
100
AcDbLine
 10
208.3677307778072
 20
199.3753419286555
 30
0.0
 11
199.0677307778072
 21
199.3753419286555
 31
0.0
  0
LINE
  5
DD
330
39
100
AcDbEntity
  8
1
  6
Continuous
 62
     2
100
AcDbLine
 10
203.0677307778072
 20
202.0718684223278
 30
0.0
 11
203.0677307778072
 21
199.7360424088932
 31
0.0
  0
LINE
  5
DE
330
39
100
AcDbEntity
  8
1
  6
Continuous
 62
     2
100
AcDbLine
 10
202.5677307778072
 20
202.0995602459203
 30
0.0
 11
202.5677307778072
 21
199.6298146289175
 31
0.0
  0
LINE
  5
DF
330
39
100
AcDbEntity
  8
1
  6
Continuous
 62
     2
100
AcDbLine
 10
202.0677307778072
 20
202.1854155202032
 30
0.0
 11
202.0677307778072
 21
199.541390241107
 31
0.0
  0
LINE
  5
E0
330
39
100
AcDbEntity
  8
1
  6
Continuous
 62
     2
100
AcDbLine
 10
201.5677307778072
 20
202.2309296936332
 30
0.0
 11
201.5677307778072
 21
199.4809292548429
 31
0.0
  0
LINE
  5
E1
330
39
100
AcDbEntity
  8
1
  6
Continuous
 62
     2
100
AcDbLine
 10
201.0677307778072
 20
202.3753419286555
 30
0.0
 11
201.0677307778072
 21
199.3753419286555
 31
0.0
  0
LINE
  5
E2
330
39
100
AcDbEntity
  8
1
  6
Continuous
 62
     2
100
AcDbLine
 10
200.5677307778072
 20
202.3753419286555
 30
0.0
 11
200.5677307778072
 21
199.3753419286555
 31
0.0
  0
LINE
  5
E3
330
39
100
AcDbEntity
  8
1
  6
Continuous
 62
     2
100
AcDbLine
 10
200.0677307778072
 20
202.3753419286555
 30
0.0
 11
200.0677307778072
 21
199.3753419286555
 31
0.0
  0
LINE
  5
E4
330
39
100
AcDbEntity
  8
1
  6
Continuous
 62
     2
100
AcDbLine
 10
199.5677307778072
 20
202.3753419286555
 30
0.0
 11
199.5677307778072
 21
199.3753419286555
 31
0.0
  0
LINE
  5
E5
330
39
100
AcDbEntity
  8
1
  6
Continuous
 62
     7
100
AcDbLine
 10
199.0677307778072
 20
199.3753419286555
 30
0.0
 11
199.0677307778072
 21
202.3753419286555
 31
0.0
  0
ARC
  5
E6
330
39
100
AcDbEntity
  8
1
  6
Continuous
 62
     7
100
AcDbCircle
 10
76.13583102122865
 20
178.3774710520818
 30
0.0
 40
25.00000000000008
100
AcDbArc
 50
76.70292825279098
 51
90.0
  0
ARC
  5
E7
330
39
100
AcDbEntity
  8
1
  6
Continuous
 62
     7
100
AcDbCircle
 10
76.13583102122865
 20
178.3774710520818
 30
0.0
 40
24.99999999999989
100
AcDbArc
 50
90.0
 51
103.297071747209
  0
ARC
  5
E8
330
39
100
AcDbEntity
  8
1
  6
Continuous
 62
     7
100
AcDbCircle
 10
76.13583102122865
 20
178.3774710520818
 30
0.0
 40
25.00000000000014
100
AcDbArc
 50
76.11345963737062
 51
76.70292825279098
  0
ARC
  5
E9
330
39
100
AcDbEntity
  8
1
  6
Continuous
 62
     7
100
AcDbCircle
 10
76.13583102122865
 20
178.3774710520818
 30
0.0
 40
25.00000000000008
100
AcDbArc
 50
103.297071747209
 51
103.8865403626289
  0
ARC
  5
EA
330
39
100
AcDbEntity
  8
1
  6
Continuous
 62
     7
100
AcDbCircle
 10
206.0677307778072
 20
178.3753419286555
 30
0.0
 40
24.99999999999999
100
AcDbArc
 50
76.70292825279094
 51
90.0
  0
ARC
  5
EB
330
39
100
AcDbEntity
  8
1
  6
Continuous
 62
     7
100
AcDbCircle
 10
206.0677307778072
 20
178.3753419286555
 30
0.0
 40
25.0
100
AcDbArc
 50
90.0
 51
103.2970717472091
  0
ARC
  5
EC
330
39
100
AcDbEntity
  8
1
  6
Continuous
 62
     7
100
AcDbCircle
 10
206.0677307778072
 20
178.3753419286555
 30
0.0
 40
25.00000000000004
100
AcDbArc
 50
76.11345963737082
 51
76.70292825279094
  0
ARC
  5
ED
330
39
100
AcDbEntity
  8
1
  6
Continuous
 62
     7
100
AcDbCircle
 10
206.0677307778072
 20
178.3753419286555
 30
0.0
 40
24.99999999999999
100
AcDbArc
 50
103.2970717472091
 51
103.8865403626293
  0
CIRCLE
  5
EE
330
39
100
AcDbEntity
  8
1
  6
Continuous
 62
     7
100
AcDbCircle
 10
76.13583102122865
 20
331.2515055386111
 30
0.0
 40
5.749999999999886
  0
CIRCLE
  5
EF
330
39
100
AcDbEntity
  8
1
  6
Continuous
 62
     7
100
AcDbCircle
 10
76.13583102122865
 20
331.2515055386111
 30
0.0
 40
6.999999999999886
  0
ENDBLK
  5
3B
330
39
100
AcDbEntity
  8
0
100
AcDbBlockEnd
  0
BLOCK
  5
3F
330
3C
100
AcDbEntity
  8
0
100
AcDbBlockBegin
  2
R20F
 70
     0
 71
     0
 10
199.0677307778072
 20
187.3753419286555
 30
0.0
  3
R20F
  1

  0
INSERT
  5
3D
330
3C
100
AcDbEntity
  8
0
100
AcDbBlockReference
  2
21-1A
 10
321.5101516979425
 20
134.8152462036642
 30
0.0
  0
INSERT
  5
3E
330
3C
100
AcDbEntity
  8
1
100
AcDbBlockReference
  2
42-1
 10
316.3731696150755
 20
150.8527729496773
 30
0.0
  0
ENDBLK
  5
40
330
3C
100
AcDbEntity
  8
0
100
AcDbBlockEnd
  0
BLOCK
  5
42
330
41
100
AcDbEntity
  8
0
100
AcDbBlockBegin
  2
37-1-13
 70
     0
 71
     0
 10
399.4362435232505
 20
143.9613828218052
 30
0.0
  3
37-1-13
  1

  0
LINE
  5
F0
330
41
100
AcDbEntity
  8
0
  6
Continuous
 62
     7
100
AcDbLine
 10
63.13583102122865
 20
178.375747431112
 30
0.0
 11
89.13583102122865
 21
178.375747431112
 31
0.0
  0
LINE
  5
F1
330
41
100
AcDbEntity
  8
1
  6
Continuous
 62
     7
100
AcDbLine
 10
206.0677307778072
 20
178.8050332168404
 30
0.0
 11
218.5677307778071
 21
178.8050332168405
 31
0.0
  0
LINE
  5
F2
330
41
100
AcDbEntity
  8
1
  6
Continuous
 62
     7
100
AcDbLine
 10
212.0677307778072
 20
185.3050332168404
 30
0.0
 11
200.0677307778073
 21
185.3050332168404
 31
0.0
  0
LINE
  5
F3
330
41
100
AcDbEntity
  8
1
  6
Continuous
 62
     7
100
AcDbLine
 10
219.1384449920787
 20
171.3050332168404
 30
0.0
 11
192.9970165635359
 21
171.3050332168404
 31
0.0
  0
LINE
  5
F4
330
41
100
AcDbEntity
  8
1
  6
Continuous
 62
     7
100
AcDbLine
 10
193.5677307778074
 20
178.8050332168405
 30
0.0
 11
206.0677307778072
 21
178.8050332168404
 31
0.0
  0
LINE
  5
F5
330
41
100
AcDbEntity
  8
1
  6
Continuous
 62
     7
100
AcDbLine
 10
63.13583102122865
 20
171.3050332168405
 30
0.0
 11
63.13583102122865
 21
178.375747431112
 31
0.0
  0
LINE
  5
F6
330
41
100
AcDbEntity
  8
1
  6
Continuous
 62
     7
100
AcDbLine
 10
89.13583102122865
 20
178.375747431112
 30
0.0
 11
89.13583102122865
 21
171.3050332168405
 31
0.0
  0
LINE
  5
F7
330
41
100
AcDbEntity
  8
1
  6
Continuous
 62
     7
100
AcDbLine
 10
76.13583102122865
 20
171.3050332168405
 30
0.0
 11
63.13583102122865
 21
171.3050332168405
 31
0.0
  0
LINE
  5
F8
330
41
100
AcDbEntity
  8
1
  6
Continuous
 62
     7
100
AcDbLine
 10
76.13583102122865
 20
171.3050332168405
 30
0.0
 11
89.13583102122865
 21
171.3050332168405
 31
0.0
  0
LINE
  5
F9
330
41
100
AcDbEntity
  8
1
  6
Continuous
 62
     7
100
AcDbLine
 10
71.13583102122865
 20
185.3050332168405
 30
0.0
 11
70.13583102122865
 21
185.3050332168405
 31
0.0
  0
LINE
  5
FA
330
41
100
AcDbEntity
  8
1
  6
Continuous
 62
     7
100
AcDbLine
 10
76.13583102122865
 20
185.3050332168405
 30
0.0
 11
82.13583102122865
 21
185.3050332168405
 31
0.0
  0
LINE
  5
FB
330
41
100
AcDbEntity
  8
1
  6
Continuous
 62
     7
100
AcDbLine
 10
76.13583102122865
 20
185.3050332168405
 30
0.0
 11
71.13583102122865
 21
185.3050332168405
 31
0.0
  0
LINE
  5
FC
330
41
100
AcDbEntity
  8
1
  6
Continuous
 62
     7
100
AcDbLine
 10
65.11146185695014
 20
322.605321044323
 30
0.0
 11
64.07368215590705
 21
323.2044834340798
 31
0.0
  0
LINE
  5
FD
330
41
100
AcDbEntity
  8
1
  6
Continuous
 62
     7
100
AcDbLine
 10
89.13583102122877
 20
326.0272140287922
 30
0.0
 11
89.13583102122877
 21
324.8288892492785
 31
0.0
  0
LINE
  5
FE
330
41
100
AcDbEntity
  8
1
  6
Continuous
 62
     7
100
AcDbLine
 10
74.16020018550736
 20
345.1219815427183
 30
0.0
 11
75.19797988655046
 21
345.7211439324751
 31
0.0
  0
LINE
  5
FF
330
41
100
AcDbEntity
  8
1
  6
Continuous
 62
     7
100
AcDbLine
 10
88.19797988655046
 20
323.2044834340798
 30
0.0
 11
87.16020018550736
 21
322.605321044323
 31
0.0
  0
LINE
  5
100
330
41
100
AcDbEntity
  8
1
  6
Continuous
 62
     7
100
AcDbLine
 10
77.07368215590697
 20
345.7211439324751
 30
0.0
 11
78.11146185695014
 21
345.1219815427183
 31
0.0
  0
LINE
  5
101
330
41
100
AcDbEntity
  8
1
  6
Continuous
 62
     7
100
AcDbLine
 10
63.13583102122877
 20
324.8288892492785
 30
0.0
 11
63.13583102122877
 21
326.0272140287922
 31
0.0
  0
ARC
  5
102
330
41
100
AcDbEntity
  8
1
  6
Continuous
 62
     7
100
AcDbCircle
 10
215.5677307778072
 20
174.8050332168404
 30
0.0
 40
5.000000000000036
100
AcDbArc
 50
-44.4270040008053
 51
53.13010235415781
  0
ARC
  5
103
330
41
100
AcDbEntity
  8
1
  6
Continuous
 62
     7
100
AcDbCircle
 10
231.9741859829221
 20
198.7114884219553
 30
0.0
 40
23.99999999999996
100
AcDbArc
 50
-146.0408074999025
 51
-123.9591925000979
  0
ARC
  5
104
330
41
100
AcDbEntity
  8
1
  6
Continuous
 62
     7
100
AcDbCircle
 10
196.5677307778072
 20
174.8050332168404
 30
0.0
 40
4.999999999999972
100
AcDbArc
 50
126.8698976458414
 51
-135.5729959991934
  0
ARC
  5
105
330
41
100
AcDbEntity
  8
1
  6
Continuous
 62
     7
100
AcDbCircle
 10
180.1612755726924
 20
198.7114884219553
 30
0.0
 40
23.99999999999993
100
AcDbArc
 50
-56.04080749990214
 51
-33.95919250009748
  0
ARC
  5
106
330
41
100
AcDbEntity
  8
1
  6
Continuous
 62
     7
100
AcDbCircle
 10
66.63583102122865
 20
174.8050332168405
 30
0.0
 40
4.999999999999949
100
AcDbArc
 50
126.8698976458416
 51
134.4270040008054
  0
ARC
  5
107
330
41
100
AcDbEntity
  8
1
  6
Continuous
 62
     7
100
AcDbCircle
 10
50.22937581611396
 20
198.7114884219553
 30
0.0
 40
23.9999999999998
100
AcDbArc
 50
-56.04080749990226
 51
-33.95919250009752
  0
ARC
  5
108
330
41
100
AcDbEntity
  8
1
  6
Continuous
 62
     7
100
AcDbCircle
 10
85.63583102122865
 20
174.8050332168405
 30
0.0
 40
5.000000000000036
100
AcDbArc
 50
45.57299599919471
 51
53.13010235415657
  0
ARC
  5
109
330
41
100
AcDbEntity
  8
1
  6
Continuous
 62
     7
100
AcDbCircle
 10
102.0422862263437
 20
198.7114884219553
 30
0.0
 40
24.00000000000003
100
AcDbArc
 50
-146.040807499903
 51
-123.9591925000981
  0
ARC
  5
10A
330
41
100
AcDbEntity
  8
1
  6
Continuous
 62
     7
100
AcDbCircle
 10
76.13583102122877
 20
331.2515055386111
 30
0.0
 40
14.5
100
AcDbArc
 50
86.29155527472959
 51
90.0
  0
ARC
  5
10B
330
41
100
AcDbEntity
  8
1
  6
Continuous
 62
     7
100
AcDbCircle
 10
76.13583102122877
 20
331.2515055386111
 30
0.0
 40
14.4999999999999
100
AcDbArc
 50
-33.70844472527044
 51
-26.29155527472953
  0
ARC
  5
10C
330
41
100
AcDbEntity
  8
1
  6
Continuous
 62
     7
100
AcDbCircle
 10
76.13583102122877
 20
331.2515055386111
 30
0.0
 40
14.5
100
AcDbArc
 50
90.0
 51
93.70844472527087
  0
ARC
  5
10D
330
41
100
AcDbEntity
  8
1
  6
Continuous
 62
     7
100
AcDbCircle
 10
76.13583102122877
 20
331.2515055386111
 30
0.0
 40
14.50000000000002
100
AcDbArc
 50
-153.7084447252705
 51
-146.2915552747296
  0
SPLINE
  5
10E
330
41
100
AcDbEntity
  8
1
  6
Continuous
 62
     7
100
AcDbSpline
210
0.0
220
0.0
230
1.0
 70
    11
 71
     3
 72
    79
 73
    75
 74
    73
 42
0.0000000001
 43
0.0000000001
 44
0.00000001
 40
0.0
 40
0.0
 40
0.0
 40
0.0
 40
0.3102615659795209
 40
0.6205595479396787
 40
0.9422163027419561
 40
1.263944877610443
 40
1.606039025452172
 40
1.948193473341441
 40
2.316051889495104
 40
2.683951052454335
 40
3.079084668228915
 40
3.474244784278629
 40
3.894897963282799
 40
4.315568211551521
 40
4.757452130783322
 40
5.199346678283725
 40
5.656354166028227
 40
6.113367482701115
 40
6.578223041780162
 40
7.043080459895581
 40
7.507937878010915
 40
7.972793437089848
 40
8.429806753762719
 40
8.88681424150724
 40
9.32870878900761
 40
9.770592708239361
 40
10.19126295650815
 40
10.61191613551236
 40
11.00707625156205
 40
11.40220986733665
 40
11.77010903029592
 40
12.13796744644961
 40
12.48012189433875
 40
12.82221604218044
 40
13.14394461704896
 40
13.46560137185127
 40
13.77589935381139
 40
14.08616091979094
 40
14.39642248577037
 40
14.70672046773041
 40
15.02837722253269
 40
15.35010579740113
 40
15.69219994524285
 40
16.03435439313206
 40
16.40221280928575
 40
16.77011197224508
 40
17.16524558801966
 40
17.56040570406937
 40
17.98105888307358
 40
18.40172913134236
 40
18.84361305057408
 40
19.28550759807443
 40
19.74251508581895
 40
20.19952840249182
 40
20.66438396157075
 40
21.12924137968608
 40
21.59409879780153
 40
22.05895435688054
 40
22.51596767355336
 40
22.97297516129782
 40
23.41486970879827
 40
23.85675362803007
 40
24.27742387629878
 40
24.69807705530296
 40
25.09323717135271
 40
25.48837078712726
 40
25.8562699500865
 40
26.22412836624021
 40
26.56628281412954
 40
26.9083769619713
 40
27.23010553683973
 40
27.55176229164195
 40
27.86206027360205
 40
28.17232183958143
 40
28.17232183958143
 40
28.17232183958143
 40
28.17232183958143
 10
77.07368215590705
 20
174.8403903239761
 30
0.0
 10
77.07771534772385
 20
174.9438805084848
 30
0.0
 10
77.08578220474075
 20
175.1508730243388
 30
0.0
 10
77.14976618269651
 20
175.4597218936309
 30
0.0
 10
77.25118697964567
 20
175.7616888062825
 30
0.0
 10
77.39360947980947
 20
176.0585984618339
 30
0.0
 10
77.57271205272963
 20
176.3429165698055
 30
0.0
 10
77.79068232067627
 20
176.6184176157886
 30
0.0
 10
78.04096447478359
 20
176.8770236362054
 30
0.0
 10
78.32742663660839
 20
177.1227815256071
 30
0.0
 10
78.64125738893577
 20
177.3484267856304
 30
0.0
 10
78.98717155399815
 20
177.5571984533752
 30
0.0
 10
79.35529034617214
 20
177.7434192215314
 30
0.0
 10
79.7499842811074
 20
177.9091037517828
 30
0.0
 10
80.16153748109358
 20
178.050411524556
 30
0.0
 10
80.59296318069949
 20
178.1681910130669
 30
0.0
 10
81.03573720941947
 20
178.260309314653
 30
0.0
 10
81.49079520802151
 20
178.3267952420005
 30
0.0
 10
81.95156231010996
 20
178.3668527988698
 30
0.0
 10
82.41648448554787
 20
178.3801947561259
 30
0.0
 10
82.88140666098184
 20
178.3668527988698
 30
0.0
 10
83.34217376308179
 20
178.3267952420004
 30
0.0
 10
83.79723176164205
 20
178.2603093146531
 30
0.0
 10
84.24000579051548
 20
178.1681910130669
 30
0.0
 10
84.67143148956663
 20
178.0504115245559
 30
0.0
 10
85.08298469157553
 20
177.9091037517828
 30
0.0
 10
85.47767861930868
 20
177.7434192215314
 30
0.0
 10
85.845797437542
 20
177.5571984533753
 30
0.0
 10
86.1917115109767
 20
177.3484267856304
 30
0.0
 10
86.50554259292606
 20
177.1227815256071
 30
0.0
 10
86.79200360541027
 20
176.8770236362054
 30
0.0
 10
87.04228988449353
 20
176.6184176157887
 30
0.0
 10
87.26024578250967
 20
176.3429165698054
 30
0.0
 10
87.43940009625635
 20
176.0585984618338
 30
0.0
 10
87.58164044764997
 20
175.7616888062825
 30
0.0
 10
87.68372409969417
 20
175.459721893631
 30
0.0
 10
87.74531733962445
 20
175.1508730243389
 30
0.0
 10
87.76627114308671
 20
174.8403903239762
 30
0.0
 10
87.74531733962439
 20
174.5299076236135
 30
0.0
 10
87.6837240996942
 20
174.2210587543214
 30
0.0
 10
87.58164044764997
 20
173.9190918416701
 30
0.0
 10
87.43940009625631
 20
173.6221821861186
 30
0.0
 10
87.26024578250967
 20
173.337864078147
 30
0.0
 10
87.04228988449356
 20
173.0623630321637
 30
0.0
 10
86.79200360541026
 20
172.803757011747
 30
0.0
 10
86.50554259292613
 20
172.5579991223452
 30
0.0
 10
86.19171151097665
 20
172.332353862322
 30
0.0
 10
85.84579743754199
 20
172.123582194577
 30
0.0
 10
85.47767861930871
 20
171.9373614264209
 30
0.0
 10
85.08298469157555
 20
171.7716768961695
 30
0.0
 10
84.67143148956662
 20
171.6303691233965
 30
0.0
 10
84.24000579051548
 20
171.5125896348857
 30
0.0
 10
83.79723176164202
 20
171.4204713332994
 30
0.0
 10
83.34217376308183
 20
171.3539854059521
 30
0.0
 10
82.88140666098184
 20
171.3139278490828
 30
0.0
 10
82.41648448554783
 20
171.3005858918268
 30
0.0
 10
81.95156231010995
 20
171.3139278490827
 30
0.0
 10
81.49079520802151
 20
171.353985405952
 30
0.0
 10
81.03573720941952
 20
171.4204713332995
 30
0.0
 10
80.59296318069961
 20
171.5125896348857
 30
0.0
 10
80.16153748109365
 20
171.6303691233965
 30
0.0
 10
79.74998428110743
 20
171.7716768961695
 30
0.0
 10
79.35529034617213
 20
171.9373614264208
 30
0.0
 10
78.98717155399815
 20
172.1235821945771
 30
0.0
 10
78.64125738893583
 20
172.332353862322
 30
0.0
 10
78.32742663660832
 20
172.5579991223451
 30
0.0
 10
78.04096447478361
 20
172.803757011747
 30
0.0
 10
77.79068232067625
 20
173.0623630321637
 30
0.0
 10
77.57271205272969
 20
173.3378640781471
 30
0.0
 10
77.39360947980947
 20
173.6221821861185
 30
0.0
 10
77.2511869796457
 20
173.9190918416701
 30
0.0
 10
77.14976618269651
 20
174.2210587543214
 30
0.0
 10
77.08578220474075
 20
174.5299076236135
 30
0.0
 10
77.07771534772387
 20
174.7369001394675
 30
0.0
 10
77.07368215590705
 20
174.8403903239761
 30
0.0
 11
77.07368215590705
 21
174.8403903239761
 31
0.0
 11
77.09429924910786
 21
175.1499661221129
 31
0.0
 11
77.15485132850594
 21
175.4542986430322
 31
0.0
 11
77.25731821713777
 21
175.7591979782956
 31
0.0
 11
77.39589256206656
 21
176.0495536684662
 31
0.0
 11
77.57768460642389
 21
176.3393467991576
 31
0.0
 11
77.78948194068016
 21
176.6080688775441
 31
0.0
 11
78.04483845095399
 21
176.872857221313
 31
0.0
 11
78.32366045024315
 21
177.1128740682602
 31
0.0
 11
78.64415237786812
 21
177.3439920005855
 31
0.0
 11
78.98219734705006
 21
177.5486309903387
 31
0.0
 11
79.35736107089423
 21
177.7388973229299
 31
0.0
 11
79.74508332072705
 21
177.9020993902055
 31
0.0
 11
80.16291964518834
 21
178.0458846607875
 31
0.0
 11
80.58913846700284
 21
178.1625393093946
 31
0.0
 11
81.03652843309281
 21
178.2558027110941
 31
0.0
 11
81.48871659737054
 21
178.3220374127503
 31
0.0
 11
81.95181981058295
 21
178.362362401517
 31
0.0
 11
82.41648448554724
 21
178.375747431112
 31
0.0
 11
82.88114916051146
 21
178.362362401517
 31
0.0
 11
83.34425237372375
 21
178.3220374127503
 31
0.0
 11
83.79644053800146
 21
178.2558027110941
 31
0.0
 11
84.24383050409145
 21
178.1625393093946
 31
0.0
 11
84.67004932590591
 21
178.0458846607875
 31
0.0
 11
85.08788565036716
 21
177.9020993902055
 31
0.0
 11
85.47560790020003
 21
177.7388973229298
 31
0.0
 11
85.85077162404426
 21
177.5486309903387
 31
0.0
 11
86.18881659322616
 21
177.3439920005855
 31
0.0
 11
86.50930852085116
 21
177.1128740682602
 31
0.0
 11
86.7881305201404
 21
176.872857221313
 31
0.0
 11
87.04348703041424
 21
176.6080688775441
 31
0.0
 11
87.25528436467035
 21
176.3393467991577
 31
0.0
 11
87.43707640902755
 21
176.0495536684662
 31
0.0
 11
87.57565075395644
 21
175.7591979782956
 31
0.0
 11
87.67811764258835
 21
175.4542986430322
 31
0.0
 11
87.73866972198638
 21
175.1499661221129
 31
0.0
 11
87.75928681518715
 21
174.8403903239761
 31
0.0
 11
87.73866972198638
 21
174.5308145258394
 31
0.0
 11
87.67811764258835
 21
174.2264820049202
 31
0.0
 11
87.57565075395642
 21
173.9215826696569
 31
0.0
 11
87.43707640902755
 21
173.6312269794863
 31
0.0
 11
87.25528436467035
 21
173.3414338487948
 31
0.0
 11
87.04348703041424
 21
173.0727117704083
 31
0.0
 11
86.7881305201404
 21
172.8079234266394
 31
0.0
 11
86.50930852085116
 21
172.5679065796921
 31
0.0
 11
86.18881659322616
 21
172.3367886473668
 31
0.0
 11
85.85077162404426
 21
172.1321496576136
 31
0.0
 11
85.47560790020005
 21
171.9418833250225
 31
0.0
 11
85.08788565036716
 21
171.7786812577468
 31
0.0
 11
84.67004932590591
 21
171.634895987165
 31
0.0
 11
84.24383050409145
 21
171.5182413385579
 31
0.0
 11
83.79644053800146
 21
171.4249779368584
 31
0.0
 11
83.34425237372375
 21
171.3587432352022
 31
0.0
 11
82.88114916051146
 21
171.3184182464355
 31
0.0
 11
82.41648448554724
 21
171.3050332168406
 31
0.0
 11
81.95181981058292
 21
171.3184182464355
 31
0.0
 11
81.48871659737054
 21
171.3587432352022
 31
0.0
 11
81.03652843309288
 21
171.4249779368585
 31
0.0
 11
80.58913846700295
 21
171.5182413385579
 31
0.0
 11
80.16291964518838
 21
171.6348959871649
 31
0.0
 11
79.74508332072705
 21
171.7786812577468
 31
0.0
 11
79.35736107089423
 21
171.9418833250224
 31
0.0
 11
78.98219734705006
 21
172.1321496576136
 31
0.0
 11
78.64415237786812
 21
172.3367886473669
 31
0.0
 11
78.32366045024315
 21
172.5679065796921
 31
0.0
 11
78.04483845095399
 21
172.8079234266394
 31
0.0
 11
77.78948194068016
 21
173.0727117704083
 31
0.0
 11
77.5776846064239
 21
173.3414338487949
 31
0.0
 11
77.39589256206656
 21
173.6312269794863
 31
0.0
 11
77.25731821713778
 21
173.9215826696569
 31
0.0
 11
77.15485132850594
 21
174.2264820049202
 31
0.0
 11
77.09429924910786
 21
174.5308145258395
 31
0.0
 11
77.07368215590705
 21
174.8403903239761
 31
0.0
  0
SPLINE
  5
10F
330
41
100
AcDbEntity
  8
1
  6
Continuous
 62
     7
100
AcDbSpline
210
0.0
220
0.0
230
1.0
 70
    11
 71
     3
 72
    79
 73
    75
 74
    73
 42
0.0000000001
 43
0.0000000001
 44
0.00000001
 40
0.0
 40
0.0
 40
0.0
 40
0.0
 40
0.3102615659795209
 40
0.6205595479396787
 40
0.9422163027419743
 40
1.263944877610473
 40
1.606039025452227
 40
1.948193473341408
 40
2.316051889495121
 40
2.683951052454387
 40
3.07908466822899
 40
3.47424478427868
 40
3.894897963282812
 40
4.315568211551495
 40
4.757452130783376
 40
5.19934667828389
 40
5.656354166028295
 40
6.113367482701085
 40
6.578223041780118
 40
7.043080459895551
 40
7.507937878010941
 40
7.972793437089903
 40
8.42980675376274
 40
8.886814241507212
 40
9.328708789007623
 40
9.770592708239414
 40
10.19126295650811
 40
10.61191613551223
 40
11.007076251562
 40
11.40220986733659
 40
11.77010903029585
 40
12.13796744644957
 40
12.48012189433874
 40
12.82221604218045
 40
13.14394461704897
 40
13.46560137185128
 40
13.77589935381142
 40
14.08616091979097
 40
14.3964224857704
 40
14.70672046773045
 40
15.02837722253268
 40
15.35010579740117
 40
15.69219994524291
 40
16.03435439313214
 40
16.40221280928585
 40
16.77011197224518
 40
17.1652455880198
 40
17.56040570406954
 40
17.98105888307369
 40
18.40172913134236
 40
18.84361305057413
 40
19.28550759807451
 40
19.74251508581899
 40
20.19952840249182
 40
20.66438396157077
 40
21.12924137968616
 40
21.59409879780159
 40
22.05895435688062
 40
22.51596767355338
 40
22.97297516129781
 40
23.41486970879829
 40
23.85675362803015
 40
24.27742387629884
 40
24.69807705530297
 40
25.0932371713527
 40
25.48837078712726
 40
25.85626995008656
 40
26.2241283662403
 40
26.56628281412959
 40
26.90837696197132
 40
27.23010553683977
 40
27.55176229164201
 40
27.86206027360209
 40
28.17232183958149
 40
28.17232183958149
 40
28.17232183958149
 40
28.17232183958149
 10
75.19797988655054
 20
174.8403903239761
 30
0.0
 10
75.19394669473373
 20
174.9438805084848
 30
0.0
 10
75.18587983771684
 20
175.1508730243388
 30
0.0
 10
75.12189585976105
 20
175.4597218936309
 30
0.0
 10
75.02047506281188
 20
175.7616888062825
 30
0.0
 10
74.87805256264801
 20
176.0585984618339
 30
0.0
 10
74.69894998972796
 20
176.3429165698055
 30
0.0
 10
74.48097972178131
 20
176.6184176157887
 30
0.0
 10
74.23069756767399
 20
176.8770236362053
 30
0.0
 10
73.94423540584916
 20
177.1227815256071
 30
0.0
 10
73.63040465352171
 20
177.3484267856304
 30
0.0
 10
73.28449048845934
 20
177.5571984533752
 30
0.0
 10
72.91637169628541
 20
177.7434192215314
 30
0.0
 10
72.52167776135016
 20
177.9091037517828
 30
0.0
 10
72.11012456136395
 20
178.050411524556
 30
0.0
 10
71.67869886175792
 20
178.1681910130668
 30
0.0
 10
71.23592483303804
 20
178.2603093146531
 30
0.0
 10
70.78086683443605
 20
178.3267952420005
 30
0.0
 10
70.32009973234764
 20
178.3668527988698
 30
0.0
 10
69.8551775569097
 20
178.3801947561259
 30
0.0
 10
69.39025538147571
 20
178.3668527988698
 30
0.0
 10
68.9294882793757
 20
178.3267952420004
 30
0.0
 10
68.47443028081553
 20
178.2603093146532
 30
0.0
 10
68.03165625194207
 20
178.1681910130669
 30
0.0
 10
67.60023055289092
 20
178.050411524556
 30
0.0
 10
67.18867735088202
 20
177.9091037517828
 30
0.0
 10
66.79398342314892
 20
177.7434192215314
 30
0.0
 10
66.42586460491567
 20
177.5571984533752
 30
0.0
 10
66.07995053148099
 20
177.3484267856303
 30
0.0
 10
65.76611944953154
 20
177.1227815256071
 30
0.0
 10
65.47965843704733
 20
176.8770236362053
 30
0.0
 10
65.22937215796409
 20
176.6184176157887
 30
0.0
 10
65.01141625994784
 20
176.3429165698054
 30
0.0
 10
64.83226194620116
 20
176.0585984618339
 30
0.0
 10
64.69002159480758
 20
175.7616888062825
 30
0.0
 10
64.58793794276332
 20
175.4597218936309
 30
0.0
 10
64.526344702833
 20
175.1508730243388
 30
0.0
 10
64.50539089937068
 20
174.8403903239762
 30
0.0
 10
64.52634470283303
 20
174.5299076236135
 30
0.0
 10
64.58793794276332
 20
174.2210587543214
 30
0.0
 10
64.69002159480758
 20
173.91909184167
 30
0.0
 10
64.83226194620117
 20
173.6221821861187
 30
0.0
 10
65.01141625994788
 20
173.337864078147
 30
0.0
 10
65.22937215796405
 20
173.0623630321637
 30
0.0
 10
65.47965843704736
 20
172.803757011747
 30
0.0
 10
65.76611944953153
 20
172.5579991223452
 30
0.0
 10
66.079950531481
 20
172.332353862322
 30
0.0
 10
66.42586460491569
 20
172.1235821945771
 30
0.0
 10
66.79398342314893
 20
171.9373614264209
 30
0.0
 10
67.18867735088203
 20
171.7716768961695
 30
0.0
 10
67.60023055289088
 20
171.6303691233964
 30
0.0
 10
68.03165625194211
 20
171.5125896348857
 30
0.0
 10
68.4744302808155
 20
171.4204713332994
 30
0.0
 10
68.92948827937572
 20
171.353985405952
 30
0.0
 10
69.3902553814757
 20
171.3139278490828
 30
0.0
 10
69.8551775569097
 20
171.3005858918267
 30
0.0
 10
70.32009973234766
 20
171.3139278490828
 30
0.0
 10
70.78086683443604
 20
171.353985405952
 30
0.0
 10
71.23592483303801
 20
171.4204713332995
 30
0.0
 10
71.67869886175792
 20
171.5125896348857
 30
0.0
 10
72.11012456136393
 20
171.6303691233963
 30
0.0
 10
72.52167776135016
 20
171.7716768961695
 30
0.0
 10
72.91637169628544
 20
171.9373614264209
 30
0.0
 10
73.28449048845934
 20
172.1235821945771
 30
0.0
 10
73.63040465352171
 20
172.3323538623221
 30
0.0
 10
73.94423540584916
 20
172.5579991223451
 30
0.0
 10
74.23069756767399
 20
172.8037570117471
 30
0.0
 10
74.48097972178135
 20
173.0623630321637
 30
0.0
 10
74.69894998972788
 20
173.337864078147
 30
0.0
 10
74.87805256264802
 20
173.6221821861186
 30
0.0
 10
75.02047506281184
 20
173.91909184167
 30
0.0
 10
75.12189585976108
 20
174.2210587543215
 30
0.0
 10
75.18587983771688
 20
174.5299076236135
 30
0.0
 10
75.19394669473374
 20
174.7369001394675
 30
0.0
 10
75.19797988655054
 20
174.8403903239761
 30
0.0
 11
75.19797988655054
 21
174.8403903239761
 31
0.0
 11
75.17736279334973
 21
175.1499661221129
 31
0.0
 11
75.11681071395165
 21
175.4542986430322
 31
0.0
 11
75.01434382531977
 21
175.7591979782956
 31
0.0
 11
74.87576948039094
 21
176.0495536684662
 31
0.0
 11
74.69397743603366
 21
176.3393467991577
 31
0.0
 11
74.48218010177746
 21
176.6080688775441
 31
0.0
 11
74.22682359150359
 21
176.872857221313
 31
0.0
 11
73.94800159221435
 21
177.1128740682602
 31
0.0
 11
73.62750966458935
 21
177.3439920005855
 31
0.0
 11
73.28946469540745
 21
177.5486309903387
 31
0.0
 11
72.91430097156332
 21
177.7388973229299
 31
0.0
 11
72.52657872173054
 21
177.9020993902055
 31
0.0
 11
72.10874239726917
 21
178.0458846607875
 31
0.0
 11
71.68252357545455
 21
178.1625393093946
 31
0.0
 11
71.23513360936468
 21
178.2558027110941
 31
0.0
 11
70.78294544508705
 21
178.3220374127503
 31
0.0
 11
70.31984223187466
 21
178.362362401517
 31
0.0
 11
69.85517755691035
 21
178.375747431112
 31
0.0
 11
69.39051288194608
 21
178.362362401517
 31
0.0
 11
68.92740966873376
 21
178.3220374127503
 31
0.0
 11
68.47522150445607
 21
178.2558027110941
 31
0.0
 11
68.02783153836614
 21
178.1625393093946
 31
0.0
 11
67.60161271655164
 21
178.0458846607875
 31
0.0
 11
67.18377639209035
 21
177.9020993902055
 31
0.0
 11
66.79605414225757
 21
177.7388973229298
 31
0.0
 11
66.42089041841345
 21
177.5486309903387
 31
0.0
 11
66.08284544923149
 21
177.3439920005854
 31
0.0
 11
65.76235352160646
 21
177.1128740682602
 31
0.0
 11
65.48353152231722
 21
176.872857221313
 31
0.0
 11
65.22817501204335
 21
176.6080688775441
 31
0.0
 11
65.01637767778719
 21
176.3393467991577
 31
0.0
 11
64.83458563342995
 21
176.0495536684662
 31
0.0
 11
64.69601128850108
 21
175.7591979782956
 31
0.0
 11
64.59354439986916
 21
175.4542986430322
 31
0.0
 11
64.53299232047104
 21
175.1499661221129
 31
0.0
 11
64.51237522727024
 21
174.8403903239761
 31
0.0
 11
64.53299232047105
 21
174.5308145258394
 31
0.0
 11
64.59354439986916
 21
174.2264820049202
 31
0.0
 11
64.69601128850108
 21
173.9215826696569
 31
0.0
 11
64.83458563342995
 21
173.6312269794863
 31
0.0
 11
65.0163776777872
 21
173.3414338487948
 31
0.0
 11
65.22817501204335
 21
173.0727117704083
 31
0.0
 11
65.48353152231721
 21
172.8079234266394
 31
0.0
 11
65.76235352160646
 21
172.5679065796921
 31
0.0
 11
66.0828454492315
 21
172.3367886473668
 31
0.0
 11
66.42089041841345
 21
172.1321496576136
 31
0.0
 11
66.79605414225759
 21
171.9418833250225
 31
0.0
 11
67.18377639209035
 21
171.7786812577468
 31
0.0
 11
67.60161271655164
 21
171.6348959871649
 31
0.0
 11
68.02783153836614
 21
171.5182413385579
 31
0.0
 11
68.47522150445609
 21
171.4249779368584
 31
0.0
 11
68.92740966873376
 21
171.3587432352022
 31
0.0
 11
69.39051288194608
 21
171.3184182464355
 31
0.0
 11
69.85517755691035
 21
171.3050332168406
 31
0.0
 11
70.31984223187466
 21
171.3184182464355
 31
0.0
 11
70.78294544508705
 21
171.3587432352022
 31
0.0
 11
71.23513360936465
 21
171.4249779368585
 31
0.0
 11
71.68252357545455
 21
171.5182413385579
 31
0.0
 11
72.10874239726917
 21
171.6348959871649
 31
0.0
 11
72.52657872173054
 21
171.7786812577468
 31
0.0
 11
72.91430097156334
 21
171.9418833250224
 31
0.0
 11
73.28946469540745
 21
172.1321496576136
 31
0.0
 11
73.62750966458937
 21
172.3367886473669
 31
0.0
 11
73.94800159221435
 21
172.5679065796921
 31
0.0
 11
74.22682359150359
 21
172.8079234266394
 31
0.0
 11
74.48218010177746
 21
173.0727117704083
 31
0.0
 11
74.69397743603366
 21
173.3414338487949
 31
0.0
 11
74.87576948039094
 21
173.6312269794863
 31
0.0
 11
75.01434382531977
 21
173.9215826696569
 31
0.0
 11
75.11681071395165
 21
174.2264820049202
 31
0.0
 11
75.17736279334974
 21
174.5308145258395
 31
0.0
 11
75.19797988655054
 21
174.8403903239761
 31
0.0
  0
SPLINE
  5
110
330
41
100
AcDbEntity
  8
1
  6
Continuous
 62
     7
100
AcDbSpline
210
0.0
220
0.0
230
1.0
 70
    11
 71
     3
 72
    79
 73
    75
 74
    73
 42
0.0000000001
 43
0.0000000001
 44
0.00000001
 40
0.0
 40
0.0
 40
0.0
 40
0.0
 40
0.2803981145479015
 40
0.5607977859032033
 40
0.8427454841467097
 40
1.124697473048499
 40
1.409536451638047
 40
1.694381500885802
 40
1.983071310125151
 40
2.271767843422874
 40
2.564776142200878
 40
2.857790854546454
 40
3.155055698552771
 40
3.452325978930823
 40
3.753284827389565
 40
4.054247742882625
 40
4.357919806975573
 40
4.661594368328776
 40
4.966700748943341
 40
5.271807969839344
 40
5.576915190735262
 40
5.882021571349798
 40
6.185696132703012
 40
6.489368196795944
 40
6.790331112288957
 40
7.091289960747852
 40
7.388560241125903
 40
7.68582508513222
 40
7.978839797477836
 40
8.2718480962558
 40
8.560544629553453
 40
8.849234438792795
 40
9.134079488040515
 40
9.418918466630149
 40
9.70087045553192
 40
9.982818153775405
 40
10.26321782513072
 40
10.54361593967862
 40
10.82401405422655
 40
11.10441372558195
 40
11.38636142382545
 40
11.66831341272718
 40
11.95315239131683
 40
12.23799744056456
 40
12.52668724980392
 40
12.81538378310153
 40
13.10839208187954
 40
13.40140679422513
 40
13.69867163823147
 40
13.99594191860949
 40
14.29690076706835
 40
14.59786368256141
 40
14.90153574665432
 40
15.20521030800753
 40
15.51031668862207
 40
15.81542390951799
 40
16.12053113041402
 40
16.42563751102857
 40
16.7293120723818
 40
17.03298413647469
 40
17.33394705196773
 40
17.63490590042651
 40
17.93217618080452
 40
18.22944102481086
 40
18.52245573715648
 40
18.81546403593447
 40
19.10416056923219
 40
19.39285037847152
 40
19.67769542771927
 40
19.96253440630884
 40
20.24448639521063
 40
20.52643409345411
 40
20.80683376480944
 40
21.08723187935743
 40
21.08723187935743
 40
21.08723187935743
 40
21.08723187935743
 10
194.8094005286095
 20
178.3050332168404
 30
0.0
 10
194.715899985556
 20
178.3024518309512
 30
0.0
 10
194.5288983803216
 20
178.2972890448406
 30
0.0
 10
194.2504139670816
 20
178.2558166947918
 30
0.0
 10
193.9764717706792
 20
178.189916534399
 30
0.0
 10
193.7085436053438
 20
178.0976844251649
 30
0.0
 10
193.4494978177834
 20
177.980602235806
 30
0.0
 10
193.2003385236307
 20
177.8391259542267
 30
0.0
 10
192.9640285034528
 20
177.6748436082337
 30
0.0
 10
192.7412535095349
 20
177.4883834600172
 30
0.0
 10
192.5347974772367
 20
177.28195898508
 30
0.0
 10
192.3451847335962
 20
177.0562412906435
 30
0.0
 10
192.1747855576707
 20
176.8139504922948
 30
0.0
 10
192.0240727500629
 20
176.5558929994548
 30
0.0
 10
191.8948496135374
 20
176.2850657959729
 30
0.0
 10
191.7875699403529
 20
176.0025489424762
 30
0.0
 10
191.7034154367976
 20
175.711360971883
 30
0.0
 10
191.6427721629665
 20
175.4129821989683
 30
0.0
 10
191.6062384006953
 20
175.1102212270881
 30
0.0
 10
191.5940193699587
 20
174.8050332168401
 30
0.0
 10
191.6062384006953
 20
174.4998452065939
 30
0.0
 10
191.6427721629664
 20
174.197084234709
 30
0.0
 10
191.7034154367977
 20
173.8987054618111
 30
0.0
 10
191.7875699403529
 20
173.6075174911553
 30
0.0
 10
191.8948496135374
 20
173.3250006378904
 30
0.0
 10
192.0240727500628
 20
173.0541734335487
 30
0.0
 10
192.1747855576706
 20
172.7961159438795
 30
0.0
 10
192.3451847335963
 20
172.553825133784
 30
0.0
 10
192.5347974772368
 20
172.3281074825861
 30
0.0
 10
192.7412535095348
 20
172.1216828475596
 30
0.0
 10
192.9640285034529
 20
171.9352232883825
 30
0.0
 10
193.2003385236307
 20
171.7709387606714
 30
0.0
 10
193.4494978177835
 20
171.6294705176015
 30
0.0
 10
193.7085436053438
 20
171.5123585139998
 30
0.0
 10
193.9764717706792
 20
171.420236595527
 30
0.0
 10
194.2504139670816
 20
171.3539268299593
 30
0.0
 10
194.5288983803216
 20
171.3139751648635
 30
0.0
 10
194.8094005286095
 20
171.3005622552405
 30
0.0
 10
195.0899026768975
 20
171.3139751648636
 30
0.0
 10
195.3683870901375
 20
171.3539268299593
 30
0.0
 10
195.6423292865398
 20
171.4202365955269
 30
0.0
 10
195.9102574518753
 20
171.5123585139999
 30
0.0
 10
196.1693032394357
 20
171.6294705176014
 30
0.0
 10
196.4184625335885
 20
171.7709387606714
 30
0.0
 10
196.6547725537662
 20
171.9352232883825
 30
0.0
 10
196.8775475476842
 20
172.1216828475596
 30
0.0
 10
197.0840035799824
 20
172.3281074825862
 30
0.0
 10
197.2736163236229
 20
172.553825133784
 30
0.0
 10
197.4440154995485
 20
172.7961159438796
 30
0.0
 10
197.5947283071562
 20
173.0541734335487
 30
0.0
 10
197.7239514436817
 20
173.3250006378904
 30
0.0
 10
197.8312311168662
 20
173.6075174911553
 30
0.0
 10
197.9153856204213
 20
173.8987054618111
 30
0.0
 10
197.9760288942526
 20
174.197084234709
 30
0.0
 10
198.0125626565238
 20
174.4998452065938
 30
0.0
 10
198.0247816872605
 20
174.8050332168403
 30
0.0
 10
198.0125626565238
 20
175.1102212270881
 30
0.0
 10
197.9760288942526
 20
175.4129821989683
 30
0.0
 10
197.9153856204214
 20
175.711360971883
 30
0.0
 10
197.8312311168662
 20
176.0025489424763
 30
0.0
 10
197.7239514436817
 20
176.2850657959729
 30
0.0
 10
197.5947283071563
 20
176.5558929994548
 30
0.0
 10
197.4440154995484
 20
176.8139504922947
 30
0.0
 10
197.2736163236229
 20
177.0562412906435
 30
0.0
 10
197.0840035799824
 20
177.2819589850801
 30
0.0
 10
196.8775475476842
 20
177.4883834600172
 30
0.0
 10
196.6547725537663
 20
177.6748436082337
 30
0.0
 10
196.4184625335884
 20
177.8391259542268
 30
0.0
 10
196.1693032394356
 20
177.980602235806
 30
0.0
 10
195.9102574518752
 20
178.0976844251649
 30
0.0
 10
195.6423292865399
 20
178.189916534399
 30
0.0
 10
195.3683870901375
 20
178.2558166947917
 30
0.0
 10
195.0899026768975
 20
178.2972890448405
 30
0.0
 10
194.9029010716631
 20
178.3024518309512
 30
0.0
 10
194.8094005286095
 20
178.3050332168404
 30
0.0
 11
194.8094005286095
 21
178.3050332168404
 31
0.0
 11
194.5293205297399
 21
178.2916804315423
 31
0.0
 11
194.2517627213613
 21
178.2518603523832
 31
0.0
 11
193.9777113169824
 21
178.1856007696593
 31
0.0
 11
193.7110684567079
 21
178.0939573895911
 31
0.0
 11
193.4514800321719
 21
177.976709389306
 31
0.0
 11
193.2037464562764
 21
177.836122130086
 31
0.0
 11
192.9666459716674
 21
177.671424934734
 31
0.0
 11
192.7452114423326
 21
177.4861887677568
 31
0.0
 11
192.5379280530228
 21
177.2790958908416
 31
0.0
 11
192.3493957692452
 21
177.0547898507433
 31
0.0
 11
192.1783072226716
 21
176.8116950200425
 31
0.0
 11
192.0283260959487
 21
176.5550332168404
 31
0.0
 11
191.8986493160744
 21
176.2834449968694
 31
0.0
 11
191.791757961997
 21
176.0021037184803
 31
0.0
 11
191.7073919006667
 21
175.7103862349349
 31
0.0
 11
191.6468793704309
 21
175.4128018386747
 31
0.0
 11
191.610300421868
 21
175.1098961041404
 31
0.0
 11
191.5980923839433
 21
174.8050332168404
 31
0.0
 11
191.610300421868
 21
174.5001703295405
 31
0.0
 11
191.6468793704309
 21
174.1972645950062
 31
0.0
 11
191.7073919006667
 21
173.899680198746
 31
0.0
 11
191.791757961997
 21
173.6079627152006
 31
0.0
 11
191.8986493160743
 21
173.3266214368116
 31
0.0
 11
192.0283260959487
 21
173.0550332168404
 31
0.0
 11
192.1783072226716
 21
172.7983714136383
 31
0.0
 11
192.3493957692452
 21
172.5552765829375
 31
0.0
 11
192.5379280530228
 21
172.3309705428392
 31
0.0
 11
192.7452114423326
 21
172.123877665924
 31
0.0
 11
192.9666459716675
 21
171.938641498947
 31
0.0
 11
193.2037464562764
 21
171.7739443035949
 31
0.0
 11
193.4514800321718
 21
171.6333570443749
 31
0.0
 11
193.7110684567079
 21
171.5161090440897
 31
0.0
 11
193.9777113169824
 21
171.4244656640217
 31
0.0
 11
194.2517627213613
 21
171.3582060812977
 31
0.0
 11
194.5293205297399
 21
171.3183860021385
 31
0.0
 11
194.8094005286095
 21
171.3050332168404
 31
0.0
 11
195.0894805274791
 21
171.3183860021386
 31
0.0
 11
195.3670383358578
 21
171.3582060812977
 31
0.0
 11
195.6410897402367
 21
171.4244656640217
 31
0.0
 11
195.9077326005112
 21
171.5161090440897
 31
0.0
 11
196.1673210250473
 21
171.6333570443749
 31
0.0
 11
196.4150546009427
 21
171.7739443035949
 31
0.0
 11
196.6521550855517
 21
171.938641498947
 31
0.0
 11
196.8735896148865
 21
172.123877665924
 31
0.0
 11
197.0808730041963
 21
172.3309705428392
 31
0.0
 11
197.2694052879739
 21
172.5552765829375
 31
0.0
 11
197.4404938345475
 21
172.7983714136383
 31
0.0
 11
197.5904749612704
 21
173.0550332168404
 31
0.0
 11
197.7201517411447
 21
173.3266214368116
 31
0.0
 11
197.8270430952221
 21
173.6079627152006
 31
0.0
 11
197.9114091565523
 21
173.899680198746
 31
0.0
 11
197.9719216867881
 21
174.1972645950062
 31
0.0
 11
198.0085006353511
 21
174.5001703295405
 31
0.0
 11
198.0207086732758
 21
174.8050332168404
 31
0.0
 11
198.0085006353511
 21
175.1098961041405
 31
0.0
 11
197.9719216867881
 21
175.4128018386747
 31
0.0
 11
197.9114091565524
 21
175.7103862349349
 31
0.0
 11
197.8270430952221
 21
176.0021037184803
 31
0.0
 11
197.7201517411447
 21
176.2834449968693
 31
0.0
 11
197.5904749612704
 21
176.5550332168404
 31
0.0
 11
197.4404938345475
 21
176.8116950200425
 31
0.0
 11
197.2694052879739
 21
177.0547898507433
 31
0.0
 11
197.0808730041963
 21
177.2790958908416
 31
0.0
 11
196.8735896148865
 21
177.4861887677568
 31
0.0
 11
196.6521550855517
 21
177.671424934734
 31
0.0
 11
196.4150546009427
 21
177.836122130086
 31
0.0
 11
196.1673210250472
 21
177.976709389306
 31
0.0
 11
195.9077326005112
 21
178.0939573895911
 31
0.0
 11
195.6410897402367
 21
178.1856007696592
 31
0.0
 11
195.3670383358578
 21
178.2518603523832
 31
0.0
 11
195.0894805274792
 21
178.2916804315423
 31
0.0
 11
194.8094005286095
 21
178.3050332168404
 31
0.0
  0
SPLINE
  5
111
330
41
100
AcDbEntity
  8
1
  6
Continuous
 62
     7
100
AcDbSpline
210
0.0
220
0.0
230
1.0
 70
     8
 71
     3
 72
    29
 73
    25
 74
    23
 42
0.0000000001
 43
0.0000000001
 44
0.00000001
 40
0.0
 40
0.0
 40
0.0
 40
0.0
 40
0.6069077131758756
 40
1.212222625822654
 40
1.842666707826751
 40
2.474631900595323
 40
3.102420172365313
 40
3.729333891456369
 40
4.271042939833114
 40
4.812985328221147
 40
5.34010798072833
 40
5.866248927280067
 40
6.263874837343229
 40
6.661485236222394
 40
7.280966497568938
 40
7.902596738528041
 40
8.549168915178692
 40
9.195896772489121
 40
9.72241597417918
 40
10.24911841725696
 40
11.07897537274011
 40
11.90732207846629
 40
12.67331709995018
 40
13.44191271185811
 40
13.44191271185811
 40
13.44191271185811
 40
13.44191271185811
 10
206.0677307778072
 20
178.3050332168404
 30
0.0
 10
205.8656709482498
 20
178.2951578433781
 30
0.0
 10
205.462081585581
 20
178.2754330139031
 30
0.0
 10
204.8503760352424
 20
178.2116426598499
 30
0.0
 10
204.2409589733525
 20
178.0774593625329
 30
0.0
 10
203.6425527978471
 20
177.8770037418483
 30
0.0
 10
203.0679902659516
 20
177.6184426250304
 30
0.0
 10
202.5530924682799
 20
177.3095132352591
 30
0.0
 10
202.1040735942818
 20
176.9556963106842
 30
0.0
 10
201.7301319917907
 20
176.5676716425211
 30
0.0
 10
201.4231660903308
 20
176.1307412387584
 30
0.0
 10
201.2158574327967
 20
175.6905272716583
 30
0.0
 10
201.0999548445259
 20
175.2638181509735
 30
0.0
 10
201.0492516396315
 20
174.7929027084714
 30
0.0
 10
201.1097079629095
 20
174.2439281154274
 30
0.0
 10
201.3226551946561
 20
173.6461820492073
 30
0.0
 10
201.6698921320024
 20
173.1045798032089
 30
0.0
 10
202.0912498578349
 20
172.6639718350712
 30
0.0
 10
202.5386633480919
 20
172.3140979114343
 30
0.0
 10
203.0744997340146
 20
171.9851875284452
 30
0.0
 10
203.7393907839279
 20
171.681448906818
 30
0.0
 10
204.5190518454019
 20
171.4566790414752
 30
0.0
 10
205.3014574637114
 20
171.3522922360658
 30
0.0
 10
205.8120179330739
 20
171.3208697573169
 30
0.0
 10
206.0677307778072
 20
171.3051318929274
 30
0.0
 11
206.0677307778072
 21
178.3050332168404
 31
0.0
 11
205.461844756049
 21
178.2698323510781
 31
0.0
 11
204.8604019365676
 21
178.2014753589939
 31
0.0
 11
204.2445107248264
 21
178.0667988731696
 31
0.0
 11
203.6450492632778
 21
177.8667339812245
 31
0.0
 11
203.0733504899577
 21
177.6073527429742
 31
0.0
 11
202.5367852729446
 21
177.2831327881962
 31
0.0
 11
202.1123527341655
 21
176.9465236482151
 31
0.0
 11
201.7376037588851
 21
176.5550332168404
 31
0.0
 11
201.4360478729251
 21
176.1226880556218
 31
0.0
 11
201.2140275590913
 21
175.6456856700057
 31
0.0
 11
201.1102668419483
 21
175.261836639876
 31
0.0
 11
201.0685087441275
 21
174.8664250940617
 31
0.0
 11
201.1331023557489
 21
174.2503206398519
 31
0.0
 11
201.3407205259002
 21
173.6643864695751
 31
0.0
 11
201.6860931267552
 21
173.1177848356611
 31
0.0
 11
202.1303672533581
 21
172.6478088555807
 31
0.0
 11
202.5442376721328
 21
172.3223342080095
 31
0.0
 11
202.992276519357
 21
172.0454287098299
 31
0.0
 11
203.7470372259946
 21
171.7004666216524
 31
0.0
 11
204.5431935363826
 21
171.4717891319061
 31
0.0
 11
205.3012026669822
 21
171.3614690028915
 31
0.0
 11
206.0677307778072
 21
171.3051318929274
 31
0.0
  0
SPLINE
  5
112
330
41
100
AcDbEntity
  8
1
  6
Continuous
 62
     7
100
AcDbSpline
210
0.0
220
0.0
230
1.0
 70
    11
 71
     3
 72
    79
 73
    75
 74
    73
 42
0.0000000001
 43
0.0000000001
 44
0.00000001
 40
0.0
 40
0.0
 40
0.0
 40
0.0
 40
0.2803981145479015
 40
0.5607977859032033
 40
0.8427454841467097
 40
1.124697473048473
 40
1.409536451638083
 40
1.694381500885799
 40
1.983071310125125
 40
2.271767843422848
 40
2.564776142200873
 40
2.857790854546449
 40
3.155055698552782
 40
3.452325978930819
 40
3.753284827389561
 40
4.054247742882621
 40
4.357919806975561
 40
4.661594368328765
 40
4.966700748943329
 40
5.271807969839333
 40
5.576915190735252
 40
5.882021571349788
 40
6.185696132702997
 40
6.489368196795929
 40
6.790331112288953
 40
7.091289960747835
 40
7.388560241125872
 40
7.685825085132206
 40
7.978839797477821
 40
8.271848096255805
 40
8.560544629553455
 40
8.849234438792781
 40
9.134079488040539
 40
9.418918466630162
 40
9.700870455531906
 40
9.982818153775391
 40
10.26321782513073
 40
10.54361593967861
 40
10.82401405422654
 40
11.10441372558193
 40
11.38636142382544
 40
11.66831341272719
 40
11.95315239131682
 40
12.23799744056455
 40
12.52668724980383
 40
12.81538378310152
 40
13.10839208187949
 40
13.40140679422506
 40
13.69867163823142
 40
13.99594191860948
 40
14.29690076706833
 40
14.59786368256138
 40
14.9015357466543
 40
15.2052103080075
 40
15.51031668862204
 40
15.81542390951796
 40
16.120531130414
 40
16.42563751102854
 40
16.72931207238177
 40
17.03298413647466
 40
17.33394705196767
 40
17.63490590042647
 40
17.93217618080454
 40
18.22944102481089
 40
18.5224557371565
 40
18.81546403593443
 40
19.10416056923213
 40
19.39285037847147
 40
19.67769542771923
 40
19.96253440630878
 40
20.24448639521057
 40
20.52643409345406
 40
20.80683376480945
 40
21.08723187935738
 40
21.08723187935738
 40
21.08723187935738
 40
21.08723187935738
 10
217.326061027005
 20
178.3050332168404
 30
0.0
 10
217.4195615700585
 20
178.3024518309512
 30
0.0
 10
217.6065631752929
 20
178.2972890448406
 30
0.0
 10
217.8850475885329
 20
178.2558166947917
 30
0.0
 10
218.1589897849353
 20
178.189916534399
 30
0.0
 10
218.4269179502707
 20
178.0976844251649
 30
0.0
 10
218.6859637378311
 20
177.980602235806
 30
0.0
 10
218.9351230319838
 20
177.8391259542268
 30
0.0
 10
219.1714330521617
 20
177.6748436082336
 30
0.0
 10
219.3942080460796
 20
177.4883834600171
 30
0.0
 10
219.6006640783778
 20
177.2819589850801
 30
0.0
 10
219.7902768220182
 20
177.0562412906435
 30
0.0
 10
219.9606759979438
 20
176.8139504922947
 30
0.0
 10
220.1113888055517
 20
176.5558929994548
 30
0.0
 10
220.2406119420772
 20
176.2850657959729
 30
0.0
 10
220.3478916152616
 20
176.0025489424762
 30
0.0
 10
220.4320461188169
 20
175.7113609718831
 30
0.0
 10
220.4926893926481
 20
175.4129821989683
 30
0.0
 10
220.5292231549192
 20
175.1102212270881
 30
0.0
 10
220.5414421856559
 20
174.8050332168402
 30
0.0
 10
220.5292231549192
 20
174.4998452065938
 30
0.0
 10
220.4926893926481
 20
174.197084234709
 30
0.0
 10
220.4320461188168
 20
173.8987054618112
 30
0.0
 10
220.3478916152615
 20
173.6075174911553
 30
0.0
 10
220.2406119420772
 20
173.3250006378904
 30
0.0
 10
220.1113888055517
 20
173.0541734335488
 30
0.0
 10
219.9606759979439
 20
172.7961159438796
 30
0.0
 10
219.7902768220183
 20
172.553825133784
 30
0.0
 10
219.6006640783778
 20
172.3281074825861
 30
0.0
 10
219.3942080460797
 20
172.1216828475596
 30
0.0
 10
219.1714330521616
 20
171.9352232883824
 30
0.0
 10
218.9351230319839
 20
171.7709387606715
 30
0.0
 10
218.685963737831
 20
171.6294705176014
 30
0.0
 10
218.4269179502707
 20
171.5123585139998
 30
0.0
 10
218.1589897849352
 20
171.420236595527
 30
0.0
 10
217.8850475885329
 20
171.3539268299593
 30
0.0
 10
217.6065631752929
 20
171.3139751648635
 30
0.0
 10
217.3260610270051
 20
171.3005622552406
 30
0.0
 10
217.045558878717
 20
171.3139751648635
 30
0.0
 10
216.767074465477
 20
171.3539268299594
 30
0.0
 10
216.4931322690746
 20
171.4202365955269
 30
0.0
 10
216.2252041037392
 20
171.5123585139999
 30
0.0
 10
215.9661583161789
 20
171.6294705176015
 30
0.0
 10
215.716999022026
 20
171.7709387606714
 30
0.0
 10
215.4806890018483
 20
171.9352232883825
 30
0.0
 10
215.2579140079302
 20
172.1216828475596
 30
0.0
 10
215.0514579756323
 20
172.3281074825862
 30
0.0
 10
214.8618452319917
 20
172.5538251337839
 30
0.0
 10
214.6914460560662
 20
172.7961159438796
 30
0.0
 10
214.5407332484582
 20
173.0541734335487
 30
0.0
 10
214.4115101119328
 20
173.3250006378904
 30
0.0
 10
214.3042304387483
 20
173.6075174911554
 30
0.0
 10
214.2200759351932
 20
173.8987054618112
 30
0.0
 10
214.1594326613619
 20
174.197084234709
 30
0.0
 10
214.1228988990907
 20
174.4998452065939
 30
0.0
 10
214.1106798683541
 20
174.8050332168402
 30
0.0
 10
214.1228988990906
 20
175.1102212270881
 30
0.0
 10
214.159432661362
 20
175.4129821989683
 30
0.0
 10
214.2200759351932
 20
175.7113609718831
 30
0.0
 10
214.3042304387484
 20
176.0025489424763
 30
0.0
 10
214.4115101119326
 20
176.2850657959729
 30
0.0
 10
214.5407332484583
 20
176.5558929994547
 30
0.0
 10
214.6914460560661
 20
176.8139504922948
 30
0.0
 10
214.8618452319917
 20
177.0562412906435
 30
0.0
 10
215.0514579756323
 20
177.28195898508
 30
0.0
 10
215.2579140079303
 20
177.4883834600172
 30
0.0
 10
215.4806890018483
 20
177.6748436082337
 30
0.0
 10
215.716999022026
 20
177.8391259542267
 30
0.0
 10
215.9661583161789
 20
177.980602235806
 30
0.0
 10
216.2252041037392
 20
178.097684425165
 30
0.0
 10
216.4931322690746
 20
178.1899165343988
 30
0.0
 10
216.767074465477
 20
178.2558166947918
 30
0.0
 10
217.045558878717
 20
178.2972890448406
 30
0.0
 10
217.2325604839515
 20
178.3024518309512
 30
0.0
 10
217.326061027005
 20
178.3050332168404
 30
0.0
 11
217.326061027005
 21
178.3050332168404
 31
0.0
 11
217.6061410258746
 21
178.2916804315423
 31
0.0
 11
217.8836988342532
 21
178.2518603523832
 31
0.0
 11
218.1577502386321
 21
178.1856007696593
 31
0.0
 11
218.4243930989066
 21
178.0939573895911
 31
0.0
 11
218.6839815234426
 21
177.976709389306
 31
0.0
 11
218.9317150993381
 21
177.836122130086
 31
0.0
 11
219.1688155839471
 21
177.671424934734
 31
0.0
 11
219.3902501132819
 21
177.4861887677568
 31
0.0
 11
219.5975335025917
 21
177.2790958908416
 31
0.0
 11
219.7860657863693
 21
177.0547898507433
 31
0.0
 11
219.9571543329429
 21
176.8116950200425
 31
0.0
 11
220.1071354596658
 21
176.5550332168404
 31
0.0
 11
220.2368122395401
 21
176.2834449968694
 31
0.0
 11
220.3437035936175
 21
176.0021037184803
 31
0.0
 11
220.4280696549478
 21
175.7103862349349
 31
0.0
 11
220.4885821851836
 21
175.4128018386747
 31
0.0
 11
220.5251611337465
 21
175.1098961041404
 31
0.0
 11
220.5373691716712
 21
174.8050332168404
 31
0.0
 11
220.5251611337465
 21
174.5001703295405
 31
0.0
 11
220.4885821851836
 21
174.1972645950062
 31
0.0
 11
220.4280696549478
 21
173.899680198746
 31
0.0
 11
220.3437035936175
 21
173.6079627152006
 31
0.0
 11
220.2368122395401
 21
173.3266214368116
 31
0.0
 11
220.1071354596658
 21
173.0550332168404
 31
0.0
 11
219.9571543329429
 21
172.7983714136383
 31
0.0
 11
219.7860657863693
 21
172.5552765829375
 31
0.0
 11
219.5975335025917
 21
172.3309705428392
 31
0.0
 11
219.3902501132819
 21
172.123877665924
 31
0.0
 11
219.1688155839471
 21
171.938641498947
 31
0.0
 11
218.9317150993381
 21
171.7739443035949
 31
0.0
 11
218.6839815234426
 21
171.6333570443749
 31
0.0
 11
218.4243930989066
 21
171.5161090440897
 31
0.0
 11
218.1577502386321
 21
171.4244656640217
 31
0.0
 11
217.8836988342532
 21
171.3582060812977
 31
0.0
 11
217.6061410258746
 21
171.3183860021385
 31
0.0
 11
217.326061027005
 21
171.3050332168404
 31
0.0
 11
217.0459810281354
 21
171.3183860021386
 31
0.0
 11
216.7684232197567
 21
171.3582060812977
 31
0.0
 11
216.4943718153778
 21
171.4244656640217
 31
0.0
 11
216.2277289551033
 21
171.5161090440897
 31
0.0
 11
215.9681405305672
 21
171.6333570443749
 31
0.0
 11
215.7204069546718
 21
171.7739443035949
 31
0.0
 11
215.4833064700629
 21
171.938641498947
 31
0.0
 11
215.261871940728
 21
172.123877665924
 31
0.0
 11
215.0545885514183
 21
172.3309705428392
 31
0.0
 11
214.8660562676407
 21
172.5552765829375
 31
0.0
 11
214.6949677210671
 21
172.7983714136383
 31
0.0
 11
214.5449865943441
 21
173.0550332168404
 31
0.0
 11
214.4153098144698
 21
173.3266214368116
 31
0.0
 11
214.3084184603924
 21
173.6079627152006
 31
0.0
 11
214.2240523990622
 21
173.899680198746
 31
0.0
 11
214.1635398688264
 21
174.1972645950062
 31
0.0
 11
214.1269609202634
 21
174.5001703295405
 31
0.0
 11
214.1147528823387
 21
174.8050332168404
 31
0.0
 11
214.1269609202634
 21
175.1098961041405
 31
0.0
 11
214.1635398688264
 21
175.4128018386747
 31
0.0
 11
214.2240523990622
 21
175.7103862349349
 31
0.0
 11
214.3084184603924
 21
176.0021037184803
 31
0.0
 11
214.4153098144697
 21
176.2834449968693
 31
0.0
 11
214.5449865943441
 21
176.5550332168404
 31
0.0
 11
214.6949677210671
 21
176.8116950200425
 31
0.0
 11
214.8660562676407
 21
177.0547898507433
 31
0.0
 11
215.0545885514183
 21
177.2790958908416
 31
0.0
 11
215.261871940728
 21
177.4861887677568
 31
0.0
 11
215.4833064700628
 21
177.6714249347339
 31
0.0
 11
215.7204069546718
 21
177.836122130086
 31
0.0
 11
215.9681405305673
 21
177.976709389306
 31
0.0
 11
216.2277289551033
 21
178.0939573895911
 31
0.0
 11
216.4943718153778
 21
178.1856007696592
 31
0.0
 11
216.7684232197567
 21
178.2518603523832
 31
0.0
 11
217.0459810281354
 21
178.2916804315423
 31
0.0
 11
217.326061027005
 21
178.3050332168404
 31
0.0
  0
SPLINE
  5
113
330
41
100
AcDbEntity
  8
1
  6
Continuous
 62
     7
100
AcDbSpline
210
0.0
220
0.0
230
1.0
 70
     8
 71
     3
 72
    29
 73
    25
 74
    23
 42
0.0000000001
 43
0.0000000001
 44
0.00000001
 40
0.0
 40
0.0
 40
0.0
 40
0.0
 40
0.6069077131759323
 40
1.212222625822739
 40
1.842666707826808
 40
2.474631900595407
 40
3.102420172365449
 40
3.729333891456456
 40
4.271042939833258
 40
4.81298532822129
 40
5.340107980728489
 40
5.866248927280178
 40
6.26387483734334
 40
6.661485236222505
 40
7.280966497569049
 40
7.902596738528162
 40
8.549168915178813
 40
9.195896772489242
 40
9.722415974179256
 40
10.24911841725706
 40
11.07897537274016
 40
11.90732207846639
 40
12.67331709995031
 40
13.4419127118583
 40
13.4419127118583
 40
13.4419127118583
 40
13.4419127118583
 10
206.0677307778072
 20
178.3050332168404
 30
0.0
 10
206.2697906073647
 20
178.2951578433781
 30
0.0
 10
206.6733799700335
 20
178.2754330139031
 30
0.0
 10
207.2850855203721
 20
178.21164265985
 30
0.0
 10
207.894502582262
 20
178.0774593625328
 30
0.0
 10
208.4929087577673
 20
177.8770037418483
 30
0.0
 10
209.0674712896631
 20
177.6184426250304
 30
0.0
 10
209.5823690873346
 20
177.3095132352591
 30
0.0
 10
210.0313879613328
 20
176.9556963106841
 30
0.0
 10
210.4053295638238
 20
176.5676716425211
 30
0.0
 10
210.712295465284
 20
176.1307412387585
 30
0.0
 10
210.9196041228178
 20
175.6905272716583
 30
0.0
 10
211.0355067110885
 20
175.2638181509736
 30
0.0
 10
211.086209915983
 20
174.7929027084714
 30
0.0
 10
211.0257535927051
 20
174.2439281154274
 30
0.0
 10
210.8128063609583
 20
173.6461820492074
 30
0.0
 10
210.4655694236121
 20
173.1045798032088
 30
0.0
 10
210.0442116977796
 20
172.6639718350712
 30
0.0
 10
209.5967982075226
 20
172.3140979114343
 30
0.0
 10
209.0609618215999
 20
171.9851875284452
 30
0.0
 10
208.3960707716867
 20
171.6814489068181
 30
0.0
 10
207.6164097102126
 20
171.4566790414752
 30
0.0
 10
206.8340040919031
 20
171.3522922360658
 30
0.0
 10
206.3234436225405
 20
171.3208697573169
 30
0.0
 10
206.0677307778072
 20
171.3051318929274
 30
0.0
 11
206.0677307778072
 21
178.3050332168404
 31
0.0
 11
206.6736167995655
 21
178.2698323510781
 31
0.0
 11
207.2750596190469
 21
178.2014753589939
 31
0.0
 11
207.8909508307881
 21
178.0667988731696
 31
0.0
 11
208.4904122923367
 21
177.8667339812245
 31
0.0
 11
209.0621110656569
 21
177.6073527429742
 31
0.0
 11
209.5986762826699
 21
177.2831327881962
 31
0.0
 11
210.023108821449
 21
176.9465236482151
 31
0.0
 11
210.3978577967295
 21
176.5550332168404
 31
0.0
 11
210.6994136826895
 21
176.1226880556218
 31
0.0
 11
210.9214339965232
 21
175.6456856700057
 31
0.0
 11
211.0251947136663
 21
175.261836639876
 31
0.0
 11
211.066952811487
 21
174.8664250940617
 31
0.0
 11
211.0023591998656
 21
174.2503206398519
 31
0.0
 11
210.7947410297143
 21
173.6643864695751
 31
0.0
 11
210.4493684288593
 21
173.1177848356611
 31
0.0
 11
210.0050943022564
 21
172.6478088555807
 31
0.0
 11
209.5912238834818
 21
172.3223342080095
 31
0.0
 11
209.1431850362575
 21
172.0454287098299
 31
0.0
 11
208.38842432962
 21
171.7004666216524
 31
0.0
 11
207.5922680192319
 21
171.4717891319061
 31
0.0
 11
206.8342588886323
 21
171.3614690028915
 31
0.0
 11
206.0677307778072
 21
171.3051318929274
 31
0.0
  0
ENDBLK
  5
43
330
41
100
AcDbEntity
  8
0
100
AcDbBlockEnd
  0
BLOCK
  5
45
330
44
100
AcDbEntity
  8
0
100
AcDbBlockBegin
  2
36-1A-13-M4
 70
     0
 71
     0
 10
143.1893135116192
 20
95.45570164088565
 30
0.0
  3
36-1A-13-M4
  1

  0
LINE
  5
114
330
44
100
AcDbEntity
  8
1
  6
Continuous
 62
     7
100
AcDbLine
 10
71.38583102122865
 20
185.3050332168405
 30
0.0
 11
71.38583102122865
 21
188.3774710520818
 31
0.0
  0
LINE
  5
115
330
44
100
AcDbEntity
  8
1
  6
Continuous
 62
     7
100
AcDbLine
 10
80.88583102122865
 20
188.3774710520818
 30
0.0
 11
80.88583102122865
 21
185.3050332168405
 31
0.0
  0
LINE
  5
116
330
44
100
AcDbEntity
  8
1
  6
Continuous
 62
     7
100
AcDbLine
 10
201.3177307778072
 20
185.3050332168404
 30
0.0
 11
201.3177307778072
 21
188.3753419286555
 31
0.0
  0
LINE
  5
117
330
44
100
AcDbEntity
  8
1
  6
Continuous
 62
     7
100
AcDbLine
 10
210.8177307778073
 20
188.3753419286555
 30
0.0
 11
210.8177307778073
 21
185.3050332168404
 31
0.0
  0
ENDBLK
  5
46
330
44
100
AcDbEntity
  8
0
100
AcDbBlockEnd
  0
BLOCK
  5
4B
330
47
100
AcDbEntity
  8
0
100
AcDbBlockBegin
  2
R10A-13
 70
     0
 71
     0
 10
191.5677307778073
 20
153.8753419286554
 30
0.0
  3
R10A-13
  1

  0
INSERT
  5
48
330
47
100
AcDbEntity
  8
1
100
AcDbBlockReference
  2
R20F
 10
199.0677307778072
 20
187.3753419286555
 30
0.0
  0
INSERT
  5
49
330
47
100
AcDbEntity
  8
1
100
AcDbBlockReference
  2
37-1-13
 10
399.4362435232505
 20
143.9613828218052
 30
0.0
  0
INSERT
  5
4A
330
47
100
AcDbEntity
  8
1
100
AcDbBlockReference
  2
36-1A-13-M4
 10
143.1893135116192
 20
95.45570164088565
 30
0.0
  0
ENDBLK
  5
4C
330
47
100
AcDbEntity
  8
0
100
AcDbBlockEnd
  0
BLOCK
  5
4E
330
4D
100
AcDbEntity
  8
0
100
AcDbBlockBegin
  2
32-1-16
 70
     0
 71
     0
 10
207.5838464598908
 20
-131.8890861160926
 30
0.0
  3
32-1-16
  1

  0
LINE
  5
118
330
4D
100
AcDbEntity
  8
0
  6
Continuous
 62
     7
100
AcDbLine
 10
172.0677307778072
 20
136.8753419286554
 30
0.0
 11
172.0677307778072
 21
145.8753419286554
 31
0.0
  0
LINE
  5
119
330
4D
100
AcDbEntity
  8
0
  6
Continuous
 62
     7
100
AcDbLine
 10
172.0677307778072
 20
145.8753419286554
 30
0.0
 11
172.0677307778072
 21
154.8753419286554
 31
0.0
  0
LINE
  5
11A
330
4D
100
AcDbEntity
  8
1
  6
Continuous
 62
     7
100
AcDbLine
 10
181.0677307778073
 20
132.6883419286554
 30
0.0
 11
181.0677307778073
 21
132.8753419286554
 31
0.0
  0
LINE
  5
11B
330
4D
100
AcDbEntity
  8
1
  6
Continuous
 62
     7
100
AcDbLine
 10
181.0677307778073
 20
159.0623419286555
 30
0.0
 11
181.0677307778073
 21
132.8753419286554
 31
0.0
  0
LINE
  5
11C
330
4D
100
AcDbEntity
  8
1
  6
Continuous
 62
     7
100
AcDbLine
 10
84.33583102122864
 20
296.2515055386111
 30
0.0
 11
85.90378021365984
 21
296.2515055386111
 31
0.0
  0
LINE
  5
11D
330
4D
100
AcDbEntity
  8
1
  6
Continuous
 62
     7
100
AcDbLine
 10
89.43583102122867
 20
306.2515055386111
 30
0.0
 11
82.34748810368916
 21
306.2515055386111
 31
0.0
  0
LINE
  5
11E
330
4D
100
AcDbEntity
  8
1
  6
Continuous
 62
     7
100
AcDbLine
 10
89.32283102122867
 20
306.2515055386111
 30
0.0
 11
89.43583102122867
 21
306.2515055386111
 31
0.0
  0
LINE
  5
11F
330
4D
100
AcDbEntity
  8
1
  6
Continuous
 62
     7
100
AcDbLine
 10
87.69385208295927
 20
297.2515055386111
 30
0.0
 11
87.63583102122877
 21
297.2515055386111
 31
0.0
  0
LINE
  5
120
330
4D
100
AcDbEntity
  8
1
  6
Continuous
 62
     7
100
AcDbLine
 10
76.13583102122877
 20
296.2515055386111
 30
0.0
 11
84.33583102122864
 21
296.2515055386111
 31
0.0
  0
LINE
  5
121
330
4D
100
AcDbEntity
  8
1
  6
Continuous
 62
     7
100
AcDbLine
 10
84.93415300029827
 20
297.2515055386111
 30
0.0
 11
76.13583102122877
 21
297.2515055386111
 31
0.0
  0
LINE
  5
122
330
4D
100
AcDbEntity
  8
1
  6
Continuous
 62
     7
100
AcDbLine
 10
66.36788182879755
 20
296.2515055386111
 30
0.0
 11
67.93583102122875
 21
296.2515055386111
 31
0.0
  0
LINE
  5
123
330
4D
100
AcDbEntity
  8
1
  6
Continuous
 62
     7
100
AcDbLine
 10
62.83583102122864
 20
306.2515055386111
 30
0.0
 11
62.94883102122864
 21
306.2515055386111
 31
0.0
  0
LINE
  5
124
330
4D
100
AcDbEntity
  8
1
  6
Continuous
 62
     7
100
AcDbLine
 10
64.63583102122877
 20
297.2515055386111
 30
0.0
 11
64.57780995949815
 21
297.2515055386111
 31
0.0
  0
LINE
  5
125
330
4D
100
AcDbEntity
  8
1
  6
Continuous
 62
     7
100
AcDbLine
 10
67.93583102122875
 20
296.2515055386111
 30
0.0
 11
76.13583102122877
 21
296.2515055386111
 31
0.0
  0
LINE
  5
126
330
4D
100
AcDbEntity
  8
1
  6
Continuous
 62
     7
100
AcDbLine
 10
76.13583102122877
 20
297.2515055386111
 30
0.0
 11
67.33750904215904
 21
297.2515055386111
 31
0.0
  0
LINE
  5
127
330
4D
100
AcDbEntity
  8
1
  6
Continuous
 62
     7
100
AcDbLine
 10
69.92417393876815
 20
306.2515055386111
 30
0.0
 11
62.83583102122864
 21
306.2515055386111
 31
0.0
  0
LINE
  5
128
330
4D
100
AcDbEntity
  8
1
  6
Continuous
 62
     7
100
AcDbLine
 10
171.0677307778072
 20
153.7753419286555
 30
0.0
 11
171.0677307778072
 21
155.6432911210866
 31
0.0
  0
LINE
  5
129
330
4D
100
AcDbEntity
  8
1
  6
Continuous
 62
     7
100
AcDbLine
 10
171.0677307778072
 20
136.1073927362243
 30
0.0
 11
171.0677307778072
 21
153.7753419286555
 31
0.0
  0
LINE
  5
12A
330
4D
100
AcDbEntity
  8
1
  6
Continuous
 62
     7
100
AcDbLine
 10
181.0677307778073
 20
132.6883419286554
 30
0.0
 11
181.0677307778073
 21
132.5753419286554
 31
0.0
  0
LINE
  5
12B
330
4D
100
AcDbEntity
  8
1
  6
Continuous
 62
     7
100
AcDbLine
 10
172.0677307778072
 20
134.3173208669248
 30
0.0
 11
172.0677307778072
 21
134.3753419286554
 31
0.0
  0
LINE
  5
12C
330
4D
100
AcDbEntity
  8
1
  6
Continuous
 62
     7
100
AcDbLine
 10
181.0677307778073
 20
159.1753419286555
 30
0.0
 11
181.0677307778073
 21
159.0623419286555
 31
0.0
  0
LINE
  5
12D
330
4D
100
AcDbEntity
  8
1
  6
Continuous
 62
     7
100
AcDbLine
 10
172.0677307778072
 20
157.3753419286554
 30
0.0
 11
172.0677307778072
 21
157.4333629903861
 31
0.0
  0
LINE
  5
12E
330
4D
100
AcDbEntity
  8
1
  6
Continuous
 62
     7
100
AcDbLine
 10
69.48376367340364
 20
159.8753419286554
 30
0.0
 11
82.78789836905366
 21
159.8753419286554
 31
0.0
  0
LINE
  5
12F
330
4D
100
AcDbEntity
  8
1
  6
Continuous
 62
     7
100
AcDbLine
 10
84.93415300029827
 20
158.636201239557
 30
0.0
 11
91.58622034812325
 21
147.1144826177541
 31
0.0
  0
LINE
  5
130
330
4D
100
AcDbEntity
  8
1
  6
Continuous
 62
     7
100
AcDbLine
 10
84.93415300029827
 20
133.1144826177541
 30
0.0
 11
91.58622034812325
 21
144.636201239557
 31
0.0
  0
LINE
  5
131
330
4D
100
AcDbEntity
  8
1
  6
Continuous
 62
     7
100
AcDbLine
 10
60.68544169433395
 20
144.636201239557
 30
0.0
 11
67.33750904215904
 21
133.1144826177541
 31
0.0
  0
LINE
  5
132
330
4D
100
AcDbEntity
  8
1
  6
Continuous
 62
     7
100
AcDbLine
 10
67.33750904215904
 20
158.636201239557
 30
0.0
 11
60.68544169433395
 21
147.1144826177541
 31
0.0
  0
LINE
  5
133
330
4D
100
AcDbEntity
  8
0
  6
Continuous
 62
     7
100
AcDbLine
 10
173.3545535280942
 20
159.8753419286554
 30
0.0
 11
180.4959819566371
 21
159.8753419286554
 31
0.0
  0
LINE
  5
134
330
4D
100
AcDbEntity
  8
0
  6
Continuous
 62
     7
100
AcDbLine
 10
173.3545535280942
 20
131.8753419286554
 30
0.0
 11
180.4959819566372
 21
131.8753419286554
 31
0.0
  0
ARC
  5
135
330
4D
100
AcDbEntity
  8
1
  6
Continuous
 62
     7
100
AcDbCircle
 10
86.63583102122877
 20
302.1090425031696
 30
0.0
 40
4.999999999999955
100
AcDbArc
 50
-74.66244233044715
 51
55.94420225743278
  0
ARC
  5
136
330
4D
100
AcDbEntity
  8
1
  6
Continuous
 62
     7
100
AcDbCircle
 10
80.90265960107485
 20
302.1088732608425
 30
0.0
 40
1.885238775575461
100
AcDbArc
 50
0.00514357714082
 51
3.83791798967272
  0
ARC
  5
137
330
4D
100
AcDbEntity
  8
1
  6
Continuous
 62
     7
100
AcDbCircle
 10
80.82884262089485
 20
302.1039212731332
 30
0.0
 40
1.959221670525301
100
AcDbArc
 50
3.83791798967063
 51
9.37260108640078
  0
ARC
  5
138
330
4D
100
AcDbEntity
  8
1
  6
Continuous
 62
     7
100
AcDbCircle
 10
80.74460918348134
 20
302.0900178992052
 30
0.0
 40
2.044594826640681
100
AcDbArc
 50
9.37260108640259
 51
14.67807157129019
  0
ARC
  5
139
330
4D
100
AcDbEntity
  8
1
  6
Continuous
 62
     7
100
AcDbCircle
 10
80.70190307567555
 20
302.078831629343
 30
0.0
 40
2.088741675648854
100
AcDbArc
 50
14.67807157129077
 51
19.98794307346523
  0
ARC
  5
13A
330
4D
100
AcDbEntity
  8
1
  6
Continuous
 62
     7
100
AcDbCircle
 10
80.56761029976275
 20
302.0299850571008
 30
0.0
 40
2.23164212100216
100
AcDbArc
 50
19.98794307346333
 51
23.44839996530437
  0
ARC
  5
13B
330
4D
100
AcDbEntity
  8
1
  6
Continuous
 62
     7
100
AcDbCircle
 10
80.46967366203185
 20
301.9875058302382
 30
0.0
 40
2.338394496736264
100
AcDbArc
 50
23.44839996530393
 51
26.75137744777113
  0
ARC
  5
13C
330
4D
100
AcDbEntity
  8
1
  6
Continuous
 62
     7
100
AcDbCircle
 10
80.30921418881155
 20
301.906622759858
 30
0.0
 40
2.518086771529235
100
AcDbArc
 50
26.75137744777191
 51
29.81983142576775
  0
ARC
  5
13D
330
4D
100
AcDbEntity
  8
1
  6
Continuous
 62
     7
100
AcDbCircle
 10
80.20721253815304
 20
301.8481589694392
 30
0.0
 40
2.635655268700735
100
AcDbArc
 50
29.81983142576386
 51
32.75164132976182
  0
ARC
  5
13E
330
4D
100
AcDbEntity
  8
1
  6
Continuous
 62
     7
100
AcDbCircle
 10
80.03967605288244
 20
301.7403890958444
 30
0.0
 40
2.83486073938734
100
AcDbArc
 50
32.75164132976659
 51
35.62806700317075
  0
ARC
  5
13F
330
4D
100
AcDbEntity
  8
1
  6
Continuous
 62
     7
100
AcDbCircle
 10
79.93076911238225
 20
301.6623386623201
 30
0.0
 40
2.968848021852643
100
AcDbArc
 50
35.62806700316688
 51
38.51810528404838
  0
ARC
  5
140
330
4D
100
AcDbEntity
  8
1
  6
Continuous
 62
     7
100
AcDbCircle
 10
79.72731182230305
 20
301.5003964293977
 30
0.0
 40
3.228886779906743
100
AcDbArc
 50
38.51810528405071
 51
41.17514053461989
  0
ARC
  5
141
330
4D
100
AcDbEntity
  8
1
  6
Continuous
 62
     7
100
AcDbCircle
 10
79.59402263445367
 20
301.3838126799128
 30
0.0
 40
3.4059680557139
100
AcDbArc
 50
41.17514053461956
 51
43.69457626015177
  0
ARC
  5
142
330
4D
100
AcDbEntity
  8
1
  6
Continuous
 62
     7
100
AcDbCircle
 10
79.35393783304136
 20
301.1544261377953
 30
0.0
 40
3.738020608141702
100
AcDbArc
 50
43.69457626015163
 51
45.99039746615586
  0
ARC
  5
143
330
4D
100
AcDbEntity
  8
1
  6
Continuous
 62
     7
100
AcDbCircle
 10
79.20606870403725
 20
301.0013545201537
 30
0.0
 40
3.950849646197772
100
AcDbArc
 50
45.99039746615508
 51
48.29355234314032
  0
ARC
  5
144
330
4D
100
AcDbEntity
  8
1
  6
Continuous
 62
     7
100
AcDbCircle
 10
78.98806178558556
 20
300.7567243496033
 30
0.0
 40
4.2785246938231
100
AcDbArc
 50
48.2935523431407
 51
50.54097616601267
  0
ARC
  5
145
330
4D
100
AcDbEntity
  8
1
  6
Continuous
 62
     7
100
AcDbCircle
 10
76.14510336472324
 20
310.6554051902998
 30
0.0
 40
12.1171832637499
100
AcDbArc
 50
-90.04384403443552
 51
-83.50322681730822
  0
ARC
  5
146
330
4D
100
AcDbEntity
  8
1
  6
Continuous
 62
     7
100
AcDbCircle
 10
76.19029247825367
 20
310.2585867379889
 30
0.0
 40
11.71780006420821
100
AcDbArc
 50
-83.5032268173083
 51
-81.28919856903076
  0
ARC
  5
147
330
4D
100
AcDbEntity
  8
1
  6
Continuous
 62
     7
100
AcDbCircle
 10
76.29060032265795
 20
309.6038975182426
 30
0.0
 40
11.05547111413809
100
AcDbArc
 50
-81.28919856903036
 51
-78.94250833563253
  0
ARC
  5
148
330
4D
100
AcDbEntity
  8
1
  6
Continuous
 62
     7
100
AcDbCircle
 10
76.32163849434477
 20
309.4450709971334
 30
0.0
 40
10.89364023973749
100
AcDbArc
 50
-78.94250833563245
 51
-77.80241211342739
  0
ARC
  5
149
330
4D
100
AcDbEntity
  8
1
  6
Continuous
 62
     7
100
AcDbCircle
 10
76.44733001545876
 20
308.8636061750315
 30
0.0
 40
10.29874554500408
100
AcDbArc
 50
-77.80241211342745
 51
-76.59644657029112
  0
ARC
  5
14A
330
4D
100
AcDbEntity
  8
1
  6
Continuous
 62
     7
100
AcDbCircle
 10
76.47229157135607
 20
308.7588573476932
 30
0.0
 40
10.19106362404428
100
AcDbArc
 50
-76.59644657029176
 51
-75.37776435552293
  0
ARC
  5
14B
330
4D
100
AcDbEntity
  8
1
  6
Continuous
 62
     7
100
AcDbCircle
 10
76.60641570749016
 20
308.2447648474995
 30
0.0
 40
9.65976297220111
100
AcDbArc
 50
-75.37776435552293
 51
-74.09206087472236
  0
ARC
  5
14C
330
4D
100
AcDbEntity
  8
1
  6
Continuous
 62
     7
100
AcDbCircle
 10
76.65195924052645
 20
308.0849670740421
 30
0.0
 40
9.493601779970868
100
AcDbArc
 50
-74.09206087472182
 51
-72.17102362415851
  0
ARC
  5
14D
330
4D
100
AcDbEntity
  8
1
  6
Continuous
 62
     7
100
AcDbCircle
 10
76.90204997198404
 20
307.307376968963
 30
0.0
 40
8.67678371854095
100
AcDbArc
 50
-72.171023624158
 51
-70.83006879394644
  0
ARC
  5
14E
330
4D
100
AcDbEntity
  8
1
  6
Continuous
 62
     7
100
AcDbCircle
 10
76.90534416879714
 20
307.2979013154895
 30
0.0
 40
8.666751782467058
100
AcDbArc
 50
-70.83006879394696
 51
-69.48758802997401
  0
ARC
  5
14F
330
4D
100
AcDbEntity
  8
1
  6
Continuous
 62
     7
100
AcDbCircle
 10
77.16379392360915
 20
306.6071022848132
 30
0.0
 40
7.929188512946511
100
AcDbArc
 50
-69.48758802997413
 51
-68.02027924333234
  0
ARC
  5
150
330
4D
100
AcDbEntity
  8
1
  6
Continuous
 62
     7
100
AcDbCircle
 10
77.16982638423247
 20
306.5921561924606
 30
0.0
 40
7.913070936894786
100
AcDbArc
 50
-68.02027924333173
 51
-66.54994188858751
  0
ARC
  5
151
330
4D
100
AcDbEntity
  8
1
  6
Continuous
 62
     7
100
AcDbCircle
 10
77.42196818857457
 20
306.0108847121413
 30
0.0
 40
7.279468519499338
100
AcDbArc
 50
-66.54994188858808
 51
-65.01763939763085
  0
ARC
  5
152
330
4D
100
AcDbEntity
  8
1
  6
Continuous
 62
     7
100
AcDbCircle
 10
77.48648565361145
 20
305.8724152788998
 30
0.0
 40
7.126706327720553
100
AcDbArc
 50
-65.01763939763117
 51
-63.51999786437673
  0
ARC
  5
153
330
4D
100
AcDbEntity
  8
1
  6
Continuous
 62
     7
100
AcDbCircle
 10
77.78619512941575
 20
305.2707652797333
 30
0.0
 40
6.454539316194566
100
AcDbArc
 50
-63.51999786437676
 51
-61.86644107653837
  0
ARC
  5
154
330
4D
100
AcDbEntity
  8
1
  6
Continuous
 62
     7
100
AcDbCircle
 10
77.84903614066565
 20
305.153240249164
 30
0.0
 40
6.321268443513226
100
AcDbArc
 50
-61.86644107653761
 51
-60.17813178996781
  0
ARC
  5
155
330
4D
100
AcDbEntity
  8
1
  6
Continuous
 62
     7
100
AcDbCircle
 10
78.11846109227724
 20
304.6832138392124
 30
0.0
 40
5.779498537923274
100
AcDbArc
 50
-60.17813178996887
 51
-58.33145732953897
  0
ARC
  5
156
330
4D
100
AcDbEntity
  8
1
  6
Continuous
 62
     7
100
AcDbCircle
 10
78.17526380501835
 20
304.5911293632473
 30
0.0
 40
5.671303811210201
100
AcDbArc
 50
-58.33145732953788
 51
-56.54261129492814
  0
ARC
  5
157
330
4D
100
AcDbEntity
  8
1
  6
Continuous
 62
     7
100
AcDbCircle
 10
78.53437900220337
 20
304.0476877865413
 30
0.0
 40
5.019926445820529
100
AcDbArc
 50
-56.54261129492853
 51
-55.58479018327491
  0
ARC
  5
158
330
4D
100
AcDbEntity
  8
1
  6
Continuous
 62
     7
100
AcDbCircle
 10
78.44751633692727
 20
304.1744752958755
 30
0.0
 40
5.173615076311088
100
AcDbArc
 50
-55.58479018327532
 51
-53.72604720347686
  0
ARC
  5
159
330
4D
100
AcDbEntity
  8
1
  6
Continuous
 62
     7
100
AcDbCircle
 10
78.82951524147586
 20
303.6539510030543
 30
0.0
 40
4.527961374630847
100
AcDbArc
 50
-53.7260472034767
 51
-51.60249499566662
  0
ARC
  5
15A
330
4D
100
AcDbEntity
  8
1
  6
Continuous
 62
     7
100
AcDbCircle
 10
78.84576057813536
 20
303.6334526556291
 30
0.0
 40
4.501806199037073
100
AcDbArc
 50
-51.60249499566598
 51
-49.46672482297215
  0
ARC
  5
15B
330
4D
100
AcDbEntity
  8
1
  6
Continuous
 62
     7
100
AcDbCircle
 10
79.17130876864326
 20
303.252732647499
 30
0.0
 40
4.000877712191325
100
AcDbArc
 50
-49.46672482297227
 51
-47.06283292397305
  0
ARC
  5
15C
330
4D
100
AcDbEntity
  8
1
  6
Continuous
 62
     7
100
AcDbCircle
 10
79.19622202119567
 20
303.2259576465629
 30
0.0
 40
3.964304896769601
100
AcDbArc
 50
-47.06283292397357
 51
-44.89834186822075
  0
ARC
  5
15D
330
4D
100
AcDbEntity
  8
1
  6
Continuous
 62
     7
100
AcDbCircle
 10
79.54813883368746
 20
302.8752874138712
 30
0.0
 40
3.467500050768211
100
AcDbArc
 50
-44.89834186822036
 51
-42.42339965240844
  0
ARC
  5
15E
330
4D
100
AcDbEntity
  8
1
  6
Continuous
 62
     7
100
AcDbCircle
 10
79.59390276718645
 20
302.8334649135749
 30
0.0
 40
3.405504412693325
100
AcDbArc
 50
-42.42339965240855
 51
-39.90392927687855
  0
ARC
  5
15F
330
4D
100
AcDbEntity
  8
1
  6
Continuous
 62
     7
100
AcDbCircle
 10
79.89016696143867
 20
302.585715073636
 30
0.0
 40
3.019301802673946
100
AcDbArc
 50
-39.90392927687901
 51
-37.06249637678967
  0
ARC
  5
160
330
4D
100
AcDbEntity
  8
1
  6
Continuous
 62
     7
100
AcDbCircle
 10
79.93197876021614
 20
302.5541360599005
 30
0.0
 40
2.966904659378588
100
AcDbArc
 50
-37.06249637678792
 51
-34.16969710193686
  0
ARC
  5
161
330
4D
100
AcDbEntity
  8
1
  6
Continuous
 62
     7
100
AcDbCircle
 10
80.18174652785817
 20
302.3845870998229
 30
0.0
 40
2.665025896269637
100
AcDbArc
 50
-34.16969710193987
 51
-31.27086980468964
  0
ARC
  5
162
330
4D
100
AcDbEntity
  8
1
  6
Continuous
 62
     7
100
AcDbCircle
 10
80.20197534015966
 20
302.372301871494
 30
0.0
 40
2.641358795006042
100
AcDbArc
 50
-31.27086980468793
 51
-28.34531312311091
  0
ARC
  5
163
330
4D
100
AcDbEntity
  8
1
  6
Continuous
 62
     7
100
AcDbCircle
 10
80.43931159905415
 20
302.2442672403572
 30
0.0
 40
2.371689800576933
100
AcDbArc
 50
-28.34531312311156
 51
-25.08804044719288
  0
ARC
  5
164
330
4D
100
AcDbEntity
  8
1
  6
Continuous
 62
     7
100
AcDbCircle
 10
80.47300088396455
 20
302.2284946004346
 30
0.0
 40
2.334491089740249
100
AcDbArc
 50
-25.08804044719191
 51
-21.78003181772631
  0
ARC
  5
165
330
4D
100
AcDbEntity
  8
1
  6
Continuous
 62
     7
100
AcDbCircle
 10
80.67933718500365
 20
302.1460493707847
 30
0.0
 40
2.112293238673985
100
AcDbArc
 50
-21.78003181772594
 51
-18.12326386993382
  0
ARC
  5
166
330
4D
100
AcDbEntity
  8
1
  6
Continuous
 62
     7
100
AcDbCircle
 10
80.70119578604044
 20
302.1388950539613
 30
0.0
 40
2.089293615014041
100
AcDbArc
 50
-18.12326386993387
 51
-11.20237824740625
  0
ARC
  5
167
330
4D
100
AcDbEntity
  8
1
  6
Continuous
 62
     7
100
AcDbCircle
 10
80.82861878834345
 20
302.1136591235688
 30
0.0
 40
1.959395679315718
100
AcDbArc
 50
-11.20237824740618
 51
-5.66707811642226
  0
ARC
  5
168
330
4D
100
AcDbEntity
  8
1
  6
Continuous
 62
     7
100
AcDbCircle
 10
80.83361401782125
 20
302.1131634320474
 30
0.0
 40
1.954375915614166
100
AcDbArc
 50
-5.66707811642087
 51
-1.96932947907176
  0
ARC
  5
169
330
4D
100
AcDbEntity
  8
1
  6
Continuous
 62
     7
100
AcDbCircle
 10
80.98789087981797
 20
302.1078586491298
 30
0.0
 40
1.80000787854245
100
AcDbArc
 50
-1.96932947907784
 51
0.03768308224469
  0
ARC
  5
16A
330
4D
100
AcDbEntity
  8
1
  6
Continuous
 62
     7
100
AcDbCircle
 10
65.63583102122877
 20
302.1090425031696
 30
0.0
 40
5.000000000000033
100
AcDbArc
 50
124.0557977425694
 51
-105.3375576695566
  0
ARC
  5
16B
330
4D
100
AcDbEntity
  8
1
  6
Continuous
 62
     7
100
AcDbCircle
 10
71.36900244138246
 20
302.1088732608425
 30
0.0
 40
1.885238775575521
100
AcDbArc
 50
176.1620820103275
 51
179.9948564228592
  0
ARC
  5
16C
330
4D
100
AcDbEntity
  8
1
  6
Continuous
 62
     7
100
AcDbCircle
 10
71.44281942156235
 20
302.1039212731332
 30
0.0
 40
1.959221670525329
100
AcDbArc
 50
170.6273989135987
 51
176.1620820103294
  0
ARC
  5
16D
330
4D
100
AcDbEntity
  8
1
  6
Continuous
 62
     7
100
AcDbCircle
 10
71.52705285897585
 20
302.0900178992052
 30
0.0
 40
2.044594826640569
100
AcDbArc
 50
165.321928428709
 51
170.6273989135969
  0
ARC
  5
16E
330
4D
100
AcDbEntity
  8
1
  6
Continuous
 62
     7
100
AcDbCircle
 10
71.56975896678185
 20
302.078831629343
 30
0.0
 40
2.088741675648935
100
AcDbArc
 50
160.0120569265356
 51
165.3219284287098
  0
ARC
  5
16F
330
4D
100
AcDbEntity
  8
1
  6
Continuous
 62
     7
100
AcDbCircle
 10
71.70405174269456
 20
302.0299850571008
 30
0.0
 40
2.231642121002147
100
AcDbArc
 50
156.5516000346956
 51
160.0120569265367
  0
ARC
  5
170
330
4D
100
AcDbEntity
  8
1
  6
Continuous
 62
     7
100
AcDbCircle
 10
71.80198838042554
 20
301.9875058302382
 30
0.0
 40
2.338394496736365
100
AcDbArc
 50
153.2486225522298
 51
156.5516000346969
  0
ARC
  5
171
330
4D
100
AcDbEntity
  8
1
  6
Continuous
 62
     7
100
AcDbCircle
 10
71.96244785364576
 20
301.906622759858
 30
0.0
 40
2.518086771529219
100
AcDbArc
 50
150.1801685742335
 51
153.2486225522281
  0
ARC
  5
172
330
4D
100
AcDbEntity
  8
1
  6
Continuous
 62
     7
100
AcDbCircle
 10
72.06444950430415
 20
301.8481589694392
 30
0.0
 40
2.635655268700652
100
AcDbArc
 50
147.2483586702368
 51
150.1801685742362
  0
ARC
  5
173
330
4D
100
AcDbEntity
  8
1
  6
Continuous
 62
     7
100
AcDbCircle
 10
72.23198598957495
 20
301.7403890958444
 30
0.0
 40
2.834860739387379
100
AcDbArc
 50
144.3719329968303
 51
147.2483586702344
  0
ARC
  5
174
330
4D
100
AcDbEntity
  8
1
  6
Continuous
 62
     7
100
AcDbCircle
 10
72.34089293007494
 20
301.6623386623201
 30
0.0
 40
2.968848021852658
100
AcDbArc
 50
141.4818947159503
 51
144.3719329968318
  0
ARC
  5
175
330
4D
100
AcDbEntity
  8
1
  6
Continuous
 62
     7
100
AcDbCircle
 10
72.54435022015434
 20
301.5003964293977
 30
0.0
 40
3.228886779906845
100
AcDbArc
 50
138.8248594653825
 51
141.4818947159503
  0
ARC
  5
176
330
4D
100
AcDbEntity
  8
1
  6
Continuous
 62
     7
100
AcDbCircle
 10
72.67763940800376
 20
301.3838126799128
 30
0.0
 40
3.405968055714006
100
AcDbArc
 50
136.3054237398495
 51
138.824859465383
  0
ARC
  5
177
330
4D
100
AcDbEntity
  8
1
  6
Continuous
 62
     7
100
AcDbCircle
 10
72.91772420941595
 20
301.1544261377953
 30
0.0
 40
3.738020608141824
100
AcDbArc
 50
134.0096025338454
 51
136.3054237398484
  0
ARC
  5
178
330
4D
100
AcDbEntity
  8
1
  6
Continuous
 62
     7
100
AcDbCircle
 10
73.06559333842006
 20
301.0013545201537
 30
0.0
 40
3.950849646197751
100
AcDbArc
 50
131.7064476568609
 51
134.0096025338461
  0
ARC
  5
179
330
4D
100
AcDbEntity
  8
1
  6
Continuous
 62
     7
100
AcDbCircle
 10
73.28360025687175
 20
300.7567243496033
 30
0.0
 40
4.278524693823244
100
AcDbArc
 50
129.4590238339885
 51
131.7064476568604
  0
ARC
  5
17A
330
4D
100
AcDbEntity
  8
1
  6
Continuous
 62
     7
100
AcDbCircle
 10
76.12655867773407
 20
310.6554051902998
 30
0.0
 40
12.11718326374983
100
AcDbArc
 50
-96.49677318269139
 51
-89.9561559655634
  0
ARC
  5
17B
330
4D
100
AcDbEntity
  8
1
  6
Continuous
 62
     7
100
AcDbCircle
 10
76.08136956420364
 20
310.2585867379889
 30
0.0
 40
11.71780006420825
100
AcDbArc
 50
-98.71080143096978
 51
-96.4967731826913
  0
ARC
  5
17C
330
4D
100
AcDbEntity
  8
1
  6
Continuous
 62
     7
100
AcDbCircle
 10
75.98106171979936
 20
309.6038975182426
 30
0.0
 40
11.0554711141382
100
AcDbArc
 50
-101.0574916643671
 51
-98.71080143097022
  0
ARC
  5
17D
330
4D
100
AcDbEntity
  8
1
  6
Continuous
 62
     7
100
AcDbCircle
 10
75.95002354811254
 20
309.4450709971334
 30
0.0
 40
10.89364023973751
100
AcDbArc
 50
-102.1975878865732
 51
-101.0574916643671
  0
ARC
  5
17E
330
4D
100
AcDbEntity
  8
1
  6
Continuous
 62
     7
100
AcDbCircle
 10
75.82433202699855
 20
308.8636061750315
 30
0.0
 40
10.29874554500395
100
AcDbArc
 50
-103.4035534297089
 51
-102.1975878865732
  0
ARC
  5
17F
330
4D
100
AcDbEntity
  8
1
  6
Continuous
 62
     7
100
AcDbCircle
 10
75.79937047110124
 20
308.7588573476932
 30
0.0
 40
10.19106362404448
100
AcDbArc
 50
-104.6222356444777
 51
-103.4035534297083
  0
ARC
  5
180
330
4D
100
AcDbEntity
  8
1
  6
Continuous
 62
     7
100
AcDbCircle
 10
75.66524633496715
 20
308.2447648474995
 30
0.0
 40
9.659762972201095
100
AcDbArc
 50
-105.9079391252776
 51
-104.6222356444777
  0
ARC
  5
181
330
4D
100
AcDbEntity
  8
1
  6
Continuous
 62
     7
100
AcDbCircle
 10
75.61970280193074
 20
308.0849670740421
 30
0.0
 40
9.493601779970648
100
AcDbArc
 50
-107.8289763758404
 51
-105.9079391252775
  0
ARC
  5
182
330
4D
100
AcDbEntity
  8
1
  6
Continuous
 62
     7
100
AcDbCircle
 10
75.36961207047327
 20
307.307376968963
 30
0.0
 40
8.676783718541069
100
AcDbArc
 50
-109.1699312060536
 51
-107.8289763758415
  0
ARC
  5
183
330
4D
100
AcDbEntity
  8
1
  6
Continuous
 62
     7
100
AcDbCircle
 10
75.36631787366025
 20
307.2979013154895
 30
0.0
 40
8.666751782467049
100
AcDbArc
 50
-110.5124119700272
 51
-109.1699312060536
  0
ARC
  5
184
330
4D
100
AcDbEntity
  8
1
  6
Continuous
 62
     7
100
AcDbCircle
 10
75.10786811884816
 20
306.6071022848132
 30
0.0
 40
7.929188512946581
100
AcDbArc
 50
-111.9797207566682
 51
-110.5124119700267
  0
ARC
  5
185
330
4D
100
AcDbEntity
  8
1
  6
Continuous
 62
     7
100
AcDbCircle
 10
75.10183565822484
 20
306.5921561924606
 30
0.0
 40
7.913070936894874
100
AcDbArc
 50
-113.4500581114125
 51
-111.9797207566689
  0
ARC
  5
186
330
4D
100
AcDbEntity
  8
1
  6
Continuous
 62
     7
100
AcDbCircle
 10
74.84969385388285
 20
306.0108847121413
 30
0.0
 40
7.279468519499305
100
AcDbArc
 50
-114.9823606023708
 51
-113.4500581114127
  0
ARC
  5
187
330
4D
100
AcDbEntity
  8
1
  6
Continuous
 62
     7
100
AcDbCircle
 10
74.78517638884594
 20
305.8724152788998
 30
0.0
 40
7.126706327720718
100
AcDbArc
 50
-116.4800021356247
 51
-114.9823606023703
  0
ARC
  5
188
330
4D
100
AcDbEntity
  8
1
  6
Continuous
 62
     7
100
AcDbCircle
 10
74.48546691304165
 20
305.2707652797333
 30
0.0
 40
6.454539316194592
100
AcDbArc
 50
-118.1335589234632
 51
-116.4800021356248
  0
ARC
  5
189
330
4D
100
AcDbEntity
  8
1
  6
Continuous
 62
     7
100
AcDbCircle
 10
74.42262590179155
 20
305.153240249164
 30
0.0
 40
6.32126844351321
100
AcDbArc
 50
-119.8218682100322
 51
-118.1335589234624
  0
ARC
  5
18A
330
4D
100
AcDbEntity
  8
1
  6
Continuous
 62
     7
100
AcDbCircle
 10
74.15320095018015
 20
304.6832138392124
 30
0.0
 40
5.779498537923284
100
AcDbArc
 50
-121.6685426704618
 51
-119.8218682100329
  0
ARC
  5
18B
330
4D
100
AcDbEntity
  8
1
  6
Continuous
 62
     7
100
AcDbCircle
 10
74.09639823743896
 20
304.5911293632473
 30
0.0
 40
5.671303811210175
100
AcDbArc
 50
-123.4573887050719
 51
-121.6685426704621
  0
ARC
  5
18C
330
4D
100
AcDbEntity
  8
1
  6
Continuous
 62
     7
100
AcDbCircle
 10
73.73728304025394
 20
304.0476877865413
 30
0.0
 40
5.01992644582063
100
AcDbArc
 50
-124.4152098167251
 51
-123.4573887050715
  0
ARC
  5
18D
330
4D
100
AcDbEntity
  8
1
  6
Continuous
 62
     7
100
AcDbCircle
 10
73.82414570553016
 20
304.1744752958755
 30
0.0
 40
5.173615076311148
100
AcDbArc
 50
-126.2739527965252
 51
-124.4152098167257
  0
ARC
  5
18E
330
4D
100
AcDbEntity
  8
1
  6
Continuous
 62
     7
100
AcDbCircle
 10
73.44214680098145
 20
303.6539510030543
 30
0.0
 40
4.527961374630956
100
AcDbArc
 50
-128.3975050043343
 51
-126.2739527965245
  0
ARC
  5
18F
330
4D
100
AcDbEntity
  8
1
  6
Continuous
 62
     7
100
AcDbCircle
 10
73.42590146432195
 20
303.6334526556291
 30
0.0
 40
4.50180619903703
100
AcDbArc
 50
-130.533275177027
 51
-128.3975050043349
  0
ARC
  5
190
330
4D
100
AcDbEntity
  8
1
  6
Continuous
 62
     7
100
AcDbCircle
 10
73.10035327381405
 20
303.252732647499
 30
0.0
 40
4.000877712191346
100
AcDbArc
 50
-132.9371670760282
 51
-130.5332751770268
  0
ARC
  5
191
330
4D
100
AcDbEntity
  8
1
  6
Continuous
 62
     7
100
AcDbCircle
 10
73.07544002126156
 20
303.2259576465629
 30
0.0
 40
3.96430489676951
100
AcDbArc
 50
-135.1016581317784
 51
-132.9371670760267
  0
ARC
  5
192
330
4D
100
AcDbEntity
  8
1
  6
Continuous
 62
     7
100
AcDbCircle
 10
72.72352320876985
 20
302.8752874138712
 30
0.0
 40
3.46750005076838
100
AcDbArc
 50
-137.5766003475916
 51
-135.1016581317797
  0
ARC
  5
193
330
4D
100
AcDbEntity
  8
1
  6
Continuous
 62
     7
100
AcDbCircle
 10
72.67775927527075
 20
302.8334649135749
 30
0.0
 40
3.405504412693198
100
AcDbArc
 50
-140.0960707231214
 51
-137.5766003475902
  0
ARC
  5
194
330
4D
100
AcDbEntity
  8
1
  6
Continuous
 62
     7
100
AcDbCircle
 10
72.38149508101864
 20
302.585715073636
 30
0.0
 40
3.019301802673949
100
AcDbArc
 50
-142.9375036232103
 51
-140.0960707231224
  0
ARC
  5
195
330
4D
100
AcDbEntity
  8
1
  6
Continuous
 62
     7
100
AcDbCircle
 10
72.33968328224125
 20
302.5541360599005
 30
0.0
 40
2.966904659378789
100
AcDbArc
 50
-145.8303028980641
 51
-142.9375036232131
  0
ARC
  5
196
330
4D
100
AcDbEntity
  8
1
  6
Continuous
 62
     7
100
AcDbCircle
 10
72.08991551459914
 20
302.3845870998229
 30
0.0
 40
2.665025896269657
100
AcDbArc
 50
-148.7291301953104
 51
-145.8303028980601
  0
ARC
  5
197
330
4D
100
AcDbEntity
  8
1
  6
Continuous
 62
     7
100
AcDbCircle
 10
72.06968670229765
 20
302.372301871494
 30
0.0
 40
2.641358795006076
100
AcDbArc
 50
-151.6546868768903
 51
-148.7291301953121
  0
ARC
  5
198
330
4D
100
AcDbEntity
  8
1
  6
Continuous
 62
     7
100
AcDbCircle
 10
71.83235044340304
 20
302.2442672403572
 30
0.0
 40
2.371689800576806
100
AcDbArc
 50
-154.9119595528071
 51
-151.6546868768885
  0
ARC
  5
199
330
4D
100
AcDbEntity
  8
1
  6
Continuous
 62
     7
100
AcDbCircle
 10
71.79866115849265
 20
302.2284946004346
 30
0.0
 40
2.334491089740281
100
AcDbArc
 50
-158.2199681822727
 51
-154.9119595528081
  0
ARC
  5
19A
330
4D
100
AcDbEntity
  8
1
  6
Continuous
 62
     7
100
AcDbCircle
 10
71.59232485745355
 20
302.1460493707847
 30
0.0
 40
2.11229323867388
100
AcDbArc
 50
-161.8767361300659
 51
-158.2199681822729
  0
ARC
  5
19B
330
4D
100
AcDbEntity
  8
1
  6
Continuous
 62
     7
100
AcDbCircle
 10
71.57046625641695
 20
302.1388950539613
 30
0.0
 40
2.089293615014119
100
AcDbArc
 50
-168.7976217525942
 51
-161.8767361300676
  0
ARC
  5
19C
330
4D
100
AcDbEntity
  8
1
  6
Continuous
 62
     7
100
AcDbCircle
 10
71.44304325411375
 20
302.1136591235688
 30
0.0
 40
1.959395679315609
100
AcDbArc
 50
-174.3329218835772
 51
-168.7976217525932
  0
ARC
  5
19D
330
4D
100
AcDbEntity
  8
1
  6
Continuous
 62
     7
100
AcDbCircle
 10
71.43804802463595
 20
302.1131634320474
 30
0.0
 40
1.954375915614111
100
AcDbArc
 50
-178.0306705209283
 51
-174.3329218835786
  0
ARC
  5
19E
330
4D
100
AcDbEntity
  8
1
  6
Continuous
 62
     7
100
AcDbCircle
 10
71.28377116263934
 20
302.1078586491298
 30
0.0
 40
1.800007878542475
100
AcDbArc
 50
179.9623169177553
 51
-178.0306705209223
  0
ARC
  5
19F
330
4D
100
AcDbEntity
  8
1
  6
Continuous
 62
     7
100
AcDbCircle
 10
176.9252677423657
 20
135.3753419286554
 30
0.0
 40
5.000000000000057
100
AcDbArc
 50
-44.42700400080507
 51
-34.05579774256767
  0
ARC
  5
1A0
330
4D
100
AcDbEntity
  8
1
  6
Continuous
 62
     7
100
AcDbCircle
 10
176.9252677423657
 20
156.3753419286555
 30
0.0
 40
4.999999999999977
100
AcDbArc
 50
135.5729959991959
 51
164.6624423304459
  0
ARC
  5
1A1
330
4D
100
AcDbEntity
  8
1
  6
Continuous
 62
     7
100
AcDbCircle
 10
76.13583102122865
 20
145.8753419286554
 30
0.0
 40
15.49999999999985
100
AcDbArc
 50
-124.5853790848394
 51
-119.329624645484
  0
ARC
  5
1A2
330
4D
100
AcDbEntity
  8
1
  6
Continuous
 62
     7
100
AcDbCircle
 10
76.13583102122865
 20
145.8753419286554
 30
0.0
 40
10.5
100
AcDbArc
 50
-43.69004002076463
 51
0.0
  0
ARC
  5
1A3
330
4D
100
AcDbEntity
  8
1
  6
Continuous
 62
     7
100
AcDbCircle
 10
76.13583102122865
 20
145.8753419286554
 30
0.0
 40
10.5
100
AcDbArc
 50
0.0
 51
-136.3099599792354
  0
ARC
  5
1A4
330
4D
100
AcDbEntity
  8
1
  6
Continuous
 62
     7
100
AcDbCircle
 10
76.13583102122865
 20
145.8753419286554
 30
0.0
 40
8.199999999999934
100
AcDbArc
 50
-22.19487395057127
 51
0.0
  0
ARC
  5
1A5
330
4D
100
AcDbEntity
  8
1
  6
Continuous
 62
     7
100
AcDbCircle
 10
76.13583102122865
 20
145.8753419286554
 30
0.0
 40
8.199999999999989
100
AcDbArc
 50
0.0
 51
-157.8051260494282
  0
ARC
  5
1A6
330
4D
100
AcDbEntity
  8
1
  6
Continuous
 62
     7
100
AcDbCircle
 10
76.13583102122865
 20
145.8753419286554
 30
0.0
 40
15.50000000000013
100
AcDbArc
 50
55.41462091516136
 51
64.5853790848391
  0
ARC
  5
1A7
330
4D
100
AcDbEntity
  8
1
  6
Continuous
 62
     7
100
AcDbCircle
 10
76.13583102122865
 20
145.8753419286554
 30
0.0
 40
15.5
100
AcDbArc
 50
0.0
 51
4.58537908483969
  0
ARC
  5
1A8
330
4D
100
AcDbEntity
  8
1
  6
Continuous
 62
     7
100
AcDbCircle
 10
76.13583102122865
 20
145.8753419286554
 30
0.0
 40
15.49999999999995
100
AcDbArc
 50
-60.67037535451601
 51
-55.41462091516065
  0
ARC
  5
1A9
330
4D
100
AcDbEntity
  8
1
  6
Continuous
 62
     7
100
AcDbCircle
 10
76.13583102122865
 20
145.8753419286554
 30
0.0
 40
15.50000000000001
100
AcDbArc
 50
180.0
 51
-175.4146209151616
  0
ARC
  5
1AA
330
4D
100
AcDbEntity
  8
1
  6
Continuous
 62
     7
100
AcDbCircle
 10
76.13583102122865
 20
145.8753419286554
 30
0.0
 40
15.49999999999999
100
AcDbArc
 50
115.4146209151609
 51
124.5853790848386
  0
ARC
  5
1AB
330
4D
100
AcDbEntity
  8
1
  6
Continuous
 62
     7
100
AcDbCircle
 10
76.13583102122865
 20
145.8753419286554
 30
0.0
 40
15.50000000000006
100
AcDbArc
 50
175.4146209151604
 51
180.0
  0
ARC
  5
1AC
330
4D
100
AcDbEntity
  8
1
  6
Continuous
 62
     7
100
AcDbCircle
 10
76.13583102122865
 20
145.8753419286554
 30
0.0
 40
15.49999999999992
100
AcDbArc
 50
-4.58537908483843
 51
0.0
  0
ARC
  5
1AD
330
4D
100
AcDbEntity
  8
1
  6
Continuous
 62
     7
100
AcDbCircle
 10
176.9252677423657
 20
156.3753419286555
 30
0.0
 40
5.000000000000017
100
AcDbArc
 50
34.05579774256793
 51
44.42700400080482
  0
ARC
  5
1AE
330
4D
100
AcDbEntity
  8
1
  6
Continuous
 62
     7
100
AcDbCircle
 10
176.9252677423657
 20
135.3753419286554
 30
0.0
 40
4.999999999999985
100
AcDbArc
 50
-164.6624423304459
 51
-135.5729959991949
  0
SPLINE
  5
1AF
330
4D
100
AcDbEntity
  8
1
  6
Continuous
 62
     7
100
AcDbSpline
210
0.0
220
0.0
230
1.0
 70
    11
 71
     3
 72
    79
 73
    75
 74
    73
 42
0.0000000001
 43
0.0000000001
 44
0.00000001
 40
0.0
 40
0.0
 40
0.0
 40
0.0
 40
0.2903672562529132
 40
0.5807357597933998
 40
0.8724071051836753
 40
1.164081918217494
 40
1.458189931540098
 40
1.752302927360589
 40
2.049663207833805
 40
2.347029113126236
 40
2.648045792769448
 40
2.94906794293899
 40
3.253697753141654
 40
3.558332281909245
 40
3.866104864362648
 40
4.173881026138483
 40
4.483966067734985
 40
4.794053328114049
 40
5.105362224076105
 40
5.416671870214279
 40
5.727981516352397
 40
6.039290412314454
 40
6.349377672693408
 40
6.659462714289909
 40
6.967238876065848
 40
7.275011458519253
 40
7.579645987286892
 40
7.884275797489464
 40
8.185297947659093
 40
8.486314627302345
 40
8.783680532594806
 40
9.081040813067931
 40
9.375153808888427
 40
9.669261822211002
 40
9.960936635244851
 40
10.25260798063512
 40
10.5429764841756
 40
10.8333437404285
 40
11.12371099668145
 40
11.41407950022198
 40
11.70575084561228
 40
11.99742565864609
 40
12.29153367196869
 40
12.58564666778923
 40
12.88300694826235
 40
13.18037285355482
 40
13.48138953319808
 40
13.7824116833677
 40
14.0870414935702
 40
14.3916760223378
 40
14.69944860479124
 40
15.00722476656722
 40
15.31730980816368
 40
15.62739706854268
 40
15.93870596450478
 40
16.25001561064284
 40
16.56132525678101
 40
16.87263415274305
 40
17.18272141312205
 40
17.49280645471862
 40
17.80058261649451
 40
18.10835519894786
 40
18.41298972771549
 40
18.71761953791812
 40
19.01864168808761
 40
19.31965836773087
 40
19.61702427302338
 40
19.91438455349653
 40
20.20849754931706
 40
20.5026055626397
 40
20.79428037567348
 40
21.08595172106378
 40
21.37632022460432
 40
21.66668748085727
 40
21.66668748085727
 40
21.66668748085727
 40
21.66668748085727
 10
64.01147536824647
 20
298.5383282888981
 30
0.0
 10
63.91465155851246
 20
298.5409598863008
 30
0.0
 10
63.72100352313277
 20
298.5462230924105
 30
0.0
 10
63.43264264474452
 20
298.5885181661045
 30
0.0
 10
63.14893050149827
 20
298.6557290591464
 30
0.0
 10
62.87150543913808
 20
298.7497842246984
 30
0.0
 10
62.60318452806217
 20
298.8692156826143
 30
0.0
 10
62.34518476495173
 20
299.0134911782839
 30
0.0
 10
62.10038276192965
 20
299.1810952536472
 30
0.0
 10
61.86968653708578
 20
299.3712578079482
 30
0.0
 10
61.65579083001689
 20
299.5818805283878
 30
0.0
 10
61.45941728763765
 20
299.8121021443367
 30
0.0
 10
61.28286794266884
 20
300.059338567843
 30
0.0
 10
61.12676514618886
 20
300.3225727421902
 30
0.0
 10
60.99287613176652
 20
300.5989362968658
 30
0.0
 10
60.88174811494795
 20
300.8871497408151
 30
0.0
 10
60.79455735514861
 20
301.1842881840507
 30
0.0
 10
60.73173174868986
 20
301.4887113381603
 30
0.0
 10
60.69388319891547
 20
301.797647950526
 30
0.0
 10
60.68122093695773
 20
302.1090425031698
 30
0.0
 10
60.69388319891548
 20
302.4204370558121
 30
0.0
 10
60.73173174868985
 20
302.7293736681825
 30
0.0
 10
60.79455735514863
 20
303.033796822275
 30
0.0
 10
60.88174811494798
 20
303.3309352655732
 30
0.0
 10
60.99287613176649
 20
303.6191487092908
 30
0.0
 10
61.12676514618889
 20
303.8955122648271
 30
0.0
 10
61.28286794266877
 20
304.1587464359935
 30
0.0
 10
61.45941728763774
 20
304.4059828712989
 30
0.0
 10
61.65579083001686
 20
304.6362044437129
 30
0.0
 10
61.8696865370858
 20
304.8468273255637
 30
0.0
 10
62.10038276192954
 20
305.0369892844709
 30
0.0
 10
62.3451847649518
 20
305.2045955680908
 30
0.0
 10
62.60318452806213
 20
305.3488629085747
 30
0.0
 10
62.87150543913812
 20
305.4683246479318
 30
0.0
 10
63.14893050149825
 20
305.5622676950005
 30
0.0
 10
63.43264264474451
 20
305.629895667448
 30
0.0
 10
63.72100352313277
 20
305.6706407922965
 30
0.0
 10
64.01147536824648
 20
305.6843146702237
 30
0.0
 10
64.30194721336019
 20
305.6706407922966
 30
0.0
 10
64.5903080917485
 20
305.6298956674479
 30
0.0
 10
64.87402023499475
 20
305.5622676950003
 30
0.0
 10
65.15144529735494
 20
305.4683246479318
 30
0.0
 10
65.41976620843091
 20
305.3488629085747
 30
0.0
 10
65.67776597154131
 20
305.2045955680908
 30
0.0
 10
65.92256797456355
 20
305.036989284471
 30
0.0
 10
66.15326419940729
 20
304.8468273255637
 30
0.0
 10
66.36715990647626
 20
304.6362044437129
 30
0.0
 10
66.5635334488554
 20
304.405982871299
 30
0.0
 10
66.74008279382417
 20
304.1587464359935
 30
0.0
 10
66.896185590304
 20
303.8955122648271
 30
0.0
 10
67.03007460472651
 20
303.6191487092909
 30
0.0
 10
67.14120262154511
 20
303.3309352655732
 30
0.0
 10
67.22839338134456
 20
303.0337968222751
 30
0.0
 10
67.29121898780326
 20
302.7293736681825
 30
0.0
 10
67.32906753757749
 20
302.4204370558119
 30
0.0
 10
67.34172979953517
 20
302.1090425031699
 30
0.0
 10
67.32906753757752
 20
301.797647950526
 30
0.0
 10
67.29121898780323
 20
301.4887113381602
 30
0.0
 10
67.22839338134455
 20
301.1842881840508
 30
0.0
 10
67.14120262154512
 20
300.8871497408151
 30
0.0
 10
67.03007460472662
 20
300.5989362968658
 30
0.0
 10
66.8961855903042
 20
300.3225727421903
 30
0.0
 10
66.7400827938243
 20
300.0593385678428
 30
0.0
 10
66.56353344885545
 20
299.8121021443368
 30
0.0
 10
66.36715990647619
 20
299.5818805283878
 30
0.0
 10
66.15326419940733
 20
299.3712578079483
 30
0.0
 10
65.92256797456351
 20
299.1810952536468
 30
0.0
 10
65.67776597154136
 20
299.013491178284
 30
0.0
 10
65.41976620843089
 20
298.8692156826142
 30
0.0
 10
65.15144529735495
 20
298.7497842246983
 30
0.0
 10
64.87402023499473
 20
298.6557290591467
 30
0.0
 10
64.5903080917485
 20
298.5885181661043
 30
0.0
 10
64.30194721336022
 20
298.5462230924106
 30
0.0
 10
64.10829917798048
 20
298.5409598863008
 30
0.0
 10
64.01147536824647
 20
298.5383282888981
 30
0.0
 11
64.01147536824647
 21
298.5383282888981
 31
0.0
 11
63.72142760644844
 21
298.5519459017505
 31
0.0
 11
63.43391568191277
 21
298.5925754611641
 31
0.0
 11
63.1501783720442
 21
298.6601425590026
 31
0.0
 11
62.87390485438897
 21
298.7536687050833
 31
0.0
 11
62.6051877922902
 21
298.8732122705211
 31
0.0
 11
62.34845853129025
 21
299.0167132839563
 31
0.0
 11
62.10304124150815
 21
299.1846224566632
 31
0.0
 11
61.87354213325546
 21
299.373716721361
 31
0.0
 11
61.65898757421859
 21
299.5848502871906
 31
0.0
 11
61.46358575471925
 21
299.8138316485042
 31
0.0
 11
61.28648234957896
 21
300.0616898845018
 31
0.0
 11
61.13104571279575
 21
300.3236853960339
 31
0.0
 11
60.99679248417269
 21
300.6006331043009
 31
0.0
 11
60.88602606838555
 21
300.8877863158294
 31
0.0
 11
60.79866831291256
 21
301.1853117022767
 31
0.0
 11
60.73597161939784
 21
301.488994486892
 31
0.0
 11
60.69808919942865
 21
301.7979898767644
 31
0.0
 11
60.68544169433395
 21
302.1090425031696
 31
0.0
 11
60.69808919942864
 21
302.4200951295747
 31
0.0
 11
60.73597161939784
 21
302.7290905194471
 31
0.0
 11
60.79866831291257
 21
303.0327733040623
 31
0.0
 11
60.88602606838555
 21
303.3302986905096
 31
0.0
 11
60.99679248417269
 21
303.6174519020382
 31
0.0
 11
61.13104571279575
 21
303.8943996103052
 31
0.0
 11
61.28648234957896
 21
304.1563951218374
 31
0.0
 11
61.46358575471925
 21
304.4042533578348
 31
0.0
 11
61.65898757421859
 21
304.6332347191486
 31
0.0
 11
61.87354213325546
 21
304.8443682849782
 31
0.0
 11
62.10304124150814
 21
305.0334625496761
 31
0.0
 11
62.34845853129025
 21
305.2013717223828
 31
0.0
 11
62.6051877922902
 21
305.344872735818
 31
0.0
 11
62.87390485438897
 21
305.4644163012557
 31
0.0
 11
63.15017837204419
 21
305.5579424473366
 31
0.0
 11
63.43391568191277
 21
305.625509545175
 31
0.0
 11
63.72142760644844
 21
305.6661391045885
 31
0.0
 11
64.01147536824647
 21
305.6797567174409
 31
0.0
 11
64.30152313004453
 21
305.6661391045885
 31
0.0
 11
64.58903505458025
 21
305.625509545175
 31
0.0
 11
64.87277236444884
 21
305.5579424473365
 31
0.0
 11
65.14904588210405
 21
305.4644163012557
 31
0.0
 11
65.41776294420285
 21
305.344872735818
 31
0.0
 11
65.67449220520285
 21
305.2013717223828
 31
0.0
 11
65.91990949498495
 21
305.0334625496761
 31
0.0
 11
66.14940860323765
 21
304.8443682849782
 31
0.0
 11
66.36396316227453
 21
304.6332347191486
 31
0.0
 11
66.55936498177385
 21
304.4042533578348
 31
0.0
 11
66.73646838691401
 21
304.1563951218374
 31
0.0
 11
66.89190502369715
 21
303.8943996103052
 31
0.0
 11
67.0261582523203
 21
303.6174519020382
 31
0.0
 11
67.13692466810755
 21
303.3302986905096
 31
0.0
 11
67.22428242358058
 21
303.0327733040624
 31
0.0
 11
67.28697911709526
 21
302.7290905194471
 31
0.0
 11
67.32486153706434
 21
302.4200951295746
 31
0.0
 11
67.33750904215896
 21
302.1090425031696
 31
0.0
 11
67.32486153706435
 21
301.7979898767644
 31
0.0
 11
67.28697911709526
 21
301.488994486892
 31
0.0
 11
67.22428242358058
 21
301.1853117022768
 31
0.0
 11
67.13692466810755
 21
300.8877863158294
 31
0.0
 11
67.02615825232041
 21
300.6006331043008
 31
0.0
 11
66.89190502369735
 21
300.3236853960339
 31
0.0
 11
66.73646838691415
 21
300.0616898845017
 31
0.0
 11
66.55936498177385
 21
299.8138316485042
 31
0.0
 11
66.36396316227453
 21
299.5848502871907
 31
0.0
 11
66.14940860323765
 21
299.373716721361
 31
0.0
 11
65.91990949498495
 21
299.1846224566631
 31
0.0
 11
65.67449220520285
 21
299.0167132839563
 31
0.0
 11
65.41776294420286
 21
298.8732122705211
 31
0.0
 11
65.14904588210405
 21
298.7536687050833
 31
0.0
 11
64.87277236444884
 21
298.6601425590026
 31
0.0
 11
64.58903505458025
 21
298.5925754611641
 31
0.0
 11
64.30152313004453
 21
298.5519459017505
 31
0.0
 11
64.01147536824647
 21
298.5383282888981
 31
0.0
  0
SPLINE
  5
1B0
330
4D
100
AcDbEntity
  8
1
  6
Continuous
 62
     7
100
AcDbSpline
210
0.0
220
0.0
230
1.0
 70
    11
 71
     3
 72
    79
 73
    75
 74
    73
 42
0.0000000001
 43
0.0000000001
 44
0.00000001
 40
0.0
 40
0.0
 40
0.0
 40
0.0
 40
0.2903672562529061
 40
0.5807357597934066
 40
0.872407105183689
 40
1.164081918217494
 40
1.458189931540047
 40
1.752302927360487
 40
2.049663207833733
 40
2.347029113126329
 40
2.648045792769506
 40
2.949067942939002
 40
3.253697753141617
 40
3.558332281909193
 40
3.866104864362636
 40
4.17388102613851
 40
4.483966067735026
 40
4.794053328114078
 40
5.105362224076121
 40
5.416671870214293
 40
5.727981516352407
 40
6.039290412314451
 40
6.349377672693395
 40
6.659462714289907
 40
6.967238876065887
 40
7.275011458519329
 40
7.579645987286955
 40
7.884275797489477
 40
8.185297947659104
 40
8.48631462730228
 40
8.783680532594774
 40
9.081040813067965
 40
9.375153808888495
 40
9.669261822211039
 40
9.960936635244895
 40
10.25260798063515
 40
10.54297648417562
 40
10.83334374042854
 40
11.12371099668145
 40
11.41407950022194
 40
11.70575084561222
 40
11.99742565864604
 40
12.29153367196865
 40
12.58564666778918
 40
12.88300694826238
 40
13.18037285355494
 40
13.48138953319811
 40
13.78241168336766
 40
14.08704149357022
 40
14.39167602233788
 40
14.69944860479131
 40
15.00722476656726
 40
15.31730980816371
 40
15.62739706854272
 40
15.93870596450482
 40
16.25001561064288
 40
16.56132525678105
 40
16.8726341527431
 40
17.18272141312216
 40
17.49280645471867
 40
17.80058261649458
 40
18.10835519894794
 40
18.41298972771552
 40
18.71761953791815
 40
19.01864168808769
 40
19.31965836773083
 40
19.6170242730234
 40
19.91438455349665
 40
20.20849754931719
 40
20.50260556263982
 40
20.79428037567362
 40
21.0859517210639
 40
21.37632022460439
 40
21.66668748085731
 40
21.66668748085731
 40
21.66668748085731
 40
21.66668748085731
 10
88.26018667421084
 20
298.5383282888981
 30
0.0
 10
88.35701048394486
 20
298.5409598863009
 30
0.0
 10
88.55065851932456
 20
298.5462230924106
 30
0.0
 10
88.8390193977128
 20
298.5885181661045
 30
0.0
 10
89.12273154095905
 20
298.6557290591466
 30
0.0
 10
89.40015660331923
 20
298.7497842246983
 30
0.0
 10
89.66847751439508
 20
298.8692156826141
 30
0.0
 10
89.92647727750548
 20
299.0134911782841
 30
0.0
 10
90.17127928052773
 20
299.1810952536468
 30
0.0
 10
90.40197550537158
 20
299.3712578079482
 30
0.0
 10
90.61587121244052
 20
299.5818805283879
 30
0.0
 10
90.81224475481962
 20
299.8121021443366
 30
0.0
 10
90.98879409978839
 20
300.059338567843
 30
0.0
 10
91.14489689626829
 20
300.3225727421902
 30
0.0
 10
91.27878591069079
 20
300.5989362968659
 30
0.0
 10
91.38991392750944
 20
300.8871497408151
 30
0.0
 10
91.47710468730884
 20
301.1842881840507
 30
0.0
 10
91.53993029376755
 20
301.4887113381603
 30
0.0
 10
91.57777884354177
 20
301.7976479505259
 30
0.0
 10
91.59044110549944
 20
302.1090425031698
 30
0.0
 10
91.57777884354179
 20
302.420437055812
 30
0.0
 10
91.53993029376755
 20
302.7293736681824
 30
0.0
 10
91.47710468730881
 20
303.033796822275
 30
0.0
 10
91.38991392750944
 20
303.3309352655733
 30
0.0
 10
91.27878591069076
 20
303.6191487092908
 30
0.0
 10
91.14489689626828
 20
303.8955122648271
 30
0.0
 10
90.98879409978846
 20
304.1587464359936
 30
0.0
 10
90.81224475481956
 20
304.4059828712988
 30
0.0
 10
90.61587121244054
 20
304.6362044437129
 30
0.0
 10
90.40197550537161
 20
304.8468273255637
 30
0.0
 10
90.17127928052784
 20
305.036989284471
 30
0.0
 10
89.92647727750548
 20
305.2045955680907
 30
0.0
 10
89.66847751439522
 20
305.3488629085749
 30
0.0
 10
89.40015660331915
 20
305.4683246479317
 30
0.0
 10
89.12273154095908
 20
305.5622676950004
 30
0.0
 10
88.83901939771282
 20
305.629895667448
 30
0.0
 10
88.55065851932454
 20
305.6706407922965
 30
0.0
 10
88.26018667421083
 20
305.6843146702236
 30
0.0
 10
87.96971482909716
 20
305.6706407922966
 30
0.0
 10
87.68135395070888
 20
305.6298956674479
 30
0.0
 10
87.39764180746266
 20
305.5622676950003
 30
0.0
 10
87.12021674510243
 20
305.4683246479317
 30
0.0
 10
86.85189583402651
 20
305.3488629085746
 30
0.0
 10
86.59389607091609
 20
305.2045955680908
 30
0.0
 10
86.34909406789369
 20
305.036989284471
 30
0.0
 10
86.11839784304993
 20
304.8468273255638
 30
0.0
 10
85.90450213598101
 20
304.6362044437128
 30
0.0
 10
85.7081285936021
 20
304.405982871299
 30
0.0
 10
85.53157924863308
 20
304.1587464359934
 30
0.0
 10
85.37547645215322
 20
303.8955122648272
 30
0.0
 10
85.24158743773072
 20
303.6191487092908
 30
0.0
 10
85.1304594209122
 20
303.3309352655732
 30
0.0
 10
85.04326866111279
 20
303.033796822275
 30
0.0
 10
84.98044305465407
 20
302.7293736681824
 30
0.0
 10
84.94259450487975
 20
302.420437055812
 30
0.0
 10
84.92993224292204
 20
302.1090425031698
 30
0.0
 10
84.94259450487976
 20
301.797647950526
 30
0.0
 10
84.98044305465405
 20
301.4887113381602
 30
0.0
 10
85.04326866111276
 20
301.1842881840508
 30
0.0
 10
85.1304594209122
 20
300.8871497408152
 30
0.0
 10
85.24158743773073
 20
300.5989362968658
 30
0.0
 10
85.37547645215321
 20
300.3225727421903
 30
0.0
 10
85.53157924863307
 20
300.0593385678428
 30
0.0
 10
85.70812859360188
 20
299.8121021443367
 30
0.0
 10
85.90450213598101
 20
299.5818805283878
 30
0.0
 10
86.11839784304992
 20
299.3712578079482
 30
0.0
 10
86.34909406789376
 20
299.181095253647
 30
0.0
 10
86.59389607091605
 20
299.0134911782839
 30
0.0
 10
86.85189583402649
 20
298.8692156826143
 30
0.0
 10
87.12021674510245
 20
298.7497842246983
 30
0.0
 10
87.39764180746263
 20
298.6557290591466
 30
0.0
 10
87.68135395070888
 20
298.5885181661044
 30
0.0
 10
87.96971482909713
 20
298.5462230924105
 30
0.0
 10
88.16336286447684
 20
298.5409598863009
 30
0.0
 10
88.26018667421084
 20
298.5383282888981
 30
0.0
 11
88.26018667421084
 21
298.5383282888981
 31
0.0
 11
88.55023443600886
 21
298.5519459017505
 31
0.0
 11
88.83774636054454
 21
298.5925754611641
 31
0.0
 11
89.12148367041313
 21
298.6601425590026
 31
0.0
 11
89.39775718806834
 21
298.7536687050833
 31
0.0
 11
89.66647425016706
 21
298.8732122705211
 31
0.0
 11
89.92320351116695
 21
299.0167132839563
 31
0.0
 11
90.16862080094916
 21
299.1846224566631
 31
0.0
 11
90.39811990920197
 21
299.373716721361
 31
0.0
 11
90.61267446823879
 21
299.5848502871906
 31
0.0
 11
90.80807628773806
 21
299.8138316485042
 31
0.0
 11
90.98517969287826
 21
300.0616898845018
 31
0.0
 11
91.14061632966144
 21
300.3236853960339
 31
0.0
 11
91.27486955828459
 21
300.6006331043009
 31
0.0
 11
91.38563597407185
 21
300.8877863158294
 31
0.0
 11
91.47299372954488
 21
301.1853117022767
 31
0.0
 11
91.53569042305955
 21
301.488994486892
 31
0.0
 11
91.57357284302863
 21
301.7979898767644
 31
0.0
 11
91.58622034812325
 21
302.1090425031696
 31
0.0
 11
91.57357284302864
 21
302.4200951295747
 31
0.0
 11
91.53569042305955
 21
302.7290905194471
 31
0.0
 11
91.47299372954487
 21
303.0327733040623
 31
0.0
 11
91.38563597407185
 21
303.3302986905096
 31
0.0
 11
91.27486955828459
 21
303.6174519020382
 31
0.0
 11
91.14061632966144
 21
303.8943996103052
 31
0.0
 11
90.98517969287826
 21
304.1563951218374
 31
0.0
 11
90.80807628773806
 21
304.4042533578348
 31
0.0
 11
90.61267446823879
 21
304.6332347191486
 31
0.0
 11
90.39811990920197
 21
304.8443682849782
 31
0.0
 11
90.16862080094924
 21
305.0334625496761
 31
0.0
 11
89.92320351116706
 21
305.2013717223828
 31
0.0
 11
89.6664742501671
 21
305.3448727358181
 31
0.0
 11
89.39775718806834
 21
305.4644163012557
 31
0.0
 11
89.12148367041311
 21
305.5579424473366
 31
0.0
 11
88.83774636054454
 21
305.625509545175
 31
0.0
 11
88.55023443600888
 21
305.6661391045885
 31
0.0
 11
88.26018667421084
 21
305.6797567174409
 31
0.0
 11
87.97013891241282
 21
305.6661391045885
 31
0.0
 11
87.68262698787714
 21
305.625509545175
 31
0.0
 11
87.39888967800857
 21
305.5579424473365
 31
0.0
 11
87.12261616035335
 21
305.4644163012557
 31
0.0
 11
86.85389909825456
 21
305.3448727358179
 31
0.0
 11
86.59716983725454
 21
305.2013717223828
 31
0.0
 11
86.3517525474723
 21
305.0334625496761
 31
0.0
 11
86.12225343921955
 21
304.8443682849782
 31
0.0
 11
85.90769888018278
 21
304.6332347191486
 31
0.0
 11
85.71229706068357
 21
304.4042533578348
 31
0.0
 11
85.5351936555433
 21
304.1563951218374
 31
0.0
 11
85.37975701876005
 21
303.8943996103052
 31
0.0
 11
85.24550379013692
 21
303.6174519020382
 31
0.0
 11
85.13473737434975
 21
303.3302986905096
 31
0.0
 11
85.04737961887676
 21
303.0327733040624
 31
0.0
 11
84.98468292536205
 21
302.7290905194471
 31
0.0
 11
84.94680050539292
 21
302.4200951295746
 31
0.0
 11
84.93415300029827
 21
302.1090425031696
 31
0.0
 11
84.94680050539293
 21
301.7979898767644
 31
0.0
 11
84.98468292536205
 21
301.488994486892
 31
0.0
 11
85.04737961887673
 21
301.1853117022767
 31
0.0
 11
85.13473737434975
 21
300.8877863158294
 31
0.0
 11
85.24550379013695
 21
300.6006331043008
 31
0.0
 11
85.37975701876005
 21
300.3236853960339
 31
0.0
 11
85.53519365554323
 21
300.0616898845018
 31
0.0
 11
85.71229706068345
 21
299.8138316485042
 31
0.0
 11
85.90769888018272
 21
299.5848502871905
 31
0.0
 11
86.12225343921955
 21
299.373716721361
 31
0.0
 11
86.35175254747233
 21
299.1846224566631
 31
0.0
 11
86.59716983725454
 21
299.0167132839563
 31
0.0
 11
86.85389909825454
 21
298.8732122705211
 31
0.0
 11
87.12261616035335
 21
298.7536687050833
 31
0.0
 11
87.39888967800857
 21
298.6601425590026
 31
0.0
 11
87.68262698787714
 21
298.5925754611641
 31
0.0
 11
87.97013891241281
 21
298.5519459017505
 31
0.0
 11
88.26018667421084
 21
298.5383282888981
 31
0.0
  0
SPLINE
  5
1B1
330
4D
100
AcDbEntity
  8
0
  6
Continuous
 62
     7
100
AcDbSpline
210
0.0
220
0.0
230
1.0
 70
    11
 71
     3
 72
    79
 73
    75
 74
    73
 42
0.0000000001
 43
0.0000000001
 44
0.00000001
 40
0.0
 40
0.0
 40
0.0
 40
0.0
 40
0.3210775545173397
 40
0.6418876146142639
 40
0.9828881321448713
 40
1.323517048232922
 40
1.692950504606464
 40
2.062056072627135
 40
2.463712903954619
 40
2.865130064438488
 40
3.298540767384926
 40
3.731789997438383
 40
4.193105333323971
 40
4.654317539728541
 40
5.137214011906499
 40
5.620049818585872
 40
6.116532144589955
 40
6.612986423308206
 40
7.114093726249352
 40
7.615201029190556
 40
8.111655307908801
 40
8.608137633912861
 40
9.090973440592206
 40
9.573869912770137
 40
10.03508211917472
 40
10.49639745506033
 40
10.9296466851138
 40
11.36305738806029
 40
11.76447454854412
 40
12.16613137987159
 40
12.53523694789224
 40
12.90467040426581
 40
13.24529932035384
 40
13.58629983788446
 40
13.90710989798142
 40
14.22818745249869
 40
14.54194547064687
 40
14.85570348879504
 40
15.17678104331234
 40
15.49759110340927
 40
15.83859162093991
 40
16.17922053702795
 40
16.54865399340152
 40
16.91775956142219
 40
17.31941639274966
 40
17.72083355323353
 40
18.15424425617998
 40
18.58749348623343
 40
19.04880882211904
 40
19.51002102852361
 40
19.99291750070157
 40
20.4757533073809
 40
20.97223563338498
 40
21.4686899121032
 40
21.96979721504441
 40
22.47090451798555
 40
22.9673587967038
 40
23.4638411227079
 40
23.94667692938731
 40
24.42957340156522
 40
24.89078560796976
 40
25.35210094385535
 40
25.7853501739088
 40
26.21876087685522
 40
26.62017803733907
 40
27.02183486866658
 40
27.39094043668723
 40
27.76037389306085
 40
28.10100280914889
 40
28.44200332667949
 40
28.76281338677641
 40
29.08389094129373
 40
29.39764895944187
 40
29.71140697759001
 40
29.71140697759001
 40
29.71140697759001
 40
29.71140697759001
 10
177.2380696118065
 20
144.6137102360318
 30
0.0
 10
177.3435294225721
 20
144.5944303647241
 30
0.0
 10
177.5543611839881
 20
144.5558866844522
 30
0.0
 10
177.8626969499798
 20
144.4408332487008
 30
0.0
 10
178.160781177234
 20
144.2884447225063
 30
0.0
 10
178.4514495537227
 20
144.0913679684209
 30
0.0
 10
178.7262114735649
 20
143.8581814519759
 30
0.0
 10
178.9902370048122
 20
143.5840129197345
 30
0.0
 10
179.234617702053
 20
143.2784697704327
 30
0.0
 10
179.4644862858685
 20
142.9358521508043
 30
0.0
 10
179.6720507597082
 20
142.5671560128849
 30
0.0
 10
179.8612652520022
 20
142.166601266641
 30
0.0
 10
180.0262276704013
 20
141.7454968526465
 30
0.0
 10
180.1694098233139
 20
141.2991385593916
 30
0.0
 10
180.2869354925353
 20
140.8379427770472
 30
0.0
 10
180.3800180837872
 20
140.3592477066563
 30
0.0
 10
180.4465200033489
 20
139.8715804611255
 30
0.0
 10
180.4869050393586
 20
139.374962693581
 30
0.0
 10
180.5002483414683
 20
138.8753419286581
 30
0.0
 10
180.4869050393598
 20
138.3757211637191
 30
0.0
 10
180.4465200033437
 20
137.8791033962222
 30
0.0
 10
180.3800180838068
 20
137.3914361505186
 30
0.0
 10
180.2869354924645
 20
136.9127410807548
 30
0.0
 10
180.1694098235732
 20
136.4515452961189
 30
0.0
 10
180.0262276694816
 20
136.005187011049
 30
0.0
 10
179.8612652553526
 20
135.584082567413
 30
0.0
 10
179.672050748045
 20
135.1835279253849
 30
0.0
 10
179.4644863281449
 20
134.8148314130486
 30
0.0
 10
179.2346175571275
 20
134.4722150928627
 30
0.0
 10
178.9902375288565
 20
134.1666672999837
 30
0.0
 10
178.726209692447
 20
133.8925147687592
 30
0.0
 10
178.4514560066164
 20
133.6592710968745
 30
0.0
 10
178.1607591614949
 20
133.4623919545111
 30
0.0
 10
177.8627773745891
 20
133.3092923504881
 30
0.0
 10
177.5540806081099
 20
133.1967447578587
 30
0.0
 10
177.241513885231
 20
133.1301932075897
 30
0.0
 10
176.925118739124
 20
133.106717892929
 30
0.0
 10
176.6087235930172
 20
133.1301932075897
 30
0.0
 10
176.2961568701383
 20
133.1967447578588
 30
0.0
 10
175.987460103659
 20
133.3092923504881
 30
0.0
 10
175.6894783167533
 20
133.4623919545111
 30
0.0
 10
175.3987814716317
 20
133.6592710968744
 30
0.0
 10
175.124027785801
 20
133.8925147687593
 30
0.0
 10
174.8599999493916
 20
134.1666672999836
 30
0.0
 10
174.6156199211206
 20
134.4722150928627
 30
0.0
 10
174.3857511501031
 20
134.8148314130486
 30
0.0
 10
174.1781867302032
 20
135.1835279253849
 30
0.0
 10
173.9889722228955
 20
135.584082567413
 30
0.0
 10
173.8240098087665
 20
136.005187011049
 30
0.0
 10
173.680827654675
 20
136.4515452961189
 30
0.0
 10
173.5633019857836
 20
136.9127410807548
 30
0.0
 10
173.4702193944413
 20
137.3914361505187
 30
0.0
 10
173.4037174749045
 20
137.879103396222
 30
0.0
 10
173.3633324388882
 20
138.3757211637197
 30
0.0
 10
173.3499891367803
 20
138.8753419286556
 30
0.0
 10
173.363332438888
 20
139.3749626935903
 30
0.0
 10
173.4037174749049
 20
139.8715804610914
 30
0.0
 10
173.4702193944399
 20
140.3592477067824
 30
0.0
 10
173.5633019857887
 20
140.8379427765908
 30
0.0
 10
173.6808276546566
 20
141.2991385610641
 30
0.0
 10
173.8240098088318
 20
141.7454968467149
 30
0.0
 10
173.9889722226577
 20
142.1666012882474
 30
0.0
 10
174.1781867310307
 20
142.5671559376711
 30
0.0
 10
174.385751147103
 20
142.9358524234372
 30
0.0
 10
174.6156199314051
 20
143.2784688358368
 30
0.0
 10
174.8599999122033
 20
143.5840162991888
 30
0.0
 10
175.1240279121963
 20
143.8581699659099
 30
0.0
 10
175.3987810137083
 20
144.0914095818146
 30
0.0
 10
175.6894798790787
 20
144.2883027475014
 30
0.0
 10
175.9874543964049
 20
144.4413518905787
 30
0.0
 10
176.2961767809322
 20
144.5540773079248
 30
0.0
 10
176.6086497812993
 20
144.6199782942214
 30
0.0
 10
176.9253872581049
 20
144.6458298578233
 30
0.0
 10
177.1338421605726
 20
144.624416776629
 30
0.0
 10
177.2380696118065
 20
144.6137102360318
 30
0.0
 11
177.2380696118065
 21
144.6137102360318
 31
0.0
 11
177.5520797801736
 21
144.5467146378418
 31
0.0
 11
177.8538212919783
 21
144.4377598090673
 31
0.0
 11
178.1573413348316
 21
144.2823347900311
 31
0.0
 11
178.4398983417106
 21
144.0920991563056
 31
0.0
 11
178.7220364943853
 21
143.85360567318
 31
0.0
 11
178.9786202272343
 21
143.5882687018
 31
0.0
 11
179.2301317923355
 21
143.2751071735555
 31
0.0
 11
179.4542496032424
 21
142.9420802323552
 31
0.0
 11
179.6674819679865
 21
142.5647517334922
 31
0.0
 11
179.8528998310143
 21
142.1731842279302
 31
0.0
 11
180.0216737308843
 21
141.7438507796107
 31
0.0
 11
180.1628034158808
 21
141.304761823533
 31
0.0
 11
180.2824243680415
 21
140.8369158759754
 31
0.0
 11
180.3747224711509
 21
140.3629839437593
 31
0.0
 11
180.4420449155905
 21
139.8710872183086
 31
0.0
 11
180.4823005770029
 21
139.3762677233593
 31
0.0
 11
180.4957867647979
 21
138.8753419286554
 31
0.0
 11
180.4823005770029
 21
138.3744161339515
 31
0.0
 11
180.4420449155905
 21
137.8795966390021
 31
0.0
 11
180.3747224711509
 21
137.3876999135515
 31
0.0
 11
180.2824243680415
 21
136.9137679813354
 31
0.0
 11
180.1628034158808
 21
136.4459220337778
 31
0.0
 11
180.0216737308843
 21
136.0068330777001
 31
0.0
 11
179.8528998310143
 21
135.5774996293806
 31
0.0
 11
179.6674819679865
 21
135.1859321238185
 31
0.0
 11
179.4542496032424
 21
134.8086036249555
 31
0.0
 11
179.2301317923356
 21
134.4755766837552
 31
0.0
 11
178.9786202272344
 21
134.1624151555108
 31
0.0
 11
178.7220364943854
 21
133.8970781841307
 31
0.0
 11
178.4398983417106
 21
133.6585847010051
 31
0.0
 11
178.1573413348317
 21
133.4683490672797
 31
0.0
 11
177.8538212919783
 21
133.3129240482435
 31
0.0
 11
177.5520797801736
 21
133.203969219469
 31
0.0
 11
177.2380696118065
 21
133.1369736212789
 31
0.0
 11
176.9251187391241
 21
133.1144826177539
 31
0.0
 11
176.6121678664416
 21
133.1369736212789
 31
0.0
 11
176.2981576980745
 21
133.203969219469
 31
0.0
 11
175.9964161862699
 21
133.3129240482435
 31
0.0
 11
175.6928961434164
 21
133.4683490672797
 31
0.0
 11
175.4103391365375
 21
133.6585847010051
 31
0.0
 11
175.1282009838627
 21
133.8970781841307
 31
0.0
 11
174.8716172510137
 21
134.1624151555108
 31
0.0
 11
174.6201056859125
 21
134.4755766837552
 31
0.0
 11
174.3959878750056
 21
134.8086036249555
 31
0.0
 11
174.1827555102616
 21
135.1859321238185
 31
0.0
 11
173.9973376472339
 21
135.5774996293806
 31
0.0
 11
173.8285637473638
 21
136.0068330777001
 31
0.0
 11
173.6874340623673
 21
136.4459220337778
 31
0.0
 11
173.5678131102066
 21
136.9137679813354
 31
0.0
 11
173.4755150070972
 21
137.3876999135515
 31
0.0
 11
173.4081925626576
 21
137.8795966390022
 31
0.0
 11
173.3679369012452
 21
138.3744161339515
 31
0.0
 11
173.3544507134503
 21
138.8753419286554
 31
0.0
 11
173.3679369012452
 21
139.3762677233593
 31
0.0
 11
173.4081925626576
 21
139.8710872183086
 31
0.0
 11
173.4755150070973
 21
140.3629839437593
 31
0.0
 11
173.5678131102067
 21
140.8369158759755
 31
0.0
 11
173.6874340623674
 21
141.304761823533
 31
0.0
 11
173.8285637473638
 21
141.7438507796107
 31
0.0
 11
173.9973376472338
 21
142.1731842279302
 31
0.0
 11
174.1827555102616
 21
142.5647517334922
 31
0.0
 11
174.3959878750056
 21
142.9420802323552
 31
0.0
 11
174.6201056859125
 21
143.2751071735555
 31
0.0
 11
174.8716172510137
 21
143.5882687018
 31
0.0
 11
175.1282009838627
 21
143.85360567318
 31
0.0
 11
175.4103391365375
 21
144.0920991563057
 31
0.0
 11
175.6928961434164
 21
144.2823347900311
 31
0.0
 11
175.9964161862698
 21
144.4377598090673
 31
0.0
 11
176.2981576980745
 21
144.5467146378417
 31
0.0
 11
176.6121678664416
 21
144.6137102360318
 31
0.0
 11
176.925118739124
 21
144.6362012395568
 31
0.0
 11
177.2380696118065
 21
144.6137102360318
 31
0.0
  0
SPLINE
  5
1B2
330
4D
100
AcDbEntity
  8
0
  6
Continuous
 62
     7
100
AcDbSpline
210
0.0
220
0.0
230
1.0
 70
    11
 71
     3
 72
    79
 73
    75
 74
    73
 42
0.0000000001
 43
0.0000000001
 44
0.00000001
 40
0.0
 40
0.0
 40
0.0
 40
0.0
 40
0.3210775545173515
 40
0.6418876146142853
 40
0.9828881321448797
 40
1.323517048232899
 40
1.692950504606441
 40
2.062056072627153
 40
2.463712903954615
 40
2.865130064438531
 40
3.298540767384944
 40
3.731789997438401
 40
4.193105333323989
 40
4.654317539728586
 40
5.137214011906544
 40
5.62004981858589
 40
6.116532144589973
 40
6.612986423308223
 40
7.114093726249398
 40
7.615201029190573
 40
8.111655307908819
 40
8.608137633912907
 40
9.090973440592224
 40
9.573869912770155
 40
10.03508211917474
 40
10.49639745506034
 40
10.92964668511382
 40
11.36305738806028
 40
11.76447454854417
 40
12.16613137987161
 40
12.53523694789228
 40
12.90467040426583
 40
13.24529932035386
 40
13.58629983788446
 40
13.90710989798141
 40
14.22818745249868
 40
14.54194547064686
 40
14.85570348879503
 40
15.17678104331233
 40
15.49759110340925
 40
15.83859162093987
 40
16.17922053702791
 40
16.54865399340146
 40
16.91775956142215
 40
17.31941639274957
 40
17.72083355323347
 40
18.15424425617992
 40
18.58749348623339
 40
19.04880882211903
 40
19.51002102852358
 40
19.99291750070148
 40
20.47575330738084
 40
20.97223563338492
 40
21.46868991210317
 40
21.96979721504435
 40
22.47090451798552
 40
22.96735879670377
 40
23.46384112270787
 40
23.94667692938722
 40
24.42957340156516
 40
24.89078560796976
 40
25.35210094385532
 40
25.78535017390874
 40
26.21876087685516
 40
26.62017803733904
 40
27.02183486866655
 40
27.39094043668726
 40
27.76037389306083
 40
28.10100280914887
 40
28.44200332667949
 40
28.76281338677641
 40
29.08389094129374
 40
29.39764895944189
 40
29.71140697759003
 40
29.71140697759003
 40
29.71140697759003
 40
29.71140697759003
 10
177.2380696118065
 20
147.136973621279
 30
0.0
 10
177.3435294225721
 20
147.1562534925868
 30
0.0
 10
177.5543611839881
 20
147.1947971728587
 30
0.0
 10
177.8626969499797
 20
147.3098506086101
 30
0.0
 10
178.160781177234
 20
147.4622391348047
 30
0.0
 10
178.4514495537227
 20
147.6593158888899
 30
0.0
 10
178.7262114735649
 20
147.8925024053349
 30
0.0
 10
178.9902370048121
 20
148.1666709375764
 30
0.0
 10
179.2346177020531
 20
148.4722140868782
 30
0.0
 10
179.4644862858684
 20
148.8148317065067
 30
0.0
 10
179.6720507597083
 20
149.183527844426
 30
0.0
 10
179.8612652520021
 20
149.5840825906699
 30
0.0
 10
180.0262276704013
 20
150.0051870046645
 30
0.0
 10
180.1694098233138
 20
150.4515452979193
 30
0.0
 10
180.2869354925352
 20
150.9127410802638
 30
0.0
 10
180.3800180837873
 20
151.3914361506546
 30
0.0
 10
180.4465200033489
 20
151.8791033961854
 30
0.0
 10
180.4869050393586
 20
152.3757211637299
 30
0.0
 10
180.5002483414683
 20
152.8753419286528
 30
0.0
 10
180.4869050393598
 20
153.3749626935918
 30
0.0
 10
180.4465200033436
 20
153.8715804610887
 30
0.0
 10
180.3800180838069
 20
154.3592477067923
 30
0.0
 10
180.2869354924646
 20
154.8379427765561
 30
0.0
 10
180.1694098235732
 20
155.2991385611919
 30
0.0
 10
180.0262276694816
 20
155.7454968462619
 30
0.0
 10
179.8612652553526
 20
156.1666012898978
 30
0.0
 10
179.6720507480451
 20
156.5671559319261
 30
0.0
 10
179.4644863281448
 20
156.9358524442622
 30
0.0
 10
179.2346175571275
 20
157.2784687644484
 30
0.0
 10
178.9902375288564
 20
157.5840165573272
 30
0.0
 10
178.7262096924471
 20
157.8581690885517
 30
0.0
 10
178.4514560066164
 20
158.0914127604365
 30
0.0
 10
178.1607591614949
 20
158.2882919027998
 30
0.0
 10
177.8627773745891
 20
158.4413915068227
 30
0.0
 10
177.5540806081098
 20
158.553939099452
 30
0.0
 10
177.241513885231
 20
158.6204906497212
 30
0.0
 10
176.9251187391241
 20
158.6439659643819
 30
0.0
 10
176.6087235930171
 20
158.6204906497211
 30
0.0
 10
176.2961568701382
 20
158.553939099452
 30
0.0
 10
175.9874601036591
 20
158.4413915068228
 30
0.0
 10
175.6894783167531
 20
158.2882919027998
 30
0.0
 10
175.3987814716317
 20
158.0914127604365
 30
0.0
 10
175.124027785801
 20
157.8581690885517
 30
0.0
 10
174.8599999493916
 20
157.5840165573273
 30
0.0
 10
174.6156199211206
 20
157.2784687644483
 30
0.0
 10
174.3857511501031
 20
156.9358524442623
 30
0.0
 10
174.1781867302031
 20
156.567155931926
 30
0.0
 10
173.9889722228956
 20
156.1666012898979
 30
0.0
 10
173.8240098087665
 20
155.7454968462619
 30
0.0
 10
173.6808276546749
 20
155.299138561192
 30
0.0
 10
173.5633019857836
 20
154.8379427765561
 30
0.0
 10
173.4702193944412
 20
154.3592477067922
 30
0.0
 10
173.4037174749045
 20
153.8715804610889
 30
0.0
 10
173.3633324388882
 20
153.3749626935912
 30
0.0
 10
173.3499891367802
 20
152.8753419286553
 30
0.0
 10
173.3633324388881
 20
152.3757211637206
 30
0.0
 10
173.4037174749048
 20
151.8791033962196
 30
0.0
 10
173.47021939444
 20
151.3914361505285
 30
0.0
 10
173.5633019857887
 20
150.9127410807201
 30
0.0
 10
173.6808276546566
 20
150.4515452962468
 30
0.0
 10
173.8240098088318
 20
150.0051870105961
 30
0.0
 10
173.9889722226577
 20
149.5840825690635
 30
0.0
 10
174.1781867310308
 20
149.1835279196399
 30
0.0
 10
174.385751147103
 20
148.8148314338738
 30
0.0
 10
174.6156199314051
 20
148.4722150214741
 30
0.0
 10
174.8599999122034
 20
148.1666675581221
 30
0.0
 10
175.1240279121962
 20
147.8925138914009
 30
0.0
 10
175.3987810137084
 20
147.6592742754964
 30
0.0
 10
175.6894798790787
 20
147.4623811098095
 30
0.0
 10
175.9874543964049
 20
147.3093319667322
 30
0.0
 10
176.2961767809322
 20
147.1966065493861
 30
0.0
 10
176.6086497812994
 20
147.1307055630894
 30
0.0
 10
176.9253872581049
 20
147.1048539994875
 30
0.0
 10
177.1338421605726
 20
147.1262670806818
 30
0.0
 10
177.2380696118065
 20
147.136973621279
 30
0.0
 11
177.2380696118065
 21
147.136973621279
 31
0.0
 11
177.5520797801736
 21
147.2039692194691
 31
0.0
 11
177.8538212919783
 21
147.3129240482436
 31
0.0
 11
178.1573413348316
 21
147.4683490672798
 31
0.0
 11
178.4398983417106
 21
147.6585847010052
 31
0.0
 11
178.7220364943853
 21
147.8970781841308
 31
0.0
 11
178.9786202272343
 21
148.1624151555109
 31
0.0
 11
179.2301317923355
 21
148.4755766837553
 31
0.0
 11
179.4542496032424
 21
148.8086036249557
 31
0.0
 11
179.6674819679865
 21
149.1859321238187
 31
0.0
 11
179.8528998310143
 21
149.5774996293807
 31
0.0
 11
180.0216737308843
 21
150.0068330777002
 31
0.0
 11
180.1628034158808
 21
150.4459220337779
 31
0.0
 11
180.2824243680415
 21
150.9137679813355
 31
0.0
 11
180.3747224711509
 21
151.3876999135516
 31
0.0
 11
180.4420449155905
 21
151.8795966390023
 31
0.0
 11
180.4823005770029
 21
152.3744161339516
 31
0.0
 11
180.4957867647979
 21
152.8753419286555
 31
0.0
 11
180.4823005770029
 21
153.3762677233594
 31
0.0
 11
180.4420449155905
 21
153.8710872183088
 31
0.0
 11
180.3747224711509
 21
154.3629839437595
 31
0.0
 11
180.2824243680415
 21
154.8369158759755
 31
0.0
 11
180.1628034158808
 21
155.3047618235331
 31
0.0
 11
180.0216737308843
 21
155.7438507796108
 31
0.0
 11
179.8528998310143
 21
156.1731842279303
 31
0.0
 11
179.6674819679865
 21
156.5647517334924
 31
0.0
 11
179.4542496032424
 21
156.9420802323554
 31
0.0
 11
179.2301317923356
 21
157.2751071735557
 31
0.0
 11
178.9786202272344
 21
157.5882687018001
 31
0.0
 11
178.7220364943854
 21
157.8536056731802
 31
0.0
 11
178.4398983417106
 21
158.0920991563058
 31
0.0
 11
178.1573413348317
 21
158.2823347900312
 31
0.0
 11
177.8538212919783
 21
158.4377598090674
 31
0.0
 11
177.5520797801736
 21
158.5467146378418
 31
0.0
 11
177.2380696118065
 21
158.6137102360319
 31
0.0
 11
176.9251187391241
 21
158.6362012395569
 31
0.0
 11
176.6121678664416
 21
158.6137102360319
 31
0.0
 11
176.2981576980745
 21
158.5467146378418
 31
0.0
 11
175.9964161862699
 21
158.4377598090674
 31
0.0
 11
175.6928961434164
 21
158.2823347900312
 31
0.0
 11
175.4103391365375
 21
158.0920991563058
 31
0.0
 11
175.1282009838627
 21
157.8536056731802
 31
0.0
 11
174.8716172510137
 21
157.5882687018001
 31
0.0
 11
174.6201056859125
 21
157.2751071735558
 31
0.0
 11
174.3959878750056
 21
156.9420802323554
 31
0.0
 11
174.1827555102616
 21
156.5647517334924
 31
0.0
 11
173.9973376472339
 21
156.1731842279303
 31
0.0
 11
173.8285637473638
 21
155.7438507796108
 31
0.0
 11
173.6874340623673
 21
155.3047618235331
 31
0.0
 11
173.5678131102066
 21
154.8369158759756
 31
0.0
 11
173.4755150070972
 21
154.3629839437595
 31
0.0
 11
173.4081925626576
 21
153.8710872183088
 31
0.0
 11
173.3679369012452
 21
153.3762677233594
 31
0.0
 11
173.3544507134503
 21
152.8753419286555
 31
0.0
 11
173.3679369012452
 21
152.3744161339516
 31
0.0
 11
173.4081925626576
 21
151.8795966390023
 31
0.0
 11
173.4755150070973
 21
151.3876999135516
 31
0.0
 11
173.5678131102067
 21
150.9137679813355
 31
0.0
 11
173.6874340623674
 21
150.4459220337779
 31
0.0
 11
173.8285637473638
 21
150.0068330777002
 31
0.0
 11
173.9973376472338
 21
149.5774996293807
 31
0.0
 11
174.1827555102616
 21
149.1859321238187
 31
0.0
 11
174.3959878750056
 21
148.8086036249557
 31
0.0
 11
174.6201056859125
 21
148.4755766837554
 31
0.0
 11
174.8716172510137
 21
148.1624151555109
 31
0.0
 11
175.1282009838627
 21
147.8970781841308
 31
0.0
 11
175.4103391365375
 21
147.6585847010052
 31
0.0
 11
175.6928961434164
 21
147.4683490672798
 31
0.0
 11
175.9964161862698
 21
147.3129240482436
 31
0.0
 11
176.2981576980745
 21
147.2039692194692
 31
0.0
 11
176.6121678664416
 21
147.136973621279
 31
0.0
 11
176.925118739124
 21
147.114482617754
 31
0.0
 11
177.2380696118065
 21
147.136973621279
 31
0.0
  0
ARC
  5
1B3
330
4D
100
AcDbEntity
  8
1
  6
Continuous
 62
     7
100
AcDbCircle
 10
85.90378021365984
 20
297.2515055386111
 30
0.0
 40
1.0
100
AcDbArc
 50
-90.0
 51
-42.9414028648755
  0
ARC
  5
1B4
330
4D
100
AcDbEntity
  8
1
  6
Continuous
 62
     7
100
AcDbCircle
 10
87.69385208295927
 20
298.2515055386111
 30
0.0
 40
1.0
100
AcDbArc
 50
-90.0
 51
-74.66244233044866
  0
ARC
  5
1B5
330
4D
100
AcDbEntity
  8
1
  6
Continuous
 62
     7
100
AcDbCircle
 10
85.90378021365984
 20
297.2515055386111
 30
0.0
 40
0.9999999999999931
100
AcDbArc
 50
-42.9414028648755
 51
-30.0000000000038
  0
ARC
  5
1B6
330
4D
100
AcDbEntity
  8
1
  6
Continuous
 62
     7
100
AcDbCircle
 10
87.63583102122877
 20
296.2515055386111
 30
0.0
 40
1.0
100
AcDbArc
 50
90.0
 51
150.0000000000052
  0
ARC
  5
1B7
330
4D
100
AcDbEntity
  8
1
  6
Continuous
 62
     7
100
AcDbCircle
 10
66.36788182879755
 20
297.2515055386111
 30
0.0
 40
0.999999999999889
100
AcDbArc
 50
-137.058597135119
 51
-90.0
  0
ARC
  5
1B8
330
4D
100
AcDbEntity
  8
1
  6
Continuous
 62
     7
100
AcDbCircle
 10
64.57780995949815
 20
298.2515055386111
 30
0.0
 40
0.9999999999999967
100
AcDbArc
 50
-105.3375576695639
 51
-90.0
  0
ARC
  5
1B9
330
4D
100
AcDbEntity
  8
1
  6
Continuous
 62
     7
100
AcDbCircle
 10
66.36788182879755
 20
297.2515055386111
 30
0.0
 40
1.000000000000058
100
AcDbArc
 50
-150.0000000000019
 51
-137.058597135119
  0
ARC
  5
1BA
330
4D
100
AcDbEntity
  8
1
  6
Continuous
 62
     7
100
AcDbCircle
 10
64.63583102122877
 20
296.2515055386111
 30
0.0
 40
0.9999999999998606
100
AcDbArc
 50
30.00000000000462
 51
90.0
  0
ARC
  5
1BB
330
4D
100
AcDbEntity
  8
1
  6
Continuous
 62
     7
100
AcDbCircle
 10
173.0677307778072
 20
134.3173208669248
 30
0.0
 40
1.0
100
AcDbArc
 50
180.0
 51
-164.6624423304467
  0
ARC
  5
1BC
330
4D
100
AcDbEntity
  8
1
  6
Continuous
 62
     7
100
AcDbCircle
 10
172.0677307778072
 20
136.1073927362243
 30
0.0
 40
1.0
100
AcDbArc
 50
180.0
 51
-132.9414028648779
  0
ARC
  5
1BD
330
4D
100
AcDbEntity
  8
1
  6
Continuous
 62
     7
100
AcDbCircle
 10
171.0677307778072
 20
134.3753419286554
 30
0.0
 40
1.0
100
AcDbArc
 50
0.0
 51
59.99999999999946
  0
ARC
  5
1BE
330
4D
100
AcDbEntity
  8
1
  6
Continuous
 62
     7
100
AcDbCircle
 10
172.0677307778072
 20
136.1073927362243
 30
0.0
 40
1.000000000000032
100
AcDbArc
 50
-132.9414028648779
 51
-119.9999999999981
  0
ARC
  5
1BF
330
4D
100
AcDbEntity
  8
1
  6
Continuous
 62
     7
100
AcDbCircle
 10
173.0677307778072
 20
157.4333629903861
 30
0.0
 40
0.9999999999999166
100
AcDbArc
 50
164.6624423304467
 51
180.0
  0
ARC
  5
1C0
330
4D
100
AcDbEntity
  8
1
  6
Continuous
 62
     7
100
AcDbCircle
 10
172.0677307778072
 20
155.6432911210866
 30
0.0
 40
0.9999999999999277
100
AcDbArc
 50
132.9414028648834
 51
180.0
  0
ARC
  5
1C1
330
4D
100
AcDbEntity
  8
1
  6
Continuous
 62
     7
100
AcDbCircle
 10
171.0677307778072
 20
157.3753419286554
 30
0.0
 40
0.9999999999999589
100
AcDbArc
 50
-59.99999999999865
 51
0.0
  0
ARC
  5
1C2
330
4D
100
AcDbEntity
  8
1
  6
Continuous
 62
     7
100
AcDbCircle
 10
172.0677307778072
 20
155.6432911210866
 30
0.0
 40
0.9999999999999589
100
AcDbArc
 50
120.0000000000014
 51
132.9414028648834
  0
ENDBLK
  5
4F
330
4D
100
AcDbEntity
  8
0
100
AcDbBlockEnd
  0
BLOCK
  5
51
330
50
100
AcDbEntity
  8
0
100
AcDbBlockBegin
  2
75-2
 70
     0
 71
     0
 10
179.1249847831937
 20
56.63301065802246
 30
0.0
  3
75-2
  1

  0
LINE
  5
1C3
330
50
100
AcDbEntity
  8
1
  6
Continuous
 62
     7
100
AcDbLine
 10
77.66818992780435
 20
109.0180117162585
 30
0.0
 11
77.03598351355194
 21
108.3858053020062
 31
0.0
  0
LINE
  5
1C4
330
50
100
AcDbEntity
  8
1
  6
Continuous
 62
     7
100
AcDbLine
 10
77.03598351355194
 20
109.0614169206656
 30
0.0
 11
77.03598351355194
 21
108.3858053020062
 31
0.0
  0
LINE
  5
1C5
330
50
100
AcDbEntity
  8
1
  6
Continuous
 62
     7
100
AcDbLine
 10
75.23598348231025
 20
109.0614323170286
 30
0.0
 11
75.23598348231025
 21
108.3855003486012
 31
0.0
  0
LINE
  5
1C6
330
50
100
AcDbEntity
  8
1
  6
Continuous
 62
     7
100
AcDbLine
 10
73.22724758039536
 20
107.2817912645844
 30
0.0
 11
73.22724758039536
 21
104.9567568192995
 31
0.0
  0
LINE
  5
1C7
330
50
100
AcDbEntity
  8
1
  6
Continuous
 62
     7
100
AcDbLine
 10
79.04441446206195
 20
107.3249074383024
 30
0.0
 11
79.04441446206195
 21
104.9567568192995
 31
0.0
  0
LINE
  5
1C8
330
50
100
AcDbEntity
  8
1
  6
Continuous
 62
     7
100
AcDbLine
 10
77.03598351355194
 20
103.8855957417116
 30
0.0
 11
77.03598351355194
 21
108.1656728258027
 31
0.0
  0
LINE
  5
1C9
330
50
100
AcDbEntity
  8
1
  6
Continuous
 62
     7
100
AcDbLine
 10
79.31289403300656
 20
108.7109249612573
 30
0.0
 11
79.37863980035604
 21
108.7766707286069
 31
0.0
  0
LINE
  5
1CA
330
50
100
AcDbEntity
  8
1
  6
Continuous
 62
     7
100
AcDbLine
 10
71.63829322958125
 20
106.1293473753463
 30
0.0
 11
69.92598290291346
 21
106.1293473753463
 31
0.0
  0
LINE
  5
1CB
330
50
100
AcDbEntity
  8
1
  6
Continuous
 62
     7
100
AcDbLine
 10
79.31289403300656
 20
104.3085897979049
 30
0.0
 11
79.44303659602616
 21
104.1784472348853
 31
0.0
  0
LINE
  5
1CC
330
50
100
AcDbEntity
  8
1
  6
Continuous
 62
     7
100
AcDbLine
 10
82.34637482906035
 20
106.1293473753463
 30
0.0
 11
80.63336881287606
 21
106.1293473753463
 31
0.0
  0
LINE
  5
1CD
330
50
100
AcDbEntity
  8
1
  6
Continuous
 62
     7
100
AcDbLine
 10
80.63336881287606
 20
106.890167383816
 30
0.0
 11
82.34637482906035
 21
106.890167383816
 31
0.0
  0
LINE
  5
1CE
330
50
100
AcDbEntity
  8
1
  6
Continuous
 62
     7
100
AcDbLine
 10
72.95876800945086
 20
108.7109249612573
 30
0.0
 11
72.89302224210417
 21
108.776670728604
 31
0.0
  0
LINE
  5
1CF
330
50
100
AcDbEntity
  8
1
  6
Continuous
 62
     7
100
AcDbLine
 10
75.23598348231025
 20
108.3855003486012
 30
0.0
 11
74.60347211465296
 21
109.0180117162585
 31
0.0
  0
LINE
  5
1D0
330
50
100
AcDbEntity
  8
1
  6
Continuous
 62
     7
100
AcDbLine
 10
69.92528721339696
 20
106.890167383816
 30
0.0
 11
71.63829322958125
 21
106.890167383816
 31
0.0
  0
LINE
  5
1D1
330
50
100
AcDbEntity
  8
1
  6
Continuous
 62
     7
100
AcDbLine
 10
77.03598351355194
 20
104.6337094571561
 30
0.0
 11
77.75161540790825
 21
103.9180775627998
 31
0.0
  0
LINE
  5
1D2
330
50
100
AcDbEntity
  8
1
  6
Continuous
 62
     7
100
AcDbLine
 10
75.23598348231025
 20
103.8855957417116
 30
0.0
 11
75.23598348231025
 21
108.1656728258027
 31
0.0
  0
LINE
  5
1D3
330
50
100
AcDbEntity
  8
1
  6
Continuous
 62
     7
100
AcDbLine
 10
74.52004663454906
 20
103.9180775627998
 30
0.0
 11
75.23598348231025
 21
104.634014410561
 31
0.0
  0
LINE
  5
1D4
330
50
100
AcDbEntity
  8
1
  6
Continuous
 62
     7
100
AcDbLine
 10
72.82862544643115
 20
104.1784472348853
 30
0.0
 11
72.95876800945086
 21
104.3085897979049
 31
0.0
  0
ARC
  5
1D5
330
50
100
AcDbEntity
  8
1
  6
Continuous
 62
     7
100
AcDbCircle
 10
80.63336881287606
 20
104.2103527506538
 30
0.0
 40
1.918994624692502
100
AcDbArc
 50
90.0
 51
134.629699151785
  0
ARC
  5
1D6
330
50
100
AcDbEntity
  8
1
  6
Continuous
 62
     7
100
AcDbCircle
 10
79.96106105440106
 20
104.9567568192995
 30
0.0
 40
0.9166465923391882
100
AcDbArc
 50
137.5005082888386
 51
-134.9999999999956
  0
ARC
  5
1D7
330
50
100
AcDbEntity
  8
1
  6
Continuous
 62
     7
100
AcDbCircle
 10
72.31060098805625
 20
104.9567568192995
 30
0.0
 40
0.916646592339224
100
AcDbArc
 50
-44.99999999999938
 51
42.49949171116143
  0
ARC
  5
1D8
330
50
100
AcDbEntity
  8
1
  6
Continuous
 62
     7
100
AcDbCircle
 10
71.63829322958125
 20
104.2103527506538
 30
0.0
 40
1.918994624692486
100
AcDbArc
 50
45.37030084821505
 51
90.0
  0
ARC
  5
1D9
330
50
100
AcDbEntity
  8
1
  6
Continuous
 62
     7
100
AcDbCircle
 10
80.63336881287606
 20
108.8091620085084
 30
0.0
 40
1.918994624692405
100
AcDbArc
 50
-134.6296991517874
 51
-90.0
  0
ARC
  5
1DA
330
50
100
AcDbEntity
  8
1
  6
Continuous
 62
     7
100
AcDbCircle
 10
79.96106105440106
 20
108.0627579398628
 30
0.0
 40
0.9166465923390732
100
AcDbArc
 50
135.0
 51
-137.5005082888386
  0
ARC
  5
1DB
330
50
100
AcDbEntity
  8
1
  6
Continuous
 62
     7
100
AcDbCircle
 10
71.63829322958125
 20
108.8091620085084
 30
0.0
 40
1.918994624692388
100
AcDbArc
 50
-90.0
 51
-45.37030084821267
  0
ARC
  5
1DC
330
50
100
AcDbEntity
  8
1
  6
Continuous
 62
     7
100
AcDbCircle
 10
72.31060098805625
 20
108.0627579398628
 30
0.0
 40
0.9166465923391882
100
AcDbArc
 50
-42.49949171116143
 51
44.99999999999498
  0
SPLINE
  5
1DD
330
50
100
AcDbEntity
  8
1
  6
Continuous
 62
     7
100
AcDbSpline
210
0.0
220
0.0
230
1.0
 70
     8
 71
     3
 72
    41
 73
    37
 74
    35
 42
0.0000000001
 43
0.0000000001
 44
0.00000001
 40
0.0
 40
0.0
 40
0.0
 40
0.0
 40
0.0729288109103189
 40
0.145827871201927
 40
0.2220831453895867
 40
0.2983654672257002
 40
0.3708466343862198
 40
0.4433152334431911
 40
0.5103450017006269
 40
0.5773771625313581
 40
0.6376245902393991
 40
0.6978691714589953
 40
0.7504693758224547
 40
0.8030639671050556
 40
0.8478791288824679
 40
0.8926919168915042
 40
0.9307529194663765
 40
0.9687650101172306
 40
1.002688520359927
 40
1.036543079623418
 40
1.070397483767551
 40
1.104321128346571
 40
1.14233395204861
 40
1.180394338960627
 40
1.222230631614717
 40
1.264055541113796
 40
1.310191726646528
 40
1.356333469914584
 40
1.4260045399412
 40
1.495712742741125
 40
1.625131700200848
 40
1.754651211584919
 40
1.840966302789291
 40
1.927202338673507
 40
2.000131722952029
 40
2.073101535705015
 40
2.073101535705015
 40
2.073101535705015
 40
2.073101535705015
 10
82.34637482906035
 20
106.1293473753463
 30
0.0
 10
82.37067659743903
 20
106.129963523168
 30
0.0
 10
82.41927022051979
 20
106.1311955674596
 30
0.0
 10
82.49323047171863
 20
106.134693249028
 30
0.0
 10
82.56808495203137
 20
106.1416071254548
 30
0.0
 10
82.64243365915559
 20
106.1516600797251
 30
0.0
 10
82.71510378601688
 20
106.1643073829337
 30
0.0
 10
82.78416344636555
 20
106.1793757108838
 30
0.0
 10
82.8506981031955
 20
106.1971543738868
 30
0.0
 10
82.91237099098318
 20
106.2170465220507
 30
0.0
 10
82.97075785021715
 20
106.2394589301426
 30
0.0
 10
83.02326055471285
 20
106.2634942412103
 30
0.0
 10
83.07173289288517
 20
106.2898907437349
 30
0.0
 10
83.11358266156577
 20
106.3173863694822
 30
0.0
 10
83.15066679184368
 20
106.347038143202
 30
0.0
 10
83.18075220180231
 20
106.3773147530708
 30
0.0
 10
83.20523664737655
 20
106.4094698266683
 30
0.0
 10
83.22266707325827
 20
106.4419618989185
 30
0.0
 10
83.23330328836153
 20
106.4757885780647
 30
0.0
 10
83.23709196259597
 20
106.5097118331143
 30
0.0
 10
83.23330985572856
 20
106.5436358674137
 30
0.0
 10
83.2226801302123
 20
106.5774648247737
 30
0.0
 10
83.2052572366371
 20
106.6099607940953
 30
0.0
 10
83.18138066041158
 20
106.6413292340995
 30
0.0
 10
83.15285093966642
 20
106.6703175101229
 30
0.0
 10
83.11930347546753
 20
106.6977388133201
 30
0.0
 10
83.08231714650833
 20
106.722935508975
 30
0.0
 10
83.03548713013078
 20
106.7498671048756
 30
0.0
 10
82.97961253466008
 20
106.7765494021828
 30
0.0
 10
82.89603186828653
 20
106.8089945448629
 30
0.0
 10
82.7907447586116
 20
106.8399589460999
 30
0.0
 10
82.67780999719659
 20
106.8626491096757
 30
0.0
 10
82.57811724989357
 20
106.8769831922836
 30
0.0
 10
82.49661715922501
 20
106.8847221577787
 30
0.0
 10
82.41930848904551
 20
106.8883464293336
 30
0.0
 10
82.3706905397119
 20
106.8895602868691
 30
0.0
 10
82.34637482906035
 20
106.890167383816
 30
0.0
 11
82.34637482906035
 21
106.1293473753463
 31
0.0
 11
82.41927297328768
 21
106.1314620925864
 31
0.0
 11
82.49207757397846
 21
106.1351719591142
 31
0.0
 11
82.56801379432297
 21
106.1421402645916
 31
0.0
 11
82.64361403139466
 21
106.1523185149035
 31
0.0
 11
82.71501025278845
 21
106.1648124799923
 31
0.0
 11
82.78579865738985
 21
106.1803269771891
 31
0.0
 11
82.85053784649784
 21
106.1977001526698
 31
0.0
 11
82.91431124405216
 21
106.2183463230173
 31
0.0
 11
82.97051670829146
 21
106.2400419063254
 31
0.0
 11
83.02524700146626
 21
106.265221353804
 31
0.0
 11
83.07136601119485
 21
106.2905159864507
 31
0.0
 11
83.11523520277936
 21
106.3195277954585
 31
0.0
 11
83.15010423997566
 21
106.3476800417301
 31
0.0
 11
83.18154160203076
 21
106.3796155742317
 31
0.0
 11
83.20440717873828
 21
106.410042623363
 31
0.0
 11
83.22215151283194
 21
106.4436589533712
 31
0.0
 11
83.23223608611838
 21
106.4760488581074
 31
0.0
 11
83.23583102359277
 21
106.5097120072096
 31
0.0
 11
83.23224262450418
 21
106.5433756979154
 31
0.0
 11
83.22216448930087
 21
106.5757677471304
 31
0.0
 11
83.2044270224571
 21
106.6093885299257
 31
0.0
 11
83.18156716068515
 21
106.6398191029019
 31
0.0
 11
83.15234459472013
 21
106.6697576569996
 31
0.0
 11
83.12007281148536
 21
106.6963632026894
 31
0.0
 11
83.08201051979555
 21
106.7224363606652
 31
0.0
 11
83.04207017921235
 21
106.7455411148494
 31
0.0
 11
82.97928362620822
 21
106.7757389088171
 31
0.0
 11
82.91436848940916
 21
106.8011408487421
 31
0.0
 11
82.7903409315668
 21
106.8381061222515
 31
0.0
 11
82.66345023887834
 21
106.8640687095303
 31
0.0
 11
82.57800605472413
 21
106.8762992599611
 31
0.0
 11
82.49215116719086
 21
106.8843981593723
 31
0.0
 11
82.41931477793415
 21
106.8880799376505
 31
0.0
 11
82.34637482906035
 21
106.890167383816
 31
0.0
  0
SPLINE
  5
1DE
330
50
100
AcDbEntity
  8
1
  6
Continuous
 62
     7
100
AcDbSpline
210
0.0
220
0.0
230
1.0
 70
     8
 71
     3
 72
    41
 73
    37
 74
    35
 42
0.0000000001
 43
0.0000000001
 44
0.00000001
 40
0.0
 40
0.0
 40
0.0
 40
0.0
 40
0.0729288109103047
 40
0.145827871201927
 40
0.2220831453895867
 40
0.2983654672257002
 40
0.3708466343862198
 40
0.4433152334431911
 40
0.5103450017006269
 40
0.5773771625313581
 40
0.6376245902393991
 40
0.6978691714589953
 40
0.7504693758224547
 40
0.8030639671050556
 40
0.8478791288824789
 40
0.8926919168915052
 40
0.9307529194663775
 40
0.9687650101172316
 40
1.002688520359927
 40
1.036543079623419
 40
1.070397483767548
 40
1.104321128346554
 40
1.142333952048587
 40
1.180394338960596
 40
1.222230631614735
 40
1.264055541113851
 40
1.310191726646548
 40
1.356333469914542
 40
1.426004539941197
 40
1.495712742741188
 40
1.625131700200862
 40
1.754651211584869
 40
1.840966302789311
 40
1.92720233867357
 40
2.000131722952106
 40
2.073101535705078
 40
2.073101535705078
 40
2.073101535705078
 40
2.073101535705078
 10
69.92528721339696
 20
106.1293473753463
 30
0.0
 10
69.90098544501828
 20
106.129963523168
 30
0.0
 10
69.85239182193752
 20
106.1311955674596
 30
0.0
 10
69.77843157073869
 20
106.134693249028
 30
0.0
 10
69.70357709042594
 20
106.1416071254548
 30
0.0
 10
69.62922838330175
 20
106.1516600797252
 30
0.0
 10
69.55655825644044
 20
106.1643073829337
 30
0.0
 10
69.48749859609177
 20
106.1793757108838
 30
0.0
 10
69.42096393926177
 20
106.1971543738868
 30
0.0
 10
69.35929105147419
 20
106.2170465220507
 30
0.0
 10
69.30090419224014
 20
106.2394589301426
 30
0.0
 10
69.24840148774446
 20
106.2634942412103
 30
0.0
 10
69.19992914957213
 20
106.2898907437348
 30
0.0
 10
69.15807938089155
 20
106.3173863694822
 30
0.0
 10
69.12099525061362
 20
106.347038143202
 30
0.0
 10
69.090909840655
 20
106.3773147530708
 30
0.0
 10
69.06642539508073
 20
106.4094698266683
 30
0.0
 10
69.04899496919907
 20
106.4419618989185
 30
0.0
 10
69.03835875409578
 20
106.4757885780647
 30
0.0
 10
69.03457007986135
 20
106.5097118331143
 30
0.0
 10
69.03835218672872
 20
106.5436358674137
 30
0.0
 10
69.04898191224493
 20
106.5774648247737
 30
0.0
 10
69.06640480582011
 20
106.6099607940953
 30
0.0
 10
69.09028138204563
 20
106.6413292340995
 30
0.0
 10
69.1188111027908
 20
106.670317510123
 30
0.0
 10
69.15235856698979
 20
106.69773881332
 30
0.0
 10
69.18934489594892
 20
106.722935508975
 30
0.0
 10
69.23617491232642
 20
106.7498671048756
 30
0.0
 10
69.29204950779717
 20
106.7765494021829
 30
0.0
 10
69.37563017417077
 20
106.8089945448629
 30
0.0
 10
69.48091728384566
 20
106.8399589460999
 30
0.0
 10
69.59385204526066
 20
106.8626491096758
 30
0.0
 10
69.69354479256367
 20
106.8769831922836
 30
0.0
 10
69.77504488323227
 20
106.8847221577787
 30
0.0
 10
69.85235355341185
 20
106.8883464293336
 30
0.0
 10
69.90097150274544
 20
106.8895602868691
 30
0.0
 10
69.92528721339696
 20
106.890167383816
 30
0.0
 11
69.92528721339696
 21
106.1293473753463
 31
0.0
 11
69.85238906916965
 21
106.1314620925864
 31
0.0
 11
69.77958446847885
 21
106.1351719591142
 31
0.0
 11
69.70364824813434
 21
106.1421402645916
 31
0.0
 11
69.62804801106265
 21
106.1523185149035
 31
0.0
 11
69.55665178966886
 21
106.1648124799923
 31
0.0
 11
69.48586338506746
 21
106.1803269771891
 31
0.0
 11
69.42112419595946
 21
106.1977001526698
 31
0.0
 11
69.35735079840515
 21
106.2183463230173
 31
0.0
 11
69.30114533416585
 21
106.2400419063254
 31
0.0
 11
69.24641504099105
 21
106.265221353804
 31
0.0
 11
69.20029603126245
 21
106.2905159864507
 31
0.0
 11
69.15642683967795
 21
106.3195277954585
 31
0.0
 11
69.12155780248163
 21
106.3476800417301
 31
0.0
 11
69.09012044042655
 21
106.3796155742317
 31
0.0
 11
69.06725486371903
 21
106.410042623363
 31
0.0
 11
69.04951052962537
 21
106.4436589533712
 31
0.0
 11
69.03942595633893
 21
106.4760488581074
 31
0.0
 11
69.03583101886454
 21
106.5097120072096
 31
0.0
 11
69.03941941795308
 21
106.5433756979154
 31
0.0
 11
69.04949755315636
 21
106.5757677471304
 31
0.0
 11
69.06723502000011
 21
106.6093885299257
 31
0.0
 11
69.09009488177205
 21
106.6398191029019
 31
0.0
 11
69.1193174477371
 21
106.6697576569996
 31
0.0
 11
69.15158923097195
 21
106.6963632026894
 31
0.0
 11
69.18965152266172
 21
106.7224363606652
 31
0.0
 11
69.22959186324485
 21
106.7455411148494
 31
0.0
 11
69.29237841624902
 21
106.7757389088171
 31
0.0
 11
69.35729355304815
 21
106.8011408487421
 31
0.0
 11
69.48132111089046
 21
106.8381061222515
 31
0.0
 11
69.60821180357885
 21
106.8640687095303
 31
0.0
 11
69.69365598773314
 21
106.8762992599611
 31
0.0
 11
69.77951087526645
 21
106.8843981593723
 31
0.0
 11
69.85234726452318
 21
106.8880799376505
 31
0.0
 11
69.92528721339696
 21
106.890167383816
 31
0.0
  0
SPLINE
  5
1DF
330
50
100
AcDbEntity
  8
1
  6
Continuous
 62
     7
100
AcDbSpline
210
0.0
220
0.0
230
1.0
 70
     8
 71
     3
 72
    43
 73
    39
 74
    37
 42
0.0000000001
 43
0.0000000001
 44
0.00000001
 40
0.0
 40
0.0
 40
0.0
 40
0.0
 40
0.0448557869080556
 40
0.0895229396163054
 40
0.1420251006261535
 40
0.1947532320077373
 40
0.2550487073987119
 40
0.3152378983883809
 40
0.3822477256752559
 40
0.449301327170912
 40
0.5217834982860604
 40
0.5942519329266193
 40
0.6705157073703812
 40
0.7467846613848665
 40
0.8249938830368055
 40
0.9032018446844076
 40
0.9814103141242662
 40
1.059619064834754
 40
1.135885754506554
 40
1.212151672380297
 40
1.284627284801122
 40
1.357102761000288
 40
1.424135747607887
 40
1.491164181407436
 40
1.551405666528216
 40
1.611656875146465
 40
1.664277397515281
 40
1.716849516709407
 40
1.761592178230491
 40
1.80648475407734
 40
1.857965120989716
 40
1.908967469425624
 40
1.929576307982876
 40
1.950229029426268
 40
1.972260123599906
 40
1.994167356826077
 40
2.043389217812845
 40
2.09376412712298
 40
2.09376412712298
 40
2.09376412712298
 40
2.09376412712298
 10
77.75161540790114
 20
103.9180775628069
 30
0.0
 10
77.76228280483832
 20
103.9076013378684
 30
0.0
 10
77.78357273859484
 20
103.8866929441645
 30
0.0
 10
77.81934037296533
 20
103.855557070148
 30
0.0
 10
77.86113941668307
 20
103.8279155910552
 30
0.0
 10
77.9099286879169
 20
103.8020705351929
 30
0.0
 10
77.96247526736875
 20
103.7780618626835
 30
0.0
 10
78.02078408282145
 20
103.7554710987145
 30
0.0
 10
78.08244158360544
 20
103.735581401998
 30
0.0
 10
78.14899409757251
 20
103.7178542713568
 30
0.0
 10
78.21805178594056
 20
103.702742921693
 30
0.0
 10
78.29071753827191
 20
103.6900922685519
 30
0.0
 10
78.36508698322444
 20
103.680227592668
 30
0.0
 10
78.44168892623299
 20
103.6731062668638
 30
0.0
 10
78.51915036533001
 20
103.6688156262427
 30
0.0
 10
78.59736357720374
 20
103.6673941044047
 30
0.0
 10
78.67557638178747
 20
103.6688296925055
 30
0.0
 10
78.75303625262649
 20
103.6731360936934
 30
0.0
 10
78.82963617908372
 20
103.6802771937798
 30
0.0
 10
78.90400596117746
 20
103.6901556090372
 30
0.0
 10
78.97667300962064
 20
103.7028033726041
 30
0.0
 10
79.04572110414652
 20
103.7179310201037
 30
0.0
 10
79.11225175102298
 20
103.7357306375291
 30
0.0
 10
79.17392218361492
 20
103.7556227030728
 30
0.0
 10
79.23230956270348
 20
103.7780312185215
 30
0.0
 10
79.28481177783718
 20
103.8020865723711
 30
0.0
 10
79.33325960224258
 20
103.8285323445025
 30
0.0
 10
79.37508726143801
 20
103.8560074683908
 30
0.0
 10
79.41223597054135
 20
103.8855750438593
 30
0.0
 10
79.44543584859363
 20
103.9190864567096
 30
0.0
 10
79.47430273553643
 20
103.9591704086205
 30
0.0
 10
79.49055075407671
 20
103.9974328827346
 30
0.0
 10
79.49638864762987
 20
104.0277015934744
 30
0.0
 10
79.49779789604416
 20
104.0488092769043
 30
0.0
 10
79.49638434723143
 20
104.0703577437864
 30
0.0
 10
79.49006811246498
 20
104.1008887415779
 30
0.0
 10
79.47210063217909
 20
104.1377947080096
 30
0.0
 10
79.45279909377587
 20
104.1647922077545
 30
0.0
 10
79.44303659601906
 20
104.1784472348924
 30
0.0
 11
77.75161540790114
 21
103.9180775628069
 31
0.0
 11
77.78393280893162
 21
103.8869708559774
 31
0.0
 11
77.81792180715254
 21
103.8579897840338
 31
0.0
 11
77.86149296306749
 21
103.828697613016
 31
0.0
 11
77.90791000846576
 21
103.8036833423792
 31
0.0
 11
77.96273759498162
 21
103.7785939001879
 31
0.0
 11
78.01884576587986
 21
103.7568083115926
 31
0.0
 11
78.08258873499803
 21
103.7361406837409
 31
0.0
 11
78.14735835254206
 21
103.7187889657643
 31
0.0
 11
78.21815587175637
 21
103.7032526726844
 31
0.0
 11
78.28954297853736
 21
103.6907805034788
 31
0.0
 11
78.36514063077212
 21
103.6807227567629
 31
0.0
 11
78.44107943595355
 21
103.6736339476895
 31
0.0
 11
78.51916846945156
 21
103.6692997581747
 31
0.0
 11
78.59736336621324
 21
103.6678702878176
 31
0.0
 11
78.67555850648466
 21
103.6693141472493
 31
0.0
 11
78.75364616117906
 21
103.6736646497517
 31
0.0
 11
78.82958103410482
 21
103.6807711979464
 31
0.0
 11
78.90517924720885
 21
103.6908409747365
 31
0.0
 11
78.97657287138742
 21
103.7033175456766
 31
0.0
 11
79.04735836816295
 21
103.7188773688291
 31
0.0
 11
79.11209462914084
 21
103.7362738572143
 31
0.0
 11
79.17586348339745
 21
103.7569219603819
 31
0.0
 11
79.2320631269412
 21
103.7786161207739
 31
0.0
 11
79.28679003001244
 21
103.8038187837322
 31
0.0
 11
79.33290884138536
 21
103.829156001652
 31
0.0
 11
79.37676756102076
 21
103.8581429026334
 31
0.0
 11
79.41161697700127
 21
103.8862039782687
 31
0.0
 11
79.44306215467344
 21
103.9182437062221
 31
0.0
 11
79.47274457298862
 21
103.9603053540785
 31
0.0
 11
79.49206625886265
 21
104.0075061167944
 31
0.0
 11
79.49596375402282
 21
104.0277430572291
 31
0.0
 11
79.49732601758095
 21
104.0483508019144
 31
0.0
 11
79.49587443055103
 21
104.0703340229155
 31
0.0
 11
79.49137974324415
 21
104.091775213499
 31
0.0
 11
79.4711540603805
 21
104.1366496310629
 31
0.0
 11
79.44303659601906
 21
104.1784472348924
 31
0.0
  0
SPLINE
  5
1E0
330
50
100
AcDbEntity
  8
1
  6
Continuous
 62
     7
100
AcDbSpline
210
0.0
220
0.0
230
1.0
 70
     8
 71
     3
 72
    27
 73
    23
 74
    21
 42
0.0000000001
 43
0.0000000001
 44
0.00000001
 40
0.0
 40
0.0
 40
0.0
 40
0.0
 40
0.0340794457133077
 40
0.067540262869187
 40
0.1486179216789862
 40
0.2331829827764971
 40
0.3468645513480437
 40
0.4587323382445139
 40
0.5978897935786638
 40
0.7376658393380355
 40
0.8922263792117017
 40
1.046563323096284
 40
1.200901771918614
 40
1.355460852784621
 40
1.495230658234058
 40
1.634394093176136
 40
1.746277721701585
 40
1.859945104044312
 40
1.944482068130098
 40
2.025576281636962
 40
2.058971108006578
 40
2.092973109329019
 40
2.092973109329019
 40
2.092973109329019
 40
2.092973109329019
 10
75.23583100560776
 20
103.8854189355822
 30
0.0
 10
75.23739135242701
 20
103.8741701073377
 30
0.0
 10
75.24048372180488
 20
103.8518766456717
 30
0.0
 10
75.25210640305728
 20
103.8034441823283
 30
0.0
 10
75.29065276544338
 20
103.746789017158
 30
0.0
 10
75.36288420408441
 20
103.6875632148971
 30
0.0
 10
75.45229339630926
 20
103.6346860262774
 30
0.0
 10
75.56525901900719
 20
103.5890323797845
 30
0.0
 10
75.69057613450991
 20
103.5526921767389
 30
0.0
 10
75.83263380833449
 20
103.5253762618694
 30
0.0
 10
75.98141739554401
 20
103.5087135449342
 30
0.0
 10
76.13586906200625
 20
103.5033099480947
 30
0.0
 10
76.29031919299817
 20
103.5087432247299
 30
0.0
 10
76.43909752702275
 20
103.5254348982581
 30
0.0
 10
76.58114861507119
 20
103.5527825358512
 30
0.0
 10
76.70646310132229
 20
103.58914871537
 30
0.0
 10
76.81942804499334
 20
103.6348097573456
 30
0.0
 10
76.9088215977862
 20
103.6877008001629
 30
0.0
 10
76.9809975038162
 20
103.7469871077312
 30
0.0
 10
77.01951389066666
 20
103.8036044332867
 30
0.0
 10
77.0312393035374
 20
103.8519635307669
 30
0.0
 10
77.03439264078983
 20
103.874200357125
 30
0.0
 10
77.03598351355194
 20
103.8854189355822
 30
0.0
 11
75.23583100560776
 21
103.8854189355822
 31
0.0
 11
75.24106952593344
 21
103.8517445161377
 31
0.0
 11
75.24951051636856
 21
103.8193658817438
 31
0.0
 11
75.29255691005832
 21
103.7506592972822
 31
0.0
 11
75.35642682642114
 21
103.6952347238311
 31
0.0
 11
75.45404441219839
 21
103.6369740511615
 31
0.0
 11
75.55735078514834
 21
103.5940532513899
 31
0.0
 11
75.69086629648027
 21
103.5548307373342
 31
0.0
 11
75.82804799780587
 21
103.5280254432761
 31
0.0
 11
75.98163162332865
 21
103.5106752139602
 31
0.0
 11
76.13586838548176
 21
103.5051152276149
 31
0.0
 11
76.29010557603525
 21
103.5107050250218
 31
0.0
 11
76.44368426647736
 21
103.5280859145338
 31
0.0
 11
76.58085409014018
 21
103.5549194381877
 31
0.0
 11
76.71436850266596
 21
103.5941669001792
 31
0.0
 11
76.81768504532133
 21
103.6371045101006
 31
0.0
 11
76.91527258028935
 21
103.6953878424308
 31
0.0
 11
76.97908718566706
 21
103.7508332609731
 31
0.0
 11
77.02216450255764
 21
103.8195400017909
 31
0.0
 11
77.03065894035025
 21
103.8518364250425
 31
0.0
 11
77.03598351355194
 21
103.8854189355822
 31
0.0
  0
SPLINE
  5
1E1
330
50
100
AcDbEntity
  8
1
  6
Continuous
 62
     7
100
AcDbSpline
210
0.0
220
0.0
230
1.0
 70
     8
 71
     3
 72
    43
 73
    39
 74
    37
 42
0.0000000001
 43
0.0000000001
 44
0.00000001
 40
0.0
 40
0.0
 40
0.0
 40
0.0
 40
0.0448557869080659
 40
0.0895229396163048
 40
0.1420251006261134
 40
0.1947532320076357
 40
0.2550487073985973
 40
0.3152378983882796
 40
0.3822477256751952
 40
0.4493013271708924
 40
0.52178349828599
 40
0.5942519329265142
 40
0.6705157073702903
 40
0.7467846613847615
 40
0.8249938830367005
 40
0.9032018446843025
 40
0.9814103141241611
 40
1.059619064834649
 40
1.135885754506449
 40
1.212151672380192
 40
1.284627284801087
 40
1.357102761000294
 40
1.424135747607839
 40
1.491164181407334
 40
1.551405666528114
 40
1.611656875146363
 40
1.664277397515168
 40
1.716849516709301
 40
1.761592178230441
 40
1.80648475407732
 40
1.857965120989647
 40
1.908967469425544
 40
1.929576307982807
 40
1.950229029426203
 40
1.97226012359984
 40
1.994167356826014
 40
2.043389217812811
 40
2.09376412712297
 40
2.09376412712297
 40
2.09376412712297
 40
2.09376412712297
 10
74.52004663455605
 20
103.9180775628069
 30
0.0
 10
74.50937923761887
 20
103.9076013378684
 30
0.0
 10
74.48808930386235
 20
103.8866929441645
 30
0.0
 10
74.45232166949185
 20
103.855557070148
 30
0.0
 10
74.41052262577414
 20
103.8279155910553
 30
0.0
 10
74.36173335454041
 20
103.8020705351928
 30
0.0
 10
74.30918677508855
 20
103.7780618626835
 30
0.0
 10
74.25087795963587
 20
103.7554710987145
 30
0.0
 10
74.18922045885181
 20
103.735581401998
 30
0.0
 10
74.12266794488477
 20
103.7178542713568
 30
0.0
 10
74.05361025651668
 20
103.7027429216931
 30
0.0
 10
73.98094450418539
 20
103.6900922685519
 30
0.0
 10
73.90657505923284
 20
103.680227592668
 30
0.0
 10
73.82997311622432
 20
103.6731062668638
 30
0.0
 10
73.7525116771273
 20
103.6688156262427
 30
0.0
 10
73.67429846525353
 20
103.6673941044047
 30
0.0
 10
73.5960856606699
 20
103.6688296925055
 30
0.0
 10
73.51862578983078
 20
103.6731360936934
 30
0.0
 10
73.44202586337362
 20
103.6802771937798
 30
0.0
 10
73.36765608127982
 20
103.6901556090372
 30
0.0
 10
73.29498903283663
 20
103.7028033726041
 30
0.0
 10
73.2259409383107
 20
103.7179310201037
 30
0.0
 10
73.15941029143427
 20
103.7357306375291
 30
0.0
 10
73.09773985884237
 20
103.7556227030728
 30
0.0
 10
73.03935247975383
 20
103.7780312185215
 30
0.0
 10
72.98685026462012
 20
103.8020865723711
 30
0.0
 10
72.93840244021479
 20
103.8285323445026
 30
0.0
 10
72.8965747810193
 20
103.8560074683909
 30
0.0
 10
72.85942607191588
 20
103.8855750438593
 30
0.0
 10
72.82622619386358
 20
103.9190864567096
 30
0.0
 10
72.79735930692085
 20
103.9591704086205
 30
0.0
 10
72.78111128838063
 20
103.9974328827345
 30
0.0
 10
72.77527339482737
 20
104.0277015934744
 30
0.0
 10
72.77386414641302
 20
104.0488092769043
 30
0.0
 10
72.77527769522577
 20
104.0703577437864
 30
0.0
 10
72.7815939299922
 20
104.1008887415779
 30
0.0
 10
72.79956141027819
 20
104.1377947080096
 30
0.0
 10
72.81886294868143
 20
104.1647922077545
 30
0.0
 10
72.82862544643825
 20
104.1784472348924
 30
0.0
 11
74.52004663455605
 21
103.9180775628069
 31
0.0
 11
74.48772923352556
 21
103.8869708559774
 31
0.0
 11
74.45374023530465
 21
103.8579897840338
 31
0.0
 11
74.41016907938973
 21
103.828697613016
 31
0.0
 11
74.36375203399155
 21
103.8036833423792
 31
0.0
 11
74.3089244474757
 21
103.7785939001879
 31
0.0
 11
74.25281627657745
 21
103.7568083115926
 31
0.0
 11
74.18907330745924
 21
103.7361406837409
 31
0.0
 11
74.12430368991517
 21
103.7187889657643
 31
0.0
 11
74.0535061707009
 21
103.7032526726844
 31
0.0
 11
73.98211906391995
 21
103.6907805034788
 31
0.0
 11
73.90652141168518
 21
103.6807227567629
 31
0.0
 11
73.83058260650375
 21
103.6736339476895
 31
0.0
 11
73.75249357300575
 21
103.6692997581747
 31
0.0
 11
73.67429867624406
 21
103.6678702878176
 31
0.0
 11
73.59610353597265
 21
103.6693141472493
 31
0.0
 11
73.51801588127825
 21
103.6736646497517
 31
0.0
 11
73.44208100835249
 21
103.6807711979464
 31
0.0
 11
73.36648279524846
 21
103.6908409747365
 31
0.0
 11
73.29508917106982
 21
103.7033175456766
 31
0.0
 11
73.22430367429425
 21
103.7188773688291
 31
0.0
 11
73.15956741331641
 21
103.7362738572143
 31
0.0
 11
73.09579855905986
 21
103.7569219603819
 31
0.0
 11
73.03959891551611
 21
103.7786161207739
 31
0.0
 11
72.98487201244487
 21
103.8038187837322
 31
0.0
 11
72.93875320107198
 21
103.829156001652
 31
0.0
 11
72.89489448143655
 21
103.8581429026334
 31
0.0
 11
72.86004506545596
 21
103.8862039782687
 31
0.0
 11
72.82859988778375
 21
103.9182437062221
 31
0.0
 11
72.79891746946866
 21
103.9603053540785
 31
0.0
 11
72.77959578359466
 21
104.0075061167944
 31
0.0
 11
72.77569828843443
 21
104.0277430572291
 31
0.0
 11
72.77433602487625
 21
104.0483508019144
 31
0.0
 11
72.77578761190615
 21
104.0703340229155
 31
0.0
 11
72.78028229921304
 21
104.091775213499
 31
0.0
 11
72.80050798207677
 21
104.1366496310629
 31
0.0
 11
72.82862544643825
 21
104.1784472348924
 31
0.0
  0
ENDBLK
  5
52
330
50
100
AcDbEntity
  8
0
100
AcDbBlockEnd
  0
BLOCK
  5
56
330
53
100
AcDbEntity
  8
0
100
AcDbBlockBegin
  2
Y12J-64X
 70
     0
 71
     0
 10
126.5783790553684
 20
119.324553696341
 30
0.0
  3
Y12J-64X
  1

  0
INSERT
  5
54
330
53
100
AcDbEntity
  8
0
100
AcDbBlockReference
  2
32-1-16
 10
207.5838464598908
 20
-131.8890861160926
 30
0.0
  0
INSERT
  5
55
330
53
100
AcDbEntity
  8
0
100
AcDbBlockReference
  2
75-2
 10
179.1249847831937
 20
56.63301065802246
 30
0.0
  0
ENDBLK
  5
57
330
53
100
AcDbEntity
  8
0
100
AcDbBlockEnd
  0
BLOCK
  5
59
330
58
100
AcDbEntity
  8
0
100
AcDbBlockBegin
  2
Y12-0-13
 70
     0
 71
     0
 10
251.0677307778072
 20
165.8753419286554
 30
0.0
  3
Y12-0-13
  1

  0
LINE
  5
1E2
330
58
100
AcDbEntity
  8
1
  6
Continuous
 62
     2
100
AcDbLine
 10
181.5677307778072
 20
133.6883419286554
 30
0.0
 11
182.9761123110336
 21
133.6883419286554
 31
0.0
  0
LINE
  5
1E3
330
58
100
AcDbEntity
  8
1
  6
Continuous
 62
     2
100
AcDbLine
 10
181.5677307778072
 20
158.0623419286555
 30
0.0
 11
181.0677307778073
 21
158.0623419286555
 31
0.0
  0
LINE
  5
1E4
330
58
100
AcDbEntity
  8
0
  6
Continuous
 62
     7
100
AcDbLine
 10
181.5677307778072
 20
158.0623419286555
 30
0.0
 11
181.5677307778072
 21
133.6883419286554
 31
0.0
  0
LINE
  5
1E5
330
58
100
AcDbEntity
  8
1
  6
Continuous
 62
     7
100
AcDbLine
 10
194.0677307778072
 20
171.3050332168404
 30
0.0
 11
194.0677307778072
 21
169.8753419286554
 31
0.0
  0
LINE
  5
1E6
330
58
100
AcDbEntity
  8
1
  6
Continuous
 62
     2
100
AcDbLine
 10
217.0677307778072
 20
171.3163915327841
 30
0.0
 11
217.0677307778072
 21
169.8753419286554
 31
0.0
  0
LINE
  5
1E7
330
58
100
AcDbEntity
  8
1
  6
Continuous
 62
     2
100
AcDbLine
 10
217.0677307778072
 20
169.8753419286554
 30
0.0
 11
218.0677307778072
 21
168.1432911210866
 31
0.0
  0
LINE
  5
1E8
330
58
100
AcDbEntity
  8
0
  6
Continuous
 62
     7
100
AcDbLine
 10
217.0677307778072
 20
169.8753419286554
 30
0.0
 11
195.0677307778072
 21
169.8753419286554
 31
0.0
  0
LINE
  5
1E9
330
58
100
AcDbEntity
  8
0
  6
Continuous
 62
     7
100
AcDbLine
 10
264.0677307778072
 20
136.3753419286554
 30
0.0
 11
264.0677307778072
 21
155.3753419286554
 31
0.0
  0
LINE
  5
1EA
330
58
100
AcDbEntity
  8
0
  6
Continuous
 62
     7
100
AcDbLine
 10
252.7997815853761
 20
155.3753419286554
 30
0.0
 11
252.7997815853761
 21
136.3753419286554
 31
0.0
  0
LINE
  5
1EB
330
58
100
AcDbEntity
  8
1
  6
Continuous
 62
     7
100
AcDbLine
 10
64.13583102122865
 20
162.5779006655486
 30
0.0
 11
64.13583102122865
 21
171.3050332168405
 31
0.0
  0
LINE
  5
1EC
330
58
100
AcDbEntity
  8
1
  6
Continuous
 62
     7
100
AcDbLine
 10
64.13583102122865
 20
169.8774710520818
 30
0.0
 11
88.13583102122865
 21
169.8774710520818
 31
0.0
  0
LINE
  5
1ED
330
58
100
AcDbEntity
  8
1
  6
Continuous
 62
     2
100
AcDbLine
 10
65.13583102122865
 20
169.8774710520818
 30
0.0
 11
65.13583102122865
 21
171.3050332168405
 31
0.0
  0
LINE
  5
1EE
330
58
100
AcDbEntity
  8
1
  6
Continuous
 62
     2
100
AcDbLine
 10
87.13583102122865
 20
169.8774710520818
 30
0.0
 11
87.13583102122865
 21
171.3050332168405
 31
0.0
  0
LINE
  5
1EF
330
58
100
AcDbEntity
  8
1
  6
Continuous
 62
     2
100
AcDbLine
 10
181.0677307778073
 20
133.6883419286554
 30
0.0
 11
181.5677307778072
 21
133.6883419286554
 31
0.0
  0
LINE
  5
1F0
330
58
100
AcDbEntity
  8
1
  6
Continuous
 62
     2
100
AcDbLine
 10
264.0677307778072
 20
136.3753419286554
 30
0.0
 11
252.7997815853761
 21
136.3753419286554
 31
0.0
  0
LINE
  5
1F1
330
58
100
AcDbEntity
  8
1
  6
Continuous
 62
     7
100
AcDbLine
 10
264.0677307778072
 20
135.3753419286554
 30
0.0
 11
264.0677307778072
 21
136.3753419286554
 31
0.0
  0
LINE
  5
1F2
330
58
100
AcDbEntity
  8
1
  6
Continuous
 62
     2
100
AcDbLine
 10
264.0677307778072
 20
155.3753419286554
 30
0.0
 11
265.0677307778072
 21
155.3753419286554
 31
0.0
  0
LINE
  5
1F3
330
58
100
AcDbEntity
  8
1
  6
Continuous
 62
     7
100
AcDbLine
 10
264.0677307778072
 20
156.3753419286554
 30
0.0
 11
264.0677307778072
 21
155.3753419286554
 31
0.0
  0
LINE
  5
1F4
330
58
100
AcDbEntity
  8
1
  6
Continuous
 62
     2
100
AcDbLine
 10
63.94883102122864
 20
306.2515055386112
 30
0.0
 11
63.94883102122864
 21
308.1598870718376
 31
0.0
  0
LINE
  5
1F5
330
58
100
AcDbEntity
  8
1
  6
Continuous
 62
     2
100
AcDbLine
 10
88.32283102122867
 20
308.1598870718376
 30
0.0
 11
88.32283102122867
 21
306.2515055386112
 31
0.0
  0
LINE
  5
1F6
330
58
100
AcDbEntity
  8
1
  6
Continuous
 62
     7
100
AcDbLine
 10
89.13583102122865
 20
306.7515055386112
 30
0.0
 11
82.48146269990465
 21
306.7515055386112
 31
0.0
  0
LINE
  5
1F7
330
58
100
AcDbEntity
  8
1
  6
Continuous
 62
     7
100
AcDbLine
 10
63.13583102122865
 20
306.2515055386112
 30
0.0
 11
63.13583102122865
 21
306.7515055386112
 31
0.0
  0
LINE
  5
1F8
330
58
100
AcDbEntity
  8
1
  6
Continuous
 62
     7
100
AcDbLine
 10
89.13583102122865
 20
306.7515055386112
 30
0.0
 11
89.13583102122865
 21
306.2515055386112
 31
0.0
  0
LINE
  5
1F9
330
58
100
AcDbEntity
  8
1
  6
Continuous
 62
     7
100
AcDbLine
 10
194.0677307778072
 20
161.453184645924
 30
0.0
 11
194.0677307778072
 21
168.1432911210866
 31
0.0
  0
LINE
  5
1FA
330
58
100
AcDbEntity
  8
1
  6
Continuous
 62
     7
100
AcDbLine
 10
181.0677307778073
 20
158.8753419286554
 30
0.0
 11
181.5677307778072
 21
158.8753419286554
 31
0.0
  0
LINE
  5
1FB
330
58
100
AcDbEntity
  8
1
  6
Continuous
 62
     2
100
AcDbLine
 10
182.9761123110336
 20
158.0623419286555
 30
0.0
 11
181.5677307778072
 21
158.0623419286555
 31
0.0
  0
LINE
  5
1FC
330
58
100
AcDbEntity
  8
1
  6
Continuous
 62
     7
100
AcDbLine
 10
181.5677307778072
 20
158.0623419286555
 30
0.0
 11
181.5677307778072
 21
158.8753419286554
 31
0.0
  0
LINE
  5
1FD
330
58
100
AcDbEntity
  8
1
  6
Continuous
 62
     7
100
AcDbLine
 10
181.5677307778072
 20
132.8753419286554
 30
0.0
 11
181.5677307778072
 21
133.6883419286554
 31
0.0
  0
LINE
  5
1FE
330
58
100
AcDbEntity
  8
1
  6
Continuous
 62
     7
100
AcDbLine
 10
181.5677307778072
 20
132.8753419286554
 30
0.0
 11
181.0677307778073
 21
132.8753419286554
 31
0.0
  0
LINE
  5
1FF
330
58
100
AcDbEntity
  8
1
  6
Continuous
 62
     7
100
AcDbLine
 10
230.0872540869822
 20
137.1253419286554
 30
0.0
 11
244.5800614428748
 21
137.1253419286554
 31
0.0
  0
LINE
  5
200
330
58
100
AcDbEntity
  8
1
  6
Continuous
 62
     7
100
AcDbLine
 10
194.0677307778072
 20
169.8753419286554
 30
0.0
 11
194.0677307778072
 21
168.1432911210866
 31
0.0
  0
LINE
  5
201
330
58
100
AcDbEntity
  8
1
  6
Continuous
 62
     2
100
AcDbLine
 10
194.0677307778072
 20
168.1432911210866
 30
0.0
 11
195.0677307778072
 21
169.8753419286554
 31
0.0
  0
LINE
  5
202
330
58
100
AcDbEntity
  8
1
  6
Continuous
 62
     2
100
AcDbLine
 10
195.0677307778072
 20
169.8753419286554
 30
0.0
 11
195.0677307778072
 21
171.3050332168404
 31
0.0
  0
LINE
  5
203
330
58
100
AcDbEntity
  8
1
  6
Continuous
 62
     7
100
AcDbLine
 10
194.0677307778072
 20
169.8753419286554
 30
0.0
 11
195.0677307778072
 21
169.8753419286554
 31
0.0
  0
LINE
  5
204
330
58
100
AcDbEntity
  8
1
  6
Continuous
 62
     7
100
AcDbLine
 10
218.0677307778072
 20
169.8753419286554
 30
0.0
 11
218.0677307778072
 21
171.3050332168404
 31
0.0
  0
LINE
  5
205
330
58
100
AcDbEntity
  8
1
  6
Continuous
 62
     7
100
AcDbLine
 10
217.0677307778072
 20
169.8753419286554
 30
0.0
 11
218.0677307778072
 21
169.8753419286554
 31
0.0
  0
LINE
  5
206
330
58
100
AcDbEntity
  8
1
  6
Continuous
 62
     7
100
AcDbLine
 10
218.0677307778072
 20
169.8753419286554
 30
0.0
 11
218.0677307778072
 21
161.2073629056889
 31
0.0
  0
LINE
  5
207
330
58
100
AcDbEntity
  8
1
  6
Continuous
 62
     7
100
AcDbLine
 10
244.5800614428748
 20
154.6253419286554
 30
0.0
 11
230.0872540869822
 21
154.6253419286555
 31
0.0
  0
LINE
  5
208
330
58
100
AcDbEntity
  8
1
  6
Continuous
 62
     7
100
AcDbLine
 10
265.0677307778072
 20
139.8753419286554
 30
0.0
 11
265.0677307778072
 21
136.3753419286554
 31
0.0
  0
LINE
  5
209
330
58
100
AcDbEntity
  8
1
  6
Continuous
 62
     7
100
AcDbLine
 10
248.5677307778072
 20
158.3115055457441
 30
0.0
 11
248.5677307778072
 21
123.3361123807915
 31
0.0
  0
LINE
  5
20A
330
58
100
AcDbEntity
  8
1
  6
Continuous
 62
     7
100
AcDbLine
 10
249.0661894446738
 20
122.8753419286555
 30
0.0
 11
251.0677307778072
 21
122.8753419286555
 31
0.0
  0
LINE
  5
20B
330
58
100
AcDbEntity
  8
1
  6
Continuous
 62
     7
100
AcDbLine
 10
251.0677307778072
 20
135.3753419286554
 30
0.0
 11
251.0677307778072
 21
122.8753419286555
 31
0.0
  0
LINE
  5
20C
330
58
100
AcDbEntity
  8
1
  6
Continuous
 62
     7
100
AcDbLine
 10
252.7997815853761
 20
135.3753419286554
 30
0.0
 11
251.0677307778072
 21
135.3753419286554
 31
0.0
  0
LINE
  5
20D
330
58
100
AcDbEntity
  8
1
  6
Continuous
 62
     2
100
AcDbLine
 10
252.7997815853761
 20
136.3753419286554
 30
0.0
 11
251.0677307778072
 21
135.3753419286554
 31
0.0
  0
LINE
  5
20E
330
58
100
AcDbEntity
  8
1
  6
Continuous
 62
     7
100
AcDbLine
 10
265.0677307778072
 20
139.8753419286554
 30
0.0
 11
265.0677307778072
 21
155.3753419286554
 31
0.0
  0
LINE
  5
20F
330
58
100
AcDbEntity
  8
1
  6
Continuous
 62
     7
100
AcDbLine
 10
264.0677307778072
 20
135.3753419286554
 30
0.0
 11
265.0677307778072
 21
136.3753419286554
 31
0.0
  0
LINE
  5
210
330
58
100
AcDbEntity
  8
1
  6
Continuous
 62
     7
100
AcDbLine
 10
252.7997815853761
 20
135.3753419286554
 30
0.0
 11
252.7997815853761
 21
136.3753419286554
 31
0.0
  0
LINE
  5
211
330
58
100
AcDbEntity
  8
1
  6
Continuous
 62
     7
100
AcDbLine
 10
264.0677307778072
 20
135.3753419286554
 30
0.0
 11
252.7997815853761
 21
135.3753419286554
 31
0.0
  0
LINE
  5
212
330
58
100
AcDbEntity
  8
1
  6
Continuous
 62
     2
100
AcDbLine
 10
265.0677307778072
 20
136.3753419286554
 30
0.0
 11
264.0677307778072
 21
136.3753419286554
 31
0.0
  0
LINE
  5
213
330
58
100
AcDbEntity
  8
1
  6
Continuous
 62
     7
100
AcDbLine
 10
252.7997815853761
 20
156.3753419286554
 30
0.0
 11
264.0677307778072
 21
156.3753419286554
 31
0.0
  0
LINE
  5
214
330
58
100
AcDbEntity
  8
1
  6
Continuous
 62
     7
100
AcDbLine
 10
252.7997815853761
 20
155.3753419286554
 30
0.0
 11
252.7997815853761
 21
156.3753419286554
 31
0.0
  0
LINE
  5
215
330
58
100
AcDbEntity
  8
1
  6
Continuous
 62
     7
100
AcDbLine
 10
265.0677307778072
 20
155.3753419286554
 30
0.0
 11
264.0677307778072
 21
156.3753419286554
 31
0.0
  0
LINE
  5
216
330
58
100
AcDbEntity
  8
1
  6
Continuous
 62
     2
100
AcDbLine
 10
252.7997815853761
 20
155.3753419286554
 30
0.0
 11
264.0677307778072
 21
155.3753419286554
 31
0.0
  0
LINE
  5
217
330
58
100
AcDbEntity
  8
1
  6
Continuous
 62
     2
100
AcDbLine
 10
251.0677307778072
 20
156.3753419286554
 30
0.0
 11
252.7997815853761
 21
155.3753419286554
 31
0.0
  0
LINE
  5
218
330
58
100
AcDbEntity
  8
1
  6
Continuous
 62
     7
100
AcDbLine
 10
251.0677307778072
 20
156.3753419286554
 30
0.0
 11
252.7997815853761
 21
156.3753419286554
 31
0.0
  0
LINE
  5
219
330
58
100
AcDbEntity
  8
1
  6
Continuous
 62
     7
100
AcDbLine
 10
251.0677307778072
 20
168.8753419286554
 30
0.0
 11
251.0677307778072
 21
135.3753419286554
 31
0.0
  0
LINE
  5
21A
330
58
100
AcDbEntity
  8
1
  6
Continuous
 62
     7
100
AcDbLine
 10
251.0677307778072
 20
168.8753419286554
 30
0.0
 11
249.0661894446738
 21
168.8753419286554
 31
0.0
  0
LINE
  5
21B
330
58
100
AcDbEntity
  8
1
  6
Continuous
 62
     7
100
AcDbLine
 10
248.5677307778072
 20
168.4145714765194
 30
0.0
 11
248.5677307778072
 21
158.3115055457441
 31
0.0
  0
LINE
  5
21C
330
58
100
AcDbEntity
  8
1
  6
Continuous
 62
     2
100
AcDbLine
 10
85.63583102122865
 20
390.2515055386112
 30
0.0
 11
85.63583102122865
 21
389.2515055386112
 31
0.0
  0
LINE
  5
21D
330
58
100
AcDbEntity
  8
1
  6
Continuous
 62
     2
100
AcDbLine
 10
85.63583102122865
 20
389.2515055386112
 30
0.0
 11
85.63583102122865
 21
377.9835563461801
 31
0.0
  0
LINE
  5
21E
330
58
100
AcDbEntity
  8
1
  6
Continuous
 62
     2
100
AcDbLine
 10
85.63583102122865
 20
377.9835563461801
 30
0.0
 11
86.63583102122865
 21
376.2515055386112
 31
0.0
  0
LINE
  5
21F
330
58
100
AcDbEntity
  8
1
  6
Continuous
 62
     7
100
AcDbLine
 10
86.63583102122865
 20
376.2515055386112
 30
0.0
 11
99.13583102122865
 21
376.2515055386112
 31
0.0
  0
LINE
  5
220
330
58
100
AcDbEntity
  8
1
  6
Continuous
 62
     7
100
AcDbLine
 10
99.13583102122865
 20
374.2137007844403
 30
0.0
 11
99.13583102122865
 21
376.2515055386112
 31
0.0
  0
LINE
  5
221
330
58
100
AcDbEntity
  8
1
  6
Continuous
 62
     7
100
AcDbLine
 10
53.13583102122865
 20
376.2515055386112
 30
0.0
 11
53.13583102122865
 21
374.2137007844403
 31
0.0
  0
LINE
  5
222
330
58
100
AcDbEntity
  8
1
  6
Continuous
 62
     7
100
AcDbLine
 10
53.13583102122865
 20
376.2515055386112
 30
0.0
 11
65.63583102122865
 21
376.2515055386112
 31
0.0
  0
LINE
  5
223
330
58
100
AcDbEntity
  8
1
  6
Continuous
 62
     2
100
AcDbLine
 10
65.63583102122865
 20
376.2515055386112
 30
0.0
 11
66.63583102122865
 21
377.9835563461801
 31
0.0
  0
LINE
  5
224
330
58
100
AcDbEntity
  8
1
  6
Continuous
 62
     2
100
AcDbLine
 10
66.63583102122865
 20
377.9835563461801
 30
0.0
 11
66.63583102122865
 21
389.2515055386112
 31
0.0
  0
LINE
  5
225
330
58
100
AcDbEntity
  8
1
  6
Continuous
 62
     2
100
AcDbLine
 10
66.63583102122865
 20
389.2515055386112
 30
0.0
 11
66.63583102122865
 21
390.2515055386112
 31
0.0
  0
LINE
  5
226
330
58
100
AcDbEntity
  8
1
  6
Continuous
 62
     7
100
AcDbLine
 10
65.63583102122865
 20
376.2515055386112
 30
0.0
 11
65.63583102122865
 21
377.9835563461801
 31
0.0
  0
LINE
  5
227
330
58
100
AcDbEntity
  8
1
  6
Continuous
 62
     7
100
AcDbLine
 10
66.63583102122865
 20
390.2515055386112
 30
0.0
 11
65.63583102122865
 21
389.2515055386112
 31
0.0
  0
LINE
  5
228
330
58
100
AcDbEntity
  8
1
  6
Continuous
 62
     7
100
AcDbLine
 10
66.63583102122865
 20
377.9835563461801
 30
0.0
 11
65.63583102122865
 21
377.9835563461801
 31
0.0
  0
LINE
  5
229
330
58
100
AcDbEntity
  8
1
  6
Continuous
 62
     7
100
AcDbLine
 10
65.63583102122865
 20
377.9835563461801
 30
0.0
 11
65.63583102122865
 21
389.2515055386112
 31
0.0
  0
LINE
  5
22A
330
58
100
AcDbEntity
  8
1
  6
Continuous
 62
     7
100
AcDbLine
 10
65.63583102122865
 20
389.2515055386112
 30
0.0
 11
66.63583102122865
 21
389.2515055386112
 31
0.0
  0
LINE
  5
22B
330
58
100
AcDbEntity
  8
1
  6
Continuous
 62
     7
100
AcDbLine
 10
85.63583102122865
 20
389.2515055386112
 30
0.0
 11
86.63583102122865
 21
389.2515055386112
 31
0.0
  0
LINE
  5
22C
330
58
100
AcDbEntity
  8
1
  6
Continuous
 62
     7
100
AcDbLine
 10
86.63583102122865
 20
389.2515055386112
 30
0.0
 11
86.63583102122865
 21
377.9835563461801
 31
0.0
  0
LINE
  5
22D
330
58
100
AcDbEntity
  8
1
  6
Continuous
 62
     7
100
AcDbLine
 10
86.63583102122865
 20
377.9835563461801
 30
0.0
 11
85.63583102122865
 21
377.9835563461801
 31
0.0
  0
LINE
  5
22E
330
58
100
AcDbEntity
  8
1
  6
Continuous
 62
     7
100
AcDbLine
 10
86.63583102122865
 20
389.2515055386112
 30
0.0
 11
85.63583102122865
 21
390.2515055386112
 31
0.0
  0
LINE
  5
22F
330
58
100
AcDbEntity
  8
1
  6
Continuous
 62
     7
100
AcDbLine
 10
85.63583102122865
 20
390.2515055386112
 30
0.0
 11
66.63583102122865
 21
390.2515055386112
 31
0.0
  0
LINE
  5
230
330
58
100
AcDbEntity
  8
1
  6
Continuous
 62
     7
100
AcDbLine
 10
86.63583102122865
 20
377.9835563461801
 30
0.0
 11
86.63583102122865
 21
376.2515055386112
 31
0.0
  0
LINE
  5
231
330
58
100
AcDbEntity
  8
1
  6
Continuous
 62
     7
100
AcDbLine
 10
65.63583102122865
 20
376.2515055386112
 30
0.0
 11
86.63583102122865
 21
376.2515055386112
 31
0.0
  0
LINE
  5
232
330
58
100
AcDbEntity
  8
1
  6
Continuous
 62
     7
100
AcDbLine
 10
66.63583102122865
 20
377.9835563461801
 30
0.0
 11
85.63583102122865
 21
377.9835563461801
 31
0.0
  0
LINE
  5
233
330
58
100
AcDbEntity
  8
1
  6
Continuous
 62
     7
100
AcDbLine
 10
66.63583102122865
 20
389.2515055386112
 30
0.0
 11
85.63583102122865
 21
389.2515055386112
 31
0.0
  0
LINE
  5
234
330
58
100
AcDbEntity
  8
1
  6
Continuous
 62
     7
100
AcDbLine
 10
67.38583102122865
 20
369.7152421175738
 30
0.0
 11
67.38583102122865
 21
355.2710288477862
 31
0.0
  0
LINE
  5
235
330
58
100
AcDbEntity
  8
1
  6
Continuous
 62
     7
100
AcDbLine
 10
98.67506056909255
 20
373.7152421175738
 30
0.0
 11
53.59660147336476
 21
373.7152421175738
 31
0.0
  0
LINE
  5
236
330
58
100
AcDbEntity
  8
1
  6
Continuous
 62
     7
100
AcDbLine
 10
84.88583102122865
 20
369.7152421175738
 30
0.0
 11
84.88583102122865
 21
355.2710288477862
 31
0.0
  0
LINE
  5
237
330
58
100
AcDbEntity
  8
1
  6
Continuous
 62
     7
100
AcDbLine
 10
69.79019934255254
 20
306.7515055386112
 30
0.0
 11
63.13583102122865
 21
306.7515055386112
 31
0.0
  0
LINE
  5
238
330
58
100
AcDbEntity
  8
1
  6
Continuous
 62
     2
100
AcDbLine
 10
64.13583102122865
 20
168.1454202445129
 30
0.0
 11
65.13583102122865
 21
169.8774710520818
 31
0.0
  0
LINE
  5
239
330
58
100
AcDbEntity
  8
1
  6
Continuous
 62
     2
100
AcDbLine
 10
87.13583102122865
 20
169.8774710520818
 30
0.0
 11
88.13583102122865
 21
168.1454202445129
 31
0.0
  0
LINE
  5
23A
330
58
100
AcDbEntity
  8
1
  6
Continuous
 62
     7
100
AcDbLine
 10
88.13583102122865
 20
171.3050332168405
 30
0.0
 11
88.13583102122865
 21
162.5779006655486
 31
0.0
  0
ARC
  5
23B
330
58
100
AcDbEntity
  8
1
  6
Continuous
 62
     7
100
AcDbCircle
 10
49.13583102122865
 20
331.2515055386112
 30
0.0
 40
40.00000000000004
100
AcDbArc
 50
-17.1477291568699
 51
-11.21543997264995
  0
ARC
  5
23C
330
58
100
AcDbEntity
  8
1
  6
Continuous
 62
     7
100
AcDbCircle
 10
103.1358310212287
 20
331.2515055386112
 30
0.0
 40
39.99999999999992
100
AcDbArc
 50
-168.7845600273501
 51
-162.8522708431301
  0
ARC
  5
23D
330
58
100
AcDbEntity
  8
1
  6
Continuous
 62
     7
100
AcDbCircle
 10
50.47052489877976
 20
315.0015055386112
 30
0.0
 40
15.11530612244887
100
AcDbArc
 50
-26.91245180819198
 51
17.14772915687034
  0
ARC
  5
23E
330
58
100
AcDbEntity
  8
1
  6
Continuous
 62
     7
100
AcDbCircle
 10
50.47052489877976
 20
315.0015055386112
 30
0.0
 40
15.11530612244891
100
AcDbArc
 50
-33.07964800245804
 51
-26.91245180819198
  0
ARC
  5
23F
330
58
100
AcDbEntity
  8
1
  6
Continuous
 62
     7
100
AcDbCircle
 10
101.8011371436776
 20
315.0015055386112
 30
0.0
 40
15.11530612244891
100
AcDbArc
 50
-153.0875481918081
 51
-146.920351997542
  0
ARC
  5
240
330
58
100
AcDbEntity
  8
1
  6
Continuous
 62
     7
100
AcDbCircle
 10
101.8011371436776
 20
315.0015055386112
 30
0.0
 40
15.11530612244891
100
AcDbArc
 50
162.8522708431296
 51
-153.0875481918081
  0
ARC
  5
241
330
58
100
AcDbEntity
  8
1
  6
Continuous
 62
     7
100
AcDbCircle
 10
189.8177307778072
 20
171.5406480511044
 30
0.0
 40
15.11530612244889
100
AcDbArc
 50
-116.9124518081921
 51
-94.25210119307778
  0
ARC
  5
242
330
58
100
AcDbEntity
  8
1
  6
Continuous
 62
     7
100
AcDbCircle
 10
189.0677307778072
 20
161.453184645924
 30
0.0
 40
4.999999999999965
100
AcDbArc
 50
-94.25210119307764
 51
0.0
  0
ARC
  5
243
330
58
100
AcDbEntity
  8
1
  6
Continuous
 62
     7
100
AcDbCircle
 10
189.8177307778072
 20
171.5406480511044
 30
0.0
 40
15.115306122449
100
AcDbArc
 50
-123.0796480024578
 51
-116.9124518081921
  0
ARC
  5
244
330
58
100
AcDbEntity
  8
1
  6
Continuous
 62
     7
100
AcDbCircle
 10
189.8177307778072
 20
120.2100358062065
 30
0.0
 40
15.11530612244896
100
AcDbArc
 50
72.85227084312976
 51
116.9124518081921
  0
ARC
  5
245
330
58
100
AcDbEntity
  8
1
  6
Continuous
 62
     7
100
AcDbCircle
 10
189.8177307778072
 20
120.2100358062065
 30
0.0
 40
15.1153061224489
100
AcDbArc
 50
116.9124518081921
 51
123.0796480024581
  0
ARC
  5
246
330
58
100
AcDbEntity
  8
1
  6
Continuous
 62
     7
100
AcDbCircle
 10
206.0677307778072
 20
172.8753419286554
 30
0.0
 40
39.99999999999993
100
AcDbArc
 50
-107.14772915687
 51
-69.9319453791807
  0
ARC
  5
247
330
58
100
AcDbEntity
  8
1
  6
Continuous
 62
     7
100
AcDbCircle
 10
63.38583102122865
 20
369.7152421175738
 30
0.0
 40
4.000000000000007
100
AcDbArc
 50
0.0
 51
90.0
  0
ARC
  5
248
330
58
100
AcDbEntity
  8
1
  6
Continuous
 62
     7
100
AcDbCircle
 10
88.88583102122865
 20
369.7152421175738
 30
0.0
 40
4.0
100
AcDbArc
 50
90.0
 51
180.0
  0
ARC
  5
249
330
58
100
AcDbEntity
  8
0
  6
Continuous
 62
     7
100
AcDbCircle
 10
135.1317424144564
 20
159.7941408760663
 30
0.0
 40
47.07828593147431
100
AcDbArc
 50
176.6100979388006
 51
-173.1263573403659
  0
ARC
  5
24A
330
58
100
AcDbEntity
  8
0
  6
Continuous
 62
     7
100
AcDbCircle
 10
42.63991962800054
 20
145.8753419286554
 30
0.0
 40
46.49591139322808
100
AcDbArc
 50
7.66703232726326
 51
10.26354472083356
  0
ARC
  5
24B
330
58
100
AcDbEntity
  8
0
  6
Continuous
 62
     7
100
AcDbCircle
 10
109.6317424144568
 20
145.8753419286554
 30
0.0
 40
46.49591139322815
100
AcDbArc
 50
169.7364552791665
 51
172.3329676727367
  0
ARC
  5
24C
330
58
100
AcDbEntity
  8
0
  6
Continuous
 62
     7
100
AcDbCircle
 10
17.13991962800074
 20
159.7941408760663
 30
0.0
 40
47.07828593147446
100
AcDbArc
 50
-6.87364265963405
 51
3.38990206119939
  0
ARC
  5
24D
330
58
100
AcDbEntity
  8
1
  6
Continuous
 62
     7
100
AcDbCircle
 10
76.13583102122865
 20
145.8753419286554
 30
0.0
 40
22.99999999999995
100
AcDbArc
 50
-70.72484878492863
 51
0.0
  0
ARC
  5
24E
330
58
100
AcDbEntity
  8
1
  6
Continuous
 62
     7
100
AcDbCircle
 10
76.13583102122865
 20
145.8753419286554
 30
0.0
 40
23.00000000000012
100
AcDbArc
 50
121.4489813893794
 51
-109.2751512150714
  0
ARC
  5
24F
330
58
100
AcDbEntity
  8
1
  6
Continuous
 62
     7
100
AcDbCircle
 10
76.13583102122865
 20
145.8753419286554
 30
0.0
 40
23.0
100
AcDbArc
 50
0.0
 51
58.55101861062062
  0
ARC
  5
250
330
58
100
AcDbEntity
  8
1
  6
Continuous
 62
     7
100
AcDbCircle
 10
249.0661894446738
 20
123.3753419286554
 30
0.0
 40
0.5000000000000167
100
AcDbArc
 50
-175.5000000000031
 51
-90.0
  0
ARC
  5
251
330
58
100
AcDbEntity
  8
1
  6
Continuous
 62
     7
100
AcDbCircle
 10
244.5800614428748
 20
133.1253419286554
 30
0.0
 40
3.999999999999896
100
AcDbArc
 50
4.50000000000047
 51
90.0
  0
ARC
  5
252
330
58
100
AcDbEntity
  8
1
  6
Continuous
 62
     7
100
AcDbCircle
 10
244.5800614428748
 20
158.6253419286554
 30
0.0
 40
4.0
100
AcDbArc
 50
-90.0
 51
-4.49999999999884
  0
ARC
  5
253
330
58
100
AcDbEntity
  8
1
  6
Continuous
 62
     7
100
AcDbCircle
 10
249.0661894446738
 20
168.3753419286554
 30
0.0
 40
0.5
100
AcDbArc
 50
90.0
 51
175.4999999999901
  0
ARC
  5
254
330
58
100
AcDbEntity
  8
1
  6
Continuous
 62
     7
100
AcDbCircle
 10
98.63583102122865
 20
374.2137007844403
 30
0.0
 40
0.4999999999999316
100
AcDbArc
 50
-85.5000000000023
 51
0.0
  0
ARC
  5
255
330
58
100
AcDbEntity
  8
1
  6
Continuous
 62
     7
100
AcDbCircle
 10
53.63583102122865
 20
374.2137007844403
 30
0.0
 40
0.5
100
AcDbArc
 50
180.0
 51
-94.4999999999969
  0
ARC
  5
256
330
58
100
AcDbEntity
  8
1
  6
Continuous
 62
     7
100
AcDbCircle
 10
37.38583102122865
 20
355.2710288477863
 30
0.0
 40
30.00000000000002
100
AcDbArc
 50
-16.33962819070468
 51
-0.00000000000011
  0
ARC
  5
257
330
58
100
AcDbEntity
  8
1
  6
Continuous
 62
     7
100
AcDbCircle
 10
230.0872540869822
 20
107.1253419286554
 30
0.0
 40
29.99999999999999
100
AcDbArc
 50
90.0
 51
110.068054620819
  0
ARC
  5
258
330
58
100
AcDbEntity
  8
1
  6
Continuous
 62
     7
100
AcDbCircle
 10
230.0872540869822
 20
184.6253419286554
 30
0.0
 40
29.9999999999999
100
AcDbArc
 50
-107.5127047003517
 51
-90.0
  0
ARC
  5
259
330
58
100
AcDbEntity
  8
1
  6
Continuous
 62
     7
100
AcDbCircle
 10
224.0677307778072
 20
161.2073629056889
 30
0.0
 40
6.0
100
AcDbArc
 50
180.0
 51
-120.0881938159426
  0
ARC
  5
25A
330
58
100
AcDbEntity
  8
1
  6
Continuous
 62
     7
100
AcDbCircle
 10
114.8858310212287
 20
355.2710288477862
 30
0.0
 40
30.00000000000004
100
AcDbArc
 50
180.0
 51
-163.6603718092955
  0
ENDBLK
  5
5A
330
58
100
AcDbEntity
  8
0
100
AcDbBlockEnd
  0
BLOCK
  5
5C
330
5B
100
AcDbEntity
  8
0
100
AcDbBlockBegin
  2
62-1A
 70
     0
 71
     0
 10
-146.7483480989493
 20
52.90590852880975
 30
0.0
  3
62-1A
  1

  0
LINE
  5
25B
330
5B
100
AcDbEntity
  8
0
  6
Continuous
 62
     7
100
AcDbLine
 10
125.7709905689213
 20
113.7455651315903
 30
0.0
 11
140.0906536041003
 21
107.0681965960872
 31
0.0
  0
LINE
  5
25C
330
5B
100
AcDbEntity
  8
1
  6
Continuous
 62
     7
100
AcDbLine
 10
140.0906536041003
 20
107.0681965960872
 30
0.0
 11
148.5527428347221
 21
125.2152055131249
 31
0.0
  0
LINE
  5
25D
330
5B
100
AcDbEntity
  8
1
  6
Continuous
 62
     7
100
AcDbLine
 10
130.8177307778073
 20
105.8753419286554
 30
0.0
 11
137.6987964833555
 21
102.6666482938906
 31
0.0
  0
LINE
  5
25E
330
5B
100
AcDbEntity
  8
1
  6
Continuous
 62
     7
100
AcDbLine
 10
168.582144928232
 20
137.9753419286554
 30
0.0
 11
171.0677307778072
 21
137.9753419286554
 31
0.0
  0
LINE
  5
25F
330
5B
100
AcDbEntity
  8
1
  6
Continuous
 62
     7
100
AcDbLine
 10
171.0677307778072
 20
153.7753419286555
 30
0.0
 11
168.582144928232
 21
153.7753419286555
 31
0.0
  0
LINE
  5
260
330
5B
100
AcDbEntity
  8
1
  6
Continuous
 62
     7
100
AcDbLine
 10
125.7709905689213
 20
113.7455651315903
 30
0.0
 11
134.233079799543
 21
131.892574048628
 31
0.0
  0
LINE
  5
261
330
5B
100
AcDbEntity
  8
1
  6
Continuous
 62
     7
100
AcDbLine
 10
123.9366650722591
 20
109.0840355634203
 30
0.0
 11
130.8177307778073
 21
105.8753419286554
 31
0.0
  0
LINE
  5
262
330
5B
100
AcDbEntity
  8
1
  6
Continuous
 62
     7
100
AcDbLine
 10
68.54341506279664
 20
259.0471401661437
 30
0.0
 11
68.54341506279664
 21
296.2515055386111
 31
0.0
  0
LINE
  5
263
330
5B
100
AcDbEntity
  8
1
  6
Continuous
 62
     7
100
AcDbLine
 10
83.72824697966067
 20
259.0471401661437
 30
0.0
 11
83.72824697966067
 21
296.2515055386111
 31
0.0
  0
LINE
  5
264
330
5B
100
AcDbEntity
  8
1
  6
Continuous
 62
     7
100
AcDbLine
 10
68.54341506279664
 20
110.9900253903437
 30
0.0
 11
68.54341506279664
 21
145.8753419286554
 31
0.0
  0
LINE
  5
265
330
5B
100
AcDbEntity
  8
1
  6
Continuous
 62
     7
100
AcDbLine
 10
83.72824697966067
 20
110.9900253903437
 30
0.0
 11
83.72824697966067
 21
145.8753419286554
 31
0.0
  0
ARC
  5
266
330
5B
100
AcDbEntity
  8
1
  6
Continuous
 62
     7
100
AcDbCircle
 10
168.582144928232
 20
115.8753419286554
 30
0.0
 40
37.90000000000011
100
AcDbArc
 50
90.0
 51
154.9999999999999
  0
ARC
  5
267
330
5B
100
AcDbEntity
  8
1
  6
Continuous
 62
     7
100
AcDbCircle
 10
168.582144928232
 20
115.8753419286554
 30
0.0
 40
22.10000000000001
100
AcDbArc
 50
90.0
 51
154.9999999999999
  0
ARC
  5
268
330
5B
100
AcDbEntity
  8
1
  6
Continuous
 62
     7
100
AcDbCircle
 10
132.7462016308675
 20
108.5270530860434
 30
0.0
 40
8.827126591227902
100
AcDbArc
 50
154.9999999999995
 51
176.3822927462786
  0
ARC
  5
269
330
5B
100
AcDbEntity
  8
1
  6
Continuous
 62
     7
100
AcDbCircle
 10
133.2270964071215
 20
108.0269636893688
 30
0.0
 40
6.930198535060841
100
AcDbArc
 50
-22.93266335275042
 51
-7.95216310221227
  0
ARC
  5
26A
330
5B
100
AcDbEntity
  8
1
  6
Continuous
 62
     7
100
AcDbCircle
 10
131.6094622046922
 20
109.0571233857957
 30
0.0
 40
8.827126591227943
100
AcDbArc
 50
-46.38229274627874
 51
-25.00000000000022
  0
ARC
  5
26B
330
5B
100
AcDbEntity
  8
1
  6
Continuous
 62
     7
100
AcDbCircle
 10
130.9172582975678
 20
109.104058888952
 30
0.0
 40
6.930198535060784
100
AcDbArc
 50
137.9521631022119
 51
152.9326633527502
  0
ARC
  5
26C
330
5B
100
AcDbEntity
  8
1
  6
Continuous
 62
     7
100
AcDbCircle
 10
76.13583102122865
 20
145.8753419286554
 30
0.0
 40
7.592415958432014
100
AcDbArc
 50
0.0
 51
180.0
  0
ARC
  5
26D
330
5B
100
AcDbEntity
  8
1
  6
Continuous
 62
     7
100
AcDbCircle
 10
75.68255722348735
 20
257.0249701714445
 30
0.0
 40
7.746784951759251
100
AcDbArc
 50
157.1555055611233
 51
-114.5097826324232
  0
ARC
  5
26E
330
5B
100
AcDbEntity
  8
1
  6
Continuous
 62
     7
100
AcDbCircle
 10
76.58910481896984
 20
257.0249701714445
 30
0.0
 40
7.746784951759172
100
AcDbArc
 50
-65.49021736757659
 51
22.84449443887635
  0
ARC
  5
26F
330
5B
100
AcDbEntity
  8
1
  6
Continuous
 62
     7
100
AcDbCircle
 10
75.01043359054935
 20
108.4326836594996
 30
0.0
 40
7.074602569320723
100
AcDbArc
 50
156.0807198663521
 51
-151.6276735836262
  0
ARC
  5
270
330
5B
100
AcDbEntity
  8
1
  6
Continuous
 62
     7
100
AcDbCircle
 10
77.26122845190795
 20
108.4326836594996
 30
0.0
 40
7.074602569320692
100
AcDbArc
 50
-28.37232641637378
 51
23.91928013364714
  0
SPLINE
  5
271
330
5B
100
AcDbEntity
  8
1
  6
Continuous
 62
     7
100
AcDbSpline
210
0.0
220
0.0
230
1.0
 70
     8
 71
     3
 72
    33
 73
    29
 74
    27
 42
0.0000000001
 43
0.0000000001
 44
0.00000001
 40
0.0
 40
0.0
 40
0.0
 40
0.0
 40
0.2870784948991494
 40
0.5699261168753891
 40
0.8888087493958445
 40
1.212179214707549
 40
1.591137267537727
 40
1.968155545421714
 40
2.411410443022643
 40
2.85556524894833
 40
3.927988818560232
 40
5.002236410172293
 40
6.257314809218123
 40
7.511290364001022
 40
8.171063153734906
 40
8.830825261486952
 40
10.13328148371819
 40
11.43667448472447
 40
12.6140195114294
 40
13.78983873361417
 40
14.29814945788499
 40
14.80630125271845
 40
15.4877732504179
 40
16.17206481563292
 40
16.49538737868972
 40
16.81337675368975
 40
17.22934562109179
 40
17.65606986712112
 40
17.65606986712112
 40
17.65606986712112
 40
17.65606986712112
 10
68.54341506279664
 20
110.9900253903437
 30
0.0
 10
68.55566832578114
 20
111.0849135804055
 30
0.0
 10
68.57999426699891
 20
111.2732915281102
 30
0.0
 10
68.65125979258893
 20
111.5627548735407
 30
0.0
 10
68.79773222252166
 20
111.8375278695272
 30
0.0
 10
69.00840314912966
 20
112.1059229457973
 30
0.0
 10
69.26266048527182
 20
112.3616860752193
 30
0.0
 10
69.5745349318107
 20
112.6127767927317
 30
0.0
 10
69.92741909246935
 20
112.8444187815383
 30
0.0
 10
70.50172019838756
 20
113.1567819580924
 30
0.0
 10
71.30251122928135
 20
113.4877938755702
 30
0.0
 10
72.39436762951819
 20
113.7992042644424
 30
0.0
 10
73.56833950409238
 20
114.0273163442507
 30
0.0
 10
74.6193437330391
 20
114.143142201838
 30
0.0
 10
75.4760283375652
 20
114.1905730686469
 30
0.0
 10
76.3500428140274
 20
114.2066464797007
 30
0.0
 10
77.43895277629424
 20
114.1679641312492
 30
0.0
 10
78.69341653024627
 20
114.0272763955485
 30
0.0
 10
79.89188667628167
 20
113.7985084936309
 30
0.0
 10
80.80973087577335
 20
113.5317561163407
 30
0.0
 10
81.4923667772906
 20
113.2699655163618
 30
0.0
 10
82.00735159387061
 20
113.0342402135059
 30
0.0
 10
82.55132813225576
 20
112.7242829870937
 30
0.0
 10
82.9979954136206
 20
112.3770410212081
 30
0.0
 10
83.30887384178631
 20
112.0622236806927
 30
0.0
 10
83.51676554158556
 20
111.7740285126771
 30
0.0
 10
83.64824718050571
 20
111.4053624153521
 30
0.0
 10
83.70135444213355
 20
111.1296440725083
 30
0.0
 10
83.72824697966067
 20
110.9900253903437
 30
0.0
 11
68.54341506279664
 21
110.9900253903437
 31
0.0
 11
68.58559728988269
 21
111.2739879265199
 31
0.0
 11
68.65876092127115
 21
111.5472091927121
 31
0.0
 11
68.80461563771522
 21
111.8307802332191
 31
0.0
 11
69.00129377115295
 21
112.0874632471942
 31
0.0
 11
69.26777082661037
 21
112.3569056060014
 31
0.0
 11
69.56060592512816
 21
112.5943722077261
 31
0.0
 11
69.93025643856984
 21
112.8389808791985
 31
0.0
 11
70.31970296642396
 21
113.0525339020506
 31
0.0
 11
71.30831325717833
 21
113.4681563336802
 31
0.0
 11
72.33962304201265
 21
113.7688355910115
 31
0.0
 11
73.57124150458765
 21
114.0103676807964
 31
0.0
 11
74.81742182595755
 21
114.1499717589011
 31
0.0
 11
75.47618178527979
 21
114.186515569143
 31
0.0
 11
76.13583102122865
 21
114.1987190251086
 31
0.0
 11
77.43743021447861
 21
114.1514776136148
 31
0.0
 11
78.73259021551965
 21
114.005211121295
 31
0.0
 11
79.88826336857497
 21
113.7803536659727
 31
0.0
 11
81.01614192689505
 21
113.4480273189266
 31
0.0
 11
81.49036218729299
 21
113.2650110982334
 31
0.0
 11
81.95195907603335
 21
113.0525339020506
 31
0.0
 11
82.54172130462938
 21
112.7110890348027
 31
0.0
 11
83.07954467135275
 21
112.2880039695608
 31
0.0
 11
83.30394832708446
 21
112.0552369635744
 31
0.0
 11
83.48601698698997
 21
111.7945297605801
 31
0.0
 11
83.63670919891673
 21
111.4068160054561
 31
0.0
 11
83.72824697966067
 21
110.9900253903437
 31
0.0
  0
SPLINE
  5
272
330
5B
100
AcDbEntity
  8
1
  6
Continuous
 62
     7
100
AcDbSpline
210
0.0
220
0.0
230
1.0
 70
     8
 71
     3
 72
    43
 73
    39
 74
    37
 42
0.0000000001
 43
0.0000000001
 44
0.00000001
 40
0.0
 40
0.0
 40
0.0
 40
0.0
 40
0.6015183898940997
 40
1.200991408181823
 40
1.8050610507794
 40
2.410777400894701
 40
3.023012726207585
 40
3.634542897815955
 40
4.255841361967292
 40
4.877420656862677
 40
5.509535113620792
 40
6.141577296127759
 40
6.78411105273243
 40
7.426685468501091
 40
8.078310600156053
 40
8.729937222927026
 40
9.388212360808916
 40
10.04649582188148
 40
10.70828760339153
 40
11.37008054321587
 40
12.03187348304015
 40
12.69366526455015
 40
13.35194872562269
 40
14.0102238635046
 40
14.6618504862756
 40
15.31347561793064
 40
15.95605003369925
 40
16.59858379030388
 40
17.2306259728109
 40
17.86274042956904
 40
18.4843197244644
 40
19.10561818861581
 40
19.71714836022416
 40
20.32938368553703
 40
20.93510003565236
 40
21.53916967824987
 40
22.13864269653771
 40
22.74016108643171
 40
22.74016108643171
 40
22.74016108643171
 40
22.74016108643171
 10
68.54341506279664
 20
258.0471401661437
 30
0.0
 10
68.55460384476406
 20
257.8469506080779
 30
0.0
 10
68.57694336295111
 20
257.4472522060273
 30
0.0
 10
68.64693163957907
 20
256.8486606465756
 30
0.0
 10
68.78983986313928
 20
256.2612238149554
 30
0.0
 10
68.99387403170783
 20
255.6883098010441
 30
0.0
 10
69.24823893181599
 20
255.1331976478694
 30
0.0
 10
69.55425900901702
 20
254.5987106630554
 30
0.0
 10
69.91053358269728
 20
254.0924922520254
 30
0.0
 10
70.31533352765541
 20
253.6152345358159
 30
0.0
 10
70.76310700840011
 20
253.1729365896568
 30
0.0
 10
71.25280160679085
 20
252.7665783107177
 30
0.0
 10
71.77829363096501
 20
252.4015657036639
 30
0.0
 10
72.33815747832145
 20
252.0786451223005
 30
0.0
 10
72.92554542685033
 20
251.8018310584347
 30
0.0
 10
73.53841567315132
 20
251.5719805996224
 30
0.0
 10
74.16996286317442
 20
251.3917071996298
 30
0.0
 10
74.8171975424566
 20
251.2617895685488
 30
0.0
 10
75.47386673889356
 20
251.183522139869
 30
0.0
 10
76.13583102122865
 20
251.1573506133244
 30
0.0
 10
76.7977953035637
 20
251.183522139869
 30
0.0
 10
77.45446450000061
 20
251.2617895685488
 30
0.0
 10
78.10169917928278
 20
251.3917071996297
 30
0.0
 10
78.73324636930589
 20
251.5719805996225
 30
0.0
 10
79.34611661560693
 20
251.8018310584345
 30
0.0
 10
79.9335045641358
 20
252.0786451223005
 30
0.0
 10
80.49336841149223
 20
252.4015657036638
 30
0.0
 10
81.01886043566637
 20
252.7665783107179
 30
0.0
 10
81.50855503405708
 20
253.1729365896567
 30
0.0
 10
81.95632851480187
 20
253.6152345358161
 30
0.0
 10
82.3611284597601
 20
254.0924922520253
 30
0.0
 10
82.71740303344035
 20
254.5987106630556
 30
0.0
 10
83.02342311064143
 20
255.1331976478692
 30
0.0
 10
83.27778801074946
 20
255.6883098010442
 30
0.0
 10
83.48182217931792
 20
256.2612238149553
 30
0.0
 10
83.62473040287816
 20
256.8486606465756
 30
0.0
 10
83.69471867950608
 20
257.4472522060274
 30
0.0
 10
83.71705819769321
 20
257.8469506080779
 30
0.0
 10
83.72824697966067
 20
258.0471401661437
 30
0.0
 11
68.54341506279664
 21
258.0471401661437
 31
0.0
 11
68.58305879397963
 21
257.4469295798003
 31
0.0
 11
68.65876092127115
 21
256.8522556459689
 31
0.0
 11
68.79966191708643
 21
256.2648485958868
 31
0.0
 11
69.00129377115286
 21
255.6936770872987
 31
0.0
 11
69.25655245741342
 21
255.1371924993275
 31
0.0
 11
69.56060592512824
 21
254.6066073133696
 31
0.0
 11
69.91786243859686
 21
254.0982968126507
 31
0.0
 11
70.31970296642396
 21
253.6240763891784
 31
0.0
 11
70.76924867497594
 21
253.1796921608747
 31
0.0
 11
71.25552011556215
 21
252.7759380196719
 31
0.0
 11
71.78309356170513
 21
252.4091739438666
 31
0.0
 11
72.33962304201265
 21
252.0879624600291
 31
0.0
 11
72.92899036801231
 21
251.8100029895152
 31
0.0
 11
73.53907182693754
 21
251.5810534994971
 31
0.0
 11
74.17202744178405
 21
251.4002404834067
 31
0.0
 11
74.81742182595755
 21
251.2706133103334
 31
0.0
 11
75.47455506378205
 21
251.1922279174305
 31
0.0
 11
76.13583102122865
 21
251.1660744605956
 31
0.0
 11
76.7971069786752
 21
251.1922279174305
 31
0.0
 11
77.45424021649964
 21
251.2706133103334
 31
0.0
 11
78.09963460067313
 21
251.4002404834067
 31
0.0
 11
78.73259021551965
 21
251.5810534994971
 31
0.0
 11
79.34267167444494
 21
251.8100029895152
 31
0.0
 11
79.93203900044466
 21
252.0879624600291
 31
0.0
 11
80.48856848075212
 21
252.4091739438666
 31
0.0
 11
81.01614192689505
 21
252.7759380196719
 31
0.0
 11
81.5024133674813
 21
253.1796921608747
 31
0.0
 11
81.95195907603335
 21
253.6240763891784
 31
0.0
 11
82.35379960386048
 21
254.0982968126507
 31
0.0
 11
82.71105611732915
 21
254.6066073133696
 31
0.0
 11
83.01510958504397
 21
255.1371924993275
 31
0.0
 11
83.27036827130445
 21
255.6936770872987
 31
0.0
 11
83.47200012537081
 21
256.2648485958868
 31
0.0
 11
83.61290112118604
 21
256.8522556459689
 31
0.0
 11
83.68860324847759
 21
257.4469295798004
 31
0.0
 11
83.72824697966067
 21
258.0471401661437
 31
0.0
  0
SPLINE
  5
273
330
5B
100
AcDbEntity
  8
1
  6
Continuous
 62
     7
100
AcDbSpline
210
0.0
220
0.0
230
1.0
 70
     8
 71
     3
 72
    19
 73
    15
 74
    13
 42
0.0000000001
 43
0.0000000001
 44
0.00000001
 40
0.0
 40
0.0
 40
0.0
 40
0.0
 40
0.579442920371584
 40
1.15778054334682
 40
1.815537313295167
 40
2.474543508436225
 40
3.136675593494019
 40
3.798090704214005
 40
4.459505814934046
 40
5.121637899991903
 40
5.780644095132962
 40
6.438400865081309
 40
7.016738488056521
 40
7.596181408428103
 40
7.596181408428103
 40
7.596181408428103
 40
7.596181408428103
 10
79.80284773100937
 20
249.9762445005081
 30
0.0
 10
79.62654078794768
 20
249.8973690753588
 30
0.0
 10
79.27426321036872
 20
249.7397686812985
 30
0.0
 10
78.71081337613832
 20
249.5174879438349
 30
0.0
 10
78.10256526937594
 20
249.3429476958906
 30
0.0
 10
77.45446130831928
 20
249.2168081620693
 30
0.0
 10
76.79765146275501
 20
249.1385106964019
 30
0.0
 10
76.13583102122865
 20
249.1114092959471
 30
0.0
 10
75.47401057970222
 20
249.1385106964019
 30
0.0
 10
74.81720073413794
 20
249.2168081620692
 30
0.0
 10
74.16909677308128
 20
249.3429476958906
 30
0.0
 10
73.56084866631885
 20
249.5174879438349
 30
0.0
 10
72.99739883208848
 20
249.7397686812985
 30
0.0
 10
72.64512125450953
 20
249.8973690753588
 30
0.0
 10
72.46881431144786
 20
249.9762445005081
 30
0.0
 11
79.80284773100937
 21
249.9762445005081
 31
0.0
 11
79.27216398322557
 21
249.743588407085
 31
0.0
 11
78.73259021551965
 21
249.5354188719645
 31
0.0
 11
78.10081424453708
 21
249.3523803762815
 31
0.0
 11
77.45424021649964
 21
249.2249786828008
 31
0.0
 11
76.79671095593008
 21
249.1470417239313
 31
0.0
 11
76.13583102122865
 21
249.120439833063
 31
0.0
 11
75.47495108652717
 21
249.1470417239312
 31
0.0
 11
74.81742182595755
 21
249.2249786828008
 31
0.0
 11
74.17084779792012
 21
249.3523803762815
 31
0.0
 11
73.53907182693754
 21
249.5354188719645
 31
0.0
 11
72.99949805923164
 21
249.743588407085
 31
0.0
 11
72.46881431144786
 21
249.9762445005081
 31
0.0
  0
SPLINE
  5
274
330
5B
100
AcDbEntity
  8
1
  6
Continuous
 62
     7
100
AcDbSpline
210
0.0
220
0.0
230
1.0
 70
    11
 71
     3
 72
    79
 73
    75
 74
    73
 42
0.0000000001
 43
0.0000000001
 44
0.00000001
 40
0.0
 40
0.0
 40
0.0
 40
0.0
 40
0.285572613179905
 40
0.5717260118123599
 40
0.892374990705881
 40
1.213437201458421
 40
1.591463199664201
 40
1.969508219404009
 40
2.413184302830477
 40
2.856910862097372
 40
3.365133720165074
 40
3.873369851311594
 40
4.438831338801155
 40
5.004307078501479
 40
5.615706133901568
 40
6.227112310987464
 40
6.870493294607702
 40
7.513878599484336
 40
8.173647025697212
 40
8.833416720880987
 40
9.493186416064717
 40
10.15295484227752
 40
10.79634014715421
 40
11.43972113077451
 40
12.05112730786039
 40
12.66252636326049
 40
13.22800210296081
 40
13.79346359045038
 40
14.30169972159687
 40
14.8099225796646
 40
15.25364913893148
 40
15.69732522235796
 40
16.07537024209778
 40
16.45339624030355
 40
16.77445845105606
 40
17.09510742994954
 40
17.38126082858202
 40
17.66683344176193
 40
17.95240605494185
 40
18.23855945357432
 40
18.55920843246776
 40
18.88027064322024
 40
19.25829664142603
 40
19.63634166116582
 40
20.08001774459232
 40
20.52374430385924
 40
21.03196716192694
 40
21.54020329307346
 40
22.105664780563
 40
22.67114052026331
 40
23.28253957566343
 40
23.89394575274932
 40
24.53732673636962
 40
25.18071204124631
 40
25.84048046745912
 40
26.50025016264284
 40
27.16001985782661
 40
27.81978828403949
 40
28.46317358891611
 40
29.10655457253636
 40
29.71796074962225
 40
30.32935980502237
 40
30.89483554472268
 40
31.46029703221223
 40
31.96853316335875
 40
32.47675602142645
 40
32.92048258069335
 40
33.36415866411986
 40
33.74220368385965
 40
34.12022968206544
 40
34.44129189281796
 40
34.76194087171142
 40
35.04809427034383
 40
35.33366688352378
 40
35.33366688352378
 40
35.33366688352378
 40
35.33366688352378
 10
68.54341506279664
 20
105.8753419286555
 30
0.0
 10
68.54956107929147
 20
105.7800214149975
 30
0.0
 10
68.56186561178841
 20
105.589186528869
 30
0.0
 10
68.65527722872437
 20
105.3038407381216
 30
0.0
 10
68.80118610965593
 20
105.0297486823573
 30
0.0
 10
69.00803155502274
 20
104.7584928641306
 30
0.0
 10
69.26170671179506
 20
104.5030780681459
 30
0.0
 10
69.57455391497422
 20
104.252928489179
 30
0.0
 10
69.92756869868192
 20
104.0209658824778
 30
0.0
 10
70.33646404850001
 20
103.7982639377085
 30
0.0
 10
70.77934899450592
 20
103.5954597614629
 30
0.0
 10
71.27188066368595
 20
103.4063637120169
 30
0.0
 10
71.79216266659509
 20
103.2386036126624
 30
0.0
 10
72.35344139905783
 20
103.0885565564551
 30
0.0
 10
72.93594091533461
 20
102.9610134469596
 30
0.0
 10
73.54896992122666
 20
102.8543738914903
 30
0.0
 10
74.17636355556959
 20
102.7711071563046
 30
0.0
 10
74.82256752287988
 20
102.710937848167
 30
0.0
 10
75.47602348286021
 20
102.6746791579987
 30
0.0
 10
76.1358310212305
 20
102.662632857975
 30
0.0
 10
76.79563855958958
 20
102.6746791579987
 30
0.0
 10
77.44909451960325
 20
102.710937848167
 30
0.0
 10
78.09529848679411
 20
102.7711071563046
 30
0.0
 10
78.72269212157258
 20
102.8543738914903
 30
0.0
 10
79.33572112591695
 20
102.9610134469596
 30
0.0
 10
79.91822064776392
 20
103.0885565564551
 30
0.0
 10
80.47949936092812
 20
103.2386036126623
 30
0.0
 10
80.99978143226169
 20
103.4063637120169
 30
0.0
 10
81.49231287064474
 20
103.5954597614629
 30
0.0
 10
81.93519862243224
 20
103.7982639377085
 30
0.0
 10
82.34409132665752
 20
104.0209658824778
 30
0.0
 10
82.69711521652334
 20
104.252928489179
 30
0.0
 10
83.00993318443153
 20
104.5030780681458
 30
0.0
 10
83.26370829218041
 20
104.7584928641305
 30
0.0
 10
83.47023385840149
 20
105.0297486823573
 30
0.0
 10
83.61725071001519
 20
105.3038407381217
 30
0.0
 10
83.70695060026579
 20
105.589186528869
 30
0.0
 10
83.73888435243961
 20
105.8753419286555
 30
0.0
 10
83.70695060026577
 20
106.1614973284419
 30
0.0
 10
83.61725071001521
 20
106.4468431191893
 30
0.0
 10
83.47023385840144
 20
106.7209351749536
 30
0.0
 10
83.26370829218041
 20
106.9921909931804
 30
0.0
 10
83.00993318443148
 20
107.247605789165
 30
0.0
 10
82.69711521652333
 20
107.4977553681319
 30
0.0
 10
82.34409132665755
 20
107.7297179748332
 30
0.0
 10
81.93519862243225
 20
107.9524199196025
 30
0.0
 10
81.49231287064477
 20
108.1552240958482
 30
0.0
 10
80.99978143226167
 20
108.3443201452941
 30
0.0
 10
80.47949936092813
 20
108.5120802446486
 30
0.0
 10
79.91822064776389
 20
108.6621273008558
 30
0.0
 10
79.33572112591696
 20
108.7896704103514
 30
0.0
 10
78.72269212157258
 20
108.8963099658207
 30
0.0
 10
78.09529848679409
 20
108.9795767010064
 30
0.0
 10
77.44909451960326
 20
109.039746009144
 30
0.0
 10
76.79563855958956
 20
109.0760046993123
 30
0.0
 10
76.1358310212305
 20
109.088050999336
 30
0.0
 10
75.4760234828602
 20
109.0760046993123
 30
0.0
 10
74.82256752287989
 20
109.039746009144
 30
0.0
 10
74.17636355556959
 20
108.9795767010065
 30
0.0
 10
73.54896992122664
 20
108.8963099658207
 30
0.0
 10
72.93594091533461
 20
108.7896704103514
 30
0.0
 10
72.35344139905783
 20
108.6621273008557
 30
0.0
 10
71.7921626665951
 20
108.5120802446487
 30
0.0
 10
71.27188066368592
 20
108.3443201452941
 30
0.0
 10
70.77934899450597
 20
108.1552240958481
 30
0.0
 10
70.33646404850001
 20
107.9524199196025
 30
0.0
 10
69.92756869868194
 20
107.7297179748332
 30
0.0
 10
69.57455391497422
 20
107.4977553681319
 30
0.0
 10
69.26170671179507
 20
107.247605789165
 30
0.0
 10
69.00803155502275
 20
106.9921909931804
 30
0.0
 10
68.80118610965593
 20
106.7209351749537
 30
0.0
 10
68.65527722872442
 20
106.4468431191894
 30
0.0
 10
68.56186561178834
 20
106.161497328442
 30
0.0
 10
68.54956107929144
 20
105.9706624423135
 30
0.0
 10
68.54341506279664
 20
105.8753419286555
 30
0.0
 11
68.54341506279664
 21
105.8753419286555
 31
0.0
 11
68.57371456140166
 21
105.5913812662695
 31
0.0
 11
68.65876092127115
 21
105.3181581262871
 31
0.0
 11
68.80842554624184
 21
105.0345805042895
 31
0.0
 11
69.00129377115295
 21
104.777904071805
 31
0.0
 11
69.26647495718436
 21
104.5084925020934
 31
0.0
 11
69.56060592512816
 21
104.270995111273
 31
0.0
 11
69.93066443860013
 21
104.0262397975175
 31
0.0
 11
70.31970296642396
 21
103.8128334169486
 31
0.0
 11
70.7813887993444
 21
103.6003795039626
 31
0.0
 11
71.25552011556226
 21
103.4173400000726
 31
0.0
 11
71.79349723379445
 21
103.2431926082102
 31
0.0
 11
72.33962304201265
 21
103.0965317279876
 31
0.0
 11
72.93678275062503
 21
102.9653483168637
 31
0.0
 11
73.53907182693766
 21
102.8601561977042
 31
0.0
 11
74.17682905960655
 21
102.7752750910746
 31
0.0
 11
74.81742182595755
 21
102.7153955600981
 31
0.0
 11
75.47617259763155
 21
102.6787650121042
 31
0.0
 11
76.13583102122865
 21
102.6666482938906
 31
0.0
 11
76.79548944482572
 21
102.6787650121042
 31
0.0
 11
77.45424021649964
 21
102.7153955600981
 31
0.0
 11
78.0948329828507
 21
102.7752750910746
 31
0.0
 11
78.73259021551965
 21
102.8601561977042
 31
0.0
 11
79.33487929183227
 21
102.9653483168637
 31
0.0
 11
79.93203900044466
 21
103.0965317279876
 31
0.0
 11
80.47816480866285
 21
103.2431926082101
 31
0.0
 11
81.01614192689505
 21
103.4173400000726
 31
0.0
 11
81.49027324311288
 21
103.6003795039626
 31
0.0
 11
81.95195907603335
 21
103.8128334169486
 31
0.0
 11
82.34099760385716
 21
104.0262397975175
 31
0.0
 11
82.71105611732915
 21
104.270995111273
 31
0.0
 11
83.00518708527297
 21
104.5084925020934
 31
0.0
 11
83.27036827130436
 21
104.777904071805
 31
0.0
 11
83.46323649621539
 21
105.0345805042895
 31
0.0
 11
83.61290112118604
 21
105.3181581262871
 31
0.0
 11
83.69794748105562
 21
105.5913812662695
 31
0.0
 11
83.72824697966067
 21
105.8753419286555
 31
0.0
 11
83.69794748105562
 21
106.1593025910415
 31
0.0
 11
83.61290112118604
 21
106.4325257310239
 31
0.0
 11
83.4632364962154
 21
106.7161033530215
 31
0.0
 11
83.27036827130436
 21
106.9727797855059
 31
0.0
 11
83.00518708527294
 21
107.2421913552175
 31
0.0
 11
82.71105611732915
 21
107.4796887460379
 31
0.0
 11
82.34099760385718
 21
107.7244440597935
 31
0.0
 11
81.95195907603335
 21
107.9378504403624
 31
0.0
 11
81.49027324311291
 21
108.1503043533484
 31
0.0
 11
81.01614192689505
 21
108.3333438572384
 31
0.0
 11
80.47816480866287
 21
108.5074912491008
 31
0.0
 11
79.93203900044466
 21
108.6541521293233
 31
0.0
 11
79.33487929183227
 21
108.7853355404472
 31
0.0
 11
78.73259021551965
 21
108.8905276596068
 31
0.0
 11
78.0948329828507
 21
108.9754087662365
 31
0.0
 11
77.45424021649964
 21
109.0352882972129
 31
0.0
 11
76.79548944482571
 21
109.0719188452068
 31
0.0
 11
76.13583102122865
 21
109.0840355634204
 31
0.0
 11
75.47617259763155
 21
109.0719188452068
 31
0.0
 11
74.81742182595755
 21
109.0352882972129
 31
0.0
 11
74.17682905960655
 21
108.9754087662365
 31
0.0
 11
73.53907182693766
 21
108.8905276596068
 31
0.0
 11
72.93678275062504
 21
108.7853355404472
 31
0.0
 11
72.33962304201265
 21
108.6541521293233
 31
0.0
 11
71.79349723379445
 21
108.5074912491008
 31
0.0
 11
71.25552011556226
 21
108.3333438572384
 31
0.0
 11
70.7813887993444
 21
108.1503043533484
 31
0.0
 11
70.31970296642396
 21
107.9378504403624
 31
0.0
 11
69.93066443860015
 21
107.7244440597935
 31
0.0
 11
69.56060592512816
 21
107.4796887460379
 31
0.0
 11
69.26647495718437
 21
107.2421913552175
 31
0.0
 11
69.00129377115295
 21
106.9727797855059
 31
0.0
 11
68.80842554624184
 21
106.7161033530215
 31
0.0
 11
68.65876092127115
 21
106.4325257310239
 31
0.0
 11
68.57371456140163
 21
106.1593025910415
 31
0.0
 11
68.54341506279664
 21
105.8753419286555
 31
0.0
  0
SPLINE
  5
275
330
5B
100
AcDbEntity
  8
1
  6
Continuous
 62
     7
100
AcDbSpline
210
0.0
220
0.0
230
1.0
 70
     8
 71
     3
 72
    41
 73
    37
 74
    35
 42
0.0000000001
 43
0.0000000001
 44
0.00000001
 40
0.0
 40
0.0
 40
0.0
 40
0.0
 40
0.1003162097929069
 40
0.2006657928295273
 40
0.4678383886808541
 40
0.735515009258515
 40
1.002789116821378
 40
1.270122582998178
 40
1.569879288202356
 40
1.870218957558153
 40
2.223772350067953
 40
2.577257310292345
 40
2.992126830411942
 40
3.407093623820711
 40
4.409622130927819
 40
5.41455454399124
 40
6.588375494643031
 40
7.760878909450728
 40
8.377795116895042
 40
8.994833520094518
 40
10.2133110789728
 40
11.43168443741315
 40
12.53102574201555
 40
13.63217353770716
 40
14.52401183544821
 40
15.41165469332269
 40
15.76513732679975
 40
16.11866368272447
 40
16.41899054875738
 40
16.71876826847934
 40
16.98610849076475
 40
17.25337398640989
 40
17.52104813026325
 40
17.78822348338633
 40
17.88857329977655
 40
17.98888927411293
 40
17.98888927411293
 40
17.98888927411293
 40
17.98888927411293
 10
69.23210917024755
 20
107.2109025455872
 30
0.0
 10
69.21661775536974
 20
107.1812671106854
 30
0.0
 10
69.18562977192296
 20
107.1219863817516
 30
0.0
 10
69.11866740335898
 20
106.9810808883512
 30
0.0
 10
69.05443270537728
 20
106.7776903849847
 30
0.0
 10
69.02613531783435
 20
106.5098639491471
 30
0.0
 10
69.05599381451719
 20
106.2421504882774
 30
0.0
 10
69.13960060819672
 20
105.9752534756182
 30
0.0
 10
69.27707184038492
 20
105.7190164067304
 30
0.0
 10
69.47023867389892
 20
105.4653664007446
 30
0.0
 10
69.70754028230113
 20
105.2264547972224
 30
0.0
 10
70.00007335236516
 20
104.992540271015
 30
0.0
 10
70.33032613638585
 20
104.7758278871297
 30
0.0
 10
70.867055928548
 20
104.483366665743
 30
0.0
 10
71.61582946251616
 20
104.1738767459856
 30
0.0
 10
72.63696374337533
 20
103.8828205916419
 30
0.0
 10
73.73490715536455
 20
103.6694686933555
 30
0.0
 10
74.71772304471232
 20
103.5611348993427
 30
0.0
 10
75.51879902265381
 20
103.5167906082105
 30
0.0
 10
76.33629178615877
 20
103.501760337763
 30
0.0
 10
77.35460859384777
 20
103.537831897888
 30
0.0
 10
78.52716895927314
 20
103.6692814754739
 30
0.0
 10
79.6476681911265
 20
103.8840157877592
 30
0.0
 10
80.63919223084834
 20
104.1723281908038
 30
0.0
 10
81.5311985248685
 20
104.5324227284231
 30
0.0
 10
82.14829463142922
 20
104.8941383830037
 30
0.0
 10
82.56387438653559
 20
105.22670835037
 30
0.0
 10
82.80146264231239
 20
105.4653320682213
 30
0.0
 10
82.99464618011999
 20
105.7189778705827
 30
0.0
 10
83.13205043775008
 20
105.9752546338769
 30
0.0
 10
83.21565654201942
 20
106.2421546181398
 30
0.0
 10
83.24552906233495
 20
106.509865742359
 30
0.0
 10
83.21723098102999
 20
106.777690036171
 30
0.0
 10
83.15299494056626
 20
106.9810801007375
 30
0.0
 10
83.08603217790204
 20
107.1219864230049
 30
0.0
 10
83.05504423208002
 20
107.1812671706031
 30
0.0
 10
83.03955287220964
 20
107.2109025455873
 30
0.0
 11
69.23210917024755
 21
107.2109025455872
 31
0.0
 11
69.18620133852257
 21
107.1217071817305
 31
0.0
 11
69.14369597484196
 21
107.0308043056814
 31
0.0
 11
69.0632716753323
 21
106.7760237569295
 31
0.0
 11
69.03583102122866
 21
106.5097573795811
 31
0.0
 11
69.06440811179625
 21
106.2440154023396
 31
0.0
 11
69.14369597484196
 21
105.9887104534809
 31
0.0
 11
69.28357880639815
 21
105.7235937324868
 31
0.0
 11
69.46401341364864
 21
105.4834952745677
 31
0.0
 11
69.71200850475518
 21
105.2315063142098
 31
0.0
 11
69.98705065435905
 21
105.0094625504016
 31
0.0
 11
70.33316679924664
 21
104.7807261672606
 31
0.0
 11
70.69691547508384
 21
104.5810155254344
 31
0.0
 11
71.62103508058104
 21
104.192342961059
 31
0.0
 11
72.58583102122864
 21
103.9111705091094
 31
0.0
 11
73.73771589437264
 21
103.6853013806055
 31
0.0
 11
74.90292895979346
 21
103.554753420421
 31
0.0
 11
75.51889827548803
 21
103.5205860510426
 31
0.0
 11
76.13583102122865
 21
103.5091677212221
 31
0.0
 11
77.35350965561426
 21
103.5532846663882
 31
0.0
 11
78.56417403884095
 21
103.6901254196146
 31
0.0
 11
79.6431765050589
 21
103.9006129059421
 31
0.0
 11
80.69962305000306
 21
104.211172345715
 31
0.0
 11
81.52340501023839
 21
104.5528722598333
 31
0.0
 11
82.28461138809814
 21
105.0094625504016
 31
0.0
 11
82.55948884075113
 21
105.2317064663878
 31
0.0
 11
82.80764862880866
 21
105.4834952745677
 31
0.0
 11
82.98811778209485
 21
105.7235517495341
 31
0.0
 11
83.12796606761535
 21
105.9887104534808
 31
0.0
 11
83.2072461113838
 21
106.2440249049161
 31
0.0
 11
83.23583102122865
 21
106.5097573795811
 31
0.0
 11
83.20839225575833
 21
106.7760214617197
 31
0.0
 11
83.12796606761535
 21
107.0308043056814
 31
0.0
 11
83.08546055086026
 21
107.1217073677582
 31
0.0
 11
83.03955287220964
 21
107.2109025455873
 31
0.0
  0
ENDBLK
  5
5D
330
5B
100
AcDbEntity
  8
0
100
AcDbBlockEnd
  0
BLOCK
  5
5F
330
5E
100
AcDbEntity
  8
0
100
AcDbBlockBegin
  2
_J__A4
 70
     0
 71
     0
 10
0.0
 20
0.0
 30
0.0
  3
_J__A4
  1

  0
POINT
  5
276
330
5E
100
AcDbEntity
  8
1
 62
     4
100
AcDbPoint
 10
93.75
 20
17.0
 30
0.0
  0
POINT
  5
277
330
5E
100
AcDbEntity
  8
1
 62
     4
100
AcDbPoint
 10
85.25
 20
17.0
 30
0.0
  0
POINT
  5
278
330
5E
100
AcDbEntity
  8
1
 62
     4
100
AcDbPoint
 10
106.5
 20
19.00000000000001
 30
0.0
  0
POINT
  5
279
330
5E
100
AcDbEntity
  8
1
 62
     4
100
AcDbPoint
 10
106.5
 20
12.5
 30
0.0
  0
POINT
  5
27A
330
5E
100
AcDbEntity
  8
1
 62
     4
100
AcDbPoint
 10
112.25
 20
12.5
 30
0.0
  0
POINT
  5
27B
330
5E
100
AcDbEntity
  8
1
 62
     4
100
AcDbPoint
 10
100.75
 20
12.5
 30
0.0
  0
POINT
  5
27C
330
5E
100
AcDbEntity
  8
1
 62
     4
100
AcDbPoint
 10
123.5
 20
19.00000000000001
 30
0.0
  0
POINT
  5
27D
330
5E
100
AcDbEntity
  8
1
 62
     4
100
AcDbPoint
 10
123.5
 20
12.5
 30
0.0
  0
POINT
  5
27E
330
5E
100
AcDbEntity
  8
1
 62
     4
100
AcDbPoint
 10
129.25
 20
12.5
 30
0.0
  0
POINT
  5
27F
330
5E
100
AcDbEntity
  8
1
 62
     4
100
AcDbPoint
 10
117.75
 20
12.5
 30
0.0
  0
POINT
  5
280
330
5E
100
AcDbEntity
  8
1
 62
     4
100
AcDbPoint
 10
140.5
 20
19.00000000000001
 30
0.0
  0
POINT
  5
281
330
5E
100
AcDbEntity
  8
1
 62
     4
100
AcDbPoint
 10
140.5
 20
12.5
 30
0.0
  0
POINT
  5
282
330
5E
100
AcDbEntity
  8
1
 62
     4
100
AcDbPoint
 10
146.25
 20
12.5
 30
0.0
  0
POINT
  5
283
330
5E
100
AcDbEntity
  8
1
 62
     4
100
AcDbPoint
 10
134.75
 20
12.5
 30
0.0
  0
POINT
  5
284
330
5E
100
AcDbEntity
  8
1
 62
     4
100
AcDbPoint
 10
151.75
 20
12.5
 30
0.0
  0
POINT
  5
285
330
5E
100
AcDbEntity
  8
1
 62
     4
100
AcDbPoint
 10
163.25
 20
12.5
 30
0.0
  0
POINT
  5
286
330
5E
100
AcDbEntity
  8
1
 62
     4
100
AcDbPoint
 10
157.5
 20
12.5
 30
0.0
  0
POINT
  5
287
330
5E
100
AcDbEntity
  8
1
 62
     4
100
AcDbPoint
 10
57.0
 20
14.25
 30
0.0
  0
POINT
  5
288
330
5E
100
AcDbEntity
  8
1
 62
     4
100
AcDbPoint
 10
57.0
 20
22.75000000000001
 30
0.0
  0
POINT
  5
289
330
5E
100
AcDbEntity
  8
1
 62
     4
100
AcDbPoint
 10
47.5
 20
282.0000000000003
 30
0.0
  0
POINT
  5
28A
330
5E
100
AcDbEntity
  8
1
 62
     4
100
AcDbPoint
 10
157.5
 20
19.00000000000001
 30
0.0
  0
POINT
  5
28B
330
5E
100
AcDbEntity
  8
1
 62
     4
100
AcDbPoint
 10
57.0
 20
16.25
 30
0.0
  0
POINT
  5
28C
330
5E
100
AcDbEntity
  8
1
 62
     4
100
AcDbPoint
 10
57.0
 20
24.75000000000001
 30
0.0
  0
POINT
  5
28D
330
5E
100
AcDbEntity
  8
1
 62
     4
100
AcDbPoint
 10
57.0
 20
20.75000000000001
 30
0.0
  0
POINT
  5
28E
330
5E
100
AcDbEntity
  8
1
 62
     4
100
AcDbPoint
 10
57.0
 20
12.25
 30
0.0
  0
POINT
  5
28F
330
5E
100
AcDbEntity
  8
1
 62
     4
100
AcDbPoint
 10
34.0
 20
34.00000000000001
 30
0.0
  0
LINE
  5
290
330
5E
100
AcDbEntity
  8
1
  6
Continuous
 62
     7
100
AcDbLine
 10
105.0
 20
10.0
 30
0.0
 11
200.0
 21
10.0
 31
0.0
  0
LINE
  5
291
330
5E
100
AcDbEntity
  8
1
  6
Continuous
 62
     2
100
AcDbLine
 10
105.0
 20
10.0
 30
0.0
 11
105.0
 21
5.0
 31
0.0
  0
LINE
  5
292
330
5E
100
AcDbEntity
  8
1
  6
Continuous
 62
     7
100
AcDbLine
 10
200.0
 20
148.5
 30
0.0
 11
200.0
 21
287.0000000000003
 31
0.0
  0
LINE
  5
293
330
5E
100
AcDbEntity
  8
1
  6
Continuous
 62
     2
100
AcDbLine
 10
200.0
 20
148.5
 30
0.0
 11
205.0
 21
148.5
 31
0.0
  0
LINE
  5
294
330
5E
100
AcDbEntity
  8
1
  6
Continuous
 62
     7
100
AcDbLine
 10
25.0
 20
148.5
 30
0.0
 11
25.0
 21
287.0000000000003
 31
0.0
  0
LINE
  5
295
330
5E
100
AcDbEntity
  8
1
  6
Continuous
 62
     2
100
AcDbLine
 10
25.0
 20
148.5
 30
0.0
 11
20.0
 21
148.5
 31
0.0
  0
LINE
  5
296
330
5E
100
AcDbEntity
  8
1
  6
Continuous
 62
     7
100
AcDbLine
 10
105.0
 20
287.0000000000003
 30
0.0
 11
25.0
 21
287.0000000000003
 31
0.0
  0
LINE
  5
297
330
5E
100
AcDbEntity
  8
1
  6
Continuous
 62
     2
100
AcDbLine
 10
105.0
 20
287.0000000000003
 30
0.0
 11
105.0
 21
292.0000000000003
 31
0.0
  0
LINE
  5
298
330
5E
100
AcDbEntity
  8
1
  6
Continuous
 62
     2
100
AcDbLine
 10
166.0
 20
20.00000000000001
 30
0.0
 11
200.0
 21
20.00000000000001
 31
0.0
  0
LINE
  5
299
330
5E
100
AcDbEntity
  8
1
  6
Continuous
 62
     2
100
AcDbLine
 10
98.0
 20
27.00000000000001
 30
0.0
 11
98.0
 21
9.99999999999999
 31
0.0
  0
LINE
  5
29A
330
5E
100
AcDbEntity
  8
1
  6
Continuous
 62
     2
100
AcDbLine
 10
115.0
 20
27.00000000000001
 30
0.0
 11
115.0
 21
9.99999999999999
 31
0.0
  0
LINE
  5
29B
330
5E
100
AcDbEntity
  8
1
  6
Continuous
 62
     2
100
AcDbLine
 10
149.0
 20
27.00000000000001
 30
0.0
 11
149.0
 21
10.0
 31
0.0
  0
LINE
  5
29C
330
5E
100
AcDbEntity
  8
1
  6
Continuous
 62
     2
100
AcDbLine
 10
132.0
 20
27.00000000000001
 30
0.0
 11
132.0
 21
9.99999999999999
 31
0.0
  0
LINE
  5
29D
330
5E
100
AcDbEntity
  8
1
  6
Continuous
 62
     2
100
AcDbLine
 10
166.0
 20
27.00000000000001
 30
0.0
 11
166.0
 21
10.0
 31
0.0
  0
LINE
  5
29E
330
5E
100
AcDbEntity
  8
1
  6
Continuous
 62
     2
100
AcDbLine
 10
55.0
 20
277.0000000000003
 30
0.0
 11
25.0
 21
277.0000000000003
 31
0.0
  0
LINE
  5
29F
330
5E
100
AcDbEntity
  8
1
  6
Continuous
 62
     7
100
AcDbLine
 10
25.0
 20
10.0
 30
0.0
 11
25.0
 21
148.5
 31
0.0
  0
LINE
  5
2A0
330
5E
100
AcDbEntity
  8
1
  6
Continuous
 62
     2
100
AcDbLine
 10
40.0
 20
287.0000000000003
 30
0.0
 11
40.0
 21
277.0000000000003
 31
0.0
  0
LINE
  5
2A1
330
5E
100
AcDbEntity
  8
1
  6
Continuous
 62
     2
100
AcDbLine
 10
55.0
 20
287.0000000000003
 30
0.0
 11
55.0
 21
277.0000000000003
 31
0.0
  0
LINE
  5
2A2
330
5E
100
AcDbEntity
  8
1
  6
Continuous
 62
     2
100
AcDbLine
 10
33.0
 20
41.00000000000001
 30
0.0
 11
33.0
 21
27.0
 31
0.0
  0
LINE
  5
2A3
330
5E
100
AcDbEntity
  8
1
  6
Continuous
 62
     7
100
AcDbLine
 10
200.0
 20
27.00000000000001
 30
0.0
 11
25.0
 21
27.00000000000001
 31
0.0
  0
LINE
  5
2A4
330
5E
100
AcDbEntity
  8
1
  6
Continuous
 62
     7
100
AcDbLine
 10
25.0
 20
41.0
 30
0.0
 11
200.0
 21
41.0
 31
0.0
  0
LINE
  5
2A5
330
5E
100
AcDbEntity
  8
1
  6
PHANTOM
 62
     4
100
AcDbLine
 10
0.0
 20
0.0
 30
0.0
 11
210.0
 21
0.0
 31
0.0
  0
LINE
  5
2A6
330
5E
100
AcDbEntity
  8
1
  6
PHANTOM
 62
     4
100
AcDbLine
 10
210.0
 20
0.0
 30
0.0
 11
210.0
 21
297.0
 31
0.0
  0
LINE
  5
2A7
330
5E
100
AcDbEntity
  8
1
  6
PHANTOM
 62
     4
100
AcDbLine
 10
210.0
 20
297.0
 30
0.0
 11
0.0
 21
297.0
 31
0.0
  0
LINE
  5
2A8
330
5E
100
AcDbEntity
  8
1
  6
PHANTOM
 62
     4
100
AcDbLine
 10
0.0
 20
297.0
 30
0.0
 11
0.0
 21
0.0
 31
0.0
  0
LINE
  5
2A9
330
5E
100
AcDbEntity
  8
1
  6
Continuous
 62
     7
100
AcDbLine
 10
25.0
 20
10.0
 30
0.0
 11
105.0
 21
10.0
 31
0.0
  0
LINE
  5
2AA
330
5E
100
AcDbEntity
  8
1
  6
Continuous
 62
     7
100
AcDbLine
 10
200.0
 20
10.0
 30
0.0
 11
200.0
 21
148.5
 31
0.0
  0
LINE
  5
2AB
330
5E
100
AcDbEntity
  8
1
  6
Continuous
 62
     7
100
AcDbLine
 10
200.0
 20
287.0000000000003
 30
0.0
 11
105.0
 21
287.0000000000003
 31
0.0
  0
LINE
  5
2AC
330
5E
100
AcDbEntity
  8
1
  6
Continuous
 62
     2
100
AcDbLine
 10
25.0
 20
18.50000000000001
 30
0.0
 11
81.0
 21
18.50000000000001
 31
0.0
  0
LINE
  5
2AD
330
5E
100
AcDbEntity
  8
1
  6
Continuous
 62
     2
100
AcDbLine
 10
33.0
 20
27.0
 30
0.0
 11
33.0
 21
10.0
 31
0.0
  0
LINE
  5
2AE
330
5E
100
AcDbEntity
  8
1
  6
Continuous
 62
     7
100
AcDbLine
 10
191.0
 20
24.70000000000001
 30
0.0
 11
191.0
 21
22.30000000000001
 31
0.0
  0
LINE
  5
2AF
330
5E
100
AcDbEntity
  8
1
  6
Continuous
 62
     7
100
AcDbLine
 10
191.0
 20
24.70000000000001
 30
0.0
 11
196.0
 21
25.50000000000001
 31
0.0
  0
LINE
  5
2B0
330
5E
100
AcDbEntity
  8
1
  6
Continuous
 62
     7
100
AcDbLine
 10
196.0
 20
25.50000000000001
 30
0.0
 11
196.0
 21
21.50000000000001
 31
0.0
  0
LINE
  5
2B1
330
5E
100
AcDbEntity
  8
1
  6
Continuous
 62
     7
100
AcDbLine
 10
196.0
 20
21.50000000000001
 30
0.0
 11
191.0
 21
22.30000000000001
 31
0.0
  0
LINE
  5
2B2
330
5E
100
AcDbEntity
  8
1
  6
DOT_CENTER
 62
     2
100
AcDbLine
 10
184.0
 20
23.50000000000001
 30
0.0
 11
197.0
 21
23.50000000000001
 31
0.0
  0
LINE
  5
2B3
330
5E
100
AcDbEntity
  8
1
  6
DOT_CENTER
 62
     2
100
AcDbLine
 10
187.0
 20
26.50000000000001
 30
0.0
 11
187.0
 21
20.50000000000001
 31
0.0
  0
LINE
  5
2B4
330
5E
100
AcDbEntity
  8
1
  6
Continuous
 62
     2
100
AcDbLine
 10
81.0
 20
27.00000000000001
 30
0.0
 11
81.0
 21
10.0
 31
0.0
  0
CIRCLE
  5
2B5
330
5E
100
AcDbEntity
  8
1
  6
Continuous
 62
     7
100
AcDbCircle
 10
103.5
 20
12.5
 30
0.0
 40
0.2999999999999972
  0
CIRCLE
  5
2B6
330
5E
100
AcDbEntity
  8
1
  6
Continuous
 62
     7
100
AcDbCircle
 10
109.5
 20
12.5
 30
0.0
 40
0.2999999999999972
  0
CIRCLE
  5
2B7
330
5E
100
AcDbEntity
  8
1
  6
Continuous
 62
     7
100
AcDbCircle
 10
120.5
 20
12.5
 30
0.0
 40
0.2999999999999972
  0
CIRCLE
  5
2B8
330
5E
100
AcDbEntity
  8
1
  6
Continuous
 62
     7
100
AcDbCircle
 10
126.5
 20
12.5
 30
0.0
 40
0.2999999999999972
  0
CIRCLE
  5
2B9
330
5E
100
AcDbEntity
  8
1
  6
Continuous
 62
     7
100
AcDbCircle
 10
137.5
 20
12.5
 30
0.0
 40
0.3000000000000114
  0
CIRCLE
  5
2BA
330
5E
100
AcDbEntity
  8
1
  6
Continuous
 62
     7
100
AcDbCircle
 10
143.5
 20
12.5
 30
0.0
 40
0.3000000000000114
  0
CIRCLE
  5
2BB
330
5E
100
AcDbEntity
  8
1
  6
Continuous
 62
     7
100
AcDbCircle
 10
160.5
 20
12.5
 30
0.0
 40
0.3000000000000114
  0
CIRCLE
  5
2BC
330
5E
100
AcDbEntity
  8
1
  6
Continuous
 62
     7
100
AcDbCircle
 10
154.5
 20
12.5
 30
0.0
 40
0.3000000000000114
  0
CIRCLE
  5
2BD
330
5E
100
AcDbEntity
  8
1
  6
Continuous
 62
     7
100
AcDbCircle
 10
187.0
 20
23.50000000000001
 30
0.0
 40
1.200000000000102
  0
CIRCLE
  5
2BE
330
5E
100
AcDbEntity
  8
1
  6
Continuous
 62
     7
100
AcDbCircle
 10
187.0
 20
23.50000000000001
 30
0.0
 40
2.0
  0
CIRCLE
  5
2BF
330
5E
100
AcDbEntity
  8
1
  6
DOT_CENTER
 62
     7
100
AcDbCircle
 10
89.5
 20
16.0
 30
0.0
 40
0.1000000000000227
  0
CIRCLE
  5
2C0
330
5E
100
AcDbEntity
  8
1
  6
DOT_CENTER
 62
     7
100
AcDbCircle
 10
89.5
 20
18.0
 30
0.0
 40
0.1000000000000227
  0
MTEXT
  5
2C2
330
5E
100
AcDbEntity
  8
1
 62
     7
100
AcDbMText
 10
188.5
 20
15.0
 30
0.0
 40
3.0
 41
0.0
 71
     5
 72
     1
  1
三栄水栓製作所
  7
CONVERTER_1
 73
     1
 44
1.32052821128451
  0
MTEXT
  5
2C3
330
5E
100
AcDbEntity
  8
1
 62
     7
100
AcDbMText
 10
171.5
 20
15.0
 30
0.0
 40
2.5
 41
0.0
 71
     5
 72
     1
  1
株式会社
  7
CONVERTER_1
 73
     1
 44
1.32052821128451
  0
MTEXT
  5
2C4
330
5E
100
AcDbEntity
  8
1
 62
     2
100
AcDbMText
 10
32.5
 20
282.0000000000003
 30
0.0
 40
5.0
 41
0.0
 71
     5
 72
     1
  1
図番
  7
CONVERTER_1
 73
     1
 44
0.60024009603842
  0
MTEXT
  5
2C5
330
5E
100
AcDbEntity
  8
1
 62
     2
100
AcDbMText
 10
29.0
 20
34.00000000000001
 30
0.0
 40
3.5
 41
0.0
 71
     5
 72
     1
  1
備考
  7
CONVERTER_1
 73
     1
 44
0.60024009603842
  0
MTEXT
  5
2C6
330
5E
100
AcDbEntity
  8
1
 62
     2
100
AcDbMText
 10
29.0
 20
22.75
 30
0.0
 40
3.5
 41
0.0
 71
     5
 72
     1
  1
品名
  7
CONVERTER_1
 73
     1
 44
0.96038415366146
  0
MTEXT
  5
2C7
330
5E
100
AcDbEntity
  8
1
 62
     2
100
AcDbMText
 10
29.0
 20
14.25
 30
0.0
 40
3.5
 41
0.0
 71
     5
 72
     1
  1
品番
  7
CONVERTER_1
 73
     1
 44
0.96038415366146
  0
MTEXT
  5
2C8
330
5E
100
AcDbEntity
  8
1
 62
     2
100
AcDbMText
 10
101.5
 20
25.00000000000001
 30
0.0
 40
3.0
 41
0.0
 71
     5
 72
     1
  1
承認
  7
CONVERTER_1
 73
     1
 44
0.78031212484994
  0
MTEXT
  5
2C9
330
5E
100
AcDbEntity
  8
1
 62
     2
100
AcDbMText
 10
175.0
 20
23.50000000000001
 30
0.0
 40
3.5
 41
0.0
 71
     5
 72
     1
  1
第三角法
  7
CONVERTER_1
 73
     1
 44
0.7202881152461
  0
MTEXT
  5
2CA
330
5E
100
AcDbEntity
  8
1
 62
     2
100
AcDbMText
 10
118.5
 20
25.00000000000001
 30
0.0
 40
3.0
 41
0.0
 71
     5
 72
     1
  1
検図
  7
CONVERTER_1
 73
     1
 44
0.78031212484994
  0
MTEXT
  5
2CB
330
5E
100
AcDbEntity
  8
1
 62
     2
100
AcDbMText
 10
152.5
 20
25.00000000000001
 30
0.0
 40
3.0
 41
0.0
 71
     5
 72
     1
  1
設計
  7
CONVERTER_1
 73
     1
 44
0.78031212484994
  0
MTEXT
  5
2CC
330
5E
100
AcDbEntity
  8
1
 62
     2
100
AcDbMText
 10
135.5
 20
25.00000000000001
 30
0.0
 40
3.0
 41
0.0
 71
     5
 72
     1
  1
製図
  7
CONVERTER_1
 73
     1
 44
0.78031212484994
  0
MTEXT
  5
2CD
330
5E
100
AcDbEntity
  8
1
 62
     2
100
AcDbMText
 10
89.5
 20
24.00000000000001
 30
0.0
 40
3.5
 41
0.0
 71
     5
 72
     1
  1
尺度
  7
CONVERTER_1
 73
     1
 44
0.7202881152461
  0
MTEXT
  5
2CE
330
5E
100
AcDbEntity
  8
1
 62
   250
100
AcDbMText
 10
25.0
 20
5.0
 30
0.0
 40
3.5
 41
0.0
 71
     4
 72
     1
  1
備考欄の文字列 原点位置=4
  7
CONVERTER_1
 73
     1
 44
0.7202881152461
  0
ENDBLK
  5
60
330
5E
100
AcDbEntity
  8
0
100
AcDbBlockEnd
  0
BLOCK
  5
2ED
330
2E5
100
AcDbEntity
  8
0
100
AcDbBlockBegin
  2
*D013
 70
     1
 71
     0
 10
0.0
 20
0.0
 30
0.0
  3
*D013
  1

  0
LINE
  5
2E6
330
2E5
100
AcDbEntity
  8
0
  6
Continuous
 62
     2
100
AcDbLine
 10
111.5526955953671
 20
83.96419363790294
 30
0.0
 11
126.4161433027681
 21
77.03325414535541
 31
0.0
  0
LINE
  5
2E7
330
2E5
100
AcDbEntity
  8
0
  6
Continuous
 62
     2
100
AcDbLine
 10
89.48000718971787
 20
94.25685727752634
 30
0.0
 11
111.5526955953671
 21
83.96419363790294
 31
0.0
  0
LINE
  5
2E8
330
2E5
100
AcDbEntity
  8
0
  6
Continuous
 62
     2
100
AcDbLine
 10
124.7461080640794
 20
112.2575579821933
 30
0.0
 11
110.9187682027561
 21
82.60473195734797
 31
0.0
  0
LINE
  5
2E9
330
2E5
100
AcDbEntity
  8
0
  6
Continuous
 62
     2
100
AcDbLine
 10
139.6095557714804
 20
105.3266184896458
 30
0.0
 11
125.7822159101571
 21
75.67379246480044
 31
0.0
  0
SOLID
  5
2EA
330
2E5
100
AcDbEntity
  8
0
 62
     2
100
AcDbTrace
 10
116.6029149131516
 20
82.3718656034322
 30
0.0
 11
116.0187080414674
 21
81.11902992409625
 31
0.0
 12
111.5526955953671
 22
83.96419363790294
 32
0.0
 13
111.5526955953671
 23
83.96419363790294
 33
0.0
  0
SOLID
  5
2EB
330
2E5
100
AcDbEntity
  8
0
 62
     2
100
AcDbTrace
 10
121.3659239849836
 20
78.62558217982615
 30
0.0
 11
121.9501308566678
 21
79.8784178591621
 31
0.0
 12
126.4161433027681
 22
77.03325414535541
 32
0.0
 13
126.4161433027681
 23
77.03325414535541
 33
0.0
  0
MTEXT
  5
2EC
330
2E5
100
AcDbEntity
  8
0
 62
     7
100
AcDbMText
 10
88.24223818168815
 20
97.06837873089657
 30
0.0
 40
5.25
 41
0.0
 71
     7
 72
     1
  1
\C7;{\Fgdt;n}\C7;16,4
  7
CONVERTER_2
 11
0.9063077870366478
 21
-0.4226182617407041
 31
0.0
 73
     1
 44
0.60024009603842
  0
ENDBLK
  5
2EE
330
2E5
100
AcDbEntity
  8
0
100
AcDbBlockEnd
  0
BLOCK
  5
2F8
330
2F1
100
AcDbEntity
  8
0
100
AcDbBlockBegin
  2
*D114
 70
     1
 71
     0
 10
0.0
 20
0.0
 30
0.0
  3
*D114
  1

  0
LINE
  5
2F2
330
2F1
100
AcDbEntity
  8
0
  6
Continuous
 62
     2
100
AcDbLine
 10
130.8177307778073
 20
87.6666482938906
 30
0.0
 11
206.0677307778072
 21
87.6666482938906
 31
0.0
  0
LINE
  5
2F3
330
2F1
100
AcDbEntity
  8
0
  6
Continuous
 62
     2
100
AcDbLine
 10
130.8177307778073
 20
105.8753419286554
 30
0.0
 11
130.8177307778073
 21
86.1666482938906
 31
0.0
  0
LINE
  5
2F4
330
2F1
100
AcDbEntity
  8
0
  6
Continuous
 62
     2
100
AcDbLine
 10
206.0677307778072
 20
129.9220056578701
 30
0.0
 11
206.0677307778072
 21
86.1666482938906
 31
0.0
  0
SOLID
  5
2F5
330
2F1
100
AcDbEntity
  8
0
 62
     2
100
AcDbTrace
 10
136.0677307778073
 20
88.35782390622443
 30
0.0
 11
136.0677307778073
 21
86.97547268155678
 31
0.0
 12
130.8177307778073
 22
87.6666482938906
 32
0.0
 13
130.8177307778073
 23
87.6666482938906
 33
0.0
  0
SOLID
  5
2F6
330
2F1
100
AcDbEntity
  8
0
 62
     2
100
AcDbTrace
 10
200.8177307778072
 20
86.97547268155678
 30
0.0
 11
200.8177307778072
 21
88.35782390622443
 31
0.0
 12
206.0677307778072
 22
87.6666482938906
 32
0.0
 13
206.0677307778072
 23
87.6666482938906
 33
0.0
  0
MTEXT
  5
2F7
330
2F1
100
AcDbEntity
  8
0
 62
     7
100
AcDbMText
 10
165.386895835794
 20
89.1666482938906
 30
0.0
 40
5.25
 41
0.0
 71
     7
 72
     1
  1
78
  7
CONVERTER_2
 11
0.9999999999970621
 21
2.424068405545307E-6
 31
0.0
 73
     1
 44
0.60024009603842
  0
ENDBLK
  5
2F9
330
2F1
100
AcDbEntity
  8
0
100
AcDbBlockEnd
  0
BLOCK
  5
303
330
2FC
100
AcDbEntity
  8
0
100
AcDbBlockBegin
  2
*D215
 70
     1
 71
     0
 10
0.0
 20
0.0
 30
0.0
  3
*D215
  1

  0
LINE
  5
2FD
330
2FC
100
AcDbEntity
  8
0
  6
Continuous
 62
     2
100
AcDbLine
 10
206.0677307778073
 20
87.6666482938906
 30
0.0
 11
251.0677307778073
 21
87.6666482938906
 31
0.0
  0
LINE
  5
2FE
330
2FC
100
AcDbEntity
  8
0
  6
Continuous
 62
     2
100
AcDbLine
 10
206.0677307778073
 20
129.9220056578701
 30
0.0
 11
206.0677307778073
 21
86.1666482938906
 31
0.0
  0
LINE
  5
2FF
330
2FC
100
AcDbEntity
  8
0
  6
Continuous
 62
     2
100
AcDbLine
 10
251.0677307778073
 20
122.8753419286555
 30
0.0
 11
251.0677307778073
 21
86.1666482938906
 31
0.0
  0
SOLID
  5
300
330
2FC
100
AcDbEntity
  8
0
 62
     2
100
AcDbTrace
 10
211.3177307778073
 20
88.35782390622443
 30
0.0
 11
211.3177307778073
 21
86.97547268155678
 31
0.0
 12
206.0677307778073
 22
87.6666482938906
 32
0.0
 13
206.0677307778073
 23
87.6666482938906
 33
0.0
  0
SOLID
  5
301
330
2FC
100
AcDbEntity
  8
0
 62
     2
100
AcDbTrace
 10
245.8177307778073
 20
86.97547268155678
 30
0.0
 11
245.8177307778073
 21
88.35782390622443
 31
0.0
 12
251.0677307778073
 22
87.6666482938906
 32
0.0
 13
251.0677307778073
 23
87.6666482938906
 33
0.0
  0
MTEXT
  5
302
330
2FC
100
AcDbEntity
  8
0
 62
     7
100
AcDbMText
 10
225.910547928682
 20
89.1666482938906
 30
0.0
 40
5.25
 41
0.0
 71
     7
 72
     1
  1
45
  7
CONVERTER_2
 11
0.9999999999970621
 21
2.424068405545307E-6
 31
0.0
 73
     1
 44
0.60024009603842
  0
ENDBLK
  5
304
330
2FC
100
AcDbEntity
  8
0
100
AcDbBlockEnd
  0
BLOCK
  5
30E
330
307
100
AcDbEntity
  8
0
100
AcDbBlockBegin
  2
*D316
 70
     1
 71
     0
 10
0.0
 20
0.0
 30
0.0
  3
*D316
  1

  0
LINE
  5
308
330
307
100
AcDbEntity
  8
1
  6
Continuous
 62
     2
100
AcDbLine
 10
113.4366650722591
 20
145.8753419286554
 30
0.0
 11
113.4366650722591
 21
203.3753419286554
 31
0.0
  0
LINE
  5
309
330
307
100
AcDbEntity
  8
1
  6
Continuous
 62
     2
100
AcDbLine
 10
167.4941376490001
 20
145.8753419286554
 30
0.0
 11
111.9366650722591
 21
145.8753419286554
 31
0.0
  0
LINE
  5
30A
330
307
100
AcDbEntity
  8
1
  6
Continuous
 62
     2
100
AcDbLine
 10
206.0677307778073
 20
203.3753419286554
 30
0.0
 11
111.9366650722591
 21
203.3753419286554
 31
0.0
  0
SOLID
  5
30B
330
307
100
AcDbEntity
  8
1
 62
     2
100
AcDbTrace
 10
112.7454894599253
 20
151.1253419286554
 30
0.0
 11
114.1278406845929
 21
151.1253419286554
 31
0.0
 12
113.4366650722591
 22
145.8753419286554
 32
0.0
 13
113.4366650722591
 23
145.8753419286554
 33
0.0
  0
SOLID
  5
30C
330
307
100
AcDbEntity
  8
1
 62
     2
100
AcDbTrace
 10
114.1278406845929
 20
198.1253419286554
 30
0.0
 11
112.7454894599253
 21
198.1253419286554
 31
0.0
 12
113.4366650722591
 22
203.3753419286554
 32
0.0
 13
113.4366650722591
 23
203.3753419286554
 33
0.0
  0
MTEXT
  5
30D
330
307
100
AcDbEntity
  8
1
 62
     7
100
AcDbMText
 10
111.9366650722591
 20
157.4054765606139
 30
0.0
 40
5.25
 41
0.0
 71
     7
 72
     1
  1
\C7;\C7;58リフト5
  7
CONVERTER_1
 11
0.0
 21
1.0
 31
0.0
 73
     1
 44
0.60024009603842
  0
ENDBLK
  5
30F
330
307
100
AcDbEntity
  8
0
100
AcDbBlockEnd
  0
BLOCK
  5
319
330
312
100
AcDbEntity
  8
0
100
AcDbBlockBegin
  2
*D417
 70
     1
 71
     0
 10
0.0
 20
0.0
 30
0.0
  3
*D417
  1

  0
LINE
  5
313
330
312
100
AcDbEntity
  8
0
  6
Continuous
 62
     2
100
AcDbLine
 10
265.0677307778072
 20
87.6666482938906
 30
0.0
 11
274.0677307778072
 21
87.6666482938906
 31
0.0
  0
LINE
  5
314
330
312
100
AcDbEntity
  8
0
  6
Continuous
 62
     2
100
AcDbLine
 10
251.0677307778072
 20
87.6666482938906
 30
0.0
 11
265.0677307778072
 21
87.6666482938906
 31
0.0
  0
LINE
  5
315
330
312
100
AcDbEntity
  8
0
  6
Continuous
 62
     2
100
AcDbLine
 10
251.0677307778072
 20
122.8753419286555
 30
0.0
 11
251.0677307778072
 21
86.1666482938906
 31
0.0
  0
LINE
  5
316
330
312
100
AcDbEntity
  8
0
  6
Continuous
 62
     2
100
AcDbLine
 10
265.0677307778072
 20
136.3753419286554
 30
0.0
 11
265.0677307778072
 21
86.1666482938906
 31
0.0
  0
SOLID
  5
317
330
312
100
AcDbEntity
  8
0
 62
     2
100
AcDbTrace
 10
269.5677307778072
 20
88.25908453303389
 30
0.0
 11
269.5677307778072
 21
87.07421205474732
 31
0.0
 12
265.0677307778072
 22
87.6666482938906
 32
0.0
 13
265.0677307778072
 23
87.6666482938906
 33
0.0
  0
MTEXT
  5
318
330
312
100
AcDbEntity
  8
0
 62
     7
100
AcDbMText
 10
253.752399325041
 20
89.1666482938906
 30
0.0
 40
5.25
 41
0.0
 71
     7
 72
     1
  1
14
  7
CONVERTER_2
 11
0.9999999999970621
 21
2.424068405545307E-6
 31
0.0
 73
     1
 44
0.60024009603842
  0
ENDBLK
  5
31A
330
312
100
AcDbEntity
  8
0
100
AcDbBlockEnd
  0
BLOCK
  5
31C
330
31B
100
AcDbEntity
  8
0
100
AcDbBlockBegin
  2
_None
 70
     0
 71
     0
 10
0.0
 20
0.0
 30
0.0
  3
_None
  1

  0
ENDBLK
  5
31D
330
31B
100
AcDbEntity
  8
0
100
AcDbBlockEnd
  0
BLOCK
  5
327
330
320
100
AcDbEntity
  8
0
100
AcDbBlockBegin
  2
*D519
 70
     1
 71
     0
 10
0.0
 20
0.0
 30
0.0
  3
*D519
  1

  0
LINE
  5
321
330
320
100
AcDbEntity
  8
0
  6
Continuous
 62
     2
100
AcDbLine
 10
280.0677307778071
 20
168.8753419286554
 30
0.0
 11
280.0677307778071
 21
122.8753419286555
 31
0.0
  0
LINE
  5
322
330
320
100
AcDbEntity
  8
0
  6
Continuous
 62
     2
100
AcDbLine
 10
251.0677307778072
 20
168.8753419286554
 30
0.0
 11
281.5677307778071
 21
168.8753419286554
 31
0.0
  0
LINE
  5
323
330
320
100
AcDbEntity
  8
0
  6
Continuous
 62
     2
100
AcDbLine
 10
251.0677307778072
 20
122.8753419286555
 30
0.0
 11
281.5677307778071
 21
122.8753419286555
 31
0.0
  0
SOLID
  5
324
330
320
100
AcDbEntity
  8
0
 62
     2
100
AcDbTrace
 10
280.758906390141
 20
163.6253419286554
 30
0.0
 11
279.3765551654733
 21
163.6253419286554
 31
0.0
 12
280.0677307778071
 22
168.8753419286554
 32
0.0
 13
280.0677307778071
 23
168.8753419286554
 33
0.0
  0
SOLID
  5
325
330
320
100
AcDbEntity
  8
0
 62
     2
100
AcDbTrace
 10
279.3765551654733
 20
128.1253419286555
 30
0.0
 11
280.758906390141
 21
128.1253419286555
 31
0.0
 12
280.0677307778071
 22
122.8753419286555
 32
0.0
 13
280.0677307778071
 23
122.8753419286555
 33
0.0
  0
MTEXT
  5
326
330
320
100
AcDbEntity
  8
0
 62
     7
100
AcDbMText
 10
278.5677307778071
 20
136.4778419286554
 30
0.0
 40
5.25
 41
0.0
 71
     7
 72
     1
  1
\C7;{\Fgdt;n}\C7;46
  7
CONVERTER_2
 11
0.0
 21
1.0
 31
0.0
 73
     1
 44
0.60024009603842
  0
ENDBLK
  5
328
330
320
100
AcDbEntity
  8
0
100
AcDbBlockEnd
  0
BLOCK
  5
332
330
32B
100
AcDbEntity
  8
0
100
AcDbBlockBegin
  2
*D620
 70
     1
 71
     0
 10
0.0
 20
0.0
 30
0.0
  3
*D620
  1

  0
LINE
  5
32C
330
32B
100
AcDbEntity
  8
0
  6
Continuous
 62
     2
100
AcDbLine
 10
113.4366650722591
 20
145.8753419286554
 30
0.0
 11
113.4366650722591
 21
105.8753419286554
 31
0.0
  0
LINE
  5
32D
330
32B
100
AcDbEntity
  8
0
  6
Continuous
 62
     2
100
AcDbLine
 10
130.8177307778073
 20
105.8753419286554
 30
0.0
 11
111.9366650722591
 21
105.8753419286554
 31
0.0
  0
LINE
  5
32E
330
32B
100
AcDbEntity
  8
0
  6
Continuous
 62
     2
100
AcDbLine
 10
168.582144928232
 20
145.8753419286554
 30
0.0
 11
111.9366650722591
 21
145.8753419286554
 31
0.0
  0
SOLID
  5
32F
330
32B
100
AcDbEntity
  8
0
 62
     2
100
AcDbTrace
 10
114.1278406845929
 20
140.6253419286554
 30
0.0
 11
112.7454894599253
 21
140.6253419286554
 31
0.0
 12
113.4366650722591
 22
145.8753419286554
 32
0.0
 13
113.4366650722591
 23
145.8753419286554
 33
0.0
  0
SOLID
  5
330
330
32B
100
AcDbEntity
  8
0
 62
     2
100
AcDbTrace
 10
112.7454894599253
 20
111.1253419286554
 30
0.0
 11
114.1278406845929
 21
111.1253419286554
 31
0.0
 12
113.4366650722591
 22
105.8753419286554
 32
0.0
 13
113.4366650722591
 23
105.8753419286554
 33
0.0
  0
MTEXT
  5
331
330
32B
100
AcDbEntity
  8
0
 62
     7
100
AcDbMText
 10
111.9366650722591
 20
119.5333826444679
 30
0.0
 40
5.25
 41
0.0
 71
     7
 72
     1
  1
40
  7
CONVERTER_2
 11
0.0
 21
1.0
 31
0.0
 73
     1
 44
0.60024009603842
  0
ENDBLK
  5
333
330
32B
100
AcDbEntity
  8
0
100
AcDbBlockEnd
  0
BLOCK
  5
33E
330
336
100
AcDbEntity
  8
0
100
AcDbBlockBegin
  2
*D721
 70
     1
 71
     0
 10
0.0
 20
0.0
 30
0.0
  3
*D721
  1

  0
LINE
  5
337
330
336
100
AcDbEntity
  8
1
  6
Continuous
 62
     2
100
AcDbLine
 10
162.6461307753123
 20
131.8753419286555
 30
0.0
 11
162.6461307753123
 21
159.8753419286555
 31
0.0
  0
LINE
  5
338
330
336
100
AcDbEntity
  8
1
  6
Continuous
 62
     2
100
AcDbLine
 10
162.6461307753123
 20
159.8753419286555
 30
0.0
 11
162.6461307753123
 21
172.4268663140911
 31
0.0
  0
LINE
  5
339
330
336
100
AcDbEntity
  8
1
  6
Continuous
 62
     2
100
AcDbLine
 10
173.3545535280943
 20
159.8753419286555
 30
0.0
 11
161.1461307753123
 21
159.8753419286555
 31
0.0
  0
LINE
  5
33A
330
336
100
AcDbEntity
  8
1
  6
Continuous
 62
     2
100
AcDbLine
 10
173.3545535280942
 20
131.8753419286555
 30
0.0
 11
161.1461307753123
 21
131.8753419286555
 31
0.0
  0
SOLID
  5
33B
330
336
100
AcDbEntity
  8
1
 62
     2
100
AcDbTrace
 10
161.9549551629785
 20
137.1253419286555
 30
0.0
 11
163.3373063876461
 21
137.1253419286555
 31
0.0
 12
162.6461307753123
 22
131.8753419286555
 32
0.0
 13
162.6461307753123
 23
131.8753419286555
 33
0.0
  0
SOLID
  5
33C
330
336
100
AcDbEntity
  8
1
 62
     2
100
AcDbTrace
 10
163.3373063876461
 20
154.6253419286555
 30
0.0
 11
161.9549551629785
 21
154.6253419286555
 31
0.0
 12
162.6461307753123
 22
159.8753419286555
 32
0.0
 13
162.6461307753123
 23
159.8753419286555
 33
0.0
  0
MTEXT
  5
33D
330
336
100
AcDbEntity
  8
1
 62
     7
100
AcDbMText
 10
161.1461307753123
 20
164.5518663140911
 30
0.0
 40
5.25
 41
0.0
 71
     7
 72
     1
  1
28
  7
CONVERTER_2
 11
0.0
 21
1.0
 31
0.0
 73
     1
 44
0.60024009603842
  0
ENDBLK
  5
33F
330
336
100
AcDbEntity
  8
0
100
AcDbBlockEnd
  0
BLOCK
  5
34B
330
342
100
AcDbEntity
  8
0
100
AcDbBlockBegin
  2
*D822
 70
     1
 71
     0
 10
0.0
 20
0.0
 30
0.0
  3
*D822
  1

  0
LINE
  5
343
330
342
100
AcDbEntity
  8
0
  6
Continuous
 62
     2
100
AcDbLine
 10
130.8177307778073
 20
105.3753419286554
 30
0.0
 11
130.8177307778073
 21
63.66758745913003
 31
0.0
  0
LINE
  5
344
330
342
100
AcDbEntity
  8
0
  6
Continuous
 62
     2
100
AcDbLine
 10
129.9724942543259
 20
104.0627263545821
 30
0.0
 11
112.9799629519184
 21
67.6221253795935
 31
0.0
  0
LINE
  5
345
330
342
100
AcDbEntity
  8
0
  6
Continuous
 62
     2
100
AcDbLine
 10
130.8177307778073
 20
63.66758745913003
 30
0.0
 11
130.8177307778073
 21
62.16758745913003
 31
0.0
  0
LINE
  5
346
330
342
100
AcDbEntity
  8
0
  6
Continuous
 62
     2
100
AcDbLine
 10
112.9799629519184
 20
67.6221253795935
 30
0.0
 11
112.3460355593074
 21
66.26266369903851
 31
0.0
  0
ARC
  5
347
330
342
100
AcDbEntity
  8
0
  6
Continuous
 62
     2
100
AcDbCircle
 10
130.8177307778073
 20
105.8753419286554
 30
0.0
 40
42.20775446952537
100
AcDbArc
 50
-114.9999999999997
 51
-90.0
  0
SOLID
  5
348
330
342
100
AcDbEntity
  8
0
 62
     2
100
AcDbTrace
 10
118.119385386872
 20
66.34675846682629
 30
0.0
 11
117.6141745675317
 21
65.06003513356396
 31
0.0
 12
112.9799629519184
 22
67.6221253795935
 32
0.0
 13
112.9799629519184
 23
67.6221253795935
 33
0.0
  0
SOLID
  5
349
330
342
100
AcDbEntity
  8
0
 62
     2
100
AcDbTrace
 10
125.5349225776014
 20
63.30404757559182
 30
0.0
 11
125.6208388563827
 21
64.68372627057138
 31
0.0
 12
130.8177307778073
 22
63.66758745913003
 32
0.0
 13
130.8177307778073
 23
63.66758745913003
 33
0.0
  0
MTEXT
  5
34A
330
342
100
AcDbEntity
  8
0
 62
     7
100
AcDbMText
 10
117.2049176880694
 20
67.07890886149026
 30
0.0
 40
5.25
 41
0.0
 71
     7
 72
     1
  1
25{\Fgdt;~}
  7
CONVERTER_2
 11
0.9762960071199341
 21
-0.2164396139381003
 31
0.0
 73
     1
 44
0.60024009603842
  0
ENDBLK
  5
34C
330
342
100
AcDbEntity
  8
0
100
AcDbBlockEnd
  0
ENDSEC
  0
SECTION
  2
ENTITIES
  0
INSERT
  5
61
330
1F
100
AcDbEntity
  8
1
100
AcDbBlockReference
  2
R10A-13
 10
191.5677307778073
 20
153.8753419286554
 30
0.0
  0
INSERT
  5
62
330
1F
100
AcDbEntity
  8
1
100
AcDbBlockReference
  2
Y12J-64X
 10
126.5783790553684
 20
119.324553696341
 30
0.0
  0
INSERT
  5
63
330
1F
100
AcDbEntity
  8
0
100
AcDbBlockReference
  2
Y12-0-13
 10
251.0677307778072
 20
165.8753419286554
 30
0.0
  0
INSERT
  5
64
330
1F
100
AcDbEntity
  8
0
100
AcDbBlockReference
  2
62-1A
 10
-146.7483480989493
 20
52.90590852880975
 30
0.0
  0
INSERT
  5
65
330
1F
100
AcDbEntity
  8
1
100
AcDbBlockReference
  2
_J__A4
 10
0.0
 20
0.0
 30
0.0
 41
1.5
 42
1.5
 43
1.5
  0
LINE
  5
2CF
330
1F
100
AcDbEntity
  8
1
  6
DASH_CENTER
 62
     2
100
AcDbLine
 10
91.29127558745626
 20
322.5015055386112
 30
0.0
 11
46.69096729255776
 21
348.2515055386112
 31
0.0
  0
LINE
  5
2D0
330
1F
100
AcDbEntity
  8
1
  6
DASH_CENTER
 62
     2
100
AcDbLine
 10
60.98038645500105
 20
322.5015055386111
 30
0.0
 11
105.5806947498996
 21
348.2515055386112
 31
0.0
  0
LINE
  5
2D1
330
1F
100
AcDbEntity
  8
0
  6
Continuous
 62
     2
100
AcDbLine
 10
130.8177307778073
 20
105.8753419286554
 30
0.0
 11
130.8177307778073
 21
105.3753419286554
 31
0.0
  0
LINE
  5
2D2
330
1F
100
AcDbEntity
  8
1
  6
DASH_CENTER
 62
     2
100
AcDbLine
 10
206.0677307778072
 20
129.9220056578701
 30
0.0
 11
206.0677307778072
 21
206.3753079471172
 31
0.0
  0
LINE
  5
2D3
330
1F
100
AcDbEntity
  8
0
  6
DASH_CENTER
 62
     2
100
AcDbLine
 10
76.13583102122865
 20
99.66664829389056
 30
0.0
 11
76.13583102122865
 21
206.3526139525196
 31
0.0
  0
LINE
  5
2D4
330
1F
100
AcDbEntity
  8
0
  6
DASH_CENTER
 62
     2
100
AcDbLine
 10
50.13583102122865
 20
145.8753419286554
 30
0.0
 11
102.1358310212287
 21
145.8753419286554
 31
0.0
  0
LINE
  5
2D5
330
1F
100
AcDbEntity
  8
1
  6
DASH_CENTER
 62
     2
100
AcDbLine
 10
167.494137649
 20
145.8753419286554
 30
0.0
 11
268.3213093877714
 21
145.8753419286554
 31
0.0
  0
LINE
  5
2D6
330
1F
100
AcDbEntity
  8
1
  6
DASH_CENTER
 62
     2
100
AcDbLine
 10
141.3929113171325
 20
128.5538897808764
 30
0.0
 11
130.8177307778073
 21
105.8753419286554
 31
0.0
  0
LINE
  5
2D7
330
1F
100
AcDbEntity
  8
1
  6
DASH_CENTER
 62
     2
100
AcDbLine
 10
130.8177307778073
 20
105.8753419286554
 30
0.0
 11
129.9724942543259
 21
104.0627263545821
 31
0.0
  0
LINE
  5
2D8
330
1F
100
AcDbEntity
  8
1
  6
DASH_CENTER
 62
     2
100
AcDbLine
 10
190.3177307778073
 20
145.8753419286554
 30
0.0
 11
168.582144928232
 21
145.8753419286554
 31
0.0
  0
LINE
  5
2D9
330
1F
100
AcDbEntity
  8
1
  6
DASH_CENTER
 62
     2
100
AcDbLine
 10
53.99991455237905
 20
331.2515055386112
 30
0.0
 11
98.27174749007804
 21
331.2515055386112
 31
0.0
  0
LINE
  5
2DA
330
1F
100
AcDbEntity
  8
1
  6
DASH_CENTER
 62
     2
100
AcDbLine
 10
76.13583102122865
 20
394.7515055386112
 30
0.0
 11
76.13583102122865
 21
244.620439833063
 31
0.0
  0
ARC
  5
2DB
330
1F
100
AcDbEntity
  8
1
  6
DASH_CENTER
 62
     2
100
AcDbCircle
 10
168.582144928232
 20
115.8753419286554
 30
0.0
 40
29.99999999999999
100
AcDbArc
 50
90.0
 51
155.0
  0
SOLID
  5
2DC
330
1F
100
AcDbEntity
  8
1
 62
     2
100
AcDbTrace
 10
88.66225538247134
 20
387.6437267146463
 30
0.0
 11
89.85940665998605
 21
386.9525511023125
 31
0.0
 12
86.63583102122865
 22
382.7515055386111
 32
0.0
 13
86.63583102122865
 23
382.7515055386111
 33
0.0
  0
LEADER
  5
2DD
330
1F
100
AcDbEntity
  8
1
  6
Continuous
 62
     2
100
AcDbLeader
  3
Standard
 71
     0
 76
     3
 10
86.63583102122865
 20
382.7515055386111
 30
0.0
 10
98.55553785368824
 20
403.397043383757
 30
0.0
 10
121.429117938877
 20
403.397043383757
 30
0.0
  0
MTEXT
  5
2DF
330
1F
100
AcDbEntity
  8
1
 62
     7
100
AcDbMText
 10
109.9923278962826
 20
407.897043383757
 30
0.0
 40
5.25
 41
0.0
 71
     5
 72
     1
  1
PJ1/2
  7
CONVERTER_2
 73
     1
 44
1.32052821128451
  0
MTEXT
  5
2E0
330
1F
100
AcDbEntity
  8
1
 62
     7
100
AcDbMText
 10
140.625
 20
25.5
 30
0.0
 40
5.25
 41
0.0
 71
     5
 72
     1
  1
1,5
  7
CONVERTER_2
 73
     1
 44
1.32052821128451
  0
MTEXT
  5
2E1
330
1F
100
AcDbEntity
  8
1
 62
     7
100
AcDbMText
 10
127.875
 20
25.5
 30
0.0
 40
5.25
 41
0.0
 71
     5
 72
     1
  1
1
  7
CONVERTER_2
 73
     1
 44
1.32052821128451
  0
MTEXT
  5
2E2
330
1F
100
AcDbEntity
  8
1
 62
     7
100
AcDbMText
 10
85.5
 20
21.375
 30
0.0
 40
5.25
 41
0.0
 71
     5
 72
     1
  1
Y12J-13
  7
CONVERTER_2
 73
     1
 44
0.90036014405762
  0
MTEXT
  5
2E3
330
1F
100
AcDbEntity
  8
1
 62
     7
100
AcDbMText
 10
85.5
 20
34.12500000000001
 30
0.0
 40
5.25
 41
0.0
 71
     5
 72
     1
  1
万能ホーム水栓
  7
CONVERTER_1
 73
     1
 44
1.32052821128451
  0
MTEXT
  5
2E4
330
1F
100
AcDbEntity
  8
1
 62
     7
100
AcDbMText
 10
51.0
 20
51.00000000000001
 30
0.0
 40
5.25
 41
0.0
 71
     4
 72
     1
  1
JIS
  7
CONVERTER_2
 73
     1
 44
0.7202881152461
  0
DIMENSION
  5
2F0
330
1F
100
AcDbEntity
  8
0
100
AcDbDimension
  2
*D013
 10
111.5526955953671
 20
83.96419363790294
 30
0.0
 11
100.0178062976501
 21
94.18407147284651
 31
0.0
 70
     1
  1
<>
 71
     5
 42
0.0
 53
-25.00000000000026
  3
ME10_DIM_0
100
AcDbAlignedDimension
 13
139.6095557714804
 23
105.3266184896458
 33
0.0
 14
124.7461080640794
 24
112.2575579821933
 34
0.0
  0
DIMENSION
  5
2FB
330
1F
100
AcDbEntity
  8
0
100
AcDbDimension
  2
*D114
 10
130.8177307778073
 20
87.6666482938906
 30
0.0
 11
169.324395835794
 21
91.7916482938906
 31
0.0
  1
78
 71
     5
 42
0.0
 53
0.00013888888889
  3
ME10_DIM_1
100
AcDbAlignedDimension
 13
206.0677307778072
 23
129.9220056578701
 33
0.0
 14
130.8177307778073
 24
105.8753419286554
 34
0.0
100
AcDbRotatedDimension
  0
DIMENSION
  5
306
330
1F
100
AcDbEntity
  8
0
100
AcDbDimension
  2
*D215
 10
206.0677307778073
 20
87.6666482938906
 30
0.0
 11
229.848047928682
 21
91.7916482938906
 31
0.0
  1
<>
 71
     5
 42
0.0
 53
0.00013888888889
  3
ME10_DIM_2
100
AcDbAlignedDimension
 13
251.0677307778072
 23
122.8753419286555
 33
0.0
 14
206.0677307778072
 24
129.9220056578701
 34
0.0
100
AcDbRotatedDimension
  0
DIMENSION
  5
311
330
1F
100
AcDbEntity
  8
1
100
AcDbDimension
  2
*D316
 10
113.4366650722591
 20
145.8753419286554
 30
0.0
 11
109.3116650722591
 21
171.5804765606139
 31
0.0
  1
58リフト5
 71
     5
 42
0.0
 53
90.0
  3
ME10_DIM_3
100
AcDbAlignedDimension
 13
206.0677307778072
 23
203.3753419286555
 33
0.0
 14
167.494137649
 24
145.8753419286554
 34
0.0
 50
90.0
100
AcDbRotatedDimension
  0
DIMENSION
  5
31F
330
1F
100
AcDbEntity
  8
0
100
AcDbDimension
  2
*D417
 10
251.0677307778072
 20
87.6666482938906
 30
0.0
 11
256.902399325041
 21
91.7916482938906
 31
0.0
  1
<>
 71
     5
 42
0.0
 53
0.00013888888889
  3
ME10_DIM_4
100
AcDbAlignedDimension
 13
265.0677307778071
 23
136.3753419286554
 33
0.0
 14
251.0677307778072
 24
122.8753419286555
 34
0.0
100
AcDbRotatedDimension
  0
DIMENSION
  5
32A
330
1F
100
AcDbEntity
  8
0
100
AcDbDimension
  2
*D519
 10
280.0677307778071
 20
168.8753419286554
 30
0.0
 11
275.9427307778071
 21
145.8753419286554
 31
0.0
  1
<>
 71
     5
 42
0.0
 53
90.0
  3
ME10_DIM_5
100
AcDbAlignedDimension
 13
251.0677307778072
 23
122.8753419286555
 33
0.0
 14
251.0677307778072
 24
168.8753419286554
 34
0.0
 50
90.0
100
AcDbRotatedDimension
  0
DIMENSION
  5
335
330
1F
100
AcDbEntity
  8
0
100
AcDbDimension
  2
*D620
 10
113.4366650722591
 20
145.8753419286554
 30
0.0
 11
109.3116650722591
 21
123.4708826444679
 31
0.0
  1
<>
 71
     5
 42
0.0
 53
90.0
  3
ME10_DIM_6
100
AcDbAlignedDimension
 13
130.8177307778073
 23
105.8753419286554
 33
0.0
 14
168.582144928232
 24
145.8753419286554
 34
0.0
 50
90.0
100
AcDbRotatedDimension
  0
DIMENSION
  5
341
330
1F
100
AcDbEntity
  8
1
100
AcDbDimension
  2
*D721
 10
162.6461307753123
 20
131.8753419286555
 30
0.0
 11
158.5211307753123
 21
168.4893663140911
 31
0.0
  1
<>
 71
     5
 42
0.0
 53
90.0
  3
ME10_DIM_7
100
AcDbAlignedDimension
 13
173.3545535280942
 23
159.8753419286554
 33
0.0
 14
173.3545535280942
 24
131.8753419286554
 34
0.0
 50
90.0
100
AcDbRotatedDimension
  0
DIMENSION
  5
34E
330
1F
100
AcDbEntity
  8
0
100
AcDbDimension
  2
*D822
 10
121.6823006952305
 20
64.66807977055892
 30
0.0
 11
123.3813292396581
 21
68.52569507423966
 31
0.0
 70
     5
  1
<>
 71
     5
 42
0.0
  3
ME10_DIM_8
100
AcDb3PointAngularDimension
 13
129.9724942543259
 23
104.0627263545821
 33
0.0
 14
130.8177307778073
 24
105.3753419286554
 34
0.0
 15
130.8177307778073
 25
105.8753419286554
 35
0.0
  0
ENDSEC
  0
SECTION
  2
OBJECTS
  0
DICTIONARY
  5
C
330
0
100
AcDbDictionary
281
     1
  3
ACAD_GROUP
350
D
  3
ACAD_LAYOUT
350
1A
  3
ACAD_MLINESTYLE
350
17
  3
ACAD_PLOTSETTINGS
350
19
  3
ACAD_PLOTSTYLENAME
350
E
  3
ACAD_TABLESTYLE
350
2A
  3
AcDbVariableDictionary
350
2C
  0
DICTIONARY
  5
D
102
{ACAD_REACTORS
330
C
102
}
330
C
100
AcDbDictionary
281
     1
  0
DICTIONARY
  5
1A
102
{ACAD_REACTORS
330
C
102
}
330
C
100
AcDbDictionary
281
     1
  3
Layout1
350
1E
  3
Layout2
350
26
  3
Model
350
22
  0
DICTIONARY
  5
17
102
{ACAD_REACTORS
330
C
102
}
330
C
100
AcDbDictionary
281
     1
  3
Standard
350
18
  0
DICTIONARY
  5
19
102
{ACAD_REACTORS
330
C
102
}
330
C
100
AcDbDictionary
281
     1
  0
ACDBDICTIONARYWDFLT
  5
E
102
{ACAD_REACTORS
330
C
102
}
330
C
100
AcDbDictionary
281
     1
  3
Normal
350
F
100
AcDbDictionaryWithDefault
340
F
  0
DICTIONARY
  5
2A
102
{ACAD_REACTORS
330
C
102
}
330
C
100
AcDbDictionary
281
     1
  3
Standard
350
2B
  0
DICTIONARY
  5
2C
102
{ACAD_REACTORS
330
C
102
}
330
C
100
AcDbDictionary
281
     1
  3
CTABLESTYLE
350
2D
  0
LAYOUT
  5
1E
102
{ACAD_REACTORS
330
1A
102
}
330
1A
100
AcDbPlotSettings
  1

  2

  4

  6

 40
0.0
 41
0.0
 42
0.0
 43
0.0
 44
0.0
 45
0.0
 46
0.0
 47
0.0
 48
0.0
 49
0.0
140
0.0
141
0.0
142
1.0
143
1.0
 70
   688
 72
     0
 73
     0
 74
     5
  7

 75
    16
147
1.0
148
0.0
149
0.0
100
AcDbLayout
  1
Layout1
 70
     1
 71
     1
 10
0.0
 20
0.0
 11
12.0
 21
9.0
 12
0.0
 22
0.0
 32
0.0
 14
1.00000000000000E+20
 24
1.00000000000000E+20
 34
1.00000000000000E+20
 15
-1.00000000000000E+20
 25
-1.00000000000000E+20
 35
-1.00000000000000E+20
146
0.0
 13
0.0
 23
0.0
 33
0.0
 16
1.0
 26
0.0
 36
0.0
 17
0.0
 27
1.0
 37
0.0
 76
     0
330
1B
  0
LAYOUT
  5
26
102
{ACAD_REACTORS
330
1A
102
}
330
1A
100
AcDbPlotSettings
  1

  2

  4

  6

 40
0.0
 41
0.0
 42
0.0
 43
0.0
 44
0.0
 45
0.0
 46
0.0
 47
0.0
 48
0.0
 49
0.0
140
0.0
141
0.0
142
1.0
143
1.0
 70
   688
 72
     0
 73
     0
 74
     5
  7

 75
    16
147
1.0
148
0.0
149
0.0
100
AcDbLayout
  1
Layout2
 70
     1
 71
     2
 10
0.0
 20
0.0
 11
0.0
 21
0.0
 12
0.0
 22
0.0
 32
0.0
 14
0.0
 24
0.0
 34
0.0
 15
0.0
 25
0.0
 35
0.0
146
0.0
 13
0.0
 23
0.0
 33
0.0
 16
1.0
 26
0.0
 36
0.0
 17
0.0
 27
1.0
 37
0.0
 76
     0
330
23
  0
LAYOUT
  5
22
102
{ACAD_REACTORS
330
1A
102
}
330
1A
100
AcDbPlotSettings
  1

  2

  4

  6

 40
0.0
 41
0.0
 42
0.0
 43
0.0
 44
0.0
 45
0.0
 46
0.0
 47
0.0
 48
0.0
 49
0.0
140
0.0
141
0.0
142
1.0
143
1.0
 70
  1712
 72
     0
 73
     0
 74
     0
  7

 75
     0
147
1.0
148
0.0
149
0.0
100
AcDbLayout
  1
Model
 70
     1
 71
     0
 10
0.0
 20
0.0
 11
0.0
 21
0.0
 12
0.0
 22
0.0
 32
0.0
 14
0.0
 24
0.0
 34
0.0
 15
315.0
 25
445.5
 35
0.0
146
0.0
 13
0.0
 23
0.0
 33
0.0
 16
1.0
 26
0.0
 36
0.0
 17
0.0
 27
1.0
 37
0.0
 76
     0
330
1F
  0
MLINESTYLE
  5
18
102
{ACAD_REACTORS
330
17
102
}
330
17
100
AcDbMlineStyle
  2
Standard
 70
     0
  3

 62
   256
 51
90.0
 52
90.0
 71
     2
 49
0.5
 62
   256
  6
BYLAYER
 49
-0.5
 62
   256
  6
BYLAYER
  0
ACDBPLACEHOLDER
  5
F
102
{ACAD_REACTORS
330
E
102
}
330
E
  0
TABLESTYLE
  5
2B
102
{ACAD_REACTORS
330
2A
102
}
330
2A
100
AcDbTableStyle
  3
Standard
 70
     0
 71
     0
 40
0.06
 41
0.06
280
     0
281
     0
  7
Standard
140
0.18
170
     2
 62
     0
 63
     7
283
     0
274
    -2
284
     1
 64
     0
275
    -2
285
     1
 65
     0
276
    -2
286
     1
 66
     0
277
    -2
287
     1
 67
     0
278
    -2
288
     1
 68
     0
279
    -2
289
     1
 69
     0
  7
Standard
140
0.25
170
     5
 62
     0
 63
     7
283
     0
274
    -2
284
     1
 64
     0
275
    -2
285
     1
 65
     0
276
    -2
286
     1
 66
     0
277
    -2
287
     1
 67
     0
278
    -2
288
     1
 68
     0
279
    -2
289
     1
 69
     0
  7
Standard
140
0.18
170
     5
 62
     0
 63
     7
283
     0
274
    -2
284
     1
 64
     0
275
    -2
285
     1
 65
     0
276
    -2
286
     1
 66
     0
277
    -2
287
     1
 67
     0
278
    -2
288
     1
 68
     0
279
    -2
289
     1
 69
     0
  0
DICTIONARYVAR
  5
2D
102
{ACAD_REACTORS
330
2C
102
}
330
2C
100
DictionaryVariables
280
     0
  1
Standard
  0
ENDSEC
  0
EOF
