  0
SECTION
  2
HEADER
  9
$ACADVER
  1
AC1015
  9
$ACADMAINTVER
 70
     6
  9
$DWGCODEPAGE
  3
ANSI_932
  9
$INSBASE
 10
0.0
 20
0.0
 30
0.0
  9
$EXTMIN
 10
0.0
 20
0.0
 30
0.0
  9
$EXTMAX
 10
315.0
 20
445.5
 30
0.0
  9
$LIMMIN
 10
0.0
 20
0.0
  9
$LIMMAX
 10
12.0
 20
9.0
  9
$ORTHOMODE
 70
     0
  9
$REGENMODE
 70
     1
  9
$FILLMODE
 70
     1
  9
$QTEXTMODE
 70
     0
  9
$MIRRTEXT
 70
     1
  9
$LTSCALE
 40
1.0
  9
$ATTMODE
 70
     1
  9
$TEXTSIZE
 40
0.2
  9
$TRACEWID
 40
0.05
  9
$TEXTSTYLE
  7
Standard
  9
$CLAYER
  8
0
  9
$CELTYPE
  6
ByLayer
  9
$CECOLOR
 62
   256
  9
$CELTSCALE
 40
1.0
  9
$DISPSILH
 70
     0
  9
$DIMSCALE
 40
1.0
  9
$DIMASZ
 40
0.18
  9
$DIMEXO
 40
0.0625
  9
$DIMDLI
 40
0.38
  9
$DIMRND
 40
0.0
  9
$DIMDLE
 40
0.0
  9
$DIMEXE
 40
0.18
  9
$DIMTP
 40
0.0
  9
$DIMTM
 40
0.0
  9
$DIMTXT
 40
0.18
  9
$DIMCEN
 40
0.09
  9
$DIMTSZ
 40
0.0
  9
$DIMTOL
 70
     0
  9
$DIMLIM
 70
     0
  9
$DIMTIH
 70
     1
  9
$DIMTOH
 70
     1
  9
$DIMSE1
 70
     0
  9
$DIMSE2
 70
     0
  9
$DIMTAD
 70
     0
  9
$DIMZIN
 70
     0
  9
$DIMBLK
  1

  9
$DIMASO
 70
     1
  9
$DIMSHO
 70
     1
  9
$DIMPOST
  1

  9
$DIMAPOST
  1

  9
$DIMALT
 70
     0
  9
$DIMALTD
 70
     2
  9
$DIMALTF
 40
25.4
  9
$DIMLFAC
 40
1.0
  9
$DIMTOFL
 70
     0
  9
$DIMTVP
 40
0.0
  9
$DIMTIX
 70
     0
  9
$DIMSOXD
 70
     0
  9
$DIMSAH
 70
     0
  9
$DIMBLK1
  1

  9
$DIMBLK2
  1

  9
$DIMSTYLE
  2
Standard
  9
$DIMCLRD
 70
     0
  9
$DIMCLRE
 70
     0
  9
$DIMCLRT
 70
     0
  9
$DIMTFAC
 40
1.0
  9
$DIMGAP
 40
0.09
  9
$DIMJUST
 70
     0
  9
$DIMSD1
 70
     0
  9
$DIMSD2
 70
     0
  9
$DIMTOLJ
 70
     1
  9
$DIMTZIN
 70
     0
  9
$DIMALTZ
 70
     0
  9
$DIMALTTZ
 70
     0
  9
$DIMUPT
 70
     0
  9
$DIMDEC
 70
     4
  9
$DIMTDEC
 70
     4
  9
$DIMALTU
 70
     2
  9
$DIMALTTD
 70
     2
  9
$DIMTXSTY
  7
Standard
  9
$DIMAUNIT
 70
     0
  9
$DIMADEC
 70
     0
  9
$DIMALTRND
 40
0.0
  9
$DIMAZIN
 70
     0
  9
$DIMDSEP
 70
    46
  9
$DIMATFIT
 70
     3
  9
$DIMFRAC
 70
     0
  9
$DIMLDRBLK
  1

  9
$DIMLUNIT
 70
     2
  9
$DIMLWD
 70
    -2
  9
$DIMLWE
 70
    -2
  9
$DIMTMOVE
 70
     0
  9
$LUNITS
 70
     2
  9
$LUPREC
 70
     4
  9
$SKETCHINC
 40
0.1
  9
$FILLETRAD
 40
0.5
  9
$AUNITS
 70
     0
  9
$AUPREC
 70
     0
  9
$MENU
  1
.
  9
$ELEVATION
 40
0.0
  9
$PELEVATION
 40
0.0
  9
$THICKNESS
 40
0.0
  9
$LIMCHECK
 70
     0
  9
$CHAMFERA
 40
0.5
  9
$CHAMFERB
 40
0.5
  9
$CHAMFERC
 40
1.0
  9
$CHAMFERD
 40
0.0
  9
$SKPOLY
 70
     0
  9
$TDCREATE
 40
2456570.465093958
  9
$TDUCREATE
 40
2456570.090093958
  9
$TDUPDATE
 40
2456570.46509522
  9
$TDUUPDATE
 40
2456570.09009522
  9
$TDINDWG
 40
0.0000000116
  9
$TDUSRTIMER
 40
0.0000000116
  9
$USRTIMER
 70
     1
  9
$ANGBASE
 50
0.0
  9
$ANGDIR
 70
     0
  9
$PDMODE
 70
     0
  9
$PDSIZE
 40
0.0
  9
$PLINEWID
 40
0.0
  9
$SPLFRAME
 70
     0
  9
$SPLINETYPE
 70
     6
  9
$SPLINESEGS
 70
     8
  9
$HANDSEED
  5
33E
  9
$SURFTAB1
 70
     6
  9
$SURFTAB2
 70
     6
  9
$SURFTYPE
 70
     6
  9
$SURFU
 70
     6
  9
$SURFV
 70
     6
  9
$UCSBASE
  2

  9
$UCSNAME
  2

  9
$UCSORG
 10
0.0
 20
0.0
 30
0.0
  9
$UCSXDIR
 10
1.0
 20
0.0
 30
0.0
  9
$UCSYDIR
 10
0.0
 20
1.0
 30
0.0
  9
$UCSORTHOREF
  2

  9
$UCSORTHOVIEW
 70
     0
  9
$UCSORGTOP
 10
0.0
 20
0.0
 30
0.0
  9
$UCSORGBOTTOM
 10
0.0
 20
0.0
 30
0.0
  9
$UCSORGLEFT
 10
0.0
 20
0.0
 30
0.0
  9
$UCSORGRIGHT
 10
0.0
 20
0.0
 30
0.0
  9
$UCSORGFRONT
 10
0.0
 20
0.0
 30
0.0
  9
$UCSORGBACK
 10
0.0
 20
0.0
 30
0.0
  9
$PUCSBASE
  2

  9
$PUCSNAME
  2

  9
$PUCSORG
 10
0.0
 20
0.0
 30
0.0
  9
$PUCSXDIR
 10
1.0
 20
0.0
 30
0.0
  9
$PUCSYDIR
 10
0.0
 20
1.0
 30
0.0
  9
$PUCSORTHOREF
  2

  9
$PUCSORTHOVIEW
 70
     0
  9
$PUCSORGTOP
 10
0.0
 20
0.0
 30
0.0
  9
$PUCSORGBOTTOM
 10
0.0
 20
0.0
 30
0.0
  9
$PUCSORGLEFT
 10
0.0
 20
0.0
 30
0.0
  9
$PUCSORGRIGHT
 10
0.0
 20
0.0
 30
0.0
  9
$PUCSORGFRONT
 10
0.0
 20
0.0
 30
0.0
  9
$PUCSORGBACK
 10
0.0
 20
0.0
 30
0.0
  9
$USERI1
 70
     0
  9
$USERI2
 70
     0
  9
$USERI3
 70
     0
  9
$USERI4
 70
     0
  9
$USERI5
 70
     0
  9
$USERR1
 40
18.1
  9
$USERR2
 40
0.0
  9
$USERR3
 40
0.0
  9
$USERR4
 40
0.0
  9
$USERR5
 40
0.0
  9
$WORLDVIEW
 70
     1
  9
$SHADEDGE
 70
     3
  9
$SHADEDIF
 70
    70
  9
$TILEMODE
 70
     1
  9
$MAXACTVP
 70
    64
  9
$PINSBASE
 10
0.0
 20
0.0
 30
0.0
  9
$PLIMCHECK
 70
     0
  9
$PEXTMIN
 10
1.00000000000000E+20
 20
1.00000000000000E+20
 30
1.00000000000000E+20
  9
$PEXTMAX
 10
-1.00000000000000E+20
 20
-1.00000000000000E+20
 30
-1.00000000000000E+20
  9
$PLIMMIN
 10
0.0
 20
0.0
  9
$PLIMMAX
 10
12.0
 20
9.0
  9
$UNITMODE
 70
     0
  9
$VISRETAIN
 70
     1
  9
$PLINEGEN
 70
     0
  9
$PSLTSCALE
 70
     1
  9
$TREEDEPTH
 70
  3020
  9
$CMLSTYLE
  2
Standard
  9
$CMLJUST
 70
     0
  9
$CMLSCALE
 40
1.0
  9
$PROXYGRAPHICS
 70
     1
  9
$MEASUREMENT
 70
     1
  9
$CELWEIGHT
370
    -1
  9
$ENDCAPS
280
     0
  9
$JOINSTYLE
280
     0
  9
$LWDISPLAY
290
     0
  9
$INSUNITS
 70
     4
  9
$HYPERLINKBASE
  1

  9
$STYLESHEET
  1

  9
$XEDIT
290
     1
  9
$CEPSNTYPE
380
     0
  9
$PSTYLEMODE
290
     1
  9
$FINGERPRINTGUID
  2
{8EC616A2-FFAF-4514-9AE3-F6D534F76746}
  9
$VERSIONGUID
  2
{FAEB1C32-E019-11D5-929B-00C0DF256EC4}
  9
$EXTNAMES
290
     1
  9
$PSVPSCALE
 40
0.0
  9
$OLESTARTUP
290
     0
  0
ENDSEC
  0
SECTION
  2
CLASSES
  0
CLASS
  1
ACDBDICTIONARYWDFLT
  2
AcDbDictionaryWithDefault
  3
ObjectDBX Classes
 90
        0
280
     0
281
     0
  0
CLASS
  1
VISUALSTYLE
  2
AcDbVisualStyle
  3
ObjectDBX Classes
 90
     4095
280
     0
281
     0
  0
CLASS
  1
MATERIAL
  2
AcDbMaterial
  3
ObjectDBX Classes
 90
     1153
280
     0
281
     0
  0
CLASS
  1
DICTIONARYVAR
  2
AcDbDictionaryVar
  3
ObjectDBX Classes
 90
        0
280
     0
281
     0
  0
CLASS
  1
ACDBPLACEHOLDER
  2
AcDbPlaceHolder
  3
ObjectDBX Classes
 90
        0
280
     0
281
     0
  0
CLASS
  1
LAYOUT
  2
AcDbLayout
  3
ObjectDBX Classes
 90
        0
280
     0
281
     0
  0
ENDSEC
  0
SECTION
  2
TABLES
  0
TABLE
  2
VPORT
  5
8
330
0
100
AcDbSymbolTable
 70
     1
  0
VPORT
  5
29
330
8
100
AcDbSymbolTableRecord
100
AcDbViewportTableRecord
  2
*Active
 70
     0
 10
0.0
 20
0.0
 11
1.0
 21
1.0
 12
157.5
 22
222.75
 13
0.0
 23
0.0
 14
0.5
 24
0.5
 15
0.5
 25
0.5
 16
0.0
 26
0.0
 36
1.0
 17
0.0
 27
0.0
 37
0.0
 40
490.05
 41
1.60267857142857
 42
50.0
 43
0.0
 44
0.0
 50
0.0
 51
0.0
 71
     0
 72
   100
 73
     1
 74
     3
 75
     0
 76
     0
 77
     0
 78
     0
281
     0
 65
     1
110
0.0
120
0.0
130
0.0
111
1.0
121
0.0
131
0.0
112
0.0
122
1.0
132
0.0
 79
     0
146
0.0
  0
ENDTAB
  0
TABLE
  2
LTYPE
  5
5
330
0
100
AcDbSymbolTable
 70
     8
  0
LTYPE
  5
14
330
5
100
AcDbSymbolTableRecord
100
AcDbLinetypeTableRecord
  2
ByBlock
 70
     0
  3

 72
    65
 73
     0
 40
0.0
  0
LTYPE
  5
15
330
5
100
AcDbSymbolTableRecord
100
AcDbLinetypeTableRecord
  2
ByLayer
 70
     0
  3

 72
    65
 73
     0
 40
0.0
  0
LTYPE
  5
16
330
5
100
AcDbSymbolTableRecord
100
AcDbLinetypeTableRecord
  2
Continuous
 70
     0
  3
Solid line
 72
    65
 73
     0
 40
0.0
  0
LTYPE
  5
3F
330
5
100
AcDbSymbolTableRecord
100
AcDbLinetypeTableRecord
  2
DASHED
 70
     0
  3
Dashed
 72
    65
 73
     2
 40
15.0
 49
7.0
 74
     0
 49
-8.0
 74
     0
  0
LTYPE
  5
40
330
5
100
AcDbSymbolTableRecord
100
AcDbLinetypeTableRecord
  2
DOTTED
 70
     0
  3
Dotted
 72
    65
 73
     2
 40
1.0
 49
0.0
 74
     0
 49
-1.0
 74
     0
  0
LTYPE
  5
41
330
5
100
AcDbSymbolTableRecord
100
AcDbLinetypeTableRecord
  2
DOT_CENTER
 70
     0
  3
Dot_Center
 72
    65
 73
     4
 40
14.0
 49
12.0
 74
     0
 49
-1.0
 74
     0
 49
0.0
 74
     0
 49
-1.0
 74
     0
  0
LTYPE
  5
42
330
5
100
AcDbSymbolTableRecord
100
AcDbLinetypeTableRecord
  2
LONG_DASHED
 70
     0
  3
Long_Dashed
 72
    65
 73
     2
 40
15.0
 49
10.0
 74
     0
 49
-5.0
 74
     0
  0
LTYPE
  5
43
330
5
100
AcDbSymbolTableRecord
100
AcDbLinetypeTableRecord
  2
DASH_CENTER
 70
     0
  3
Dash_Center
 72
    65
 73
     4
 40
14.0
 49
11.0
 74
     0
 49
-1.0
 74
     0
 49
1.0
 74
     0
 49
-1.0
 74
     0
  0
LTYPE
  5
44
330
5
100
AcDbSymbolTableRecord
100
AcDbLinetypeTableRecord
  2
PHANTOM
 70
     0
  3
Phantom
 72
    65
 73
     6
 40
13.0
 49
10.0
 74
     0
 49
-1.0
 74
     0
 49
0.0
 74
     0
 49
-1.0
 74
     0
 49
0.0
 74
     0
 49
-1.0
 74
     0
  0
LTYPE
  5
45
330
5
100
AcDbSymbolTableRecord
100
AcDbLinetypeTableRecord
  2
CENTER_DASH_DASH
 70
     0
  3
Center_Dash_Dash
 72
    65
 73
     6
 40
14.0
 49
9.0
 74
     0
 49
-1.0
 74
     0
 49
1.0
 74
     0
 49
-1.0
 74
     0
 49
1.0
 74
     0
 49
-1.0
 74
     0
  0
ENDTAB
  0
TABLE
  2
LAYER
  5
2
330
0
100
AcDbSymbolTable
 70
     3
  0
LAYER
  5
10
330
2
100
AcDbSymbolTableRecord
100
AcDbLayerTableRecord
  2
0
 70
     0
 62
     7
  6
Continuous
370
    -3
390
F
  0
LAYER
  5
46
330
2
100
AcDbSymbolTableRecord
100
AcDbLayerTableRecord
  2
1
 70
     0
 62
     7
  6
Continuous
370
    -3
390
F
  0
LAYER
  5
47
330
2
100
AcDbSymbolTableRecord
100
AcDbLayerTableRecord
  2
_______C____
 70
     0
 62
     7
  6
Continuous
370
    -3
390
F
  0
ENDTAB
  0
TABLE
  2
STYLE
  5
3
330
0
100
AcDbSymbolTable
 70
     3
  0
STYLE
  5
11
330
3
100
AcDbSymbolTableRecord
100
AcDbTextStyleTableRecord
  2
Standard
 70
     0
 40
0.0
 41
1.0
 50
0.0
 71
     0
 42
0.2
  3
txt
  4

  0
STYLE
  5
285
330
3
100
AcDbSymbolTableRecord
100
AcDbTextStyleTableRecord
  2
CONVERTER_11
 70
     0
 40
0.0
 41
0.89
 50
0.0
 71
     0
 42
0.2
  3
MS Mincho.ttf
  4

1001
ACAD
1000
MS Mincho
1071
    32785
  0
STYLE
  5
2A2
330
3
100
AcDbSymbolTableRecord
100
AcDbTextStyleTableRecord
  2
CONVERTER_12
 70
     0
 40
0.0
 41
0.9
 50
0.0
 71
     0
 42
0.2
  3
txt.shx
  4

  0
ENDTAB
  0
TABLE
  2
VIEW
  5
6
330
0
100
AcDbSymbolTable
 70
     0
  0
ENDTAB
  0
TABLE
  2
UCS
  5
7
330
0
100
AcDbSymbolTable
 70
     0
  0
ENDTAB
  0
TABLE
  2
APPID
  5
9
330
0
100
AcDbSymbolTable
 70
     1
  0
APPID
  5
12
330
9
100
AcDbSymbolTableRecord
100
AcDbRegAppTableRecord
  2
ACAD
 70
     0
  0
ENDTAB
  0
TABLE
  2
DIMSTYLE
  5
A
330
0
100
AcDbSymbolTable
 70
    10
100
AcDbDimStyleTable
  0
DIMSTYLE
105
27
330
A
100
AcDbSymbolTableRecord
100
AcDbDimStyleTableRecord
  2
Standard
 70
     0
178
     0
340
11
  0
DIMSTYLE
105
2B3
102
{ACAD_REACTORS
330
2B4
102
}
330
A
100
AcDbSymbolTableRecord
100
AcDbDimStyleTableRecord
  2
ME10_DIM_10
 70
     0
 41
5.25
 42
0.0
 44
1.5
 73
     0
 74
     0
 77
     1
 78
     8
140
5.25
147
1.5
172
     1
173
     1
174
     1
175
     1
176
     2
177
     2
271
     2
178
     7
271
     2
340
2A2
  0
DIMSTYLE
105
2BE
102
{ACAD_REACTORS
330
2BF
102
}
330
A
100
AcDbSymbolTableRecord
100
AcDbDimStyleTableRecord
  2
ME10_DIM_11
 70
     0
 41
5.25
 42
0.0
 44
1.5
 73
     0
 74
     0
 77
     1
 78
     8
140
5.25
147
1.5
172
     1
173
     1
174
     1
175
     1
176
     2
177
     2
271
     2
178
     7
271
     2
340
2A2
  0
DIMSTYLE
105
2CC
102
{ACAD_REACTORS
330
2CD
102
}
330
A
100
AcDbSymbolTableRecord
100
AcDbDimStyleTableRecord
  2
ME10_DIM_12
 70
     0
 41
5.25
 42
0.0
 44
1.5
 73
     0
 74
     0
 77
     1
 78
     8
140
5.25
147
1.5
172
     1
173
     1
174
     1
175
     1
176
     2
177
     2
271
     2
178
     7
271
     2
340
2A2
344
2C9
  0
DIMSTYLE
105
2D7
102
{ACAD_REACTORS
330
2D8
102
}
330
A
100
AcDbSymbolTableRecord
100
AcDbDimStyleTableRecord
  2
ME10_DIM_13
 70
     0
 41
5.25
 42
0.0
 44
1.5
 73
     0
 74
     0
 77
     1
 78
     8
140
5.25
147
1.5
172
     1
173
     1
174
     1
175
     1
176
     2
177
     2
271
     2
178
     7
271
     2
340
2A2
  0
DIMSTYLE
105
2E2
102
{ACAD_REACTORS
330
2E3
102
}
330
A
100
AcDbSymbolTableRecord
100
AcDbDimStyleTableRecord
  2
ME10_DIM_14
 70
     0
 41
5.25
 42
0.0
 44
1.5
 73
     0
 74
     0
 77
     1
 78
     8
140
5.25
147
1.5
172
     1
173
     1
174
     1
175
     1
176
     2
177
     2
271
     2
178
     7
271
     2
340
285
  0
DIMSTYLE
105
2ED
102
{ACAD_REACTORS
330
2EE
102
}
330
A
100
AcDbSymbolTableRecord
100
AcDbDimStyleTableRecord
  2
ME10_DIM_15
 70
     0
  3
{\Fgdt;n}<>
 41
5.25
 42
0.0
 44
1.5
 73
     0
 74
     0
 77
     1
 78
     8
140
5.25
147
1.5
172
     1
173
     1
174
     1
175
     1
176
     2
177
     2
271
     2
178
     7
271
     2
340
2A2
  0
DIMSTYLE
105
2F9
102
{ACAD_REACTORS
330
2FA
102
}
330
A
100
AcDbSymbolTableRecord
100
AcDbDimStyleTableRecord
  2
ME10_DIM_16
 70
     0
  3
{\Fgdt;n}<>
 41
5.25
 42
0.0
 44
1.5
 73
     0
 74
     0
 77
     1
 78
     8
140
5.25
147
1.5
172
     1
173
     1
174
     1
175
     1
176
     2
177
     2
271
     2
178
     7
271
     2
340
2A2
  0
DIMSTYLE
105
304
102
{ACAD_REACTORS
330
305
102
}
330
A
100
AcDbSymbolTableRecord
100
AcDbDimStyleTableRecord
  2
ME10_DIM_17
 70
     0
 41
5.25
 42
0.0
 44
1.5
 73
     0
 74
     0
 77
     1
 78
     8
140
5.25
147
1.5
172
     1
173
     1
174
     1
175
     1
176
     2
177
     2
271
     2
178
     7
271
     2
340
2A2
  0
DIMSTYLE
105
311
102
{ACAD_REACTORS
330
312
102
}
330
A
100
AcDbSymbolTableRecord
100
AcDbDimStyleTableRecord
  2
ME10_DIM_18
 70
     0
 41
5.25
 42
0.0
 44
1.5
 73
     0
 74
     0
 77
     1
 78
     8
140
5.25
147
1.5
172
     1
173
     1
174
     1
175
     1
176
     2
177
     2
271
     2
178
     7
271
     2
340
2A2
  0
ENDTAB
  0
TABLE
  2
BLOCK_RECORD
  5
1
330
0
100
AcDbSymbolTable
 70
    21
  0
BLOCK_RECORD
  5
1F
330
1
100
AcDbSymbolTableRecord
100
AcDbBlockTableRecord
  2
*Model_Space
340
22
  0
BLOCK_RECORD
  5
1B
330
1
100
AcDbSymbolTableRecord
100
AcDbBlockTableRecord
  2
*Paper_Space
340
1E
  0
BLOCK_RECORD
  5
23
330
1
100
AcDbSymbolTableRecord
100
AcDbBlockTableRecord
  2
*Paper_Space0
340
26
  0
BLOCK_RECORD
  5
48
330
1
100
AcDbSymbolTableRecord
100
AcDbBlockTableRecord
  2
75-2
340
0
102
{BLKREFS
331
67
102
}
  0
BLOCK_RECORD
  5
4B
330
1
100
AcDbSymbolTableRecord
100
AcDbBlockTableRecord
  2
32-1-16
340
0
102
{BLKREFS
331
68
102
}
  0
BLOCK_RECORD
  5
4E
330
1
100
AcDbSymbolTableRecord
100
AcDbBlockTableRecord
  2
36-54-M11
340
0
102
{BLKREFS
331
69
102
}
  0
BLOCK_RECORD
  5
51
330
1
100
AcDbSymbolTableRecord
100
AcDbBlockTableRecord
  2
37-1-13
340
0
102
{BLKREFS
331
6A
102
}
  0
BLOCK_RECORD
  5
54
330
1
100
AcDbSymbolTableRecord
100
AcDbBlockTableRecord
  2
62-1B-M2
340
0
102
{BLKREFS
331
6B
102
}
  0
BLOCK_RECORD
  5
57
330
1
100
AcDbSymbolTableRecord
100
AcDbBlockTableRecord
  2
21-9-M1
340
0
102
{BLKREFS
331
6C
102
}
  0
BLOCK_RECORD
  5
5A
330
1
100
AcDbSymbolTableRecord
100
AcDbBlockTableRecord
  2
84-338
340
0
102
{BLKREFS
331
5E
102
}
  0
BLOCK_RECORD
  5
5D
330
1
100
AcDbSymbolTableRecord
100
AcDbBlockTableRecord
  2
84-338X
340
0
102
{BLKREFS
331
6D
102
}
  0
BLOCK_RECORD
  5
61
330
1
100
AcDbSymbolTableRecord
100
AcDbBlockTableRecord
  2
Y12-0B-13
340
0
102
{BLKREFS
331
6E
102
}
  0
BLOCK_RECORD
  5
64
330
1
100
AcDbSymbolTableRecord
100
AcDbBlockTableRecord
  2
開示A4
340
0
102
{BLKREFS
331
6F
102
}
  0
BLOCK_RECORD
  5
2A9
330
1
100
AcDbSymbolTableRecord
100
AcDbBlockTableRecord
  2
*D11
340
0
  0
BLOCK_RECORD
  5
2B5
330
1
100
AcDbSymbolTableRecord
100
AcDbBlockTableRecord
  2
*D12
340
0
  0
BLOCK_RECORD
  5
2C0
330
1
100
AcDbSymbolTableRecord
100
AcDbBlockTableRecord
  2
*D13
340
0
  0
BLOCK_RECORD
  5
2C9
330
1
100
AcDbSymbolTableRecord
100
AcDbBlockTableRecord
  2
_NONE
340
0
  0
BLOCK_RECORD
  5
2CE
330
1
100
AcDbSymbolTableRecord
100
AcDbBlockTableRecord
  2
*D15
340
0
  0
BLOCK_RECORD
  5
2D9
330
1
100
AcDbSymbolTableRecord
100
AcDbBlockTableRecord
  2
*D16
340
0
  0
BLOCK_RECORD
  5
2E4
330
1
100
AcDbSymbolTableRecord
100
AcDbBlockTableRecord
  2
*D17
340
0
  0
BLOCK_RECORD
  5
2EF
330
1
100
AcDbSymbolTableRecord
100
AcDbBlockTableRecord
  2
*D18
340
0
  0
BLOCK_RECORD
  5
2FB
330
1
100
AcDbSymbolTableRecord
100
AcDbBlockTableRecord
  2
*D19
340
0
  0
BLOCK_RECORD
  5
306
330
1
100
AcDbSymbolTableRecord
100
AcDbBlockTableRecord
  2
*D20
340
0
  0
ENDTAB
  0
ENDSEC
  0
SECTION
  2
BLOCKS
  0
BLOCK
  5
20
330
1F
100
AcDbEntity
  8
0
100
AcDbBlockBegin
  2
*Model_Space
 70
     0
 10
0.0
 20
0.0
 30
0.0
  3
*Model_Space
  1

  0
ENDBLK
  5
21
330
1F
100
AcDbEntity
  8
0
100
AcDbBlockEnd
  0
BLOCK
  5
1C
330
1B
100
AcDbEntity
 67
     1
  8
0
100
AcDbBlockBegin
  2
*Paper_Space
 70
     0
 10
0.0
 20
0.0
 30
0.0
  3
*Paper_Space
  1

  0
ENDBLK
  5
1D
330
1B
100
AcDbEntity
 67
     1
  8
0
100
AcDbBlockEnd
  0
BLOCK
  5
24
330
23
100
AcDbEntity
  8
0
100
AcDbBlockBegin
  2
*Paper_Space0
 70
     0
 10
0.0
 20
0.0
 30
0.0
  3
*Paper_Space0
  1

  0
ENDBLK
  5
25
330
23
100
AcDbEntity
  8
0
100
AcDbBlockEnd
  0
BLOCK
  5
49
330
48
100
AcDbEntity
  8
0
100
AcDbBlockBegin
  2
75-2
 70
     0
 10
191.1249847831937
 20
56.63301065802246
 30
0.0
  3
75-2
  1

  0
LINE
  5
70
330
48
100
AcDbEntity
  8
1
  6
Continuous
 62
     7
100
AcDbLine
 10
74.82862544643115
 20
104.1784472348853
 30
0.0
 11
74.95876800945086
 21
104.3085897979049
 31
0.0
  0
LINE
  5
71
330
48
100
AcDbEntity
  8
1
  6
Continuous
 62
     7
100
AcDbLine
 10
76.52004663454906
 20
103.9180775627998
 30
0.0
 11
77.23598348231025
 21
104.634014410561
 31
0.0
  0
LINE
  5
72
330
48
100
AcDbEntity
  8
1
  6
Continuous
 62
     7
100
AcDbLine
 10
77.23598348231025
 20
103.8855957417116
 30
0.0
 11
77.23598348231025
 21
108.1656728258027
 31
0.0
  0
LINE
  5
73
330
48
100
AcDbEntity
  8
1
  6
Continuous
 62
     7
100
AcDbLine
 10
79.03598351355194
 20
104.6337094571561
 30
0.0
 11
79.75161540790825
 21
103.9180775627998
 31
0.0
  0
LINE
  5
74
330
48
100
AcDbEntity
  8
1
  6
Continuous
 62
     7
100
AcDbLine
 10
71.92528721339696
 20
106.890167383816
 30
0.0
 11
73.63829322958125
 21
106.890167383816
 31
0.0
  0
LINE
  5
75
330
48
100
AcDbEntity
  8
1
  6
Continuous
 62
     7
100
AcDbLine
 10
77.23598348231025
 20
108.3855003486012
 30
0.0
 11
76.60347211465296
 21
109.0180117162585
 31
0.0
  0
LINE
  5
76
330
48
100
AcDbEntity
  8
1
  6
Continuous
 62
     7
100
AcDbLine
 10
74.95876800945086
 20
108.7109249612573
 30
0.0
 11
74.89302224210417
 21
108.776670728604
 31
0.0
  0
LINE
  5
77
330
48
100
AcDbEntity
  8
1
  6
Continuous
 62
     7
100
AcDbLine
 10
82.63336881287606
 20
106.890167383816
 30
0.0
 11
84.34637482906035
 21
106.890167383816
 31
0.0
  0
LINE
  5
78
330
48
100
AcDbEntity
  8
1
  6
Continuous
 62
     7
100
AcDbLine
 10
84.34637482906035
 20
106.1293473753463
 30
0.0
 11
82.63336881287606
 21
106.1293473753463
 31
0.0
  0
LINE
  5
79
330
48
100
AcDbEntity
  8
1
  6
Continuous
 62
     7
100
AcDbLine
 10
81.31289403300656
 20
104.3085897979049
 30
0.0
 11
81.44303659602616
 21
104.1784472348853
 31
0.0
  0
LINE
  5
7A
330
48
100
AcDbEntity
  8
1
  6
Continuous
 62
     7
100
AcDbLine
 10
73.63829322958125
 20
106.1293473753463
 30
0.0
 11
71.92598290291346
 21
106.1293473753463
 31
0.0
  0
LINE
  5
7B
330
48
100
AcDbEntity
  8
1
  6
Continuous
 62
     7
100
AcDbLine
 10
81.31289403300656
 20
108.7109249612573
 30
0.0
 11
81.37863980035604
 21
108.7766707286069
 31
0.0
  0
LINE
  5
7C
330
48
100
AcDbEntity
  8
1
  6
Continuous
 62
     7
100
AcDbLine
 10
79.03598351355194
 20
103.8855957417116
 30
0.0
 11
79.03598351355194
 21
108.1656728258027
 31
0.0
  0
LINE
  5
7D
330
48
100
AcDbEntity
  8
1
  6
Continuous
 62
     7
100
AcDbLine
 10
81.04441446206195
 20
107.3249074383024
 30
0.0
 11
81.04441446206195
 21
104.9567568192995
 31
0.0
  0
LINE
  5
7E
330
48
100
AcDbEntity
  8
1
  6
Continuous
 62
     7
100
AcDbLine
 10
75.22724758039536
 20
107.2817912645844
 30
0.0
 11
75.22724758039536
 21
104.9567568192995
 31
0.0
  0
LINE
  5
7F
330
48
100
AcDbEntity
  8
1
  6
Continuous
 62
     7
100
AcDbLine
 10
77.23598348231025
 20
109.0614323170286
 30
0.0
 11
77.23598348231025
 21
108.3855003486012
 31
0.0
  0
LINE
  5
80
330
48
100
AcDbEntity
  8
1
  6
Continuous
 62
     7
100
AcDbLine
 10
79.03598351355194
 20
109.0614169206656
 30
0.0
 11
79.03598351355194
 21
108.3858053020062
 31
0.0
  0
LINE
  5
81
330
48
100
AcDbEntity
  8
1
  6
Continuous
 62
     7
100
AcDbLine
 10
79.66818992780435
 20
109.0180117162585
 30
0.0
 11
79.03598351355194
 21
108.3858053020062
 31
0.0
  0
ARC
  5
82
330
48
100
AcDbEntity
  8
1
  6
Continuous
 62
     7
100
AcDbCircle
 10
74.31060098805625
 20
108.0627579398628
 30
0.0
 40
0.9166465923391882
100
AcDbArc
 50
317.5005082888385
 51
44.99999999999498
  0
ARC
  5
83
330
48
100
AcDbEntity
  8
1
  6
Continuous
 62
     7
100
AcDbCircle
 10
73.63829322958125
 20
108.8091620085084
 30
0.0
 40
1.918994624692388
100
AcDbArc
 50
270.0
 51
314.6296991517873
  0
ARC
  5
84
330
48
100
AcDbEntity
  8
1
  6
Continuous
 62
     7
100
AcDbCircle
 10
81.96106105440106
 20
108.0627579398628
 30
0.0
 40
0.9166465923390732
100
AcDbArc
 50
135.0
 51
222.4994917111614
  0
ARC
  5
85
330
48
100
AcDbEntity
  8
1
  6
Continuous
 62
     7
100
AcDbCircle
 10
82.63336881287606
 20
108.8091620085084
 30
0.0
 40
1.918994624692405
100
AcDbArc
 50
225.3703008482127
 51
270.0
  0
ARC
  5
86
330
48
100
AcDbEntity
  8
1
  6
Continuous
 62
     7
100
AcDbCircle
 10
73.63829322958125
 20
104.2103527506538
 30
0.0
 40
1.918994624692486
100
AcDbArc
 50
45.37030084821506
 51
90.0
  0
ARC
  5
87
330
48
100
AcDbEntity
  8
1
  6
Continuous
 62
     7
100
AcDbCircle
 10
74.31060098805625
 20
104.9567568192995
 30
0.0
 40
0.916646592339224
100
AcDbArc
 50
315.0000000000006
 51
42.49949171116143
  0
ARC
  5
88
330
48
100
AcDbEntity
  8
1
  6
Continuous
 62
     7
100
AcDbCircle
 10
81.96106105440106
 20
104.9567568192995
 30
0.0
 40
0.9166465923391882
100
AcDbArc
 50
137.5005082888386
 51
225.0000000000044
  0
ARC
  5
89
330
48
100
AcDbEntity
  8
1
  6
Continuous
 62
     7
100
AcDbCircle
 10
82.63336881287606
 20
104.2103527506538
 30
0.0
 40
1.918994624692502
100
AcDbArc
 50
90.0
 51
134.629699151785
  0
SPLINE
  5
8A
330
48
100
AcDbEntity
  8
1
  6
Continuous
 62
     7
100
AcDbSpline
210
0.0
220
0.0
230
1.0
 70
     8
 71
     3
 72
    43
 73
    39
 74
    37
 42
0.000000001
 43
0.0000000001
 44
0.00000001
 40
0.0
 40
0.0
 40
0.0
 40
0.0
 40
0.0448557901637538
 40
0.0895229444510287
 40
0.1420251082514199
 40
0.1947532401612343
 40
0.255048715428748
 40
0.3152379064367173
 40
0.3822477338288883
 40
0.4493013354605934
 40
0.5217835067269249
 40
0.5942519415059709
 40
0.6705157160778313
 40
0.7467846702036758
 40
0.8249938919557843
 40
0.9032018536925966
 40
0.9814103232138014
 40
1.05961907400048
 40
1.135885763744064
 40
1.212151681689411
 40
1.284627294180464
 40
1.357102770454496
 40
1.424135757138253
 40
1.491164191024458
 40
1.551405676236585
 40
1.61165688496517
 40
1.66427740745364
 40
1.716849526799716
 40
1.761592188488664
 40
1.806484764559251
 40
1.85796513183
 40
1.908967480764558
 40
1.929576319566345
 40
1.950229041233084
 40
1.972260135517549
 40
1.99416736854125
 40
2.04338922799434
 40
2.093764128064825
 40
2.093764128064825
 40
2.093764128064825
 40
2.093764128064825
 10
76.52004663455605
 20
103.9180775628069
 30
0.0
 10
76.50937923684464
 20
103.9076013371081
 30
0.0
 10
76.48808929230715
 20
103.886692952259
 30
0.0
 10
76.45232166032825
 20
103.8555570721961
 30
0.0
 10
76.41052261644633
 20
103.8279155899871
 30
0.0
 10
76.36173334642845
 20
103.8020705296659
 30
0.0
 10
76.30918676681978
 20
103.7780618569328
 30
0.0
 10
76.25087795136358
 20
103.755471093028
 30
0.0
 10
76.18922045035185
 20
103.7355813966955
 30
0.0
 10
76.12266793613091
 20
103.7178542665085
 30
0.0
 10
76.05361024750246
 20
103.7027429173654
 30
0.0
 10
75.98094449493856
 20
103.6900922647529
 30
0.0
 10
75.90657504979089
 20
103.6802275893844
 30
0.0
 10
75.82997310662292
 20
103.6731062640775
 30
0.0
 10
75.75251166739947
 20
103.6688156239322
 30
0.0
 10
75.67429845542748
 20
103.66739410255
 30
0.0
 10
75.59608565076977
 20
103.6688296910908
 30
0.0
 10
75.51862577987794
 20
103.6731360927055
 30
0.0
 10
75.44202585338665
 20
103.6802771932154
 30
0.0
 10
75.36765607127677
 20
103.6901556088936
 30
0.0
 10
75.29498902283537
 20
103.7028033728938
 30
0.0
 10
75.22594092833047
 20
103.7179310208368
 30
0.0
 10
75.15941028149841
 20
103.7357306387376
 30
0.0
 10
75.09773984897765
 20
103.7556227047823
 30
0.0
 10
75.0393524699993
 20
103.7780312207909
 30
0.0
 10
74.98685025502074
 20
103.8020865752432
 30
0.0
 10
74.93840243084438
 20
103.8285323480668
 30
0.0
 10
74.89657477196307
 20
103.8560074727119
 30
0.0
 10
74.85942606332993
 20
103.8855750490747
 30
0.0
 10
74.82622618597368
 20
103.9190864629855
 30
0.0
 10
74.7973593002059
 20
103.9591704162308
 30
0.0
 10
74.78111128347724
 20
103.9974328916186
 30
0.0
 10
74.77527339200348
 20
104.0277016031002
 30
0.0
 10
74.77386414537156
 20
104.0488092868674
 30
0.0
 10
74.77527769654017
 20
104.0703577536354
 30
0.0
 10
74.78159393498781
 20
104.1008887502618
 30
0.0
 10
74.79956142032378
 20
104.1377947094389
 30
0.0
 10
74.81886295047208
 20
104.1647922102591
 30
0.0
 10
74.82862544643825
 20
104.1784472348924
 30
0.0
 11
76.52004663455605
 21
103.9180775628069
 31
0.0
 11
76.48772923352556
 21
103.8869708559774
 31
0.0
 11
76.45374023530465
 21
103.8579897840338
 31
0.0
 11
76.41016907938975
 21
103.828697613016
 31
0.0
 11
76.36375203399155
 21
103.8036833423792
 31
0.0
 11
76.3089244474757
 21
103.7785939001879
 31
0.0
 11
76.25281627657745
 21
103.7568083115926
 31
0.0
 11
76.18907330745924
 21
103.7361406837409
 31
0.0
 11
76.12430368991517
 21
103.7187889657643
 31
0.0
 11
76.0535061707009
 21
103.7032526726844
 31
0.0
 11
75.98211906391995
 21
103.6907805034788
 31
0.0
 11
75.90652141168518
 21
103.6807227567629
 31
0.0
 11
75.83058260650375
 21
103.6736339476895
 31
0.0
 11
75.75249357300575
 21
103.6692997581747
 31
0.0
 11
75.67429867624406
 21
103.6678702878176
 31
0.0
 11
75.59610353597265
 21
103.6693141472493
 31
0.0
 11
75.51801588127825
 21
103.6736646497517
 31
0.0
 11
75.44208100835249
 21
103.6807711979464
 31
0.0
 11
75.36648279524846
 21
103.6908409747365
 31
0.0
 11
75.29508917106983
 21
103.7033175456766
 31
0.0
 11
75.22430367429425
 21
103.7188773688291
 31
0.0
 11
75.15956741331641
 21
103.7362738572143
 31
0.0
 11
75.09579855905986
 21
103.7569219603819
 31
0.0
 11
75.03959891551611
 21
103.7786161207739
 31
0.0
 11
74.98487201244487
 21
103.8038187837322
 31
0.0
 11
74.93875320107196
 21
103.829156001652
 31
0.0
 11
74.89489448143655
 21
103.8581429026334
 31
0.0
 11
74.86004506545596
 21
103.8862039782687
 31
0.0
 11
74.82859988778375
 21
103.9182437062221
 31
0.0
 11
74.79891746946868
 21
103.9603053540785
 31
0.0
 11
74.77959578359466
 21
104.0075061167944
 31
0.0
 11
74.77569828843443
 21
104.027743057229
 31
0.0
 11
74.77433602487625
 21
104.0483508019144
 31
0.0
 11
74.77578761190615
 21
104.0703340229155
 31
0.0
 11
74.78028229921304
 21
104.091775213499
 31
0.0
 11
74.80050798207677
 21
104.1366496310629
 31
0.0
 11
74.82862544643825
 21
104.1784472348924
 31
0.0
  0
SPLINE
  5
8B
330
48
100
AcDbEntity
  8
1
  6
Continuous
 62
     7
100
AcDbSpline
210
0.0
220
0.0
230
1.0
 70
     8
 71
     3
 72
    27
 73
    23
 74
    21
 42
0.000000001
 43
0.0000000001
 44
0.00000001
 40
0.0
 40
0.0
 40
0.0
 40
0.0
 40
0.0340794409749838
 40
0.0675402528098791
 40
0.1486179150034311
 40
0.2331829782177667
 40
0.3468645482931793
 40
0.4587323364806237
 40
0.5978897934231613
 40
0.7376658409656343
 40
0.8922263830692643
 40
1.046563329381471
 40
1.200901780637775
 40
1.355460863749554
 40
1.495230670999071
 40
1.634394107566055
 40
1.746277737395577
 40
1.859945121254401
 40
1.94448208746546
 40
2.025576304278982
 40
2.058971125347569
 40
2.092973121985957
 40
2.092973121985957
 40
2.092973121985957
 40
2.092973121985957
 10
77.23583100560776
 20
103.8854189355822
 30
0.0
 10
77.23739135221007
 20
103.8741701089017
 30
0.0
 10
77.24048373505929
 20
103.8518766527464
 30
0.0
 10
77.25210640009051
 20
103.8034441889871
 30
0.0
 10
77.29065275274021
 20
103.7467890135256
 30
0.0
 10
77.36288419529278
 20
103.6875632118725
 30
0.0
 10
77.45229338754828
 20
103.6346860206668
 30
0.0
 10
77.5652590115983
 20
103.5890323731663
 30
0.0
 10
77.69057612829393
 20
103.5526921688395
 30
0.0
 10
77.83263380384963
 20
103.5253762529031
 30
0.0
 10
77.98141739313036
 20
103.5087135351472
 30
0.0
 10
78.13586906196073
 20
103.503309937993
 30
0.0
 10
78.29031919532703
 20
103.5087432149199
 30
0.0
 10
78.43909753143728
 20
103.5254348892545
 30
0.0
 10
78.58114862123578
 20
103.552782527909
 30
0.0
 10
78.7064631086915
 20
103.5891487087118
 30
0.0
 10
78.81942805374068
 20
103.6348097516939
 30
0.0
 10
78.90882160653211
 20
103.6877007971216
 30
0.0
 10
78.98099751657566
 20
103.746987104017
 30
0.0
 10
79.01951389338309
 20
103.8036044399689
 30
0.0
 10
79.03123929030424
 20
103.8519635378311
 30
0.0
 10
79.03439264100899
 20
103.8742003586704
 30
0.0
 10
79.03598351355194
 20
103.8854189355822
 30
0.0
 11
77.23583100560776
 21
103.8854189355822
 31
0.0
 11
77.24106952593344
 21
103.8517445161377
 31
0.0
 11
77.24951051636856
 21
103.8193658817438
 31
0.0
 11
77.29255691005831
 21
103.7506592972822
 31
0.0
 11
77.35642682642114
 21
103.6952347238311
 31
0.0
 11
77.45404441219839
 21
103.6369740511615
 31
0.0
 11
77.55735078514834
 21
103.5940532513899
 31
0.0
 11
77.69086629648027
 21
103.5548307373342
 31
0.0
 11
77.82804799780587
 21
103.5280254432761
 31
0.0
 11
77.98163162332865
 21
103.5106752139602
 31
0.0
 11
78.13586838548176
 21
103.5051152276149
 31
0.0
 11
78.29010557603523
 21
103.5107050250218
 31
0.0
 11
78.44368426647736
 21
103.5280859145338
 31
0.0
 11
78.58085409014018
 21
103.5549194381877
 31
0.0
 11
78.71436850266596
 21
103.5941669001792
 31
0.0
 11
78.81768504532133
 21
103.6371045101006
 31
0.0
 11
78.91527258028935
 21
103.6953878424308
 31
0.0
 11
78.97908718566705
 21
103.7508332609731
 31
0.0
 11
79.02216450255764
 21
103.8195400017909
 31
0.0
 11
79.03065894035025
 21
103.8518364250425
 31
0.0
 11
79.03598351355194
 21
103.8854189355822
 31
0.0
  0
SPLINE
  5
8C
330
48
100
AcDbEntity
  8
1
  6
Continuous
 62
     7
100
AcDbSpline
210
0.0
220
0.0
230
1.0
 70
     8
 71
     3
 72
    43
 73
    39
 74
    37
 42
0.000000001
 43
0.0000000001
 44
0.00000001
 40
0.0
 40
0.0
 40
0.0
 40
0.0
 40
0.0448557901637436
 40
0.0895229444510293
 40
0.1420251082514717
 40
0.1947532401613352
 40
0.2550487154288489
 40
0.3152379064368182
 40
0.3822477338289486
 40
0.4493013354606125
 40
0.5217835067269947
 40
0.5942519415060754
 40
0.6705157160779217
 40
0.7467846702037803
 40
0.8249938919558888
 40
0.9032018536927011
 40
0.9814103232139201
 40
1.059619074000584
 40
1.135885763744169
 40
1.212151681689516
 40
1.284627294180513
 40
1.357102770454489
 40
1.424135757138301
 40
1.49116419102456
 40
1.551405676236687
 40
1.611656884965273
 40
1.664277407453741
 40
1.716849526799821
 40
1.761592188488713
 40
1.80648476455927
 40
1.857965131830085
 40
1.908967480764643
 40
1.929576319566419
 40
1.950229041233155
 40
1.972260135517622
 40
1.994167368541317
 40
2.043389227994378
 40
2.093764128064839
 40
2.093764128064839
 40
2.093764128064839
 40
2.093764128064839
 10
79.75161540790114
 20
103.9180775628069
 30
0.0
 10
79.76228280561259
 20
103.9076013371081
 30
0.0
 10
79.78357275015001
 20
103.8866929522589
 30
0.0
 10
79.81934038212898
 20
103.8555570721961
 30
0.0
 10
79.86113942601092
 20
103.8279155899871
 30
0.0
 10
79.90992869602883
 20
103.8020705296658
 30
0.0
 10
79.96247527563756
 20
103.7780618569328
 30
0.0
 10
80.02078409109372
 20
103.7554710930279
 30
0.0
 10
80.0824415921054
 20
103.7355813966956
 30
0.0
 10
80.14899410632637
 20
103.7178542665085
 30
0.0
 10
80.2180517949548
 20
103.7027429173653
 30
0.0
 10
80.29071754751877
 20
103.6900922647529
 30
0.0
 10
80.36508699266638
 20
103.6802275893843
 30
0.0
 10
80.44168893583439
 20
103.6731062640775
 30
0.0
 10
80.51915037505785
 20
103.6688156239322
 30
0.0
 10
80.59736358702982
 20
103.66739410255
 30
0.0
 10
80.67557639168756
 20
103.6688296910908
 30
0.0
 10
80.75303626257936
 20
103.6731360927055
 30
0.0
 10
80.82963618907067
 20
103.6802771932154
 30
0.0
 10
80.90400597118054
 20
103.6901556088936
 30
0.0
 10
80.97667301962187
 20
103.7028033728938
 30
0.0
 10
81.04572111412676
 20
103.7179310208368
 30
0.0
 10
81.11225176095886
 20
103.7357306387376
 30
0.0
 10
81.17392219347965
 20
103.7556227047823
 30
0.0
 10
81.232309572458
 20
103.7780312207909
 30
0.0
 10
81.28481178743657
 20
103.8020865752433
 30
0.0
 10
81.33325961161296
 20
103.8285323480667
 30
0.0
 10
81.37508727049423
 20
103.856007472712
 30
0.0
 10
81.4122359791273
 20
103.8855750490747
 30
0.0
 10
81.44543585648353
 20
103.9190864629856
 30
0.0
 10
81.47430274225141
 20
103.9591704162307
 30
0.0
 10
81.49055075898005
 20
103.9974328916186
 30
0.0
 10
81.4963886504538
 20
104.0277016031002
 30
0.0
 10
81.49779789708563
 20
104.0488092868674
 30
0.0
 10
81.49638434591701
 20
104.0703577536353
 30
0.0
 10
81.49006810746938
 20
104.1008887502618
 30
0.0
 10
81.47210062213344
 20
104.1377947094389
 30
0.0
 10
81.45279909198523
 20
104.1647922102591
 30
0.0
 10
81.44303659601906
 20
104.1784472348924
 30
0.0
 11
79.75161540790114
 21
103.9180775628069
 31
0.0
 11
79.78393280893162
 21
103.8869708559774
 31
0.0
 11
79.81792180715254
 21
103.8579897840338
 31
0.0
 11
79.86149296306749
 21
103.8286976130159
 31
0.0
 11
79.90791000846576
 21
103.8036833423792
 31
0.0
 11
79.9627375949816
 21
103.7785939001879
 31
0.0
 11
80.01884576587986
 21
103.7568083115926
 31
0.0
 11
80.08258873499803
 21
103.7361406837409
 31
0.0
 11
80.14735835254206
 21
103.7187889657643
 31
0.0
 11
80.21815587175637
 21
103.7032526726844
 31
0.0
 11
80.28954297853736
 21
103.6907805034788
 31
0.0
 11
80.36514063077212
 21
103.6807227567629
 31
0.0
 11
80.44107943595355
 21
103.6736339476895
 31
0.0
 11
80.51916846945156
 21
103.6692997581747
 31
0.0
 11
80.59736336621324
 21
103.6678702878176
 31
0.0
 11
80.67555850648468
 21
103.6693141472493
 31
0.0
 11
80.75364616117906
 21
103.6736646497517
 31
0.0
 11
80.82958103410482
 21
103.6807711979464
 31
0.0
 11
80.90517924720885
 21
103.6908409747365
 31
0.0
 11
80.97657287138742
 21
103.7033175456766
 31
0.0
 11
81.04735836816295
 21
103.7188773688291
 31
0.0
 11
81.11209462914084
 21
103.7362738572143
 31
0.0
 11
81.17586348339745
 21
103.7569219603819
 31
0.0
 11
81.2320631269412
 21
103.7786161207739
 31
0.0
 11
81.28679003001244
 21
103.8038187837322
 31
0.0
 11
81.33290884138536
 21
103.829156001652
 31
0.0
 11
81.37676756102076
 21
103.8581429026334
 31
0.0
 11
81.41161697700127
 21
103.8862039782687
 31
0.0
 11
81.44306215467344
 21
103.9182437062221
 31
0.0
 11
81.47274457298863
 21
103.9603053540785
 31
0.0
 11
81.49206625886265
 21
104.0075061167944
 31
0.0
 11
81.49596375402282
 21
104.027743057229
 31
0.0
 11
81.49732601758095
 21
104.0483508019144
 31
0.0
 11
81.49587443055101
 21
104.0703340229155
 31
0.0
 11
81.49137974324415
 21
104.091775213499
 31
0.0
 11
81.4711540603805
 21
104.1366496310629
 31
0.0
 11
81.44303659601906
 21
104.1784472348924
 31
0.0
  0
SPLINE
  5
8D
330
48
100
AcDbEntity
  8
1
  6
Continuous
 62
     7
100
AcDbSpline
210
0.0
220
0.0
230
1.0
 70
     8
 71
     3
 72
    41
 73
    37
 74
    35
 42
0.000000001
 43
0.0000000001
 44
0.00000001
 40
0.0
 40
0.0
 40
0.0
 40
0.0
 40
0.0729288036756531
 40
0.1458278634705054
 40
0.2220831371645063
 40
0.2983654586368685
 40
0.3708466255314002
 40
0.4433152243474971
 40
0.5103449923835909
 40
0.5773771529836419
 40
0.6376245804700599
 40
0.6978691614447582
 40
0.7504693655677539
 40
0.8030639565728254
 40
0.8478791180745273
 40
0.8926919057563547
 40
0.9307529080024286
 40
0.9687649982675982
 40
1.002688508119359
 40
1.036543066964909
 40
1.070397470691137
 40
1.104321114879346
 40
1.14233393819592
 40
1.180394324779443
 40
1.222230617126832
 40
1.264055526364949
 40
1.310191711648158
 40
1.356333454697257
 40
1.42600452443306
 40
1.495712726976173
 40
1.625131683998887
 40
1.754651194938249
 40
1.840966285748864
 40
1.92720232108307
 40
2.000131704865388
 40
2.073101510382965
 40
2.073101510382965
 40
2.073101510382965
 40
2.073101510382965
 10
71.92528721339696
 20
106.1293473753463
 30
0.0
 10
71.90098544742905
 20
106.1299635231068
 30
0.0
 10
71.85239182722458
 20
106.1311955776055
 30
0.0
 10
71.77843157861572
 20
106.1346932542201
 30
0.0
 10
71.70357709873124
 20
106.1416071312067
 30
0.0
 10
71.62922839191049
 20
106.1516600846904
 30
0.0
 10
71.55655826528135
 20
106.164307387611
 30
0.0
 10
71.48749860510803
 20
106.1793757152084
 30
0.0
 10
71.42096394843092
 20
106.1971543778932
 30
0.0
 10
71.35929106077717
 20
106.2170465257388
 30
0.0
 10
71.3009042016683
 20
106.2394589335078
 30
0.0
 10
71.2484014972837
 20
106.2634942442508
 30
0.0
 10
71.19992915921625
 20
106.2898907464351
 30
0.0
 10
71.15807939062651
 20
106.3173863718376
 30
0.0
 10
71.12099526043225
 20
106.3470381451909
 30
0.0
 10
71.0909098505408
 20
106.3773147546875
 30
0.0
 10
71.0664254050215
 20
106.4094698278898
 30
0.0
 10
71.04899497917569
 20
106.4419618997413
 30
0.0
 10
71.03835876409202
 20
106.4757885784773
 30
0.0
 10
71.03457008986366
 20
106.5097118331181
 30
0.0
 10
71.03835219672533
 20
106.5436358670088
 30
0.0
 10
71.0489819222222
 20
106.5774648239587
 30
0.0
 10
71.0664048157619
 20
106.6099607928816
 30
0.0
 10
71.09028139193296
 20
106.6413292324991
 30
0.0
 10
71.11881111261359
 20
106.6703175081659
 30
0.0
 10
71.15235857673666
 20
106.6977388110245
 30
0.0
 10
71.18934490561503
 20
106.7229355063652
 30
0.0
 10
71.23617492189582
 20
106.7498671019258
 30
0.0
 10
71.29204951725185
 20
106.7765493988771
 30
0.0
 10
71.3756301834517
 20
106.8089945411025
 30
0.0
 10
71.48091729288656
 20
106.8399589417641
 30
0.0
 10
71.59385205397108
 20
106.8626491049771
 30
0.0
 10
71.69354480090766
 20
106.8769831865616
 30
0.0
 10
71.77504489112152
 20
106.8847221527411
 30
0.0
 10
71.85235355869477
 20
106.8883464192031
 30
0.0
 10
71.90097150515649
 20
106.8895602869293
 30
0.0
 10
71.92528721339696
 20
106.890167383816
 30
0.0
 11
71.92528721339696
 21
106.1293473753463
 31
0.0
 11
71.85238906916965
 21
106.1314620925863
 31
0.0
 11
71.77958446847884
 21
106.1351719591142
 31
0.0
 11
71.70364824813434
 21
106.1421402645916
 31
0.0
 11
71.62804801106265
 21
106.1523185149035
 31
0.0
 11
71.55665178966886
 21
106.1648124799923
 31
0.0
 11
71.48586338506746
 21
106.1803269771891
 31
0.0
 11
71.42112419595945
 21
106.1977001526698
 31
0.0
 11
71.35735079840515
 21
106.2183463230173
 31
0.0
 11
71.30114533416585
 21
106.2400419063254
 31
0.0
 11
71.24641504099105
 21
106.265221353804
 31
0.0
 11
71.20029603126245
 21
106.2905159864507
 31
0.0
 11
71.15642683967795
 21
106.3195277954585
 31
0.0
 11
71.12155780248165
 21
106.3476800417301
 31
0.0
 11
71.09012044042655
 21
106.3796155742317
 31
0.0
 11
71.06725486371903
 21
106.410042623363
 31
0.0
 11
71.04951052962537
 21
106.4436589533712
 31
0.0
 11
71.03942595633893
 21
106.4760488581073
 31
0.0
 11
71.03583101886454
 21
106.5097120072096
 31
0.0
 11
71.03941941795308
 21
106.5433756979154
 31
0.0
 11
71.04949755315636
 21
106.5757677471304
 31
0.0
 11
71.06723502000011
 21
106.6093885299257
 31
0.0
 11
71.09009488177205
 21
106.6398191029019
 31
0.0
 11
71.1193174477371
 21
106.6697576569996
 31
0.0
 11
71.15158923097195
 21
106.6963632026894
 31
0.0
 11
71.18965152266172
 21
106.7224363606652
 31
0.0
 11
71.22959186324485
 21
106.7455411148494
 31
0.0
 11
71.29237841624902
 21
106.7757389088171
 31
0.0
 11
71.35729355304815
 21
106.8011408487421
 31
0.0
 11
71.48132111089046
 21
106.8381061222514
 31
0.0
 11
71.60821180357885
 21
106.8640687095303
 31
0.0
 11
71.69365598773314
 21
106.8762992599611
 31
0.0
 11
71.77951087526645
 21
106.8843981593723
 31
0.0
 11
71.85234726452317
 21
106.8880799376505
 31
0.0
 11
71.92528721339696
 21
106.890167383816
 31
0.0
  0
SPLINE
  5
8E
330
48
100
AcDbEntity
  8
1
  6
Continuous
 62
     7
100
AcDbSpline
210
0.0
220
0.0
230
1.0
 70
     8
 71
     3
 72
    41
 73
    37
 74
    35
 42
0.000000001
 43
0.0000000001
 44
0.00000001
 40
0.0
 40
0.0
 40
0.0
 40
0.0
 40
0.0729288036756673
 40
0.1458278634705054
 40
0.2220831371645063
 40
0.2983654586368685
 40
0.3708466255314002
 40
0.4433152243474971
 40
0.5103449923836045
 40
0.577377152983642
 40
0.63762458047006
 40
0.6978691614447583
 40
0.750469365567754
 40
0.8030639565728255
 40
0.8478791180745274
 40
0.8926919057563548
 40
0.9307529080024287
 40
0.9687649982675983
 40
1.002688508119359
 40
1.036543066964909
 40
1.070397470691142
 40
1.104321114879363
 40
1.142333938195944
 40
1.180394324779475
 40
1.222230617126805
 40
1.264055526364896
 40
1.31019171164814
 40
1.3563334546973
 40
1.426004524433065
 40
1.495712726976112
 40
1.625131683998875
 40
1.754651194938301
 40
1.840966285748859
 40
1.927202321083009
 40
2.000131704865313
 40
2.073101510382904
 40
2.073101510382904
 40
2.073101510382904
 40
2.073101510382904
 10
84.34637482906035
 20
106.1293473753463
 30
0.0
 10
84.37067659502827
 20
106.1299635231068
 30
0.0
 10
84.41927021523276
 20
106.1311955776055
 30
0.0
 10
84.49323046384157
 20
106.1346932542202
 30
0.0
 10
84.56808494372608
 20
106.1416071312067
 30
0.0
 10
84.64243365054676
 20
106.1516600846905
 30
0.0
 10
84.71510377717598
 20
106.1643073876111
 30
0.0
 10
84.78416343734932
 20
106.1793757152084
 30
0.0
 10
84.85069809402636
 20
106.1971543778932
 30
0.0
 10
84.91237098168018
 20
106.2170465257388
 30
0.0
 10
84.97075784078898
 20
106.2394589335078
 30
0.0
 10
85.0232605451736
 20
106.2634942442507
 30
0.0
 10
85.07173288324105
 20
106.2898907464351
 30
0.0
 10
85.11358265183078
 20
106.3173863718376
 30
0.0
 10
85.15066678202507
 20
106.3470381451909
 30
0.0
 10
85.18075219191655
 20
106.3773147546875
 30
0.0
 10
85.20523663743577
 20
106.4094698278898
 30
0.0
 10
85.22266706328163
 20
106.4419618997413
 30
0.0
 10
85.23330327836527
 20
106.4757885784773
 30
0.0
 10
85.23709195259369
 20
106.5097118331181
 30
0.0
 10
85.2333098457319
 20
106.5436358670088
 30
0.0
 10
85.22268012023505
 20
106.5774648239587
 30
0.0
 10
85.2052572266953
 20
106.6099607928817
 30
0.0
 10
85.18138065052428
 20
106.641329232499
 30
0.0
 10
85.15285092984362
 20
106.6703175081659
 30
0.0
 10
85.11930346572065
 20
106.6977388110245
 30
0.0
 10
85.08231713684222
 20
106.7229355063652
 30
0.0
 10
85.03548712056138
 20
106.7498671019258
 30
0.0
 10
84.97961252520541
 20
106.7765493988771
 30
0.0
 10
84.89603185900556
 20
106.8089945411025
 30
0.0
 10
84.7907447495707
 20
106.8399589417642
 30
0.0
 10
84.67780998848613
 20
106.8626491049771
 30
0.0
 10
84.57811724154962
 20
106.8769831865616
 30
0.0
 10
84.49661715133577
 20
106.8847221527411
 30
0.0
 10
84.41930848376253
 20
106.8883464192031
 30
0.0
 10
84.37069053730082
 20
106.8895602869293
 30
0.0
 10
84.34637482906035
 20
106.890167383816
 30
0.0
 11
84.34637482906035
 21
106.1293473753463
 31
0.0
 11
84.41927297328768
 21
106.1314620925863
 31
0.0
 11
84.49207757397846
 21
106.1351719591142
 31
0.0
 11
84.56801379432297
 21
106.1421402645916
 31
0.0
 11
84.64361403139466
 21
106.1523185149035
 31
0.0
 11
84.71501025278845
 21
106.1648124799923
 31
0.0
 11
84.78579865738985
 21
106.1803269771891
 31
0.0
 11
84.85053784649787
 21
106.1977001526698
 31
0.0
 11
84.91431124405216
 21
106.2183463230173
 31
0.0
 11
84.97051670829146
 21
106.2400419063254
 31
0.0
 11
85.02524700146625
 21
106.265221353804
 31
0.0
 11
85.07136601119485
 21
106.2905159864507
 31
0.0
 11
85.11523520277936
 21
106.3195277954585
 31
0.0
 11
85.15010423997566
 21
106.3476800417301
 31
0.0
 11
85.18154160203076
 21
106.3796155742317
 31
0.0
 11
85.20440717873828
 21
106.410042623363
 31
0.0
 11
85.22215151283194
 21
106.4436589533712
 31
0.0
 11
85.23223608611838
 21
106.4760488581073
 31
0.0
 11
85.23583102359277
 21
106.5097120072096
 31
0.0
 11
85.23224262450418
 21
106.5433756979154
 31
0.0
 11
85.22216448930087
 21
106.5757677471304
 31
0.0
 11
85.2044270224571
 21
106.6093885299257
 31
0.0
 11
85.18156716068515
 21
106.6398191029019
 31
0.0
 11
85.15234459472015
 21
106.6697576569996
 31
0.0
 11
85.12007281148536
 21
106.6963632026894
 31
0.0
 11
85.08201051979555
 21
106.7224363606652
 31
0.0
 11
85.04207017921235
 21
106.7455411148494
 31
0.0
 11
84.97928362620821
 21
106.7757389088171
 31
0.0
 11
84.91436848940916
 21
106.8011408487421
 31
0.0
 11
84.7903409315668
 21
106.8381061222515
 31
0.0
 11
84.66345023887834
 21
106.8640687095303
 31
0.0
 11
84.57800605472411
 21
106.8762992599611
 31
0.0
 11
84.49215116719085
 21
106.8843981593723
 31
0.0
 11
84.41931477793415
 21
106.8880799376505
 31
0.0
 11
84.34637482906035
 21
106.890167383816
 31
0.0
  0
ENDBLK
  5
4A
330
48
100
AcDbEntity
  8
0
100
AcDbBlockEnd
  0
BLOCK
  5
4C
330
4B
100
AcDbEntity
  8
0
100
AcDbBlockBegin
  2
32-1-16
 70
     0
 10
219.5838464598908
 20
-131.8890861160926
 30
0.0
  3
32-1-16
  1

  0
LINE
  5
8F
330
4B
100
AcDbEntity
  8
0
  6
Continuous
 62
     7
100
AcDbLine
 10
185.3545535280942
 20
131.8753419286554
 30
0.0
 11
192.4959819566372
 21
131.8753419286554
 31
0.0
  0
LINE
  5
90
330
4B
100
AcDbEntity
  8
0
  6
Continuous
 62
     7
100
AcDbLine
 10
185.3545535280942
 20
159.8753419286554
 30
0.0
 11
192.4959819566371
 21
159.8753419286554
 31
0.0
  0
LINE
  5
91
330
4B
100
AcDbEntity
  8
1
  6
Continuous
 62
     7
100
AcDbLine
 10
69.33750904215904
 20
158.636201239557
 30
0.0
 11
62.68544169433395
 21
147.1144826177541
 31
0.0
  0
LINE
  5
92
330
4B
100
AcDbEntity
  8
1
  6
Continuous
 62
     7
100
AcDbLine
 10
62.68544169433395
 20
144.636201239557
 30
0.0
 11
69.33750904215904
 21
133.1144826177541
 31
0.0
  0
LINE
  5
93
330
4B
100
AcDbEntity
  8
1
  6
Continuous
 62
     7
100
AcDbLine
 10
86.93415300029827
 20
133.1144826177541
 30
0.0
 11
93.58622034812325
 21
144.636201239557
 31
0.0
  0
LINE
  5
94
330
4B
100
AcDbEntity
  8
1
  6
Continuous
 62
     7
100
AcDbLine
 10
86.93415300029827
 20
158.636201239557
 30
0.0
 11
93.58622034812325
 21
147.1144826177541
 31
0.0
  0
LINE
  5
95
330
4B
100
AcDbEntity
  8
1
  6
Continuous
 62
     7
100
AcDbLine
 10
71.48376367340364
 20
159.8753419286554
 30
0.0
 11
84.78789836905366
 21
159.8753419286554
 31
0.0
  0
LINE
  5
96
330
4B
100
AcDbEntity
  8
1
  6
Continuous
 62
     7
100
AcDbLine
 10
184.0677307778072
 20
157.3753419286554
 30
0.0
 11
184.0677307778072
 21
157.4333629903861
 31
0.0
  0
LINE
  5
97
330
4B
100
AcDbEntity
  8
1
  6
Continuous
 62
     7
100
AcDbLine
 10
193.0677307778073
 20
159.1753419286555
 30
0.0
 11
193.0677307778073
 21
159.0623419286555
 31
0.0
  0
LINE
  5
98
330
4B
100
AcDbEntity
  8
1
  6
Continuous
 62
     7
100
AcDbLine
 10
184.0677307778072
 20
134.3173208669248
 30
0.0
 11
184.0677307778072
 21
134.3753419286554
 31
0.0
  0
LINE
  5
99
330
4B
100
AcDbEntity
  8
1
  6
Continuous
 62
     7
100
AcDbLine
 10
193.0677307778073
 20
132.6883419286554
 30
0.0
 11
193.0677307778073
 21
132.5753419286554
 31
0.0
  0
LINE
  5
9A
330
4B
100
AcDbEntity
  8
1
  6
Continuous
 62
     7
100
AcDbLine
 10
183.0677307778072
 20
136.1073927362243
 30
0.0
 11
183.0677307778072
 21
153.7753419286555
 31
0.0
  0
LINE
  5
9B
330
4B
100
AcDbEntity
  8
1
  6
Continuous
 62
     7
100
AcDbLine
 10
183.0677307778072
 20
153.7753419286555
 30
0.0
 11
183.0677307778072
 21
155.6432911210866
 31
0.0
  0
LINE
  5
9C
330
4B
100
AcDbEntity
  8
1
  6
Continuous
 62
     7
100
AcDbLine
 10
69.93583102122875
 20
296.2515055386111
 30
0.0
 11
78.13583102122877
 21
296.2515055386111
 31
0.0
  0
LINE
  5
9D
330
4B
100
AcDbEntity
  8
1
  6
Continuous
 62
     7
100
AcDbLine
 10
66.63583102122877
 20
297.2515055386111
 30
0.0
 11
66.57780995949815
 21
297.2515055386111
 31
0.0
  0
LINE
  5
9E
330
4B
100
AcDbEntity
  8
1
  6
Continuous
 62
     7
100
AcDbLine
 10
64.83583102122864
 20
306.2515055386111
 30
0.0
 11
64.94883102122864
 21
306.2515055386111
 31
0.0
  0
LINE
  5
9F
330
4B
100
AcDbEntity
  8
1
  6
Continuous
 62
     7
100
AcDbLine
 10
68.36788182879755
 20
296.2515055386111
 30
0.0
 11
69.93583102122875
 21
296.2515055386111
 31
0.0
  0
LINE
  5
A0
330
4B
100
AcDbEntity
  8
1
  6
Continuous
 62
     7
100
AcDbLine
 10
86.93415300029827
 20
297.2515055386111
 30
0.0
 11
81.87748840799344
 21
297.2515055386111
 31
0.0
  0
LINE
  5
A1
330
4B
100
AcDbEntity
  8
1
  6
Continuous
 62
     7
100
AcDbLine
 10
78.13583102122877
 20
296.2515055386111
 30
0.0
 11
86.33583102122864
 21
296.2515055386111
 31
0.0
  0
LINE
  5
A2
330
4B
100
AcDbEntity
  8
1
  6
Continuous
 62
     7
100
AcDbLine
 10
89.69385208295927
 20
297.2515055386111
 30
0.0
 11
89.63583102122877
 21
297.2515055386111
 31
0.0
  0
LINE
  5
A3
330
4B
100
AcDbEntity
  8
1
  6
Continuous
 62
     7
100
AcDbLine
 10
91.32283102122867
 20
306.2515055386111
 30
0.0
 11
91.43583102122867
 21
306.2515055386111
 31
0.0
  0
LINE
  5
A4
330
4B
100
AcDbEntity
  8
1
  6
Continuous
 62
     7
100
AcDbLine
 10
86.33583102122864
 20
296.2515055386111
 30
0.0
 11
87.90378021365984
 21
296.2515055386111
 31
0.0
  0
LINE
  5
A5
330
4B
100
AcDbEntity
  8
1
  6
Continuous
 62
     7
100
AcDbLine
 10
193.0677307778073
 20
159.0623419286555
 30
0.0
 11
193.0677307778073
 21
132.8753419286554
 31
0.0
  0
LINE
  5
A6
330
4B
100
AcDbEntity
  8
1
  6
Continuous
 62
     7
100
AcDbLine
 10
193.0677307778073
 20
132.6883419286554
 30
0.0
 11
193.0677307778073
 21
132.8753419286554
 31
0.0
  0
LINE
  5
A7
330
4B
100
AcDbEntity
  8
0
  6
Continuous
 62
     7
100
AcDbLine
 10
184.0677307778072
 20
145.8753419286554
 30
0.0
 11
184.0677307778072
 21
154.8753419286554
 31
0.0
  0
LINE
  5
A8
330
4B
100
AcDbEntity
  8
0
  6
Continuous
 62
     7
100
AcDbLine
 10
184.0677307778072
 20
136.8753419286554
 30
0.0
 11
184.0677307778072
 21
145.8753419286554
 31
0.0
  0
LINE
  5
A9
330
4B
100
AcDbEntity
  8
1
  6
Continuous
 62
     7
100
AcDbLine
 10
74.3941736344945
 20
297.2515055386111
 30
0.0
 11
69.33750904215904
 21
297.2515055386111
 31
0.0
  0
LINE
  5
AA
330
4B
100
AcDbEntity
  8
1
  6
Continuous
 62
     7
100
AcDbLine
 10
71.064763209373
 20
306.2515055386111
 30
0.0
 11
64.83583102122864
 21
306.2515055386111
 31
0.0
  0
LINE
  5
AB
330
4B
100
AcDbEntity
  8
1
  6
Continuous
 62
     7
100
AcDbLine
 10
91.43583102122867
 20
306.2515055386111
 30
0.0
 11
85.20689883311495
 21
306.2515055386111
 31
0.0
  0
ARC
  5
AC
330
4B
100
AcDbEntity
  8
1
  6
Continuous
 62
     7
100
AcDbCircle
 10
188.9252677423657
 20
135.3753419286554
 30
0.0
 40
4.999999999999985
100
AcDbArc
 50
195.3375576695541
 51
224.4270040008051
  0
ARC
  5
AD
330
4B
100
AcDbEntity
  8
1
  6
Continuous
 62
     7
100
AcDbCircle
 10
188.9252677423657
 20
156.3753419286555
 30
0.0
 40
5.000000000000017
100
AcDbArc
 50
34.05579774256793
 51
44.42700400080482
  0
ARC
  5
AE
330
4B
100
AcDbEntity
  8
1
  6
Continuous
 62
     7
100
AcDbCircle
 10
78.13583102122865
 20
145.8753419286554
 30
0.0
 40
15.49999999999992
100
AcDbArc
 50
355.4146209151616
 51
0.0
  0
ARC
  5
AF
330
4B
100
AcDbEntity
  8
1
  6
Continuous
 62
     7
100
AcDbCircle
 10
78.13583102122865
 20
145.8753419286554
 30
0.0
 40
15.50000000000006
100
AcDbArc
 50
175.4146209151604
 51
180.0
  0
ARC
  5
B0
330
4B
100
AcDbEntity
  8
1
  6
Continuous
 62
     7
100
AcDbCircle
 10
78.13583102122865
 20
145.8753419286554
 30
0.0
 40
15.49999999999999
100
AcDbArc
 50
115.4146209151609
 51
124.5853790848386
  0
ARC
  5
B1
330
4B
100
AcDbEntity
  8
1
  6
Continuous
 62
     7
100
AcDbCircle
 10
78.13583102122865
 20
145.8753419286554
 30
0.0
 40
15.50000000000001
100
AcDbArc
 50
180.0
 51
184.5853790848384
  0
ARC
  5
B2
330
4B
100
AcDbEntity
  8
1
  6
Continuous
 62
     7
100
AcDbCircle
 10
78.13583102122865
 20
145.8753419286554
 30
0.0
 40
15.49999999999994
100
AcDbArc
 50
299.329624645484
 51
304.5853790848394
  0
ARC
  5
B3
330
4B
100
AcDbEntity
  8
1
  6
Continuous
 62
     7
100
AcDbCircle
 10
78.13583102122865
 20
145.8753419286554
 30
0.0
 40
15.5
100
AcDbArc
 50
0.0
 51
4.58537908483969
  0
ARC
  5
B4
330
4B
100
AcDbEntity
  8
1
  6
Continuous
 62
     7
100
AcDbCircle
 10
78.13583102122865
 20
145.8753419286554
 30
0.0
 40
15.50000000000013
100
AcDbArc
 50
55.41462091516136
 51
64.5853790848391
  0
ARC
  5
B5
330
4B
100
AcDbEntity
  8
1
  6
Continuous
 62
     7
100
AcDbCircle
 10
78.13583102122865
 20
145.8753419286554
 30
0.0
 40
8.199999999999989
100
AcDbArc
 50
0.0
 51
202.1948739505718
  0
ARC
  5
B6
330
4B
100
AcDbEntity
  8
1
  6
Continuous
 62
     7
100
AcDbCircle
 10
78.13583102122865
 20
145.8753419286554
 30
0.0
 40
8.199999999999934
100
AcDbArc
 50
337.8051260494287
 51
0.0
  0
ARC
  5
B7
330
4B
100
AcDbEntity
  8
1
  6
Continuous
 62
     7
100
AcDbCircle
 10
78.13583102122865
 20
145.8753419286554
 30
0.0
 40
10.5
100
AcDbArc
 50
0.0
 51
223.6900400207646
  0
ARC
  5
B8
330
4B
100
AcDbEntity
  8
1
  6
Continuous
 62
     7
100
AcDbCircle
 10
78.13583102122865
 20
145.8753419286554
 30
0.0
 40
10.49999999999999
100
AcDbArc
 50
316.3099599792354
 51
0.0
  0
ARC
  5
B9
330
4B
100
AcDbEntity
  8
1
  6
Continuous
 62
     7
100
AcDbCircle
 10
78.13583102122865
 20
145.8753419286554
 30
0.0
 40
15.49999999999985
100
AcDbArc
 50
235.4146209151606
 51
240.670375354516
  0
ARC
  5
BA
330
4B
100
AcDbEntity
  8
1
  6
Continuous
 62
     7
100
AcDbCircle
 10
188.9252677423657
 20
156.3753419286555
 30
0.0
 40
4.999999999999977
100
AcDbArc
 50
135.5729959991959
 51
164.6624423304459
  0
ARC
  5
BB
330
4B
100
AcDbEntity
  8
1
  6
Continuous
 62
     7
100
AcDbCircle
 10
188.9252677423657
 20
135.3753419286554
 30
0.0
 40
5.000000000000057
100
AcDbArc
 50
315.572995999195
 51
325.9442022574323
  0
ARC
  5
BC
330
4B
100
AcDbEntity
  8
1
  6
Continuous
 62
     7
100
AcDbCircle
 10
67.63583102122877
 20
302.1090425031696
 30
0.0
 40
5.000000000000033
100
AcDbArc
 50
124.0557977425694
 51
254.6624423304434
  0
ARC
  5
BD
330
4B
100
AcDbEntity
  8
1
  6
Continuous
 62
     7
100
AcDbCircle
 10
88.63583102122877
 20
302.1090425031696
 30
0.0
 40
4.999999999999955
100
AcDbArc
 50
285.3375576695528
 51
55.94420225743278
  0
SPLINE
  5
BE
330
4B
100
AcDbEntity
  8
1
  6
Continuous
 62
     7
100
AcDbSpline
210
0.0
220
0.0
230
1.0
 70
    11
 71
     3
 72
    79
 73
    75
 74
    73
 42
0.000000001
 43
0.0000000001
 44
0.00000001
 40
0.0
 40
0.0
 40
0.0
 40
0.0
 40
0.2903672471831696
 40
0.5807357518971628
 40
0.8724070977358384
 40
1.164081911023935
 40
1.458189924522202
 40
1.752302920472692
 40
2.04966320104635
 40
2.347029106415384
 40
2.64804578611587
 40
2.9490679363252
 40
3.25369774655229
 40
3.558332275329946
 40
3.86610485778007
 40
4.17388101953997
 40
4.483966061108318
 40
4.794053321447633
 40
5.105362217358594
 40
5.416671863434742
 40
5.727981509499976
 40
6.039290405378441
 40
6.349377665663435
 40
6.65946270715524
 40
6.967238868816571
 40
7.275011451144521
 40
7.579645979777244
 40
7.884275789834202
 40
8.18529793984954
 40
8.48631461932834
 40
8.783680524448782
 40
9.081040804740919
 40
9.375153800374175
 40
9.669261813502233
 40
9.960936626337231
 40
10.25260797152396
 40
10.54297647485862
 40
10.83334373090412
 40
11.1237109869496
 40
11.41407949028428
 40
11.70575083547104
 40
11.997425648306
 40
12.29153366143411
 40
12.58564665706738
 40
12.88300693735952
 40
13.18037284248003
 40
13.48138952195883
 40
13.78241167197409
 40
14.08704148203109
 40
14.39167601066385
 40
14.69944859299179
 40
15.00722475465309
 40
15.31730979614483
 40
15.62739705642989
 40
15.93870595230841
 40
16.25001559837359
 40
16.56132524444974
 40
16.87263414036071
 40
17.18272140070003
 40
17.49280644226837
 40
17.8005826040283
 40
18.10835518647835
 40
18.41298971525601
 40
18.71761952548311
 40
19.01864167569249
 40
19.31965835539293
 40
19.61702426076194
 40
19.9143845413356
 40
20.20849753728619
 40
20.50260555078454
 40
20.79428036407263
 40
21.08595170991131
 40
21.37632021462528
 40
21.66668746180847
 40
21.66668746180847
 40
21.66668746180847
 40
21.66668746180847
 10
90.26018667421084
 20
298.5383282888981
 30
0.0
 10
90.35701048092051
 20
298.5409598862186
 30
0.0
 10
90.55065851383623
 20
298.5462230870372
 30
0.0
 10
90.83901939014297
 20
298.588518159219
 30
0.0
 10
91.12273153412221
 20
298.6557290517126
 30
0.0
 10
91.4001565969079
 20
298.7497842169819
 30
0.0
 10
91.66847750828893
 20
298.8692156746654
 30
0.0
 10
91.92647727165982
 20
299.0134911701517
 30
0.0
 10
92.17127927491619
 20
299.1810952453546
 30
0.0
 10
92.40197549997846
 20
299.3712577995145
 30
0.0
 10
92.61587120725517
 20
299.5818805198262
 30
0.0
 10
92.81224474983463
 20
299.8121021356578
 30
0.0
 10
92.98879409499797
 20
300.0593385590558
 30
0.0
 10
93.1448968916683
 20
300.3225727333028
 30
0.0
 10
93.27878590627769
 20
300.5989362878845
 30
0.0
 10
93.38991392328097
 20
300.8871497317458
 30
0.0
 10
93.47710468326304
 20
301.1842881748988
 30
0.0
 10
93.53993028990327
 20
301.4887113289304
 30
0.0
 10
93.57777883985828
 20
301.7976479412228
 30
0.0
 10
93.59044110199656
 20
302.1090424937973
 30
0.0
 10
93.57777884021989
 20
302.4204370463741
 30
0.0
 10
93.53993029062717
 20
302.7293736586826
 30
0.0
 10
93.4771046843512
 20
303.033796812717
 30
0.0
 10
93.38991392473577
 20
303.3309352559602
 30
0.0
 10
93.278785908103
 20
303.6191486996264
 30
0.0
 10
93.14489689386801
 20
303.8955122551147
 30
0.0
 10
92.98879409757802
 20
304.1587464262364
 30
0.0
 10
92.8122447528008
 20
304.4059828615005
 30
0.0
 10
92.61587121061604
 20
304.6362044338771
 30
0.0
 10
92.40197550374307
 20
304.8468273156938
 30
0.0
 10
92.17127927909789
 20
305.0369892745709
 30
0.0
 10
91.92647727627559
 20
305.2045955581642
 30
0.0
 10
91.66847751336758
 20
305.348862898626
 30
0.0
 10
91.40015660249495
 20
305.4683246379641
 30
0.0
 10
91.1227315403399
 20
305.5622676850184
 30
0.0
 10
90.83901939729937
 20
305.6298956574555
 30
0.0
 10
90.55065851911768
 20
305.6706407822979
 30
0.0
 10
90.26018667421084
 20
305.6843146602229
 30
0.0
 10
89.969714829304
 20
305.6706407822979
 30
0.0
 10
89.68135395112232
 20
305.6298956574556
 30
0.0
 10
89.39764180808186
 20
305.5622676850182
 30
0.0
 10
89.12021674592668
 20
305.4683246379642
 30
0.0
 10
88.85189583505414
 20
305.3488628986257
 30
0.0
 10
88.59389607214597
 20
305.2045955581643
 30
0.0
 10
88.34909406932367
 20
305.0369892745709
 30
0.0
 10
88.11839784467841
 20
304.8468273156939
 30
0.0
 10
87.90450213780558
 20
304.636204433877
 30
0.0
 10
87.70812859562082
 20
304.4059828615006
 30
0.0
 10
87.53157925084355
 20
304.1587464262363
 30
0.0
 10
87.3754764545535
 20
303.8955122551147
 30
0.0
 10
87.24158744031844
 20
303.6191486996264
 30
0.0
 10
87.13045942368586
 20
303.3309352559604
 30
0.0
 10
87.04326866407041
 20
303.033796812717
 30
0.0
 10
86.98044305779445
 20
302.7293736586827
 30
0.0
 10
86.9425945082017
 20
302.420437046374
 30
0.0
 10
86.92993224642491
 20
302.1090424937973
 30
0.0
 10
86.94259450856329
 20
301.7976479412229
 30
0.0
 10
86.98044305851833
 20
301.4887113289304
 30
0.0
 10
87.0432686651586
 20
301.1842881748988
 30
0.0
 10
87.13045942514066
 20
300.8871497317458
 30
0.0
 10
87.24158744214378
 20
300.5989362878843
 30
0.0
 10
87.37547645675322
 20
300.3225727333027
 30
0.0
 10
87.53157925342353
 20
300.0593385590558
 30
0.0
 10
87.70812859858687
 20
299.8121021356578
 30
0.0
 10
87.90450214116632
 20
299.5818805198261
 30
0.0
 10
88.11839784844308
 20
299.3712577995145
 30
0.0
 10
88.3490940735053
 20
299.1810952453545
 30
0.0
 10
88.5938960767617
 20
299.0134911701517
 30
0.0
 10
88.85189584013267
 20
298.8692156746654
 30
0.0
 10
89.12021675151378
 20
298.7497842169819
 30
0.0
 10
89.39764181429953
 20
298.6557290517126
 30
0.0
 10
89.68135395827868
 20
298.588518159219
 30
0.0
 10
89.9697148345855
 20
298.5462230870371
 30
0.0
 10
90.16336286750116
 20
298.5409598862187
 30
0.0
 10
90.26018667421084
 20
298.5383282888981
 30
0.0
 11
90.26018667421084
 21
298.5383282888981
 31
0.0
 11
90.55023443600886
 21
298.5519459017505
 31
0.0
 11
90.83774636054454
 21
298.5925754611641
 31
0.0
 11
91.12148367041313
 21
298.6601425590026
 31
0.0
 11
91.39775718806834
 21
298.7536687050833
 31
0.0
 11
91.66647425016706
 21
298.8732122705211
 31
0.0
 11
91.92320351116695
 21
299.0167132839563
 31
0.0
 11
92.16862080094916
 21
299.1846224566631
 31
0.0
 11
92.39811990920197
 21
299.373716721361
 31
0.0
 11
92.6126744682388
 21
299.5848502871906
 31
0.0
 11
92.80807628773806
 21
299.8138316485042
 31
0.0
 11
92.98517969287826
 21
300.0616898845018
 31
0.0
 11
93.14061632966144
 21
300.3236853960339
 31
0.0
 11
93.27486955828459
 21
300.6006331043009
 31
0.0
 11
93.38563597407185
 21
300.8877863158294
 31
0.0
 11
93.47299372954488
 21
301.1853117022767
 31
0.0
 11
93.53569042305955
 21
301.488994486892
 31
0.0
 11
93.57357284302863
 21
301.7979898767644
 31
0.0
 11
93.58622034812325
 21
302.1090425031696
 31
0.0
 11
93.57357284302864
 21
302.4200951295747
 31
0.0
 11
93.53569042305955
 21
302.7290905194471
 31
0.0
 11
93.47299372954487
 21
303.0327733040623
 31
0.0
 11
93.38563597407185
 21
303.3302986905096
 31
0.0
 11
93.27486955828459
 21
303.6174519020382
 31
0.0
 11
93.14061632966144
 21
303.8943996103052
 31
0.0
 11
92.98517969287826
 21
304.1563951218374
 31
0.0
 11
92.80807628773806
 21
304.4042533578348
 31
0.0
 11
92.6126744682388
 21
304.6332347191486
 31
0.0
 11
92.39811990920197
 21
304.8443682849782
 31
0.0
 11
92.16862080094924
 21
305.0334625496761
 31
0.0
 11
91.92320351116706
 21
305.2013717223828
 31
0.0
 11
91.6664742501671
 21
305.3448727358181
 31
0.0
 11
91.39775718806834
 21
305.4644163012557
 31
0.0
 11
91.12148367041311
 21
305.5579424473366
 31
0.0
 11
90.83774636054454
 21
305.625509545175
 31
0.0
 11
90.55023443600888
 21
305.6661391045885
 31
0.0
 11
90.26018667421084
 21
305.6797567174409
 31
0.0
 11
89.97013891241282
 21
305.6661391045885
 31
0.0
 11
89.68262698787714
 21
305.625509545175
 31
0.0
 11
89.39888967800857
 21
305.5579424473365
 31
0.0
 11
89.12261616035335
 21
305.4644163012557
 31
0.0
 11
88.85389909825456
 21
305.344872735818
 31
0.0
 11
88.59716983725454
 21
305.2013717223828
 31
0.0
 11
88.35175254747232
 21
305.0334625496761
 31
0.0
 11
88.12225343921955
 21
304.8443682849782
 31
0.0
 11
87.90769888018278
 21
304.6332347191486
 31
0.0
 11
87.71229706068357
 21
304.4042533578348
 31
0.0
 11
87.5351936555433
 21
304.1563951218374
 31
0.0
 11
87.37975701876005
 21
303.8943996103052
 31
0.0
 11
87.24550379013692
 21
303.6174519020382
 31
0.0
 11
87.13473737434975
 21
303.3302986905096
 31
0.0
 11
87.04737961887676
 21
303.0327733040623
 31
0.0
 11
86.98468292536205
 21
302.7290905194471
 31
0.0
 11
86.94680050539291
 21
302.4200951295746
 31
0.0
 11
86.93415300029827
 21
302.1090425031696
 31
0.0
 11
86.94680050539293
 21
301.7979898767644
 31
0.0
 11
86.98468292536205
 21
301.488994486892
 31
0.0
 11
87.04737961887673
 21
301.1853117022767
 31
0.0
 11
87.13473737434975
 21
300.8877863158294
 31
0.0
 11
87.24550379013695
 21
300.6006331043008
 31
0.0
 11
87.37975701876005
 21
300.3236853960339
 31
0.0
 11
87.53519365554322
 21
300.0616898845018
 31
0.0
 11
87.71229706068345
 21
299.8138316485042
 31
0.0
 11
87.90769888018272
 21
299.5848502871905
 31
0.0
 11
88.12225343921955
 21
299.373716721361
 31
0.0
 11
88.35175254747233
 21
299.1846224566631
 31
0.0
 11
88.59716983725454
 21
299.0167132839563
 31
0.0
 11
88.85389909825454
 21
298.8732122705211
 31
0.0
 11
89.12261616035335
 21
298.7536687050833
 31
0.0
 11
89.39888967800857
 21
298.6601425590026
 31
0.0
 11
89.68262698787714
 21
298.5925754611641
 31
0.0
 11
89.9701389124128
 21
298.5519459017505
 31
0.0
 11
90.26018667421084
 21
298.5383282888981
 31
0.0
  0
SPLINE
  5
BF
330
4B
100
AcDbEntity
  8
1
  6
Continuous
 62
     7
100
AcDbSpline
210
0.0
220
0.0
230
1.0
 70
    11
 71
     3
 72
    79
 73
    75
 74
    73
 42
0.000000001
 43
0.0000000001
 44
0.00000001
 40
0.0
 40
0.0
 40
0.0
 40
0.0
 40
0.2903672471831696
 40
0.5807357518971628
 40
0.8724070977358384
 40
1.164081911023935
 40
1.458189924522254
 40
1.752302920472793
 40
2.049663201046358
 40
2.347029106415298
 40
2.64804578611582
 40
2.949067936325197
 40
3.253697746552333
 40
3.55833227533001
 40
3.86610485778009
 40
4.173881019539952
 40
4.483966061108288
 40
4.794053321447612
 40
5.105362217358587
 40
5.416671863434738
 40
5.727981509499975
 40
6.039290405378452
 40
6.3493776656634
 40
6.659462707155248
 40
6.967238868816535
 40
7.275011451144452
 40
7.579645979777193
 40
7.884275789834201
 40
8.185297939849542
 40
8.486314619328407
 40
8.783680524448826
 40
9.081040804740894
 40
9.375153800374122
 40
9.669261813502203
 40
9.960936626337183
 40
10.25260797152393
 40
10.54297647485859
 40
10.83334373090408
 40
11.12371098694961
 40
11.41407949028433
 40
11.7057508354711
 40
11.99742564830605
 40
12.29153366143417
 40
12.58564665706743
 40
12.8830069373595
 40
13.18037284247992
 40
13.48138952195876
 40
13.78241167197414
 40
14.08704148203107
 40
14.39167601066377
 40
14.69944859299172
 40
15.00722475465305
 40
15.3173097961448
 40
15.62739705642985
 40
15.93870595230837
 40
16.25001559837355
 40
16.5613252444497
 40
16.87263414036066
 40
17.18272140069992
 40
17.49280644226832
 40
17.80058260402824
 40
18.10835518647827
 40
18.41298971525598
 40
18.71761952548308
 40
19.0186416756924
 40
19.31965835539297
 40
19.61702426076192
 40
19.91438454133548
 40
20.20849753728606
 40
20.50260555078441
 40
20.79428036407249
 40
21.08595170991118
 40
21.37632021462522
 40
21.66668746180843
 40
21.66668746180843
 40
21.66668746180843
 40
21.66668746180843
 10
66.01147536824647
 20
298.5383282888981
 30
0.0
 10
65.91465156153679
 20
298.5409598862186
 30
0.0
 10
65.72100352862113
 20
298.5462230870372
 30
0.0
 10
65.43264265231429
 20
298.588518159219
 30
0.0
 10
65.14893050833513
 20
298.6557290517126
 30
0.0
 10
64.87150544554942
 20
298.7497842169819
 30
0.0
 10
64.60318453416829
 20
298.8692156746653
 30
0.0
 10
64.3451847707974
 20
299.0134911701517
 30
0.0
 10
64.10038276754115
 20
299.1810952453546
 30
0.0
 10
63.86968654247893
 20
299.3712577995144
 30
0.0
 10
63.65579083520223
 20
299.5818805198263
 30
0.0
 10
63.45941729262267
 20
299.8121021356578
 30
0.0
 10
63.28286794745925
 20
300.0593385590559
 30
0.0
 10
63.12676515078888
 20
300.3225727333026
 30
0.0
 10
62.9928761361796
 20
300.5989362878844
 30
0.0
 10
62.88174811917641
 20
300.8871497317458
 30
0.0
 10
62.79455735919443
 20
301.1842881748989
 30
0.0
 10
62.73173175255415
 20
301.4887113289304
 30
0.0
 10
62.693883202599
 20
301.7976479412229
 30
0.0
 10
62.68122094046058
 20
302.1090424937973
 30
0.0
 10
62.69388320223742
 20
302.4204370463741
 30
0.0
 10
62.73173175183022
 20
302.7293736586827
 30
0.0
 10
62.79455735810626
 20
303.0337968127169
 30
0.0
 10
62.88174811772164
 20
303.3309352559602
 30
0.0
 10
62.99287613435423
 20
303.6191486996264
 30
0.0
 10
63.1267651485892
 20
303.8955122551147
 30
0.0
 10
63.28286794487921
 20
304.1587464262364
 30
0.0
 10
63.45941728965647
 20
304.4059828615006
 30
0.0
 10
63.65579083184139
 20
304.636204433877
 30
0.0
 10
63.86968653871428
 20
304.8468273156939
 30
0.0
 10
64.10038276335953
 20
305.0369892745709
 30
0.0
 10
64.34518476618169
 20
305.2045955581643
 30
0.0
 10
64.60318452908979
 20
305.3488628986257
 30
0.0
 10
64.87150543996235
 20
305.4683246379643
 30
0.0
 10
65.14893050211745
 20
305.5622676850184
 30
0.0
 10
65.43264264515793
 20
305.6298956574555
 30
0.0
 10
65.72100352333962
 20
305.6706407822979
 30
0.0
 10
66.01147536824648
 20
305.684314660223
 30
0.0
 10
66.30194721315334
 20
305.6706407822979
 30
0.0
 10
66.59030809133509
 20
305.6298956574555
 30
0.0
 10
66.87402023437555
 20
305.5622676850182
 30
0.0
 10
67.15144529653071
 20
305.4683246379642
 30
0.0
 10
67.41976620740327
 20
305.3488628986257
 30
0.0
 10
67.67776597031143
 20
305.2045955581643
 30
0.0
 10
67.92256797313357
 20
305.0369892745709
 30
0.0
 10
68.1532641977788
 20
304.8468273156939
 30
0.0
 10
68.36715990465174
 20
304.636204433877
 30
0.0
 10
68.56353344683662
 20
304.4059828615007
 30
0.0
 10
68.74008279161379
 20
304.1587464262364
 30
0.0
 10
68.89618558790367
 20
303.8955122551147
 30
0.0
 10
69.03007460213874
 20
303.6191486996264
 30
0.0
 10
69.14120261877146
 20
303.3309352559603
 30
0.0
 10
69.22839337838694
 20
303.033796812717
 30
0.0
 10
69.29121898466288
 20
302.7293736586826
 30
0.0
 10
69.32906753425556
 20
302.420437046374
 30
0.0
 10
69.3417297960323
 20
302.1090424937973
 30
0.0
 10
69.32906753389399
 20
301.7976479412229
 30
0.0
 10
69.29121898393899
 20
301.4887113289304
 30
0.0
 10
69.22839337729872
 20
301.1842881748989
 30
0.0
 10
69.14120261731665
 20
300.8871497317459
 30
0.0
 10
69.03007460031353
 20
300.5989362878843
 30
0.0
 10
68.89618558570417
 20
300.3225727333027
 30
0.0
 10
68.74008278903389
 20
300.0593385590558
 30
0.0
 10
68.56353344387045
 20
299.8121021356579
 30
0.0
 10
68.36715990129086
 20
299.5818805198262
 30
0.0
 10
68.15326419401416
 20
299.3712577995145
 30
0.0
 10
67.922567968952
 20
299.1810952453546
 30
0.0
 10
67.67776596569571
 20
299.0134911701517
 30
0.0
 10
67.41976620232472
 20
298.8692156746654
 30
0.0
 10
67.15144529094366
 20
298.7497842169819
 30
0.0
 10
66.87402022815786
 20
298.6557290517125
 30
0.0
 10
66.59030808417872
 20
298.5885181592191
 30
0.0
 10
66.30194720787185
 20
298.546223087037
 30
0.0
 10
66.10829917495616
 20
298.5409598862187
 30
0.0
 10
66.01147536824647
 20
298.5383282888981
 30
0.0
 11
66.01147536824647
 21
298.5383282888981
 31
0.0
 11
65.72142760644844
 21
298.5519459017505
 31
0.0
 11
65.43391568191277
 21
298.5925754611641
 31
0.0
 11
65.15017837204418
 21
298.6601425590026
 31
0.0
 11
64.87390485438897
 21
298.7536687050833
 31
0.0
 11
64.6051877922902
 21
298.8732122705211
 31
0.0
 11
64.34845853129025
 21
299.0167132839563
 31
0.0
 11
64.10304124150815
 21
299.1846224566631
 31
0.0
 11
63.87354213325546
 21
299.373716721361
 31
0.0
 11
63.65898757421859
 21
299.5848502871906
 31
0.0
 11
63.46358575471925
 21
299.8138316485042
 31
0.0
 11
63.28648234957896
 21
300.0616898845018
 31
0.0
 11
63.13104571279575
 21
300.3236853960339
 31
0.0
 11
62.99679248417269
 21
300.6006331043009
 31
0.0
 11
62.88602606838555
 21
300.8877863158294
 31
0.0
 11
62.79866831291256
 21
301.1853117022767
 31
0.0
 11
62.73597161939784
 21
301.488994486892
 31
0.0
 11
62.69808919942865
 21
301.7979898767644
 31
0.0
 11
62.68544169433395
 21
302.1090425031696
 31
0.0
 11
62.69808919942864
 21
302.4200951295747
 31
0.0
 11
62.73597161939784
 21
302.7290905194471
 31
0.0
 11
62.79866831291257
 21
303.0327733040622
 31
0.0
 11
62.88602606838555
 21
303.3302986905096
 31
0.0
 11
62.99679248417269
 21
303.6174519020382
 31
0.0
 11
63.13104571279575
 21
303.8943996103052
 31
0.0
 11
63.28648234957897
 21
304.1563951218374
 31
0.0
 11
63.46358575471925
 21
304.4042533578348
 31
0.0
 11
63.65898757421859
 21
304.6332347191486
 31
0.0
 11
63.87354213325546
 21
304.8443682849782
 31
0.0
 11
64.10304124150815
 21
305.0334625496761
 31
0.0
 11
64.34845853129025
 21
305.2013717223828
 31
0.0
 11
64.60518779229021
 21
305.344872735818
 31
0.0
 11
64.87390485438897
 21
305.4644163012557
 31
0.0
 11
65.1501783720442
 21
305.5579424473365
 31
0.0
 11
65.43391568191277
 21
305.625509545175
 31
0.0
 11
65.72142760644843
 21
305.6661391045885
 31
0.0
 11
66.01147536824647
 21
305.6797567174409
 31
0.0
 11
66.30152313004453
 21
305.6661391045885
 31
0.0
 11
66.58903505458025
 21
305.625509545175
 31
0.0
 11
66.87277236444883
 21
305.5579424473365
 31
0.0
 11
67.14904588210405
 21
305.4644163012557
 31
0.0
 11
67.41776294420285
 21
305.344872735818
 31
0.0
 11
67.67449220520285
 21
305.2013717223828
 31
0.0
 11
67.91990949498495
 21
305.0334625496761
 31
0.0
 11
68.14940860323765
 21
304.8443682849782
 31
0.0
 11
68.36396316227453
 21
304.6332347191486
 31
0.0
 11
68.55936498177385
 21
304.4042533578348
 31
0.0
 11
68.73646838691401
 21
304.1563951218374
 31
0.0
 11
68.89190502369715
 21
303.8943996103052
 31
0.0
 11
69.0261582523203
 21
303.6174519020382
 31
0.0
 11
69.13692466810755
 21
303.3302986905096
 31
0.0
 11
69.22428242358058
 21
303.0327733040623
 31
0.0
 11
69.28697911709526
 21
302.7290905194471
 31
0.0
 11
69.32486153706434
 21
302.4200951295746
 31
0.0
 11
69.33750904215896
 21
302.1090425031696
 31
0.0
 11
69.32486153706434
 21
301.7979898767644
 31
0.0
 11
69.28697911709526
 21
301.488994486892
 31
0.0
 11
69.22428242358058
 21
301.1853117022767
 31
0.0
 11
69.13692466810755
 21
300.8877863158294
 31
0.0
 11
69.0261582523204
 21
300.6006331043008
 31
0.0
 11
68.89190502369735
 21
300.3236853960339
 31
0.0
 11
68.73646838691415
 21
300.0616898845017
 31
0.0
 11
68.55936498177385
 21
299.8138316485042
 31
0.0
 11
68.36396316227453
 21
299.5848502871906
 31
0.0
 11
68.14940860323765
 21
299.373716721361
 31
0.0
 11
67.91990949498495
 21
299.1846224566631
 31
0.0
 11
67.67449220520285
 21
299.0167132839563
 31
0.0
 11
67.41776294420286
 21
298.8732122705211
 31
0.0
 11
67.14904588210405
 21
298.7536687050833
 31
0.0
 11
66.87277236444883
 21
298.6601425590026
 31
0.0
 11
66.58903505458025
 21
298.5925754611641
 31
0.0
 11
66.30152313004453
 21
298.5519459017505
 31
0.0
 11
66.01147536824647
 21
298.5383282888981
 31
0.0
  0
SPLINE
  5
C0
330
4B
100
AcDbEntity
  8
0
  6
Continuous
 62
     7
100
AcDbSpline
210
0.0
220
0.0
230
1.0
 70
    11
 71
     3
 72
    79
 73
    75
 74
    73
 42
0.000000001
 43
0.0000000001
 44
0.00000001
 40
0.0
 40
0.0
 40
0.0
 40
0.0
 40
0.3210775470639681
 40
0.6418876090884971
 40
0.9828881272070122
 40
1.323517043608579
 40
1.692950500189929
 40
2.062056068345028
 40
2.463712899767394
 40
2.865130060311472
 40
3.298540763298016
 40
3.731789993374754
 40
4.193105329273899
 40
4.65431753568499
 40
5.137214007865769
 40
5.620049814545929
 40
6.116532140550152
 40
6.612986419268391
 40
7.114093722209568
 40
7.615201025150454
 40
8.111655303867455
 40
8.608137629868558
 40
9.090973436542074
 40
9.573869908710025
 40
10.03508211509958
 40
10.49639745096306
 40
10.92964668098715
 40
11.36305738389373
 40
11.7644745443288
 40
12.16613137559336
 40
12.5352369435413
 40
12.90467039982527
 40
13.24529931581413
 40
13.58629983322848
 40
13.90710989320164
 40
14.22818744758321
 40
14.54194546559205
 40
14.85570348359973
 40
15.176781037978
 40
15.49759109794581
 40
15.83859161535303
 40
16.17922053133378
 40
16.54865398760833
 40
16.91775955554664
 40
17.31941638680084
 40
17.7208335472259
 40
18.15424425012217
 40
18.58749348013658
 40
19.04880881599043
 40
19.51002102237104
 40
19.99291749453044
 40
20.47575330119623
 40
20.97223562719017
 40
21.46868990590091
 40
21.96979720883634
 40
22.47090451177304
 40
22.96735879048786
 40
23.46384111648971
 40
23.94667692316863
 40
24.42957339534913
 40
24.8907856017609
 40
25.35210093766112
 40
25.78535016773892
 40
26.21876087072554
 40
26.62017803126725
 40
27.02183486268162
 40
27.3909404308185
 40
27.76037388735717
 40
28.10100280365925
 40
28.44200332148645
 40
28.76281338199423
 40
29.0838909371729
 40
29.39764895732432
 40
29.71140696825806
 40
29.71140696825806
 40
29.71140696825806
 40
29.71140696825806
 10
189.2380696118065
 20
147.136973621279
 30
0.0
 10
189.343529420124
 20
147.1562534921392
 30
0.0
 10
189.5543611814614
 20
147.1947971634242
 30
0.0
 10
189.8626969462334
 20
147.3098505992509
 30
0.0
 10
190.1607811745964
 20
147.4622391249563
 30
0.0
 10
190.4514495515799
 20
147.6593158791007
 30
0.0
 10
190.7262114717544
 20
147.8925023954614
 30
0.0
 10
190.9902370032483
 20
148.1666709276801
 30
0.0
 10
191.234617700673
 20
148.4722140769575
 30
0.0
 10
191.4644862846271
 20
148.814831696573
 30
0.0
 10
191.6720507585692
 20
149.1835278344831
 30
0.0
 10
191.8612652509354
 20
149.5840825807217
 30
0.0
 10
192.0262276693843
 20
150.0051869947129
 30
0.0
 10
192.1694098223277
 20
150.4515452879661
 30
0.0
 10
192.2869354915671
 20
150.9127410703097
 30
0.0
 10
192.380018082827
 20
151.3914361407005
 30
0.0
 10
192.4465200023912
 20
151.8791033862313
 30
0.0
 10
192.4869050384
 20
152.375721153776
 30
0.0
 10
192.5002483405096
 20
152.8753419186988
 30
0.0
 10
192.4869050384029
 20
153.3749626836372
 30
0.0
 10
192.4465200023937
 20
153.8715804511331
 30
0.0
 10
192.3800180828695
 20
154.3592476968349
 30
0.0
 10
192.2869354915481
 20
154.8379427665962
 30
0.0
 10
192.169409822686
 20
155.2991385512288
 30
0.0
 10
192.0262276686339
 20
155.7454968362946
 30
0.0
 10
191.8612652545541
 20
156.1666012799258
 30
0.0
 10
191.6720507473073
 20
156.5671559219488
 30
0.0
 10
191.4644863274779
 20
156.9358524342793
 30
0.0
 10
191.2346175565434
 20
157.2784687544598
 30
0.0
 10
190.9902375283647
 20
157.5840165473336
 30
0.0
 10
190.7262096920591
 20
157.8581690785534
 30
0.0
 10
190.4514560063403
 20
158.091412750435
 30
0.0
 10
190.1607591613403
 20
158.2882918927965
 30
0.0
 10
189.8627773745618
 20
158.4413914968196
 30
0.0
 10
189.5540806082163
 20
158.5539390894506
 30
0.0
 10
189.2415138854738
 20
158.6204906397233
 30
0.0
 10
188.9251187395058
 20
158.6439659543889
 30
0.0
 10
188.6087235935379
 20
158.6204906397342
 30
0.0
 10
188.2961568707965
 20
158.5539390894724
 30
0.0
 10
187.9874601044527
 20
158.4413914968517
 30
0.0
 10
187.6894783176766
 20
158.2882918928388
 30
0.0
 10
187.39878147268
 20
158.0914127504869
 30
0.0
 10
187.1240277869653
 20
157.8581690786145
 30
0.0
 10
186.8599999506649
 20
157.5840165474032
 30
0.0
 10
186.6156199224922
 20
157.2784687545374
 30
0.0
 10
186.3857511515645
 20
156.9358524343645
 30
0.0
 10
186.1781867317434
 20
156.5671559220407
 30
0.0
 10
185.988972224506
 20
156.1666012800243
 30
0.0
 10
185.824009810437
 20
155.7454968363989
 30
0.0
 10
185.6808276563974
 20
155.2991385513385
 30
0.0
 10
185.5633019875495
 20
154.837942766711
 30
0.0
 10
185.4702193962444
 20
154.3592476969543
 30
0.0
 10
185.4037174767388
 20
153.8715804512573
 30
0.0
 10
185.3633324407503
 20
153.3749626837651
 30
0.0
 10
185.3499891386683
 20
152.8753419188346
 30
0.0
 10
185.3633324408025
 20
152.3757211539051
 30
0.0
 10
185.4037174768486
 20
151.8791033864097
 30
0.0
 10
185.4702193964191
 20
151.3914361407253
 30
0.0
 10
185.5633019878117
 20
150.9127410709253
 30
0.0
 10
185.680827656736
 20
150.4515452864629
 30
0.0
 10
185.8240098109836
 20
150.0051870008264
 30
0.0
 10
185.9889722249018
 20
149.5840825593129
 30
0.0
 10
186.1781867333913
 20
149.1835279099143
 30
0.0
 10
186.3857511496078
 20
148.8148314241816
 30
0.0
 10
186.6156199340882
 20
148.472215011826
 30
0.0
 10
186.8599999151002
 20
148.166667548532
 30
0.0
 10
187.1240279153527
 20
147.8925138818876
 30
0.0
 10
187.3987810171677
 20
147.6592742660849
 30
0.0
 10
187.6894798829082
 20
147.462381100525
 30
0.0
 10
187.9874544006625
 20
147.3093319576564
 30
0.0
 10
188.2961767858049
 20
147.1966065404273
 30
0.0
 10
188.6086497871973
 20
147.1307055549833
 30
0.0
 10
188.9253872630038
 20
147.104853990717
 30
0.0
 10
189.1338421629691
 20
147.126267080928
 30
0.0
 10
189.2380696118065
 20
147.136973621279
 30
0.0
 11
189.2380696118065
 21
147.136973621279
 31
0.0
 11
189.5520797801736
 21
147.2039692194691
 31
0.0
 11
189.8538212919782
 21
147.3129240482436
 31
0.0
 11
190.1573413348316
 21
147.4683490672798
 31
0.0
 11
190.4398983417106
 21
147.6585847010052
 31
0.0
 11
190.7220364943853
 21
147.8970781841308
 31
0.0
 11
190.9786202272344
 21
148.1624151555109
 31
0.0
 11
191.2301317923355
 21
148.4755766837553
 31
0.0
 11
191.4542496032424
 21
148.8086036249557
 31
0.0
 11
191.6674819679865
 21
149.1859321238186
 31
0.0
 11
191.8528998310143
 21
149.5774996293807
 31
0.0
 11
192.0216737308843
 21
150.0068330777002
 31
0.0
 11
192.1628034158808
 21
150.4459220337779
 31
0.0
 11
192.2824243680415
 21
150.9137679813355
 31
0.0
 11
192.3747224711509
 21
151.3876999135516
 31
0.0
 11
192.4420449155905
 21
151.8795966390023
 31
0.0
 11
192.4823005770029
 21
152.3744161339516
 31
0.0
 11
192.4957867647979
 21
152.8753419286555
 31
0.0
 11
192.4823005770028
 21
153.3762677233594
 31
0.0
 11
192.4420449155905
 21
153.8710872183088
 31
0.0
 11
192.3747224711509
 21
154.3629839437594
 31
0.0
 11
192.2824243680415
 21
154.8369158759755
 31
0.0
 11
192.1628034158808
 21
155.3047618235331
 31
0.0
 11
192.0216737308843
 21
155.7438507796108
 31
0.0
 11
191.8528998310143
 21
156.1731842279303
 31
0.0
 11
191.6674819679865
 21
156.5647517334924
 31
0.0
 11
191.4542496032424
 21
156.9420802323554
 31
0.0
 11
191.2301317923356
 21
157.2751071735557
 31
0.0
 11
190.9786202272344
 21
157.5882687018001
 31
0.0
 11
190.7220364943854
 21
157.8536056731802
 31
0.0
 11
190.4398983417107
 21
158.0920991563058
 31
0.0
 11
190.1573413348317
 21
158.2823347900312
 31
0.0
 11
189.8538212919782
 21
158.4377598090674
 31
0.0
 11
189.5520797801736
 21
158.5467146378418
 31
0.0
 11
189.2380696118065
 21
158.6137102360319
 31
0.0
 11
188.9251187391241
 21
158.6362012395569
 31
0.0
 11
188.6121678664416
 21
158.6137102360319
 31
0.0
 11
188.2981576980744
 21
158.5467146378418
 31
0.0
 11
187.9964161862699
 21
158.4377598090674
 31
0.0
 11
187.6928961434164
 21
158.2823347900312
 31
0.0
 11
187.4103391365375
 21
158.0920991563058
 31
0.0
 11
187.1282009838627
 21
157.8536056731802
 31
0.0
 11
186.8716172510137
 21
157.5882687018001
 31
0.0
 11
186.6201056859125
 21
157.2751071735558
 31
0.0
 11
186.3959878750056
 21
156.9420802323554
 31
0.0
 11
186.1827555102616
 21
156.5647517334924
 31
0.0
 11
185.9973376472338
 21
156.1731842279303
 31
0.0
 11
185.8285637473638
 21
155.7438507796108
 31
0.0
 11
185.6874340623673
 21
155.3047618235331
 31
0.0
 11
185.5678131102066
 21
154.8369158759756
 31
0.0
 11
185.4755150070972
 21
154.3629839437594
 31
0.0
 11
185.4081925626576
 21
153.8710872183088
 31
0.0
 11
185.3679369012452
 21
153.3762677233594
 31
0.0
 11
185.3544507134503
 21
152.8753419286555
 31
0.0
 11
185.3679369012452
 21
152.3744161339516
 31
0.0
 11
185.4081925626576
 21
151.8795966390023
 31
0.0
 11
185.4755150070973
 21
151.3876999135516
 31
0.0
 11
185.5678131102067
 21
150.9137679813355
 31
0.0
 11
185.6874340623674
 21
150.4459220337779
 31
0.0
 11
185.8285637473638
 21
150.0068330777002
 31
0.0
 11
185.9973376472338
 21
149.5774996293807
 31
0.0
 11
186.1827555102616
 21
149.1859321238187
 31
0.0
 11
186.3959878750056
 21
148.8086036249557
 31
0.0
 11
186.6201056859124
 21
148.4755766837553
 31
0.0
 11
186.8716172510136
 21
148.1624151555109
 31
0.0
 11
187.1282009838627
 21
147.8970781841308
 31
0.0
 11
187.4103391365375
 21
147.6585847010052
 31
0.0
 11
187.6928961434164
 21
147.4683490672798
 31
0.0
 11
187.9964161862698
 21
147.3129240482436
 31
0.0
 11
188.2981576980745
 21
147.2039692194692
 31
0.0
 11
188.6121678664416
 21
147.136973621279
 31
0.0
 11
188.925118739124
 21
147.114482617754
 31
0.0
 11
189.2380696118065
 21
147.136973621279
 31
0.0
  0
SPLINE
  5
C1
330
4B
100
AcDbEntity
  8
0
  6
Continuous
 62
     7
100
AcDbSpline
210
0.0
220
0.0
230
1.0
 70
    11
 71
     3
 72
    79
 73
    75
 74
    73
 42
0.000000001
 43
0.0000000001
 44
0.00000001
 40
0.0
 40
0.0
 40
0.0
 40
0.0
 40
0.3210775470639562
 40
0.6418876090884755
 40
0.9828881272070038
 40
1.323517043608602
 40
1.692950500189952
 40
2.062056068345011
 40
2.463712899767399
 40
2.865130060311429
 40
3.298540763297998
 40
3.731789993374735
 40
4.193105329273881
 40
4.654317535684944
 40
5.137214007865723
 40
5.620049814545911
 40
6.116532140550134
 40
6.612986419268373
 40
7.114093722209522
 40
7.615201025150436
 40
8.111655303867437
 40
8.608137629868512
 40
9.090973436542054
 40
9.573869908710005
 40
10.03508211509956
 40
10.49639745096304
 40
10.92964668098714
 40
11.36305738389374
 40
11.76447454432875
 40
12.16613137559334
 40
12.53523694354126
 40
12.90467039982525
 40
13.24529931581411
 40
13.58629983322849
 40
13.90710989320166
 40
14.22818744758322
 40
14.54194546559206
 40
14.85570348359974
 40
15.17678103797801
 40
15.49759109794582
 40
15.83859161535307
 40
16.17922053133382
 40
16.54865398760838
 40
16.91775955554667
 40
17.31941638680091
 40
17.72083354722595
 40
18.15424425012223
 40
18.58749348013661
 40
19.04880881599044
 40
19.51002102237107
 40
19.99291749453053
 40
20.47575330119629
 40
20.97223562719023
 40
21.46868990590094
 40
21.9697972088364
 40
22.47090451177307
 40
22.96735879048789
 40
23.46384111648975
 40
23.94667692316872
 40
24.42957339534919
 40
24.89078560176091
 40
25.35210093766115
 40
25.78535016773898
 40
26.2187608707256
 40
26.62017803126729
 40
27.02183486268165
 40
27.39094043081846
 40
27.76037388735719
 40
28.10100280365927
 40
28.44200332148646
 40
28.76281338199423
 40
29.0838909371729
 40
29.39764895732431
 40
29.71140696825805
 40
29.71140696825805
 40
29.71140696825805
 40
29.71140696825805
 10
189.2380696118065
 20
144.6137102360318
 30
0.0
 10
189.343529420124
 20
144.5944303651716
 30
0.0
 10
189.5543611814614
 20
144.5558866938867
 30
0.0
 10
189.8626969462335
 20
144.44083325806
 30
0.0
 10
190.1607811745963
 20
144.2884447323546
 30
0.0
 10
190.4514495515799
 20
144.0913679782101
 30
0.0
 10
190.7262114717544
 20
143.8581814618494
 30
0.0
 10
190.9902370032483
 20
143.5840129296307
 30
0.0
 10
191.234617700673
 20
143.2784697803534
 30
0.0
 10
191.4644862846272
 20
142.9358521607378
 30
0.0
 10
191.6720507585691
 20
142.5671560228279
 30
0.0
 10
191.8612652509355
 20
142.1666012765891
 30
0.0
 10
192.0262276693842
 20
141.745496862598
 30
0.0
 10
192.1694098223277
 20
141.2991385693448
 30
0.0
 10
192.2869354915671
 20
140.8379427870012
 30
0.0
 10
192.3800180828269
 20
140.3592477166104
 30
0.0
 10
192.4465200023912
 20
139.8715804710796
 30
0.0
 10
192.4869050383999
 20
139.3749627035349
 30
0.0
 10
192.5002483405097
 20
138.8753419386121
 30
0.0
 10
192.4869050384029
 20
138.3757211736736
 30
0.0
 10
192.4465200023937
 20
137.8791034061778
 30
0.0
 10
192.3800180828695
 20
137.391436160476
 30
0.0
 10
192.2869354915481
 20
136.9127410907147
 30
0.0
 10
192.1694098226859
 20
136.4515453060821
 30
0.0
 10
192.0262276686339
 20
136.0051870210162
 30
0.0
 10
191.8612652545541
 20
135.5840825773851
 30
0.0
 10
191.6720507473073
 20
135.1835279353621
 30
0.0
 10
191.464486327478
 20
134.8148314230315
 30
0.0
 10
191.2346175565434
 20
134.4722151028511
 30
0.0
 10
190.9902375283646
 20
134.1666673099773
 30
0.0
 10
190.7262096920591
 20
133.8925147787575
 30
0.0
 10
190.4514560063403
 20
133.6592711068759
 30
0.0
 10
190.1607591613404
 20
133.4623919645144
 30
0.0
 10
189.8627773745618
 20
133.3092923604913
 30
0.0
 10
189.5540806082163
 20
133.1967447678601
 30
0.0
 10
189.2415138854739
 20
133.1301932175876
 30
0.0
 10
188.9251187395057
 20
133.106717902922
 30
0.0
 10
188.608723593538
 20
133.1301932175766
 30
0.0
 10
188.2961568707964
 20
133.1967447678384
 30
0.0
 10
187.9874601044528
 20
133.309292360459
 30
0.0
 10
187.6894783176766
 20
133.4623919644721
 30
0.0
 10
187.39878147268
 20
133.6592711068239
 30
0.0
 10
187.1240277869653
 20
133.8925147786965
 30
0.0
 10
186.8599999506648
 20
134.1666673099077
 30
0.0
 10
186.6156199224922
 20
134.4722151027735
 30
0.0
 10
186.3857511515645
 20
134.8148314229464
 30
0.0
 10
186.1781867317434
 20
135.1835279352702
 30
0.0
 10
185.988972224506
 20
135.5840825772866
 30
0.0
 10
185.824009810437
 20
136.005187020912
 30
0.0
 10
185.6808276563974
 20
136.4515453059724
 30
0.0
 10
185.5633019875495
 20
136.9127410905999
 30
0.0
 10
185.4702193962443
 20
137.3914361603566
 30
0.0
 10
185.4037174767388
 20
137.8791034060536
 30
0.0
 10
185.3633324407504
 20
138.3757211735458
 30
0.0
 10
185.3499891386683
 20
138.8753419384763
 30
0.0
 10
185.3633324408026
 20
139.3749627034058
 30
0.0
 10
185.4037174768486
 20
139.8715804709012
 30
0.0
 10
185.470219396419
 20
140.3592477165856
 30
0.0
 10
185.5633019878117
 20
140.8379427863856
 30
0.0
 10
185.6808276567361
 20
141.299138570848
 30
0.0
 10
185.8240098109836
 20
141.7454968564845
 30
0.0
 10
185.9889722249018
 20
142.166601297998
 30
0.0
 10
186.1781867333913
 20
142.5671559473966
 30
0.0
 10
186.3857511496078
 20
142.9358524331293
 30
0.0
 10
186.6156199340882
 20
143.2784688454849
 30
0.0
 10
186.8599999151001
 20
143.5840163087789
 30
0.0
 10
187.1240279153528
 20
143.8581699754232
 30
0.0
 10
187.3987810171677
 20
144.091409591226
 30
0.0
 10
187.6894798829082
 20
144.2883027567859
 30
0.0
 10
187.9874544006626
 20
144.4413518996544
 30
0.0
 10
188.2961767858049
 20
144.5540773168835
 30
0.0
 10
188.6086497871974
 20
144.6199783023276
 30
0.0
 10
188.9253872630038
 20
144.6458298665938
 30
0.0
 10
189.1338421629692
 20
144.6244167763828
 30
0.0
 10
189.2380696118065
 20
144.6137102360318
 30
0.0
 11
189.2380696118065
 21
144.6137102360318
 31
0.0
 11
189.5520797801736
 21
144.5467146378417
 31
0.0
 11
189.8538212919782
 21
144.4377598090673
 31
0.0
 11
190.1573413348316
 21
144.2823347900311
 31
0.0
 11
190.4398983417106
 21
144.0920991563056
 31
0.0
 11
190.7220364943853
 21
143.85360567318
 31
0.0
 11
190.9786202272344
 21
143.5882687018
 31
0.0
 11
191.2301317923355
 21
143.2751071735555
 31
0.0
 11
191.4542496032424
 21
142.9420802323552
 31
0.0
 11
191.6674819679865
 21
142.5647517334922
 31
0.0
 11
191.8528998310143
 21
142.1731842279302
 31
0.0
 11
192.0216737308843
 21
141.7438507796107
 31
0.0
 11
192.1628034158808
 21
141.304761823533
 31
0.0
 11
192.2824243680415
 21
140.8369158759754
 31
0.0
 11
192.3747224711509
 21
140.3629839437593
 31
0.0
 11
192.4420449155905
 21
139.8710872183086
 31
0.0
 11
192.4823005770029
 21
139.3762677233593
 31
0.0
 11
192.4957867647979
 21
138.8753419286554
 31
0.0
 11
192.4823005770028
 21
138.3744161339515
 31
0.0
 11
192.4420449155905
 21
137.8795966390021
 31
0.0
 11
192.3747224711509
 21
137.3876999135515
 31
0.0
 11
192.2824243680415
 21
136.9137679813354
 31
0.0
 11
192.1628034158808
 21
136.4459220337778
 31
0.0
 11
192.0216737308843
 21
136.0068330777001
 31
0.0
 11
191.8528998310143
 21
135.5774996293806
 31
0.0
 11
191.6674819679865
 21
135.1859321238185
 31
0.0
 11
191.4542496032424
 21
134.8086036249555
 31
0.0
 11
191.2301317923356
 21
134.4755766837552
 31
0.0
 11
190.9786202272344
 21
134.1624151555108
 31
0.0
 11
190.7220364943854
 21
133.8970781841307
 31
0.0
 11
190.4398983417107
 21
133.6585847010051
 31
0.0
 11
190.1573413348317
 21
133.4683490672797
 31
0.0
 11
189.8538212919782
 21
133.3129240482435
 31
0.0
 11
189.5520797801736
 21
133.203969219469
 31
0.0
 11
189.2380696118065
 21
133.1369736212789
 31
0.0
 11
188.9251187391241
 21
133.1144826177539
 31
0.0
 11
188.6121678664416
 21
133.1369736212789
 31
0.0
 11
188.2981576980744
 21
133.203969219469
 31
0.0
 11
187.9964161862699
 21
133.3129240482435
 31
0.0
 11
187.6928961434164
 21
133.4683490672797
 31
0.0
 11
187.4103391365375
 21
133.6585847010051
 31
0.0
 11
187.1282009838627
 21
133.8970781841307
 31
0.0
 11
186.8716172510137
 21
134.1624151555108
 31
0.0
 11
186.6201056859125
 21
134.4755766837552
 31
0.0
 11
186.3959878750056
 21
134.8086036249555
 31
0.0
 11
186.1827555102616
 21
135.1859321238185
 31
0.0
 11
185.9973376472338
 21
135.5774996293806
 31
0.0
 11
185.8285637473638
 21
136.0068330777001
 31
0.0
 11
185.6874340623673
 21
136.4459220337778
 31
0.0
 11
185.5678131102066
 21
136.9137679813354
 31
0.0
 11
185.4755150070972
 21
137.3876999135515
 31
0.0
 11
185.4081925626576
 21
137.8795966390022
 31
0.0
 11
185.3679369012452
 21
138.3744161339515
 31
0.0
 11
185.3544507134503
 21
138.8753419286554
 31
0.0
 11
185.3679369012452
 21
139.3762677233593
 31
0.0
 11
185.4081925626576
 21
139.8710872183086
 31
0.0
 11
185.4755150070973
 21
140.3629839437593
 31
0.0
 11
185.5678131102067
 21
140.8369158759754
 31
0.0
 11
185.6874340623674
 21
141.304761823533
 31
0.0
 11
185.8285637473638
 21
141.7438507796107
 31
0.0
 11
185.9973376472338
 21
142.1731842279302
 31
0.0
 11
186.1827555102616
 21
142.5647517334922
 31
0.0
 11
186.3959878750056
 21
142.9420802323552
 31
0.0
 11
186.6201056859124
 21
143.2751071735555
 31
0.0
 11
186.8716172510136
 21
143.5882687018
 31
0.0
 11
187.1282009838627
 21
143.85360567318
 31
0.0
 11
187.4103391365375
 21
144.0920991563057
 31
0.0
 11
187.6928961434164
 21
144.2823347900311
 31
0.0
 11
187.9964161862698
 21
144.4377598090673
 31
0.0
 11
188.2981576980745
 21
144.5467146378417
 31
0.0
 11
188.6121678664416
 21
144.6137102360318
 31
0.0
 11
188.925118739124
 21
144.6362012395568
 31
0.0
 11
189.2380696118065
 21
144.6137102360318
 31
0.0
  0
ARC
  5
C2
330
4B
100
AcDbEntity
  8
1
  6
Continuous
 62
     7
100
AcDbCircle
 10
184.0677307778072
 20
155.6432911210866
 30
0.0
 40
0.9999999999999589
100
AcDbArc
 50
120.0000000000014
 51
132.9414028648834
  0
ARC
  5
C3
330
4B
100
AcDbEntity
  8
1
  6
Continuous
 62
     7
100
AcDbCircle
 10
183.0677307778072
 20
157.3753419286554
 30
0.0
 40
0.9999999999999589
100
AcDbArc
 50
300.0000000000013
 51
0.0
  0
ARC
  5
C4
330
4B
100
AcDbEntity
  8
1
  6
Continuous
 62
     7
100
AcDbCircle
 10
184.0677307778072
 20
155.6432911210866
 30
0.0
 40
0.9999999999999277
100
AcDbArc
 50
132.9414028648834
 51
180.0
  0
ARC
  5
C5
330
4B
100
AcDbEntity
  8
1
  6
Continuous
 62
     7
100
AcDbCircle
 10
185.0677307778072
 20
157.4333629903861
 30
0.0
 40
0.9999999999999166
100
AcDbArc
 50
164.6624423304467
 51
180.0
  0
ARC
  5
C6
330
4B
100
AcDbEntity
  8
1
  6
Continuous
 62
     7
100
AcDbCircle
 10
184.0677307778072
 20
136.1073927362243
 30
0.0
 40
1.000000000000032
100
AcDbArc
 50
227.0585971351221
 51
240.0000000000019
  0
ARC
  5
C7
330
4B
100
AcDbEntity
  8
1
  6
Continuous
 62
     7
100
AcDbCircle
 10
183.0677307778072
 20
134.3753419286554
 30
0.0
 40
1.0
100
AcDbArc
 50
0.0
 51
59.99999999999946
  0
ARC
  5
C8
330
4B
100
AcDbEntity
  8
1
  6
Continuous
 62
     7
100
AcDbCircle
 10
184.0677307778072
 20
136.1073927362243
 30
0.0
 40
1.0
100
AcDbArc
 50
180.0
 51
227.0585971351221
  0
ARC
  5
C9
330
4B
100
AcDbEntity
  8
1
  6
Continuous
 62
     7
100
AcDbCircle
 10
185.0677307778072
 20
134.3173208669248
 30
0.0
 40
1.0
100
AcDbArc
 50
180.0
 51
195.3375576695533
  0
ARC
  5
CA
330
4B
100
AcDbEntity
  8
1
  6
Continuous
 62
     7
100
AcDbCircle
 10
66.63583102122877
 20
296.2515055386111
 30
0.0
 40
0.9999999999998606
100
AcDbArc
 50
30.00000000000461
 51
90.0
  0
ARC
  5
CB
330
4B
100
AcDbEntity
  8
1
  6
Continuous
 62
     7
100
AcDbCircle
 10
68.36788182879755
 20
297.2515055386111
 30
0.0
 40
1.000000000000058
100
AcDbArc
 50
209.9999999999981
 51
222.941402864881
  0
ARC
  5
CC
330
4B
100
AcDbEntity
  8
1
  6
Continuous
 62
     7
100
AcDbCircle
 10
66.57780995949815
 20
298.2515055386111
 30
0.0
 40
0.9999999999999967
100
AcDbArc
 50
254.6624423304361
 51
270.0
  0
ARC
  5
CD
330
4B
100
AcDbEntity
  8
1
  6
Continuous
 62
     7
100
AcDbCircle
 10
68.36788182879755
 20
297.2515055386111
 30
0.0
 40
0.999999999999889
100
AcDbArc
 50
222.941402864881
 51
270.0
  0
ARC
  5
CE
330
4B
100
AcDbEntity
  8
1
  6
Continuous
 62
     7
100
AcDbCircle
 10
89.63583102122877
 20
296.2515055386111
 30
0.0
 40
1.0
100
AcDbArc
 50
90.0
 51
150.0000000000052
  0
ARC
  5
CF
330
4B
100
AcDbEntity
  8
1
  6
Continuous
 62
     7
100
AcDbCircle
 10
87.90378021365984
 20
297.2515055386111
 30
0.0
 40
0.9999999999999931
100
AcDbArc
 50
317.0585971351245
 51
329.9999999999962
  0
ARC
  5
D0
330
4B
100
AcDbEntity
  8
1
  6
Continuous
 62
     7
100
AcDbCircle
 10
89.69385208295927
 20
298.2515055386111
 30
0.0
 40
1.0
100
AcDbArc
 50
270.0
 51
285.3375576695514
  0
ARC
  5
D1
330
4B
100
AcDbEntity
  8
1
  6
Continuous
 62
     7
100
AcDbCircle
 10
87.90378021365984
 20
297.2515055386111
 30
0.0
 40
1.0
100
AcDbArc
 50
270.0
 51
317.0585971351245
  0
ENDBLK
  5
4D
330
4B
100
AcDbEntity
  8
0
100
AcDbBlockEnd
  0
BLOCK
  5
4F
330
4E
100
AcDbEntity
  8
0
100
AcDbBlockBegin
  2
36-54-M11
 70
     0
 10
155.1893135116192
 20
95.45570164088565
 30
0.0
  3
36-54-M11
  1

  0
LINE
  5
D2
330
4E
100
AcDbEntity
  8
1
  6
Continuous
 62
     7
100
AcDbLine
 10
222.8177307778073
 20
187.3753319286554
 30
0.0
 11
222.8177307778073
 21
185.3050332168404
 31
0.0
  0
LINE
  5
D3
330
4E
100
AcDbEntity
  8
1
  6
Continuous
 62
     7
100
AcDbLine
 10
213.3177307778072
 20
185.3050332168404
 30
0.0
 11
213.3177307778072
 21
187.3753319286554
 31
0.0
  0
LINE
  5
D4
330
4E
100
AcDbEntity
  8
1
  6
Continuous
 62
     7
100
AcDbLine
 10
82.88583102122865
 20
187.3753319286554
 30
0.0
 11
82.88583102122865
 21
185.3050332168405
 31
0.0
  0
LINE
  5
D5
330
4E
100
AcDbEntity
  8
1
  6
Continuous
 62
     7
100
AcDbLine
 10
73.38583102122865
 20
185.3050332168405
 30
0.0
 11
73.38583102122865
 21
187.3753319286554
 31
0.0
  0
ENDBLK
  5
50
330
4E
100
AcDbEntity
  8
0
100
AcDbBlockEnd
  0
BLOCK
  5
52
330
51
100
AcDbEntity
  8
0
100
AcDbBlockBegin
  2
37-1-13
 70
     0
 10
411.4362435232505
 20
143.9613828218052
 30
0.0
  3
37-1-13
  1

  0
LINE
  5
D6
330
51
100
AcDbEntity
  8
1
  6
Continuous
 62
     7
100
AcDbLine
 10
78.13583102122865
 20
185.3050332168405
 30
0.0
 11
73.13583102122865
 21
185.3050332168405
 31
0.0
  0
LINE
  5
D7
330
51
100
AcDbEntity
  8
1
  6
Continuous
 62
     7
100
AcDbLine
 10
78.13583102122865
 20
185.3050332168405
 30
0.0
 11
84.13583102122865
 21
185.3050332168405
 31
0.0
  0
LINE
  5
D8
330
51
100
AcDbEntity
  8
1
  6
Continuous
 62
     7
100
AcDbLine
 10
73.13583102122865
 20
185.3050332168405
 30
0.0
 11
72.13583102122865
 21
185.3050332168405
 31
0.0
  0
LINE
  5
D9
330
51
100
AcDbEntity
  8
1
  6
Continuous
 62
     7
100
AcDbLine
 10
78.13583102122865
 20
171.3050332168405
 30
0.0
 11
91.13583102122865
 21
171.3050332168405
 31
0.0
  0
LINE
  5
DA
330
51
100
AcDbEntity
  8
1
  6
Continuous
 62
     7
100
AcDbLine
 10
78.13583102122865
 20
171.3050332168405
 30
0.0
 11
65.13583102122865
 21
171.3050332168405
 31
0.0
  0
LINE
  5
DB
330
51
100
AcDbEntity
  8
1
  6
Continuous
 62
     7
100
AcDbLine
 10
91.13583102122865
 20
178.375747431112
 30
0.0
 11
91.13583102122865
 21
171.3050332168405
 31
0.0
  0
LINE
  5
DC
330
51
100
AcDbEntity
  8
1
  6
Continuous
 62
     7
100
AcDbLine
 10
65.13583102122865
 20
171.3050332168405
 30
0.0
 11
65.13583102122865
 21
178.375747431112
 31
0.0
  0
LINE
  5
DD
330
51
100
AcDbEntity
  8
1
  6
Continuous
 62
     7
100
AcDbLine
 10
205.5677307778074
 20
178.8050332168405
 30
0.0
 11
218.0677307778072
 21
178.8050332168404
 31
0.0
  0
LINE
  5
DE
330
51
100
AcDbEntity
  8
1
  6
Continuous
 62
     7
100
AcDbLine
 10
231.1384449920787
 20
171.3050332168404
 30
0.0
 11
204.9970165635359
 21
171.3050332168404
 31
0.0
  0
LINE
  5
DF
330
51
100
AcDbEntity
  8
1
  6
Continuous
 62
     7
100
AcDbLine
 10
224.0677307778072
 20
185.3050332168404
 30
0.0
 11
212.0677307778072
 21
185.3050332168404
 31
0.0
  0
LINE
  5
E0
330
51
100
AcDbEntity
  8
1
  6
Continuous
 62
     7
100
AcDbLine
 10
218.0677307778072
 20
178.8050332168404
 30
0.0
 11
230.5677307778071
 21
178.8050332168405
 31
0.0
  0
LINE
  5
E1
330
51
100
AcDbEntity
  8
0
  6
Continuous
 62
     7
100
AcDbLine
 10
65.13583102122865
 20
178.375747431112
 30
0.0
 11
91.13583102122865
 21
178.375747431112
 31
0.0
  0
LINE
  5
E2
330
51
100
AcDbEntity
  8
1
  6
Continuous
 62
     7
100
AcDbLine
 10
91.13583102122874
 20
326.1223300089962
 30
0.0
 11
91.13583102122874
 21
324.8288892492789
 31
0.0
  0
LINE
  5
E3
330
51
100
AcDbEntity
  8
1
  6
Continuous
 62
     7
100
AcDbLine
 10
72.52609005981213
 20
319.4791839938391
 30
0.0
 11
71.6358310212288
 21
319.9931752894137
 31
0.0
  0
LINE
  5
E4
330
51
100
AcDbEntity
  8
1
  6
Continuous
 62
     7
100
AcDbLine
 10
65.13583102122874
 20
336.3806810682459
 30
0.0
 11
65.13583102122874
 21
337.6741218279441
 31
0.0
  0
LINE
  5
E5
330
51
100
AcDbEntity
  8
1
  6
Continuous
 62
     7
100
AcDbLine
 10
83.74557198270475
 20
343.0238270833495
 30
0.0
 11
84.63583102122874
 21
342.5098357878092
 31
0.0
  0
LINE
  5
E6
330
51
100
AcDbEntity
  8
1
  6
Continuous
 62
     7
100
AcDbLine
 10
90.19797988655051
 20
339.2985276431425
 30
0.0
 11
91.13583102122863
 21
337.6741218279437
 31
0.0
  0
LINE
  5
E7
330
51
100
AcDbEntity
  8
1
  6
Continuous
 62
     7
100
AcDbLine
 10
91.13583102122874
 20
324.8288892492789
 30
0.0
 11
90.19797988655051
 21
323.2044834340801
 31
0.0
  0
LINE
  5
E8
330
51
100
AcDbEntity
  8
1
  6
Continuous
 62
     7
100
AcDbLine
 10
66.07368215590705
 20
323.2044834340798
 30
0.0
 11
65.13583102122823
 21
324.828889249279
 31
0.0
  0
LINE
  5
E9
330
51
100
AcDbEntity
  8
1
  6
Continuous
 62
     7
100
AcDbLine
 10
65.13583102122874
 20
337.6741218279441
 30
0.0
 11
66.07368215590691
 21
339.298527643143
 31
0.0
  0
LINE
  5
EA
330
51
100
AcDbEntity
  8
1
  6
PHANTOM
 62
     4
100
AcDbLine
 10
78.1358310212288
 20
346.8178155936568
 30
0.0
 11
78.1358310212288
 21
315.7548087956135
 31
0.0
  0
LINE
  5
EB
330
51
100
AcDbEntity
  8
1
  6
PHANTOM
 62
     4
100
AcDbLine
 10
60.13692245074913
 20
331.2515055386114
 30
0.0
 11
95.84081671861941
 21
331.2515055386114
 31
0.0
  0
LINE
  5
EC
330
51
100
AcDbEntity
  8
1
  6
Continuous
 62
     7
100
AcDbLine
 10
71.6358310212288
 20
319.9931752894137
 30
0.0
 11
66.07368215590705
 21
323.2044834340798
 31
0.0
  0
LINE
  5
ED
330
51
100
AcDbEntity
  8
1
  6
Continuous
 62
     7
100
AcDbLine
 10
84.63583102122874
 20
342.5098357878092
 30
0.0
 11
90.19797988655051
 21
339.2985276431425
 31
0.0
  0
LINE
  5
EE
330
51
100
AcDbEntity
  8
1
  6
Continuous
 62
     7
100
AcDbLine
 10
90.19797988655051
 20
323.2044834340801
 30
0.0
 11
89.07782733036254
 21
322.5577630542315
 31
0.0
  0
LINE
  5
EF
330
51
100
AcDbEntity
  8
1
  6
Continuous
 62
     7
100
AcDbLine
 10
66.07368215590691
 20
339.298527643143
 30
0.0
 11
67.19383471211336
 21
339.9452480230021
 31
0.0
  0
LINE
  5
F0
330
51
100
AcDbEntity
  8
1
  6
Continuous
 62
     7
100
AcDbLine
 10
91.13583102122863
 20
337.6741218279437
 30
0.0
 11
91.13583102122863
 21
336.3806810682557
 31
0.0
  0
LINE
  5
F1
330
51
100
AcDbEntity
  8
1
  6
Continuous
 62
     7
100
AcDbLine
 10
89.07782733036254
 20
322.5577630542315
 30
0.0
 11
83.74557198268656
 21
319.479183993863
 31
0.0
  0
LINE
  5
F2
330
51
100
AcDbEntity
  8
1
  6
Continuous
 62
     7
100
AcDbLine
 10
65.13583102122823
 20
324.828889249279
 30
0.0
 11
65.13583102122834
 21
326.1223300090062
 31
0.0
  0
LINE
  5
F3
330
51
100
AcDbEntity
  8
1
  6
Continuous
 62
     7
100
AcDbLine
 10
67.19383471211336
 20
339.9452480230021
 30
0.0
 11
72.52609005979446
 21
343.0238270833737
 31
0.0
  0
ARC
  5
F4
330
51
100
AcDbEntity
  8
1
  6
Continuous
 62
     7
100
AcDbCircle
 10
104.0422862263437
 20
198.7114884219553
 30
0.0
 40
24.00000000000003
100
AcDbArc
 50
213.959192500097
 51
236.0408074999019
  0
ARC
  5
F5
330
51
100
AcDbEntity
  8
1
  6
Continuous
 62
     7
100
AcDbCircle
 10
87.63583102122865
 20
174.8050332168405
 30
0.0
 40
5.000000000000036
100
AcDbArc
 50
45.57299599919471
 51
53.13010235415658
  0
ARC
  5
F6
330
51
100
AcDbEntity
  8
1
  6
Continuous
 62
     7
100
AcDbCircle
 10
52.22937581611396
 20
198.7114884219553
 30
0.0
 40
23.9999999999998
100
AcDbArc
 50
303.9591925000977
 51
326.0408074999025
  0
ARC
  5
F7
330
51
100
AcDbEntity
  8
1
  6
Continuous
 62
     7
100
AcDbCircle
 10
68.63583102122865
 20
174.8050332168405
 30
0.0
 40
4.999999999999948
100
AcDbArc
 50
126.8698976458416
 51
134.4270040008053
  0
ARC
  5
F8
330
51
100
AcDbEntity
  8
1
  6
Continuous
 62
     7
100
AcDbCircle
 10
192.1612755726924
 20
198.7114884219553
 30
0.0
 40
23.99999999999993
100
AcDbArc
 50
303.9591925000979
 51
326.0408074999024
  0
ARC
  5
F9
330
51
100
AcDbEntity
  8
1
  6
Continuous
 62
     7
100
AcDbCircle
 10
208.5677307778072
 20
174.8050332168404
 30
0.0
 40
4.999999999999972
100
AcDbArc
 50
126.8698976458414
 51
224.4270040008066
  0
ARC
  5
FA
330
51
100
AcDbEntity
  8
1
  6
Continuous
 62
     7
100
AcDbCircle
 10
243.9741859829221
 20
198.7114884219553
 30
0.0
 40
23.99999999999996
100
AcDbArc
 50
213.9591925000975
 51
236.0408074999021
  0
ARC
  5
FB
330
51
100
AcDbEntity
  8
1
  6
Continuous
 62
     7
100
AcDbCircle
 10
227.5677307778072
 20
174.8050332168404
 30
0.0
 40
5.000000000000036
100
AcDbArc
 50
315.5729959991947
 51
53.13010235415781
  0
ARC
  5
FC
330
51
100
AcDbEntity
  8
1
  6
Continuous
 62
     7
100
AcDbCircle
 10
78.1358310212288
 20
331.2515055386114
 30
0.0
 40
12.99999999999993
100
AcDbArc
 50
325.6927161549599
 51
334.3072838451432
  0
ARC
  5
FD
330
51
100
AcDbEntity
  8
1
  6
Continuous
 62
     7
100
AcDbCircle
 10
78.1358310212288
 20
331.2515055386114
 30
0.0
 40
12.99999999999998
100
AcDbArc
 50
239.9999999999999
 51
244.3072838452321
  0
ARC
  5
FE
330
51
100
AcDbEntity
  8
1
  6
Continuous
 62
     7
100
AcDbCircle
 10
78.1358310212288
 20
331.2515055386114
 30
0.0
 40
13.0000000000002
100
AcDbArc
 50
145.6927161548489
 51
154.3072838450481
  0
ARC
  5
FF
330
51
100
AcDbEntity
  8
1
  6
Continuous
 62
     7
100
AcDbCircle
 10
78.1358310212288
 20
331.2515055386114
 30
0.0
 40
13.00000000000006
100
AcDbArc
 50
60.00000000000043
 51
64.3072838449583
  0
ARC
  5
100
330
51
100
AcDbEntity
  8
1
  6
Continuous
 62
     7
100
AcDbCircle
 10
78.1358310212288
 20
331.2515055386114
 30
0.0
 40
13.00000000000005
100
AcDbArc
 50
205.6927161547701
 51
239.9999999999999
  0
ARC
  5
101
330
51
100
AcDbEntity
  8
1
  6
Continuous
 62
     7
100
AcDbCircle
 10
78.1358310212288
 20
331.2515055386114
 30
0.0
 40
13.0000000000002
100
AcDbArc
 50
55.69271615504175
 51
60.00000000000043
  0
ARC
  5
102
330
51
100
AcDbEntity
  8
1
  6
Continuous
 62
     7
100
AcDbCircle
 10
78.1358310212288
 20
331.2515055386114
 30
0.0
 40
13.00000000000017
100
AcDbArc
 50
25.69271615503755
 51
55.69271615504175
  0
ARC
  5
103
330
51
100
AcDbEntity
  8
1
  6
Continuous
 62
     7
100
AcDbCircle
 10
78.1358310212288
 20
331.2515055386114
 30
0.0
 40
12.99999999999991
100
AcDbArc
 50
295.6927161549578
 51
325.6927161549599
  0
ARC
  5
104
330
51
100
AcDbEntity
  8
1
  6
Continuous
 62
     7
100
AcDbCircle
 10
78.1358310212288
 20
331.2515055386114
 30
0.0
 40
13.00000000000026
100
AcDbArc
 50
115.69271615485
 51
145.6927161548489
  0
SPLINE
  5
105
330
51
100
AcDbEntity
  8
1
  6
Continuous
 62
     7
100
AcDbSpline
210
0.0
220
0.0
230
1.0
 70
     8
 71
     3
 72
    29
 73
    25
 74
    23
 42
0.000000001
 43
0.0000000001
 44
0.00000001
 40
0.0
 40
0.0
 40
0.0
 40
0.0
 40
0.6069077071335193
 40
1.212222618922164
 40
1.84266669998108
 40
2.474631891987833
 40
3.102420163135122
 40
3.72933388162462
 40
4.27104292945333
 40
4.812985317241544
 40
5.340107969104293
 40
5.866248914948893
 40
6.263874824440467
 40
6.661485222726858
 40
7.280966483141236
 40
7.902596723210288
 40
8.549168899022813
 40
9.195896755584974
 40
9.722415956712037
 40
10.24911839923926
 40
11.07897535377089
 40
11.90732205839663
 40
12.67331707894458
 40
13.44191268485679
 40
13.44191268485679
 40
13.44191268485679
 40
13.44191268485679
 10
218.0677307778072
 20
178.3050332168404
 30
0.0
 10
218.269790605353
 20
178.2951578434764
 30
0.0
 10
218.6733799650302
 20
178.2754330022638
 30
0.0
 10
219.285085513114
 20
178.2116426540424
 30
0.0
 10
219.894502574256
 20
178.0774593563019
 30
0.0
 10
220.4929087492345
 20
177.8770037367755
 30
0.0
 10
221.0674712807081
 20
177.6184426205452
 30
0.0
 10
221.5823690780768
 20
177.3095132314408
 30
0.0
 10
222.0313879518328
 20
176.9556963074963
 30
0.0
 10
222.4053295541306
 20
176.5676716399793
 30
0.0
 10
222.7122954554375
 20
176.1307412369043
 30
0.0
 10
222.9196041128768
 20
175.690527270468
 30
0.0
 10
223.0355067010971
 20
175.2638181504154
 30
0.0
 10
223.0862099059747
 20
174.7929027086134
 30
0.0
 10
223.0257535827336
 20
174.2439281163726
 30
0.0
 10
222.8128063511042
 20
173.6461820510507
 30
0.0
 10
222.465569413952
 20
173.1045798059104
 30
0.0
 10
222.0442116883717
 20
172.6639718385202
 30
0.0
 10
221.5967981983916
 20
172.3140979155506
 30
0.0
 10
221.0609618128462
 20
171.9851875332092
 30
0.0
 10
220.3960707634605
 20
171.6814489128072
 30
0.0
 10
219.6164097028238
 20
171.4566790470909
 30
0.0
 10
218.8340040867196
 20
171.3522922477
 30
0.0
 10
218.3234436205457
 20
171.3208697571941
 30
0.0
 10
218.0677307778072
 20
171.3051318929274
 30
0.0
 11
218.0677307778072
 21
178.3050332168404
 31
0.0
 11
218.6736167995655
 21
178.2698323510781
 31
0.0
 11
219.2750596190469
 21
178.2014753589939
 31
0.0
 11
219.8909508307881
 21
178.0667988731695
 31
0.0
 11
220.4904122923367
 21
177.8667339812245
 31
0.0
 11
221.0621110656569
 21
177.6073527429742
 31
0.0
 11
221.5986762826699
 21
177.2831327881962
 31
0.0
 11
222.023108821449
 21
176.9465236482151
 31
0.0
 11
222.3978577967295
 21
176.5550332168404
 31
0.0
 11
222.6994136826895
 21
176.1226880556218
 31
0.0
 11
222.9214339965232
 21
175.6456856700057
 31
0.0
 11
223.0251947136663
 21
175.261836639876
 31
0.0
 11
223.066952811487
 21
174.8664250940617
 31
0.0
 11
223.0023591998656
 21
174.2503206398519
 31
0.0
 11
222.7947410297143
 21
173.6643864695751
 31
0.0
 11
222.4493684288593
 21
173.1177848356611
 31
0.0
 11
222.0050943022564
 21
172.6478088555807
 31
0.0
 11
221.5912238834817
 21
172.3223342080095
 31
0.0
 11
221.1431850362575
 21
172.0454287098299
 31
0.0
 11
220.38842432962
 21
171.7004666216524
 31
0.0
 11
219.5922680192319
 21
171.4717891319061
 31
0.0
 11
218.8342588886323
 21
171.3614690028915
 31
0.0
 11
218.0677307778072
 21
171.3051318929274
 31
0.0
  0
SPLINE
  5
106
330
51
100
AcDbEntity
  8
1
  6
Continuous
 62
     7
100
AcDbSpline
210
0.0
220
0.0
230
1.0
 70
    11
 71
     3
 72
    79
 73
    75
 74
    73
 42
0.000000001
 43
0.0000000001
 44
0.00000001
 40
0.0
 40
0.0
 40
0.0
 40
0.0
 40
0.2803981055170415
 40
0.5607977780793441
 40
0.8427454767814635
 40
1.124697465942861
 40
1.409536444711932
 40
1.69438149409214
 40
1.98307130343376
 40
2.271767836809136
 40
2.564776135645491
 40
2.857790848031741
 40
3.155055692063489
 40
3.452325972452654
 40
3.753284820909441
 40
4.054247736388253
 40
4.357919800455197
 40
4.661594361771411
 40
4.966700742338065
 40
5.271807963175684
 40
5.576915184002897
 40
5.882021564538399
 40
6.185696125802579
 40
6.489368189796003
 40
6.790331105179816
 40
7.091289953518728
 40
7.3885602337675
 40
7.685825077633736
 40
7.978839789830517
 40
8.27184808844918
 40
8.56054462157976
 40
8.849234430642516
 40
9.13407947970733
 40
9.41891845810632
 40
9.700870446812866
 40
9.982818144856113
 40
10.26321781600885
 40
10.54361593035236
 40
10.82401404469593
 40
11.10441371584872
 40
11.38636141389199
 40
11.66831340259854
 40
11.95315238099753
 40
12.23799743006232
 40
12.52668723912503
 40
12.81538377225565
 40
13.1083920708743
 40
13.40140678307104
 40
13.6986716269373
 40
13.99594190718609
 40
14.29690075552498
 40
14.59786367090882
 40
14.90153573490223
 40
15.2052102961664
 40
15.51031667670191
 40
15.81542389752912
 40
16.12053111836677
 40
16.42563749893341
 40
16.72931206024962
 40
17.03298412431654
 40
17.33394703979532
 40
17.63490588825214
 40
17.93217616864133
 40
18.2294410126731
 40
18.52245572505939
 40
18.81546402389565
 40
19.10416055727103
 40
19.39285036661264
 40
19.67769541599287
 40
19.96253439476189
 40
20.24448638392333
 40
20.52643408262543
 40
20.80683375518782
 40
21.08723186070489
 40
21.08723186070489
 40
21.08723186070489
 40
21.08723186070489
 10
229.326061027005
 20
178.3050332168404
 30
0.0
 10
229.4195615670471
 20
178.3024518310343
 30
0.0
 10
229.6065631698492
 20
178.2972890503297
 30
0.0
 10
229.8850475810423
 20
178.2558167017665
 30
0.0
 10
230.1589897781949
 20
178.1899165419247
 30
0.0
 10
230.4269179439637
 20
178.0976844329674
 30
0.0
 10
230.6859637318342
 20
177.9806022438385
 30
0.0
 10
230.9351230262512
 20
177.8391259624394
 30
0.0
 10
231.1714330466653
 20
177.6748436166032
 30
0.0
 10
231.394208040803
 20
177.4883834685243
 30
0.0
 10
231.600664073309
 20
177.2819589937114
 30
0.0
 10
231.7902768171492
 20
177.0562412993879
 30
0.0
 10
231.9606759932676
 20
176.813950501143
 30
0.0
 10
232.1113888010632
 20
176.555893008399
 30
0.0
 10
232.2406119377724
 20
176.2850658050064
 30
0.0
 10
232.3478916111375
 20
176.0025489515932
 30
0.0
 10
232.4320461148709
 20
175.7113609810782
 30
0.0
 10
232.4926893888787
 20
175.412982208237
 30
0.0
 10
232.5292231513252
 20
175.1102212364259
 30
0.0
 10
232.5414421822369
 20
174.8050332262434
 30
0.0
 10
232.5292231516752
 20
174.4998452160586
 30
0.0
 10
232.4926893895798
 20
174.1970842442321
 30
0.0
 10
232.4320461159252
 20
173.8987054713893
 30
0.0
 10
232.3478916125481
 20
173.6075175007853
 30
0.0
 10
232.2406119395437
 20
173.3250006475692
 30
0.0
 10
232.1113888032002
 20
173.0541734432731
 30
0.0
 10
231.9606759957768
 20
172.7961159536465
 30
0.0
 10
231.7902768200376
 20
172.5538251435901
 30
0.0
 10
231.6006640765866
 20
172.3281074924283
 30
0.0
 10
231.3942080444798
 20
172.1216828574342
 30
0.0
 10
231.1714330507561
 20
171.9352232982862
 30
0.0
 10
230.9351230307742
 20
171.7709387706005
 30
0.0
 10
230.6859637368199
 20
171.6294705275523
 30
0.0
 10
230.4269179494594
 20
171.5123585239685
 30
0.0
 10
230.1589897843255
 20
171.4202366055097
 30
0.0
 10
229.8850475881258
 20
171.353926839952
 30
0.0
 10
229.6065631750891
 20
171.3139751748621
 30
0.0
 10
229.326061027005
 20
171.3005622652412
 30
0.0
 10
229.0455588789208
 20
171.3139751748622
 30
0.0
 10
228.7670744658842
 20
171.353926839952
 30
0.0
 10
228.4931322696843
 20
171.4202366055096
 30
0.0
 10
228.2252041045506
 20
171.5123585239685
 30
0.0
 10
227.96615831719
 20
171.6294705275522
 30
0.0
 10
227.7169990232357
 20
171.7709387706005
 30
0.0
 10
227.480689003254
 20
171.9352232982862
 30
0.0
 10
227.25791400953
 20
172.1216828574343
 30
0.0
 10
227.0514579774235
 20
172.3281074924282
 30
0.0
 10
226.8618452339724
 20
172.5538251435901
 30
0.0
 10
226.6914460582332
 20
172.7961159536465
 30
0.0
 10
226.5407332508097
 20
173.054173443273
 30
0.0
 10
226.4115101144662
 20
173.3250006475693
 30
0.0
 10
226.3042304414618
 20
173.6075175007853
 30
0.0
 10
226.2200759380847
 20
173.8987054713893
 30
0.0
 10
226.1594326644303
 20
174.1970842442322
 30
0.0
 10
226.1228989023346
 20
174.4998452160586
 30
0.0
 10
226.1106798717731
 20
174.8050332262433
 30
0.0
 10
226.1228989026847
 20
175.110221236426
 30
0.0
 10
226.1594326651313
 20
175.4129822082369
 30
0.0
 10
226.2200759391391
 20
175.7113609810783
 30
0.0
 10
226.3042304428724
 20
176.0025489515933
 30
0.0
 10
226.4115101162375
 20
176.2850658050065
 30
0.0
 10
226.5407332529466
 20
176.5558930083991
 30
0.0
 10
226.6914460607424
 20
176.813950501143
 30
0.0
 10
226.8618452368609
 20
177.0562412993879
 30
0.0
 10
227.0514579807009
 20
177.2819589937114
 30
0.0
 10
227.2579140132069
 20
177.4883834685244
 30
0.0
 10
227.4806890073447
 20
177.6748436166031
 30
0.0
 10
227.7169990277586
 20
177.8391259624394
 30
0.0
 10
227.9661583221757
 20
177.9806022438385
 30
0.0
 10
228.2252041100461
 20
178.0976844329674
 30
0.0
 10
228.4931322758151
 20
178.1899165419247
 30
0.0
 10
228.7670744729677
 20
178.2558167017665
 30
0.0
 10
229.0455588841607
 20
178.2972890503297
 30
0.0
 10
229.2325604869629
 20
178.3024518310343
 30
0.0
 10
229.326061027005
 20
178.3050332168404
 30
0.0
 11
229.326061027005
 21
178.3050332168404
 31
0.0
 11
229.6061410258746
 21
178.2916804315423
 31
0.0
 11
229.8836988342532
 21
178.2518603523832
 31
0.0
 11
230.1577502386321
 21
178.1856007696593
 31
0.0
 11
230.4243930989066
 21
178.0939573895911
 31
0.0
 11
230.6839815234426
 21
177.976709389306
 31
0.0
 11
230.9317150993381
 21
177.836122130086
 31
0.0
 11
231.1688155839471
 21
177.6714249347339
 31
0.0
 11
231.3902501132819
 21
177.4861887677568
 31
0.0
 11
231.5975335025917
 21
177.2790958908416
 31
0.0
 11
231.7860657863693
 21
177.0547898507433
 31
0.0
 11
231.9571543329429
 21
176.8116950200425
 31
0.0
 11
232.1071354596658
 21
176.5550332168404
 31
0.0
 11
232.2368122395401
 21
176.2834449968693
 31
0.0
 11
232.3437035936175
 21
176.0021037184803
 31
0.0
 11
232.4280696549478
 21
175.7103862349349
 31
0.0
 11
232.4885821851836
 21
175.4128018386747
 31
0.0
 11
232.5251611337465
 21
175.1098961041404
 31
0.0
 11
232.5373691716712
 21
174.8050332168404
 31
0.0
 11
232.5251611337465
 21
174.5001703295405
 31
0.0
 11
232.4885821851836
 21
174.1972645950062
 31
0.0
 11
232.4280696549478
 21
173.899680198746
 31
0.0
 11
232.3437035936175
 21
173.6079627152006
 31
0.0
 11
232.2368122395401
 21
173.3266214368116
 31
0.0
 11
232.1071354596658
 21
173.0550332168404
 31
0.0
 11
231.9571543329429
 21
172.7983714136383
 31
0.0
 11
231.7860657863693
 21
172.5552765829375
 31
0.0
 11
231.5975335025917
 21
172.3309705428392
 31
0.0
 11
231.3902501132819
 21
172.123877665924
 31
0.0
 11
231.1688155839471
 21
171.938641498947
 31
0.0
 11
230.9317150993381
 21
171.7739443035949
 31
0.0
 11
230.6839815234426
 21
171.6333570443749
 31
0.0
 11
230.4243930989066
 21
171.5161090440897
 31
0.0
 11
230.1577502386321
 21
171.4244656640217
 31
0.0
 11
229.8836988342532
 21
171.3582060812977
 31
0.0
 11
229.6061410258746
 21
171.3183860021385
 31
0.0
 11
229.326061027005
 21
171.3050332168404
 31
0.0
 11
229.0459810281354
 21
171.3183860021386
 31
0.0
 11
228.7684232197567
 21
171.3582060812977
 31
0.0
 11
228.4943718153778
 21
171.4244656640217
 31
0.0
 11
228.2277289551033
 21
171.5161090440897
 31
0.0
 11
227.9681405305672
 21
171.6333570443749
 31
0.0
 11
227.7204069546718
 21
171.7739443035949
 31
0.0
 11
227.4833064700629
 21
171.938641498947
 31
0.0
 11
227.261871940728
 21
172.123877665924
 31
0.0
 11
227.0545885514183
 21
172.3309705428392
 31
0.0
 11
226.8660562676407
 21
172.5552765829375
 31
0.0
 11
226.6949677210671
 21
172.7983714136383
 31
0.0
 11
226.5449865943441
 21
173.0550332168404
 31
0.0
 11
226.4153098144698
 21
173.3266214368116
 31
0.0
 11
226.3084184603924
 21
173.6079627152006
 31
0.0
 11
226.2240523990622
 21
173.899680198746
 31
0.0
 11
226.1635398688264
 21
174.1972645950062
 31
0.0
 11
226.1269609202634
 21
174.5001703295405
 31
0.0
 11
226.1147528823387
 21
174.8050332168404
 31
0.0
 11
226.1269609202634
 21
175.1098961041405
 31
0.0
 11
226.1635398688264
 21
175.4128018386747
 31
0.0
 11
226.2240523990622
 21
175.7103862349349
 31
0.0
 11
226.3084184603924
 21
176.0021037184803
 31
0.0
 11
226.4153098144698
 21
176.2834449968693
 31
0.0
 11
226.5449865943441
 21
176.5550332168404
 31
0.0
 11
226.6949677210671
 21
176.8116950200425
 31
0.0
 11
226.8660562676407
 21
177.0547898507433
 31
0.0
 11
227.0545885514183
 21
177.2790958908416
 31
0.0
 11
227.261871940728
 21
177.4861887677568
 31
0.0
 11
227.4833064700629
 21
177.6714249347339
 31
0.0
 11
227.7204069546718
 21
177.836122130086
 31
0.0
 11
227.9681405305673
 21
177.976709389306
 31
0.0
 11
228.2277289551033
 21
178.0939573895911
 31
0.0
 11
228.4943718153778
 21
178.1856007696592
 31
0.0
 11
228.7684232197567
 21
178.2518603523832
 31
0.0
 11
229.0459810281354
 21
178.2916804315423
 31
0.0
 11
229.326061027005
 21
178.3050332168404
 31
0.0
  0
SPLINE
  5
107
330
51
100
AcDbEntity
  8
1
  6
Continuous
 62
     7
100
AcDbSpline
210
0.0
220
0.0
230
1.0
 70
     8
 71
     3
 72
    29
 73
    25
 74
    23
 42
0.000000001
 43
0.0000000001
 44
0.00000001
 40
0.0
 40
0.0
 40
0.0
 40
0.0
 40
0.6069077071334625
 40
1.212222618922079
 40
1.842666699980955
 40
2.474631891987753
 40
3.102420163134991
 40
3.729333881624537
 40
4.271042929453225
 40
4.8129853172414
 40
5.340107969104131
 40
5.86624891494878
 40
6.263874824440354
 40
6.661485222726744
 40
7.280966483141122
 40
7.902596723210165
 40
8.549168899022689
 40
9.19589675558485
 40
9.72241595671196
 40
10.24911839923916
 40
11.07897535377084
 40
11.90732205839653
 40
12.67331707894445
 40
13.4419126848566
 40
13.4419126848566
 40
13.4419126848566
 40
13.4419126848566
 10
218.0677307778072
 20
178.3050332168404
 30
0.0
 10
217.8656709502615
 20
178.2951578434765
 30
0.0
 10
217.4620815905843
 20
178.2754330022638
 30
0.0
 10
216.8503760425005
 20
178.2116426540424
 30
0.0
 10
216.2409589813583
 20
178.0774593563019
 30
0.0
 10
215.6425528063802
 20
177.8770037367755
 30
0.0
 10
215.0679902749064
 20
177.6184426205452
 30
0.0
 10
214.5530924775377
 20
177.3095132314409
 30
0.0
 10
214.1040736037818
 20
176.9556963074963
 30
0.0
 10
213.7301320014839
 20
176.5676716399794
 30
0.0
 10
213.4231661001772
 20
176.1307412369043
 30
0.0
 10
213.2158574427377
 20
175.690527270468
 30
0.0
 10
213.0999548545174
 20
175.2638181504154
 30
0.0
 10
213.0492516496399
 20
174.7929027086134
 30
0.0
 10
213.1097079728809
 20
174.2439281163725
 30
0.0
 10
213.3226552045103
 20
173.6461820510508
 30
0.0
 10
213.6698921416626
 20
173.1045798059102
 30
0.0
 10
214.0912498672428
 20
172.6639718385202
 30
0.0
 10
214.5386633572231
 20
172.3140979155506
 30
0.0
 10
215.0744997427682
 20
171.9851875332091
 30
0.0
 10
215.739390792154
 20
171.6814489128072
 30
0.0
 10
216.5190518527907
 20
171.4566790470909
 30
0.0
 10
217.301457468895
 20
171.3522922477
 30
0.0
 10
217.8120179350687
 20
171.3208697571941
 30
0.0
 10
218.0677307778072
 20
171.3051318929274
 30
0.0
 11
218.0677307778072
 21
178.3050332168404
 31
0.0
 11
217.461844756049
 21
178.2698323510781
 31
0.0
 11
216.8604019365676
 21
178.2014753589939
 31
0.0
 11
216.2445107248265
 21
178.0667988731696
 31
0.0
 11
215.6450492632778
 21
177.8667339812245
 31
0.0
 11
215.0733504899577
 21
177.6073527429742
 31
0.0
 11
214.5367852729446
 21
177.2831327881962
 31
0.0
 11
214.1123527341655
 21
176.9465236482151
 31
0.0
 11
213.7376037588851
 21
176.5550332168404
 31
0.0
 11
213.4360478729251
 21
176.1226880556218
 31
0.0
 11
213.2140275590913
 21
175.6456856700057
 31
0.0
 11
213.1102668419483
 21
175.261836639876
 31
0.0
 11
213.0685087441275
 21
174.8664250940617
 31
0.0
 11
213.1331023557489
 21
174.2503206398519
 31
0.0
 11
213.3407205259002
 21
173.6643864695751
 31
0.0
 11
213.6860931267552
 21
173.1177848356611
 31
0.0
 11
214.1303672533581
 21
172.6478088555807
 31
0.0
 11
214.5442376721328
 21
172.3223342080095
 31
0.0
 11
214.992276519357
 21
172.0454287098299
 31
0.0
 11
215.7470372259945
 21
171.7004666216524
 31
0.0
 11
216.5431935363826
 21
171.4717891319061
 31
0.0
 11
217.3012026669822
 21
171.3614690028915
 31
0.0
 11
218.0677307778072
 21
171.3051318929274
 31
0.0
  0
SPLINE
  5
108
330
51
100
AcDbEntity
  8
1
  6
Continuous
 62
     7
100
AcDbSpline
210
0.0
220
0.0
230
1.0
 70
    11
 71
     3
 72
    79
 73
    75
 74
    73
 42
0.000000001
 43
0.0000000001
 44
0.00000001
 40
0.0
 40
0.0
 40
0.0
 40
0.0
 40
0.2803981055170415
 40
0.5607977780793441
 40
0.8427454767814635
 40
1.124697465942888
 40
1.409536444711907
 40
1.69438149409214
 40
1.98307130343376
 40
2.271767836809157
 40
2.564776135645491
 40
2.857790848031742
 40
3.155055692063474
 40
3.452325972452653
 40
3.753284820909452
 40
4.054247736388254
 40
4.357919800455206
 40
4.66159436177142
 40
4.966700742338074
 40
5.271807963175692
 40
5.576915184002904
 40
5.882021564538406
 40
6.185696125802592
 40
6.489368189796015
 40
6.790331105179818
 40
7.091289953518742
 40
7.388560233767529
 40
7.685825077633748
 40
7.978839789830529
 40
8.271848088449172
 40
8.560544621579755
 40
8.849234430642527
 40
9.134079479707301
 40
9.418918458106305
 40
9.700870446812877
 40
9.982818144856124
 40
10.26321781600883
 40
10.54361593035237
 40
10.82401404469594
 40
11.10441371584873
 40
11.386361413892
 40
11.66831340259853
 40
11.95315238099754
 40
12.23799743006233
 40
12.52668723912512
 40
12.81538377225566
 40
13.10839207087435
 40
13.40140678307111
 40
13.69867162693734
 40
13.9959419071861
 40
14.29690075552499
 40
14.59786367090884
 40
14.90153573490225
 40
15.20521029616642
 40
15.51031667670193
 40
15.81542389752914
 40
16.12053111836679
 40
16.42563749893343
 40
16.72931206024964
 40
17.03298412431657
 40
17.33394703979535
 40
17.63490588825218
 40
17.93217616864131
 40
18.22944101267308
 40
18.52245572505937
 40
18.81546402389569
 40
19.10416055727106
 40
19.39285036661268
 40
19.67769541599291
 40
19.96253439476196
 40
20.24448638392337
 40
20.52643408262547
 40
20.80683375518781
 40
21.08723186070493
 40
21.08723186070493
 40
21.08723186070493
 40
21.08723186070493
 10
206.8094005286095
 20
178.3050332168404
 30
0.0
 10
206.7158999885674
 20
178.3024518310343
 30
0.0
 10
206.5288983857654
 20
178.2972890503297
 30
0.0
 10
206.2504139745722
 20
178.2558167017664
 30
0.0
 10
205.9764717774197
 20
178.1899165419248
 30
0.0
 10
205.7085436116507
 20
178.0976844329674
 30
0.0
 10
205.4494978237803
 20
177.9806022438385
 30
0.0
 10
205.2003385293634
 20
177.8391259624395
 30
0.0
 10
204.9640285089492
 20
177.6748436166031
 30
0.0
 10
204.7412535148115
 20
177.4883834685244
 30
0.0
 10
204.5347974823054
 20
177.2819589937114
 30
0.0
 10
204.3451847384654
 20
177.0562412993879
 30
0.0
 10
204.1747855623469
 20
176.8139505011428
 30
0.0
 10
204.0240727545512
 20
176.5558930083991
 30
0.0
 10
203.894849617842
 20
176.2850658050064
 30
0.0
 10
203.787569944477
 20
176.0025489515933
 30
0.0
 10
203.7034154407435
 20
175.7113609810783
 30
0.0
 10
203.6427721667358
 20
175.4129822082369
 30
0.0
 10
203.6062384042893
 20
175.1102212364259
 30
0.0
 10
203.5940193733777
 20
174.8050332262433
 30
0.0
 10
203.6062384039392
 20
174.4998452160587
 30
0.0
 10
203.6427721660347
 20
174.1970842442321
 30
0.0
 10
203.7034154396893
 20
173.8987054713893
 30
0.0
 10
203.7875699430664
 20
173.6075175007854
 30
0.0
 10
203.8948496160707
 20
173.3250006475691
 30
0.0
 10
204.0240727524144
 20
173.0541734432731
 30
0.0
 10
204.1747855598378
 20
172.7961159536465
 30
0.0
 10
204.3451847355769
 20
172.5538251435901
 30
0.0
 10
204.5347974790278
 20
172.3281074924282
 30
0.0
 10
204.7412535111347
 20
172.1216828574343
 30
0.0
 10
204.9640285048585
 20
171.9352232982862
 30
0.0
 10
205.2003385248403
 20
171.7709387706006
 30
0.0
 10
205.4494978187946
 20
171.6294705275522
 30
0.0
 10
205.7085436061552
 20
171.5123585239685
 30
0.0
 10
205.9764717712889
 20
171.4202366055097
 30
0.0
 10
206.2504139674887
 20
171.353926839952
 30
0.0
 10
206.5288983805254
 20
171.3139751748622
 30
0.0
 10
206.8094005286094
 20
171.3005622652412
 30
0.0
 10
207.0899026766937
 20
171.3139751748622
 30
0.0
 10
207.3683870897304
 20
171.353926839952
 30
0.0
 10
207.6423292859301
 20
171.4202366055096
 30
0.0
 10
207.910257451064
 20
171.5123585239685
 30
0.0
 10
208.1693032384245
 20
171.6294705275522
 30
0.0
 10
208.4184625323789
 20
171.7709387706006
 30
0.0
 10
208.6547725523605
 20
171.9352232982862
 30
0.0
 10
208.8775475460844
 20
172.1216828574342
 30
0.0
 10
209.0840035781912
 20
172.3281074924283
 30
0.0
 10
209.2736163216422
 20
172.5538251435901
 30
0.0
 10
209.4440154973814
 20
172.7961159536465
 30
0.0
 10
209.5947283048047
 20
173.0541734432731
 30
0.0
 10
209.7239514411483
 20
173.3250006475692
 30
0.0
 10
209.8312311141527
 20
173.6075175007852
 30
0.0
 10
209.9153856175298
 20
173.8987054713893
 30
0.0
 10
209.9760288911843
 20
174.1970842442322
 30
0.0
 10
210.0125626532799
 20
174.4998452160586
 30
0.0
 10
210.0247816838414
 20
174.8050332262434
 30
0.0
 10
210.0125626529299
 20
175.1102212364259
 30
0.0
 10
209.9760288904832
 20
175.4129822082369
 30
0.0
 10
209.9153856164754
 20
175.7113609810783
 30
0.0
 10
209.8312311127422
 20
176.0025489515933
 30
0.0
 10
209.7239514393771
 20
176.2850658050064
 30
0.0
 10
209.5947283026679
 20
176.555893008399
 30
0.0
 10
209.4440154948722
 20
176.8139505011429
 30
0.0
 10
209.2736163187537
 20
177.0562412993879
 30
0.0
 10
209.0840035749137
 20
177.2819589937114
 30
0.0
 10
208.8775475424076
 20
177.4883834685244
 30
0.0
 10
208.6547725482699
 20
177.6748436166031
 30
0.0
 10
208.4184625278558
 20
177.8391259624395
 30
0.0
 10
208.1693032334388
 20
177.9806022438385
 30
0.0
 10
207.9102574455683
 20
178.0976844329674
 30
0.0
 10
207.6423292797995
 20
178.1899165419247
 30
0.0
 10
207.3683870826469
 20
178.2558167017664
 30
0.0
 10
207.0899026714537
 20
178.2972890503298
 30
0.0
 10
206.9029010686517
 20
178.3024518310343
 30
0.0
 10
206.8094005286095
 20
178.3050332168404
 30
0.0
 11
206.8094005286095
 21
178.3050332168404
 31
0.0
 11
206.5293205297399
 21
178.2916804315423
 31
0.0
 11
206.2517627213613
 21
178.2518603523832
 31
0.0
 11
205.9777113169824
 21
178.1856007696593
 31
0.0
 11
205.7110684567079
 21
178.0939573895911
 31
0.0
 11
205.4514800321719
 21
177.976709389306
 31
0.0
 11
205.2037464562764
 21
177.836122130086
 31
0.0
 11
204.9666459716674
 21
177.6714249347339
 31
0.0
 11
204.7452114423326
 21
177.4861887677568
 31
0.0
 11
204.5379280530228
 21
177.2790958908416
 31
0.0
 11
204.3493957692452
 21
177.0547898507433
 31
0.0
 11
204.1783072226716
 21
176.8116950200425
 31
0.0
 11
204.0283260959487
 21
176.5550332168404
 31
0.0
 11
203.8986493160744
 21
176.2834449968693
 31
0.0
 11
203.791757961997
 21
176.0021037184803
 31
0.0
 11
203.7073919006667
 21
175.7103862349349
 31
0.0
 11
203.6468793704309
 21
175.4128018386747
 31
0.0
 11
203.610300421868
 21
175.1098961041404
 31
0.0
 11
203.5980923839433
 21
174.8050332168404
 31
0.0
 11
203.610300421868
 21
174.5001703295405
 31
0.0
 11
203.6468793704309
 21
174.1972645950062
 31
0.0
 11
203.7073919006667
 21
173.899680198746
 31
0.0
 11
203.791757961997
 21
173.6079627152006
 31
0.0
 11
203.8986493160743
 21
173.3266214368116
 31
0.0
 11
204.0283260959487
 21
173.0550332168404
 31
0.0
 11
204.1783072226716
 21
172.7983714136383
 31
0.0
 11
204.3493957692452
 21
172.5552765829375
 31
0.0
 11
204.5379280530228
 21
172.3309705428392
 31
0.0
 11
204.7452114423326
 21
172.123877665924
 31
0.0
 11
204.9666459716674
 21
171.938641498947
 31
0.0
 11
205.2037464562764
 21
171.7739443035949
 31
0.0
 11
205.4514800321718
 21
171.6333570443749
 31
0.0
 11
205.7110684567079
 21
171.5161090440897
 31
0.0
 11
205.9777113169824
 21
171.4244656640217
 31
0.0
 11
206.2517627213613
 21
171.3582060812977
 31
0.0
 11
206.5293205297399
 21
171.3183860021385
 31
0.0
 11
206.8094005286095
 21
171.3050332168404
 31
0.0
 11
207.0894805274791
 21
171.3183860021386
 31
0.0
 11
207.3670383358578
 21
171.3582060812977
 31
0.0
 11
207.6410897402367
 21
171.4244656640217
 31
0.0
 11
207.9077326005112
 21
171.5161090440897
 31
0.0
 11
208.1673210250473
 21
171.6333570443749
 31
0.0
 11
208.4150546009427
 21
171.7739443035949
 31
0.0
 11
208.6521550855517
 21
171.938641498947
 31
0.0
 11
208.8735896148865
 21
172.123877665924
 31
0.0
 11
209.0808730041963
 21
172.3309705428392
 31
0.0
 11
209.2694052879739
 21
172.5552765829375
 31
0.0
 11
209.4404938345475
 21
172.7983714136383
 31
0.0
 11
209.5904749612704
 21
173.0550332168404
 31
0.0
 11
209.7201517411447
 21
173.3266214368116
 31
0.0
 11
209.8270430952221
 21
173.6079627152006
 31
0.0
 11
209.9114091565523
 21
173.899680198746
 31
0.0
 11
209.9719216867881
 21
174.1972645950062
 31
0.0
 11
210.0085006353511
 21
174.5001703295405
 31
0.0
 11
210.0207086732758
 21
174.8050332168404
 31
0.0
 11
210.0085006353511
 21
175.1098961041405
 31
0.0
 11
209.9719216867881
 21
175.4128018386747
 31
0.0
 11
209.9114091565524
 21
175.7103862349349
 31
0.0
 11
209.8270430952221
 21
176.0021037184803
 31
0.0
 11
209.7201517411447
 21
176.2834449968693
 31
0.0
 11
209.5904749612704
 21
176.5550332168404
 31
0.0
 11
209.4404938345475
 21
176.8116950200425
 31
0.0
 11
209.2694052879739
 21
177.0547898507433
 31
0.0
 11
209.0808730041963
 21
177.2790958908416
 31
0.0
 11
208.8735896148865
 21
177.4861887677568
 31
0.0
 11
208.6521550855517
 21
177.6714249347339
 31
0.0
 11
208.4150546009427
 21
177.836122130086
 31
0.0
 11
208.1673210250472
 21
177.976709389306
 31
0.0
 11
207.9077326005112
 21
178.0939573895911
 31
0.0
 11
207.6410897402367
 21
178.1856007696592
 31
0.0
 11
207.3670383358578
 21
178.2518603523832
 31
0.0
 11
207.0894805274792
 21
178.2916804315423
 31
0.0
 11
206.8094005286095
 21
178.3050332168404
 31
0.0
  0
SPLINE
  5
109
330
51
100
AcDbEntity
  8
1
  6
Continuous
 62
     7
100
AcDbSpline
210
0.0
220
0.0
230
1.0
 70
    11
 71
     3
 72
    79
 73
    75
 74
    73
 42
0.000000001
 43
0.0000000001
 44
0.00000001
 40
0.0
 40
0.0
 40
0.0
 40
0.0
 40
0.3102615582253014
 40
0.620559542082314
 40
0.942216297529056
 40
1.263944872753908
 40
1.606039020845131
 40
1.948193468907062
 40
2.316051885190554
 40
2.683951048240007
 40
3.079084664080458
 40
3.474244780173859
 40
3.89489795920765
 40
4.315568207494269
 40
4.757452126736527
 40
5.199346674241771
 40
5.656354161987154
 40
6.113367478658205
 40
6.578223037733398
 40
7.043080455843035
 40
7.507937873950465
 40
7.972793433018748
 40
8.42980674967762
 40
8.886814237403545
 40
9.328708784880407
 40
9.770592704081544
 40
10.19126295231278
 40
10.61191613126936
 40
11.00707624726327
 40
11.40220986296885
 40
11.77010902584994
 40
12.13796744190991
 40
12.48012188969636
 40
12.82221603741927
 40
13.1439446121615
 40
13.4656013668248
 40
13.77589934864153
 40
14.08616091447274
 40
14.39642248030385
 40
14.70672046212049
 40
15.02837721678376
 40
15.35010579152591
 40
15.69219993924886
 40
16.03435438703536
 40
16.40221280309532
 40
16.77011196597649
 40
17.16524558168208
 40
17.56040569767598
 40
17.98105887663258
 40
18.40172912486379
 40
18.84361304406491
 40
19.28550759154173
 40
19.74251507926767
 40
20.19952839592653
 40
20.66438395499481
 40
21.12924137310224
 40
21.59409879121187
 40
22.05895435028706
 40
22.51596766695809
 40
22.9729751547035
 40
23.4148697022087
 40
23.85675362145095
 40
24.27742386973755
 40
24.69807704877136
 40
25.09323716486479
 40
25.48837078070521
 40
25.8562699437547
 40
26.22412836003821
 40
26.56628280810025
 40
26.90837695619145
 40
27.23010553141625
 40
27.55176228686294
 40
27.86206027071987
 40
28.17232182894506
 40
28.17232182894506
 40
28.17232182894506
 40
28.17232182894506
 10
77.19797988655054
 20
174.8403903239761
 30
0.0
 10
77.19394669483451
 20
174.9438805058983
 30
0.0
 10
77.18587984616372
 20
175.1508730202431
 30
0.0
 10
77.12189586835423
 20
175.4597218882657
 30
0.0
 10
77.02047507205683
 20
175.7616888019998
 30
0.0
 10
76.87805257195923
 20
176.0585984581146
 30
0.0
 10
76.69894999919919
 20
176.3429165664749
 30
0.0
 10
76.48097973133865
 20
176.6184176127712
 30
0.0
 10
76.23069757730366
 20
176.8770236334397
 30
0.0
 10
75.94423541553203
 20
177.1227815230525
 30
0.0
 10
75.63040466324469
 20
177.3484267832471
 30
0.0
 10
75.28449049821351
 20
177.557198451135
 30
0.0
 10
74.91637170606299
 20
177.7434192194063
 30
0.0
 10
74.52167777114623
 20
177.9091037497529
 30
0.0
 10
74.11012457117417
 20
178.0504115226025
 30
0.0
 10
73.67869887157974
 20
178.168191011177
 30
0.0
 10
73.2359248428692
 20
178.2603093128157
 30
0.0
 10
72.7808668442753
 20
178.3267952402087
 30
0.0
 10
72.32009974219417
 20
178.366852797119
 30
0.0
 10
71.85517756676323
 20
178.3801947544142
 30
0.0
 10
71.39025539133625
 20
178.3668527971975
 30
0.0
 10
70.9294882892436
 20
178.3267952403699
 30
0.0
 10
70.47443029069136
 20
178.2603093130682
 30
0.0
 10
70.03165626182647
 20
178.1681910115333
 30
0.0
 10
69.60023056278474
 20
178.0504115230803
 30
0.0
 10
69.18867736078592
 20
177.9091037503726
 30
0.0
 10
68.79398343306366
 20
177.7434192201953
 30
0.0
 10
68.4258646148416
 20
177.5571984521215
 30
0.0
 10
68.0799505414186
 20
177.3484267844689
 30
0.0
 10
67.76611945948048
 20
177.1227815245463
 30
0.0
 10
67.47965844700751
 20
176.8770236352549
 30
0.0
 10
67.22937216793443
 20
176.6184176149561
 30
0.0
 10
67.01141626992742
 20
176.3429165690997
 30
0.0
 10
66.83226195618828
 20
176.0585984612604
 30
0.0
 10
66.69002160480062
 20
175.7616888058479
 30
0.0
 10
66.58793795276047
 20
175.4597218933387
 30
0.0
 10
66.52634471283255
 20
175.1508730241922
 30
0.0
 10
66.50539090937096
 20
174.8403903239761
 30
0.0
 10
66.52634471283253
 20
174.5299076237601
 30
0.0
 10
66.58793795276047
 20
174.2210587546136
 30
0.0
 10
66.6900216048006
 20
173.9190918421045
 30
0.0
 10
66.83226195618829
 20
173.622182186692
 30
0.0
 10
67.01141626992745
 20
173.3378640788528
 30
0.0
 10
67.2293721679344
 20
173.0623630329963
 30
0.0
 10
67.47965844700752
 20
172.8037570126974
 30
0.0
 10
67.76611945948048
 20
172.5579991234061
 30
0.0
 10
68.07995054141857
 20
172.3323538634834
 30
0.0
 10
68.42586461484163
 20
172.1235821958308
 30
0.0
 10
68.79398343306364
 20
171.9373614277569
 30
0.0
 10
69.18867736078593
 20
171.7716768975798
 30
0.0
 10
69.60023056278473
 20
171.6303691248719
 30
0.0
 10
70.03165626182651
 20
171.5125896364194
 30
0.0
 10
70.47443029069136
 20
171.4204713348842
 30
0.0
 10
70.92948828924361
 20
171.3539854075826
 30
0.0
 10
71.39025539133624
 20
171.3139278507551
 30
0.0
 10
71.85517756676325
 20
171.3005858935385
 30
0.0
 10
72.32009974219416
 20
171.3139278508336
 30
0.0
 10
72.78086684427532
 20
171.3539854077438
 30
0.0
 10
73.23592484286914
 20
171.4204713351368
 30
0.0
 10
73.6786988715797
 20
171.5125896367756
 30
0.0
 10
74.11012457117421
 20
171.6303691253498
 30
0.0
 10
74.52167777114622
 20
171.7716768981994
 30
0.0
 10
74.91637170606302
 20
171.9373614285459
 30
0.0
 10
75.28449049821351
 20
172.1235821968173
 30
0.0
 10
75.63040466324468
 20
172.3323538647053
 30
0.0
 10
75.94423541553206
 20
172.5579991248998
 30
0.0
 10
76.23069757730366
 20
172.8037570145127
 30
0.0
 10
76.48097973133869
 20
173.0623630351812
 30
0.0
 10
76.69894999919914
 20
173.3378640814777
 30
0.0
 10
76.87805257195922
 20
173.6221821898379
 30
0.0
 10
77.02047507205684
 20
173.9190918459527
 30
0.0
 10
77.12189586835419
 20
174.2210587596867
 30
0.0
 10
77.18587984616374
 20
174.5299076277093
 30
0.0
 10
77.19394669483455
 20
174.7369001420539
 30
0.0
 10
77.19797988655054
 20
174.8403903239761
 30
0.0
 11
77.19797988655054
 21
174.8403903239761
 31
0.0
 11
77.17736279334973
 21
175.1499661221129
 31
0.0
 11
77.11681071395165
 21
175.4542986430322
 31
0.0
 11
77.01434382531977
 21
175.7591979782956
 31
0.0
 11
76.87576948039094
 21
176.0495536684662
 31
0.0
 11
76.69397743603366
 21
176.3393467991577
 31
0.0
 11
76.48218010177746
 21
176.6080688775441
 31
0.0
 11
76.22682359150359
 21
176.872857221313
 31
0.0
 11
75.94800159221435
 21
177.1128740682602
 31
0.0
 11
75.62750966458935
 21
177.3439920005855
 31
0.0
 11
75.28946469540745
 21
177.5486309903387
 31
0.0
 11
74.91430097156332
 21
177.7388973229299
 31
0.0
 11
74.52657872173054
 21
177.9020993902055
 31
0.0
 11
74.10874239726917
 21
178.0458846607875
 31
0.0
 11
73.68252357545455
 21
178.1625393093946
 31
0.0
 11
73.23513360936468
 21
178.255802711094
 31
0.0
 11
72.78294544508705
 21
178.3220374127503
 31
0.0
 11
72.31984223187466
 21
178.362362401517
 31
0.0
 11
71.85517755691035
 21
178.375747431112
 31
0.0
 11
71.39051288194608
 21
178.362362401517
 31
0.0
 11
70.92740966873376
 21
178.3220374127503
 31
0.0
 11
70.47522150445607
 21
178.2558027110941
 31
0.0
 11
70.02783153836614
 21
178.1625393093946
 31
0.0
 11
69.60161271655164
 21
178.0458846607875
 31
0.0
 11
69.18377639209035
 21
177.9020993902055
 31
0.0
 11
68.79605414225757
 21
177.7388973229298
 31
0.0
 11
68.42089041841345
 21
177.5486309903387
 31
0.0
 11
68.08284544923148
 21
177.3439920005854
 31
0.0
 11
67.76235352160646
 21
177.1128740682602
 31
0.0
 11
67.48353152231722
 21
176.872857221313
 31
0.0
 11
67.22817501204335
 21
176.6080688775441
 31
0.0
 11
67.01637767778719
 21
176.3393467991577
 31
0.0
 11
66.83458563342995
 21
176.0495536684662
 31
0.0
 11
66.69601128850108
 21
175.7591979782956
 31
0.0
 11
66.59354439986916
 21
175.4542986430322
 31
0.0
 11
66.53299232047105
 21
175.1499661221129
 31
0.0
 11
66.51237522727024
 21
174.8403903239761
 31
0.0
 11
66.53299232047105
 21
174.5308145258394
 31
0.0
 11
66.59354439986916
 21
174.2264820049202
 31
0.0
 11
66.69601128850108
 21
173.9215826696569
 31
0.0
 11
66.83458563342995
 21
173.6312269794863
 31
0.0
 11
67.0163776777872
 21
173.3414338487948
 31
0.0
 11
67.22817501204335
 21
173.0727117704083
 31
0.0
 11
67.48353152231721
 21
172.8079234266394
 31
0.0
 11
67.76235352160646
 21
172.5679065796921
 31
0.0
 11
68.08284544923148
 21
172.3367886473668
 31
0.0
 11
68.42089041841345
 21
172.1321496576136
 31
0.0
 11
68.79605414225759
 21
171.9418833250224
 31
0.0
 11
69.18377639209035
 21
171.7786812577468
 31
0.0
 11
69.60161271655164
 21
171.6348959871649
 31
0.0
 11
70.02783153836614
 21
171.5182413385579
 31
0.0
 11
70.47522150445609
 21
171.4249779368584
 31
0.0
 11
70.92740966873376
 21
171.3587432352022
 31
0.0
 11
71.39051288194608
 21
171.3184182464355
 31
0.0
 11
71.85517755691035
 21
171.3050332168406
 31
0.0
 11
72.31984223187466
 21
171.3184182464355
 31
0.0
 11
72.78294544508705
 21
171.3587432352022
 31
0.0
 11
73.23513360936465
 21
171.4249779368585
 31
0.0
 11
73.68252357545455
 21
171.5182413385579
 31
0.0
 11
74.10874239726917
 21
171.6348959871649
 31
0.0
 11
74.52657872173054
 21
171.7786812577468
 31
0.0
 11
74.91430097156332
 21
171.9418833250224
 31
0.0
 11
75.28946469540745
 21
172.1321496576136
 31
0.0
 11
75.62750966458937
 21
172.3367886473669
 31
0.0
 11
75.94800159221435
 21
172.5679065796921
 31
0.0
 11
76.22682359150359
 21
172.8079234266394
 31
0.0
 11
76.48218010177746
 21
173.0727117704083
 31
0.0
 11
76.69397743603366
 21
173.3414338487948
 31
0.0
 11
76.87576948039094
 21
173.6312269794863
 31
0.0
 11
77.01434382531976
 21
173.9215826696569
 31
0.0
 11
77.11681071395165
 21
174.2264820049202
 31
0.0
 11
77.17736279334974
 21
174.5308145258394
 31
0.0
 11
77.19797988655054
 21
174.8403903239761
 31
0.0
  0
SPLINE
  5
10A
330
51
100
AcDbEntity
  8
1
  6
Continuous
 62
     7
100
AcDbSpline
210
0.0
220
0.0
230
1.0
 70
    11
 71
     3
 72
    79
 73
    75
 74
    73
 42
0.000000001
 43
0.0000000001
 44
0.00000001
 40
0.0
 40
0.0
 40
0.0
 40
0.0
 40
0.3102615582253014
 40
0.620559542082314
 40
0.9422162975290378
 40
1.263944872753878
 40
1.606039020845075
 40
1.948193468907095
 40
2.316051885190537
 40
2.683951048239954
 40
3.079084664080399
 40
3.47424478017381
 40
3.894897959207638
 40
4.315568207494296
 40
4.757452126736474
 40
5.199346674241609
 40
5.656354161987089
 40
6.113367478658239
 40
6.578223037733446
 40
7.043080455843069
 40
7.507937873950442
 40
7.972793433018697
 40
8.429806749677594
 40
8.886814237403579
 40
9.3287087848804
 40
9.770592704081496
 40
10.19126295231282
 40
10.61191613126949
 40
11.00707624726332
 40
11.40220986296891
 40
11.77010902585001
 40
12.13796744190996
 40
12.48012188969637
 40
12.82221603741927
 40
13.1439446121615
 40
13.46560136682479
 40
13.77589934864151
 40
14.08616091447272
 40
14.39642248030382
 40
14.70672046212045
 40
15.02837721678373
 40
15.35010579152588
 40
15.6921999392488
 40
16.03435438703528
 40
16.40221280309523
 40
16.77011196597638
 40
17.16524558168197
 40
17.5604056976758
 40
17.98105887663247
 40
18.4017291248638
 40
18.84361304406486
 40
19.28550759154166
 40
19.74251507926764
 40
20.19952839592655
 40
20.6643839549948
 40
21.12924137310217
 40
21.59409879121182
 40
22.05895435028699
 40
22.51596766695807
 40
22.97297515470351
 40
23.41486970220869
 40
23.85675362145087
 40
24.27742386973752
 40
24.69807704877136
 40
25.0932371648648
 40
25.48837078070521
 40
25.85626994375465
 40
26.22412836003813
 40
26.56628280810021
 40
26.90837695619144
 40
27.23010553141622
 40
27.55176228686289
 40
27.86206027071985
 40
28.17232182894501
 40
28.17232182894501
 40
28.17232182894501
 40
28.17232182894501
 10
79.07368215590705
 20
174.8403903239761
 30
0.0
 10
79.07771534762303
 20
174.9438805058983
 30
0.0
 10
79.08578219629388
 20
175.1508730202431
 30
0.0
 10
79.14976617410339
 20
175.4597218882657
 30
0.0
 10
79.25118697040067
 20
175.7616888019998
 30
0.0
 10
79.39360947049826
 20
176.0585984581147
 30
0.0
 10
79.5727120432584
 20
176.3429165664747
 30
0.0
 10
79.79068231111891
 20
176.6184176127712
 30
0.0
 10
80.04096446515393
 20
176.8770236334396
 30
0.0
 10
80.32742662692547
 20
177.1227815230525
 30
0.0
 10
80.64125737921279
 20
177.3484267832471
 30
0.0
 10
80.98717154424402
 20
177.557198451135
 30
0.0
 10
81.35529033639452
 20
177.7434192194063
 30
0.0
 10
81.74998427131135
 20
177.9091037497529
 30
0.0
 10
82.16153747128328
 20
178.0504115226026
 30
0.0
 10
82.59296317087772
 20
178.168191011177
 30
0.0
 10
83.03573719958831
 20
178.2603093128157
 30
0.0
 10
83.49079519818227
 20
178.3267952402087
 30
0.0
 10
83.95156230026342
 20
178.366852797119
 30
0.0
 10
84.41648447569436
 20
178.3801947544142
 30
0.0
 10
84.8814066511213
 20
178.3668527971975
 30
0.0
 10
85.34217375321393
 20
178.3267952403698
 30
0.0
 10
85.79723175176618
 20
178.2603093130683
 30
0.0
 10
86.2400057806311
 20
178.1681910115333
 30
0.0
 10
86.67143147967282
 20
178.0504115230804
 30
0.0
 10
87.0829846816716
 20
177.9091037503725
 30
0.0
 10
87.47767860939395
 20
177.7434192201954
 30
0.0
 10
87.84579742761605
 20
177.5571984521215
 30
0.0
 10
88.19171150103911
 20
177.348426784469
 30
0.0
 10
88.5055425829771
 20
177.1227815245462
 30
0.0
 10
88.79200359545013
 20
176.877023635255
 30
0.0
 10
89.04228987452316
 20
176.6184176149561
 30
0.0
 10
89.26024577253011
 20
176.3429165690997
 30
0.0
 10
89.43940008626923
 20
176.0585984612603
 30
0.0
 10
89.58164043765692
 20
175.7616888058479
 30
0.0
 10
89.68372408969704
 20
175.4597218933387
 30
0.0
 10
89.74531732962488
 20
175.1508730241921
 30
0.0
 10
89.76627113308643
 20
174.8403903239762
 30
0.0
 10
89.74531732962488
 20
174.5299076237601
 30
0.0
 10
89.6837240896971
 20
174.2210587546137
 30
0.0
 10
89.58164043765689
 20
173.9190918421045
 30
0.0
 10
89.4394000862692
 20
173.6221821866921
 30
0.0
 10
89.26024577253008
 20
173.3378640788528
 30
0.0
 10
89.04228987452319
 20
173.0623630329963
 30
0.0
 10
88.79200359545008
 20
172.8037570126974
 30
0.0
 10
88.50554258297716
 20
172.5579991234061
 30
0.0
 10
88.1917115010391
 20
172.3323538634833
 30
0.0
 10
87.84579742761605
 20
172.1235821958308
 30
0.0
 10
87.47767860939396
 20
171.9373614277569
 30
0.0
 10
87.08298468167162
 20
171.7716768975797
 30
0.0
 10
86.6714314796728
 20
171.6303691248721
 30
0.0
 10
86.24000578063108
 20
171.5125896364193
 30
0.0
 10
85.79723175176615
 20
171.4204713348842
 30
0.0
 10
85.34217375321396
 20
171.3539854075826
 30
0.0
 10
84.8814066511213
 20
171.3139278507551
 30
0.0
 10
84.41648447569436
 20
171.3005858935385
 30
0.0
 10
83.95156230026342
 20
171.3139278508336
 30
0.0
 10
83.4907951981823
 20
171.3539854077438
 30
0.0
 10
83.03573719958837
 20
171.4204713351368
 30
0.0
 10
82.5929631708778
 20
171.5125896367755
 30
0.0
 10
82.16153747128337
 20
171.6303691253499
 30
0.0
 10
81.74998427131135
 20
171.7716768981994
 30
0.0
 10
81.35529033639456
 20
171.937361428546
 30
0.0
 10
80.98717154424399
 20
172.1235821968173
 30
0.0
 10
80.64125737921283
 20
172.3323538647053
 30
0.0
 10
80.32742662692544
 20
172.5579991248997
 30
0.0
 10
80.04096446515393
 20
172.8037570145127
 30
0.0
 10
79.79068231111889
 20
173.0623630351812
 30
0.0
 10
79.57271204325845
 20
173.3378640814777
 30
0.0
 10
79.39360947049828
 20
173.6221821898379
 30
0.0
 10
79.25118697040071
 20
173.9190918459526
 30
0.0
 10
79.1497661741034
 20
174.2210587596867
 30
0.0
 10
79.08578219629388
 20
174.5299076277093
 30
0.0
 10
79.07771534762307
 20
174.7369001420539
 30
0.0
 10
79.07368215590705
 20
174.8403903239761
 30
0.0
 11
79.07368215590705
 21
174.8403903239761
 31
0.0
 11
79.09429924910786
 21
175.1499661221129
 31
0.0
 11
79.15485132850594
 21
175.4542986430322
 31
0.0
 11
79.25731821713777
 21
175.7591979782956
 31
0.0
 11
79.39589256206656
 21
176.0495536684662
 31
0.0
 11
79.57768460642389
 21
176.3393467991576
 31
0.0
 11
79.78948194068016
 21
176.6080688775441
 31
0.0
 11
80.04483845095399
 21
176.872857221313
 31
0.0
 11
80.32366045024315
 21
177.1128740682602
 31
0.0
 11
80.64415237786812
 21
177.3439920005855
 31
0.0
 11
80.98219734705006
 21
177.5486309903387
 31
0.0
 11
81.35736107089423
 21
177.7388973229299
 31
0.0
 11
81.74508332072705
 21
177.9020993902055
 31
0.0
 11
82.16291964518834
 21
178.0458846607875
 31
0.0
 11
82.58913846700284
 21
178.1625393093946
 31
0.0
 11
83.03652843309281
 21
178.255802711094
 31
0.0
 11
83.48871659737054
 21
178.3220374127503
 31
0.0
 11
83.95181981058295
 21
178.362362401517
 31
0.0
 11
84.41648448554724
 21
178.375747431112
 31
0.0
 11
84.88114916051146
 21
178.362362401517
 31
0.0
 11
85.34425237372375
 21
178.3220374127503
 31
0.0
 11
85.79644053800146
 21
178.2558027110941
 31
0.0
 11
86.24383050409145
 21
178.1625393093946
 31
0.0
 11
86.67004932590591
 21
178.0458846607875
 31
0.0
 11
87.08788565036716
 21
177.9020993902055
 31
0.0
 11
87.47560790020003
 21
177.7388973229298
 31
0.0
 11
87.85077162404426
 21
177.5486309903387
 31
0.0
 11
88.18881659322616
 21
177.3439920005855
 31
0.0
 11
88.50930852085116
 21
177.1128740682602
 31
0.0
 11
88.7881305201404
 21
176.872857221313
 31
0.0
 11
89.04348703041424
 21
176.6080688775441
 31
0.0
 11
89.25528436467035
 21
176.3393467991577
 31
0.0
 11
89.43707640902755
 21
176.0495536684662
 31
0.0
 11
89.57565075395644
 21
175.7591979782956
 31
0.0
 11
89.67811764258835
 21
175.4542986430322
 31
0.0
 11
89.73866972198638
 21
175.1499661221129
 31
0.0
 11
89.75928681518715
 21
174.8403903239761
 31
0.0
 11
89.73866972198638
 21
174.5308145258394
 31
0.0
 11
89.67811764258835
 21
174.2264820049202
 31
0.0
 11
89.57565075395642
 21
173.9215826696569
 31
0.0
 11
89.43707640902755
 21
173.6312269794863
 31
0.0
 11
89.25528436467035
 21
173.3414338487948
 31
0.0
 11
89.04348703041424
 21
173.0727117704083
 31
0.0
 11
88.7881305201404
 21
172.8079234266394
 31
0.0
 11
88.50930852085116
 21
172.5679065796921
 31
0.0
 11
88.18881659322616
 21
172.3367886473668
 31
0.0
 11
87.85077162404426
 21
172.1321496576136
 31
0.0
 11
87.47560790020005
 21
171.9418833250224
 31
0.0
 11
87.08788565036716
 21
171.7786812577468
 31
0.0
 11
86.67004932590591
 21
171.634895987165
 31
0.0
 11
86.24383050409145
 21
171.5182413385579
 31
0.0
 11
85.79644053800146
 21
171.4249779368584
 31
0.0
 11
85.34425237372375
 21
171.3587432352022
 31
0.0
 11
84.88114916051146
 21
171.3184182464355
 31
0.0
 11
84.41648448554724
 21
171.3050332168406
 31
0.0
 11
83.95181981058292
 21
171.3184182464355
 31
0.0
 11
83.48871659737054
 21
171.3587432352022
 31
0.0
 11
83.03652843309288
 21
171.4249779368585
 31
0.0
 11
82.58913846700295
 21
171.5182413385579
 31
0.0
 11
82.16291964518838
 21
171.6348959871649
 31
0.0
 11
81.74508332072705
 21
171.7786812577468
 31
0.0
 11
81.35736107089423
 21
171.9418833250224
 31
0.0
 11
80.98219734705006
 21
172.1321496576136
 31
0.0
 11
80.64415237786812
 21
172.3367886473669
 31
0.0
 11
80.32366045024315
 21
172.5679065796921
 31
0.0
 11
80.04483845095399
 21
172.8079234266394
 31
0.0
 11
79.78948194068016
 21
173.0727117704083
 31
0.0
 11
79.5776846064239
 21
173.3414338487948
 31
0.0
 11
79.39589256206656
 21
173.6312269794863
 31
0.0
 11
79.25731821713778
 21
173.9215826696569
 31
0.0
 11
79.15485132850594
 21
174.2264820049202
 31
0.0
 11
79.09429924910786
 21
174.5308145258395
 31
0.0
 11
79.07368215590705
 21
174.8403903239761
 31
0.0
  0
ENDBLK
  5
53
330
51
100
AcDbEntity
  8
0
100
AcDbBlockEnd
  0
BLOCK
  5
55
330
54
100
AcDbEntity
  8
0
100
AcDbBlockBegin
  2
62-1B-M2
 70
     0
 10
0.99999999999989
 20
1782.75
 30
0.0
  3
62-1B-M2
  1

  0
LINE
  5
10B
330
54
100
AcDbEntity
  8
1
  6
Continuous
 62
     7
100
AcDbLine
 10
135.9013726769736
 20
113.7878269577641
 30
0.0
 11
150.4022972695599
 21
107.0259347699129
 31
0.0
  0
LINE
  5
10C
330
54
100
AcDbEntity
  8
0
  6
Continuous
 62
     7
100
AcDbLine
 10
86.13583102122868
 20
110.4068808638421
 30
0.0
 11
86.13583102122868
 21
110.4068808638386
 31
0.0
  0
LINE
  5
10D
330
54
100
AcDbEntity
  8
0
  6
Continuous
 62
     7
100
AcDbLine
 10
86.13583102122868
 20
145.8753419286552
 30
0.0
 11
86.13583102122868
 21
110.4068808638421
 31
0.0
  0
LINE
  5
10E
330
54
100
AcDbEntity
  8
0
  6
Continuous
 62
     7
100
AcDbLine
 10
70.13583102122868
 20
145.8753419286552
 30
0.0
 11
70.13583102122868
 21
110.4068808638386
 31
0.0
  0
LINE
  5
10F
330
54
100
AcDbEntity
  8
1
  6
Continuous
 62
     7
100
AcDbLine
 10
133.78828136827
 20
109.2562880225812
 30
0.0
 11
134.8775621805122
 21
108.748348037951
 31
0.0
  0
LINE
  5
110
330
54
100
AcDbEntity
  8
1
  6
Continuous
 62
     7
100
AcDbLine
 10
147.1999251486142
 20
103.0023358193595
 30
0.0
 11
148.2892059608564
 21
102.4943958347297
 31
0.0
  0
LINE
  5
111
330
54
100
AcDbEntity
  8
1
  6
Continuous
 62
     7
100
AcDbLine
 10
178.803157814988
 20
153.8753419286552
 30
0.0
 11
183.0677307778072
 21
153.8753419286552
 31
0.0
  0
LINE
  5
112
330
54
100
AcDbEntity
  8
0
  6
PHANTOM
 62
     4
100
AcDbLine
 10
139.7708888793411
 20
103.1564185675454
 30
0.0
 11
151.6139242038884
 21
128.5538897808763
 31
0.0
  0
LINE
  5
113
330
54
100
AcDbEntity
  8
0
  6
Continuous
 62
     7
100
AcDbLine
 10
144.3634619075953
 20
131.9348358748018
 30
0.0
 11
135.9013726769736
 21
113.7878269577641
 31
0.0
  0
LINE
  5
114
330
54
100
AcDbEntity
  8
1
  6
Continuous
 62
     7
100
AcDbLine
 10
178.803157814988
 20
137.8753419286552
 30
0.0
 11
183.0677307778072
 21
137.8753419286552
 31
0.0
  0
LINE
  5
115
330
54
100
AcDbEntity
  8
0
  6
Continuous
 62
     7
100
AcDbLine
 10
158.8643865001816
 20
125.1729436869507
 30
0.0
 11
150.4022972695599
 21
107.0259347699129
 31
0.0
  0
LINE
  5
116
330
54
100
AcDbEntity
  8
1
  6
Continuous
 62
     7
100
AcDbLine
 10
141.0387436645633
 20
105.8753419286554
 30
0.0
 11
147.1999251486142
 21
103.0023358193595
 31
0.0
  0
LINE
  5
117
330
54
100
AcDbEntity
  8
1
  6
Continuous
 62
     7
100
AcDbLine
 10
134.8775621805122
 20
108.748348037951
 30
0.0
 11
141.0387436645633
 21
105.8753419286554
 31
0.0
  0
LINE
  5
118
330
54
100
AcDbEntity
  8
0
  6
PHANTOM
 62
     4
100
AcDbLine
 10
178.803157814988
 20
145.8753419286552
 30
0.0
 11
201.5387436645632
 21
145.8753419286552
 31
0.0
  0
LINE
  5
119
330
54
100
AcDbEntity
  8
0
  6
Continuous
 62
     7
100
AcDbLine
 10
86.13583102122875
 20
256.3356097340708
 30
0.0
 11
86.13583102122875
 21
296.251505538611
 31
0.0
  0
LINE
  5
11A
330
54
100
AcDbEntity
  8
0
  6
Continuous
 62
     7
100
AcDbLine
 10
70.13583102122875
 20
296.251505538611
 30
0.0
 11
70.13583102122875
 21
256.3356097340708
 31
0.0
  0
ARC
  5
11B
330
54
100
AcDbEntity
  8
0
  6
Continuous
 62
     7
100
AcDbCircle
 10
73.40155282053365
 20
108.1411113962488
 30
0.0
 40
12.93427820069508
100
AcDbArc
 50
349.9111250439124
 51
10.08887495608629
  0
ARC
  5
11C
330
54
100
AcDbEntity
  8
0
  6
Continuous
 62
     7
100
AcDbCircle
 10
82.87010922190535
 20
108.1411113962469
 30
0.0
 40
12.93427820067667
100
AcDbArc
 50
169.9111250439065
 51
190.0888749560935
  0
ARC
  5
11D
330
54
100
AcDbEntity
  8
0
  6
Continuous
 62
     7
100
AcDbCircle
 10
78.13583102122868
 20
102.6325475781915
 30
0.0
 40
11.15527937957272
100
AcDbArc
 50
44.18038574971224
 51
135.8196142502877
  0
ARC
  5
11E
330
54
100
AcDbEntity
  8
0
  6
Continuous
 62
     7
100
AcDbCircle
 10
78.13583102122868
 20
145.8753419286552
 30
0.0
 40
8.0
100
AcDbArc
 50
0.0
 51
180.0
  0
ARC
  5
11F
330
54
100
AcDbEntity
  8
0
  6
Continuous
 62
     7
100
AcDbCircle
 10
178.803157814988
 20
115.8753419286552
 30
0.0
 40
37.99999999999999
100
AcDbArc
 50
90.0
 51
155.0
  0
ARC
  5
120
330
54
100
AcDbEntity
  8
0
  6
Continuous
 62
     7
100
AcDbCircle
 10
178.803157814988
 20
115.8753419286552
 30
0.0
 40
21.99999999999999
100
AcDbArc
 50
90.0
 51
154.9999999999999
  0
ARC
  5
121
330
54
100
AcDbEntity
  8
0
  6
Continuous
 62
     7
100
AcDbCircle
 10
135.2753232214623
 20
111.3213138158467
 30
0.0
 40
15.7250000000021
100
AcDbArc
 50
334.9999999999999
 51
344.1478425197999
  0
ARC
  5
122
330
54
100
AcDbEntity
  8
0
  6
Continuous
 62
     7
100
AcDbCircle
 10
148.9152554163676
 20
104.9609089766472
 30
0.0
 40
15.72500000000208
100
AcDbArc
 50
154.9999999999999
 51
164.1478425197991
  0
ARC
  5
123
330
54
100
AcDbEntity
  8
0
  6
Continuous
 62
     7
100
AcDbCircle
 10
135.2753232214623
 20
111.3213138158467
 30
0.0
 40
15.72500000000212
100
AcDbArc
 50
325.8521574801991
 51
334.9999999999999
  0
ARC
  5
124
330
54
100
AcDbEntity
  8
0
  6
Continuous
 62
     7
100
AcDbCircle
 10
148.9152554163676
 20
104.9609089766472
 30
0.0
 40
15.72500000000195
100
AcDbArc
 50
145.8521574801991
 51
154.9999999999999
  0
SPLINE
  5
125
330
54
100
AcDbEntity
  8
0
  6
Continuous
 62
     7
100
AcDbSpline
210
0.0
220
0.0
230
1.0
 70
    11
 71
     3
 72
    79
 73
    75
 74
    73
 42
0.000000001
 43
0.0000000001
 44
0.00000001
 40
0.0
 40
0.0
 40
0.0
 40
0.0
 40
0.2880792242046385
 40
0.5747423010471471
 40
0.9128589881785443
 40
1.249698475288252
 40
1.652730795403877
 40
2.055171067775653
 40
2.52652129289923
 40
2.997562946081117
 40
3.532369598397532
 40
4.067014772304819
 40
4.65535706065054
 40
5.243610803985192
 40
5.872269835225557
 40
6.500881647768351
 40
7.15452517557
 40
7.808147992924758
 40
8.470243540847761
 40
9.132339088780194
 40
9.785961906162722
 40
10.43960543400944
 40
11.06821724661068
 40
11.69687627792177
 40
12.28513002133043
 40
12.87347230975216
 40
13.40811748372379
 40
13.94292413608895
 40
14.41396578928833
 40
14.88531601438275
 40
15.28775628666805
 40
15.69078860658983
 40
16.02762809339459
 40
16.36574477990854
 40
16.65240785482126
 40
16.94048708356469
 40
17.20815220686493
 40
17.47581733016452
 40
17.76389655890616
 40
18.05055963381637
 40
18.38867632032703
 40
18.72551580712861
 40
19.12854812704698
 40
19.53098839932932
 40
20.00233862442078
 40
20.4733802776176
 40
21.00818692998035
 40
21.54283210395009
 40
22.13117439237024
 40
22.71942813577783
 40
23.34808716708867
 40
23.97669897969104
 40
24.63034250754085
 40
25.28396532492893
 40
25.94606087287036
 40
26.60815642080664
 40
27.26177923817983
 40
27.91542276600619
 40
28.54403457857987
 40
29.17269360985902
 40
29.76094735323809
 40
30.34928964163649
 40
30.88393481559918
 40
31.41874146797746
 40
31.88978312121887
 40
32.36113334640316
 40
32.76357361882467
 40
33.16660593897323
 40
33.50344542607503
 40
33.84156211304508
 40
34.12822518853571
 40
34.41630441807995
 40
34.68396954321007
 40
34.95163466300116
 40
34.95163466300116
 40
34.95163466300116
 40
34.95163466300116
 10
70.54707744155766
 20
105.6095068679791
 30
0.0
 10
70.57399643410872
 20
105.5169418740441
 30
0.0
 10
70.62770207839242
 20
105.3322669157109
 30
0.0
 10
70.78630872689946
 20
105.0694220381566
 30
0.0
 10
70.99051666708174
 20
104.8214606040171
 30
0.0
 10
71.25490339375654
 20
104.5766821147485
 30
0.0
 10
71.5620809307782
 20
104.3505707738861
 30
0.0
 10
71.92613394624648
 20
104.1292479318333
 30
0.0
 10
72.32702045407686
 20
103.9276631694229
 30
0.0
 10
72.7805114809139
 20
103.7351214369893
 30
0.0
 10
73.2646617225685
 20
103.5631374643989
 30
0.0
 10
73.79424691500786
 20
103.4046333724752
 30
0.0
 10
74.34813366131895
 20
103.2674467841089
 30
0.0
 10
74.93796857171988
 20
103.1474833074302
 30
0.0
 10
75.54545746693901
 20
103.0495080886194
 30
0.0
 10
76.17777421461197
 20
102.9715102762046
 30
0.0
 10
76.82081524518432
 20
102.9159995698105
 30
0.0
 10
77.47652413639577
 20
102.8821407024093
 30
0.0
 10
78.13583101124607
 20
102.8710342638453
 30
0.0
 10
78.79513788613752
 20
102.8821407027465
 30
0.0
 10
79.45084677724742
 20
102.9159995705105
 30
0.0
 10
80.09388780823835
 20
102.97151027713
 30
0.0
 10
80.72620455448642
 20
103.0495080901992
 30
0.0
 10
81.33369345496475
 20
103.1474833080208
 30
0.0
 10
81.92352834705048
 20
103.2674467893782
 30
0.0
 10
82.4774151588135
 20
103.4046333621335
 30
0.0
 10
83.00700012827079
 20
103.5631375081104
 30
0.0
 10
83.49115115279453
 20
103.7351212915941
 30
0.0
 10
83.9446395876171
 20
103.9276636505067
 30
0.0
 10
84.34553504763637
 20
104.1292462492751
 30
0.0
 10
84.70955925153761
 20
104.3505760544389
 30
0.0
 10
85.0168350132241
 20
104.5766636558122
 30
0.0
 10
85.28091143065834
 20
104.8215171410204
 30
0.0
 10
85.4861786185941
 20
105.0692225721262
 30
0.0
 10
85.64139066603961
 20
105.3328878668144
 30
0.0
 10
85.73208191045292
 20
105.6006744554315
 30
0.0
 10
85.767269374867
 20
105.875341928488
 30
0.0
 10
85.73208191045669
 20
106.1500094015444
 30
0.0
 10
85.64139066604682
 20
106.4177959901609
 30
0.0
 10
85.48617861860433
 20
106.681461284848
 30
0.0
 10
85.28091143067113
 20
106.9291667159522
 30
0.0
 10
85.01683501323907
 20
107.174020201158
 30
0.0
 10
84.70955925155428
 20
107.4001078025282
 30
0.0
 10
84.3455350476543
 20
107.6214376076881
 30
0.0
 10
83.94463958763566
 20
107.8230202064516
 30
0.0
 10
83.49115115281319
 20
108.0155625653578
 30
0.0
 10
83.00700012828888
 20
108.1875463488331
 30
0.0
 10
82.4774151588303
 20
108.346050494799
 30
0.0
 10
81.92352834706537
 20
108.4832370675403
 30
0.0
 10
81.33369345497678
 20
108.6032005488794
 30
0.0
 10
80.72620455449477
 20
108.7011757666777
 30
0.0
 10
80.0938878082415
 20
108.7791735797176
 30
0.0
 10
79.45084677724462
 20
108.8346842863006
 30
0.0
 10
78.79513788612448
 20
108.868543154021
 30
0.0
 10
78.1358310112302
 20
108.8796495928672
 30
0.0
 10
77.47652413633965
 20
108.8685431542487
 30
0.0
 10
76.82081524521482
 20
108.8346842867468
 30
0.0
 10
76.17777421425036
 20
108.7791735803751
 30
0.0
 10
75.54545746790234
 20
108.7011757674947
 30
0.0
 10
74.93796856778741
 20
108.6032005499365
 30
0.0
 10
74.34813367443407
 20
108.4832370684085
 30
0.0
 10
73.79424686719501
 20
108.3460504968326
 30
0.0
 10
73.2646618823122
 20
108.1875463471613
 30
0.0
 10
72.78051091192019
 20
108.0155625767312
 30
0.0
 10
72.32702229783617
 20
107.8230201743964
 30
0.0
 10
71.92612745689276
 20
107.6214377250709
 30
0.0
 10
71.5621012605222
 20
107.4001074380924
 30
0.0
 10
71.2548322915427
 20
107.1740214780269
 30
0.0
 10
70.99073441475255
 20
106.9291628059632
 30
0.0
 10
70.78554047895278
 20
106.6814750779945
 30
0.0
 10
70.63009367859479
 20
106.4177530467838
 30
0.0
 10
70.54023050534221
 20
106.1501665873716
 30
0.0
 10
70.50215552050597
 20
105.8748012508712
 30
0.0
 10
70.53210347232898
 20
105.6979383288959
 30
0.0
 10
70.54707744155766
 20
105.6095068679791
 30
0.0
 11
70.54707744155766
 21
105.6095068679791
 31
0.0
 11
70.63942989691665
 21
105.3366320503943
 31
0.0
 11
70.78244726167479
 21
105.0881934222907
 31
0.0
 11
70.99636059901857
 21
104.8263461808628
 31
0.0
 11
71.24229565838536
 21
104.5961793142855
 31
0.0
 11
71.56551024463982
 21
104.3554151513475
 31
0.0
 11
71.90889005897448
 21
104.1455378636878
 31
0.0
 11
72.32921061348159
 21
103.9322266681079
 31
0.0
 11
72.76254381555856
 21
103.7475578428462
 31
0.0
 11
73.2660949420435
 21
103.5674067439892
 31
0.0
 11
73.77816839319408
 21
103.4136984401679
 31
0.0
 11
74.34906160213797
 21
103.2714746998595
 31
0.0
 11
74.92545972181631
 21
103.1539686393963
 31
0.0
 11
75.54601645214046
 21
103.0533628638288
 31
0.0
 11
76.16988350708584
 21
102.9762738978282
 31
0.0
 11
76.82107862937767
 21
102.9197515642946
 31
0.0
 11
77.47383179519723
 21
102.8860456017193
 31
0.0
 11
78.13583102122827
 21
102.8747522702963
 31
0.0
 11
78.7978302472593
 21
102.8860456017193
 31
0.0
 11
79.45058341307885
 21
102.9197515642946
 31
0.0
 11
80.10177853537061
 21
102.9762738978282
 31
0.0
 11
80.72564559031598
 21
103.0533628638288
 31
0.0
 11
81.34620232064022
 21
103.1539686393963
 31
0.0
 11
81.9226004403186
 21
103.2714746998595
 31
0.0
 11
82.49349364926246
 21
103.4136984401679
 31
0.0
 11
83.00556710041297
 21
103.5674067439892
 31
0.0
 11
83.50911822689791
 21
103.7475578428462
 31
0.0
 11
83.94245142897488
 21
103.9322266681079
 31
0.0
 11
84.36277198348202
 21
104.1455378636877
 31
0.0
 11
84.70615179781669
 21
104.3554151513476
 31
0.0
 11
85.0293663840712
 21
104.5961793142855
 31
0.0
 11
85.27530144343801
 21
104.8263461808628
 31
0.0
 11
85.48921478078175
 21
105.0881934222907
 31
0.0
 11
85.63223214553982
 21
105.3366320503943
 31
0.0
 11
85.72458460089882
 21
105.6095068679791
 31
0.0
 11
85.75583102122894
 21
105.8753419286774
 31
0.0
 11
85.72458460089882
 21
106.1411769893758
 31
0.0
 11
85.63223214553983
 21
106.4140518069606
 31
0.0
 11
85.48921478078174
 21
106.6624904350644
 31
0.0
 11
85.275301443438
 21
106.9243376764922
 31
0.0
 11
85.02936638407121
 21
107.1545045430695
 31
0.0
 11
84.70615179781669
 21
107.3952687060073
 31
0.0
 11
84.36277198348202
 21
107.6051459936671
 31
0.0
 11
83.94245142897486
 21
107.818457189247
 31
0.0
 11
83.50911822689791
 21
108.0031260145087
 31
0.0
 11
83.00556710041295
 21
108.1832771133657
 31
0.0
 11
82.49349364926235
 21
108.336985417187
 31
0.0
 11
81.92260044031845
 21
108.4792091574955
 31
0.0
 11
81.34620232064015
 21
108.5967152179587
 31
0.0
 11
80.72564559031602
 21
108.6973209935262
 31
0.0
 11
80.10177853537067
 21
108.7744099595267
 31
0.0
 11
79.45058341307886
 21
108.8309322930601
 31
0.0
 11
78.7978302472593
 21
108.8646382556355
 31
0.0
 11
78.13583102122827
 21
108.8759315870585
 31
0.0
 11
77.47383179519724
 21
108.8646382556355
 31
0.0
 11
76.82107862937767
 21
108.8309322930601
 31
0.0
 11
76.16988350708584
 21
108.7744099595267
 31
0.0
 11
75.54601645214046
 21
108.6973209935262
 31
0.0
 11
74.92545972181631
 21
108.5967152179587
 31
0.0
 11
74.34906160213797
 21
108.4792091574955
 31
0.0
 11
73.77816839319405
 21
108.336985417187
 31
0.0
 11
73.26609494204351
 21
108.1832771133657
 31
0.0
 11
72.7625438155586
 21
108.0031260145087
 31
0.0
 11
72.32921061348165
 21
107.818457189247
 31
0.0
 11
71.90889005897444
 21
107.6051459936671
 31
0.0
 11
71.56551024463973
 21
107.3952687060073
 31
0.0
 11
71.24229565838529
 21
107.1545045430695
 31
0.0
 11
70.99636059901856
 21
106.9243376764922
 31
0.0
 11
70.78244726167479
 21
106.6624904350642
 31
0.0
 11
70.63942989691665
 21
106.4140518069605
 31
0.0
 11
70.54707744155766
 21
106.1411769893757
 31
0.0
 11
70.51583102122756
 21
105.8753419286774
 31
0.0
 11
70.54707744155766
 21
105.6095068679791
 31
0.0
  0
SPLINE
  5
126
330
54
100
AcDbEntity
  8
0
  6
Continuous
 62
     7
100
AcDbSpline
210
0.0
220
0.0
230
1.0
 70
     8
 71
     3
 72
    45
 73
    41
 74
    39
 42
0.000000001
 43
0.0000000001
 44
0.00000001
 40
0.0
 40
0.0
 40
0.0
 40
0.0
 40
0.1496759111571817
 40
0.3011042835004138
 40
0.6212686760130021
 40
0.9401911722347178
 40
1.309172157783639
 40
1.676945089661028
 40
2.110264699573923
 40
2.542950026973586
 40
3.044677579413407
 40
3.546065731447832
 40
4.111847668931626
 40
4.677445583569948
 40
5.297533362699404
 40
5.917518809634919
 40
6.578627120082699
 40
7.239680249901788
 40
7.926252532374812
 40
8.612800488592594
 40
9.307992794106472
 40
10.00318509962036
 40
10.68973305583823
 40
11.3763053383113
 40
12.03735846813042
 40
12.69846677857815
 40
13.31845222551358
 40
13.93854000464301
 40
14.5041379192813
 40
15.06991985676493
 40
15.57130800879928
 40
16.07303556123919
 40
16.50572088863897
 40
16.93904049855186
 40
17.30681343042922
 40
17.67579441597807
 40
17.99471691219972
 40
18.31488130471226
 40
18.46630967706469
 40
18.61598558823107
 40
18.61598558823107
 40
18.61598558823107
 40
18.61598558823107
 10
86.13583102122897
 20
105.8753419286774
 30
0.0
 10
86.13427620903776
 20
105.8254154206863
 30
0.0
 10
86.13114838439132
 20
105.7249778466045
 30
0.0
 10
86.09582792505141
 20
105.5204513135984
 30
0.0
 10
86.01713626985787
 20
105.267207345438
 30
0.0
 10
85.85494256743661
 20
104.9709371990956
 30
0.0
 10
85.63991918398136
 20
104.6908470417597
 30
0.0
 10
85.36300606483289
 20
104.4149068042897
 30
0.0
 10
85.03998721426552
 20
104.1590898203428
 30
0.0
 10
84.6578398453568
 20
103.9095461530344
 30
0.0
 10
84.23635062413481
 20
103.6817485118632
 30
0.0
 10
83.7602025357564
 20
103.4646877781203
 30
0.0
 10
83.25138719439931
 20
103.2705380224637
 30
0.0
 10
82.69532541877722
 20
103.0918697969802
 30
0.0
 10
82.11341627562602
 20
102.937100854191
 30
0.0
 10
81.49408613219063
 20
102.8018851193612
 30
0.0
 10
80.85600299397125
 20
102.6913926218156
 30
0.0
 10
80.19205332944455
 20
102.6034811375927
 30
0.0
 10
79.51672118501735
 20
102.5408894764637
 30
0.0
 10
78.8281847452453
 20
102.5027295483787
 30
0.0
 10
78.13583102123022
 20
102.4902028944828
 30
0.0
 10
77.44347729721511
 20
102.5027295483779
 30
0.0
 10
76.75494085744299
 20
102.5408894764621
 30
0.0
 10
76.07960871301562
 20
102.6034811375901
 30
0.0
 10
75.41565904848885
 20
102.6913926218122
 30
0.0
 10
74.77757591026932
 20
102.801885119357
 30
0.0
 10
74.15824576683383
 20
102.937100854186
 30
0.0
 10
73.57633662368252
 20
103.0918697969745
 30
0.0
 10
73.02027484806024
 20
103.2705380224574
 30
0.0
 10
72.51145950670305
 20
103.4646877781133
 30
0.0
 10
72.0353114183244
 20
103.6817485118556
 30
0.0
 10
71.61382219710208
 20
103.9095461530264
 30
0.0
 10
71.23167482819296
 20
104.1590898203342
 30
0.0
 10
70.90865597762533
 20
104.4149068042809
 30
0.0
 10
70.63174285847654
 20
104.6908470417504
 30
0.0
 10
70.41671947502094
 20
104.9709371990861
 30
0.0
 10
70.25452577259927
 20
105.2672073454281
 30
0.0
 10
70.17583411740449
 20
105.5204513135914
 30
0.0
 10
70.1405136580639
 20
105.7249778466036
 30
0.0
 10
70.13738583341842
 20
105.8254154206916
 30
0.0
 10
70.13583102122766
 20
105.8753419286858
 30
0.0
 11
86.13583102122897
 21
105.8753419286774
 31
0.0
 11
86.12770952860826
 21
105.7258865091124
 31
0.0
 11
86.10334505074357
 21
105.5764310895473
 31
0.0
 11
86.00717237149512
 21
105.2710525489403
 31
0.0
 11
85.85667031534331
 21
104.9898752222454
 31
0.0
 11
85.63357864740485
 21
104.6959754523157
 31
0.0
 11
85.3742722217028
 21
104.4351745579326
 31
0.0
 11
85.0360074519253
 21
104.1643557452965
 31
0.0
 11
84.67429437766575
 21
103.9269105011906
 31
0.0
 11
84.23375773535086
 21
103.6867896919565
 31
0.0
 11
83.77782911976078
 21
103.4781771902013
 31
0.0
 11
83.24967299682054
 21
103.2752971521893
 31
0.0
 11
82.71133425078764
 21
103.1018255557255
 31
0.0
 11
82.11230017272592
 21
102.9416162359487
 31
0.0
 11
81.50664684107176
 21
102.8090794668003
 31
0.0
 11
80.85532828687657
 21
102.6957289584959
 31
0.0
 11
80.20001414202261
 21
102.6088116962328
 31
0.0
 11
79.51640267694246
 21
102.5451181952031
 31
0.0
 11
78.83090677252032
 21
102.5071253106468
 31
0.0
 11
78.13583102123023
 21
102.4943958347394
 31
0.0
 11
77.44075526994011
 21
102.5071253106459
 31
0.0
 11
76.75525936551784
 21
102.5451181952015
 31
0.0
 11
76.07164790043757
 21
102.6088116962303
 31
0.0
 11
75.41633375558347
 21
102.6957289584925
 31
0.0
 11
74.76501520138818
 21
102.8090794667961
 31
0.0
 11
74.15936186973393
 21
102.9416162359438
 31
0.0
 11
73.56032779167205
 21
103.1018255557198
 31
0.0
 11
73.02198904563899
 21
103.275297152183
 31
0.0
 11
72.49383292269866
 21
103.4781771901943
 31
0.0
 11
72.03790430710839
 21
103.6867896919489
 31
0.0
 11
71.59736766479313
 21
103.9269105011825
 31
0.0
 11
71.23565459053317
 21
104.164355745288
 31
0.0
 11
70.89738982075538
 21
104.4351745579237
 31
0.0
 11
70.63808339505303
 21
104.6959754523064
 31
0.0
 11
70.4149917271142
 21
104.9898752222359
 31
0.0
 11
70.26448967096204
 21
105.2710525489305
 31
0.0
 11
70.16831699171323
 21
105.5764310895373
 31
0.0
 11
70.14395251384741
 21
105.7258865091116
 31
0.0
 11
70.13583102122766
 21
105.8753419286858
 31
0.0
  0
SPLINE
  5
127
330
54
100
AcDbEntity
  8
0
  6
Continuous
 62
     7
100
AcDbSpline
210
0.0
220
0.0
230
1.0
 70
     8
 71
     3
 72
    45
 73
    41
 74
    39
 42
0.000000001
 43
0.0000000001
 44
0.00000001
 40
0.0
 40
0.0
 40
0.0
 40
0.0
 40
0.1496759111545201
 40
0.3011042834886209
 40
0.6212686760011703
 40
0.9401911722227656
 40
1.309172157771526
 40
1.676945089648793
 40
2.110264699561572
 40
2.542950026961275
 40
3.044677579401182
 40
3.546065731435701
 40
4.111847668919527
 40
4.677445583557801
 40
5.297533362687159
 40
5.917518809622635
 40
6.578627120070426
 40
7.239680249889535
 40
7.926252532362562
 40
8.61280048858035
 40
9.30799279409424
 40
10.00318509960819
 40
10.68973305582604
 40
11.37630533829912
 40
12.03735846811824
 40
12.69846677856598
 40
13.31845222550147
 40
13.93854000463099
 40
14.50413791926936
 40
15.06991985675302
 40
15.57130800878734
 40
16.0730355612272
 40
16.50572088862696
 40
16.93904049853987
 40
17.30681343041723
 40
17.67579441596604
 40
17.99471691218764
 40
18.31488130470022
 40
18.46630967702944
 40
18.61598558818847
 40
18.61598558818847
 40
18.61598558818847
 40
18.61598558818847
 10
86.13583102122885
 20
105.8753419286651
 30
0.0
 10
86.13427620903708
 20
105.9252684366554
 30
0.0
 10
86.13114838438953
 20
106.025706010733
 30
0.0
 10
86.09582792505037
 20
106.2302325437352
 30
0.0
 10
86.01713626985698
 20
106.4834765118925
 30
0.0
 10
85.85494256743549
 20
106.7797466582346
 30
0.0
 10
85.6399191839798
 20
107.05983681557
 30
0.0
 10
85.36300606483107
 20
107.3357770530396
 30
0.0
 10
85.03998721426348
 20
107.5915940369861
 30
0.0
 10
84.65783984535445
 20
107.841137704294
 30
0.0
 10
84.2363506241321
 20
108.0689353454647
 30
0.0
 10
83.76020253575342
 20
108.2859960792072
 30
0.0
 10
83.2513871943961
 20
108.4801458348632
 30
0.0
 10
82.6953254187738
 20
108.6588140603461
 30
0.0
 10
82.11341627562251
 20
108.8135830031347
 30
0.0
 10
81.494086132187
 20
108.9487987379636
 30
0.0
 10
80.85600299396745
 20
109.0592912355084
 30
0.0
 10
80.19205332944068
 20
109.1472027197305
 30
0.0
 10
79.51672118501335
 20
109.2097943808586
 30
0.0
 10
78.82818474524126
 20
109.2479543089427
 30
0.0
 10
78.13583102122612
 20
109.2604809628375
 30
0.0
 10
77.44347729721106
 20
109.2479543089419
 30
0.0
 10
76.75494085743891
 20
109.2097943808569
 30
0.0
 10
76.07960871301164
 20
109.1472027197279
 30
0.0
 10
75.41565904848498
 20
109.0592912355048
 30
0.0
 10
74.7775759102656
 20
108.9487987379592
 30
0.0
 10
74.15824576683022
 20
108.8135830031295
 30
0.0
 10
73.57633662367898
 20
108.6588140603404
 30
0.0
 10
73.02027484805687
 20
108.4801458348569
 30
0.0
 10
72.5114595066999
 20
108.2859960792002
 30
0.0
 10
72.03531141832156
 20
108.0689353454572
 30
0.0
 10
71.61382219709957
 20
107.841137704286
 30
0.0
 10
71.23167482819075
 20
107.5915940369777
 30
0.0
 10
70.9086559776234
 20
107.3357770530307
 30
0.0
 10
70.63174285847504
 20
107.0598368155607
 30
0.0
 10
70.41671947501962
 20
106.7797466582249
 30
0.0
 10
70.25452577259878
 20
106.4834765118825
 30
0.0
 10
70.17583411740529
 20
106.2302325437269
 30
0.0
 10
70.14051365806773
 20
106.0257060107245
 30
0.0
 10
70.13738583342044
 20
105.925268436647
 30
0.0
 10
70.13583102122868
 20
105.8753419286552
 30
0.0
 11
86.13583102122885
 21
105.8753419286651
 31
0.0
 11
86.12770952860673
 21
106.0247973482273
 31
0.0
 11
86.10334505074317
 21
106.1742527677833
 31
0.0
 11
86.0071723714943
 21
106.4796313083902
 31
0.0
 11
85.85667031534214
 21
106.7608086350847
 31
0.0
 11
85.63357864740331
 21
107.0547084050141
 31
0.0
 11
85.37427222170102
 21
107.3155092993967
 31
0.0
 11
85.0360074519233
 21
107.5863281120323
 31
0.0
 11
84.67429437766341
 21
107.8237733561378
 31
0.0
 11
84.23375773534816
 21
108.0638941653714
 31
0.0
 11
83.77782911975778
 21
108.2725066671262
 31
0.0
 11
83.2496729968173
 21
108.4753867051376
 31
0.0
 11
82.71133425078426
 21
108.6488583016008
 31
0.0
 11
82.11230017272244
 21
108.8090676213768
 31
0.0
 11
81.50664684106815
 21
108.9416043905245
 31
0.0
 11
80.8553282868728
 21
109.0549548988281
 31
0.0
 11
80.20001414201872
 21
109.1418721610904
 31
0.0
 11
79.51640267693848
 21
109.2055656621192
 31
0.0
 11
78.83090677251629
 21
109.2435585466746
 31
0.0
 11
78.13583102122617
 21
109.2562880225811
 31
0.0
 11
77.440755269936
 21
109.2435585466738
 31
0.0
 11
76.7552593655138
 21
109.2055656621175
 31
0.0
 11
76.07164790043359
 21
109.1418721610878
 31
0.0
 11
75.41633375557961
 21
109.0549548988245
 31
0.0
 11
74.76501520138447
 21
108.9416043905202
 31
0.0
 11
74.15936186973032
 21
108.8090676213717
 31
0.0
 11
73.56032779166853
 21
108.648858301595
 31
0.0
 11
73.02198904563559
 21
108.4753867051311
 31
0.0
 11
72.4938329226955
 21
108.2725066671192
 31
0.0
 11
72.03790430710555
 21
108.0638941653639
 31
0.0
 11
71.59736766479062
 21
107.8237733561298
 31
0.0
 11
71.23565459053096
 21
107.5863281120239
 31
0.0
 11
70.89738982075349
 21
107.3155092993878
 31
0.0
 11
70.63808339505148
 21
107.0547084050047
 31
0.0
 11
70.41499172711303
 21
106.760808635075
 31
0.0
 11
70.26448967096123
 21
106.4796313083803
 31
0.0
 11
70.16831699171269
 21
106.1742527677733
 31
0.0
 11
70.14395251385073
 21
106.0247973482219
 31
0.0
 11
70.13583102122868
 21
105.8753419286552
 31
0.0
  0
SPLINE
  5
128
330
54
100
AcDbEntity
  8
0
  6
Continuous
 62
     7
100
AcDbSpline
210
0.0
220
0.0
230
1.0
 70
     8
 71
     3
 72
    27
 73
    23
 74
    21
 42
0.000000001
 43
0.0000000001
 44
0.00000001
 40
0.0
 40
0.0
 40
0.0
 40
0.0
 40
0.7157231949453488
 40
1.431441972946446
 40
2.147966649822822
 40
2.864483072980359
 40
3.582232466784502
 40
4.29997083820026
 40
5.019218814406482
 40
5.738454391282919
 40
6.459293018734832
 40
7.180119388215753
 40
7.902448923007181
 40
8.624767793342993
 40
9.348309768099584
 40
10.07184389605052
 40
10.79617524599634
 40
11.52050244427778
 40
12.24510631157174
 40
12.96971017853069
 40
13.5265267593563
 40
14.08260751976728
 40
14.08260751976728
 40
14.08260751976728
 40
14.08260751976728
 10
77.42108981540225
 20
247.0037395565638
 30
0.0
 10
77.18390189755829
 20
247.0308454081489
 30
0.0
 10
76.7095275275447
 20
247.085056958365
 30
0.0
 10
76.01039805952024
 20
247.245934724832
 30
0.0
 10
75.32709097201993
 20
247.4630623331729
 30
0.0
 10
74.66527105949359
 20
247.7413160199194
 30
0.0
 10
74.0298824074048
 20
248.0761910542313
 30
0.0
 10
73.4257768819911
 20
248.4664080873056
 30
0.0
 10
72.85752993331012
 20
248.9079996681489
 30
0.0
 10
72.32952186610505
 20
249.3985109030562
 30
0.0
 10
71.84565219678154
 20
249.9333186619477
 30
0.0
 10
71.40977678105692
 20
250.5092036369123
 30
0.0
 10
71.02495284865813
 20
251.1209656786398
 30
0.0
 10
70.69443017091743
 20
251.7647043639236
 30
0.0
 10
70.42031132908924
 20
252.434842231191
 30
0.0
 10
70.20515559981119
 20
253.1268662895146
 30
0.0
 10
70.05003424620892
 20
253.8350448101106
 30
0.0
 10
69.95680176483845
 20
254.5543274697803
 30
0.0
 10
69.9251937123208
 20
255.2790938341409
 30
0.0
 10
69.95491925334902
 20
255.9478389608032
 30
0.0
 10
70.02554089498952
 20
256.556904988318
 30
0.0
 10
70.09908384935258
 20
256.9206508844517
 30
0.0
 10
70.13583102123103
 20
257.1024035812584
 30
0.0
 11
77.42108981540225
 21
247.0037395565638
 31
0.0
 11
76.71164168621118
 21
247.0983072390479
 31
0.0
 11
76.01333694931736
 21
247.2552271733662
 31
0.0
 11
75.33077509533094
 21
247.4732109561425
 31
0.0
 11
74.67010897280075
 21
247.7505484046262
 31
0.0
 11
74.03522376664012
 21
248.0853393367364
 31
0.0
 11
73.4322312112005
 21
248.4746314490017
 31
0.0
 11
72.8643643686975
 21
248.9160438425296
 31
0.0
 11
72.33731535359527
 21
249.4054507809404
 31
0.0
 11
71.85375847725919
 21
249.940035736564
 31
0.0
 11
71.41861707448881
 21
250.5147031317732
 31
0.0
 11
71.03407659176263
 21
251.1261674189999
 31
0.0
 11
70.70402928893897
 21
251.7686729278671
 31
0.0
 11
70.43017639730448
 21
252.4383874816783
 31
0.0
 11
70.21524043357032
 21
253.1292595150218
 31
0.0
 11
70.0603602388743
 21
253.8368385074612
 31
0.0
 11
69.96708173475437
 21
254.5551344156437
 31
0.0
 11
69.93583102122867
 21
255.279064079719
 31
0.0
 11
69.9670817347544
 21
256.0029937437944
 31
0.0
 11
70.03327193853713
 21
256.5558622300139
 31
0.0
 11
70.13583102123103
 21
257.1024035812584
 31
0.0
  0
SPLINE
  5
129
330
54
100
AcDbEntity
  8
0
  6
Continuous
 62
     7
100
AcDbSpline
210
0.0
220
0.0
230
1.0
 70
     8
 71
     3
 72
    29
 73
    25
 74
    23
 42
0.000000001
 43
0.0000000001
 44
0.00000001
 40
0.0
 40
0.0
 40
0.0
 40
0.0
 40
0.5560807599852746
 40
1.11289734066503
 40
1.837501207589113
 40
2.562105074891717
 40
3.286432273195419
 40
4.010763623168105
 40
4.734297751148684
 40
5.457839725937399
 40
6.180158596308935
 40
6.902488131140691
 40
7.623314500669125
 40
8.34415312817865
 40
9.063388705127448
 40
9.782636681427219
 40
10.50037505296985
 40
11.21812444695231
 40
11.93464087037663
 40
12.65116554767534
 40
13.36688432640424
 40
14.08260752222857
 40
14.79805062165031
 40
15.51349372031722
 40
15.51349372031722
 40
15.51349372031722
 40
15.51349372031722
 10
86.13583102123285
 20
257.1024035812299
 30
0.0
 10
86.1725781930826
 20
256.9206508845622
 30
0.0
 10
86.24612114749195
 20
256.5569049886331
 30
0.0
 10
86.31674278921116
 20
255.9478389613291
 30
0.0
 10
86.34646833030676
 20
255.2790938347288
 30
0.0
 10
86.31486027783676
 20
254.5543274703579
 30
0.0
 10
86.22162779649223
 20
253.8350448106976
 30
0.0
 10
86.06650644292112
 20
253.1268662899473
 30
0.0
 10
85.85135071360668
 20
252.4348422320484
 30
0.0
 10
85.57723187195815
 20
251.7647043630323
 30
0.0
 10
85.2467091935631
 20
251.1209656840861
 30
0.0
 10
84.8618852635901
 20
250.5092036185392
 30
0.0
 10
84.42600983878458
 20
249.9333187320811
 30
0.0
 10
83.94214020322647
 20
249.3985106430243
 30
0.0
 10
83.41413201013566
 20
248.9080006374204
 30
0.0
 10
82.84588553051263
 20
248.4664044736946
 30
0.0
 10
82.2417782577253
 20
248.0762045095545
 30
0.0
 10
81.60639611992237
 20
247.7412658360576
 30
0.0
 10
80.94455193469972
 20
247.4632492649325
 30
0.0
 10
80.26133536737704
 20
247.2452373671472
 30
0.0
 10
79.56186843196743
 20
247.0876562884087
 30
0.0
 10
78.85165795831179
 20
246.994050493875
 30
0.0
 10
78.13558294489548
 20
246.9586378526809
 30
0.0
 10
77.65925419160766
 20
246.9887056504973
 30
0.0
 10
77.42108981540225
 20
247.0037395565638
 30
0.0
 11
86.13583102123285
 21
257.1024035812299
 31
0.0
 11
86.23839010392258
 21
256.5558622299994
 31
0.0
 11
86.30458030770302
 21
256.0029937437943
 31
0.0
 11
86.33583102122867
 21
255.2790640797189
 31
0.0
 11
86.30458030770302
 21
254.5551344156437
 31
0.0
 11
86.21130180358317
 21
253.8368385074612
 31
0.0
 11
86.05642160888712
 21
253.1292595150218
 31
0.0
 11
85.84148564515293
 21
252.4383874816783
 31
0.0
 11
85.56763275351842
 21
251.7686729278671
 31
0.0
 11
85.23758545069478
 21
251.1261674189998
 31
0.0
 11
84.85304496796863
 21
250.5147031317732
 31
0.0
 11
84.41790356519829
 21
249.940035736564
 31
0.0
 11
83.93434668886218
 21
249.4054507809404
 31
0.0
 11
83.40729767375991
 21
248.9160438425296
 31
0.0
 11
82.83943083125698
 21
248.4746314490017
 31
0.0
 11
82.2364382758174
 21
248.0853393367363
 31
0.0
 11
81.60155306965687
 21
247.7505484046262
 31
0.0
 11
80.94088694712667
 21
247.4732109561425
 31
0.0
 11
80.25832509314002
 21
247.2552271733663
 31
0.0
 11
79.56002035624601
 21
247.0983072390479
 31
0.0
 11
78.8505722270551
 21
247.0037395565638
 31
0.0
 11
78.13583102122871
 21
246.972056129074
 31
0.0
 11
77.42108981540225
 21
247.0037395565638
 31
0.0
  0
SPLINE
  5
12A
330
54
100
AcDbEntity
  8
0
  6
Continuous
 62
     7
100
AcDbSpline
210
0.0
220
0.0
230
1.0
 70
     8
 71
     3
 72
    43
 73
    39
 74
    37
 42
0.000000001
 43
0.0000000001
 44
0.00000001
 40
0.0
 40
0.0
 40
0.0
 40
0.0
 40
0.635204222710863
 40
1.270370506174598
 40
1.911389447579902
 40
2.552340371688509
 40
3.202156823994422
 40
3.851887900974229
 40
4.512333247407225
 40
5.172689359422425
 40
5.844261527685421
 40
6.515751879406339
 40
7.197615459147922
 40
7.879412550273097
 40
8.569551789603791
 40
9.259644670793794
 40
9.955129077082727
 40
10.6505897834413
 40
11.34791329175554
 40
12.04523680007106
 40
12.74069750643347
 40
13.43618191272922
 40
14.12627479392974
 40
14.81641403327596
 40
15.49821112442283
 40
16.18007470419446
 40
16.85156505595583
 40
17.52313722427401
 40
18.18349333636394
 40
18.8439386829014
 40
19.4936697600302
 40
20.14348621256286
 40
20.78443713704744
 40
21.4254560791796
 40
22.06062236442581
 40
22.69582659140823
 40
23.01286796528368
 40
23.32917007682762
 40
23.32917007682762
 40
23.32917007682762
 40
23.32917007682762
 10
86.10523021885577
 20
255.7031905566382
 30
0.0
 10
86.07904346360642
 20
255.4929136579501
 30
0.0
 10
86.02667150459222
 20
255.0723724217966
 30
0.0
 10
85.87105367091992
 20
254.453024278473
 30
0.0
 10
85.66157505309695
 20
253.848505825873
 30
0.0
 10
85.39260253023363
 20
253.2623285247831
 30
0.0
 10
85.06977078418781
 20
252.7007862753904
 30
0.0
 10
84.69288029026302
 20
252.1660274113064
 30
0.0
 10
84.26755909502934
 20
251.6643334079541
 30
0.0
 10
83.79423244696922
 20
251.1972762337463
 30
0.0
 10
83.2795511698602
 20
250.7704490476805
 30
0.0
 10
82.72435628054488
 20
250.3851840834664
 30
0.0
 10
82.13597017301043
 20
250.0459469708703
 30
0.0
 10
81.51589443535063
 20
249.7540060381791
 30
0.0
 10
80.87157876365208
 20
249.5124642578516
 30
0.0
 10
80.20548762012221
 20
249.322518407656
 30
0.0
 10
79.52464474215907
 20
249.1858919149749
 30
0.0
 10
78.83271357440947
 20
249.1035281465173
 30
0.0
 10
78.13583102104505
 20
249.0759448066222
 30
0.0
 10
77.43894846766698
 20
249.1035281465185
 30
0.0
 10
76.74701729995095
 20
249.1858919149815
 30
0.0
 10
76.06617442184466
 20
249.3225184076522
 30
0.0
 10
75.400083278809
 20
249.5124642578983
 30
0.0
 10
74.75576760522232
 20
249.7540060380544
 30
0.0
 10
74.13569187444894
 20
250.045946971399
 30
0.0
 10
73.54730574129476
 20
250.3851840816035
 30
0.0
 10
72.99211094604874
 20
250.7704490546546
 30
0.0
 10
72.47742932068681
 20
251.1972762080846
 30
0.0
 10
72.0041039513287
 20
251.6643335022401
 30
0.0
 10
71.57877802544643
 20
252.1660270620148
 30
0.0
 10
71.20190491323065
 20
252.7007875562074
 30
0.0
 10
70.87900880516034
 20
253.2623237700196
 30
0.0
 10
70.61027336749854
 20
253.8485233047997
 30
0.0
 10
70.39991507327923
 20
254.4529592639583
 30
0.0
 10
70.24755180413422
 20
255.0726126157953
 30
0.0
 10
70.17201015533965
 20
255.5971595737214
 30
0.0
 10
70.14027087610965
 20
256.0190252417029
 30
0.0
 10
70.13730981667882
 20
256.2301637194301
 30
0.0
 10
70.13583102122875
 20
256.3356097340708
 30
0.0
 11
86.10523021885577
 21
255.7031905566382
 31
0.0
 11
86.01390502895583
 21
255.0745856557673
 31
0.0
 11
85.86272593798206
 21
254.4576731068004
 31
0.0
 11
85.65196186156344
 21
253.8522940613233
 31
0.0
 11
85.38520206801093
 21
253.2694928083409
 31
0.0
 11
85.06133233026914
 21
252.7061369570006
 31
0.0
 11
84.68735287073153
 21
252.1748274081719
 31
0.0
 11
84.26036411369869
 21
251.6709736026374
 31
0.0
 11
83.7905676905313
 21
251.2069030091396
 31
0.0
 11
83.27372781497603
 21
250.7780840258002
 31
0.0
 11
82.72222568070544
 21
250.3950113322322
 31
0.0
 11
82.13158525441193
 21
250.0543034978892
 31
0.0
 11
81.5148382970107
 21
249.7636654684633
 31
0.0
 11
80.86865518592141
 21
249.5213030193738
 31
0.0
 11
80.20506338503534
 21
249.331898408644
 31
0.0
 11
79.52318444749636
 21
249.1950054796235
 31
0.0
 11
78.83260938635078
 21
249.112715267055
 31
0.0
 11
78.13583102122874
 21
249.0851474377776
 31
0.0
 11
77.43905265610667
 21
249.112715267055
 31
0.0
 11
76.7484775949611
 21
249.1950054796235
 31
0.0
 11
76.06659865742222
 21
249.331898408644
 31
0.0
 11
75.40300685653625
 21
249.5213030193738
 31
0.0
 11
74.75682374544692
 21
249.7636654684633
 31
0.0
 11
74.14007678804556
 21
250.0543034978892
 31
0.0
 11
73.54943636175189
 21
250.3950113322322
 31
0.0
 11
72.99793422748121
 21
250.7780840258003
 31
0.0
 11
72.48109435192598
 21
251.2069030091396
 31
0.0
 11
72.0112979287587
 21
251.6709736026375
 31
0.0
 11
71.58430917172586
 21
252.1748274081718
 31
0.0
 11
71.21032971218827
 21
252.7061369570006
 31
0.0
 11
70.88645997444654
 21
253.2694928083409
 31
0.0
 11
70.61970018089407
 21
253.8522940613233
 31
0.0
 11
70.40893610447557
 21
254.4576731068004
 31
0.0
 11
70.25775701350176
 21
255.0745856557673
 31
0.0
 11
70.16643182360149
 21
255.7031905566382
 31
0.0
 11
70.14348122182193
 21
256.0194001453543
 31
0.0
 11
70.13583102122875
 21
256.3356097340708
 31
0.0
  0
SPLINE
  5
12B
330
54
100
AcDbEntity
  8
0
  6
Continuous
 62
     7
100
AcDbSpline
210
0.0
220
0.0
230
1.0
 70
     8
 71
     3
 72
     9
 73
     5
 74
     3
 42
0.000000001
 43
0.0000000001
 44
0.00000001
 40
0.0
 40
0.0
 40
0.0
 40
0.0
 40
0.3163021173070501
 40
0.6333434931012721
 40
0.6333434931012721
 40
0.6333434931012721
 40
0.6333434931012721
 10
86.13583102122864
 20
256.3356097340718
 30
0.0
 10
86.13455004517135
 20
256.230145166384
 30
0.0
 10
86.13198507919421
 20
256.0189695408853
 30
0.0
 10
86.1141554493961
 20
255.8085320940584
 30
0.0
 10
86.10523021885577
 20
255.7031905566382
 30
0.0
 11
86.13583102122864
 21
256.3356097340718
 31
0.0
 11
86.12818082063554
 21
256.019400145355
 31
0.0
 11
86.10523021885577
 21
255.7031905566382
 31
0.0
  0
ARC
  5
12C
330
54
100
AcDbEntity
  8
0
  6
PHANTOM
 62
     4
100
AcDbCircle
 10
178.803157814988
 20
115.8753419286552
 30
0.0
 40
29.99999999999999
100
AcDbArc
 50
90.0
 51
154.9999999999999
  0
ENDBLK
  5
56
330
54
100
AcDbEntity
  8
0
100
AcDbBlockEnd
  0
BLOCK
  5
58
330
57
100
AcDbEntity
  8
0
100
AcDbBlockBegin
  2
21-9-M1
 70
     0
 10
14.98156479471158
 20
253.5910932860496
 30
0.0
  3
21-9-M1
  1

  0
LINE
  5
12D
330
57
100
AcDbEntity
  8
1
  6
PHANTOM
 62
     4
100
AcDbLine
 10
256.0677294488311
 20
200.8753419286553
 30
0.0
 11
180.0677314488308
 21
200.8753419286553
 31
0.0
  0
LINE
  5
12E
330
57
100
AcDbEntity
  8
_______C____
  6
Continuous
 62
     7
100
AcDbLine
 10
78.13805569225207
 20
211.3753419286553
 30
0.0
 11
87.1858306922523
 21
211.3753419286553
 31
0.0
  0
LINE
  5
12F
330
57
100
AcDbEntity
  8
_______C____
  6
Continuous
 62
     7
100
AcDbLine
 10
57.98429969225225
 20
205.3753419286553
 30
0.0
 11
58.98429769225226
 21
205.3772279286553
 31
0.0
  0
LINE
  5
130
330
57
100
AcDbEntity
  8
_______C____
  6
Continuous
 62
     7
100
AcDbLine
 10
78.13360569225216
 20
211.3753419286553
 30
0.0
 11
68.65860569225225
 21
211.3753419286553
 31
0.0
  0
LINE
  5
131
330
57
100
AcDbEntity
  8
_______C____
  6
Continuous
 62
     7
100
AcDbLine
 10
98.28736169225209
 20
205.3753419286553
 30
0.0
 11
97.28736369225209
 21
205.3772279286553
 31
0.0
  0
LINE
  5
132
330
57
100
AcDbEntity
  8
1
  6
PHANTOM
 62
     4
100
AcDbLine
 10
116.1358296922522
 20
200.8753419286553
 30
0.0
 11
40.135831692252
 21
200.8753419286553
 31
0.0
  0
LINE
  5
133
330
57
100
AcDbEntity
  8
1
  6
PHANTOM
 62
     4
100
AcDbLine
 10
78.13583130434705
 20
215.0753419286552
 30
0.0
 11
78.13583069225234
 21
184.3753319286554
 31
0.0
  0
LINE
  5
134
330
57
100
AcDbEntity
  8
1
  6
Continuous
 62
     7
100
AcDbLine
 10
66.635831692252
 20
187.5753319286555
 30
0.0
 11
66.635831692252
 21
190.4116699286554
 31
0.0
  0
LINE
  5
135
330
57
100
AcDbEntity
  8
1
  6
Continuous
 62
     7
100
AcDbLine
 10
66.83583169225216
 20
187.3753319286554
 30
0.0
 11
78.13583075206606
 21
187.3753319286554
 31
0.0
  0
LINE
  5
136
330
57
100
AcDbEntity
  8
1
  6
Continuous
 62
     7
100
AcDbLine
 10
78.13583082736551
 20
187.3753319286554
 30
0.0
 11
89.43582988717941
 21
187.3753319286554
 31
0.0
  0
LINE
  5
137
330
57
100
AcDbEntity
  8
1
  6
Continuous
 62
     7
100
AcDbLine
 10
89.63582969225217
 20
190.4116699286554
 30
0.0
 11
89.63582988717945
 21
187.5753319286555
 31
0.0
  0
LINE
  5
138
330
57
100
AcDbEntity
  8
1
  6
Continuous
 62
     2
100
AcDbLine
 10
66.635831692252
 20
187.5753319286555
 30
0.0
 11
66.635831692252
 21
187.3753319286554
 31
0.0
  0
LINE
  5
139
330
57
100
AcDbEntity
  8
1
  6
Continuous
 62
     2
100
AcDbLine
 10
66.635831692252
 20
187.3753319286554
 30
0.0
 11
66.83583169225216
 21
187.3753319286554
 31
0.0
  0
LINE
  5
13A
330
57
100
AcDbEntity
  8
1
  6
Continuous
 62
     2
100
AcDbLine
 10
89.43582969225218
 20
187.3753319286554
 30
0.0
 11
89.63582969225234
 21
187.3753319286554
 31
0.0
  0
LINE
  5
13B
330
57
100
AcDbEntity
  8
1
  6
Continuous
 62
     2
100
AcDbLine
 10
89.63582969225234
 20
187.3753319286554
 30
0.0
 11
89.63582969225234
 21
187.5753319286555
 31
0.0
  0
LINE
  5
13C
330
57
100
AcDbEntity
  8
_______C____
  6
Continuous
 62
     7
100
AcDbLine
 10
87.38583069225206
 20
211.3753419286553
 30
0.0
 11
87.6130556922522
 21
211.3753419286553
 31
0.0
  0
LINE
  5
13D
330
57
100
AcDbEntity
  8
1
  6
Continuous
 62
     7
100
AcDbLine
 10
87.1858306922523
 20
211.3753419286553
 30
0.0
 11
87.38583069225206
 21
211.3753419286553
 31
0.0
  0
LINE
  5
13E
330
57
100
AcDbEntity
  8
1
  6
Continuous
 62
     7
100
AcDbLine
 10
227.1177304488311
 20
211.3753419286553
 30
0.0
 11
227.317730448831
 21
211.3753419286553
 31
0.0
  0
LINE
  5
13F
330
57
100
AcDbEntity
  8
_______C____
  6
Continuous
 62
     7
100
AcDbLine
 10
227.317730448831
 20
211.3753419286553
 30
0.0
 11
227.5449554488311
 21
211.3753419286553
 31
0.0
  0
LINE
  5
140
330
57
100
AcDbEntity
  8
1
  6
Continuous
 62
     2
100
AcDbLine
 10
229.5677294488311
 20
187.3753319286554
 30
0.0
 11
229.5677294488311
 21
187.5753319286555
 31
0.0
  0
LINE
  5
141
330
57
100
AcDbEntity
  8
1
  6
Continuous
 62
     2
100
AcDbLine
 10
229.367729448831
 20
187.3753319286554
 30
0.0
 11
229.5677294488311
 21
187.3753319286554
 31
0.0
  0
LINE
  5
142
330
57
100
AcDbEntity
  8
1
  6
Continuous
 62
     2
100
AcDbLine
 10
206.5677314488308
 20
187.3753319286554
 30
0.0
 11
206.7677314488311
 21
187.3753319286554
 31
0.0
  0
LINE
  5
143
330
57
100
AcDbEntity
  8
1
  6
Continuous
 62
     2
100
AcDbLine
 10
206.5677314488308
 20
187.5753319286555
 30
0.0
 11
206.5677314488308
 21
187.3753319286554
 31
0.0
  0
LINE
  5
144
330
57
100
AcDbEntity
  8
1
  6
Continuous
 62
     7
100
AcDbLine
 10
229.567729448831
 20
190.4116699286554
 30
0.0
 11
229.5677296437583
 21
187.5753319286555
 31
0.0
  0
LINE
  5
145
330
57
100
AcDbEntity
  8
1
  6
Continuous
 62
     7
100
AcDbLine
 10
218.0677305839444
 20
187.3753319286554
 30
0.0
 11
229.3677296437583
 21
187.3753319286554
 31
0.0
  0
LINE
  5
146
330
57
100
AcDbEntity
  8
1
  6
Continuous
 62
     7
100
AcDbLine
 10
206.7677314488311
 20
187.3753319286554
 30
0.0
 11
218.067730508645
 21
187.3753319286554
 31
0.0
  0
LINE
  5
147
330
57
100
AcDbEntity
  8
1
  6
Continuous
 62
     7
100
AcDbLine
 10
206.5677314488308
 20
187.5753319286555
 30
0.0
 11
206.5677314488308
 21
190.4116699286554
 31
0.0
  0
LINE
  5
148
330
57
100
AcDbEntity
  8
1
  6
PHANTOM
 62
     4
100
AcDbLine
 10
218.0677310609259
 20
215.0753419286552
 30
0.0
 11
218.0677304488312
 21
184.3753319286554
 31
0.0
  0
LINE
  5
149
330
57
100
AcDbEntity
  8
_______C____
  6
Continuous
 62
     7
100
AcDbLine
 10
238.2192614488309
 20
205.3753419286553
 30
0.0
 11
237.2192634488309
 21
205.3772279286553
 31
0.0
  0
LINE
  5
14A
330
57
100
AcDbEntity
  8
_______C____
  6
Continuous
 62
     7
100
AcDbLine
 10
218.065505448831
 20
211.3753419286553
 30
0.0
 11
208.5905054488311
 21
211.3753419286553
 31
0.0
  0
LINE
  5
14B
330
57
100
AcDbEntity
  8
_______C____
  6
Continuous
 62
     7
100
AcDbLine
 10
197.9161994488312
 20
205.3753419286553
 30
0.0
 11
198.9161974488312
 21
205.3772279286553
 31
0.0
  0
LINE
  5
14C
330
57
100
AcDbEntity
  8
_______C____
  6
Continuous
 62
     7
100
AcDbLine
 10
218.0699554488309
 20
211.3753419286553
 30
0.0
 11
227.1177304488311
 21
211.3753419286553
 31
0.0
  0
LINE
  5
14D
330
57
100
AcDbEntity
  8
_______C____
  6
Continuous
 62
     7
100
AcDbLine
 10
73.63583102124397
 20
311.0999745386256
 30
0.0
 11
73.63583102124397
 21
314.3518015386258
 31
0.0
  0
LINE
  5
14E
330
57
100
AcDbEntity
  8
_______C____
  6
Continuous
 62
     7
100
AcDbLine
 10
73.63583102124397
 20
351.4030365386257
 30
0.0
 11
73.63583102124397
 21
348.1512095386259
 31
0.0
  0
LINE
  5
14F
330
57
100
AcDbEntity
  8
_______C____
  6
Continuous
 62
     7
100
AcDbLine
 10
98.28736202124384
 20
335.7515055386256
 30
0.0
 11
95.03553602124396
 21
335.7515055386256
 31
0.0
  0
LINE
  5
150
330
57
100
AcDbEntity
  8
_______C____
  6
Continuous
 62
     7
100
AcDbLine
 10
82.63583102124397
 20
311.0999745386256
 30
0.0
 11
82.63583102124397
 21
314.3518015386258
 31
0.0
  0
LINE
  5
151
330
57
100
AcDbEntity
  8
_______C____
  6
Continuous
 62
     7
100
AcDbLine
 10
82.63583102124397
 20
351.4030365386257
 30
0.0
 11
82.63583102124397
 21
348.1512095386259
 31
0.0
  0
LINE
  5
152
330
57
100
AcDbEntity
  8
_______C____
  6
Continuous
 62
     7
100
AcDbLine
 10
57.984300021244
 20
335.7515055386256
 30
0.0
 11
61.23612702124393
 21
335.7515055386256
 31
0.0
  0
LINE
  5
153
330
57
100
AcDbEntity
  8
_______C____
  6
Continuous
 62
     7
100
AcDbLine
 10
57.984300021244
 20
326.7515055386256
 30
0.0
 11
61.23612702124393
 21
326.7515055386256
 31
0.0
  0
LINE
  5
154
330
57
100
AcDbEntity
  8
_______C____
  6
Continuous
 62
     7
100
AcDbLine
 10
98.28736202124384
 20
326.7515055386256
 30
0.0
 11
95.03553502124407
 21
326.7515055386256
 31
0.0
  0
LINE
  5
155
330
57
100
AcDbEntity
  8
1
  6
PHANTOM
 62
     4
100
AcDbLine
 10
78.13583102122851
 20
369.2515055386257
 30
0.0
 11
78.13583102122851
 21
293.2515055386255
 31
0.0
  0
LINE
  5
156
330
57
100
AcDbEntity
  8
1
  6
PHANTOM
 62
     4
100
AcDbLine
 10
40.13583102124409
 20
331.2515055386112
 30
0.0
 11
116.1358310212436
 21
331.2515055386112
 31
0.0
  0
LINE
  5
157
330
57
100
AcDbEntity
  8
1
  6
Continuous
 62
     7
100
AcDbLine
 10
85.0613697438501
 20
336.7650148137595
 30
0.0
 11
85.16652306559234
 21
336.8701681355018
 31
0.0
  0
LINE
  5
158
330
57
100
AcDbEntity
  8
1
  6
Continuous
 62
     7
100
AcDbLine
 10
83.64934029639045
 20
338.1770442612219
 30
0.0
 11
83.75449361813287
 21
338.2821975829642
 31
0.0
  0
ARC
  5
159
330
57
100
AcDbEntity
  8
_______C____
  6
Continuous
 62
     7
100
AcDbCircle
 10
87.6130556922522
 20
210.4753419286552
 30
0.0
 40
0.8999999999999706
100
AcDbArc
 50
13.34193900001541
 51
90.0
  0
ARC
  5
15A
330
57
100
AcDbEntity
  8
_______C____
  6
Continuous
 62
     7
100
AcDbCircle
 10
47.135829692252
 20
200.8756419286554
 30
0.0
 40
42.50000000000001
100
AcDbArc
 50
12.86811999999981
 51
13.34193900000009
  0
ARC
  5
15B
330
57
100
AcDbEntity
  8
_______C____
  6
Continuous
 62
     7
100
AcDbCircle
 10
58.98429769225226
 20
217.7772279286554
 30
0.0
 40
12.40000000000012
100
AcDbArc
 50
270.0
 51
301.3003760000012
  0
ARC
  5
15C
330
57
100
AcDbEntity
  8
_______C____
  6
Continuous
 62
     7
100
AcDbCircle
 10
97.28736369225209
 20
217.7772279286554
 30
0.0
 40
12.39999999999985
100
AcDbArc
 50
238.6996240000019
 51
270.0
  0
ARC
  5
15D
330
57
100
AcDbEntity
  8
_______C____
  6
Continuous
 62
     7
100
AcDbCircle
 10
50.635831692252
 20
200.8753419286553
 30
0.0
 40
7.5
100
AcDbArc
 50
180.0
 51
314.4044820000037
  0
ARC
  5
15E
330
57
100
AcDbEntity
  8
_______C____
  6
Continuous
 62
     7
100
AcDbCircle
 10
62.82878169225211
 20
211.4542579286554
 30
0.0
 40
5.000000000000188
100
AcDbArc
 50
301.3003780000032
 51
347.1318800000009
  0
ARC
  5
15F
330
57
100
AcDbEntity
  8
_______C____
  6
Continuous
 62
     7
100
AcDbCircle
 10
68.65860569225225
 20
210.4753419286552
 30
0.0
 40
0.900000000000091
100
AcDbArc
 50
90.0
 51
166.6580609999863
  0
ARC
  5
160
330
57
100
AcDbEntity
  8
_______C____
  6
Continuous
 62
     7
100
AcDbCircle
 10
57.98429969225225
 20
193.3753419286553
 30
0.0
 40
3.0
100
AcDbArc
 50
90.0
 51
134.4153089999972
  0
ARC
  5
161
330
57
100
AcDbEntity
  8
_______C____
  6
Continuous
 62
     7
100
AcDbCircle
 10
57.98429969225225
 20
208.3753419286553
 30
0.0
 40
2.999999999999887
100
AcDbArc
 50
225.5846910000002
 51
270.0
  0
ARC
  5
162
330
57
100
AcDbEntity
  8
_______C____
  6
Continuous
 62
     7
100
AcDbCircle
 10
109.135831692252
 20
200.8756419286554
 30
0.0
 40
42.49999999999993
100
AcDbArc
 50
166.6580609999999
 51
167.1318799999997
  0
ARC
  5
163
330
57
100
AcDbEntity
  8
_______C____
  6
Continuous
 62
     7
100
AcDbCircle
 10
98.28736169225209
 20
208.3753419286553
 30
0.0
 40
3.0
100
AcDbArc
 50
270.0
 51
314.4153089999978
  0
ARC
  5
164
330
57
100
AcDbEntity
  8
_______C____
  6
Continuous
 62
     7
100
AcDbCircle
 10
98.28736169225209
 20
193.3753419286553
 30
0.0
 40
2.999999999999924
100
AcDbArc
 50
45.58469100000487
 51
90.0
  0
ARC
  5
165
330
57
100
AcDbEntity
  8
_______C____
  6
Continuous
 62
     7
100
AcDbCircle
 10
93.44287969225218
 20
211.4542579286554
 30
0.0
 40
5.000000000000425
100
AcDbArc
 50
192.8681199999993
 51
238.6996219999974
  0
ARC
  5
166
330
57
100
AcDbEntity
  8
_______C____
  6
Continuous
 62
     7
100
AcDbCircle
 10
105.6358296922522
 20
200.8753419286553
 30
0.0
 40
7.5
100
AcDbArc
 50
0.0
 51
134.4044820000009
  0
ARC
  5
167
330
57
100
AcDbEntity
  8
_______C____
  6
Continuous
 62
     7
100
AcDbCircle
 10
98.28736169225209
 20
183.9753419286552
 30
0.0
 40
12.40000000000009
100
AcDbArc
 50
90.0
 51
122.7807259999979
  0
ARC
  5
168
330
57
100
AcDbEntity
  8
_______C____
  6
Continuous
 62
     7
100
AcDbCircle
 10
98.28736169225209
 20
183.9753419286552
 30
0.0
 40
12.40000000000009
100
AcDbArc
 50
90.0
 51
119.5676059999995
  0
ARC
  5
169
330
57
100
AcDbEntity
  8
_______C____
  6
Continuous
 62
     7
100
AcDbCircle
 10
94.63582969225217
 20
190.4116699286554
 30
0.0
 40
4.999999999999745
100
AcDbArc
 50
119.567605999997
 51
180.0
  0
ARC
  5
16A
330
57
100
AcDbEntity
  8
_______C____
  6
Continuous
 62
     7
100
AcDbCircle
 10
61.635831692252
 20
190.4116699286554
 30
0.0
 40
5.0
100
AcDbArc
 50
0.0
 51
60.43239400000133
  0
ARC
  5
16B
330
57
100
AcDbEntity
  8
_______C____
  6
Continuous
 62
     7
100
AcDbCircle
 10
57.98429969225225
 20
183.9753419286552
 30
0.0
 40
12.40000000000008
100
AcDbArc
 50
60.43239400000093
 51
90.0
  0
ARC
  5
16C
330
57
100
AcDbEntity
  8
_______C____
  6
Continuous
 62
     7
100
AcDbCircle
 10
50.635831692252
 20
200.8753419286553
 30
0.0
 40
7.500000000000498
100
AcDbArc
 50
45.59551799999786
 51
180.0
  0
ARC
  5
16D
330
57
100
AcDbEntity
  8
_______C____
  6
Continuous
 62
     7
100
AcDbCircle
 10
105.6358296922522
 20
200.8753419286553
 30
0.0
 40
7.500000000000126
100
AcDbArc
 50
225.5955179999977
 51
0.0
  0
ARC
  5
16E
330
57
100
AcDbEntity
  8
_______C____
  6
Continuous
 62
     7
100
AcDbCircle
 10
245.567729448831
 20
200.8753419286553
 30
0.0
 40
7.500000000000057
100
AcDbArc
 50
225.5955179999982
 51
0.0
  0
ARC
  5
16F
330
57
100
AcDbEntity
  8
_______C____
  6
Continuous
 62
     7
100
AcDbCircle
 10
190.5677314488308
 20
200.8753419286553
 30
0.0
 40
7.500000000000538
100
AcDbArc
 50
45.59551799999755
 51
180.0
  0
ARC
  5
170
330
57
100
AcDbEntity
  8
_______C____
  6
Continuous
 62
     7
100
AcDbCircle
 10
197.9161994488312
 20
183.9753419286552
 30
0.0
 40
12.40000000000002
100
AcDbArc
 50
60.43239400000139
 51
90.0
  0
ARC
  5
171
330
57
100
AcDbEntity
  8
_______C____
  6
Continuous
 62
     7
100
AcDbCircle
 10
201.5677314488308
 20
190.4116699286554
 30
0.0
 40
5.0
100
AcDbArc
 50
0.0
 51
60.43239400000133
  0
ARC
  5
172
330
57
100
AcDbEntity
  8
_______C____
  6
Continuous
 62
     7
100
AcDbCircle
 10
234.567729448831
 20
190.4116699286554
 30
0.0
 40
4.999999999999675
100
AcDbArc
 50
119.5676059999956
 51
180.0
  0
ARC
  5
173
330
57
100
AcDbEntity
  8
_______C____
  6
Continuous
 62
     7
100
AcDbCircle
 10
238.2192614488309
 20
183.9753419286552
 30
0.0
 40
12.40000000000009
100
AcDbArc
 50
90.0
 51
119.5676059999994
  0
ARC
  5
174
330
57
100
AcDbEntity
  8
_______C____
  6
Continuous
 62
     7
100
AcDbCircle
 10
238.2192614488309
 20
183.9753419286552
 30
0.0
 40
12.40000000000009
100
AcDbArc
 50
90.0
 51
122.7807259999979
  0
ARC
  5
175
330
57
100
AcDbEntity
  8
_______C____
  6
Continuous
 62
     7
100
AcDbCircle
 10
245.567729448831
 20
200.8753419286553
 30
0.0
 40
7.500000000000114
100
AcDbArc
 50
0.0
 51
134.4044820000003
  0
ARC
  5
176
330
57
100
AcDbEntity
  8
_______C____
  6
Continuous
 62
     7
100
AcDbCircle
 10
233.374779448831
 20
211.4542579286554
 30
0.0
 40
5.000000000000481
100
AcDbArc
 50
192.8681199999991
 51
238.6996219999988
  0
ARC
  5
177
330
57
100
AcDbEntity
  8
_______C____
  6
Continuous
 62
     7
100
AcDbCircle
 10
227.5449554488311
 20
210.4753419286552
 30
0.0
 40
0.9000000000000259
100
AcDbArc
 50
13.34193900001458
 51
90.0
  0
ARC
  5
178
330
57
100
AcDbEntity
  8
_______C____
  6
Continuous
 62
     7
100
AcDbCircle
 10
238.2192614488309
 20
193.3753419286553
 30
0.0
 40
2.999999999999994
100
AcDbArc
 50
45.58469100000352
 51
90.0
  0
ARC
  5
179
330
57
100
AcDbEntity
  8
_______C____
  6
Continuous
 62
     7
100
AcDbCircle
 10
238.2192614488309
 20
208.3753419286553
 30
0.0
 40
3.0
100
AcDbArc
 50
270.0
 51
314.4153089999991
  0
ARC
  5
17A
330
57
100
AcDbEntity
  8
_______C____
  6
Continuous
 62
     7
100
AcDbCircle
 10
249.0677314488308
 20
200.8756419286554
 30
0.0
 40
42.49999999999996
100
AcDbArc
 50
166.6580609999999
 51
167.1318799999997
  0
ARC
  5
17B
330
57
100
AcDbEntity
  8
_______C____
  6
Continuous
 62
     7
100
AcDbCircle
 10
197.9161994488312
 20
208.3753419286553
 30
0.0
 40
2.999999999999991
100
AcDbArc
 50
225.5846909999981
 51
270.0
  0
ARC
  5
17C
330
57
100
AcDbEntity
  8
_______C____
  6
Continuous
 62
     7
100
AcDbCircle
 10
197.9161994488312
 20
193.3753419286553
 30
0.0
 40
3.0
100
AcDbArc
 50
90.0
 51
134.4153089999992
  0
ARC
  5
17D
330
57
100
AcDbEntity
  8
_______C____
  6
Continuous
 62
     7
100
AcDbCircle
 10
208.5905054488311
 20
210.4753419286552
 30
0.0
 40
0.900000000000091
100
AcDbArc
 50
90.0
 51
166.6580609999867
  0
ARC
  5
17E
330
57
100
AcDbEntity
  8
_______C____
  6
Continuous
 62
     7
100
AcDbCircle
 10
202.760681448831
 20
211.4542579286554
 30
0.0
 40
5.000000000000144
100
AcDbArc
 50
301.3003780000024
 51
347.1318800000006
  0
ARC
  5
17F
330
57
100
AcDbEntity
  8
_______C____
  6
Continuous
 62
     7
100
AcDbCircle
 10
190.5677314488308
 20
200.8753419286553
 30
0.0
 40
7.5
100
AcDbArc
 50
180.0
 51
314.404482000004
  0
ARC
  5
180
330
57
100
AcDbEntity
  8
_______C____
  6
Continuous
 62
     7
100
AcDbCircle
 10
237.2192634488309
 20
217.7772279286554
 30
0.0
 40
12.39999999999984
100
AcDbArc
 50
238.699624000002
 51
270.0
  0
ARC
  5
181
330
57
100
AcDbEntity
  8
_______C____
  6
Continuous
 62
     7
100
AcDbCircle
 10
187.0677294488309
 20
200.8756419286554
 30
0.0
 40
42.49999999999992
100
AcDbArc
 50
12.86811999999984
 51
13.34193900000009
  0
ARC
  5
182
330
57
100
AcDbEntity
  8
_______C____
  6
Continuous
 62
     7
100
AcDbCircle
 10
198.9161974488312
 20
217.7772279286554
 30
0.0
 40
12.40000000000012
100
AcDbArc
 50
270.0
 51
301.3003760000007
  0
ARC
  5
183
330
57
100
AcDbEntity
  8
_______C____
  6
Continuous
 62
     7
100
AcDbCircle
 10
98.28736202121377
 20
323.7515055386265
 30
0.0
 40
3.000000000000327
100
AcDbArc
 50
45.58469100000633
 51
90.0
  0
ARC
  5
184
330
57
100
AcDbEntity
  8
_______C____
  6
Continuous
 62
     7
100
AcDbCircle
 10
98.28736202121377
 20
338.7515055386268
 30
0.0
 40
3.0
100
AcDbArc
 50
270.0
 51
314.4153090000005
  0
ARC
  5
185
330
57
100
AcDbEntity
  8
_______C____
  6
Continuous
 62
     7
100
AcDbCircle
 10
105.6358310212137
 20
331.2515055386268
 30
0.0
 40
7.500000000000148
100
AcDbArc
 50
225.5846909999979
 51
134.4153080000016
  0
ARC
  5
186
330
57
100
AcDbEntity
  8
1
  6
Continuous
 62
     7
100
AcDbCircle
 10
78.13583102122851
 20
331.2515055386112
 30
0.0
 40
9.000000000021155
100
AcDbArc
 50
37.03584284484335
 51
38.63052292651361
  0
ARC
  5
187
330
57
100
AcDbEntity
  8
1
  6
Continuous
 62
     7
100
AcDbCircle
 10
78.13583102122851
 20
331.2515055386112
 30
0.0
 40
9.000000000021167
100
AcDbArc
 50
51.36947707337507
 51
52.96415715513335
  0
ARC
  5
188
330
57
100
AcDbEntity
  8
_______C____
  6
Continuous
 62
     7
100
AcDbCircle
 10
78.13583102124397
 20
331.2515055386256
 30
0.0
 40
9.0
100
AcDbArc
 50
0.0
 51
37.03584284482927
  0
ARC
  5
189
330
57
100
AcDbEntity
  8
_______C____
  6
Continuous
 62
     7
100
AcDbCircle
 10
78.13583102124397
 20
331.2515055386256
 30
0.0
 40
9.000000000000373
100
AcDbArc
 50
52.96415715515656
 51
0.0
  0
ARC
  5
18A
330
57
100
AcDbEntity
  8
_______C____
  6
Continuous
 62
     7
100
AcDbCircle
 10
85.63583102124397
 20
351.4030365386257
 30
0.0
 40
2.999999999999872
100
AcDbArc
 50
135.5846909999997
 51
180.0
  0
ARC
  5
18B
330
57
100
AcDbEntity
  8
_______C____
  6
Continuous
 62
     7
100
AcDbCircle
 10
78.13583102124397
 20
358.7515055386256
 30
0.0
 40
7.499999999999606
100
AcDbArc
 50
315.5846890000028
 51
224.4153079999994
  0
ARC
  5
18C
330
57
100
AcDbEntity
  8
_______C____
  6
Continuous
 62
     7
100
AcDbCircle
 10
50.63583102124397
 20
331.2515055386256
 30
0.0
 40
7.500000000000338
100
AcDbArc
 50
45.58469400000359
 51
314.4153069999996
  0
ARC
  5
18D
330
57
100
AcDbEntity
  8
_______C____
  6
Continuous
 62
     7
100
AcDbCircle
 10
78.13583102124397
 20
303.7515055386256
 30
0.0
 40
7.500000000000356
100
AcDbArc
 50
135.5846909999957
 51
44.41530800000345
  0
ARC
  5
18E
330
57
100
AcDbEntity
  8
_______C____
  6
Continuous
 62
     7
100
AcDbCircle
 10
95.03553502124407
 20
348.1515055386258
 30
0.0
 40
12.40000000000012
100
AcDbArc
 50
225.0005019999991
 51
270.0
  0
ARC
  5
18F
330
57
100
AcDbEntity
  8
_______C____
  6
Continuous
 62
     7
100
AcDbCircle
 10
61.23583102124411
 20
314.3518015386258
 30
0.0
 40
12.39999999999986
100
AcDbArc
 50
0.0
 51
44.99949799999999
  0
ARC
  5
190
330
57
100
AcDbEntity
  8
_______C____
  6
Continuous
 62
     7
100
AcDbCircle
 10
95.03583102124395
 20
314.3518015386258
 30
0.0
 40
12.39999999999984
100
AcDbArc
 50
135.0005020000008
 51
180.0
  0
ARC
  5
191
330
57
100
AcDbEntity
  8
_______C____
  6
Continuous
 62
     7
100
AcDbCircle
 10
61.23583102124411
 20
348.1512095386259
 30
0.0
 40
12.39999999999967
100
AcDbArc
 50
315.000502
 51
0.0
  0
ARC
  5
192
330
57
100
AcDbEntity
  8
_______C____
  6
Continuous
 62
     7
100
AcDbCircle
 10
95.03583102124395
 20
348.1512095386259
 30
0.0
 40
12.39999999999998
100
AcDbArc
 50
180.0
 51
224.9994979999992
  0
ARC
  5
193
330
57
100
AcDbEntity
  8
_______C____
  6
Continuous
 62
     7
100
AcDbCircle
 10
85.63583102124397
 20
311.0999745386256
 30
0.0
 40
3.0
100
AcDbArc
 50
180.0
 51
224.4153089999964
  0
ARC
  5
194
330
57
100
AcDbEntity
  8
_______C____
  6
Continuous
 62
     7
100
AcDbCircle
 10
70.63583102124397
 20
311.0999745386256
 30
0.0
 40
2.999999999999754
100
AcDbArc
 50
315.5846910000051
 51
0.0
  0
ARC
  5
195
330
57
100
AcDbEntity
  8
_______C____
  6
Continuous
 62
     7
100
AcDbCircle
 10
57.984300021244
 20
323.7515055386256
 30
0.0
 40
3.0
100
AcDbArc
 50
90.0
 51
134.4153089999921
  0
ARC
  5
196
330
57
100
AcDbEntity
  8
_______C____
  6
Continuous
 62
     7
100
AcDbCircle
 10
57.984300021244
 20
338.7515055386256
 30
0.0
 40
3.000000000000239
100
AcDbArc
 50
225.5846910000018
 51
270.0
  0
ARC
  5
197
330
57
100
AcDbEntity
  8
_______C____
  6
Continuous
 62
     7
100
AcDbCircle
 10
70.63583102124397
 20
351.4030365386257
 30
0.0
 40
3.0
100
AcDbArc
 50
0.0
 51
44.41530899999879
  0
ARC
  5
198
330
57
100
AcDbEntity
  8
_______C____
  6
Continuous
 62
     7
100
AcDbCircle
 10
95.03553502124407
 20
314.351505538626
 30
0.0
 40
12.39999999999964
100
AcDbArc
 50
90.0
 51
134.9994980000016
  0
ARC
  5
199
330
57
100
AcDbEntity
  8
_______C____
  6
Continuous
 62
     7
100
AcDbCircle
 10
61.23612702124393
 20
348.1515055386258
 30
0.0
 40
12.4000000000002
100
AcDbArc
 50
270.0
 51
314.9994980000004
  0
ARC
  5
19A
330
57
100
AcDbEntity
  8
_______C____
  6
Continuous
 62
     7
100
AcDbCircle
 10
61.23612702124393
 20
314.351505538626
 30
0.0
 40
12.39999999999984
100
AcDbArc
 50
45.00050199999891
 51
90.0
  0
ARC
  5
19B
330
57
100
AcDbEntity
  8
1
  6
Continuous
 62
     7
100
AcDbCircle
 10
84.49979205191988
 20
337.6154665692902
 30
0.0
 40
1.0000000000001
100
AcDbArc
 50
311.8152614639237
 51
138.1847385359565
  0
CIRCLE
  5
19C
330
57
100
AcDbEntity
  8
1
  6
Continuous
 62
     7
100
AcDbCircle
 10
78.13583069225234
 20
200.8753419286553
 30
0.0
 40
7.499999999999996
  0
CIRCLE
  5
19D
330
57
100
AcDbEntity
  8
1
  6
Continuous
 62
     7
100
AcDbCircle
 10
218.0677304488312
 20
200.8753419286553
 30
0.0
 40
7.499999999999996
  0
ARC
  5
19E
330
57
100
AcDbEntity
  8
1
  6
Continuous
 62
     7
100
AcDbCircle
 10
66.83583169225216
 20
187.5753319286555
 30
0.0
 40
0.2000000000001592
100
AcDbArc
 50
180.0
 51
270.0
  0
ARC
  5
19F
330
57
100
AcDbEntity
  8
1
  6
Continuous
 62
     7
100
AcDbCircle
 10
89.43582988717941
 20
187.5753319286555
 30
0.0
 40
0.2000000000000739
100
AcDbArc
 50
270.0
 51
0.0
  0
ARC
  5
1A0
330
57
100
AcDbEntity
  8
1
  6
Continuous
 62
     7
100
AcDbCircle
 10
229.3677296437583
 20
187.5753319286555
 30
0.0
 40
0.2000000000000739
100
AcDbArc
 50
270.0
 51
0.0
  0
ARC
  5
1A1
330
57
100
AcDbEntity
  8
1
  6
Continuous
 62
     7
100
AcDbCircle
 10
206.7677314488311
 20
187.5753319286555
 30
0.0
 40
0.2000000000003013
100
AcDbArc
 50
180.0
 51
270.0
  0
ENDBLK
  5
59
330
57
100
AcDbEntity
  8
0
100
AcDbBlockEnd
  0
BLOCK
  5
5B
330
5A
100
AcDbEntity
  8
0
100
AcDbBlockBegin
  2
84-338
 70
     0
 10
1.88406148058556
 20
429.6318221098239
 30
0.0
  3
84-338
  1

  0
LINE
  5
1A2
330
5A
100
AcDbEntity
  8
1
  6
PHANTOM
 62
     4
100
AcDbLine
 10
66.2836069433094
 20
331.2515055386112
 30
0.0
 11
89.98805509914757
 21
331.2515055386112
 31
0.0
  0
LINE
  5
1A3
330
5A
100
AcDbEntity
  8
1
  6
PHANTOM
 62
     4
100
AcDbLine
 10
78.13583102122851
 20
319.3992814606921
 30
0.0
 11
78.13583102122851
 21
343.1037296165304
 31
0.0
  0
ARC
  5
1A4
330
5A
100
AcDbEntity
  8
_______C____
  6
Continuous
 62
     7
100
AcDbCircle
 10
85.09525035850635
 20
211.1627790368501
 30
0.0
 40
1.000000000000411
100
AcDbArc
 50
57.27729399998254
 51
83.22581999998059
  0
ARC
  5
1A5
330
5A
100
AcDbEntity
  8
1
  6
Continuous
 62
     7
100
AcDbCircle
 10
78.13583235850643
 20
152.5791738285866
 30
0.0
 40
59.99552778043417
100
AcDbArc
 50
83.22532657334739
 51
90.00000127710155
  0
ARC
  5
1A6
330
5A
100
AcDbEntity
  8
1
  6
Continuous
 62
     7
100
AcDbCircle
 10
78.13582968395036
 20
152.5791738285866
 30
0.0
 40
59.99552778043422
100
AcDbArc
 50
89.99999872289824
 51
96.77467342665234
  0
ARC
  5
1A7
330
5A
100
AcDbEntity
  8
_______C____
  6
Continuous
 62
     7
100
AcDbCircle
 10
71.17641168395045
 20
211.1627790368501
 30
0.0
 40
1.000000000000185
100
AcDbArc
 50
96.77418000000324
 51
122.722706000012
  0
ARC
  5
1A8
330
5A
100
AcDbEntity
  8
1
  6
DASH_CENTER
 62
     2
100
AcDbCircle
 10
78.1358310212284
 20
152.4746929326334
 30
0.0
 40
59.99997753533466
100
AcDbArc
 50
82.81924815559164
 51
97.18075184440826
  0
ARC
  5
1A9
330
5A
100
AcDbEntity
  8
1
  6
Continuous
 62
     7
100
AcDbCircle
 10
78.1358310208912
 20
152.4746929302737
 30
0.0
 40
59.99997753771781
100
AcDbArc
 50
82.1847202984265
 51
82.81924815555382
  0
ARC
  5
1AA
330
5A
100
AcDbEntity
  8
1
  6
Continuous
 62
     7
100
AcDbCircle
 10
78.13583102129047
 20
152.4746929322011
 30
0.0
 40
59.99997753577131
100
AcDbArc
 50
97.18075184441548
 51
97.81527943696503
  0
ARC
  5
1AB
330
5A
100
AcDbEntity
  8
1
  6
Continuous
 62
     7
100
AcDbCircle
 10
218.0677310470315
 20
152.4746929322011
 30
0.0
 40
59.9999775357713
100
AcDbArc
 50
97.18075184441538
 51
97.815279436965
  0
ARC
  5
1AC
330
5A
100
AcDbEntity
  8
1
  6
Continuous
 62
     7
100
AcDbCircle
 10
218.0677310466322
 20
152.4746929302737
 30
0.0
 40
59.9999775377178
100
AcDbArc
 50
82.18472029842653
 51
82.81924815555385
  0
ARC
  5
1AD
330
5A
100
AcDbEntity
  8
1
  6
DASH_CENTER
 62
     2
100
AcDbCircle
 10
218.0677310469694
 20
152.4746929326334
 30
0.0
 40
59.99997753533466
100
AcDbArc
 50
82.81924815559168
 51
97.18075184440816
  0
ARC
  5
1AE
330
5A
100
AcDbEntity
  8
_______C____
  6
Continuous
 62
     7
100
AcDbCircle
 10
211.1083117096914
 20
211.1627790368501
 30
0.0
 40
1.000000000000188
100
AcDbArc
 50
96.77418000000486
 51
122.7227060000038
  0
ARC
  5
1AF
330
5A
100
AcDbEntity
  8
1
  6
Continuous
 62
     7
100
AcDbCircle
 10
218.0677297096914
 20
152.5791738285866
 30
0.0
 40
59.99552778043422
100
AcDbArc
 50
89.99999872289831
 51
96.77467342665246
  0
ARC
  5
1B0
330
5A
100
AcDbEntity
  8
1
  6
Continuous
 62
     7
100
AcDbCircle
 10
218.0677323842474
 20
152.5791738285866
 30
0.0
 40
59.99552778043417
100
AcDbArc
 50
83.22532657334736
 51
90.00000127710152
  0
ARC
  5
1B1
330
5A
100
AcDbEntity
  8
_______C____
  6
Continuous
 62
     7
100
AcDbCircle
 10
225.0271503842473
 20
211.1627790368501
 30
0.0
 40
1.000000000000411
100
AcDbArc
 50
57.27729399998254
 51
83.22581999997897
  0
CIRCLE
  5
1B2
330
5A
100
AcDbEntity
  8
1
  6
Continuous
 62
     7
100
AcDbCircle
 10
78.13583102122851
 20
331.2515055386112
 30
0.0
 40
8.852224077919061
  0
CIRCLE
  5
1B3
330
5A
100
AcDbEntity
  8
1
  6
Continuous
 62
     7
100
AcDbCircle
 10
78.13583102122851
 20
331.2515055386112
 30
0.0
 40
7.500000000006764
  0
ARC
  5
1B4
330
5A
100
AcDbEntity
  8
1
  6
Continuous
 62
     7
100
AcDbCircle
 10
86.18583102122835
 20
211.1247981344494
 30
0.0
 40
0.7999999999999576
100
AcDbArc
 50
18.25096144528476
 51
82.18472029841416
  0
ARC
  5
1B5
330
5A
100
AcDbEntity
  8
1
  6
Continuous
 62
     7
100
AcDbCircle
 10
70.08583129208097
 20
211.1247981716254
 30
0.0
 40
0.8000000000000805
100
AcDbArc
 50
97.81527943696288
 51
161.7490413582886
  0
ARC
  5
1B6
330
5A
100
AcDbEntity
  8
1
  6
Continuous
 62
     7
100
AcDbCircle
 10
210.017731317822
 20
211.1247981716254
 30
0.0
 40
0.8000000000000805
100
AcDbArc
 50
97.81527943696288
 51
161.7490413582912
  0
ARC
  5
1B7
330
5A
100
AcDbEntity
  8
1
  6
Continuous
 62
     7
100
AcDbCircle
 10
226.1177310469693
 20
211.1247981344494
 30
0.0
 40
0.7999999999999576
100
AcDbArc
 50
18.25096144528476
 51
82.18472029841416
  0
ENDBLK
  5
5C
330
5A
100
AcDbEntity
  8
0
100
AcDbBlockEnd
  0
BLOCK
  5
5F
330
5D
100
AcDbEntity
  8
0
100
AcDbBlockBegin
  2
84-338X
 70
     0
 10
-22.71516801939376
 20
188.0486180007491
 30
0.0
  3
84-338X
  1

  0
INSERT
  5
5E
330
5D
100
AcDbEntity
  8
1
100
AcDbBlockReference
  2
84-338
 10
-25.38784330758195
 20
335.7337401086449
 30
0.0
 41
0.66666666666667
 42
0.66666666666666
  0
LINE
  5
1B8
330
5D
100
AcDbEntity
  8
1
  6
PHANTOM
 62
     4
100
AcDbLine
 10
20.4466697195088
 20
270.1468623945032
 30
0.0
 11
30.44666971951789
 21
270.1468623945032
 31
0.0
  0
LINE
  5
1B9
330
5D
100
AcDbEntity
  8
1
  6
PHANTOM
 62
     4
100
AcDbLine
 10
25.44666971951335
 20
275.1468623945078
 30
0.0
 11
25.44666971951335
 21
265.1468623944987
 31
0.0
  0
LINE
  5
1BA
330
5D
100
AcDbEntity
  8
1
  6
PHANTOM
 62
     4
100
AcDbLine
 10
111.3454033640994
 20
73.04861800074897
 30
0.0
 11
111.4246986056886
 21
73.04861800074897
 31
0.0
  0
ENDBLK
  5
60
330
5D
100
AcDbEntity
  8
0
100
AcDbBlockEnd
  0
BLOCK
  5
62
330
61
100
AcDbEntity
  8
0
100
AcDbBlockBegin
  2
Y12-0B-13
 70
     0
 10
263.0677307778072
 20
165.8753419286554
 30
0.0
  3
Y12-0B-13
  1

  0
LINE
  5
1BB
330
61
100
AcDbEntity
  8
1
  6
Continuous
 62
     7
100
AcDbLine
 10
90.13583102122865
 20
171.3050332168405
 30
0.0
 11
90.13583102122865
 21
162.5779006655486
 31
0.0
  0
LINE
  5
1BC
330
61
100
AcDbEntity
  8
1
  6
Continuous
 62
     2
100
AcDbLine
 10
89.13583102122865
 20
169.8774710520818
 30
0.0
 11
90.13583102122865
 21
168.1454202445129
 31
0.0
  0
LINE
  5
1BD
330
61
100
AcDbEntity
  8
1
  6
Continuous
 62
     2
100
AcDbLine
 10
66.13583102122865
 20
168.1454202445129
 30
0.0
 11
67.13583102122865
 21
169.8774710520818
 31
0.0
  0
LINE
  5
1BE
330
61
100
AcDbEntity
  8
1
  6
Continuous
 62
     2
100
AcDbLine
 10
89.13583102122865
 20
169.8774710520818
 30
0.0
 11
89.13583102122865
 21
171.3050332168405
 31
0.0
  0
LINE
  5
1BF
330
61
100
AcDbEntity
  8
1
  6
Continuous
 62
     2
100
AcDbLine
 10
67.13583102122865
 20
169.8774710520818
 30
0.0
 11
67.13583102122865
 21
171.3050332168405
 31
0.0
  0
LINE
  5
1C0
330
61
100
AcDbEntity
  8
1
  6
Continuous
 62
     7
100
AcDbLine
 10
66.13583102122865
 20
169.8774710520818
 30
0.0
 11
90.13583102122865
 21
169.8774710520818
 31
0.0
  0
LINE
  5
1C1
330
61
100
AcDbEntity
  8
1
  6
Continuous
 62
     7
100
AcDbLine
 10
66.13583102122865
 20
162.5779006655486
 30
0.0
 11
66.13583102122865
 21
171.3050332168405
 31
0.0
  0
LINE
  5
1C2
330
61
100
AcDbEntity
  8
1
  6
Continuous
 62
     2
100
AcDbLine
 10
90.32283102122855
 20
308.1598870718377
 30
0.0
 11
90.32283102122855
 21
306.2515055386111
 31
0.0
  0
LINE
  5
1C3
330
61
100
AcDbEntity
  8
1
  6
Continuous
 62
     7
100
AcDbLine
 10
91.13583102122865
 20
306.7515055386112
 30
0.0
 11
85.0096945636545
 21
306.7515055386112
 31
0.0
  0
LINE
  5
1C4
330
61
100
AcDbEntity
  8
1
  6
Continuous
 62
     7
100
AcDbLine
 10
91.13583102122865
 20
306.7515055386112
 30
0.0
 11
91.13583102122865
 21
306.2515055386111
 31
0.0
  0
LINE
  5
1C5
330
61
100
AcDbEntity
  8
1
  6
PHANTOM
 62
     4
100
AcDbLine
 10
94.8798430501495
 20
331.2515055386112
 30
0.0
 11
61.39181899230752
 21
331.2515055386112
 31
0.0
  0
LINE
  5
1C6
330
61
100
AcDbEntity
  8
1
  6
Continuous
 62
     2
100
AcDbLine
 10
87.63583102122865
 20
390.2515055386112
 30
0.0
 11
87.63583102122865
 21
389.2515055386112
 31
0.0
  0
LINE
  5
1C7
330
61
100
AcDbEntity
  8
1
  6
Continuous
 62
     2
100
AcDbLine
 10
87.63583102122865
 20
389.2515055386112
 30
0.0
 11
87.63583102122865
 21
377.9835563461801
 31
0.0
  0
LINE
  5
1C8
330
61
100
AcDbEntity
  8
1
  6
Continuous
 62
     2
100
AcDbLine
 10
87.63583102122865
 20
377.9835563461801
 30
0.0
 11
88.63583102122865
 21
376.2515055386112
 31
0.0
  0
LINE
  5
1C9
330
61
100
AcDbEntity
  8
1
  6
Continuous
 62
     7
100
AcDbLine
 10
88.63583102122865
 20
376.2515055386112
 30
0.0
 11
101.1358310212284
 21
376.2515055386112
 31
0.0
  0
LINE
  5
1CA
330
61
100
AcDbEntity
  8
1
  6
Continuous
 62
     7
100
AcDbLine
 10
101.1358310212284
 20
374.2499642054779
 30
0.0
 11
101.1358310212284
 21
376.2515055386112
 31
0.0
  0
LINE
  5
1CB
330
61
100
AcDbEntity
  8
1
  6
Continuous
 62
     7
100
AcDbLine
 10
55.13583102122865
 20
376.2515055386112
 30
0.0
 11
55.13583102122865
 21
374.2499642054779
 31
0.0
  0
LINE
  5
1CC
330
61
100
AcDbEntity
  8
1
  6
Continuous
 62
     7
100
AcDbLine
 10
55.13583102122865
 20
376.2515055386112
 30
0.0
 11
67.63583102122865
 21
376.2515055386112
 31
0.0
  0
LINE
  5
1CD
330
61
100
AcDbEntity
  8
1
  6
Continuous
 62
     2
100
AcDbLine
 10
67.63583102122865
 20
376.2515055386112
 30
0.0
 11
68.63583102122865
 21
377.9835563461801
 31
0.0
  0
LINE
  5
1CE
330
61
100
AcDbEntity
  8
1
  6
Continuous
 62
     2
100
AcDbLine
 10
68.63583102122865
 20
377.9835563461801
 30
0.0
 11
68.63583102122865
 21
389.2515055386112
 31
0.0
  0
LINE
  5
1CF
330
61
100
AcDbEntity
  8
1
  6
Continuous
 62
     2
100
AcDbLine
 10
68.63583102122865
 20
389.2515055386112
 30
0.0
 11
68.63583102122865
 21
390.2515055386112
 31
0.0
  0
LINE
  5
1D0
330
61
100
AcDbEntity
  8
1
  6
Continuous
 62
     7
100
AcDbLine
 10
67.63583102122865
 20
376.2515055386112
 30
0.0
 11
67.63583102122865
 21
377.9835563461801
 31
0.0
  0
LINE
  5
1D1
330
61
100
AcDbEntity
  8
1
  6
Continuous
 62
     7
100
AcDbLine
 10
68.63583102122865
 20
390.2515055386112
 30
0.0
 11
67.63583102122865
 21
389.2515055386112
 31
0.0
  0
LINE
  5
1D2
330
61
100
AcDbEntity
  8
1
  6
Continuous
 62
     7
100
AcDbLine
 10
68.63583102122865
 20
377.9835563461801
 30
0.0
 11
67.63583102122865
 21
377.9835563461801
 31
0.0
  0
LINE
  5
1D3
330
61
100
AcDbEntity
  8
1
  6
Continuous
 62
     7
100
AcDbLine
 10
67.63583102122865
 20
377.9835563461801
 30
0.0
 11
67.63583102122865
 21
389.2515055386112
 31
0.0
  0
LINE
  5
1D4
330
61
100
AcDbEntity
  8
1
  6
Continuous
 62
     7
100
AcDbLine
 10
67.63583102122865
 20
389.2515055386112
 30
0.0
 11
68.63583102122865
 21
389.2515055386112
 31
0.0
  0
LINE
  5
1D5
330
61
100
AcDbEntity
  8
1
  6
Continuous
 62
     7
100
AcDbLine
 10
87.63583102122865
 20
389.2515055386112
 30
0.0
 11
88.63583102122865
 21
389.2515055386112
 31
0.0
  0
LINE
  5
1D6
330
61
100
AcDbEntity
  8
1
  6
Continuous
 62
     7
100
AcDbLine
 10
88.63583102122865
 20
389.2515055386112
 30
0.0
 11
88.63583102122865
 21
377.9835563461801
 31
0.0
  0
LINE
  5
1D7
330
61
100
AcDbEntity
  8
1
  6
Continuous
 62
     7
100
AcDbLine
 10
88.63583102122865
 20
377.9835563461801
 30
0.0
 11
87.63583102122865
 21
377.9835563461801
 31
0.0
  0
LINE
  5
1D8
330
61
100
AcDbEntity
  8
1
  6
Continuous
 62
     7
100
AcDbLine
 10
88.63583102122865
 20
389.2515055386112
 30
0.0
 11
87.63583102122865
 21
390.2515055386112
 31
0.0
  0
LINE
  5
1D9
330
61
100
AcDbEntity
  8
1
  6
Continuous
 62
     7
100
AcDbLine
 10
87.63583102122865
 20
390.2515055386112
 30
0.0
 11
68.63583102122865
 21
390.2515055386112
 31
0.0
  0
LINE
  5
1DA
330
61
100
AcDbEntity
  8
1
  6
Continuous
 62
     7
100
AcDbLine
 10
88.63583102122865
 20
377.9835563461801
 30
0.0
 11
88.63583102122865
 21
376.2515055386112
 31
0.0
  0
LINE
  5
1DB
330
61
100
AcDbEntity
  8
1
  6
Continuous
 62
     7
100
AcDbLine
 10
67.63583102122865
 20
376.2515055386112
 30
0.0
 11
88.63583102122865
 21
376.2515055386112
 31
0.0
  0
LINE
  5
1DC
330
61
100
AcDbEntity
  8
1
  6
Continuous
 62
     7
100
AcDbLine
 10
68.63583102122865
 20
377.9835563461801
 30
0.0
 11
87.63583102122865
 21
377.9835563461801
 31
0.0
  0
LINE
  5
1DD
330
61
100
AcDbEntity
  8
1
  6
Continuous
 62
     7
100
AcDbLine
 10
68.63583102122865
 20
389.2515055386112
 30
0.0
 11
87.63583102122865
 21
389.2515055386112
 31
0.0
  0
LINE
  5
1DE
330
61
100
AcDbEntity
  8
1
  6
Continuous
 62
     7
100
AcDbLine
 10
69.13583102122865
 20
369.7515055386112
 30
0.0
 11
69.13583102122865
 21
354.5753131179924
 31
0.0
  0
LINE
  5
1DF
330
61
100
AcDbEntity
  8
1
  6
Continuous
 62
     7
100
AcDbLine
 10
100.6750605690924
 20
373.7515055386112
 30
0.0
 11
55.59660147336453
 21
373.7515055386112
 31
0.0
  0
LINE
  5
1E0
330
61
100
AcDbEntity
  8
1
  6
Continuous
 62
     7
100
AcDbLine
 10
87.13583102122865
 20
369.7515055386112
 30
0.0
 11
87.13583102122865
 21
354.575313117992
 31
0.0
  0
LINE
  5
1E1
330
61
100
AcDbEntity
  8
1
  6
PHANTOM
 62
     4
100
AcDbLine
 10
78.13583102122865
 20
316.5860745840234
 30
0.0
 11
78.13583102122865
 21
393.2515055386113
 31
0.0
  0
LINE
  5
1E2
330
61
100
AcDbEntity
  8
1
  6
Continuous
 62
     7
100
AcDbLine
 10
71.26196747877358
 20
306.7515055386112
 30
0.0
 11
65.13583102122865
 21
306.7515055386112
 31
0.0
  0
LINE
  5
1E3
330
61
100
AcDbEntity
  8
1
  6
PHANTOM
 62
     4
100
AcDbLine
 10
179.494137649
 20
145.8753419286554
 30
0.0
 11
280.0677307778073
 21
145.8753419286554
 31
0.0
  0
LINE
  5
1E4
330
61
100
AcDbEntity
  8
1
  6
Continuous
 62
     2
100
AcDbLine
 10
277.0677307778072
 20
136.3753419286554
 30
0.0
 11
264.7997815853761
 21
136.3753419286554
 31
0.0
  0
LINE
  5
1E5
330
61
100
AcDbEntity
  8
1
  6
Continuous
 62
     7
100
AcDbLine
 10
276.0677307778072
 20
135.3753419286554
 30
0.0
 11
264.7997815853761
 21
135.3753419286554
 31
0.0
  0
LINE
  5
1E6
330
61
100
AcDbEntity
  8
1
  6
Continuous
 62
     7
100
AcDbLine
 10
276.0677307778072
 20
135.3753419286554
 30
0.0
 11
277.0677307778072
 21
136.3753419286554
 31
0.0
  0
LINE
  5
1E7
330
61
100
AcDbEntity
  8
1
  6
PHANTOM
 62
     4
100
AcDbLine
 10
218.0677307778072
 20
129.8753419286553
 30
0.0
 11
218.0677307778072
 21
177.9892208627254
 31
0.0
  0
LINE
  5
1E8
330
61
100
AcDbEntity
  8
1
  6
Continuous
 62
     7
100
AcDbLine
 10
206.0677307778072
 20
161.453184645924
 30
0.0
 11
206.0677307778072
 21
168.1432911210865
 31
0.0
  0
LINE
  5
1E9
330
61
100
AcDbEntity
  8
1
  6
Continuous
 62
     2
100
AcDbLine
 10
194.9761123110337
 20
158.0623419286553
 30
0.0
 11
193.5677307778072
 21
158.0623419286553
 31
0.0
  0
LINE
  5
1EA
330
61
100
AcDbEntity
  8
1
  6
Continuous
 62
     7
100
AcDbLine
 10
193.5677307778072
 20
158.0623419286553
 30
0.0
 11
193.5677307778072
 21
158.8753419286554
 31
0.0
  0
LINE
  5
1EB
330
61
100
AcDbEntity
  8
1
  6
Continuous
 62
     7
100
AcDbLine
 10
193.5677307778072
 20
132.8753419286554
 30
0.0
 11
193.5677307778072
 21
133.6883419286553
 31
0.0
  0
LINE
  5
1EC
330
61
100
AcDbEntity
  8
1
  6
Continuous
 62
     7
100
AcDbLine
 10
193.5677307778072
 20
132.8753419286554
 30
0.0
 11
193.0677307778073
 21
132.8753419286554
 31
0.0
  0
LINE
  5
1ED
330
61
100
AcDbEntity
  8
1
  6
Continuous
 62
     7
100
AcDbLine
 10
241.391538357189
 20
136.8753419286554
 30
0.0
 11
256.5677307778072
 21
136.8753419286554
 31
0.0
  0
LINE
  5
1EE
102
{ACAD_REACTORS
330
239
102
}
330
61
100
AcDbEntity
  8
1
  6
Continuous
 62
     7
100
AcDbLine
 10
206.0677307778072
 20
169.8753419286553
 30
0.0
 11
206.0677307778072
 21
168.1432911210865
 31
0.0
  0
LINE
  5
1EF
102
{ACAD_REACTORS
330
239
102
}
330
61
100
AcDbEntity
  8
1
  6
Continuous
 62
     2
100
AcDbLine
 10
206.0677307778072
 20
168.1432911210865
 30
0.0
 11
207.0677307778072
 21
169.8753419286553
 31
0.0
  0
LINE
  5
1F0
330
61
100
AcDbEntity
  8
1
  6
Continuous
 62
     2
100
AcDbLine
 10
207.0677307778072
 20
169.8753419286553
 30
0.0
 11
207.0677307778072
 21
171.3050332168404
 31
0.0
  0
LINE
  5
1F1
102
{ACAD_REACTORS
330
239
102
}
330
61
100
AcDbEntity
  8
1
  6
Continuous
 62
     7
100
AcDbLine
 10
206.0677307778072
 20
169.8753419286553
 30
0.0
 11
207.0677307778072
 21
169.8753419286553
 31
0.0
  0
LINE
  5
1F2
330
61
100
AcDbEntity
  8
1
  6
Continuous
 62
     7
100
AcDbLine
 10
230.0677307778072
 20
169.8753419286553
 30
0.0
 11
230.0677307778072
 21
171.3050332168404
 31
0.0
  0
LINE
  5
1F3
330
61
100
AcDbEntity
  8
1
  6
Continuous
 62
     7
100
AcDbLine
 10
229.0677307778072
 20
169.8753419286553
 30
0.0
 11
230.0677307778072
 21
169.8753419286553
 31
0.0
  0
LINE
  5
1F4
330
61
100
AcDbEntity
  8
1
  6
Continuous
 62
     2
100
AcDbLine
 10
229.0677307778072
 20
169.8753419286553
 30
0.0
 11
230.0677307778072
 21
168.1432911210865
 31
0.0
  0
LINE
  5
1F5
330
61
100
AcDbEntity
  8
1
  6
Continuous
 62
     7
100
AcDbLine
 10
256.5677307778072
 20
154.8753419286554
 30
0.0
 11
242.0872540869763
 21
154.8753419286554
 31
0.0
  0
LINE
  5
1F6
330
61
100
AcDbEntity
  8
1
  6
Continuous
 62
     7
100
AcDbLine
 10
230.0677307778072
 20
168.1432911210865
 30
0.0
 11
230.0677307778072
 21
169.8753419286553
 31
0.0
  0
LINE
  5
1F7
330
61
100
AcDbEntity
  8
1
  6
Continuous
 62
     7
100
AcDbLine
 10
277.0677307778072
 20
139.8753419286554
 30
0.0
 11
277.0677307778072
 21
136.3753419286554
 31
0.0
  0
LINE
  5
1F8
330
61
100
AcDbEntity
  8
1
  6
Continuous
 62
     7
100
AcDbLine
 10
260.5677307778072
 20
132.8753419286554
 30
0.0
 11
260.5677307778072
 21
123.3361123807915
 31
0.0
  0
LINE
  5
1F9
330
61
100
AcDbEntity
  8
1
  6
Continuous
 62
     7
100
AcDbLine
 10
261.0661894446739
 20
122.8753419286554
 30
0.0
 11
263.0677307778072
 21
122.8753419286554
 31
0.0
  0
LINE
  5
1FA
330
61
100
AcDbEntity
  8
1
  6
Continuous
 62
     7
100
AcDbLine
 10
263.0677307778072
 20
135.3753419286554
 30
0.0
 11
263.0677307778072
 21
122.8753419286554
 31
0.0
  0
LINE
  5
1FB
330
61
100
AcDbEntity
  8
1
  6
Continuous
 62
     7
100
AcDbLine
 10
264.7997815853761
 20
135.3753419286554
 30
0.0
 11
263.0677307778072
 21
135.3753419286554
 31
0.0
  0
LINE
  5
1FC
330
61
100
AcDbEntity
  8
1
  6
Continuous
 62
     2
100
AcDbLine
 10
264.7997815853761
 20
136.3753419286554
 30
0.0
 11
263.0677307778072
 21
135.3753419286554
 31
0.0
  0
LINE
  5
1FD
330
61
100
AcDbEntity
  8
1
  6
Continuous
 62
     7
100
AcDbLine
 10
277.0677307778072
 20
139.8753419286554
 30
0.0
 11
277.0677307778072
 21
151.8753419286554
 31
0.0
  0
LINE
  5
1FE
330
61
100
AcDbEntity
  8
1
  6
Continuous
 62
     7
100
AcDbLine
 10
264.7997815853761
 20
135.3753419286554
 30
0.0
 11
264.7997815853761
 21
136.3753419286554
 31
0.0
  0
LINE
  5
1FF
330
61
100
AcDbEntity
  8
1
  6
Continuous
 62
     2
100
AcDbLine
 10
264.7997815853761
 20
155.3753419286554
 30
0.0
 11
277.0677307778072
 21
155.3753419286554
 31
0.0
  0
LINE
  5
200
330
61
100
AcDbEntity
  8
1
  6
Continuous
 62
     7
100
AcDbLine
 10
264.7997815853761
 20
156.3753419286554
 30
0.0
 11
276.0677307778072
 21
156.3753419286554
 31
0.0
  0
LINE
  5
201
330
61
100
AcDbEntity
  8
1
  6
Continuous
 62
     7
100
AcDbLine
 10
264.7997815853761
 20
155.3753419286554
 30
0.0
 11
264.7997815853761
 21
156.3753419286554
 31
0.0
  0
LINE
  5
202
330
61
100
AcDbEntity
  8
1
  6
Continuous
 62
     7
100
AcDbLine
 10
277.0677307778072
 20
155.3753419286554
 30
0.0
 11
276.0677307778072
 21
156.3753419286554
 31
0.0
  0
LINE
  5
203
330
61
100
AcDbEntity
  8
1
  6
Continuous
 62
     7
100
AcDbLine
 10
277.0677307778072
 20
155.3753419286554
 30
0.0
 11
277.0677307778072
 21
151.8753419286554
 31
0.0
  0
LINE
  5
204
330
61
100
AcDbEntity
  8
1
  6
Continuous
 62
     2
100
AcDbLine
 10
263.0677307778072
 20
156.3753419286554
 30
0.0
 11
264.7997815853761
 21
155.3753419286554
 31
0.0
  0
LINE
  5
205
330
61
100
AcDbEntity
  8
1
  6
Continuous
 62
     7
100
AcDbLine
 10
263.0677307778072
 20
156.3753419286554
 30
0.0
 11
264.7997815853761
 21
156.3753419286554
 31
0.0
  0
LINE
  5
206
330
61
100
AcDbEntity
  8
1
  6
Continuous
 62
     7
100
AcDbLine
 10
263.0677307778072
 20
168.8753419286553
 30
0.0
 11
263.0677307778072
 21
156.3753419286554
 31
0.0
  0
LINE
  5
207
330
61
100
AcDbEntity
  8
1
  6
Continuous
 62
     7
100
AcDbLine
 10
263.0677307778072
 20
168.8753419286553
 30
0.0
 11
261.0661894446739
 21
168.8753419286553
 31
0.0
  0
LINE
  5
208
330
61
100
AcDbEntity
  8
1
  6
Continuous
 62
     7
100
AcDbLine
 10
260.5677307778072
 20
168.4145714765192
 30
0.0
 11
260.5677307778072
 21
158.8753419286554
 31
0.0
  0
LINE
  5
209
330
61
100
AcDbEntity
  8
1
  6
Continuous
 62
     7
100
AcDbLine
 10
230.0677307778072
 20
168.1432911210865
 30
0.0
 11
230.0677307778072
 21
161.6508378180037
 31
0.0
  0
LINE
  5
20A
330
61
100
AcDbEntity
  8
1
  6
Continuous
 62
     7
100
AcDbLine
 10
264.7997815853761
 20
155.3753419286554
 30
0.0
 11
264.7997815853761
 21
136.3753419286554
 31
0.0
  0
LINE
  5
20B
330
61
100
AcDbEntity
  8
1
  6
Continuous
 62
     7
100
AcDbLine
 10
263.0677307778072
 20
135.3753419286554
 30
0.0
 11
263.0677307778072
 21
156.3753419286554
 31
0.0
  0
LINE
  5
20C
330
61
100
AcDbEntity
  8
1
  6
Continuous
 62
     7
100
AcDbLine
 10
260.5677307778072
 20
158.8753419286554
 30
0.0
 11
260.5677307778072
 21
132.8753419286554
 31
0.0
  0
LINE
  5
20D
330
61
100
AcDbEntity
  8
1
  6
Continuous
 62
     7
100
AcDbLine
 10
207.0677307778072
 20
169.8753419286553
 30
0.0
 11
229.0677307778072
 21
169.8753419286553
 31
0.0
  0
LINE
  5
20E
330
61
100
AcDbEntity
  8
1
  6
Continuous
 62
     7
100
AcDbLine
 10
193.5677307778072
 20
158.0623419286553
 30
0.0
 11
193.5677307778072
 21
133.6883419286553
 31
0.0
  0
LINE
  5
20F
330
61
100
AcDbEntity
  8
1
  6
Continuous
 62
     2
100
AcDbLine
 10
193.5677307778072
 20
158.0623419286553
 30
0.0
 11
193.0677307778073
 21
158.0623419286553
 31
0.0
  0
LINE
  5
210
330
61
100
AcDbEntity
  8
1
  6
Continuous
 62
     2
100
AcDbLine
 10
193.5677307778072
 20
133.6883419286553
 30
0.0
 11
194.9761123110337
 21
133.6883419286553
 31
0.0
  0
LINE
  5
211
330
61
100
AcDbEntity
  8
1
  6
Continuous
 62
     2
100
AcDbLine
 10
229.0677307778072
 20
171.3050332168404
 30
0.0
 11
229.0677307778072
 21
169.8753419286553
 31
0.0
  0
LINE
  5
212
330
61
100
AcDbEntity
  8
1
  6
Continuous
 62
     7
100
AcDbLine
 10
206.0677307778072
 20
171.3050332168404
 30
0.0
 11
206.0677307778072
 21
169.8753419286553
 31
0.0
  0
LINE
  5
213
330
61
100
AcDbEntity
  8
1
  6
Continuous
 62
     7
100
AcDbLine
 10
193.0677307778073
 20
158.8753419286554
 30
0.0
 11
193.5677307778072
 21
158.8753419286554
 31
0.0
  0
LINE
  5
214
330
61
100
AcDbEntity
  8
1
  6
Continuous
 62
     2
100
AcDbLine
 10
193.0677307778073
 20
133.6883419286553
 30
0.0
 11
193.5677307778072
 21
133.6883419286553
 31
0.0
  0
LINE
  5
215
330
61
100
AcDbEntity
  8
1
  6
Continuous
 62
     2
100
AcDbLine
 10
65.94883102122853
 20
306.2515055386111
 30
0.0
 11
65.94883102122853
 21
308.1598870718377
 31
0.0
  0
LINE
  5
216
330
61
100
AcDbEntity
  8
1
  6
Continuous
 62
     7
100
AcDbLine
 10
65.13583102122865
 20
306.2515055386111
 30
0.0
 11
65.13583102122865
 21
306.7515055386112
 31
0.0
  0
ARC
  5
217
330
61
100
AcDbEntity
  8
1
  6
Continuous
 62
     7
100
AcDbCircle
 10
78.13583102122865
 20
145.8753419286554
 30
0.0
 40
23.00000000000004
100
AcDbArc
 50
0.0
 51
58.55101861062062
  0
ARC
  5
218
330
61
100
AcDbEntity
  8
1
  6
Continuous
 62
     7
100
AcDbCircle
 10
78.13583102122865
 20
145.8753419286554
 30
0.0
 40
23.00000000000012
100
AcDbArc
 50
121.4489813893794
 51
250.7248487849286
  0
ARC
  5
219
330
61
100
AcDbEntity
  8
1
  6
Continuous
 62
     7
100
AcDbCircle
 10
78.13583102122865
 20
145.8753419286554
 30
0.0
 40
22.99999999999995
100
AcDbArc
 50
289.2751512150713
 51
0.0
  0
ARC
  5
21A
330
61
100
AcDbEntity
  8
0
  6
Continuous
 62
     7
100
AcDbCircle
 10
19.13991962800074
 20
159.7941408760663
 30
0.0
 40
47.07828593147446
100
AcDbArc
 50
353.1263573403659
 51
3.38990206119939
  0
ARC
  5
21B
330
61
100
AcDbEntity
  8
0
  6
Continuous
 62
     7
100
AcDbCircle
 10
111.6317424144568
 20
145.8753419286554
 30
0.0
 40
46.49591139322815
100
AcDbArc
 50
169.7364552791664
 51
172.3329676727367
  0
ARC
  5
21C
330
61
100
AcDbEntity
  8
0
  6
Continuous
 62
     7
100
AcDbCircle
 10
44.63991962800054
 20
145.8753419286554
 30
0.0
 40
46.49591139322808
100
AcDbArc
 50
7.66703232726326
 51
10.26354472083356
  0
ARC
  5
21D
330
61
100
AcDbEntity
  8
0
  6
Continuous
 62
     7
100
AcDbCircle
 10
137.1317424144564
 20
159.7941408760663
 30
0.0
 40
47.0782859314743
100
AcDbArc
 50
176.6100979388006
 51
186.873642659634
  0
ARC
  5
21E
330
61
100
AcDbEntity
  8
1
  6
Continuous
 62
     7
100
AcDbCircle
 10
105.1358310212284
 20
331.2515055386112
 30
0.0
 40
39.99999999999963
100
AcDbArc
 50
191.21543997265
 51
197.1477291568701
  0
ARC
  5
21F
330
61
100
AcDbEntity
  8
1
  6
Continuous
 62
     7
100
AcDbCircle
 10
52.47052489877964
 20
315.0015055386112
 30
0.0
 40
15.11530612244883
100
AcDbArc
 50
333.0875481918084
 51
17.1477291568702
  0
ARC
  5
220
330
61
100
AcDbEntity
  8
1
  6
Continuous
 62
     7
100
AcDbCircle
 10
52.47052489877964
 20
315.0015055386112
 30
0.0
 40
15.11530612244901
100
AcDbArc
 50
326.9203519975422
 51
333.0875481918084
  0
ARC
  5
221
330
61
100
AcDbEntity
  8
1
  6
Continuous
 62
     7
100
AcDbCircle
 10
103.8011371436774
 20
315.0015055386112
 30
0.0
 40
15.11530612244878
100
AcDbArc
 50
206.9124518081917
 51
213.0796480024583
  0
ARC
  5
222
330
61
100
AcDbEntity
  8
1
  6
Continuous
 62
     7
100
AcDbCircle
 10
103.8011371436774
 20
315.0015055386112
 30
0.0
 40
15.115306122449
100
AcDbArc
 50
162.8522708431292
 51
206.9124518081917
  0
ARC
  5
223
330
61
100
AcDbEntity
  8
1
  6
Continuous
 62
     7
100
AcDbCircle
 10
51.13583102122865
 20
331.2515055386112
 30
0.0
 40
40.00000000000001
100
AcDbArc
 50
11.21543997265025
 51
19.46295094631498
  0
ARC
  5
224
330
61
100
AcDbEntity
  8
1
  6
Continuous
 62
     7
100
AcDbCircle
 10
65.13583102122865
 20
369.7515055386112
 30
0.0
 40
4.0
100
AcDbArc
 50
0.0
 51
90.0
  0
ARC
  5
225
330
61
100
AcDbEntity
  8
1
  6
Continuous
 62
     7
100
AcDbCircle
 10
91.13583102122865
 20
369.7515055386112
 30
0.0
 40
4.0
100
AcDbArc
 50
90.0
 51
180.0
  0
ARC
  5
226
330
61
100
AcDbEntity
  8
1
  6
Continuous
 62
     7
100
AcDbCircle
 10
51.13583102122865
 20
331.2515055386112
 30
0.0
 40
39.99999999999976
100
AcDbArc
 50
342.8522708431302
 51
348.7845600273501
  0
ARC
  5
227
330
61
100
AcDbEntity
  8
1
  6
Continuous
 62
     7
100
AcDbCircle
 10
105.1358310212284
 20
331.2515055386112
 30
0.0
 40
39.99999999999973
100
AcDbArc
 50
160.5370490536846
 51
168.7845600273497
  0
ARC
  5
228
330
61
100
AcDbEntity
  8
1
  6
Continuous
 62
     7
100
AcDbCircle
 10
201.8177307778072
 20
171.5406480511043
 30
0.0
 40
15.11530612244897
100
AcDbArc
 50
243.0875481918085
 51
265.747898806923
  0
ARC
  5
229
330
61
100
AcDbEntity
  8
1
  6
Continuous
 62
     7
100
AcDbCircle
 10
201.0677307778072
 20
161.453184645924
 30
0.0
 40
4.99999999999995
100
AcDbArc
 50
265.7478988069246
 51
0.0
  0
ARC
  5
22A
330
61
100
AcDbEntity
  8
1
  6
Continuous
 62
     7
100
AcDbCircle
 10
201.8177307778072
 20
171.5406480511043
 30
0.0
 40
15.11530612244893
100
AcDbArc
 50
236.9203519975421
 51
243.0875481918085
  0
ARC
  5
22B
330
61
100
AcDbEntity
  8
1
  6
Continuous
 62
     7
100
AcDbCircle
 10
201.8177307778072
 20
120.2100358062064
 30
0.0
 40
15.11530612244908
100
AcDbArc
 50
72.85227084312956
 51
116.9124518081918
  0
ARC
  5
22C
330
61
100
AcDbEntity
  8
1
  6
Continuous
 62
     7
100
AcDbCircle
 10
201.8177307778072
 20
120.2100358062064
 30
0.0
 40
15.11530612244885
100
AcDbArc
 50
116.9124518081918
 51
123.0796480024578
  0
ARC
  5
22D
330
61
100
AcDbEntity
  8
1
  6
Continuous
 62
     7
100
AcDbCircle
 10
218.0677307778072
 20
172.8753419286553
 30
0.0
 40
39.99999999999982
100
AcDbArc
 50
252.8522708431301
 51
289.4629509463158
  0
ARC
  5
22E
330
61
100
AcDbEntity
  8
0
  6
Continuous
 62
     7
100
AcDbCircle
 10
242.0872540869763
 20
184.625341928647
 30
0.0
 40
29.74999999999157
100
AcDbArc
 50
255.3180262342324
 51
270.0
  0
ARC
  5
22F
330
61
100
AcDbEntity
  8
1
  6
Continuous
 62
     7
100
AcDbCircle
 10
100.6358310212284
 20
374.2499642054779
 30
0.0
 40
0.5000000000001661
100
AcDbArc
 50
274.500000000007
 51
0.0
  0
ARC
  5
230
330
61
100
AcDbEntity
  8
1
  6
Continuous
 62
     7
100
AcDbCircle
 10
55.63583102122865
 20
374.2499642054779
 30
0.0
 40
0.5
100
AcDbArc
 50
180.0
 51
265.4999999999791
  0
ARC
  5
231
330
61
100
AcDbEntity
  8
0
  6
Continuous
 62
     7
100
AcDbCircle
 10
39.1358310212286
 20
354.5753131179924
 30
0.0
 40
30.00000000000008
100
AcDbArc
 50
340.5370490536849
 51
0.0
  0
ARC
  5
232
330
61
100
AcDbEntity
  8
0
  6
Continuous
 62
     7
100
AcDbCircle
 10
117.1358310212287
 20
354.575313117992
 30
0.0
 40
30.00000000000004
100
AcDbArc
 50
180.0
 51
199.4629509463149
  0
ARC
  5
233
330
61
100
AcDbEntity
  8
1
  6
Continuous
 62
     7
100
AcDbCircle
 10
261.0661894446739
 20
123.3753419286554
 30
0.0
 40
0.5000000000001583
100
AcDbArc
 50
184.4999999999957
 51
270.0
  0
ARC
  5
234
330
61
100
AcDbEntity
  8
1
  6
Continuous
 62
     7
100
AcDbCircle
 10
261.0661894446739
 20
168.3753419286553
 30
0.0
 40
0.5
100
AcDbArc
 50
90.0
 51
175.5000000000043
  0
ARC
  5
235
330
61
100
AcDbEntity
  8
0
  6
Continuous
 62
     7
100
AcDbCircle
 10
236.0677307778072
 20
161.6508378180037
 30
0.0
 40
6.0
100
AcDbArc
 50
180.0
 51
255.3180262342332
  0
ARC
  5
236
330
61
100
AcDbEntity
  8
0
  6
Continuous
 62
     7
100
AcDbCircle
 10
256.5677307778072
 20
158.8753419286554
 30
0.0
 40
4.0
100
AcDbArc
 50
270.0
 51
0.0
  0
ARC
  5
237
330
61
100
AcDbEntity
  8
0
  6
Continuous
 62
     7
100
AcDbCircle
 10
256.5677307778072
 20
132.8753419286554
 30
0.0
 40
4.0
100
AcDbArc
 50
0.0
 51
90.0
  0
ARC
  5
238
330
61
100
AcDbEntity
  8
0
  6
Continuous
 62
     7
100
AcDbCircle
 10
241.391538357189
 20
106.8753419286555
 30
0.0
 40
29.99999999999989
100
AcDbArc
 50
90.0
 51
109.4629509463157
  0
HATCH
  5
239
330
61
100
AcDbEntity
  8
1
  6
Continuous
 62
     2
100
AcDbHatch
 10
0.0
 20
0.0
 30
0.0
210
0.0
220
0.0
230
1.0
  2
CUSTOM0
 70
     0
 71
     1
 91
        1
 92
        1
 93
        3
 72
     1
 10
206.0677307778072
 20
168.1432911210865
 11
206.0677307778072
 21
169.8753419286553
 72
     1
 10
206.0677307778072
 20
169.8753419286553
 11
207.0677307778072
 21
169.8753419286553
 72
     1
 10
207.0677307778072
 20
169.8753419286553
 11
206.0677307778072
 21
168.1432911210865
 97
        3
330
1F1
330
1EE
330
1EF
 75
     1
 76
     2
 52
45.0
 41
1.0
 77
     0
 78
     1
 53
45.0
 43
0.0
 44
0.0
 45
-2.82842712474619
 46
0.0000000000000002
 79
     0
 98
        1
 10
0.0
 20
0.0
  0
ENDBLK
  5
63
330
61
100
AcDbEntity
  8
0
100
AcDbBlockEnd
  0
BLOCK
  5
65
330
64
100
AcDbEntity
  8
0
100
AcDbBlockBegin
  2
開示A4
 70
     0
 10
0.0
 20
0.0
 30
0.0
  3
開示A4
  1

  0
POINT
  5
23A
330
64
100
AcDbEntity
  8
1
 62
     4
100
AcDbPoint
 10
34.0
 20
34.00000000000001
 30
0.0
  0
POINT
  5
23B
330
64
100
AcDbEntity
  8
1
 62
     4
100
AcDbPoint
 10
57.0
 20
12.25
 30
0.0
  0
POINT
  5
23C
330
64
100
AcDbEntity
  8
1
 62
     4
100
AcDbPoint
 10
57.0
 20
20.75000000000001
 30
0.0
  0
POINT
  5
23D
330
64
100
AcDbEntity
  8
1
 62
     4
100
AcDbPoint
 10
57.0
 20
24.75000000000001
 30
0.0
  0
POINT
  5
23E
330
64
100
AcDbEntity
  8
1
 62
     4
100
AcDbPoint
 10
57.0
 20
16.25
 30
0.0
  0
POINT
  5
23F
330
64
100
AcDbEntity
  8
1
 62
     4
100
AcDbPoint
 10
157.5
 20
19.00000000000001
 30
0.0
  0
POINT
  5
240
330
64
100
AcDbEntity
  8
1
 62
     4
100
AcDbPoint
 10
47.5
 20
282.0000000000003
 30
0.0
  0
POINT
  5
241
330
64
100
AcDbEntity
  8
1
 62
     4
100
AcDbPoint
 10
57.0
 20
22.75000000000001
 30
0.0
  0
POINT
  5
242
330
64
100
AcDbEntity
  8
1
 62
     4
100
AcDbPoint
 10
57.0
 20
14.25
 30
0.0
  0
POINT
  5
243
330
64
100
AcDbEntity
  8
1
 62
     4
100
AcDbPoint
 10
157.5
 20
12.5
 30
0.0
  0
POINT
  5
244
330
64
100
AcDbEntity
  8
1
 62
     4
100
AcDbPoint
 10
163.25
 20
12.5
 30
0.0
  0
POINT
  5
245
330
64
100
AcDbEntity
  8
1
 62
     4
100
AcDbPoint
 10
151.75
 20
12.5
 30
0.0
  0
POINT
  5
246
330
64
100
AcDbEntity
  8
1
 62
     4
100
AcDbPoint
 10
134.75
 20
12.5
 30
0.0
  0
POINT
  5
247
330
64
100
AcDbEntity
  8
1
 62
     4
100
AcDbPoint
 10
146.25
 20
12.5
 30
0.0
  0
POINT
  5
248
330
64
100
AcDbEntity
  8
1
 62
     4
100
AcDbPoint
 10
140.5
 20
12.5
 30
0.0
  0
POINT
  5
249
330
64
100
AcDbEntity
  8
1
 62
     4
100
AcDbPoint
 10
140.5
 20
19.00000000000001
 30
0.0
  0
POINT
  5
24A
330
64
100
AcDbEntity
  8
1
 62
     4
100
AcDbPoint
 10
117.75
 20
12.5
 30
0.0
  0
POINT
  5
24B
330
64
100
AcDbEntity
  8
1
 62
     4
100
AcDbPoint
 10
129.25
 20
12.5
 30
0.0
  0
POINT
  5
24C
330
64
100
AcDbEntity
  8
1
 62
     4
100
AcDbPoint
 10
123.5
 20
12.5
 30
0.0
  0
POINT
  5
24D
330
64
100
AcDbEntity
  8
1
 62
     4
100
AcDbPoint
 10
123.5
 20
19.00000000000001
 30
0.0
  0
POINT
  5
24E
330
64
100
AcDbEntity
  8
1
 62
     4
100
AcDbPoint
 10
100.75
 20
12.5
 30
0.0
  0
POINT
  5
24F
330
64
100
AcDbEntity
  8
1
 62
     4
100
AcDbPoint
 10
112.25
 20
12.5
 30
0.0
  0
POINT
  5
250
330
64
100
AcDbEntity
  8
1
 62
     4
100
AcDbPoint
 10
106.5
 20
12.5
 30
0.0
  0
POINT
  5
251
330
64
100
AcDbEntity
  8
1
 62
     4
100
AcDbPoint
 10
106.5
 20
19.00000000000001
 30
0.0
  0
POINT
  5
252
330
64
100
AcDbEntity
  8
1
 62
     4
100
AcDbPoint
 10
85.25
 20
17.0
 30
0.0
  0
POINT
  5
253
330
64
100
AcDbEntity
  8
1
 62
     4
100
AcDbPoint
 10
93.75
 20
17.0
 30
0.0
  0
LINE
  5
254
330
64
100
AcDbEntity
  8
1
  6
Continuous
 62
     2
100
AcDbLine
 10
81.0
 20
27.00000000000001
 30
0.0
 11
81.0
 21
10.0
 31
0.0
  0
LINE
  5
255
330
64
100
AcDbEntity
  8
1
  6
DOT_CENTER
 62
     2
100
AcDbLine
 10
187.0
 20
26.50000000000001
 30
0.0
 11
187.0
 21
20.50000000000001
 31
0.0
  0
LINE
  5
256
330
64
100
AcDbEntity
  8
1
  6
DOT_CENTER
 62
     2
100
AcDbLine
 10
184.0
 20
23.50000000000001
 30
0.0
 11
197.0
 21
23.50000000000001
 31
0.0
  0
LINE
  5
257
330
64
100
AcDbEntity
  8
1
  6
Continuous
 62
     7
100
AcDbLine
 10
196.0
 20
21.50000000000001
 30
0.0
 11
191.0
 21
22.30000000000001
 31
0.0
  0
LINE
  5
258
330
64
100
AcDbEntity
  8
1
  6
Continuous
 62
     7
100
AcDbLine
 10
196.0
 20
25.50000000000001
 30
0.0
 11
196.0
 21
21.50000000000001
 31
0.0
  0
LINE
  5
259
330
64
100
AcDbEntity
  8
1
  6
Continuous
 62
     7
100
AcDbLine
 10
191.0
 20
24.70000000000001
 30
0.0
 11
196.0
 21
25.50000000000001
 31
0.0
  0
LINE
  5
25A
330
64
100
AcDbEntity
  8
1
  6
Continuous
 62
     7
100
AcDbLine
 10
191.0
 20
24.70000000000001
 30
0.0
 11
191.0
 21
22.30000000000001
 31
0.0
  0
LINE
  5
25B
330
64
100
AcDbEntity
  8
1
  6
Continuous
 62
     2
100
AcDbLine
 10
33.0
 20
27.00000000000001
 30
0.0
 11
33.0
 21
10.0
 31
0.0
  0
LINE
  5
25C
330
64
100
AcDbEntity
  8
1
  6
Continuous
 62
     2
100
AcDbLine
 10
25.0
 20
18.50000000000001
 30
0.0
 11
81.0
 21
18.50000000000001
 31
0.0
  0
LINE
  5
25D
330
64
100
AcDbEntity
  8
1
  6
Continuous
 62
     7
100
AcDbLine
 10
200.0
 20
287.0000000000003
 30
0.0
 11
105.0
 21
287.0000000000003
 31
0.0
  0
LINE
  5
25E
330
64
100
AcDbEntity
  8
1
  6
Continuous
 62
     7
100
AcDbLine
 10
200.0
 20
10.0
 30
0.0
 11
200.0
 21
148.5
 31
0.0
  0
LINE
  5
25F
330
64
100
AcDbEntity
  8
1
  6
Continuous
 62
     7
100
AcDbLine
 10
25.0
 20
10.0
 30
0.0
 11
105.0
 21
10.0
 31
0.0
  0
LINE
  5
260
330
64
100
AcDbEntity
  8
1
  6
PHANTOM
 62
     4
100
AcDbLine
 10
0.0
 20
297.0
 30
0.0
 11
0.0
 21
0.0
 31
0.0
  0
LINE
  5
261
330
64
100
AcDbEntity
  8
1
  6
PHANTOM
 62
     4
100
AcDbLine
 10
210.0
 20
297.0
 30
0.0
 11
0.0
 21
297.0
 31
0.0
  0
LINE
  5
262
330
64
100
AcDbEntity
  8
1
  6
PHANTOM
 62
     4
100
AcDbLine
 10
210.0
 20
0.0
 30
0.0
 11
210.0
 21
297.0
 31
0.0
  0
LINE
  5
263
330
64
100
AcDbEntity
  8
1
  6
PHANTOM
 62
     4
100
AcDbLine
 10
0.0
 20
0.0
 30
0.0
 11
210.0
 21
0.0
 31
0.0
  0
LINE
  5
264
330
64
100
AcDbEntity
  8
1
  6
Continuous
 62
     7
100
AcDbLine
 10
25.0
 20
41.0
 30
0.0
 11
200.0
 21
41.0
 31
0.0
  0
LINE
  5
265
330
64
100
AcDbEntity
  8
1
  6
Continuous
 62
     7
100
AcDbLine
 10
200.0
 20
27.00000000000001
 30
0.0
 11
25.0
 21
27.00000000000001
 31
0.0
  0
LINE
  5
266
330
64
100
AcDbEntity
  8
1
  6
Continuous
 62
     2
100
AcDbLine
 10
33.0
 20
41.0
 30
0.0
 11
33.0
 21
27.00000000000001
 31
0.0
  0
LINE
  5
267
330
64
100
AcDbEntity
  8
1
  6
Continuous
 62
     2
100
AcDbLine
 10
55.0
 20
287.0000000000003
 30
0.0
 11
55.0
 21
277.0000000000003
 31
0.0
  0
LINE
  5
268
330
64
100
AcDbEntity
  8
1
  6
Continuous
 62
     2
100
AcDbLine
 10
40.0
 20
287.0000000000003
 30
0.0
 11
40.0
 21
277.0000000000003
 31
0.0
  0
LINE
  5
269
330
64
100
AcDbEntity
  8
1
  6
Continuous
 62
     7
100
AcDbLine
 10
25.0
 20
10.0
 30
0.0
 11
25.0
 21
148.5
 31
0.0
  0
LINE
  5
26A
330
64
100
AcDbEntity
  8
1
  6
Continuous
 62
     2
100
AcDbLine
 10
55.0
 20
277.0000000000003
 30
0.0
 11
25.0
 21
277.0000000000003
 31
0.0
  0
LINE
  5
26B
330
64
100
AcDbEntity
  8
1
  6
Continuous
 62
     2
100
AcDbLine
 10
166.0
 20
27.00000000000001
 30
0.0
 11
166.0
 21
10.0
 31
0.0
  0
LINE
  5
26C
330
64
100
AcDbEntity
  8
1
  6
Continuous
 62
     2
100
AcDbLine
 10
132.0
 20
27.00000000000001
 30
0.0
 11
132.0
 21
9.99999999999999
 31
0.0
  0
LINE
  5
26D
330
64
100
AcDbEntity
  8
1
  6
Continuous
 62
     2
100
AcDbLine
 10
149.0
 20
27.00000000000001
 30
0.0
 11
149.0
 21
10.0
 31
0.0
  0
LINE
  5
26E
330
64
100
AcDbEntity
  8
1
  6
Continuous
 62
     2
100
AcDbLine
 10
115.0
 20
27.00000000000001
 30
0.0
 11
115.0
 21
9.99999999999999
 31
0.0
  0
LINE
  5
26F
330
64
100
AcDbEntity
  8
1
  6
Continuous
 62
     2
100
AcDbLine
 10
98.0
 20
27.00000000000001
 30
0.0
 11
98.0
 21
9.99999999999999
 31
0.0
  0
LINE
  5
270
330
64
100
AcDbEntity
  8
1
  6
Continuous
 62
     2
100
AcDbLine
 10
166.0
 20
20.00000000000001
 30
0.0
 11
200.0
 21
20.00000000000001
 31
0.0
  0
LINE
  5
271
330
64
100
AcDbEntity
  8
1
  6
Continuous
 62
     2
100
AcDbLine
 10
105.0
 20
287.0000000000003
 30
0.0
 11
105.0
 21
292.0000000000003
 31
0.0
  0
LINE
  5
272
330
64
100
AcDbEntity
  8
1
  6
Continuous
 62
     7
100
AcDbLine
 10
105.0
 20
287.0000000000003
 30
0.0
 11
25.0
 21
287.0000000000003
 31
0.0
  0
LINE
  5
273
330
64
100
AcDbEntity
  8
1
  6
Continuous
 62
     2
100
AcDbLine
 10
25.0
 20
148.5
 30
0.0
 11
20.0
 21
148.5
 31
0.0
  0
LINE
  5
274
330
64
100
AcDbEntity
  8
1
  6
Continuous
 62
     7
100
AcDbLine
 10
25.0
 20
148.5
 30
0.0
 11
25.0
 21
287.0000000000003
 31
0.0
  0
LINE
  5
275
330
64
100
AcDbEntity
  8
1
  6
Continuous
 62
     2
100
AcDbLine
 10
200.0
 20
148.5
 30
0.0
 11
205.0
 21
148.5
 31
0.0
  0
LINE
  5
276
330
64
100
AcDbEntity
  8
1
  6
Continuous
 62
     7
100
AcDbLine
 10
200.0
 20
148.5
 30
0.0
 11
200.0
 21
287.0000000000003
 31
0.0
  0
LINE
  5
277
330
64
100
AcDbEntity
  8
1
  6
Continuous
 62
     2
100
AcDbLine
 10
105.0
 20
10.0
 30
0.0
 11
105.0
 21
5.0
 31
0.0
  0
LINE
  5
278
330
64
100
AcDbEntity
  8
1
  6
Continuous
 62
     7
100
AcDbLine
 10
105.0
 20
10.0
 30
0.0
 11
200.0
 21
10.0
 31
0.0
  0
CIRCLE
  5
279
330
64
100
AcDbEntity
  8
1
  6
DOT_CENTER
 62
     7
100
AcDbCircle
 10
89.5
 20
18.0
 30
0.0
 40
0.1000000000000227
  0
CIRCLE
  5
27A
330
64
100
AcDbEntity
  8
1
  6
DOT_CENTER
 62
     7
100
AcDbCircle
 10
89.5
 20
16.0
 30
0.0
 40
0.1000000000000227
  0
CIRCLE
  5
27B
330
64
100
AcDbEntity
  8
1
  6
Continuous
 62
     7
100
AcDbCircle
 10
187.0
 20
23.50000000000001
 30
0.0
 40
2.0
  0
CIRCLE
  5
27C
330
64
100
AcDbEntity
  8
1
  6
Continuous
 62
     7
100
AcDbCircle
 10
187.0
 20
23.50000000000001
 30
0.0
 40
1.200000000000102
  0
CIRCLE
  5
27D
330
64
100
AcDbEntity
  8
1
  6
Continuous
 62
     7
100
AcDbCircle
 10
154.5
 20
12.5
 30
0.0
 40
0.3000000000000114
  0
CIRCLE
  5
27E
330
64
100
AcDbEntity
  8
1
  6
Continuous
 62
     7
100
AcDbCircle
 10
160.5
 20
12.5
 30
0.0
 40
0.3000000000000114
  0
CIRCLE
  5
27F
330
64
100
AcDbEntity
  8
1
  6
Continuous
 62
     7
100
AcDbCircle
 10
143.5
 20
12.5
 30
0.0
 40
0.3000000000000114
  0
CIRCLE
  5
280
330
64
100
AcDbEntity
  8
1
  6
Continuous
 62
     7
100
AcDbCircle
 10
137.5
 20
12.5
 30
0.0
 40
0.3000000000000114
  0
CIRCLE
  5
281
330
64
100
AcDbEntity
  8
1
  6
Continuous
 62
     7
100
AcDbCircle
 10
126.5
 20
12.5
 30
0.0
 40
0.2999999999999972
  0
CIRCLE
  5
282
330
64
100
AcDbEntity
  8
1
  6
Continuous
 62
     7
100
AcDbCircle
 10
120.5
 20
12.5
 30
0.0
 40
0.2999999999999972
  0
CIRCLE
  5
283
330
64
100
AcDbEntity
  8
1
  6
Continuous
 62
     7
100
AcDbCircle
 10
109.5
 20
12.5
 30
0.0
 40
0.2999999999999972
  0
CIRCLE
  5
284
330
64
100
AcDbEntity
  8
1
  6
Continuous
 62
     7
100
AcDbCircle
 10
103.5
 20
12.5
 30
0.0
 40
0.2999999999999972
  0
MTEXT
  5
286
330
64
100
AcDbEntity
  8
1
 62
   250
100
AcDbMText
 10
25.0
 20
5.0
 30
0.0
 40
3.5
 41
0.0
 71
     4
 72
     1
  1
備考欄の文字列 原点位置=4
  7
CONVERTER_11
 73
     1
 44
0.54545454545455
  0
MTEXT
  5
287
330
64
100
AcDbEntity
  8
1
 62
     2
100
AcDbMText
 10
89.5
 20
24.00000000000001
 30
0.0
 40
3.5
 41
0.0
 71
     5
 72
     1
  1
尺度
  7
CONVERTER_11
 73
     1
 44
0.54545454545455
  0
MTEXT
  5
288
330
64
100
AcDbEntity
  8
1
 62
     2
100
AcDbMText
 10
135.5
 20
25.00000000000001
 30
0.0
 40
3.0
 41
0.0
 71
     5
 72
     1
  1
製図
  7
CONVERTER_11
 73
     1
 44
0.59090909090909
  0
MTEXT
  5
289
330
64
100
AcDbEntity
  8
1
 62
     2
100
AcDbMText
 10
152.5
 20
25.00000000000001
 30
0.0
 40
3.0
 41
0.0
 71
     5
 72
     1
  1
設計
  7
CONVERTER_11
 73
     1
 44
0.59090909090909
  0
MTEXT
  5
28A
330
64
100
AcDbEntity
  8
1
 62
     2
100
AcDbMText
 10
118.5
 20
25.00000000000001
 30
0.0
 40
3.0
 41
0.0
 71
     5
 72
     1
  1
検図
  7
CONVERTER_11
 73
     1
 44
0.59090909090909
  0
MTEXT
  5
28B
330
64
100
AcDbEntity
  8
1
 62
     2
100
AcDbMText
 10
175.0
 20
23.50000000000001
 30
0.0
 40
3.5
 41
0.0
 71
     5
 72
     1
  1
第三角法
  7
CONVERTER_11
 73
     1
 44
0.54545454545455
  0
MTEXT
  5
28C
330
64
100
AcDbEntity
  8
1
 62
     2
100
AcDbMText
 10
101.5
 20
25.00000000000001
 30
0.0
 40
3.0
 41
0.0
 71
     5
 72
     1
  1
承認
  7
CONVERTER_11
 73
     1
 44
0.59090909090909
  0
MTEXT
  5
28D
330
64
100
AcDbEntity
  8
1
 62
     2
100
AcDbMText
 10
29.0
 20
14.25
 30
0.0
 40
3.5
 41
0.0
 71
     5
 72
     1
  1
品番
  7
CONVERTER_11
 73
     1
 44
0.72727272727273
  0
MTEXT
  5
28E
330
64
100
AcDbEntity
  8
1
 62
     2
100
AcDbMText
 10
29.0
 20
22.75
 30
0.0
 40
3.5
 41
0.0
 71
     5
 72
     1
  1
品名
  7
CONVERTER_11
 73
     1
 44
0.72727272727273
  0
MTEXT
  5
28F
330
64
100
AcDbEntity
  8
1
 62
     2
100
AcDbMText
 10
29.0
 20
34.00000000000001
 30
0.0
 40
3.5
 41
0.0
 71
     5
 72
     1
  1
備考
  7
CONVERTER_11
 73
     1
 44
0.45454545454545
  0
MTEXT
  5
290
330
64
100
AcDbEntity
  8
1
 62
     2
100
AcDbMText
 10
32.5
 20
282.0000000000003
 30
0.0
 40
5.0
 41
0.0
 71
     5
 72
     1
  1
図番
  7
CONVERTER_11
 73
     1
 44
0.45454545454545
  0
MTEXT
  5
291
330
64
100
AcDbEntity
  8
1
 62
     7
100
AcDbMText
 10
171.5
 20
15.0
 30
0.0
 40
2.5
 41
0.0
 71
     5
 72
     1
  1
株式会社
  7
CONVERTER_11
 73
     1
 44
1.0
  0
MTEXT
  5
292
330
64
100
AcDbEntity
  8
1
 62
     7
100
AcDbMText
 10
188.5
 20
15.0
 30
0.0
 40
3.0
 41
0.0
 71
     5
 72
     1
  1
三栄水栓製作所
  7
CONVERTER_11
 73
     1
 44
1.0
  0
ENDBLK
  5
66
330
64
100
AcDbEntity
  8
0
100
AcDbBlockEnd
  0
BLOCK
  5
2B1
330
2A9
100
AcDbEntity
  8
0
100
AcDbBlockBegin
  2
*D11
 70
     1
 10
0.0
 20
0.0
 30
0.0
  3
*D11
  1

  0
LINE
  5
2AA
330
2A9
100
AcDbEntity
  8
1
  6
Continuous
 62
     2
100
AcDbLine
 10
174.6461307753123
 20
159.8753419286555
 30
0.0
 11
174.6461307753123
 21
172.4268663140911
 31
0.0
  0
LINE
  5
2AB
330
2A9
100
AcDbEntity
  8
1
  6
Continuous
 62
     2
100
AcDbLine
 10
174.6461307753123
 20
131.8753419286555
 30
0.0
 11
174.6461307753123
 21
159.8753419286555
 31
0.0
  0
LINE
  5
2AC
330
2A9
100
AcDbEntity
  8
1
  6
Continuous
 62
     2
100
AcDbLine
 10
185.3545535280942
 20
131.8753419286555
 30
0.0
 11
173.1461307753123
 21
131.8753419286555
 31
0.0
  0
LINE
  5
2AD
330
2A9
100
AcDbEntity
  8
1
  6
Continuous
 62
     2
100
AcDbLine
 10
185.3545535280943
 20
159.8753419286555
 30
0.0
 11
173.1461307753123
 21
159.8753419286555
 31
0.0
  0
SOLID
  5
2AE
330
2A9
100
AcDbEntity
  8
1
 62
     2
100
AcDbTrace
 10
173.9549551629785
 20
137.1253419286555
 30
0.0
 11
175.3373063876461
 21
137.1253419286555
 31
0.0
 12
174.6461307753123
 22
131.8753419286555
 32
0.0
 13
174.6461307753123
 23
131.8753419286555
 33
0.0
  0
SOLID
  5
2AF
330
2A9
100
AcDbEntity
  8
1
 62
     2
100
AcDbTrace
 10
175.3373063876461
 20
154.6253419286555
 30
0.0
 11
173.9549551629785
 21
154.6253419286555
 31
0.0
 12
174.6461307753123
 22
159.8753419286555
 32
0.0
 13
174.6461307753123
 23
159.8753419286555
 33
0.0
  0
MTEXT
  5
2B0
330
2A9
100
AcDbEntity
  8
1
 62
     7
100
AcDbMText
 10
173.1461307753123
 20
164.5518663140911
 30
0.0
 40
5.25
 41
0.0
 71
     7
 72
     1
  1
28
  7
CONVERTER_12
 11
0.0
 21
1.0
 31
0.0
 73
     1
 44
0.60024009603842
  0
ENDBLK
  5
2B2
330
2A9
100
AcDbEntity
  8
0
100
AcDbBlockEnd
  0
BLOCK
  5
2BC
330
2B5
100
AcDbEntity
  8
0
100
AcDbBlockBegin
  2
*D12
 70
     1
 10
0.0
 20
0.0
 30
0.0
  3
*D12
  1

  0
LINE
  5
2B6
330
2B5
100
AcDbEntity
  8
0
  6
Continuous
 62
     2
100
AcDbLine
 10
141.0387436645633
 20
87.49439583472974
 30
0.0
 11
218.0677307778072
 21
87.49439583472974
 31
0.0
  0
LINE
  5
2B7
330
2B5
100
AcDbEntity
  8
0
  6
Continuous
 62
     2
100
AcDbLine
 10
141.0387436645633
 20
105.8753419286554
 30
0.0
 11
141.0387436645633
 21
85.99439583472974
 31
0.0
  0
LINE
  5
2B8
330
2B5
100
AcDbEntity
  8
0
  6
Continuous
 62
     2
100
AcDbLine
 10
218.0677307778072
 20
129.9220056578701
 30
0.0
 11
218.0677307778072
 21
85.99439583472974
 31
0.0
  0
SOLID
  5
2B9
330
2B5
100
AcDbEntity
  8
0
 62
     2
100
AcDbTrace
 10
146.2887436645633
 20
88.18557144706357
 30
0.0
 11
146.2887436645633
 21
86.80322022239592
 31
0.0
 12
141.0387436645633
 22
87.49439583472974
 32
0.0
 13
141.0387436645633
 23
87.49439583472974
 33
0.0
  0
SOLID
  5
2BA
330
2B5
100
AcDbEntity
  8
0
 62
     2
100
AcDbTrace
 10
212.8177307778072
 20
86.80322022239592
 30
0.0
 11
212.8177307778072
 21
88.18557144706357
 31
0.0
 12
218.0677307778072
 22
87.49439583472974
 32
0.0
 13
218.0677307778072
 23
87.49439583472974
 33
0.0
  0
MTEXT
  5
2BB
330
2B5
100
AcDbEntity
  8
0
 62
     7
100
AcDbMText
 10
175.6157372211853
 20
88.99439583472974
 30
0.0
 40
5.25
 41
0.0
 71
     7
 72
     1
  1
77
  7
CONVERTER_12
 11
0.9999999999970619
 21
2.424068405545306E-6
 31
0.0
 73
     1
 44
0.60024009603842
  0
ENDBLK
  5
2BD
330
2B5
100
AcDbEntity
  8
0
100
AcDbBlockEnd
  0
BLOCK
  5
2C7
330
2C0
100
AcDbEntity
  8
0
100
AcDbBlockBegin
  2
*D13
 70
     1
 10
0.0
 20
0.0
 30
0.0
  3
*D13
  1

  0
LINE
  5
2C1
330
2C0
100
AcDbEntity
  8
1
  6
Continuous
 62
     2
100
AcDbLine
 10
263.0677307778072
 20
87.49439583472974
 30
0.0
 11
277.0677307778072
 21
87.49439583472974
 31
0.0
  0
LINE
  5
2C2
330
2C0
100
AcDbEntity
  8
1
  6
Continuous
 62
     2
100
AcDbLine
 10
277.0677307778072
 20
87.49439583472974
 30
0.0
 11
287.5677307778072
 21
87.49439583472974
 31
0.0
  0
LINE
  5
2C3
330
2C0
100
AcDbEntity
  8
1
  6
Continuous
 62
     2
100
AcDbLine
 10
263.0677307778072
 20
122.8753419286554
 30
0.0
 11
263.0677307778072
 21
85.99439583472974
 31
0.0
  0
LINE
  5
2C4
330
2C0
100
AcDbEntity
  8
1
  6
Continuous
 62
     2
100
AcDbLine
 10
277.0677307778072
 20
136.3753419286554
 30
0.0
 11
277.0677307778072
 21
85.99439583472974
 31
0.0
  0
SOLID
  5
2C5
330
2C0
100
AcDbEntity
  8
1
 62
     2
100
AcDbTrace
 10
282.3177307778072
 20
88.18557144706357
 30
0.0
 11
282.3177307778072
 21
86.80322022239592
 31
0.0
 12
277.0677307778072
 22
87.49439583472974
 32
0.0
 13
277.0677307778072
 23
87.49439583472974
 33
0.0
  0
MTEXT
  5
2C6
330
2C0
100
AcDbEntity
  8
1
 62
     7
100
AcDbMText
 10
266.9177307778072
 20
88.99439583472974
 30
0.0
 40
5.25
 41
0.0
 71
     7
 72
     1
  1
14
  7
CONVERTER_12
 11
0.9999999999970619
 21
2.424068405545306E-6
 31
0.0
 73
     1
 44
0.60024009603842
  0
ENDBLK
  5
2C8
330
2C0
100
AcDbEntity
  8
0
100
AcDbBlockEnd
  0
BLOCK
  5
2CA
330
2C9
100
AcDbEntity
  8
0
100
AcDbBlockBegin
  2
_NONE
 70
     0
 10
0.0
 20
0.0
 30
0.0
  3
_NONE
  1

  0
ENDBLK
  5
2CB
330
2C9
100
AcDbEntity
  8
0
100
AcDbBlockEnd
  0
BLOCK
  5
2D5
330
2CE
100
AcDbEntity
  8
0
100
AcDbBlockBegin
  2
*D15
 70
     1
 10
0.0
 20
0.0
 30
0.0
  3
*D15
  1

  0
LINE
  5
2CF
330
2CE
100
AcDbEntity
  8
1
  6
Continuous
 62
     2
100
AcDbLine
 10
263.0677307778073
 20
87.49439583472974
 30
0.0
 11
218.0677307778072
 21
87.49439583472974
 31
0.0
  0
LINE
  5
2D0
330
2CE
100
AcDbEntity
  8
1
  6
Continuous
 62
     2
100
AcDbLine
 10
263.0677307778071
 20
122.8753419286554
 30
0.0
 11
263.0677307778071
 21
85.99439583472974
 31
0.0
  0
LINE
  5
2D1
330
2CE
100
AcDbEntity
  8
1
  6
Continuous
 62
     2
100
AcDbLine
 10
218.0677307778072
 20
129.8753419286553
 30
0.0
 11
218.0677307778072
 21
85.99439583472974
 31
0.0
  0
SOLID
  5
2D2
330
2CE
100
AcDbEntity
  8
1
 62
     2
100
AcDbTrace
 10
257.8177307778073
 20
86.80322022239592
 30
0.0
 11
257.8177307778073
 21
88.18557144706357
 31
0.0
 12
263.0677307778073
 22
87.49439583472974
 32
0.0
 13
263.0677307778073
 23
87.49439583472974
 33
0.0
  0
SOLID
  5
2D3
330
2CE
100
AcDbEntity
  8
1
 62
     2
100
AcDbTrace
 10
223.3177307778072
 20
88.18557144706357
 30
0.0
 11
223.3177307778072
 21
86.80322022239592
 31
0.0
 12
218.0677307778072
 22
87.49439583472974
 32
0.0
 13
218.0677307778072
 23
87.49439583472974
 33
0.0
  0
MTEXT
  5
2D4
330
2CE
100
AcDbEntity
  8
1
 62
     7
100
AcDbMText
 10
236.6302307778072
 20
88.99439583472974
 30
0.0
 40
5.25
 41
0.0
 71
     7
 72
     1
  1
45
  7
CONVERTER_12
 11
0.9999999999970619
 21
2.424068405545306E-6
 31
0.0
 73
     1
 44
0.60024009603842
  0
ENDBLK
  5
2D6
330
2CE
100
AcDbEntity
  8
0
100
AcDbBlockEnd
  0
BLOCK
  5
2E0
330
2D9
100
AcDbEntity
  8
0
100
AcDbBlockBegin
  2
*D16
 70
     1
 10
0.0
 20
0.0
 30
0.0
  3
*D16
  1

  0
LINE
  5
2DA
330
2D9
100
AcDbEntity
  8
1
  6
Continuous
 62
     2
100
AcDbLine
 10
125.4366650722591
 20
145.8753419286554
 30
0.0
 11
125.4366650722591
 21
212.5747016090207
 31
0.0
  0
LINE
  5
2DB
330
2D9
100
AcDbEntity
  8
1
  6
Continuous
 62
     2
100
AcDbLine
 10
218.0677310469695
 20
212.5747016090207
 30
0.0
 11
123.9366650722591
 21
212.5747016090207
 31
0.0
  0
LINE
  5
2DC
330
2D9
100
AcDbEntity
  8
1
  6
Continuous
 62
     2
100
AcDbLine
 10
179.494137649
 20
145.8753419286554
 30
0.0
 11
123.9366650722591
 21
145.8753419286554
 31
0.0
  0
SOLID
  5
2DD
330
2D9
100
AcDbEntity
  8
1
 62
     2
100
AcDbTrace
 10
124.7454894599253
 20
151.1253419286554
 30
0.0
 11
126.1278406845929
 21
151.1253419286554
 31
0.0
 12
125.4366650722591
 22
145.8753419286554
 32
0.0
 13
125.4366650722591
 23
145.8753419286554
 33
0.0
  0
SOLID
  5
2DE
330
2D9
100
AcDbEntity
  8
1
 62
     2
100
AcDbTrace
 10
126.1278406845929
 20
207.3247016090207
 30
0.0
 11
124.7454894599253
 21
207.3247016090207
 31
0.0
 12
125.4366650722591
 22
212.5747016090207
 32
0.0
 13
125.4366650722591
 23
212.5747016090207
 33
0.0
  0
MTEXT
  5
2DF
330
2D9
100
AcDbEntity
  8
1
 62
     7
100
AcDbMText
 10
123.9366650722591
 20
165.050021768838
 30
0.0
 40
5.25
 41
0.0
 71
     7
 72
     1
  1
67リフト5
  7
CONVERTER_11
 11
0.0
 21
1.0
 31
0.0
 73
     1
 44
0.45454545454545
  0
ENDBLK
  5
2E1
330
2D9
100
AcDbEntity
  8
0
100
AcDbBlockEnd
  0
BLOCK
  5
2EB
330
2E4
100
AcDbEntity
  8
0
100
AcDbBlockBegin
  2
*D17
 70
     1
 10
0.0
 20
0.0
 30
0.0
  3
*D17
  1

  0
LINE
  5
2E5
330
2E4
100
AcDbEntity
  8
1
  6
Continuous
 62
     2
100
AcDbLine
 10
292.0677307778071
 20
168.8753419286554
 30
0.0
 11
292.0677307778071
 21
122.8753419286554
 31
0.0
  0
LINE
  5
2E6
330
2E4
100
AcDbEntity
  8
1
  6
Continuous
 62
     2
100
AcDbLine
 10
263.0677307778072
 20
168.8753419286554
 30
0.0
 11
293.5677307778071
 21
168.8753419286554
 31
0.0
  0
LINE
  5
2E7
330
2E4
100
AcDbEntity
  8
1
  6
Continuous
 62
     2
100
AcDbLine
 10
263.0677307778072
 20
122.8753419286554
 30
0.0
 11
293.5677307778071
 21
122.8753419286554
 31
0.0
  0
SOLID
  5
2E8
330
2E4
100
AcDbEntity
  8
1
 62
     2
100
AcDbTrace
 10
292.758906390141
 20
163.6253419286554
 30
0.0
 11
291.3765551654733
 21
163.6253419286554
 31
0.0
 12
292.0677307778071
 22
168.8753419286554
 32
0.0
 13
292.0677307778071
 23
168.8753419286554
 33
0.0
  0
SOLID
  5
2E9
330
2E4
100
AcDbEntity
  8
1
 62
     2
100
AcDbTrace
 10
291.3765551654733
 20
128.1253419286554
 30
0.0
 11
292.758906390141
 21
128.1253419286554
 31
0.0
 12
292.0677307778071
 22
122.8753419286554
 32
0.0
 13
292.0677307778071
 23
122.8753419286554
 33
0.0
  0
MTEXT
  5
2EA
330
2E4
100
AcDbEntity
  8
1
 62
     7
100
AcDbMText
 10
290.5677307778071
 20
140.7828419286554
 30
0.0
 40
5.25
 41
0.0
 71
     7
 72
     1
  1
\C7;{\Fgdt;n}\C7;46
  7
CONVERTER_12
 11
0.0
 21
1.0
 31
0.0
 73
     1
 44
0.60024009603842
  0
ENDBLK
  5
2EC
330
2E4
100
AcDbEntity
  8
0
100
AcDbBlockEnd
  0
BLOCK
  5
2F7
330
2EF
100
AcDbEntity
  8
0
100
AcDbBlockBegin
  2
*D18
 70
     1
 10
0.0
 20
0.0
 30
0.0
  3
*D18
  1

  0
LINE
  5
2F0
330
2EF
100
AcDbEntity
  8
1
  6
Continuous
 62
     2
100
AcDbLine
 10
102.3976205276991
 20
94.07923820244177
 30
0.0
 11
122.1873059758447
 21
84.85115632549324
 31
0.0
  0
LINE
  5
2F1
330
2EF
100
AcDbEntity
  8
1
  6
Continuous
 62
     2
100
AcDbLine
 10
122.1873059758447
 20
84.85115632549324
 30
0.0
 11
137.0507536832458
 21
77.92021683294595
 31
0.0
  0
LINE
  5
2F2
330
2EF
100
AcDbEntity
  8
1
  6
Continuous
 62
     2
100
AcDbLine
 10
134.6635654652144
 20
111.6065811425206
 30
0.0
 11
121.5533785832336
 21
83.49169464493825
 31
0.0
  0
LINE
  5
2F3
330
2EF
100
AcDbEntity
  8
1
  6
Continuous
 62
     2
100
AcDbLine
 10
149.5270131726155
 20
104.6756416499733
 30
0.0
 11
136.4168262906348
 21
76.56075515239097
 31
0.0
  0
SOLID
  5
2F4
330
2EF
100
AcDbEntity
  8
1
 62
     2
100
AcDbTrace
 10
127.2375252936292
 20
83.25882829102255
 30
0.0
 11
126.653318421945
 21
82.00599261168661
 31
0.0
 12
122.1873059758447
 22
84.85115632549324
 32
0.0
 13
122.1873059758447
 23
84.85115632549324
 33
0.0
  0
SOLID
  5
2F5
330
2EF
100
AcDbEntity
  8
1
 62
     2
100
AcDbTrace
 10
132.0005343654613
 20
79.5125448674166
 30
0.0
 11
132.5847412371454
 21
80.76538054675255
 31
0.0
 12
137.0507536832458
 22
77.92021683294595
 32
0.0
 13
137.0507536832458
 23
77.92021683294595
 33
0.0
  0
MTEXT
  5
2F6
330
2EF
100
AcDbEntity
  8
1
 62
     7
100
AcDbMText
 10
105.0615065428621
 20
95.07138803901832
 30
0.0
 40
5.25
 41
0.0
 71
     7
 72
     1
  1
\C7;{\Fgdt;n}\C7;16,5
  7
CONVERTER_12
 11
0.9063077870366552
 21
-0.4226182617406883
 31
0.0
 73
     1
 44
0.60024009603842
  0
ENDBLK
  5
2F8
330
2EF
100
AcDbEntity
  8
0
100
AcDbBlockEnd
  0
BLOCK
  5
302
330
2FB
100
AcDbEntity
  8
0
100
AcDbBlockBegin
  2
*D19
 70
     1
 10
0.0
 20
0.0
 30
0.0
  3
*D19
  1

  0
LINE
  5
2FC
330
2FB
100
AcDbEntity
  8
1
  6
Continuous
 62
     2
100
AcDbLine
 10
125.4366650722591
 20
145.8753419286552
 30
0.0
 11
125.4366650722591
 21
105.8753419286554
 31
0.0
  0
LINE
  5
2FD
330
2FB
100
AcDbEntity
  8
1
  6
Continuous
 62
     2
100
AcDbLine
 10
178.803157814988
 20
145.8753419286552
 30
0.0
 11
123.9366650722591
 21
145.8753419286552
 31
0.0
  0
LINE
  5
2FE
330
2FB
100
AcDbEntity
  8
1
  6
Continuous
 62
     2
100
AcDbLine
 10
141.0387436645633
 20
105.8753419286554
 30
0.0
 11
123.9366650722591
 21
105.8753419286554
 31
0.0
  0
SOLID
  5
2FF
330
2FB
100
AcDbEntity
  8
1
 62
     2
100
AcDbTrace
 10
126.1278406845929
 20
140.6253419286552
 30
0.0
 11
124.7454894599253
 21
140.6253419286552
 31
0.0
 12
125.4366650722591
 22
145.8753419286552
 32
0.0
 13
125.4366650722591
 23
145.8753419286552
 33
0.0
  0
SOLID
  5
300
330
2FB
100
AcDbEntity
  8
1
 62
     2
100
AcDbTrace
 10
124.7454894599253
 20
111.1253419286554
 30
0.0
 11
126.1278406845929
 21
111.1253419286554
 31
0.0
 12
125.4366650722591
 22
105.8753419286554
 32
0.0
 13
125.4366650722591
 23
105.8753419286554
 33
0.0
  0
MTEXT
  5
301
330
2FB
100
AcDbEntity
  8
1
 62
     7
100
AcDbMText
 10
123.9366650722591
 20
121.9378419286554
 30
0.0
 40
5.25
 41
0.0
 71
     7
 72
     1
  1
40
  7
CONVERTER_12
 11
0.0
 21
1.0
 31
0.0
 73
     1
 44
0.60024009603842
  0
ENDBLK
  5
303
330
2FB
100
AcDbEntity
  8
0
100
AcDbBlockEnd
  0
BLOCK
  5
30F
330
306
100
AcDbEntity
  8
0
100
AcDbBlockBegin
  2
*D20
 70
     1
 10
0.0
 20
0.0
 30
0.0
  3
*D20
  1

  0
LINE
  5
307
330
306
100
AcDbEntity
  8
0
  6
Continuous
 62
     2
100
AcDbLine
 10
123.2009758386744
 20
67.62212537959351
 30
0.0
 11
122.5670484460634
 21
66.26266369903853
 31
0.0
  0
LINE
  5
308
330
306
100
AcDbEntity
  8
0
  6
Continuous
 62
     2
100
AcDbLine
 10
141.0387436645633
 20
63.66758745913005
 30
0.0
 11
141.0387436645633
 21
62.16758745913005
 31
0.0
  0
LINE
  5
309
330
306
100
AcDbEntity
  8
0
  6
Continuous
 62
     2
100
AcDbLine
 10
140.1935071410819
 20
104.0627263545821
 30
0.0
 11
123.2009758386744
 21
67.62212537959351
 31
0.0
  0
LINE
  5
30A
330
306
100
AcDbEntity
  8
0
  6
Continuous
 62
     2
100
AcDbLine
 10
141.0387436645633
 20
105.3753419286554
 30
0.0
 11
141.0387436645633
 21
63.66758745913005
 31
0.0
  0
ARC
  5
30B
330
306
100
AcDbEntity
  8
0
  6
Continuous
 62
     2
100
AcDbCircle
 10
141.0387436645633
 20
105.8753419286554
 30
0.0
 40
42.20775446952537
100
AcDbArc
 50
245.0000000000003
 51
270.0
  0
SOLID
  5
30C
330
306
100
AcDbEntity
  8
0
 62
     2
100
AcDbTrace
 10
128.340398273628
 20
66.3467584668263
 30
0.0
 11
127.8351874542877
 21
65.06003513356397
 31
0.0
 12
123.2009758386744
 22
67.62212537959351
 32
0.0
 13
123.2009758386744
 23
67.62212537959351
 33
0.0
  0
SOLID
  5
30D
330
306
100
AcDbEntity
  8
0
 62
     2
100
AcDbTrace
 10
135.7559354643574
 20
63.30404757559183
 30
0.0
 11
135.8418517431387
 21
64.6837262705714
 31
0.0
 12
141.0387436645633
 22
63.66758745913005
 32
0.0
 13
141.0387436645633
 23
63.66758745913005
 33
0.0
  0
MTEXT
  5
30E
330
306
100
AcDbEntity
  8
0
 62
     7
100
AcDbMText
 10
127.4259305748254
 20
67.07890886149028
 30
0.0
 40
5.25
 41
0.0
 71
     7
 72
     1
  1
25{\Fgdt;~}
  7
CONVERTER_12
 11
0.9807496168456964
 21
-0.1952695292589705
 31
0.0
 73
     1
 44
0.60024009603842
  0
ENDBLK
  5
310
330
306
100
AcDbEntity
  8
0
100
AcDbBlockEnd
  0
ENDSEC
  0
SECTION
  2
ENTITIES
  0
INSERT
  5
67
330
1F
100
AcDbEntity
  8
0
100
AcDbBlockReference
  2
75-2
 10
191.1249847831937
 20
56.63301065802246
 30
0.0
  0
INSERT
  5
68
330
1F
100
AcDbEntity
  8
0
100
AcDbBlockReference
  2
32-1-16
 10
219.5838464598908
 20
-131.8890861160926
 30
0.0
  0
INSERT
  5
69
330
1F
100
AcDbEntity
  8
1
100
AcDbBlockReference
  2
36-54-M11
 10
155.1893135116192
 20
95.45570164088565
 30
0.0
  0
INSERT
  5
6A
330
1F
100
AcDbEntity
  8
1
100
AcDbBlockReference
  2
37-1-13
 10
411.4362435232505
 20
143.9613828218052
 30
0.0
  0
INSERT
  5
6B
330
1F
100
AcDbEntity
  8
1
100
AcDbBlockReference
  2
62-1B-M2
 10
0.99999999999989
 20
1782.75
 30
0.0
  0
INSERT
  5
6C
330
1F
100
AcDbEntity
  8
1
100
AcDbBlockReference
  2
21-9-M1
 10
14.98156479471158
 20
253.5910932860496
 30
0.0
 41
1.0
 42
1.0
 43
1.0
  0
INSERT
  5
6D
330
1F
100
AcDbEntity
  8
1
100
AcDbBlockReference
  2
84-338X
 10
5.89307441286784
 20
208.1041389479801
 30
0.0
 41
1.5
 42
1.5
 43
1.5
  0
INSERT
  5
6E
330
1F
100
AcDbEntity
  8
0
100
AcDbBlockReference
  2
Y12-0B-13
 10
263.0677307778072
 20
165.8753419286554
 30
0.0
  0
INSERT
  5
6F
330
1F
100
AcDbEntity
  8
1
100
AcDbBlockReference
  2
開示A4
 10
0.0
 20
0.0
 30
0.0
 41
1.5
 42
1.5
 43
1.5
  0
LINE
  5
293
330
1F
100
AcDbEntity
  8
1
  6
DASH_CENTER
 62
     2
100
AcDbLine
 10
78.13583102122865
 20
394.7515055386112
 30
0.0
 11
78.13583102122865
 21
244.620439833063
 31
0.0
  0
LINE
  5
294
330
1F
100
AcDbEntity
  8
1
  6
DASH_CENTER
 62
     2
100
AcDbLine
 10
40.1358316922517
 20
331.2515055386112
 30
0.0
 11
116.1358296922526
 21
331.2515055386112
 31
0.0
  0
LINE
  5
295
330
1F
100
AcDbEntity
  8
1
  6
DASH_CENTER
 62
     2
100
AcDbLine
 10
202.3177307778073
 20
145.8753419286554
 30
0.0
 11
180.582144928232
 21
145.8753419286554
 31
0.0
  0
LINE
  5
296
330
1F
100
AcDbEntity
  8
1
  6
DASH_CENTER
 62
     2
100
AcDbLine
 10
141.0387436645633
 20
105.8753419286554
 30
0.0
 11
140.1935071410819
 21
104.0627263545821
 31
0.0
  0
LINE
  5
297
330
1F
100
AcDbEntity
  8
1
  6
DASH_CENTER
 62
     2
100
AcDbLine
 10
151.6139242038885
 20
128.5538897808764
 30
0.0
 11
141.0387436645633
 21
105.8753419286554
 31
0.0
  0
LINE
  5
298
330
1F
100
AcDbEntity
  8
1
  6
DASH_CENTER
 62
     2
100
AcDbLine
 10
179.494137649
 20
145.8753419286554
 30
0.0
 11
280.3213093877714
 21
145.8753419286554
 31
0.0
  0
LINE
  5
299
330
1F
100
AcDbEntity
  8
0
  6
DASH_CENTER
 62
     2
100
AcDbLine
 10
52.13583102122865
 20
145.8753419286554
 30
0.0
 11
104.1358310212287
 21
145.8753419286554
 31
0.0
  0
LINE
  5
29A
330
1F
100
AcDbEntity
  8
0
  6
DASH_CENTER
 62
     2
100
AcDbLine
 10
78.13583102122865
 20
99.66664829389056
 30
0.0
 11
78.13583102122865
 21
215.5747016090205
 31
0.0
  0
LINE
  5
29B
330
1F
100
AcDbEntity
  8
1
  6
DASH_CENTER
 62
     2
100
AcDbLine
 10
218.0677307778072
 20
129.9220056578701
 30
0.0
 11
218.0677307778072
 21
215.5747016090205
 31
0.0
  0
LINE
  5
29C
330
1F
100
AcDbEntity
  8
0
  6
Continuous
 62
     2
100
AcDbLine
 10
141.0387436645633
 20
105.8753419286554
 30
0.0
 11
141.0387436645633
 21
105.3753419286554
 31
0.0
  0
LINE
  5
29D
330
1F
100
AcDbEntity
  8
1
  6
DASH_CENTER
 62
     2
100
AcDbLine
 10
180.0677314488306
 20
200.8753419286553
 30
0.0
 11
256.0677294488312
 21
200.8753419286553
 31
0.0
  0
LINE
  5
29E
330
1F
100
AcDbEntity
  8
1
  6
DASH_CENTER
 62
     2
100
AcDbLine
 10
40.1358316922517
 20
200.8753419286553
 30
0.0
 11
116.1358296922526
 21
200.8753419286553
 31
0.0
  0
ARC
  5
29F
330
1F
100
AcDbEntity
  8
1
  6
DASH_CENTER
 62
     2
100
AcDbCircle
 10
178.803157814988
 20
115.8753419286554
 30
0.0
 40
29.99999999999999
100
AcDbArc
 50
90.0
 51
155.0
  0
SOLID
  5
2A0
330
1F
100
AcDbEntity
  8
1
 62
     2
100
AcDbTrace
 10
90.66225538247134
 20
387.6437267146463
 30
0.0
 11
91.85940665998605
 21
386.9525511023125
 31
0.0
 12
88.63583102122865
 22
382.7515055386111
 32
0.0
 13
88.63583102122865
 23
382.7515055386111
 33
0.0
  0
LEADER
  5
2A1
330
1F
100
AcDbEntity
  8
1
  6
Continuous
 62
     2
100
AcDbLeader
  3
Standard
 71
     0
 76
     3
 10
88.63583102122865
 20
382.7515055386111
 30
0.0
 10
100.5555378536882
 20
403.397043383757
 30
0.0
 10
123.429117938877
 20
403.397043383757
 30
0.0
  0
MTEXT
  5
2A3
330
1F
100
AcDbEntity
  8
1
 62
     7
100
AcDbMText
 10
51.0
 20
51.00000000000001
 30
0.0
 40
5.25
 41
0.0
 71
     4
 72
     1
  1
JIS
  7
CONVERTER_12
 73
     1
 44
0.7202881152461
  0
MTEXT
  5
2A4
330
1F
100
AcDbEntity
  8
1
 62
     7
100
AcDbMText
 10
85.5
 20
34.12500000000001
 30
0.0
 40
5.25
 41
0.0
 71
     5
 72
     1
  1
万能ホーム水栓
  7
CONVERTER_11
 73
     1
 44
1.0
  0
MTEXT
  5
2A5
330
1F
100
AcDbEntity
  8
1
 62
     7
100
AcDbMText
 10
85.5
 20
21.375
 30
0.0
 40
5.25
 41
0.0
 71
     5
 72
     1
  1
Y12YK-13
  7
CONVERTER_12
 73
     1
 44
0.90036014405762
  0
MTEXT
  5
2A6
330
1F
100
AcDbEntity
  8
1
 62
     7
100
AcDbMText
 10
127.875
 20
25.5
 30
0.0
 40
5.25
 41
0.0
 71
     5
 72
     1
  1
1
  7
CONVERTER_12
 73
     1
 44
1.32052821128451
  0
MTEXT
  5
2A7
330
1F
100
AcDbEntity
  8
1
 62
     7
100
AcDbMText
 10
140.625
 20
25.5
 30
0.0
 40
5.25
 41
0.0
 71
     5
 72
     1
  1
1,5
  7
CONVERTER_12
 73
     1
 44
1.32052821128451
  0
MTEXT
  5
2A8
330
1F
100
AcDbEntity
  8
1
 62
     7
100
AcDbMText
 10
111.9923278962826
 20
407.897043383757
 30
0.0
 40
5.25
 41
0.0
 71
     5
 72
     1
  1
PJ1/2
  7
CONVERTER_12
 73
     1
 44
1.32052821128451
  0
DIMENSION
  5
2B4
330
1F
100
AcDbEntity
  8
1
100
AcDbDimension
  2
*D11
 10
174.6461307753123
 20
131.8753419286555
 30
0.0
 11
170.5211307753123
 21
168.4893663140911
 31
0.0
 70
    32
  1
<>
 71
     5
 42
-1.0
 53
90.0
  3
ME10_DIM_10
100
AcDbAlignedDimension
 13
185.3545535280942
 23
159.8753419286554
 33
0.0
 14
185.3545535280942
 24
131.8753419286554
 34
0.0
 50
90.0
100
AcDbRotatedDimension
  0
DIMENSION
  5
2BF
330
1F
100
AcDbEntity
  8
0
100
AcDbDimension
  2
*D12
 10
141.0387436645633
 20
87.49439583472974
 30
0.0
 11
179.5532372211853
 21
91.61939583472974
 31
0.0
 70
    32
  1
77
 71
     5
 42
-1.0
 53
0.00013888888889
  3
ME10_DIM_11
100
AcDbAlignedDimension
 13
218.0677307778072
 23
129.9220056578701
 33
0.0
 14
141.0387436645633
 24
105.8753419286554
 34
0.0
100
AcDbRotatedDimension
  0
DIMENSION
  5
2CD
330
1F
100
AcDbEntity
  8
1
100
AcDbDimension
  2
*D13
 10
263.0677307778072
 20
87.49439583472974
 30
0.0
 11
270.0677307778072
 21
91.61939583472974
 31
0.0
 70
    32
  1
<>
 71
     5
 42
-1.0
 53
0.00013888888889
  3
ME10_DIM_12
100
AcDbAlignedDimension
 13
277.0677307778071
 23
136.3753419286554
 33
0.0
 14
263.0677307778072
 24
122.8753419286554
 34
0.0
100
AcDbRotatedDimension
  0
DIMENSION
  5
2D8
330
1F
100
AcDbEntity
  8
1
100
AcDbDimension
  2
*D15
 10
263.0677307778073
 20
87.49439583472974
 30
0.0
 11
240.5677307778072
 21
91.61939583472974
 31
0.0
 70
    32
  1
<>
 71
     5
 42
-1.0
 53
0.00013888888889
  3
ME10_DIM_13
100
AcDbAlignedDimension
 13
218.0677307778072
 23
129.8753419286553
 33
0.0
 14
263.0677307778072
 24
122.8753419286554
 34
0.0
100
AcDbRotatedDimension
  0
DIMENSION
  5
2E3
330
1F
100
AcDbEntity
  8
1
100
AcDbDimension
  2
*D16
 10
125.4366650722591
 20
145.8753419286554
 30
0.0
 11
121.3116650722591
 21
179.225021768838
 31
0.0
 70
    32
  1
67リフト5
 71
     5
 42
-1.0
 53
90.0
  3
ME10_DIM_14
100
AcDbAlignedDimension
 13
218.0677310469695
 23
212.5747016090207
 33
0.0
 14
179.494137649
 24
145.8753419286554
 34
0.0
 50
90.0
100
AcDbRotatedDimension
  0
DIMENSION
  5
2EE
330
1F
100
AcDbEntity
  8
1
100
AcDbDimension
  2
*D17
 10
292.0677307778071
 20
168.8753419286554
 30
0.0
 11
287.9427307778071
 21
145.8753419286554
 31
0.0
 70
    32
  1
<>
 71
     5
 42
-1.0
 53
90.0
  3
ME10_DIM_15
100
AcDbAlignedDimension
 13
263.0677307778072
 23
122.8753419286554
 33
0.0
 14
263.0677307778072
 24
168.8753419286553
 34
0.0
 50
90.0
100
AcDbRotatedDimension
  0
DIMENSION
  5
2FA
330
1F
100
AcDbEntity
  8
1
100
AcDbDimension
  2
*D18
 10
122.1873059758447
 20
84.85115632549324
 30
0.0
 11
112.9354196356313
 21
94.00645239776212
 31
0.0
 70
    33
  1
{\Fgdt;n}16,5
 71
     5
 42
-1.0
 53
-24.99999999999936
  3
ME10_DIM_16
100
AcDbAlignedDimension
 13
149.5270131726155
 23
104.6756416499733
 33
0.0
 14
134.6635654652144
 24
111.6065811425206
 34
0.0
  0
DIMENSION
  5
305
330
1F
100
AcDbEntity
  8
1
100
AcDbDimension
  2
*D19
 10
125.4366650722591
 20
145.8753419286552
 30
0.0
 11
121.3116650722591
 21
125.8753419286554
 31
0.0
 70
    32
  1
<>
 71
     5
 42
-1.0
 53
90.0
  3
ME10_DIM_17
100
AcDbAlignedDimension
 13
141.0387436645633
 23
105.8753419286554
 33
0.0
 14
178.803157814988
 24
145.8753419286552
 34
0.0
 50
90.0
100
AcDbRotatedDimension
  0
DIMENSION
  5
312
330
1F
100
AcDbEntity
  8
0
100
AcDbDimension
  2
*D20
 10
131.9033135819866
 20
64.66807977055892
 30
0.0
 11
133.6023421264141
 21
68.52569507423968
 31
0.0
 70
    37
  1
<>
 71
     5
 42
-1.0
  3
ME10_DIM_18
100
AcDb3PointAngularDimension
 13
140.1935071410819
 23
104.0627263545821
 33
0.0
 14
141.0387436645633
 24
105.3753419286554
 34
0.0
 15
141.0387436645633
 25
105.8753419286554
 35
0.0
  0
ENDSEC
  0
SECTION
  2
OBJECTS
  0
DICTIONARY
  5
C
330
0
100
AcDbDictionary
281
     1
  3
ACAD_GROUP
350
D
  3
ACAD_LAYOUT
350
1A
  3
ACAD_MATERIAL
350
3B
  3
ACAD_MLEADERSTYLE
350
315
  3
ACAD_MLINESTYLE
350
17
  3
ACAD_PLOTSETTINGS
350
19
  3
ACAD_PLOTSTYLENAME
350
E
  3
ACAD_VISUALSTYLE
350
2A
  3
AcDbVariableDictionary
350
313
  0
DICTIONARY
  5
D
102
{ACAD_REACTORS
330
C
102
}
330
C
100
AcDbDictionary
281
     1
  0
DICTIONARY
  5
1A
102
{ACAD_REACTORS
330
C
102
}
330
C
100
AcDbDictionary
281
     1
  3
Layout1
350
1E
  3
Layout2
350
26
  3
Model
350
22
  0
DICTIONARY
  5
3B
102
{ACAD_REACTORS
330
C
102
}
330
C
100
AcDbDictionary
281
     1
  3
ByBlock
350
3D
  3
ByLayer
350
3C
  3
Global
350
3E
  0
DICTIONARY
  5
315
102
{ACAD_REACTORS
330
C
102
}
330
C
100
AcDbDictionary
281
     1
  0
DICTIONARY
  5
17
102
{ACAD_REACTORS
330
C
102
}
330
C
100
AcDbDictionary
281
     1
  3
Standard
350
18
  0
DICTIONARY
  5
19
102
{ACAD_REACTORS
330
C
102
}
330
C
100
AcDbDictionary
281
     1
  0
ACDBDICTIONARYWDFLT
  5
E
102
{ACAD_REACTORS
330
C
102
}
330
C
100
AcDbDictionary
281
     1
  3
Normal
350
F
100
AcDbDictionaryWithDefault
340
F
  0
DICTIONARY
  5
2A
102
{ACAD_REACTORS
330
C
102
}
330
C
100
AcDbDictionary
281
     1
  3
2dWireframe
350
2F
  3
3D Hidden
350
31
  3
3dWireframe
350
30
  3
Basic
350
32
  3
Brighten
350
36
  3
ColorChange
350
3A
  3
Conceptual
350
34
  3
Dim
350
35
  3
Facepattern
350
39
  3
Flat
350
2B
  3
FlatWithEdges
350
2C
  3
Gouraud
350
2D
  3
GouraudWithEdges
350
2E
  3
Linepattern
350
38
  3
Realistic
350
33
  3
Thicken
350
37
  0
DICTIONARY
  5
313
102
{ACAD_REACTORS
330
C
102
}
330
C
100
AcDbDictionary
281
     1
  3
DIMASSOC
350
316
  3
HIDETEXT
350
317
  0
LAYOUT
  5
1E
102
{ACAD_REACTORS
330
1A
102
}
330
1A
100
AcDbPlotSettings
  1

  2
none_device
  4

  6

 40
0.0
 41
0.0
 42
0.0
 43
0.0
 44
0.0
 45
0.0
 46
0.0
 47
0.0
 48
0.0
 49
0.0
140
0.0
141
0.0
142
1.0
143
1.0
 70
   688
 72
     0
 73
     0
 74
     5
  7

 75
    16
147
1.0
148
0.0
149
0.0
100
AcDbLayout
  1
Layout1
 70
     1
 71
     1
 10
0.0
 20
0.0
 11
12.0
 21
9.0
 12
0.0
 22
0.0
 32
0.0
 14
1.00000000000000E+20
 24
1.00000000000000E+20
 34
1.00000000000000E+20
 15
-1.00000000000000E+20
 25
-1.00000000000000E+20
 35
-1.00000000000000E+20
146
0.0
 13
0.0
 23
0.0
 33
0.0
 16
1.0
 26
0.0
 36
0.0
 17
0.0
 27
1.0
 37
0.0
 76
     0
330
1B
  0
LAYOUT
  5
26
102
{ACAD_REACTORS
330
1A
102
}
330
1A
100
AcDbPlotSettings
  1

  2
none_device
  4

  6

 40
0.0
 41
0.0
 42
0.0
 43
0.0
 44
0.0
 45
0.0
 46
0.0
 47
0.0
 48
0.0
 49
0.0
140
0.0
141
0.0
142
1.0
143
1.0
 70
   688
 72
     0
 73
     0
 74
     5
  7

 75
    16
147
1.0
148
0.0
149
0.0
100
AcDbLayout
  1
Layout2
 70
     1
 71
     2
 10
0.0
 20
0.0
 11
0.0
 21
0.0
 12
0.0
 22
0.0
 32
0.0
 14
0.0
 24
0.0
 34
0.0
 15
0.0
 25
0.0
 35
0.0
146
0.0
 13
0.0
 23
0.0
 33
0.0
 16
1.0
 26
0.0
 36
0.0
 17
0.0
 27
1.0
 37
0.0
 76
     0
330
23
  0
LAYOUT
  5
22
102
{ACAD_REACTORS
330
1A
102
}
330
1A
100
AcDbPlotSettings
  1

  2
none_device
  4

  6

 40
0.0
 41
0.0
 42
0.0
 43
0.0
 44
0.0
 45
0.0
 46
0.0
 47
0.0
 48
0.0
 49
0.0
140
0.0
141
0.0
142
1.0
143
1.0
 70
  1712
 72
     0
 73
     0
 74
     0
  7

 75
     0
147
1.0
148
0.0
149
0.0
100
AcDbLayout
  1
Model
 70
     1
 71
     0
 10
0.0
 20
0.0
 11
12.0
 21
9.0
 12
0.0
 22
0.0
 32
0.0
 14
0.0
 24
0.0
 34
0.0
 15
315.0
 25
445.5
 35
0.0
146
0.0
 13
0.0
 23
0.0
 33
0.0
 16
1.0
 26
0.0
 36
0.0
 17
0.0
 27
1.0
 37
0.0
 76
     0
330
1F
331
29
  0
MATERIAL
  5
3D
102
{ACAD_REACTORS
330
3B
102
}
102
{ACAD_XDICTIONARY
360
33A
102
}
330
3B
100
AcDbMaterial
  1
ByBlock
  0
MATERIAL
  5
3C
102
{ACAD_REACTORS
330
3B
102
}
102
{ACAD_XDICTIONARY
360
338
102
}
330
3B
100
AcDbMaterial
  1
ByLayer
  0
MATERIAL
  5
3E
102
{ACAD_REACTORS
330
3B
102
}
102
{ACAD_XDICTIONARY
360
33C
102
}
330
3B
100
AcDbMaterial
  1
Global
  0
MLINESTYLE
  5
18
102
{ACAD_REACTORS
330
17
102
}
330
17
100
AcDbMlineStyle
  2
Standard
 70
     0
  3

 62
   256
 51
90.0
 52
90.0
 71
     2
 49
0.5
 62
   256
  6
BYLAYER
 49
-0.5
 62
   256
  6
BYLAYER
  0
ACDBPLACEHOLDER
  5
F
102
{ACAD_REACTORS
330
E
102
}
330
E
  0
VISUALSTYLE
  5
2F
102
{ACAD_REACTORS
330
2A
102
}
102
{ACAD_XDICTIONARY
360
320
102
}
330
2A
100
AcDbVisualStyle
  2
2dWireframe
 70
     4
 71
     0
 72
     2
 73
     0
 90
        0
 40
-0.6
 41
-30.0
 62
     5
 63
     7
 74
     1
 91
        4
 64
     7
 65
   257
 75
     1
175
     1
 42
1.0
 92
        0
 66
   257
 43
1.0
 76
     1
 77
     6
 78
     2
 67
     7
 79
     5
170
     0
171
     0
290
     0
174
     0
 93
        1
 44
0.0
173
     0
291
     0
 45
0.0
1001
ACAD
1000
AcDbSavedByObjectVersion
1070
     0
  0
VISUALSTYLE
  5
31
102
{ACAD_REACTORS
330
2A
102
}
102
{ACAD_XDICTIONARY
360
324
102
}
330
2A
100
AcDbVisualStyle
  2
3D Hidden
 70
     6
 71
     1
 72
     2
 73
     2
 90
        0
 40
-0.6
 41
-30.0
 62
     5
 63
     7
 74
     2
 91
        2
 64
     7
 65
   257
 75
     2
175
     1
 42
40.0
 92
        0
 66
   257
 43
1.0
 76
     1
 77
     6
 78
     2
 67
     7
 79
     3
170
     0
171
     0
290
     0
174
     0
 93
        1
 44
0.0
173
     0
291
     0
 45
0.0
1001
ACAD
1000
AcDbSavedByObjectVersion
1070
     0
  0
VISUALSTYLE
  5
30
102
{ACAD_REACTORS
330
2A
102
}
102
{ACAD_XDICTIONARY
360
322
102
}
330
2A
100
AcDbVisualStyle
  2
3dWireframe
 70
     5
 71
     0
 72
     2
 73
     0
 90
        0
 40
-0.6
 41
-30.0
 62
     5
 63
     7
 74
     1
 91
        4
 64
     7
 65
   257
 75
     1
175
     1
 42
1.0
 92
        0
 66
   257
 43
1.0
 76
     1
 77
     6
 78
     2
 67
     7
 79
     5
170
     0
171
     0
290
     0
174
     0
 93
        1
 44
0.0
173
     0
291
     0
 45
0.0
1001
ACAD
1000
AcDbSavedByObjectVersion
1070
     0
  0
VISUALSTYLE
  5
32
102
{ACAD_REACTORS
330
2A
102
}
102
{ACAD_XDICTIONARY
360
326
102
}
330
2A
100
AcDbVisualStyle
  2
Basic
 70
     7
 71
     1
 72
     0
 73
     1
 90
        0
 40
-0.6
 41
-30.0
 62
     5
 63
     7
 74
     0
 91
        4
 64
     7
 65
   257
 75
     1
175
     1
 42
1.0
 92
        8
 66
     7
 43
1.0
 76
     1
 77
     6
 78
     2
 67
     7
 79
     5
170
     0
171
     0
290
     0
174
     0
 93
        1
 44
0.0
173
     0
291
     1
 45
0.0
1001
ACAD
1000
AcDbSavedByObjectVersion
1070
     0
  0
VISUALSTYLE
  5
36
102
{ACAD_REACTORS
330
2A
102
}
102
{ACAD_XDICTIONARY
360
32E
102
}
330
2A
100
AcDbVisualStyle
  2
Brighten
 70
    12
 71
     2
 72
     2
 73
     0
 90
        0
 40
-0.6
 41
-30.0
 62
     5
 63
     7
 74
     1
 91
        4
 64
     7
 65
   257
 75
     1
175
     1
 42
1.0
 92
        8
 66
     7
 43
1.0
 76
     1
 77
     6
 78
     2
 67
     7
 79
     5
170
     0
171
     0
290
     0
174
     0
 93
        1
 44
50.0
173
     0
291
     1
 45
0.0
1001
ACAD
1000
AcDbSavedByObjectVersion
1070
     0
  0
VISUALSTYLE
  5
3A
102
{ACAD_REACTORS
330
2A
102
}
102
{ACAD_XDICTIONARY
360
336
102
}
330
2A
100
AcDbVisualStyle
  2
ColorChange
 70
    16
 71
     2
 72
     2
 73
     3
 90
        0
 40
-0.6
 41
-30.0
 62
     5
 63
     8
 74
     1
 91
        4
 64
     7
 65
   257
 75
     1
175
     1
 42
1.0
 92
        8
 66
     8
 43
1.0
 76
     1
 77
     6
 78
     2
 67
     7
 79
     5
170
     0
171
     0
290
     0
174
     0
 93
        1
 44
0.0
173
     0
291
     1
 45
0.0
1001
ACAD
1000
AcDbSavedByObjectVersion
1070
     0
  0
VISUALSTYLE
  5
34
102
{ACAD_REACTORS
330
2A
102
}
102
{ACAD_XDICTIONARY
360
32A
102
}
330
2A
100
AcDbVisualStyle
  2
Conceptual
 70
     9
 71
     3
 72
     2
 73
     0
 90
        0
 40
-0.6
 41
-30.0
 62
     5
 63
     7
 74
     2
 91
        2
 64
     7
 65
   257
 75
     1
175
     1
 42
40.0
 92
        8
 66
     7
 43
1.0
 76
     1
 77
     6
 78
     2
 67
     7
 79
     3
170
     0
171
     0
290
     0
174
     0
 93
        1
 44
0.0
173
     0
291
     0
 45
0.0
1001
ACAD
1000
AcDbSavedByObjectVersion
1070
     0
  0
VISUALSTYLE
  5
35
102
{ACAD_REACTORS
330
2A
102
}
102
{ACAD_XDICTIONARY
360
32C
102
}
330
2A
100
AcDbVisualStyle
  2
Dim
 70
    11
 71
     2
 72
     2
 73
     0
 90
        0
 40
-0.6
 41
-30.0
 62
     5
 63
     7
 74
     1
 91
        4
 64
     7
 65
   257
 75
     1
175
     1
 42
1.0
 92
        8
 66
     7
 43
1.0
 76
     1
 77
     6
 78
     2
 67
     7
 79
     5
170
     0
171
     0
290
     0
174
     0
 93
        1
 44
-50.0
173
     0
291
     1
 45
0.0
1001
ACAD
1000
AcDbSavedByObjectVersion
1070
     0
  0
VISUALSTYLE
  5
39
102
{ACAD_REACTORS
330
2A
102
}
102
{ACAD_XDICTIONARY
360
334
102
}
330
2A
100
AcDbVisualStyle
  2
Facepattern
 70
    15
 71
     2
 72
     2
 73
     0
 90
        0
 40
-0.6
 41
-30.0
 62
     5
 63
     7
 74
     1
 91
        4
 64
     7
 65
   257
 75
     1
175
     1
 42
1.0
 92
        8
 66
     7
 43
1.0
 76
     1
 77
     6
 78
     2
 67
     7
 79
     5
170
     0
171
     0
290
     0
174
     0
 93
        1
 44
0.0
173
     0
291
     1
 45
0.0
1001
ACAD
1000
AcDbSavedByObjectVersion
1070
     0
  0
VISUALSTYLE
  5
2B
102
{ACAD_REACTORS
330
2A
102
}
102
{ACAD_XDICTIONARY
360
318
102
}
330
2A
100
AcDbVisualStyle
  2
Flat
 70
     0
 71
     2
 72
     1
 73
     1
 90
        2
 40
-0.6
 41
30.0
 62
     5
 63
     7
 74
     0
 91
        4
 64
     7
 65
   257
 75
     1
175
     1
 42
1.0
 92
        8
 66
     7
 43
1.0
 76
     1
 77
     6
 78
     2
 67
     7
 79
     5
170
     0
171
     0
290
     0
174
     0
 93
       13
 44
0.0
173
     0
291
     1
 45
0.0
1001
ACAD
1000
AcDbSavedByObjectVersion
1070
     0
  0
VISUALSTYLE
  5
2C
102
{ACAD_REACTORS
330
2A
102
}
102
{ACAD_XDICTIONARY
360
31A
102
}
330
2A
100
AcDbVisualStyle
  2
FlatWithEdges
 70
     1
 71
     2
 72
     1
 73
     1
 90
        2
 40
-0.6
 41
30.0
 62
     5
 63
     7
 74
     1
 91
        4
 64
     7
 65
   257
 75
     1
175
     1
 42
1.0
 92
        0
 66
   257
 43
1.0
 76
     1
 77
     6
 78
     2
 67
     7
 79
     5
170
     0
171
     0
290
     0
174
     0
 93
       13
 44
0.0
173
     0
291
     1
 45
0.0
1001
ACAD
1000
AcDbSavedByObjectVersion
1070
     0
  0
VISUALSTYLE
  5
2D
102
{ACAD_REACTORS
330
2A
102
}
102
{ACAD_XDICTIONARY
360
31C
102
}
330
2A
100
AcDbVisualStyle
  2
Gouraud
 70
     2
 71
     2
 72
     2
 73
     1
 90
        2
 40
-0.6
 41
30.0
 62
     5
 63
     7
 74
     0
 91
        4
 64
     7
 65
   257
 75
     1
175
     1
 42
1.0
 92
        0
 66
     7
 43
1.0
 76
     1
 77
     6
 78
     2
 67
     7
 79
     5
170
     0
171
     0
290
     0
174
     0
 93
       13
 44
0.0
173
     0
291
     1
 45
0.0
1001
ACAD
1000
AcDbSavedByObjectVersion
1070
     0
  0
VISUALSTYLE
  5
2E
102
{ACAD_REACTORS
330
2A
102
}
102
{ACAD_XDICTIONARY
360
31E
102
}
330
2A
100
AcDbVisualStyle
  2
GouraudWithEdges
 70
     3
 71
     2
 72
     2
 73
     1
 90
        2
 40
-0.6
 41
30.0
 62
     5
 63
     7
 74
     1
 91
        4
 64
     7
 65
   257
 75
     1
175
     1
 42
1.0
 92
        0
 66
   257
 43
1.0
 76
     1
 77
     6
 78
     2
 67
     7
 79
     5
170
     0
171
     0
290
     0
174
     0
 93
       13
 44
0.0
173
     0
291
     1
 45
0.0
1001
ACAD
1000
AcDbSavedByObjectVersion
1070
     0
  0
VISUALSTYLE
  5
38
102
{ACAD_REACTORS
330
2A
102
}
102
{ACAD_XDICTIONARY
360
332
102
}
330
2A
100
AcDbVisualStyle
  2
Linepattern
 70
    14
 71
     2
 72
     2
 73
     0
 90
        0
 40
-0.6
 41
-30.0
 62
     5
 63
     7
 74
     1
 91
        4
 64
     7
 65
   257
 75
     7
175
     7
 42
1.0
 92
        8
 66
     7
 43
1.0
 76
     1
 77
     6
 78
     2
 67
     7
 79
     5
170
     0
171
     0
290
     0
174
     0
 93
        1
 44
0.0
173
     0
291
     1
 45
0.0
1001
ACAD
1000
AcDbSavedByObjectVersion
1070
     0
  0
VISUALSTYLE
  5
33
102
{ACAD_REACTORS
330
2A
102
}
102
{ACAD_XDICTIONARY
360
328
102
}
330
2A
100
AcDbVisualStyle
  2
Realistic
 70
     8
 71
     2
 72
     2
 73
     0
 90
        0
 40
-0.6
 41
-30.0
 62
     5
 63
     7
 74
     1
 91
        0
 64
     7
 65
   257
 75
     1
175
     1
 42
1.0
 92
        8
 66
     8
 43
1.0
 76
     1
 77
     6
 78
     2
 67
     7
 79
     5
170
     0
171
     0
290
     0
174
     0
 93
       13
 44
0.0
173
     0
291
     0
 45
0.0
1001
ACAD
1000
AcDbSavedByObjectVersion
1070
     0
  0
VISUALSTYLE
  5
37
102
{ACAD_REACTORS
330
2A
102
}
102
{ACAD_XDICTIONARY
360
330
102
}
330
2A
100
AcDbVisualStyle
  2
Thicken
 70
    13
 71
     2
 72
     2
 73
     0
 90
        0
 40
-0.6
 41
-30.0
 62
     5
 63
     7
 74
     1
 91
        4
 64
     7
 65
   257
 75
     1
175
     1
 42
1.0
 92
       12
 66
     7
 43
1.0
 76
     1
 77
     6
 78
     2
 67
     7
 79
     5
170
     0
171
     0
290
     0
174
     0
 93
        1
 44
0.0
173
     0
291
     1
 45
0.0
1001
ACAD
1000
AcDbSavedByObjectVersion
1070
     0
  0
DICTIONARYVAR
  5
316
102
{ACAD_REACTORS
330
313
102
}
330
313
100
DictionaryVariables
280
     0
  1
2
  0
DICTIONARYVAR
  5
317
102
{ACAD_REACTORS
330
313
102
}
330
313
100
DictionaryVariables
280
     0
  1
1
  0
DICTIONARY
  5
33A
330
3D
100
AcDbDictionary
280
     1
281
     1
  3
ACAD_XREC_ROUNDTRIP
360
33B
  0
DICTIONARY
  5
338
330
3C
100
AcDbDictionary
280
     1
281
     1
  3
ACAD_XREC_ROUNDTRIP
360
339
  0
DICTIONARY
  5
33C
330
3E
100
AcDbDictionary
280
     1
281
     1
  3
ACAD_XREC_ROUNDTRIP
360
33D
  0
DICTIONARY
  5
320
330
2F
100
AcDbDictionary
280
     1
281
     1
  3
ACAD_XREC_ROUNDTRIP
360
321
  0
DICTIONARY
  5
324
330
31
100
AcDbDictionary
280
     1
281
     1
  3
ACAD_XREC_ROUNDTRIP
360
325
  0
DICTIONARY
  5
322
330
30
100
AcDbDictionary
280
     1
281
     1
  3
ACAD_XREC_ROUNDTRIP
360
323
  0
DICTIONARY
  5
326
330
32
100
AcDbDictionary
280
     1
281
     1
  3
ACAD_XREC_ROUNDTRIP
360
327
  0
DICTIONARY
  5
32E
330
36
100
AcDbDictionary
280
     1
281
     1
  3
ACAD_XREC_ROUNDTRIP
360
32F
  0
DICTIONARY
  5
336
330
3A
100
AcDbDictionary
280
     1
281
     1
  3
ACAD_XREC_ROUNDTRIP
360
337
  0
DICTIONARY
  5
32A
330
34
100
AcDbDictionary
280
     1
281
     1
  3
ACAD_XREC_ROUNDTRIP
360
32B
  0
DICTIONARY
  5
32C
330
35
100
AcDbDictionary
280
     1
281
     1
  3
ACAD_XREC_ROUNDTRIP
360
32D
  0
DICTIONARY
  5
334
330
39
100
AcDbDictionary
280
     1
281
     1
  3
ACAD_XREC_ROUNDTRIP
360
335
  0
DICTIONARY
  5
318
330
2B
100
AcDbDictionary
280
     1
281
     1
  3
ACAD_XREC_ROUNDTRIP
360
319
  0
DICTIONARY
  5
31A
330
2C
100
AcDbDictionary
280
     1
281
     1
  3
ACAD_XREC_ROUNDTRIP
360
31B
  0
DICTIONARY
  5
31C
330
2D
100
AcDbDictionary
280
     1
281
     1
  3
ACAD_XREC_ROUNDTRIP
360
31D
  0
DICTIONARY
  5
31E
330
2E
100
AcDbDictionary
280
     1
281
     1
  3
ACAD_XREC_ROUNDTRIP
360
31F
  0
DICTIONARY
  5
332
330
38
100
AcDbDictionary
280
     1
281
     1
  3
ACAD_XREC_ROUNDTRIP
360
333
  0
DICTIONARY
  5
328
330
33
100
AcDbDictionary
280
     1
281
     1
  3
ACAD_XREC_ROUNDTRIP
360
329
  0
DICTIONARY
  5
330
330
37
100
AcDbDictionary
280
     1
281
     1
  3
ACAD_XREC_ROUNDTRIP
360
331
  0
XRECORD
  5
33B
102
{ACAD_REACTORS
330
33A
102
}
330
33A
100
AcDbXrecord
280
     1
102
MATERIAL
148
0.0
149
0.0
149
0.0
 93
        0
 94
      127
282
     0
 72
     1
 77
     1
171
     1
175
     1
179
     1
273
     0
  0
XRECORD
  5
339
102
{ACAD_REACTORS
330
338
102
}
330
338
100
AcDbXrecord
280
     1
102
MATERIAL
148
0.0
149
0.0
149
0.0
 93
        0
 94
      127
282
     0
 72
     1
 77
     1
171
     1
175
     1
179
     1
273
     0
  0
XRECORD
  5
33D
102
{ACAD_REACTORS
330
33C
102
}
330
33C
100
AcDbXrecord
280
     1
102
MATERIAL
148
0.0
149
0.0
149
0.0
 93
        0
 94
      127
282
     0
 72
     1
 77
     1
171
     1
175
     1
179
     1
273
     0
  0
XRECORD
  5
321
102
{ACAD_REACTORS
330
320
102
}
330
320
100
AcDbXrecord
280
     1
102
RTVSPropertyOp0
 70
     1
102
RTVSPropertyOp1
 70
     1
102
RTVSPropertyOp2
 70
     1
102
RTVSPropertyOp3
 70
     1
102
RTVSPropertyOp4
 70
     1
102
RTVSPropertyOp5
 70
     1
102
RTVSPropertyOp6
 70
     1
102
RTVSPropertyOp7
 70
     1
102
RTVSPropertyOp8
 70
     1
102
RTVSPropertyOp9
 70
     1
102
RTVSPropertyOp10
 70
     1
102
RTVSPropertyOp11
 70
     1
102
RTVSPropertyOp12
 70
     1
102
RTVSPropertyOp13
 70
     1
102
RTVSPropertyOp14
 70
     1
102
RTVSPropertyOp15
 70
     1
102
RTVSPropertyOp16
 70
     1
102
RTVSPropertyOp17
 70
     1
102
RTVSPropertyOp18
 70
     1
102
RTVSPropertyOp19
 70
     1
102
RTVSPropertyOp20
 70
     1
102
RTVSPropertyOp21
 70
     1
102
RTVSPropertyOp22
 70
     1
102
RTVSPropertyOp23
 70
     1
102
RTVSPropertyOp24
 70
     1
102
RTVSPropertyOp25
 70
     1
102
RTVSPropertyOp26
 70
     1
102
RTVSPropertyOp27
 70
     1
102
RTVSPropertyOp28
 70
     1
102
RTVSPropertyOp29
 70
     1
102
RTVSPropertyOp30
 70
     1
102
RTVSPropertyOp31
 70
     1
102
RTVSPropertyOp32
 70
     1
  0
XRECORD
  5
325
102
{ACAD_REACTORS
330
324
102
}
330
324
100
AcDbXrecord
280
     1
102
RTVSPropertyOp0
 70
     1
102
RTVSPropertyOp1
 70
     1
102
RTVSPropertyOp2
 70
     1
102
RTVSPropertyOp3
 70
     1
102
RTVSPropertyOp4
 70
     1
102
RTVSPropertyOp5
 70
     1
102
RTVSPropertyOp6
 70
     1
102
RTVSPropertyOp7
 70
     1
102
RTVSPropertyOp8
 70
     1
102
RTVSPropertyOp9
 70
     1
102
RTVSPropertyOp10
 70
     1
102
RTVSPropertyOp11
 70
     1
102
RTVSPropertyOp12
 70
     1
102
RTVSPropertyOp13
 70
     1
102
RTVSPropertyOp14
 70
     1
102
RTVSPropertyOp15
 70
     1
102
RTVSPropertyOp16
 70
     1
102
RTVSPropertyOp17
 70
     1
102
RTVSPropertyOp18
 70
     1
102
RTVSPropertyOp19
 70
     1
102
RTVSPropertyOp20
 70
     1
102
RTVSPropertyOp21
 70
     1
102
RTVSPropertyOp22
 70
     1
102
RTVSPropertyOp23
 70
     1
102
RTVSPropertyOp24
 70
     1
102
RTVSPropertyOp25
 70
     1
102
RTVSPropertyOp26
 70
     1
102
RTVSPropertyOp27
 70
     1
102
RTVSPropertyOp28
 70
     1
102
RTVSPropertyOp29
 70
     1
102
RTVSPropertyOp30
 70
     1
102
RTVSPropertyOp31
 70
     1
102
RTVSPropertyOp32
 70
     1
  0
XRECORD
  5
323
102
{ACAD_REACTORS
330
322
102
}
330
322
100
AcDbXrecord
280
     1
102
RTVSPropertyOp0
 70
     1
102
RTVSPropertyOp1
 70
     1
102
RTVSPropertyOp2
 70
     1
102
RTVSPropertyOp3
 70
     1
102
RTVSPropertyOp4
 70
     1
102
RTVSPropertyOp5
 70
     1
102
RTVSPropertyOp6
 70
     1
102
RTVSPropertyOp7
 70
     1
102
RTVSPropertyOp8
 70
     1
102
RTVSPropertyOp9
 70
     1
102
RTVSPropertyOp10
 70
     1
102
RTVSPropertyOp11
 70
     1
102
RTVSPropertyOp12
 70
     1
102
RTVSPropertyOp13
 70
     1
102
RTVSPropertyOp14
 70
     1
102
RTVSPropertyOp15
 70
     1
102
RTVSPropertyOp16
 70
     1
102
RTVSPropertyOp17
 70
     1
102
RTVSPropertyOp18
 70
     1
102
RTVSPropertyOp19
 70
     1
102
RTVSPropertyOp20
 70
     1
102
RTVSPropertyOp21
 70
     1
102
RTVSPropertyOp22
 70
     1
102
RTVSPropertyOp23
 70
     1
102
RTVSPropertyOp24
 70
     1
102
RTVSPropertyOp25
 70
     1
102
RTVSPropertyOp26
 70
     1
102
RTVSPropertyOp27
 70
     1
102
RTVSPropertyOp28
 70
     1
102
RTVSPropertyOp29
 70
     1
102
RTVSPropertyOp30
 70
     1
102
RTVSPropertyOp31
 70
     1
102
RTVSPropertyOp32
 70
     1
  0
XRECORD
  5
327
102
{ACAD_REACTORS
330
326
102
}
330
326
100
AcDbXrecord
280
     1
102
RTVSPropertyOp0
 70
     1
102
RTVSPropertyOp1
 70
     1
102
RTVSPropertyOp2
 70
     1
102
RTVSPropertyOp3
 70
     1
102
RTVSPropertyOp4
 70
     1
102
RTVSPropertyOp5
 70
     1
102
RTVSPropertyOp6
 70
     1
102
RTVSPropertyOp7
 70
     1
102
RTVSPropertyOp8
 70
     1
102
RTVSPropertyOp9
 70
     1
102
RTVSPropertyOp10
 70
     1
102
RTVSPropertyOp11
 70
     1
102
RTVSPropertyOp12
 70
     1
102
RTVSPropertyOp13
 70
     1
102
RTVSPropertyOp14
 70
     1
102
RTVSPropertyOp15
 70
     1
102
RTVSPropertyOp16
 70
     1
102
RTVSPropertyOp17
 70
     1
102
RTVSPropertyOp18
 70
     1
102
RTVSPropertyOp19
 70
     1
102
RTVSPropertyOp20
 70
     1
102
RTVSPropertyOp21
 70
     1
102
RTVSPropertyOp22
 70
     1
102
RTVSPropertyOp23
 70
     1
102
RTVSPropertyOp24
 70
     1
102
RTVSPropertyOp25
 70
     1
102
RTVSPropertyOp26
 70
     1
102
RTVSPropertyOp27
 70
     1
102
RTVSPropertyOp28
 70
     1
102
RTVSPropertyOp29
 70
     1
102
RTVSPropertyOp30
 70
     1
102
RTVSPropertyOp31
 70
     1
102
RTVSPropertyOp32
 70
     1
  0
XRECORD
  5
32F
102
{ACAD_REACTORS
330
32E
102
}
330
32E
100
AcDbXrecord
280
     1
102
RTVSPropertyOp0
 70
     1
102
RTVSPropertyOp1
 70
     1
102
RTVSPropertyOp2
 70
     1
102
RTVSPropertyOp3
 70
     1
102
RTVSPropertyOp4
 70
     1
102
RTVSPropertyOp5
 70
     1
102
RTVSPropertyOp6
 70
     1
102
RTVSPropertyOp7
 70
     1
102
RTVSPropertyOp8
 70
     1
102
RTVSPropertyOp9
 70
     1
102
RTVSPropertyOp10
 70
     1
102
RTVSPropertyOp11
 70
     1
102
RTVSPropertyOp12
 70
     1
102
RTVSPropertyOp13
 70
     1
102
RTVSPropertyOp14
 70
     1
102
RTVSPropertyOp15
 70
     1
102
RTVSPropertyOp16
 70
     1
102
RTVSPropertyOp17
 70
     1
102
RTVSPropertyOp18
 70
     1
102
RTVSPropertyOp19
 70
     1
102
RTVSPropertyOp20
 70
     1
102
RTVSPropertyOp21
 70
     1
102
RTVSPropertyOp22
 70
     1
102
RTVSPropertyOp23
 70
     1
102
RTVSPropertyOp24
 70
     1
102
RTVSPropertyOp25
 70
     1
102
RTVSPropertyOp26
 70
     1
102
RTVSPropertyOp27
 70
     1
102
RTVSPropertyOp28
 70
     1
102
RTVSPropertyOp29
 70
     1
102
RTVSPropertyOp30
 70
     1
102
RTVSPropertyOp31
 70
     1
102
RTVSPropertyOp32
 70
     1
  0
XRECORD
  5
337
102
{ACAD_REACTORS
330
336
102
}
330
336
100
AcDbXrecord
280
     1
102
RTVSPropertyOp0
 70
     1
102
RTVSPropertyOp1
 70
     1
102
RTVSPropertyOp2
 70
     1
102
RTVSPropertyOp3
 70
     1
102
RTVSPropertyOp4
 70
     1
102
RTVSPropertyOp5
 70
     1
102
RTVSPropertyOp6
 70
     1
102
RTVSPropertyOp7
 70
     1
102
RTVSPropertyOp8
 70
     1
102
RTVSPropertyOp9
 70
     1
102
RTVSPropertyOp10
 70
     1
102
RTVSPropertyOp11
 70
     1
102
RTVSPropertyOp12
 70
     1
102
RTVSPropertyOp13
 70
     1
102
RTVSPropertyOp14
 70
     1
102
RTVSPropertyOp15
 70
     1
102
RTVSPropertyOp16
 70
     1
102
RTVSPropertyOp17
 70
     1
102
RTVSPropertyOp18
 70
     1
102
RTVSPropertyOp19
 70
     1
102
RTVSPropertyOp20
 70
     1
102
RTVSPropertyOp21
 70
     1
102
RTVSPropertyOp22
 70
     1
102
RTVSPropertyOp23
 70
     1
102
RTVSPropertyOp24
 70
     1
102
RTVSPropertyOp25
 70
     1
102
RTVSPropertyOp26
 70
     1
102
RTVSPropertyOp27
 70
     1
102
RTVSPropertyOp28
 70
     1
102
RTVSPropertyOp29
 70
     1
102
RTVSPropertyOp30
 70
     1
102
RTVSPropertyOp31
 70
     1
102
RTVSPropertyOp32
 70
     1
  0
XRECORD
  5
32B
102
{ACAD_REACTORS
330
32A
102
}
330
32A
100
AcDbXrecord
280
     1
102
RTVSPropertyOp0
 70
     1
102
RTVSPropertyOp1
 70
     1
102
RTVSPropertyOp2
 70
     1
102
RTVSPropertyOp3
 70
     1
102
RTVSPropertyOp4
 70
     1
102
RTVSPropertyOp5
 70
     1
102
RTVSPropertyOp6
 70
     1
102
RTVSPropertyOp7
 70
     1
102
RTVSPropertyOp8
 70
     1
102
RTVSPropertyOp9
 70
     1
102
RTVSPropertyOp10
 70
     1
102
RTVSPropertyOp11
 70
     1
102
RTVSPropertyOp12
 70
     1
102
RTVSPropertyOp13
 70
     1
102
RTVSPropertyOp14
 70
     1
102
RTVSPropertyOp15
 70
     1
102
RTVSPropertyOp16
 70
     1
102
RTVSPropertyOp17
 70
     1
102
RTVSPropertyOp18
 70
     1
102
RTVSPropertyOp19
 70
     1
102
RTVSPropertyOp20
 70
     1
102
RTVSPropertyOp21
 70
     1
102
RTVSPropertyOp22
 70
     1
102
RTVSPropertyOp23
 70
     1
102
RTVSPropertyOp24
 70
     1
102
RTVSPropertyOp25
 70
     1
102
RTVSPropertyOp26
 70
     1
102
RTVSPropertyOp27
 70
     1
102
RTVSPropertyOp28
 70
     1
102
RTVSPropertyOp29
 70
     1
102
RTVSPropertyOp30
 70
     1
102
RTVSPropertyOp31
 70
     1
102
RTVSPropertyOp32
 70
     1
  0
XRECORD
  5
32D
102
{ACAD_REACTORS
330
32C
102
}
330
32C
100
AcDbXrecord
280
     1
102
RTVSPropertyOp0
 70
     1
102
RTVSPropertyOp1
 70
     1
102
RTVSPropertyOp2
 70
     1
102
RTVSPropertyOp3
 70
     1
102
RTVSPropertyOp4
 70
     1
102
RTVSPropertyOp5
 70
     1
102
RTVSPropertyOp6
 70
     1
102
RTVSPropertyOp7
 70
     1
102
RTVSPropertyOp8
 70
     1
102
RTVSPropertyOp9
 70
     1
102
RTVSPropertyOp10
 70
     1
102
RTVSPropertyOp11
 70
     1
102
RTVSPropertyOp12
 70
     1
102
RTVSPropertyOp13
 70
     1
102
RTVSPropertyOp14
 70
     1
102
RTVSPropertyOp15
 70
     1
102
RTVSPropertyOp16
 70
     1
102
RTVSPropertyOp17
 70
     1
102
RTVSPropertyOp18
 70
     1
102
RTVSPropertyOp19
 70
     1
102
RTVSPropertyOp20
 70
     1
102
RTVSPropertyOp21
 70
     1
102
RTVSPropertyOp22
 70
     1
102
RTVSPropertyOp23
 70
     1
102
RTVSPropertyOp24
 70
     1
102
RTVSPropertyOp25
 70
     1
102
RTVSPropertyOp26
 70
     1
102
RTVSPropertyOp27
 70
     1
102
RTVSPropertyOp28
 70
     1
102
RTVSPropertyOp29
 70
     1
102
RTVSPropertyOp30
 70
     1
102
RTVSPropertyOp31
 70
     1
102
RTVSPropertyOp32
 70
     1
  0
XRECORD
  5
335
102
{ACAD_REACTORS
330
334
102
}
330
334
100
AcDbXrecord
280
     1
102
RTVSPropertyOp0
 70
     1
102
RTVSPropertyOp1
 70
     1
102
RTVSPropertyOp2
 70
     1
102
RTVSPropertyOp3
 70
     1
102
RTVSPropertyOp4
 70
     1
102
RTVSPropertyOp5
 70
     1
102
RTVSPropertyOp6
 70
     1
102
RTVSPropertyOp7
 70
     1
102
RTVSPropertyOp8
 70
     1
102
RTVSPropertyOp9
 70
     1
102
RTVSPropertyOp10
 70
     1
102
RTVSPropertyOp11
 70
     1
102
RTVSPropertyOp12
 70
     1
102
RTVSPropertyOp13
 70
     1
102
RTVSPropertyOp14
 70
     1
102
RTVSPropertyOp15
 70
     1
102
RTVSPropertyOp16
 70
     1
102
RTVSPropertyOp17
 70
     1
102
RTVSPropertyOp18
 70
     1
102
RTVSPropertyOp19
 70
     1
102
RTVSPropertyOp20
 70
     1
102
RTVSPropertyOp21
 70
     1
102
RTVSPropertyOp22
 70
     1
102
RTVSPropertyOp23
 70
     1
102
RTVSPropertyOp24
 70
     1
102
RTVSPropertyOp25
 70
     1
102
RTVSPropertyOp26
 70
     1
102
RTVSPropertyOp27
 70
     1
102
RTVSPropertyOp28
 70
     1
102
RTVSPropertyOp29
 70
     1
102
RTVSPropertyOp30
 70
     1
102
RTVSPropertyOp31
 70
     1
102
RTVSPropertyOp32
 70
     1
  0
XRECORD
  5
319
102
{ACAD_REACTORS
330
318
102
}
330
318
100
AcDbXrecord
280
     1
102
RTVSPropertyOp0
 70
     1
102
RTVSPropertyOp1
 70
     1
102
RTVSPropertyOp2
 70
     1
102
RTVSPropertyOp3
 70
     1
102
RTVSPropertyOp4
 70
     1
102
RTVSPropertyOp5
 70
     1
102
RTVSPropertyOp6
 70
     1
102
RTVSPropertyOp7
 70
     1
102
RTVSPropertyOp8
 70
     1
102
RTVSPropertyOp9
 70
     1
102
RTVSPropertyOp10
 70
     1
102
RTVSPropertyOp11
 70
     1
102
RTVSPropertyOp12
 70
     1
102
RTVSPropertyOp13
 70
     1
102
RTVSPropertyOp14
 70
     1
102
RTVSPropertyOp15
 70
     1
102
RTVSPropertyOp16
 70
     1
102
RTVSPropertyOp17
 70
     1
102
RTVSPropertyOp18
 70
     1
102
RTVSPropertyOp19
 70
     1
102
RTVSPropertyOp20
 70
     1
102
RTVSPropertyOp21
 70
     1
102
RTVSPropertyOp22
 70
     1
102
RTVSPropertyOp23
 70
     1
102
RTVSPropertyOp24
 70
     1
102
RTVSPropertyOp25
 70
     1
102
RTVSPropertyOp26
 70
     1
102
RTVSPropertyOp27
 70
     1
102
RTVSPropertyOp28
 70
     1
102
RTVSPropertyOp29
 70
     1
102
RTVSPropertyOp30
 70
     1
102
RTVSPropertyOp31
 70
     1
102
RTVSPropertyOp32
 70
     1
  0
XRECORD
  5
31B
102
{ACAD_REACTORS
330
31A
102
}
330
31A
100
AcDbXrecord
280
     1
102
RTVSPropertyOp0
 70
     1
102
RTVSPropertyOp1
 70
     1
102
RTVSPropertyOp2
 70
     1
102
RTVSPropertyOp3
 70
     1
102
RTVSPropertyOp4
 70
     1
102
RTVSPropertyOp5
 70
     1
102
RTVSPropertyOp6
 70
     1
102
RTVSPropertyOp7
 70
     1
102
RTVSPropertyOp8
 70
     1
102
RTVSPropertyOp9
 70
     1
102
RTVSPropertyOp10
 70
     1
102
RTVSPropertyOp11
 70
     1
102
RTVSPropertyOp12
 70
     1
102
RTVSPropertyOp13
 70
     1
102
RTVSPropertyOp14
 70
     1
102
RTVSPropertyOp15
 70
     1
102
RTVSPropertyOp16
 70
     1
102
RTVSPropertyOp17
 70
     1
102
RTVSPropertyOp18
 70
     1
102
RTVSPropertyOp19
 70
     1
102
RTVSPropertyOp20
 70
     1
102
RTVSPropertyOp21
 70
     1
102
RTVSPropertyOp22
 70
     1
102
RTVSPropertyOp23
 70
     1
102
RTVSPropertyOp24
 70
     1
102
RTVSPropertyOp25
 70
     1
102
RTVSPropertyOp26
 70
     1
102
RTVSPropertyOp27
 70
     1
102
RTVSPropertyOp28
 70
     1
102
RTVSPropertyOp29
 70
     1
102
RTVSPropertyOp30
 70
     1
102
RTVSPropertyOp31
 70
     1
102
RTVSPropertyOp32
 70
     1
  0
XRECORD
  5
31D
102
{ACAD_REACTORS
330
31C
102
}
330
31C
100
AcDbXrecord
280
     1
102
RTVSPropertyOp0
 70
     1
102
RTVSPropertyOp1
 70
     1
102
RTVSPropertyOp2
 70
     1
102
RTVSPropertyOp3
 70
     1
102
RTVSPropertyOp4
 70
     1
102
RTVSPropertyOp5
 70
     1
102
RTVSPropertyOp6
 70
     1
102
RTVSPropertyOp7
 70
     1
102
RTVSPropertyOp8
 70
     1
102
RTVSPropertyOp9
 70
     1
102
RTVSPropertyOp10
 70
     1
102
RTVSPropertyOp11
 70
     1
102
RTVSPropertyOp12
 70
     1
102
RTVSPropertyOp13
 70
     1
102
RTVSPropertyOp14
 70
     1
102
RTVSPropertyOp15
 70
     1
102
RTVSPropertyOp16
 70
     1
102
RTVSPropertyOp17
 70
     1
102
RTVSPropertyOp18
 70
     1
102
RTVSPropertyOp19
 70
     1
102
RTVSPropertyOp20
 70
     1
102
RTVSPropertyOp21
 70
     1
102
RTVSPropertyOp22
 70
     1
102
RTVSPropertyOp23
 70
     1
102
RTVSPropertyOp24
 70
     1
102
RTVSPropertyOp25
 70
     1
102
RTVSPropertyOp26
 70
     1
102
RTVSPropertyOp27
 70
     1
102
RTVSPropertyOp28
 70
     1
102
RTVSPropertyOp29
 70
     1
102
RTVSPropertyOp30
 70
     1
102
RTVSPropertyOp31
 70
     1
102
RTVSPropertyOp32
 70
     1
  0
XRECORD
  5
31F
102
{ACAD_REACTORS
330
31E
102
}
330
31E
100
AcDbXrecord
280
     1
102
RTVSPropertyOp0
 70
     1
102
RTVSPropertyOp1
 70
     1
102
RTVSPropertyOp2
 70
     1
102
RTVSPropertyOp3
 70
     1
102
RTVSPropertyOp4
 70
     1
102
RTVSPropertyOp5
 70
     1
102
RTVSPropertyOp6
 70
     1
102
RTVSPropertyOp7
 70
     1
102
RTVSPropertyOp8
 70
     1
102
RTVSPropertyOp9
 70
     1
102
RTVSPropertyOp10
 70
     1
102
RTVSPropertyOp11
 70
     1
102
RTVSPropertyOp12
 70
     1
102
RTVSPropertyOp13
 70
     1
102
RTVSPropertyOp14
 70
     1
102
RTVSPropertyOp15
 70
     1
102
RTVSPropertyOp16
 70
     1
102
RTVSPropertyOp17
 70
     1
102
RTVSPropertyOp18
 70
     1
102
RTVSPropertyOp19
 70
     1
102
RTVSPropertyOp20
 70
     1
102
RTVSPropertyOp21
 70
     1
102
RTVSPropertyOp22
 70
     1
102
RTVSPropertyOp23
 70
     1
102
RTVSPropertyOp24
 70
     1
102
RTVSPropertyOp25
 70
     1
102
RTVSPropertyOp26
 70
     1
102
RTVSPropertyOp27
 70
     1
102
RTVSPropertyOp28
 70
     1
102
RTVSPropertyOp29
 70
     1
102
RTVSPropertyOp30
 70
     1
102
RTVSPropertyOp31
 70
     1
102
RTVSPropertyOp32
 70
     1
  0
XRECORD
  5
333
102
{ACAD_REACTORS
330
332
102
}
330
332
100
AcDbXrecord
280
     1
102
RTVSPropertyOp0
 70
     1
102
RTVSPropertyOp1
 70
     1
102
RTVSPropertyOp2
 70
     1
102
RTVSPropertyOp3
 70
     1
102
RTVSPropertyOp4
 70
     1
102
RTVSPropertyOp5
 70
     1
102
RTVSPropertyOp6
 70
     1
102
RTVSPropertyOp7
 70
     1
102
RTVSPropertyOp8
 70
     1
102
RTVSPropertyOp9
 70
     1
102
RTVSPropertyOp10
 70
     1
102
RTVSPropertyOp11
 70
     1
102
RTVSPropertyOp12
 70
     1
102
RTVSPropertyOp13
 70
     1
102
RTVSPropertyOp14
 70
     1
102
RTVSPropertyOp15
 70
     1
102
RTVSPropertyOp16
 70
     1
102
RTVSPropertyOp17
 70
     1
102
RTVSPropertyOp18
 70
     1
102
RTVSPropertyOp19
 70
     1
102
RTVSPropertyOp20
 70
     1
102
RTVSPropertyOp21
 70
     1
102
RTVSPropertyOp22
 70
     1
102
RTVSPropertyOp23
 70
     1
102
RTVSPropertyOp24
 70
     1
102
RTVSPropertyOp25
 70
     1
102
RTVSPropertyOp26
 70
     1
102
RTVSPropertyOp27
 70
     1
102
RTVSPropertyOp28
 70
     1
102
RTVSPropertyOp29
 70
     1
102
RTVSPropertyOp30
 70
     1
102
RTVSPropertyOp31
 70
     1
102
RTVSPropertyOp32
 70
     1
  0
XRECORD
  5
329
102
{ACAD_REACTORS
330
328
102
}
330
328
100
AcDbXrecord
280
     1
102
RTVSPropertyOp0
 70
     1
102
RTVSPropertyOp1
 70
     1
102
RTVSPropertyOp2
 70
     1
102
RTVSPropertyOp3
 70
     1
102
RTVSPropertyOp4
 70
     1
102
RTVSPropertyOp5
 70
     1
102
RTVSPropertyOp6
 70
     1
102
RTVSPropertyOp7
 70
     1
102
RTVSPropertyOp8
 70
     1
102
RTVSPropertyOp9
 70
     1
102
RTVSPropertyOp10
 70
     1
102
RTVSPropertyOp11
 70
     1
102
RTVSPropertyOp12
 70
     1
102
RTVSPropertyOp13
 70
     1
102
RTVSPropertyOp14
 70
     1
102
RTVSPropertyOp15
 70
     1
102
RTVSPropertyOp16
 70
     1
102
RTVSPropertyOp17
 70
     1
102
RTVSPropertyOp18
 70
     1
102
RTVSPropertyOp19
 70
     1
102
RTVSPropertyOp20
 70
     1
102
RTVSPropertyOp21
 70
     1
102
RTVSPropertyOp22
 70
     1
102
RTVSPropertyOp23
 70
     1
102
RTVSPropertyOp24
 70
     1
102
RTVSPropertyOp25
 70
     1
102
RTVSPropertyOp26
 70
     1
102
RTVSPropertyOp27
 70
     1
102
RTVSPropertyOp28
 70
     1
102
RTVSPropertyOp29
 70
     1
102
RTVSPropertyOp30
 70
     1
102
RTVSPropertyOp31
 70
     1
102
RTVSPropertyOp32
 70
     1
  0
XRECORD
  5
331
102
{ACAD_REACTORS
330
330
102
}
330
330
100
AcDbXrecord
280
     1
102
RTVSPropertyOp0
 70
     1
102
RTVSPropertyOp1
 70
     1
102
RTVSPropertyOp2
 70
     1
102
RTVSPropertyOp3
 70
     1
102
RTVSPropertyOp4
 70
     1
102
RTVSPropertyOp5
 70
     1
102
RTVSPropertyOp6
 70
     1
102
RTVSPropertyOp7
 70
     1
102
RTVSPropertyOp8
 70
     1
102
RTVSPropertyOp9
 70
     1
102
RTVSPropertyOp10
 70
     1
102
RTVSPropertyOp11
 70
     1
102
RTVSPropertyOp12
 70
     1
102
RTVSPropertyOp13
 70
     1
102
RTVSPropertyOp14
 70
     1
102
RTVSPropertyOp15
 70
     1
102
RTVSPropertyOp16
 70
     1
102
RTVSPropertyOp17
 70
     1
102
RTVSPropertyOp18
 70
     1
102
RTVSPropertyOp19
 70
     1
102
RTVSPropertyOp20
 70
     1
102
RTVSPropertyOp21
 70
     1
102
RTVSPropertyOp22
 70
     1
102
RTVSPropertyOp23
 70
     1
102
RTVSPropertyOp24
 70
     1
102
RTVSPropertyOp25
 70
     1
102
RTVSPropertyOp26
 70
     1
102
RTVSPropertyOp27
 70
     1
102
RTVSPropertyOp28
 70
     1
102
RTVSPropertyOp29
 70
     1
102
RTVSPropertyOp30
 70
     1
102
RTVSPropertyOp31
 70
     1
102
RTVSPropertyOp32
 70
     1
  0
ENDSEC
  0
EOF
