  0
SECTION
  2
HEADER
  9
$ACADVER
  1
AC1015
  9
$ACADMAINTVER
 70
     6
  9
$DWGCODEPAGE
  3
ANSI_932
  9
$INSBASE
 10
0.0
 20
0.0
 30
0.0
  9
$EXTMIN
 10
0.0
 20
0.0
 30
0.0
  9
$EXTMAX
 10
315.0
 20
445.5
 30
0.0
  9
$LIMMIN
 10
0.0
 20
0.0
  9
$LIMMAX
 10
12.0
 20
9.0
  9
$ORTHOMODE
 70
     0
  9
$REGENMODE
 70
     1
  9
$FILLMODE
 70
     1
  9
$QTEXTMODE
 70
     0
  9
$MIRRTEXT
 70
     1
  9
$LTSCALE
 40
1.0
  9
$ATTMODE
 70
     1
  9
$TEXTSIZE
 40
0.2
  9
$TRACEWID
 40
0.05
  9
$TEXTSTYLE
  7
Standard
  9
$CLAYER
  8
0
  9
$CELTYPE
  6
ByLayer
  9
$CECOLOR
 62
   256
  9
$CELTSCALE
 40
1.0
  9
$DISPSILH
 70
     0
  9
$DIMSCALE
 40
1.0
  9
$DIMASZ
 40
0.18
  9
$DIMEXO
 40
0.0625
  9
$DIMDLI
 40
0.38
  9
$DIMRND
 40
0.0
  9
$DIMDLE
 40
0.0
  9
$DIMEXE
 40
0.18
  9
$DIMTP
 40
0.0
  9
$DIMTM
 40
0.0
  9
$DIMTXT
 40
0.18
  9
$DIMCEN
 40
0.09
  9
$DIMTSZ
 40
0.0
  9
$DIMTOL
 70
     0
  9
$DIMLIM
 70
     0
  9
$DIMTIH
 70
     1
  9
$DIMTOH
 70
     1
  9
$DIMSE1
 70
     0
  9
$DIMSE2
 70
     0
  9
$DIMTAD
 70
     0
  9
$DIMZIN
 70
     0
  9
$DIMBLK
  1

  9
$DIMASO
 70
     1
  9
$DIMSHO
 70
     1
  9
$DIMPOST
  1

  9
$DIMAPOST
  1

  9
$DIMALT
 70
     0
  9
$DIMALTD
 70
     2
  9
$DIMALTF
 40
25.4
  9
$DIMLFAC
 40
1.0
  9
$DIMTOFL
 70
     0
  9
$DIMTVP
 40
0.0
  9
$DIMTIX
 70
     0
  9
$DIMSOXD
 70
     0
  9
$DIMSAH
 70
     0
  9
$DIMBLK1
  1

  9
$DIMBLK2
  1

  9
$DIMSTYLE
  2
Standard
  9
$DIMCLRD
 70
     0
  9
$DIMCLRE
 70
     0
  9
$DIMCLRT
 70
     0
  9
$DIMTFAC
 40
1.0
  9
$DIMGAP
 40
0.09
  9
$DIMJUST
 70
     0
  9
$DIMSD1
 70
     0
  9
$DIMSD2
 70
     0
  9
$DIMTOLJ
 70
     1
  9
$DIMTZIN
 70
     0
  9
$DIMALTZ
 70
     0
  9
$DIMALTTZ
 70
     0
  9
$DIMUPT
 70
     0
  9
$DIMDEC
 70
     4
  9
$DIMTDEC
 70
     4
  9
$DIMALTU
 70
     2
  9
$DIMALTTD
 70
     2
  9
$DIMTXSTY
  7
Standard
  9
$DIMAUNIT
 70
     0
  9
$DIMADEC
 70
     0
  9
$DIMALTRND
 40
0.0
  9
$DIMAZIN
 70
     0
  9
$DIMDSEP
 70
    46
  9
$DIMATFIT
 70
     3
  9
$DIMFRAC
 70
     0
  9
$DIMLDRBLK
  1

  9
$DIMLUNIT
 70
     2
  9
$DIMLWD
 70
    -2
  9
$DIMLWE
 70
    -2
  9
$DIMTMOVE
 70
     0
  9
$LUNITS
 70
     2
  9
$LUPREC
 70
     4
  9
$SKETCHINC
 40
0.1
  9
$FILLETRAD
 40
0.5
  9
$AUNITS
 70
     0
  9
$AUPREC
 70
     0
  9
$MENU
  1
.
  9
$ELEVATION
 40
0.0
  9
$PELEVATION
 40
0.0
  9
$THICKNESS
 40
0.0
  9
$LIMCHECK
 70
     0
  9
$CHAMFERA
 40
0.5
  9
$CHAMFERB
 40
0.5
  9
$CHAMFERC
 40
1.0
  9
$CHAMFERD
 40
0.0
  9
$SKPOLY
 70
     0
  9
$TDCREATE
 40
2456556.602050555
  9
$TDUCREATE
 40
2456556.227050555
  9
$TDUPDATE
 40
2456556.602051644
  9
$TDUUPDATE
 40
2456556.227051644
  9
$TDINDWG
 40
0.0000000116
  9
$TDUSRTIMER
 40
0.0000000116
  9
$USRTIMER
 70
     1
  9
$ANGBASE
 50
0.0
  9
$ANGDIR
 70
     0
  9
$PDMODE
 70
     0
  9
$PDSIZE
 40
0.0
  9
$PLINEWID
 40
0.0
  9
$SPLFRAME
 70
     0
  9
$SPLINETYPE
 70
     6
  9
$SPLINESEGS
 70
     8
  9
$HANDSEED
  5
2BE
  9
$SURFTAB1
 70
     6
  9
$SURFTAB2
 70
     6
  9
$SURFTYPE
 70
     6
  9
$SURFU
 70
     6
  9
$SURFV
 70
     6
  9
$UCSBASE
  2

  9
$UCSNAME
  2

  9
$UCSORG
 10
0.0
 20
0.0
 30
0.0
  9
$UCSXDIR
 10
1.0
 20
0.0
 30
0.0
  9
$UCSYDIR
 10
0.0
 20
1.0
 30
0.0
  9
$UCSORTHOREF
  2

  9
$UCSORTHOVIEW
 70
     0
  9
$UCSORGTOP
 10
0.0
 20
0.0
 30
0.0
  9
$UCSORGBOTTOM
 10
0.0
 20
0.0
 30
0.0
  9
$UCSORGLEFT
 10
0.0
 20
0.0
 30
0.0
  9
$UCSORGRIGHT
 10
0.0
 20
0.0
 30
0.0
  9
$UCSORGFRONT
 10
0.0
 20
0.0
 30
0.0
  9
$UCSORGBACK
 10
0.0
 20
0.0
 30
0.0
  9
$PUCSBASE
  2

  9
$PUCSNAME
  2

  9
$PUCSORG
 10
0.0
 20
0.0
 30
0.0
  9
$PUCSXDIR
 10
1.0
 20
0.0
 30
0.0
  9
$PUCSYDIR
 10
0.0
 20
1.0
 30
0.0
  9
$PUCSORTHOREF
  2

  9
$PUCSORTHOVIEW
 70
     0
  9
$PUCSORGTOP
 10
0.0
 20
0.0
 30
0.0
  9
$PUCSORGBOTTOM
 10
0.0
 20
0.0
 30
0.0
  9
$PUCSORGLEFT
 10
0.0
 20
0.0
 30
0.0
  9
$PUCSORGRIGHT
 10
0.0
 20
0.0
 30
0.0
  9
$PUCSORGFRONT
 10
0.0
 20
0.0
 30
0.0
  9
$PUCSORGBACK
 10
0.0
 20
0.0
 30
0.0
  9
$USERI1
 70
     0
  9
$USERI2
 70
     0
  9
$USERI3
 70
     0
  9
$USERI4
 70
     0
  9
$USERI5
 70
     0
  9
$USERR1
 40
18.1
  9
$USERR2
 40
0.0
  9
$USERR3
 40
0.0
  9
$USERR4
 40
0.0
  9
$USERR5
 40
0.0
  9
$WORLDVIEW
 70
     1
  9
$SHADEDGE
 70
     3
  9
$SHADEDIF
 70
    70
  9
$TILEMODE
 70
     1
  9
$MAXACTVP
 70
    64
  9
$PINSBASE
 10
0.0
 20
0.0
 30
0.0
  9
$PLIMCHECK
 70
     0
  9
$PEXTMIN
 10
1.00000000000000E+20
 20
1.00000000000000E+20
 30
1.00000000000000E+20
  9
$PEXTMAX
 10
-1.00000000000000E+20
 20
-1.00000000000000E+20
 30
-1.00000000000000E+20
  9
$PLIMMIN
 10
0.0
 20
0.0
  9
$PLIMMAX
 10
12.0
 20
9.0
  9
$UNITMODE
 70
     0
  9
$VISRETAIN
 70
     1
  9
$PLINEGEN
 70
     0
  9
$PSLTSCALE
 70
     1
  9
$TREEDEPTH
 70
  3020
  9
$CMLSTYLE
  2
Standard
  9
$CMLJUST
 70
     0
  9
$CMLSCALE
 40
1.0
  9
$PROXYGRAPHICS
 70
     1
  9
$MEASUREMENT
 70
     1
  9
$CELWEIGHT
370
    -1
  9
$ENDCAPS
280
     0
  9
$JOINSTYLE
280
     0
  9
$LWDISPLAY
290
     0
  9
$INSUNITS
 70
     4
  9
$HYPERLINKBASE
  1

  9
$STYLESHEET
  1

  9
$XEDIT
290
     1
  9
$CEPSNTYPE
380
     0
  9
$PSTYLEMODE
290
     1
  9
$FINGERPRINTGUID
  2
{F1BA643D-A914-494D-8A40-FEB9A881716C}
  9
$VERSIONGUID
  2
{FAEB1C32-E019-11D5-929B-00C0DF256EC4}
  9
$EXTNAMES
290
     1
  9
$PSVPSCALE
 40
0.0
  9
$OLESTARTUP
290
     0
  0
ENDSEC
  0
SECTION
  2
CLASSES
  0
CLASS
  1
ACDBDICTIONARYWDFLT
  2
AcDbDictionaryWithDefault
  3
ObjectDBX Classes
 90
        0
280
     0
281
     0
  0
CLASS
  1
VISUALSTYLE
  2
AcDbVisualStyle
  3
ObjectDBX Classes
 90
     4095
280
     0
281
     0
  0
CLASS
  1
MATERIAL
  2
AcDbMaterial
  3
ObjectDBX Classes
 90
     1153
280
     0
281
     0
  0
CLASS
  1
DICTIONARYVAR
  2
AcDbDictionaryVar
  3
ObjectDBX Classes
 90
        0
280
     0
281
     0
  0
CLASS
  1
ACDBPLACEHOLDER
  2
AcDbPlaceHolder
  3
ObjectDBX Classes
 90
        0
280
     0
281
     0
  0
CLASS
  1
LAYOUT
  2
AcDbLayout
  3
ObjectDBX Classes
 90
        0
280
     0
281
     0
  0
ENDSEC
  0
SECTION
  2
TABLES
  0
TABLE
  2
VPORT
  5
8
330
0
100
AcDbSymbolTable
 70
     1
  0
VPORT
  5
29
330
8
100
AcDbSymbolTableRecord
100
AcDbViewportTableRecord
  2
*Active
 70
     0
 10
0.0
 20
0.0
 11
1.0
 21
1.0
 12
157.5
 22
222.75
 13
0.0
 23
0.0
 14
0.5
 24
0.5
 15
0.5
 25
0.5
 16
0.0
 26
0.0
 36
1.0
 17
0.0
 27
0.0
 37
0.0
 40
490.05
 41
1.60267857142857
 42
50.0
 43
0.0
 44
0.0
 50
0.0
 51
0.0
 71
     0
 72
   100
 73
     1
 74
     3
 75
     0
 76
     0
 77
     0
 78
     0
281
     0
 65
     1
110
0.0
120
0.0
130
0.0
111
1.0
121
0.0
131
0.0
112
0.0
122
1.0
132
0.0
 79
     0
146
0.0
  0
ENDTAB
  0
TABLE
  2
LTYPE
  5
5
330
0
100
AcDbSymbolTable
 70
     8
  0
LTYPE
  5
14
330
5
100
AcDbSymbolTableRecord
100
AcDbLinetypeTableRecord
  2
ByBlock
 70
     0
  3

 72
    65
 73
     0
 40
0.0
  0
LTYPE
  5
15
330
5
100
AcDbSymbolTableRecord
100
AcDbLinetypeTableRecord
  2
ByLayer
 70
     0
  3

 72
    65
 73
     0
 40
0.0
  0
LTYPE
  5
16
330
5
100
AcDbSymbolTableRecord
100
AcDbLinetypeTableRecord
  2
Continuous
 70
     0
  3
Solid line
 72
    65
 73
     0
 40
0.0
  0
LTYPE
  5
3F
330
5
100
AcDbSymbolTableRecord
100
AcDbLinetypeTableRecord
  2
DASHED
 70
     0
  3
Dashed
 72
    65
 73
     2
 40
15.0
 49
7.0
 74
     0
 49
-8.0
 74
     0
  0
LTYPE
  5
40
330
5
100
AcDbSymbolTableRecord
100
AcDbLinetypeTableRecord
  2
DOTTED
 70
     0
  3
Dotted
 72
    65
 73
     2
 40
1.0
 49
0.0
 74
     0
 49
-1.0
 74
     0
  0
LTYPE
  5
41
330
5
100
AcDbSymbolTableRecord
100
AcDbLinetypeTableRecord
  2
DOT_CENTER
 70
     0
  3
Dot_Center
 72
    65
 73
     4
 40
14.0
 49
12.0
 74
     0
 49
-1.0
 74
     0
 49
0.0
 74
     0
 49
-1.0
 74
     0
  0
LTYPE
  5
42
330
5
100
AcDbSymbolTableRecord
100
AcDbLinetypeTableRecord
  2
LONG_DASHED
 70
     0
  3
Long_Dashed
 72
    65
 73
     2
 40
15.0
 49
10.0
 74
     0
 49
-5.0
 74
     0
  0
LTYPE
  5
43
330
5
100
AcDbSymbolTableRecord
100
AcDbLinetypeTableRecord
  2
DASH_CENTER
 70
     0
  3
Dash_Center
 72
    65
 73
     4
 40
14.0
 49
11.0
 74
     0
 49
-1.0
 74
     0
 49
1.0
 74
     0
 49
-1.0
 74
     0
  0
LTYPE
  5
44
330
5
100
AcDbSymbolTableRecord
100
AcDbLinetypeTableRecord
  2
PHANTOM
 70
     0
  3
Phantom
 72
    65
 73
     6
 40
13.0
 49
10.0
 74
     0
 49
-1.0
 74
     0
 49
0.0
 74
     0
 49
-1.0
 74
     0
 49
0.0
 74
     0
 49
-1.0
 74
     0
  0
LTYPE
  5
45
330
5
100
AcDbSymbolTableRecord
100
AcDbLinetypeTableRecord
  2
CENTER_DASH_DASH
 70
     0
  3
Center_Dash_Dash
 72
    65
 73
     6
 40
14.0
 49
9.0
 74
     0
 49
-1.0
 74
     0
 49
1.0
 74
     0
 49
-1.0
 74
     0
 49
1.0
 74
     0
 49
-1.0
 74
     0
  0
ENDTAB
  0
TABLE
  2
LAYER
  5
2
330
0
100
AcDbSymbolTable
 70
     2
  0
LAYER
  5
10
330
2
100
AcDbSymbolTableRecord
100
AcDbLayerTableRecord
  2
0
 70
     0
 62
     7
  6
Continuous
370
    -3
390
F
  0
LAYER
  5
46
330
2
100
AcDbSymbolTableRecord
100
AcDbLayerTableRecord
  2
1
 70
     0
 62
     7
  6
Continuous
370
    -3
390
F
  0
ENDTAB
  0
TABLE
  2
STYLE
  5
3
330
0
100
AcDbSymbolTable
 70
     3
  0
STYLE
  5
11
330
3
100
AcDbSymbolTableRecord
100
AcDbTextStyleTableRecord
  2
Standard
 70
     0
 40
0.0
 41
1.0
 50
0.0
 71
     0
 42
0.2
  3
txt
  4

  0
STYLE
  5
209
330
3
100
AcDbSymbolTableRecord
100
AcDbTextStyleTableRecord
  2
CONVERTER_11
 70
     0
 40
0.0
 41
0.89
 50
0.0
 71
     0
 42
0.2
  3
MS Mincho.ttf
  4

1001
ACAD
1000
MS Mincho
1071
    32785
  0
STYLE
  5
231
330
3
100
AcDbSymbolTableRecord
100
AcDbTextStyleTableRecord
  2
CONVERTER_12
 70
     0
 40
0.0
 41
0.9
 50
0.0
 71
     0
 42
0.2
  3
txt.shx
  4

  0
ENDTAB
  0
TABLE
  2
VIEW
  5
6
330
0
100
AcDbSymbolTable
 70
     0
  0
ENDTAB
  0
TABLE
  2
UCS
  5
7
330
0
100
AcDbSymbolTable
 70
     0
  0
ENDTAB
  0
TABLE
  2
APPID
  5
9
330
0
100
AcDbSymbolTable
 70
     1
  0
APPID
  5
12
330
9
100
AcDbSymbolTableRecord
100
AcDbRegAppTableRecord
  2
ACAD
 70
     0
  0
ENDTAB
  0
TABLE
  2
DIMSTYLE
  5
A
330
0
100
AcDbSymbolTable
 70
     9
100
AcDbDimStyleTable
  0
DIMSTYLE
105
27
330
A
100
AcDbSymbolTableRecord
100
AcDbDimStyleTableRecord
  2
Standard
 70
     0
178
     0
340
11
  0
DIMSTYLE
105
242
102
{ACAD_REACTORS
330
243
102
}
330
A
100
AcDbSymbolTableRecord
100
AcDbDimStyleTableRecord
  2
ME10_DIM_10
 70
     0
 41
5.25
 42
0.0
 44
1.5
 73
     0
 74
     0
 77
     1
 78
     8
140
5.25
147
1.5
172
     1
173
     1
174
     1
175
     1
176
     2
177
     2
271
     2
178
     7
271
     2
340
231
  0
DIMSTYLE
105
24D
102
{ACAD_REACTORS
330
24E
102
}
330
A
100
AcDbSymbolTableRecord
100
AcDbDimStyleTableRecord
  2
ME10_DIM_11
 70
     0
 41
5.25
 42
0.0
 44
1.5
 73
     0
 74
     0
 77
     1
 78
     8
140
5.25
147
1.5
172
     1
173
     1
174
     1
175
     1
176
     2
177
     2
271
     2
178
     7
271
     2
340
231
  0
DIMSTYLE
105
258
102
{ACAD_REACTORS
330
259
102
}
330
A
100
AcDbSymbolTableRecord
100
AcDbDimStyleTableRecord
  2
ME10_DIM_12
 70
     0
  3
{\Fgdt;n}<>
 41
5.25
 42
0.0
 44
1.5
 73
     0
 74
     0
 77
     1
 78
     8
140
5.25
147
1.5
172
     1
173
     1
174
     1
175
     1
176
     2
177
     2
271
     2
178
     7
271
     2
340
231
  0
DIMSTYLE
105
264
102
{ACAD_REACTORS
330
265
102
}
330
A
100
AcDbSymbolTableRecord
100
AcDbDimStyleTableRecord
  2
ME10_DIM_13
 70
     0
  3
{\Fgdt;n}<>
 41
5.25
 42
0.0
 44
1.5
 73
     0
 74
     0
 77
     1
 78
     8
140
5.25
147
1.5
172
     1
173
     1
174
     1
175
     1
176
     2
177
     2
271
     2
178
     7
271
     2
340
231
  0
DIMSTYLE
105
26F
102
{ACAD_REACTORS
330
270
102
}
330
A
100
AcDbSymbolTableRecord
100
AcDbDimStyleTableRecord
  2
ME10_DIM_14
 70
     0
 41
5.25
 42
0.0
 44
1.5
 73
     0
 74
     0
 77
     1
 78
     8
140
5.25
147
1.5
172
     1
173
     1
174
     1
175
     1
176
     2
177
     2
271
     2
178
     7
271
     2
340
231
  0
DIMSTYLE
105
27A
102
{ACAD_REACTORS
330
27B
102
}
330
A
100
AcDbSymbolTableRecord
100
AcDbDimStyleTableRecord
  2
ME10_DIM_15
 70
     0
 41
5.25
 42
0.0
 44
1.5
 73
     0
 74
     0
 77
     1
 78
     8
140
5.25
147
1.5
172
     1
173
     1
174
     1
175
     1
176
     2
177
     2
271
     2
178
     7
271
     2
340
231
  0
DIMSTYLE
105
285
102
{ACAD_REACTORS
330
286
102
}
330
A
100
AcDbSymbolTableRecord
100
AcDbDimStyleTableRecord
  2
ME10_DIM_16
 70
     0
 41
5.25
 42
0.0
 44
1.5
 73
     0
 74
     0
 77
     1
 78
     8
140
5.25
147
1.5
172
     1
173
     1
174
     1
175
     1
176
     2
177
     2
271
     2
178
     7
271
     2
340
231
  0
DIMSTYLE
105
291
102
{ACAD_REACTORS
330
292
102
}
330
A
100
AcDbSymbolTableRecord
100
AcDbDimStyleTableRecord
  2
ME10_DIM_17
 70
     0
  3
{\Fgdt;n}<>
 41
5.25
 42
0.0
 44
1.5
 73
     0
 74
     0
 77
     1
 78
     8
140
5.25
147
1.5
172
     1
173
     1
174
     1
175
     1
176
     2
177
     2
271
     2
178
     7
271
     2
340
231
  0
ENDTAB
  0
TABLE
  2
BLOCK_RECORD
  5
1
330
0
100
AcDbSymbolTable
 70
    18
  0
BLOCK_RECORD
  5
1F
330
1
100
AcDbSymbolTableRecord
100
AcDbBlockTableRecord
  2
*Model_Space
340
22
  0
BLOCK_RECORD
  5
1B
330
1
100
AcDbSymbolTableRecord
100
AcDbBlockTableRecord
  2
*Paper_Space
340
1E
  0
BLOCK_RECORD
  5
23
330
1
100
AcDbSymbolTableRecord
100
AcDbBlockTableRecord
  2
*Paper_Space0
340
26
  0
BLOCK_RECORD
  5
47
330
1
100
AcDbSymbolTableRecord
100
AcDbBlockTableRecord
  2
38-6
340
0
102
{BLKREFS
331
66
102
}
  0
BLOCK_RECORD
  5
4A
330
1
100
AcDbSymbolTableRecord
100
AcDbBlockTableRecord
  2
14-38D
340
0
102
{BLKREFS
331
54
102
}
  0
BLOCK_RECORD
  5
4D
330
1
100
AcDbSymbolTableRecord
100
AcDbBlockTableRecord
  2
81-93A
340
0
102
{BLKREFS
331
55
102
}
  0
BLOCK_RECORD
  5
50
330
1
100
AcDbSymbolTableRecord
100
AcDbBlockTableRecord
  2
35-199A
340
0
102
{BLKREFS
331
56
102
}
  0
BLOCK_RECORD
  5
53
330
1
100
AcDbSymbolTableRecord
100
AcDbBlockTableRecord
  2
35-199BX
340
0
102
{BLKREFS
331
67
102
}
  0
BLOCK_RECORD
  5
59
330
1
100
AcDbSymbolTableRecord
100
AcDbBlockTableRecord
  2
81-100
340
0
102
{BLKREFS
331
5D
102
}
  0
BLOCK_RECORD
  5
5C
330
1
100
AcDbSymbolTableRecord
100
AcDbBlockTableRecord
  2
81-100X
340
0
102
{BLKREFS
331
68
102
}
  0
BLOCK_RECORD
  5
60
330
1
100
AcDbSymbolTableRecord
100
AcDbBlockTableRecord
  2
Y145-0B
340
0
102
{BLKREFS
331
69
102
}
  0
BLOCK_RECORD
  5
63
330
1
100
AcDbSymbolTableRecord
100
AcDbBlockTableRecord
  2
開示A4
340
0
102
{BLKREFS
331
6A
102
}
  0
BLOCK_RECORD
  5
239
330
1
100
AcDbSymbolTableRecord
100
AcDbBlockTableRecord
  2
*D10
340
0
  0
BLOCK_RECORD
  5
244
330
1
100
AcDbSymbolTableRecord
100
AcDbBlockTableRecord
  2
*D11
340
0
  0
BLOCK_RECORD
  5
24F
330
1
100
AcDbSymbolTableRecord
100
AcDbBlockTableRecord
  2
*D12
340
0
  0
BLOCK_RECORD
  5
25A
330
1
100
AcDbSymbolTableRecord
100
AcDbBlockTableRecord
  2
*D13
340
0
  0
BLOCK_RECORD
  5
266
330
1
100
AcDbSymbolTableRecord
100
AcDbBlockTableRecord
  2
*D14
340
0
  0
BLOCK_RECORD
  5
271
330
1
100
AcDbSymbolTableRecord
100
AcDbBlockTableRecord
  2
*D15
340
0
  0
BLOCK_RECORD
  5
27C
330
1
100
AcDbSymbolTableRecord
100
AcDbBlockTableRecord
  2
*D16
340
0
  0
BLOCK_RECORD
  5
287
330
1
100
AcDbSymbolTableRecord
100
AcDbBlockTableRecord
  2
*D17
340
0
  0
ENDTAB
  0
ENDSEC
  0
SECTION
  2
BLOCKS
  0
BLOCK
  5
20
330
1F
100
AcDbEntity
  8
0
100
AcDbBlockBegin
  2
*Model_Space
 70
     0
 10
0.0
 20
0.0
 30
0.0
  3
*Model_Space
  1

  0
ENDBLK
  5
21
330
1F
100
AcDbEntity
  8
0
100
AcDbBlockEnd
  0
BLOCK
  5
1C
330
1B
100
AcDbEntity
 67
     1
  8
0
100
AcDbBlockBegin
  2
*Paper_Space
 70
     0
 10
0.0
 20
0.0
 30
0.0
  3
*Paper_Space
  1

  0
ENDBLK
  5
1D
330
1B
100
AcDbEntity
 67
     1
  8
0
100
AcDbBlockEnd
  0
BLOCK
  5
24
330
23
100
AcDbEntity
  8
0
100
AcDbBlockBegin
  2
*Paper_Space0
 70
     0
 10
0.0
 20
0.0
 30
0.0
  3
*Paper_Space0
  1

  0
ENDBLK
  5
25
330
23
100
AcDbEntity
  8
0
100
AcDbBlockEnd
  0
BLOCK
  5
48
330
47
100
AcDbEntity
  8
0
100
AcDbBlockBegin
  2
38-6
 70
     0
 10
824.8331773136356
 20
143.3396013737267
 30
0.0
  3
38-6
  1

  0
LINE
  5
6B
330
47
100
AcDbEntity
  8
1
  6
Continuous
 62
     7
100
AcDbLine
 10
222.9506857205084
 20
193.4396013737268
 30
0.0
 11
222.9506857205084
 21
169.4396013737268
 31
0.0
  0
LINE
  5
6C
330
47
100
AcDbEntity
  8
1
  6
Continuous
 62
     7
100
AcDbLine
 10
240.4506857205084
 20
196.9396013737268
 30
0.0
 11
240.4506857205084
 21
165.9396013737268
 31
0.0
  0
LINE
  5
6D
330
47
100
AcDbEntity
  8
0
  6
Continuous
 62
     7
100
AcDbLine
 10
222.9506857205084
 20
193.4396013737268
 30
0.0
 11
222.4506857205084
 21
192.9396013737268
 31
0.0
  0
LINE
  5
6E
330
47
100
AcDbEntity
  8
0
  6
Continuous
 62
     7
100
AcDbLine
 10
250.4506857205084
 20
204.4396013737268
 30
0.0
 11
250.4506857205084
 21
158.4396013737268
 31
0.0
  0
LINE
  5
6F
330
47
100
AcDbEntity
  8
0
  6
Continuous
 62
     7
100
AcDbLine
 10
246.4506857205084
 20
204.4396013737268
 30
0.0
 11
250.4506857205084
 21
204.4396013737268
 31
0.0
  0
LINE
  5
70
330
47
100
AcDbEntity
  8
0
  6
Continuous
 62
     7
100
AcDbLine
 10
222.9506857205084
 20
193.4396013737268
 30
0.0
 11
236.9506857205084
 21
193.4396013737268
 31
0.0
  0
LINE
  5
71
330
47
100
AcDbEntity
  8
0
  6
Continuous
 62
     7
100
AcDbLine
 10
240.4506857205084
 20
196.9396013737268
 30
0.0
 11
240.4506857205084
 21
198.4396013737268
 31
0.0
  0
LINE
  5
72
330
47
100
AcDbEntity
  8
0
  6
Continuous
 62
     7
100
AcDbLine
 10
222.4506857205084
 20
169.9396013737268
 30
0.0
 11
222.4506857205084
 21
192.9396013737268
 31
0.0
  0
LINE
  5
73
330
47
100
AcDbEntity
  8
0
  6
Continuous
 62
     7
100
AcDbLine
 10
222.4506857205084
 20
169.9396013737268
 30
0.0
 11
222.9506857205084
 21
169.4396013737268
 31
0.0
  0
LINE
  5
74
330
47
100
AcDbEntity
  8
0
  6
Continuous
 62
     7
100
AcDbLine
 10
250.4506857205084
 20
158.4396013737268
 30
0.0
 11
246.4506857205084
 21
158.4396013737268
 31
0.0
  0
LINE
  5
75
330
47
100
AcDbEntity
  8
0
  6
Continuous
 62
     7
100
AcDbLine
 10
236.9506857205084
 20
169.4396013737268
 30
0.0
 11
222.9506857205084
 21
169.4396013737268
 31
0.0
  0
LINE
  5
76
330
47
100
AcDbEntity
  8
0
  6
Continuous
 62
     7
100
AcDbLine
 10
240.4506857205084
 20
164.4396013737268
 30
0.0
 11
240.4506857205084
 21
165.9396013737268
 31
0.0
  0
LINE
  5
77
330
47
100
AcDbEntity
  8
0
  6
Continuous
 62
     7
100
AcDbLine
 10
72.4506857205084
 20
366.2450292674178
 30
0.0
 11
74.4506857205084
 21
366.2450292674178
 31
0.0
  0
LINE
  5
78
330
47
100
AcDbEntity
  8
0
  6
Continuous
 62
     7
100
AcDbLine
 10
107.4506857205084
 20
338.7450292674179
 30
0.0
 11
83.4506857205084
 21
338.7450292674179
 31
0.0
  0
LINE
  5
79
330
47
100
AcDbEntity
  8
0
  6
Continuous
 62
     7
100
AcDbLine
 10
84.7006857205084
 20
338.2450292674179
 30
0.0
 11
83.9506857205084
 21
338.2450292674179
 31
0.0
  0
LINE
  5
7A
330
47
100
AcDbEntity
  8
0
  6
Continuous
 62
     7
100
AcDbLine
 10
83.4506857205084
 20
338.7450292674179
 30
0.0
 11
83.9506857205084
 21
338.2450292674179
 31
0.0
  0
LINE
  5
7B
330
47
100
AcDbEntity
  8
0
  6
Continuous
 62
     7
100
AcDbLine
 10
72.4506857205084
 20
362.2450292674178
 30
0.0
 11
72.4506857205084
 21
366.2450292674178
 31
0.0
  0
LINE
  5
7C
330
47
100
AcDbEntity
  8
0
  6
Continuous
 62
     7
100
AcDbLine
 10
79.9506857205084
 20
356.2450292674178
 30
0.0
 11
110.9506857205084
 21
356.2450292674178
 31
0.0
  0
LINE
  5
7D
330
47
100
AcDbEntity
  8
0
  6
Continuous
 62
     7
100
AcDbLine
 10
83.4506857205084
 20
352.7450292674178
 30
0.0
 11
83.4506857205084
 21
338.7450292674179
 31
0.0
  0
LINE
  5
7E
330
47
100
AcDbEntity
  8
0
  6
Continuous
 62
     7
100
AcDbLine
 10
78.4506857205084
 20
356.2450292674178
 30
0.0
 11
79.9506857205084
 21
356.2450292674178
 31
0.0
  0
LINE
  5
7F
330
47
100
AcDbEntity
  8
0
  6
Continuous
 62
     7
100
AcDbLine
 10
106.2006857205084
 20
338.2450292674179
 30
0.0
 11
84.7006857205084
 21
338.2450292674179
 31
0.0
  0
LINE
  5
80
330
47
100
AcDbEntity
  8
0
  6
Continuous
 62
     7
100
AcDbLine
 10
116.4506857205084
 20
366.2450292674178
 30
0.0
 11
118.4506857205084
 21
366.2450292674178
 31
0.0
  0
LINE
  5
81
330
47
100
AcDbEntity
  8
0
  6
Continuous
 62
     7
100
AcDbLine
 10
106.9506857205084
 20
338.2450292674179
 30
0.0
 11
106.2006857205084
 21
338.2450292674179
 31
0.0
  0
LINE
  5
82
330
47
100
AcDbEntity
  8
0
  6
Continuous
 62
     7
100
AcDbLine
 10
106.9506857205084
 20
338.2450292674179
 30
0.0
 11
107.4506857205084
 21
338.7450292674179
 31
0.0
  0
LINE
  5
83
330
47
100
AcDbEntity
  8
0
  6
Continuous
 62
     7
100
AcDbLine
 10
116.4506857205084
 20
366.2450292674178
 30
0.0
 11
74.4506857205084
 21
366.2450292674178
 31
0.0
  0
LINE
  5
84
330
47
100
AcDbEntity
  8
0
  6
Continuous
 62
     7
100
AcDbLine
 10
118.4506857205084
 20
366.2450292674178
 30
0.0
 11
118.4506857205084
 21
362.2450292674178
 31
0.0
  0
LINE
  5
85
330
47
100
AcDbEntity
  8
0
  6
Continuous
 62
     7
100
AcDbLine
 10
107.4506857205084
 20
338.7450292674179
 30
0.0
 11
107.4506857205084
 21
352.7450292674178
 31
0.0
  0
LINE
  5
86
330
47
100
AcDbEntity
  8
0
  6
Continuous
 62
     7
100
AcDbLine
 10
110.9506857205084
 20
356.2450292674178
 30
0.0
 11
112.4506857205084
 21
356.2450292674178
 31
0.0
  0
ARC
  5
87
330
47
100
AcDbEntity
  8
1
  6
Continuous
 62
     7
100
AcDbCircle
 10
236.9506857205084
 20
196.9396013737268
 30
0.0
 40
3.5
100
AcDbArc
 50
270.0
 51
0.0
  0
ARC
  5
88
330
47
100
AcDbEntity
  8
1
  6
Continuous
 62
     7
100
AcDbCircle
 10
236.9506857205084
 20
165.9396013737268
 30
0.0
 40
3.5
100
AcDbArc
 50
0.0
 51
90.0
  0
ARC
  5
89
330
47
100
AcDbEntity
  8
1
  6
Continuous
 62
     7
100
AcDbCircle
 10
95.4506857205084
 20
181.4396013737269
 30
0.0
 40
12.00000000000008
100
AcDbArc
 50
331.0449756281395
 51
26.31110774720809
  0
ARC
  5
8A
330
47
100
AcDbEntity
  8
1
  6
Continuous
 62
     7
100
AcDbCircle
 10
95.4506857205084
 20
181.4396013737269
 30
0.0
 40
12.00000000000007
100
AcDbArc
 50
153.688892252792
 51
208.9550243718606
  0
ARC
  5
8B
330
47
100
AcDbEntity
  8
1
  6
Continuous
 62
     7
100
AcDbCircle
 10
95.4506857205084
 20
181.4396013737269
 30
0.0
 40
22.99999999999994
100
AcDbArc
 50
297.0999080286564
 51
0.0
  0
ARC
  5
8C
330
47
100
AcDbEntity
  8
1
  6
Continuous
 62
     7
100
AcDbCircle
 10
95.4506857205084
 20
181.4396013737269
 30
0.0
 40
22.99999999999989
100
AcDbArc
 50
131.5246816281914
 51
242.9000919713438
  0
ARC
  5
8D
330
47
100
AcDbEntity
  8
1
  6
Continuous
 62
     7
100
AcDbCircle
 10
95.4506857205084
 20
181.4396013737269
 30
0.0
 40
22.9999999999999
100
AcDbArc
 50
0.0
 51
48.47531837180873
  0
ARC
  5
8E
330
47
100
AcDbEntity
  8
1
  6
Continuous
 62
     7
100
AcDbCircle
 10
79.9506857205084
 20
352.7450292674178
 30
0.0
 40
3.5
100
AcDbArc
 50
0.0
 51
90.0
  0
ARC
  5
8F
330
47
100
AcDbEntity
  8
1
  6
Continuous
 62
     7
100
AcDbCircle
 10
110.9506857205084
 20
352.7450292674178
 30
0.0
 40
3.5
100
AcDbArc
 50
90.0
 51
180.0
  0
ARC
  5
90
330
47
100
AcDbEntity
  8
0
  6
Continuous
 62
     7
100
AcDbCircle
 10
246.4506857205084
 20
198.4396013737268
 30
0.0
 40
6.0
100
AcDbArc
 50
90.0
 51
180.0
  0
ARC
  5
91
330
47
100
AcDbEntity
  8
0
  6
Continuous
 62
     7
100
AcDbCircle
 10
246.4506857205084
 20
164.4396013737268
 30
0.0
 40
6.0
100
AcDbArc
 50
180.0
 51
270.0
  0
ARC
  5
92
330
47
100
AcDbEntity
  8
0
  6
Continuous
 62
     7
100
AcDbCircle
 10
78.4506857205084
 20
362.2450292674178
 30
0.0
 40
6.0
100
AcDbArc
 50
180.0
 51
270.0
  0
ARC
  5
93
330
47
100
AcDbEntity
  8
0
  6
Continuous
 62
     7
100
AcDbCircle
 10
112.4506857205084
 20
362.2450292674178
 30
0.0
 40
6.0
100
AcDbArc
 50
270.0
 51
0.0
  0
ENDBLK
  5
49
330
47
100
AcDbEntity
  8
0
100
AcDbBlockEnd
  0
BLOCK
  5
4B
330
4A
100
AcDbEntity
  8
0
100
AcDbBlockBegin
  2
14-38D
 70
     0
 10
836.1394109864754
 20
148.7375293387858
 30
0.0
  3
14-38D
  1

  0
LINE
  5
94
330
4A
100
AcDbEntity
  8
0
  6
Continuous
 62
     7
100
AcDbLine
 10
205.2852202793077
 20
114.380090336272
 30
0.0
 11
204.8006857205083
 21
113.9396043737271
 31
0.0
  0
LINE
  5
95
330
4A
100
AcDbEntity
  8
0
  6
Continuous
 62
     7
100
AcDbLine
 10
205.3506857205084
 20
114.5280783509512
 30
0.0
 11
205.3506857205084
 21
115.3896043737272
 31
0.0
  0
LINE
  5
96
330
4A
100
AcDbEntity
  8
0
  6
Continuous
 62
     2
100
AcDbLine
 10
205.3506857205084
 20
114.4396043737272
 30
0.0
 11
205.2852202793077
 21
114.380090336272
 31
0.0
  0
LINE
  5
97
330
4A
100
AcDbEntity
  8
0
  6
Continuous
 62
     7
100
AcDbLine
 10
205.3506857205084
 20
121.3366880499704
 30
0.0
 11
205.3506857205084
 21
122.9396013737272
 31
0.0
  0
LINE
  5
98
330
4A
100
AcDbEntity
  8
0
  6
Continuous
 62
     7
100
AcDbLine
 10
203.7506857205085
 20
116.9396043737272
 30
0.0
 11
205.3506857205084
 21
115.3896043737272
 31
0.0
  0
LINE
  5
99
330
4A
100
AcDbEntity
  8
0
  6
Continuous
 62
     2
100
AcDbLine
 10
205.3506857205084
 20
114.4396043737272
 30
0.0
 11
205.3506857205084
 21
114.5280783509512
 31
0.0
  0
LINE
  5
9A
330
4A
100
AcDbEntity
  8
0
  6
Continuous
 62
     7
100
AcDbLine
 10
204.8006857205083
 20
113.9396043737271
 30
0.0
 11
204.8006857205083
 21
103.9396043737272
 31
0.0
  0
LINE
  5
9B
330
4A
100
AcDbEntity
  8
0
  6
Continuous
 62
     7
100
AcDbLine
 10
203.7506857205085
 20
118.9396043737272
 30
0.0
 11
203.7506857205085
 21
116.9396043737272
 31
0.0
  0
LINE
  5
9C
330
4A
100
AcDbEntity
  8
0
  6
Continuous
 62
     7
100
AcDbLine
 10
203.7506857205085
 20
118.9396043737272
 30
0.0
 11
204.7422761521624
 21
119.900207604392
 31
0.0
  0
LINE
  5
9D
330
4A
100
AcDbEntity
  8
1
  6
Continuous
 62
     7
100
AcDbLine
 10
203.8006857205083
 20
102.9396043737272
 30
0.0
 11
190.1006857205085
 21
102.9396043737272
 31
0.0
  0
LINE
  5
9E
330
4A
100
AcDbEntity
  8
0
  6
Continuous
 62
     7
100
AcDbLine
 10
189.1006857205085
 20
113.9396043737271
 30
0.0
 11
188.6161511617091
 21
114.380090336272
 31
0.0
  0
LINE
  5
9F
330
4A
100
AcDbEntity
  8
0
  6
Continuous
 62
     7
100
AcDbLine
 10
188.5506857205085
 20
115.3896043737272
 30
0.0
 11
188.5506857205085
 21
114.5280783509512
 31
0.0
  0
LINE
  5
A0
330
4A
100
AcDbEntity
  8
0
  6
Continuous
 62
     2
100
AcDbLine
 10
188.6161511617091
 20
114.380090336272
 30
0.0
 11
188.5506857205085
 21
114.4396043737272
 31
0.0
  0
LINE
  5
A1
330
4A
100
AcDbEntity
  8
0
  6
Continuous
 62
     7
100
AcDbLine
 10
188.5506857205085
 20
122.9396013737272
 30
0.0
 11
188.5506857205085
 21
121.3366880499704
 31
0.0
  0
LINE
  5
A2
330
4A
100
AcDbEntity
  8
0
  6
Continuous
 62
     7
100
AcDbLine
 10
188.5506857205085
 20
115.3896043737272
 30
0.0
 11
190.1506857205086
 21
116.9396043737272
 31
0.0
  0
LINE
  5
A3
330
4A
100
AcDbEntity
  8
0
  6
Continuous
 62
     2
100
AcDbLine
 10
188.5506857205085
 20
114.5280783509512
 30
0.0
 11
188.5506857205085
 21
114.4396043737272
 31
0.0
  0
LINE
  5
A4
330
4A
100
AcDbEntity
  8
0
  6
Continuous
 62
     7
100
AcDbLine
 10
189.1006857205085
 20
103.9396043737272
 30
0.0
 11
189.1006857205085
 21
113.9396043737271
 31
0.0
  0
LINE
  5
A5
330
4A
100
AcDbEntity
  8
0
  6
Continuous
 62
     7
100
AcDbLine
 10
190.1506857205086
 20
116.9396043737272
 30
0.0
 11
190.1506857205086
 21
118.9396043737272
 31
0.0
  0
LINE
  5
A6
330
4A
100
AcDbEntity
  8
0
  6
Continuous
 62
     7
100
AcDbLine
 10
189.1590952888545
 20
119.900207604392
 30
0.0
 11
190.1506857205086
 21
118.9396043737272
 31
0.0
  0
LINE
  5
A7
330
4A
100
AcDbEntity
  8
1
  6
Continuous
 62
     7
100
AcDbLine
 10
103.3006857205083
 20
114.4396043737272
 30
0.0
 11
87.6006857205085
 21
114.4396043737272
 31
0.0
  0
LINE
  5
A8
330
4A
100
AcDbEntity
  8
1
  6
Continuous
 62
     7
100
AcDbLine
 10
103.3006857205083
 20
113.9396043737271
 30
0.0
 11
87.6006857205085
 21
113.9396043737271
 31
0.0
  0
LINE
  5
A9
330
4A
100
AcDbEntity
  8
1
  6
Continuous
 62
     7
100
AcDbLine
 10
103.8506857205084
 20
115.3896043737272
 30
0.0
 11
87.05068572050854
 21
115.3896043737272
 31
0.0
  0
LINE
  5
AA
330
4A
100
AcDbEntity
  8
1
  6
Continuous
 62
     7
100
AcDbLine
 10
88.65068572050862
 20
116.9396043737272
 30
0.0
 11
102.2506857205085
 21
116.9396043737272
 31
0.0
  0
LINE
  5
AB
330
4A
100
AcDbEntity
  8
1
  6
Continuous
 62
     7
100
AcDbLine
 10
102.2506857205085
 20
118.9396043737272
 30
0.0
 11
88.65068572050862
 21
118.9396043737272
 31
0.0
  0
LINE
  5
AC
330
4A
100
AcDbEntity
  8
0
  6
Continuous
 62
     7
100
AcDbLine
 10
103.7852202793077
 20
114.380090336272
 30
0.0
 11
103.3006857205083
 21
113.9396043737271
 31
0.0
  0
LINE
  5
AD
330
4A
100
AcDbEntity
  8
0
  6
Continuous
 62
     7
100
AcDbLine
 10
103.8506857205084
 20
114.5280783509512
 30
0.0
 11
103.8506857205084
 21
115.3896043737272
 31
0.0
  0
LINE
  5
AE
330
4A
100
AcDbEntity
  8
0
  6
Continuous
 62
     7
100
AcDbLine
 10
103.8506857205084
 20
121.3366880499704
 30
0.0
 11
103.8506857205084
 21
122.9396013737272
 31
0.0
  0
LINE
  5
AF
330
4A
100
AcDbEntity
  8
0
  6
Continuous
 62
     7
100
AcDbLine
 10
102.2506857205085
 20
116.9396043737272
 30
0.0
 11
103.8506857205084
 21
115.3896043737272
 31
0.0
  0
LINE
  5
B0
330
4A
100
AcDbEntity
  8
0
  6
Continuous
 62
     7
100
AcDbLine
 10
103.3006857205083
 20
113.9396043737271
 30
0.0
 11
103.3006857205083
 21
103.9396043737272
 31
0.0
  0
LINE
  5
B1
330
4A
100
AcDbEntity
  8
0
  6
Continuous
 62
     7
100
AcDbLine
 10
102.2506857205085
 20
118.9396043737272
 30
0.0
 11
102.2506857205085
 21
116.9396043737272
 31
0.0
  0
LINE
  5
B2
330
4A
100
AcDbEntity
  8
0
  6
Continuous
 62
     7
100
AcDbLine
 10
102.2506857205085
 20
118.9396043737272
 30
0.0
 11
103.2422761521624
 21
119.900207604392
 31
0.0
  0
LINE
  5
B3
330
4A
100
AcDbEntity
  8
0
  6
Continuous
 62
     7
100
AcDbLine
 10
88.6006857205085
 20
102.9396043737272
 30
0.0
 11
102.3006857205083
 21
102.9396043737272
 31
0.0
  0
LINE
  5
B4
330
4A
100
AcDbEntity
  8
0
  6
Continuous
 62
     7
100
AcDbLine
 10
87.6006857205085
 20
113.9396043737271
 30
0.0
 11
87.1161511617091
 21
114.380090336272
 31
0.0
  0
LINE
  5
B5
330
4A
100
AcDbEntity
  8
0
  6
Continuous
 62
     7
100
AcDbLine
 10
87.05068572050854
 20
115.3896043737272
 30
0.0
 11
87.05068572050854
 21
114.5280783509512
 31
0.0
  0
LINE
  5
B6
330
4A
100
AcDbEntity
  8
0
  6
Continuous
 62
     7
100
AcDbLine
 10
87.05068572050854
 20
122.9396013737272
 30
0.0
 11
87.05068572050854
 21
121.3366880499704
 31
0.0
  0
LINE
  5
B7
330
4A
100
AcDbEntity
  8
0
  6
Continuous
 62
     7
100
AcDbLine
 10
87.05068572050854
 20
115.3896043737272
 30
0.0
 11
88.65068572050862
 21
116.9396043737272
 31
0.0
  0
LINE
  5
B8
330
4A
100
AcDbEntity
  8
0
  6
Continuous
 62
     7
100
AcDbLine
 10
87.6006857205085
 20
103.9396043737272
 30
0.0
 11
87.6006857205085
 21
113.9396043737271
 31
0.0
  0
LINE
  5
B9
330
4A
100
AcDbEntity
  8
0
  6
Continuous
 62
     7
100
AcDbLine
 10
88.65068572050862
 20
116.9396043737272
 30
0.0
 11
88.65068572050862
 21
118.9396043737272
 31
0.0
  0
LINE
  5
BA
330
4A
100
AcDbEntity
  8
0
  6
Continuous
 62
     7
100
AcDbLine
 10
87.6590952888545
 20
119.900207604392
 30
0.0
 11
88.65068572050862
 21
118.9396043737272
 31
0.0
  0
LINE
  5
BB
330
4A
100
AcDbEntity
  8
1
  6
Continuous
 62
     7
100
AcDbLine
 10
189.1006857205085
 20
113.9396043737271
 30
0.0
 11
204.8006857205083
 21
113.9396043737271
 31
0.0
  0
LINE
  5
BC
330
4A
100
AcDbEntity
  8
1
  6
Continuous
 62
     7
100
AcDbLine
 10
205.3506857205084
 20
114.4396043737272
 30
0.0
 11
188.5506857205085
 21
114.4396043737272
 31
0.0
  0
LINE
  5
BD
330
4A
100
AcDbEntity
  8
1
  6
Continuous
 62
     7
100
AcDbLine
 10
188.5506857205085
 20
115.3896043737272
 30
0.0
 11
205.3506857205084
 21
115.3896043737272
 31
0.0
  0
LINE
  5
BE
330
4A
100
AcDbEntity
  8
1
  6
Continuous
 62
     7
100
AcDbLine
 10
203.7506857205085
 20
116.9396043737272
 30
0.0
 11
190.1506857205086
 21
116.9396043737272
 31
0.0
  0
LINE
  5
BF
330
4A
100
AcDbEntity
  8
1
  6
Continuous
 62
     7
100
AcDbLine
 10
190.1506857205086
 20
118.9396043737272
 30
0.0
 11
203.7506857205085
 21
118.9396043737272
 31
0.0
  0
ARC
  5
C0
330
4A
100
AcDbEntity
  8
1
  6
Continuous
 62
     7
100
AcDbCircle
 10
205.1506857205083
 20
114.5280783509512
 30
0.0
 40
0.2000000000001019
100
AcDbArc
 50
312.2736890061211
 51
0.0
  0
ARC
  5
C1
330
4A
100
AcDbEntity
  8
1
  6
Continuous
 62
     7
100
AcDbCircle
 10
188.7506857205085
 20
114.5280783509512
 30
0.0
 40
0.1999999999999886
100
AcDbArc
 50
180.0
 51
227.7263109938789
  0
ARC
  5
C2
330
4A
100
AcDbEntity
  8
1
  6
Continuous
 62
     7
100
AcDbCircle
 10
103.6506857205085
 20
114.5280783509512
 30
0.0
 40
0.1999999999999585
100
AcDbArc
 50
312.2736890060759
 51
0.0
  0
ARC
  5
C3
330
4A
100
AcDbEntity
  8
1
  6
Continuous
 62
     7
100
AcDbCircle
 10
87.25068572050847
 20
114.5280783509512
 30
0.0
 40
0.1999999999999318
100
AcDbArc
 50
180.0
 51
227.7263109938849
  0
ARC
  5
C4
330
4A
100
AcDbEntity
  8
1
  6
Continuous
 62
     7
100
AcDbCircle
 10
190.5506857205085
 20
121.3366880499704
 30
0.0
 40
2.0
100
AcDbArc
 50
180.0
 51
225.9093804492007
  0
ARC
  5
C5
330
4A
100
AcDbEntity
  8
1
  6
Continuous
 62
     7
100
AcDbCircle
 10
203.3506857205084
 20
121.3366880499704
 30
0.0
 40
2.000000000000016
100
AcDbArc
 50
314.0906195507986
 51
0.0
  0
ARC
  5
C6
330
4A
100
AcDbEntity
  8
1
  6
Continuous
 62
     7
100
AcDbCircle
 10
89.05068572050854
 20
121.3366880499704
 30
0.0
 40
2.0
100
AcDbArc
 50
180.0
 51
225.9093804492001
  0
ARC
  5
C7
330
4A
100
AcDbEntity
  8
1
  6
Continuous
 62
     7
100
AcDbCircle
 10
101.8506857205084
 20
121.3366880499704
 30
0.0
 40
2.000000000000036
100
AcDbArc
 50
314.0906195507993
 51
0.0
  0
ARC
  5
C8
330
4A
100
AcDbEntity
  8
1
  6
Continuous
 62
     7
100
AcDbCircle
 10
203.8006857205083
 20
103.9396043737272
 30
0.0
 40
1.0
100
AcDbArc
 50
270.0
 51
0.0
  0
ARC
  5
C9
330
4A
100
AcDbEntity
  8
1
  6
Continuous
 62
     7
100
AcDbCircle
 10
190.1006857205085
 20
103.9396043737272
 30
0.0
 40
1.0
100
AcDbArc
 50
180.0
 51
270.0
  0
ARC
  5
CA
330
4A
100
AcDbEntity
  8
1
  6
Continuous
 62
     7
100
AcDbCircle
 10
102.3006857205083
 20
103.9396043737272
 30
0.0
 40
1.0
100
AcDbArc
 50
270.0
 51
0.0
  0
ARC
  5
CB
330
4A
100
AcDbEntity
  8
1
  6
Continuous
 62
     7
100
AcDbCircle
 10
88.6006857205085
 20
103.9396043737272
 30
0.0
 40
1.0
100
AcDbArc
 50
180.0
 51
270.0
  0
ENDBLK
  5
4C
330
4A
100
AcDbEntity
  8
0
100
AcDbBlockEnd
  0
BLOCK
  5
4E
330
4D
100
AcDbEntity
  8
0
100
AcDbBlockBegin
  2
81-93A
 70
     0
 10
602.6247104134433
 20
-226.2630365578598
 30
0.0
  3
81-93A
  1

  0
LINE
  5
CC
330
4D
100
AcDbEntity
  8
0
  6
Continuous
 62
     7
100
AcDbLine
 10
93.45068572050829
 20
93.27958128916559
 30
0.0
 11
93.45068572050829
 21
102.9396043737272
 31
0.0
  0
LINE
  5
CD
330
4D
100
AcDbEntity
  8
0
  6
Continuous
 62
     7
100
AcDbLine
 10
97.4506857205084
 20
93.27958128916559
 30
0.0
 11
97.45068572050839
 21
102.9396043737272
 31
0.0
  0
LINE
  5
CE
330
4D
100
AcDbEntity
  8
0
  6
Continuous
 62
     7
100
AcDbLine
 10
97.25068572050836
 20
93.07958128916549
 30
0.0
 11
93.65068572050828
 21
93.07958128916549
 31
0.0
  0
LINE
  5
CF
330
4D
100
AcDbEntity
  8
0
  6
Continuous
 62
     7
100
AcDbLine
 10
97.4506857205084
 20
93.27958128916559
 30
0.0
 11
97.25068572050836
 21
93.07958128916549
 31
0.0
  0
LINE
  5
D0
330
4D
100
AcDbEntity
  8
0
  6
Continuous
 62
     7
100
AcDbLine
 10
93.65068572050828
 20
93.07958128916549
 30
0.0
 11
93.45068572050829
 21
93.27958128916559
 31
0.0
  0
LINE
  5
D1
330
4D
100
AcDbEntity
  8
0
  6
Continuous
 62
     7
100
AcDbLine
 10
94.9506857205084
 20
93.07958128916549
 30
0.0
 11
94.9506857205084
 21
102.9396043737272
 31
0.0
  0
LINE
  5
D2
330
4D
100
AcDbEntity
  8
0
  6
Continuous
 62
     7
100
AcDbLine
 10
95.9506857205084
 20
93.07958128916549
 30
0.0
 11
95.9506857205084
 21
102.9396043737272
 31
0.0
  0
LINE
  5
D3
330
4D
100
AcDbEntity
  8
0
  6
Continuous
 62
     7
100
AcDbLine
 10
95.9506857205084
 20
96.60347755244949
 30
0.0
 11
94.9506857205084
 21
96.60347755244949
 31
0.0
  0
LINE
  5
D4
330
4D
100
AcDbEntity
  8
0
  6
Continuous
 62
     7
100
AcDbLine
 10
97.4506857205084
 20
96.86562025848679
 30
0.0
 11
95.9506857205084
 21
96.86562025848679
 31
0.0
  0
LINE
  5
D5
330
4D
100
AcDbEntity
  8
0
  6
Continuous
 62
     7
100
AcDbLine
 10
94.9506857205084
 20
96.86562025848679
 30
0.0
 11
93.45068572050829
 21
96.86562025848679
 31
0.0
  0
LINE
  5
D6
330
4D
100
AcDbEntity
  8
0
  6
Continuous
 62
     7
100
AcDbLine
 10
92.7506857205083
 20
94.3729294128911
 30
0.0
 11
93.45068572050829
 21
94.3729294128911
 31
0.0
  0
LINE
  5
D7
330
4D
100
AcDbEntity
  8
0
  6
Continuous
 62
     7
100
AcDbLine
 10
92.7506857205083
 20
97.47123215355657
 30
0.0
 11
93.45068572050829
 21
97.47123215355657
 31
0.0
  0
LINE
  5
D8
330
4D
100
AcDbEntity
  8
0
  6
Continuous
 62
     7
100
AcDbLine
 10
98.15068572050856
 20
94.3729294128911
 30
0.0
 11
97.45068572050852
 21
94.3729294128911
 31
0.0
  0
LINE
  5
D9
330
4D
100
AcDbEntity
  8
0
  6
Continuous
 62
     7
100
AcDbLine
 10
98.15068572050856
 20
97.47123215355657
 30
0.0
 11
97.45068572050852
 21
97.47123215355657
 31
0.0
  0
LINE
  5
DA
330
4D
100
AcDbEntity
  8
0
  6
Continuous
 62
     7
100
AcDbLine
 10
93.65068572050828
 20
93.07958128916549
 30
0.0
 11
93.65068572050833
 21
102.9396043737272
 31
0.0
  0
LINE
  5
DB
330
4D
100
AcDbEntity
  8
0
  6
Continuous
 62
     7
100
AcDbLine
 10
97.25068572050836
 20
93.07958128916549
 30
0.0
 11
97.25068572050841
 21
102.9396043737272
 31
0.0
  0
LINE
  5
DC
330
4D
100
AcDbEntity
  8
0
  6
Continuous
 62
     7
100
AcDbLine
 10
203.5028972381926
 20
94.52958128916616
 30
0.0
 11
203.5028972381936
 21
96.07958128916422
 31
0.0
  0
LINE
  5
DD
330
4D
100
AcDbEntity
  8
0
  6
Continuous
 62
     7
100
AcDbLine
 10
198.9528972381935
 20
100.8239203851064
 30
0.0
 11
198.9528972381935
 21
102.9396043737272
 31
0.0
  0
LINE
  5
DE
330
4D
100
AcDbEntity
  8
0
  6
Continuous
 62
     7
100
AcDbLine
 10
198.7528972381933
 20
100.823920385107
 30
0.0
 11
198.7528972381937
 21
102.9396043737272
 31
0.0
  0
LINE
  5
DF
330
4D
100
AcDbEntity
  8
0
  6
Continuous
 62
     7
100
AcDbLine
 10
201.0873481435688
 20
95.87958128916443
 30
0.0
 11
200.3684845306943
 21
96.64906910012857
 31
0.0
  0
LINE
  5
E0
330
4D
100
AcDbEntity
  8
0
  6
Continuous
 62
     7
100
AcDbLine
 10
201.1742029003615
 20
96.0795812891644
 30
0.0
 11
200.5684845306941
 21
96.72795588204784
 31
0.0
  0
LINE
  5
E1
330
4D
100
AcDbEntity
  8
0
  6
Continuous
 62
     7
100
AcDbLine
 10
201.1742029003615
 20
96.0795812891644
 30
0.0
 11
204.502897238193
 21
96.07958128916567
 31
0.0
  0
LINE
  5
E2
330
4D
100
AcDbEntity
  8
0
  6
Continuous
 62
     7
100
AcDbLine
 10
201.0873481435688
 20
95.87958128916443
 30
0.0
 11
201.1742029003615
 21
96.0795812891644
 31
0.0
  0
LINE
  5
E3
330
4D
100
AcDbEntity
  8
0
  6
Continuous
 62
     7
100
AcDbLine
 10
203.5028972381936
 20
95.87958128916458
 30
0.0
 11
201.0873481435688
 21
95.87958128916443
 31
0.0
  0
LINE
  5
E4
330
4D
100
AcDbEntity
  8
0
  6
Continuous
 62
     7
100
AcDbLine
 10
199.347364272236
 20
94.37292941289053
 30
0.0
 11
200.0780997234859
 21
95.05559016340017
 31
0.0
  0
LINE
  5
E5
330
4D
100
AcDbEntity
  8
0
  6
Continuous
 62
     7
100
AcDbLine
 10
200.0780997234859
 20
95.05559016340017
 30
0.0
 11
197.4528972381935
 21
97.8656660631498
 31
0.0
  0
LINE
  5
E6
330
4D
100
AcDbEntity
  8
0
  6
Continuous
 62
     7
100
AcDbLine
 10
199.347364272236
 20
94.37292941289053
 30
0.0
 11
196.4528972381931
 21
97.47123215355595
 31
0.0
  0
LINE
  5
E7
330
4D
100
AcDbEntity
  8
0
  6
Continuous
 62
     7
100
AcDbLine
 10
194.952897238193
 20
96.87958128916476
 30
0.0
 11
194.952897238193
 21
102.9396043737272
 31
0.0
  0
LINE
  5
E8
330
4D
100
AcDbEntity
  8
0
  6
Continuous
 62
     7
100
AcDbLine
 10
198.5028972381927
 20
93.07958128916599
 30
0.0
 11
194.952897238193
 21
96.87958128916476
 31
0.0
  0
LINE
  5
E9
330
4D
100
AcDbEntity
  8
0
  6
Continuous
 62
     7
100
AcDbLine
 10
198.718250396038
 20
93.14203370493992
 30
0.0
 11
195.1528972381935
 21
96.9584680710834
 31
0.0
  0
LINE
  5
EA
330
4D
100
AcDbEntity
  8
0
  6
Continuous
 62
     7
100
AcDbLine
 10
194.952897238193
 20
96.87958128916476
 30
0.0
 11
195.1528972381935
 21
96.9584680710834
 31
0.0
  0
LINE
  5
EB
330
4D
100
AcDbEntity
  8
0
  6
Continuous
 62
     7
100
AcDbLine
 10
202.1321419175557
 20
96.07958128916616
 30
0.0
 11
201.0799993465688
 21
97.2058184074057
 31
0.0
  0
LINE
  5
EC
330
4D
100
AcDbEntity
  8
0
  6
Continuous
 62
     7
100
AcDbLine
 10
198.5028972381927
 20
93.07958128916599
 30
0.0
 11
197.5449582209982
 21
93.07958128916549
 31
0.0
  0
LINE
  5
ED
330
4D
100
AcDbEntity
  8
0
  6
Continuous
 62
     7
100
AcDbLine
 10
197.5449582209982
 20
93.07958128916549
 30
0.0
 11
194.2528972381927
 21
96.60347755245024
 31
0.0
  0
LINE
  5
EE
330
4D
100
AcDbEntity
  8
0
  6
Continuous
 62
     7
100
AcDbLine
 10
198.5028972381927
 20
93.07958128916599
 30
0.0
 11
203.5028972381926
 21
94.52958128916616
 31
0.0
  0
LINE
  5
EF
330
4D
100
AcDbEntity
  8
0
  6
Continuous
 62
     7
100
AcDbLine
 10
204.2028972381928
 20
94.52958128916599
 30
0.0
 11
203.5028972381926
 21
94.52958128916616
 31
0.0
  0
LINE
  5
F0
330
4D
100
AcDbEntity
  8
0
  6
Continuous
 62
     7
100
AcDbLine
 10
204.502897238193
 20
96.07958128916567
 30
0.0
 11
204.5028972381928
 21
94.82958128916594
 31
0.0
  0
LINE
  5
F1
330
4D
100
AcDbEntity
  8
0
  6
Continuous
 62
     7
100
AcDbLine
 10
202.1321419175557
 20
96.07958128916616
 30
0.0
 11
204.502897238193
 21
96.07958128916567
 31
0.0
  0
LINE
  5
F2
330
4D
100
AcDbEntity
  8
0
  6
Continuous
 62
     7
100
AcDbLine
 10
98.1506857205086
 20
102.9396043737272
 30
0.0
 11
98.15068572050856
 21
94.3729294128911
 31
0.0
  0
LINE
  5
F3
330
4D
100
AcDbEntity
  8
0
  6
Continuous
 62
     7
100
AcDbLine
 10
92.75068572050824
 20
102.9396043737272
 30
0.0
 11
92.7506857205083
 21
94.3729294128911
 31
0.0
  0
LINE
  5
F4
330
4D
100
AcDbEntity
  8
0
  6
Continuous
 62
     7
100
AcDbLine
 10
199.652897238193
 20
102.9396043737272
 30
0.0
 11
199.652897238193
 21
100.823920385108
 31
0.0
  0
LINE
  5
F5
330
4D
100
AcDbEntity
  8
0
  6
Continuous
 62
     7
100
AcDbLine
 10
197.4528972381935
 20
102.9396043737272
 30
0.0
 11
197.4528972381935
 21
97.8656660631498
 31
0.0
  0
LINE
  5
F6
330
4D
100
AcDbEntity
  8
0
  6
Continuous
 62
     7
100
AcDbLine
 10
196.4528972381931
 20
102.9396043737272
 30
0.0
 11
196.4528972381931
 21
97.47123215355595
 31
0.0
  0
LINE
  5
F7
330
4D
100
AcDbEntity
  8
0
  6
Continuous
 62
     7
100
AcDbLine
 10
195.1528972381935
 20
102.9396043737272
 30
0.0
 11
195.1528972381935
 21
96.9584680710834
 31
0.0
  0
LINE
  5
F8
330
4D
100
AcDbEntity
  8
0
  6
Continuous
 62
     7
100
AcDbLine
 10
194.2528972381924
 20
102.9396043737272
 30
0.0
 11
194.2528972381927
 21
96.60347755245024
 31
0.0
  0
ARC
  5
F9
330
4D
100
AcDbEntity
  8
1
  6
Continuous
 62
     7
100
AcDbCircle
 10
204.9528972381931
 20
100.8239203851078
 30
0.0
 40
6.19999999999979
100
AcDbArc
 50
180.0000000000074
 51
223.0519149935001
  0
ARC
  5
FA
330
4D
100
AcDbEntity
  8
0
  6
Continuous
 62
     7
100
AcDbCircle
 10
204.202897238193
 20
94.82958128916594
 30
0.0
 40
0.2999999999999545
100
AcDbArc
 50
269.999999999962
 51
0.0
  0
ARC
  5
FB
330
4D
100
AcDbEntity
  8
1
  6
Continuous
 62
     7
100
AcDbCircle
 10
204.9528972381931
 20
100.8239203851078
 30
0.0
 40
5.300000000000097
100
AcDbArc
 50
179.9999999999979
 51
223.0519149934887
  0
ARC
  5
FC
330
4D
100
AcDbEntity
  8
1
  6
Continuous
 62
     7
100
AcDbCircle
 10
204.9528972381931
 20
100.8239203851078
 30
0.0
 40
5.999999999999602
100
AcDbArc
 50
180.0000000000133
 51
223.0519149934968
  0
ENDBLK
  5
4F
330
4D
100
AcDbEntity
  8
0
100
AcDbBlockEnd
  0
BLOCK
  5
51
330
50
100
AcDbEntity
  8
0
100
AcDbBlockBegin
  2
35-199A
 70
     0
 10
691.1089491095801
 20
202.5110896023754
 30
0.0
  3
35-199A
  1

  0
LINE
  5
FD
330
50
100
AcDbEntity
  8
1
  6
Continuous
 62
     7
100
AcDbLine
 10
81.45068572050843
 20
155.939601373727
 30
0.0
 11
81.45068572050874
 21
143.9371703737271
 31
0.0
  0
LINE
  5
FE
330
50
100
AcDbEntity
  8
1
  6
Continuous
 62
     7
100
AcDbLine
 10
109.4506857205083
 20
155.939601373727
 30
0.0
 11
109.4506857205083
 21
143.9371703737271
 31
0.0
  0
LINE
  5
FF
330
50
100
AcDbEntity
  8
1
  6
Continuous
 62
     7
100
AcDbLine
 10
109.4506857205083
 20
155.939601373727
 30
0.0
 11
81.45068572050843
 21
155.939601373727
 31
0.0
  0
LINE
  5
100
330
50
100
AcDbEntity
  8
1
  6
Continuous
 62
     7
100
AcDbLine
 10
181.9506857205087
 20
144.9371703737271
 30
0.0
 11
191.5655209133741
 21
144.9371703737271
 31
0.0
  0
LINE
  5
101
330
50
100
AcDbEntity
  8
1
  6
Continuous
 62
     7
100
AcDbLine
 10
191.5655209133741
 20
155.939601373727
 30
0.0
 11
181.9506857205087
 21
155.939601373727
 31
0.0
  0
LINE
  5
102
330
50
100
AcDbEntity
  8
1
  6
Continuous
 62
     7
100
AcDbLine
 10
217.4506857205084
 20
122.9395983737271
 30
0.0
 11
176.4506857205084
 21
122.9395983737271
 31
0.0
  0
LINE
  5
103
330
50
100
AcDbEntity
  8
1
  6
Continuous
 62
     7
100
AcDbLine
 10
174.9506857205084
 20
124.4395983737271
 30
0.0
 11
174.9506857205084
 21
124.9395983737271
 31
0.0
  0
LINE
  5
104
330
50
100
AcDbEntity
  8
1
  6
Continuous
 62
     7
100
AcDbLine
 10
181.9506857205087
 20
144.9371703737271
 30
0.0
 11
181.9506857205087
 21
155.939601373727
 31
0.0
  0
LINE
  5
105
330
50
100
AcDbEntity
  8
1
  6
Continuous
 62
     7
100
AcDbLine
 10
181.9506857205087
 20
155.939601373727
 30
0.0
 11
182.9506857205084
 21
156.939601373727
 31
0.0
  0
LINE
  5
106
330
50
100
AcDbEntity
  8
1
  6
Continuous
 62
     7
100
AcDbLine
 10
184.2006857205084
 20
125.4395983737271
 30
0.0
 11
184.2006857205084
 21
143.9371703737271
 31
0.0
  0
LINE
  5
107
330
50
100
AcDbEntity
  8
1
  6
Continuous
 62
     7
100
AcDbLine
 10
182.9506857205087
 20
143.9371703737271
 30
0.0
 11
181.9506857205087
 21
144.9371703737271
 31
0.0
  0
LINE
  5
108
330
50
100
AcDbEntity
  8
1
  6
Continuous
 62
     7
100
AcDbLine
 10
182.9506857205087
 20
143.9371703737271
 30
0.0
 11
184.2006857205084
 21
143.9371703737271
 31
0.0
  0
LINE
  5
109
330
50
100
AcDbEntity
  8
1
  6
Continuous
 62
     7
100
AcDbLine
 10
175.4506857205084
 20
125.4395983737271
 30
0.0
 11
184.2006857205084
 21
125.4395983737271
 31
0.0
  0
LINE
  5
10A
330
50
100
AcDbEntity
  8
1
  6
Continuous
 62
     7
100
AcDbLine
 10
218.9506857205084
 20
124.9395983737271
 30
0.0
 11
218.9506857205084
 21
124.4395983737271
 31
0.0
  0
LINE
  5
10B
330
50
100
AcDbEntity
  8
1
  6
Continuous
 62
     7
100
AcDbLine
 10
210.9506857205083
 20
156.939601373727
 30
0.0
 11
211.9506857205084
 21
155.939601373727
 31
0.0
  0
LINE
  5
10C
330
50
100
AcDbEntity
  8
1
  6
Continuous
 62
     7
100
AcDbLine
 10
209.7006857205084
 20
143.9371703737271
 30
0.0
 11
209.7006857205084
 21
125.4395983737271
 31
0.0
  0
LINE
  5
10D
330
50
100
AcDbEntity
  8
1
  6
Continuous
 62
     7
100
AcDbLine
 10
211.9506857205084
 20
146.8871733737272
 30
0.0
 11
211.9506857205083
 21
144.9371703737271
 31
0.0
  0
LINE
  5
10E
330
50
100
AcDbEntity
  8
1
  6
Continuous
 62
     7
100
AcDbLine
 10
211.9506857205084
 20
146.8871733737272
 30
0.0
 11
211.9506857205084
 21
155.939601373727
 31
0.0
  0
LINE
  5
10F
330
50
100
AcDbEntity
  8
1
  6
Continuous
 62
     7
100
AcDbLine
 10
184.2006857205084
 20
125.4395983737271
 30
0.0
 11
218.4506857205084
 21
125.4395983737271
 31
0.0
  0
LINE
  5
110
330
50
100
AcDbEntity
  8
1
  6
Continuous
 62
     7
100
AcDbLine
 10
210.9506857205083
 20
143.9371703737271
 30
0.0
 11
211.9506857205083
 21
144.9371703737271
 31
0.0
  0
LINE
  5
111
330
50
100
AcDbEntity
  8
1
  6
Continuous
 62
     7
100
AcDbLine
 10
81.4506857205084
 20
156.939601373727
 30
0.0
 11
81.45068572050843
 21
155.939601373727
 31
0.0
  0
LINE
  5
112
330
50
100
AcDbEntity
  8
1
  6
Continuous
 62
     7
100
AcDbLine
 10
109.4506857205083
 20
156.939601373727
 30
0.0
 11
109.4506857205083
 21
155.939601373727
 31
0.0
  0
LINE
  5
113
330
50
100
AcDbEntity
  8
1
  6
Continuous
 62
     7
100
AcDbLine
 10
108.2006857205084
 20
125.4395983737271
 30
0.0
 11
82.7006857205084
 21
125.4395983737271
 31
0.0
  0
LINE
  5
114
330
50
100
AcDbEntity
  8
1
  6
Continuous
 62
     7
100
AcDbLine
 10
82.7006857205084
 20
143.9371703737271
 30
0.0
 11
108.2006857205084
 21
143.9371703737271
 31
0.0
  0
LINE
  5
115
330
50
100
AcDbEntity
  8
1
  6
Continuous
 62
     7
100
AcDbLine
 10
109.4506857205083
 20
144.9371703737271
 30
0.0
 11
81.45068572050869
 21
144.9371703737271
 31
0.0
  0
LINE
  5
116
330
50
100
AcDbEntity
  8
1
  6
Continuous
 62
     7
100
AcDbLine
 10
115.9506857205084
 20
122.9395983737271
 30
0.0
 11
74.9506857205084
 21
122.9395983737271
 31
0.0
  0
LINE
  5
117
330
50
100
AcDbEntity
  8
1
  6
Continuous
 62
     7
100
AcDbLine
 10
109.4506857205083
 20
156.939601373727
 30
0.0
 11
81.4506857205084
 21
156.939601373727
 31
0.0
  0
LINE
  5
118
330
50
100
AcDbEntity
  8
1
  6
Continuous
 62
     7
100
AcDbLine
 10
73.4506857205084
 20
124.4395983737271
 30
0.0
 11
73.4506857205084
 21
124.9395983737271
 31
0.0
  0
LINE
  5
119
330
50
100
AcDbEntity
  8
1
  6
Continuous
 62
     7
100
AcDbLine
 10
82.7006857205084
 20
125.4395983737271
 30
0.0
 11
82.7006857205084
 21
143.9371703737271
 31
0.0
  0
LINE
  5
11A
330
50
100
AcDbEntity
  8
1
  6
Continuous
 62
     7
100
AcDbLine
 10
81.45068572050874
 20
143.9371703737271
 30
0.0
 11
82.7006857205084
 21
143.9371703737271
 31
0.0
  0
LINE
  5
11B
330
50
100
AcDbEntity
  8
1
  6
Continuous
 62
     7
100
AcDbLine
 10
73.9506857205084
 20
125.4395983737271
 30
0.0
 11
82.7006857205084
 21
125.4395983737271
 31
0.0
  0
LINE
  5
11C
330
50
100
AcDbEntity
  8
1
  6
Continuous
 62
     7
100
AcDbLine
 10
117.4506857205084
 20
124.9395983737271
 30
0.0
 11
117.4506857205084
 21
124.4395983737271
 31
0.0
  0
LINE
  5
11D
330
50
100
AcDbEntity
  8
1
  6
Continuous
 62
     7
100
AcDbLine
 10
108.2006857205084
 20
143.9371703737271
 30
0.0
 11
108.2006857205084
 21
125.4395983737271
 31
0.0
  0
LINE
  5
11E
330
50
100
AcDbEntity
  8
1
  6
Continuous
 62
     7
100
AcDbLine
 10
108.2006857205084
 20
143.9371703737271
 30
0.0
 11
109.4506857205083
 21
143.9371703737271
 31
0.0
  0
LINE
  5
11F
330
50
100
AcDbEntity
  8
1
  6
Continuous
 62
     7
100
AcDbLine
 10
108.2006857205084
 20
125.4395983737271
 30
0.0
 11
116.9506857205084
 21
125.4395983737271
 31
0.0
  0
LINE
  5
120
330
50
100
AcDbEntity
  8
1
  6
Continuous
 62
     7
100
AcDbLine
 10
81.45068572050852
 20
318.1301940745526
 30
0.0
 11
81.45068572050852
 21
310.07392661141
 31
0.0
  0
LINE
  5
121
330
50
100
AcDbEntity
  8
1
  6
Continuous
 62
     7
100
AcDbLine
 10
109.4506857205085
 20
318.1301940745521
 30
0.0
 11
109.4506857205085
 21
310.0739266114099
 31
0.0
  0
LINE
  5
122
330
50
100
AcDbEntity
  8
1
  6
Continuous
 62
     7
100
AcDbLine
 10
184.2006857205084
 20
143.9371703737271
 30
0.0
 11
210.9506857205083
 21
143.9371703737271
 31
0.0
  0
LINE
  5
123
330
50
100
AcDbEntity
  8
1
  6
Continuous
 62
     7
100
AcDbLine
 10
182.9506857205084
 20
156.939601373727
 30
0.0
 11
210.9506857205083
 21
156.939601373727
 31
0.0
  0
LINE
  5
124
330
50
100
AcDbEntity
  8
1
  6
Continuous
 62
     2
100
AcDbLine
 10
202.3358505276424
 20
144.9371703737272
 30
0.0
 11
191.5655209133741
 21
155.939601373727
 31
0.0
  0
LINE
  5
125
330
50
100
AcDbEntity
  8
1
  6
Continuous
 62
     7
100
AcDbLine
 10
191.5655209133741
 20
155.939601373727
 30
0.0
 11
191.5655209133741
 21
144.9371703737271
 31
0.0
  0
LINE
  5
126
330
50
100
AcDbEntity
  8
1
  6
Continuous
 62
     2
100
AcDbLine
 10
191.5655209133741
 20
144.9371703737271
 30
0.0
 11
202.3358505276424
 21
155.9396013737271
 31
0.0
  0
LINE
  5
127
330
50
100
AcDbEntity
  8
1
  6
Continuous
 62
     7
100
AcDbLine
 10
202.3358505276424
 20
155.9396013737271
 30
0.0
 11
202.3358505276424
 21
144.9371703737272
 31
0.0
  0
LINE
  5
128
330
50
100
AcDbEntity
  8
1
  6
Continuous
 62
     7
100
AcDbLine
 10
202.3358505276424
 20
144.9371703737272
 30
0.0
 11
211.9506857205083
 21
144.9371703737271
 31
0.0
  0
LINE
  5
129
330
50
100
AcDbEntity
  8
1
  6
Continuous
 62
     7
100
AcDbLine
 10
211.9506857205084
 20
155.939601373727
 30
0.0
 11
202.3358505276424
 21
155.9396013737271
 31
0.0
  0
ARC
  5
12A
330
50
100
AcDbEntity
  8
1
  6
Continuous
 62
     7
100
AcDbCircle
 10
95.4506857205084
 20
312.7450292674179
 30
0.0
 40
14.99999999999998
100
AcDbArc
 50
21.03946978131593
 51
45.57299599919402
  0
ARC
  5
12B
330
50
100
AcDbEntity
  8
1
  6
Continuous
 62
     7
100
AcDbCircle
 10
95.4506857205084
 20
312.7450292674179
 30
0.0
 40
22.00000000000001
100
AcDbArc
 50
314.792833702367
 51
61.49256949064344
  0
ARC
  5
12C
330
50
100
AcDbEntity
  8
1
  6
Continuous
 62
     7
100
AcDbCircle
 10
95.4506857205084
 20
312.7450292674179
 30
0.0
 40
22.0
100
AcDbArc
 50
118.5074305093564
 51
225.2071662976338
  0
ARC
  5
12D
330
50
100
AcDbEntity
  8
1
  6
Continuous
 62
     7
100
AcDbCircle
 10
95.4506857205084
 20
312.7450292674179
 30
0.0
 40
14.99999999999993
100
AcDbArc
 50
134.4270040008054
 51
158.960530218682
  0
ARC
  5
12E
330
50
100
AcDbEntity
  8
1
  6
Continuous
 62
     7
100
AcDbCircle
 10
196.9506857205084
 20
141.9396013737305
 30
0.0
 40
14.99999999999664
100
AcDbArc
 50
68.96053021867988
 51
111.0394697813214
  0
ARC
  5
12F
330
50
100
AcDbEntity
  8
1
  6
Continuous
 62
     7
100
AcDbCircle
 10
196.9506857205084
 20
158.9371703737241
 30
0.0
 40
14.99999999999712
100
AcDbArc
 50
248.9605302186793
 51
291.0394697813197
  0
ARC
  5
130
330
50
100
AcDbEntity
  8
1
  6
Continuous
 62
     7
100
AcDbCircle
 10
175.4506857205084
 20
124.9395983737271
 30
0.0
 40
0.5
100
AcDbArc
 50
90.0
 51
180.0
  0
ARC
  5
131
330
50
100
AcDbEntity
  8
1
  6
Continuous
 62
     7
100
AcDbCircle
 10
176.4506857205084
 20
124.4395983737271
 30
0.0
 40
1.5
100
AcDbArc
 50
180.0
 51
270.0
  0
ARC
  5
132
330
50
100
AcDbEntity
  8
1
  6
Continuous
 62
     7
100
AcDbCircle
 10
218.4506857205084
 20
124.9395983737271
 30
0.0
 40
0.5
100
AcDbArc
 50
0.0
 51
90.0
  0
ARC
  5
133
330
50
100
AcDbEntity
  8
1
  6
Continuous
 62
     7
100
AcDbCircle
 10
217.4506857205084
 20
124.4395983737271
 30
0.0
 40
1.5
100
AcDbArc
 50
270.0
 51
0.0
  0
ARC
  5
134
330
50
100
AcDbEntity
  8
1
  6
Continuous
 62
     7
100
AcDbCircle
 10
73.9506857205084
 20
124.9395983737271
 30
0.0
 40
0.5
100
AcDbArc
 50
90.0
 51
180.0
  0
ARC
  5
135
330
50
100
AcDbEntity
  8
1
  6
Continuous
 62
     7
100
AcDbCircle
 10
74.9506857205084
 20
124.4395983737271
 30
0.0
 40
1.5
100
AcDbArc
 50
180.0
 51
270.0
  0
ARC
  5
136
330
50
100
AcDbEntity
  8
1
  6
Continuous
 62
     7
100
AcDbCircle
 10
116.9506857205084
 20
124.9395983737271
 30
0.0
 40
0.5
100
AcDbArc
 50
0.0
 51
90.0
  0
ARC
  5
137
330
50
100
AcDbEntity
  8
1
  6
Continuous
 62
     7
100
AcDbCircle
 10
115.9506857205084
 20
124.4395983737271
 30
0.0
 40
1.5
100
AcDbArc
 50
270.0
 51
0.0
  0
ENDBLK
  5
52
330
50
100
AcDbEntity
  8
0
100
AcDbBlockEnd
  0
BLOCK
  5
57
330
53
100
AcDbEntity
  8
0
100
AcDbBlockBegin
  2
35-199BX
 70
     0
 10
481.8977865387964
 20
7.8968331351702
 30
0.0
  3
35-199BX
  1

  0
INSERT
  5
54
330
53
100
AcDbEntity
  8
0
100
AcDbBlockReference
  2
14-38D
 10
836.1394109864754
 20
148.7375293387858
 30
0.0
  0
INSERT
  5
55
330
53
100
AcDbEntity
  8
0
100
AcDbBlockReference
  2
81-93A
 10
602.6247104134433
 20
-226.2630365578598
 30
0.0
  0
INSERT
  5
56
330
53
100
AcDbEntity
  8
0
100
AcDbBlockReference
  2
35-199A
 10
691.1089491095801
 20
202.5110896023754
 30
0.0
  0
ENDBLK
  5
58
330
53
100
AcDbEntity
  8
0
100
AcDbBlockEnd
  0
BLOCK
  5
5A
330
59
100
AcDbEntity
  8
0
100
AcDbBlockBegin
  2
81-100
 70
     0
 10
458.1755013008559
 20
327.0412148163769
 30
0.0
  3
81-100
  1

  0
LINE
  5
138
330
59
100
AcDbEntity
  8
1
  6
PHANTOM
 62
     5
100
AcDbLine
 10
267.4325950332667
 20
354.9396013737269
 30
0.0
 11
253.9325950332667
 21
354.9396013737269
 31
0.0
  0
LINE
  5
139
330
59
100
AcDbEntity
  8
1
  6
PHANTOM
 62
     5
100
AcDbLine
 10
267.4325950332667
 20
346.9396013737268
 30
0.0
 11
253.9325950332667
 21
346.9396013737268
 31
0.0
  0
LINE
  5
13A
330
59
100
AcDbEntity
  8
1
  6
Continuous
 62
     7
100
AcDbLine
 10
240.4325950332668
 20
335.4396013737269
 30
0.0
 11
240.4325950332668
 21
335.964622241855
 31
0.0
  0
LINE
  5
13B
330
59
100
AcDbEntity
  8
1
  6
Continuous
 62
     7
100
AcDbLine
 10
232.4325950332667
 20
335.4396013737269
 30
0.0
 11
232.4325950332667
 21
335.964622241855
 31
0.0
  0
LINE
  5
13C
330
59
100
AcDbEntity
  8
1
  6
Continuous
 62
     7
100
AcDbLine
 10
240.4325950332668
 20
335.4396013737269
 30
0.0
 11
240.4325950332668
 21
335.4396013737293
 31
0.0
  0
LINE
  5
13D
330
59
100
AcDbEntity
  8
1
  6
Continuous
 62
     7
100
AcDbLine
 10
240.4325950332669
 20
319.939601373727
 30
0.0
 11
240.4325950332668
 21
335.4396013737269
 31
0.0
  0
LINE
  5
13E
330
59
100
AcDbEntity
  8
1
  6
Continuous
 62
     7
100
AcDbLine
 10
232.4325950332668
 20
319.939601373727
 30
0.0
 11
232.4325950332667
 21
335.4396013737269
 31
0.0
  0
LINE
  5
13F
330
59
100
AcDbEntity
  8
1
  6
Continuous
 62
     7
100
AcDbLine
 10
240.4325950332668
 20
366.939601373727
 30
0.0
 11
240.4325950332668
 21
365.9145805055988
 31
0.0
  0
LINE
  5
140
330
59
100
AcDbEntity
  8
1
  6
Continuous
 62
     7
100
AcDbLine
 10
232.4325950332668
 20
366.939601373727
 30
0.0
 11
232.4325950332668
 21
365.9145805055988
 31
0.0
  0
LINE
  5
141
330
59
100
AcDbEntity
  8
1
  6
Continuous
 62
     7
100
AcDbLine
 10
174.891057977171
 20
193.5789189002813
 30
0.0
 11
170.0598127552482
 21
198.4101641222042
 31
0.0
  0
LINE
  5
142
330
59
100
AcDbEntity
  8
1
  6
Continuous
 62
     7
100
AcDbLine
 10
193.8046702963478
 20
218.5059270146705
 30
0.0
 11
191.9801229720312
 21
220.3304743389871
 31
0.0
  0
LINE
  5
143
330
59
100
AcDbEntity
  8
1
  6
Continuous
 62
     7
100
AcDbLine
 10
179.0400688763175
 20
189.7127507136097
 30
0.0
 11
200.6775363806257
 21
211.3502182179179
 31
0.0
  0
LINE
  5
144
330
59
100
AcDbEntity
  8
1
  6
Continuous
 62
     7
100
AcDbLine
 10
193.8046702963478
 20
218.5059270146705
 30
0.0
 11
200.6775363806257
 21
211.6330609303926
 31
0.0
  0
LINE
  5
145
330
59
100
AcDbEntity
  8
1
  6
Continuous
 62
     7
100
AcDbLine
 10
174.891057977171
 20
193.5789189002813
 30
0.0
 11
178.7572261638428
 21
189.7127507136097
 31
0.0
  0
LINE
  5
146
330
59
100
AcDbEntity
  8
1
  6
Continuous
 62
     7
100
AcDbLine
 10
79.9506857205084
 20
209.3703192305956
 30
0.0
 11
79.9506857205084
 21
200.6729058220011
 31
0.0
  0
LINE
  5
147
330
59
100
AcDbEntity
  8
1
  6
Continuous
 62
     7
100
AcDbLine
 10
110.9506857205084
 20
209.3703192305956
 30
0.0
 11
110.9506857205084
 21
200.6729058220011
 31
0.0
  0
LINE
  5
148
330
59
100
AcDbEntity
  8
1
  6
Continuous
 62
     7
100
AcDbLine
 10
110.9506857205085
 20
296.5681126091373
 30
0.0
 11
110.9506857205085
 21
305.2655260177318
 31
0.0
  0
LINE
  5
149
330
59
100
AcDbEntity
  8
1
  6
Continuous
 62
     7
100
AcDbLine
 10
79.95068572050852
 20
296.5681126091374
 30
0.0
 11
79.95068572050852
 21
305.2655260177319
 31
0.0
  0
ARC
  5
14A
330
59
100
AcDbEntity
  8
1
  6
Continuous
 62
     7
100
AcDbCircle
 10
207.1829187675421
 20
172.6007666088952
 30
0.0
 40
60.00000000000006
100
AcDbArc
 50
130.2420766648552
 51
135.0
  0
ARC
  5
14B
330
59
100
AcDbEntity
  8
1
  6
PHANTOM
 62
     5
100
AcDbCircle
 10
220.4325950332667
 20
350.9396013737269
 30
0.0
 40
3.99999999999989
100
AcDbArc
 50
100.0000000000013
 51
259.9999999999989
  0
ARC
  5
14C
330
59
100
AcDbEntity
  8
1
  6
PHANTOM
 62
     5
100
AcDbCircle
 10
267.4325950332667
 20
350.9396013737269
 30
0.0
 40
4.000000000000057
100
AcDbArc
 50
270.0
 51
90.0
  0
ARC
  5
14D
330
59
100
AcDbEntity
  8
1
  6
Continuous
 62
     7
100
AcDbCircle
 10
236.4325950332669
 20
366.939601373727
 30
0.0
 40
3.999999999999915
100
AcDbArc
 50
0.0
 51
180.0
  0
ARC
  5
14E
330
59
100
AcDbEntity
  8
1
  6
Continuous
 62
     7
100
AcDbCircle
 10
236.4325950332669
 20
350.9396013737269
 30
0.0
 40
15.50000000000001
100
AcDbArc
 50
104.9552483166437
 51
255.0447516833559
  0
ARC
  5
14F
330
59
100
AcDbEntity
  8
1
  6
Continuous
 62
     7
100
AcDbCircle
 10
236.4325950332669
 20
350.9396013737269
 30
0.0
 40
15.49999999999991
100
AcDbArc
 50
284.9552483166431
 51
75.04475168335695
  0
ARC
  5
150
330
59
100
AcDbEntity
  8
1
  6
Continuous
 62
     7
100
AcDbCircle
 10
236.4325950332669
 20
319.939601373727
 30
0.0
 40
4.000000000000085
100
AcDbArc
 50
180.0
 51
0.0
  0
ARC
  5
151
330
59
100
AcDbEntity
  8
1
  6
Continuous
 62
     7
100
AcDbCircle
 10
181.0199678636397
 20
209.3703192305956
 30
0.0
 40
15.50000000000006
100
AcDbArc
 50
144.3688518236541
 51
224.9999999999998
  0
ARC
  5
152
330
59
100
AcDbEntity
  8
1
  6
Continuous
 62
     7
100
AcDbCircle
 10
181.0199678636397
 20
209.3703192305956
 30
0.0
 40
15.50000000000002
100
AcDbArc
 50
44.99999999999993
 51
106.4977761969173
  0
ARC
  5
153
330
59
100
AcDbEntity
  8
1
  6
Continuous
 62
     7
100
AcDbCircle
 10
158.038997475077
 20
192.7533098727118
 30
0.0
 40
6.999999999999926
100
AcDbArc
 50
179.320994542952
 51
225.0000000000007
  0
ARC
  5
154
330
59
100
AcDbEntity
  8
1
  6
Continuous
 62
     7
100
AcDbCircle
 10
207.1829187675421
 20
172.6007666088952
 30
0.0
 40
60.00000000000006
100
AcDbArc
 50
135.0
 51
158.4127194836068
  0
ARC
  5
155
330
59
100
AcDbEntity
  8
1
  6
Continuous
 62
     7
100
AcDbCircle
 10
137.8864542112604
 20
241.8972311651769
 30
0.0
 40
59.99999999999985
100
AcDbArc
 50
338.1688797851182
 51
338.4127194836071
  0
ARC
  5
156
330
59
100
AcDbEntity
  8
1
  6
Continuous
 62
     7
100
AcDbCircle
 10
158.038997475077
 20
192.7533098727118
 30
0.0
 40
6.999999999999895
100
AcDbArc
 50
225.0000000000007
 51
272.3771453921676
  0
ARC
  5
157
330
59
100
AcDbEntity
  8
1
  6
Continuous
 62
     7
100
AcDbCircle
 10
137.8864542112604
 20
241.8972311651769
 30
0.0
 40
59.99999999999991
100
AcDbArc
 50
291.5872805163922
 51
306.5155502586234
  0
ARC
  5
158
330
59
100
AcDbEntity
  8
1
  6
Continuous
 62
     7
100
AcDbCircle
 10
187.0303755037255
 20
221.7446879013603
 30
0.0
 40
6.999999999999984
100
AcDbArc
 50
357.6228546078151
 51
45.00000000000066
  0
ARC
  5
159
330
59
100
AcDbEntity
  8
1
  6
Continuous
 62
     7
100
AcDbCircle
 10
207.1829187675421
 20
172.6007666088952
 30
0.0
 40
60.00000000000003
100
AcDbArc
 50
111.5872805163928
 51
120.6245513557164
  0
ARC
  5
15A
330
59
100
AcDbEntity
  8
1
  6
Continuous
 62
     7
100
AcDbCircle
 10
187.0303755037255
 20
221.7446879013603
 30
0.0
 40
6.999999999999895
100
AcDbArc
 50
45.00000000000066
 51
92.37714539218422
  0
ARC
  5
15B
330
59
100
AcDbEntity
  8
1
  6
Continuous
 62
     7
100
AcDbCircle
 10
181.0199678636397
 20
209.3703192305956
 30
0.0
 40
15.49999999999992
100
AcDbArc
 50
115.4997676717068
 51
135.0
  0
ARC
  5
15C
330
59
100
AcDbEntity
  8
1
  6
Continuous
 62
     7
100
AcDbCircle
 10
181.0199678636397
 20
209.3703192305956
 30
0.0
 40
15.49999999999995
100
AcDbArc
 50
106.4977761969173
 51
115.4997676717068
  0
ARC
  5
15D
330
59
100
AcDbEntity
  8
1
  6
Continuous
 62
     7
100
AcDbCircle
 10
181.0199678636397
 20
209.3703192305956
 30
0.0
 40
15.50000000000001
100
AcDbArc
 50
135.0
 51
144.3688518236541
  0
ARC
  5
15E
330
59
100
AcDbEntity
  8
1
  6
Continuous
 62
     7
100
AcDbCircle
 10
95.4506857205084
 20
225.0306189277944
 30
0.0
 40
3.714068973565901
100
AcDbArc
 50
90.0
 51
180.0
  0
ARC
  5
15F
330
59
100
AcDbEntity
  8
1
  6
Continuous
 62
     7
100
AcDbCircle
 10
95.4506857205084
 20
209.3703192305956
 30
0.0
 40
15.49999999999994
100
AcDbArc
 50
103.9381887563829
 51
180.0
  0
ARC
  5
160
330
59
100
AcDbEntity
  8
1
  6
Continuous
 62
     7
100
AcDbCircle
 10
95.4506857205084
 20
209.3703192305956
 30
0.0
 40
15.5
100
AcDbArc
 50
0.0
 51
76.06181124361667
  0
ARC
  5
161
330
59
100
AcDbEntity
  8
1
  6
Continuous
 62
     7
100
AcDbCircle
 10
-453.5983690987308
 20
207.248998887036
 30
0.0
 40
553.0490548192391
100
AcDbArc
 50
1.77857029341448
 51
1.84249007709971
  0
ARC
  5
162
330
59
100
AcDbEntity
  8
1
  6
Continuous
 62
     7
100
AcDbCircle
 10
644.4997405397489
 20
207.248998887036
 30
0.0
 40
553.0490548192405
100
AcDbArc
 50
178.1575099229003
 51
178.2214297065855
  0
ARC
  5
163
330
59
100
AcDbEntity
  8
1
  6
Continuous
 62
     7
100
AcDbCircle
 10
-465.1369826149438
 20
207.2554351879528
 30
0.0
 40
564.5820274135466
100
AcDbArc
 50
358.1945063825286
 51
0.30827799973305
  0
ARC
  5
164
330
59
100
AcDbEntity
  8
1
  6
Continuous
 62
     7
100
AcDbCircle
 10
656.0384087655428
 20
207.2554352184684
 30
0.0
 40
564.5820820969294
100
AcDbArc
 50
179.6917220332228
 51
181.8054934456383
  0
ARC
  5
165
330
59
100
AcDbEntity
  8
1
  6
Continuous
 62
     7
100
AcDbCircle
 10
95.4506857205084
 20
189.4673788462775
 30
0.0
 40
3.714068973565873
100
AcDbArc
 50
180.0
 51
0.0
  0
ARC
  5
166
330
59
100
AcDbEntity
  8
1
  6
Continuous
 62
     7
100
AcDbCircle
 10
95.4506857205084
 20
225.0306189277944
 30
0.0
 40
3.714068973565873
100
AcDbArc
 50
0.0
 51
90.0
  0
ARC
  5
167
330
59
100
AcDbEntity
  8
1
  6
Continuous
 62
     7
100
AcDbCircle
 10
158.038997475077
 20
192.7533098727118
 30
0.0
 40
6.999999999999838
100
AcDbArc
 50
177.6228546078046
 51
179.320994542952
  0
ARC
  5
168
330
59
100
AcDbEntity
  8
1
  6
Continuous
 62
     7
100
AcDbCircle
 10
95.45068572050852
 20
296.5681126091374
 30
0.0
 40
15.50000000000003
100
AcDbArc
 50
283.9381887563826
 51
359.9999999999996
  0
ARC
  5
169
330
59
100
AcDbEntity
  8
1
  6
Continuous
 62
     7
100
AcDbCircle
 10
95.45068572050852
 20
296.5681126091374
 30
0.0
 40
15.5
100
AcDbArc
 50
180.0
 51
256.0618112436168
  0
ARC
  5
16A
330
59
100
AcDbEntity
  8
1
  6
Continuous
 62
     7
100
AcDbCircle
 10
288.049338611964
 20
281.5305865967524
 30
0.0
 40
196.6206235297285
100
AcDbArc
 50
181.0931312415202
 51
183.2069028587246
  0
ARC
  5
16B
330
59
100
AcDbEntity
  8
1
  6
Continuous
 62
     7
100
AcDbCircle
 10
-97.14798622047832
 20
281.5305866272683
 30
0.0
 40
196.6206425511361
100
AcDbArc
 50
356.7930974429345
 51
358.90686885535
  0
ARC
  5
16C
330
59
100
AcDbEntity
  8
1
  6
Continuous
 62
     7
100
AcDbCircle
 10
95.45068572050852
 20
270.5312761108168
 30
0.0
 40
3.714068973565873
100
AcDbArc
 50
180.0
 51
0.0
  0
ARC
  5
16D
330
59
100
AcDbEntity
  8
1
  6
Continuous
 62
     7
100
AcDbCircle
 10
243.8471479126153
 20
295.9207679352073
 30
0.0
 40
152.4510566110545
100
AcDbArc
 50
176.1697416496784
 51
178.2835132668828
  0
ARC
  5
16E
330
59
100
AcDbEntity
  8
1
  6
Continuous
 62
     7
100
AcDbCircle
 10
-52.9457912377072
 20
295.9207679046913
 30
0.0
 40
152.4510713462193
100
AcDbArc
 50
1.71648657863445
 51
3.83025799104987
  0
ARC
  5
16F
330
59
100
AcDbEntity
  8
1
  6
Continuous
 62
     7
100
AcDbCircle
 10
95.45068572050852
 20
306.1046262572712
 30
0.0
 40
3.714068973565873
100
AcDbArc
 50
0.0
 51
180.0
  0
ARC
  5
170
330
59
100
AcDbEntity
  8
1
  6
Continuous
 62
     7
100
AcDbCircle
 10
95.45068572050954
 20
295.2382354434166
 30
0.0
 40
21.23364448411852
100
AcDbArc
 50
79.89822192939043
 51
100.1017780733066
  0
SPLINE
  5
171
330
59
100
AcDbEntity
  8
1
  6
Continuous
 62
     7
100
AcDbSpline
210
0.0
220
0.0
230
1.0
 70
     8
 71
     3
 72
    27
 73
    23
 74
    21
 42
0.000000001
 43
0.0000000001
 44
0.00000001
 40
0.0
 40
0.0
 40
0.0
 40
0.0
 40
0.3521433567560705
 40
0.704448010667728
 40
1.400800675077295
 40
2.097184225501664
 40
2.769838294033586
 40
3.442561383172221
 40
4.07721972105878
 40
4.712002505240279
 40
5.296741623802331
 40
5.881694777238825
 40
6.408245068039262
 40
6.935160786667924
 40
7.400656982103102
 40
7.866768373608862
 40
8.276154744419342
 40
8.686465288213435
 40
9.05503998023104
 40
9.424428423782825
 40
9.77811641037965
 40
10.13180439006614
 40
10.13180439006614
 40
10.13180439006614
 40
10.13180439006614
 10
240.4325950332668
 20
366.4396013737269
 30
0.0
 10
240.4318639298688
 20
366.3222178560751
 30
0.0
 10
240.4304013834582
 20
366.0873970540147
 30
0.0
 10
240.4149557206109
 20
365.6206717129727
 30
0.0
 10
240.3775864765982
 20
365.04001398278
 30
0.0
 10
240.3033198638406
 20
364.355331555103
 30
0.0
 10
240.1992440888001
 20
363.6825185928375
 30
0.0
 10
240.0682055603897
 20
363.0353731942434
 30
0.0
 10
239.9080896981014
 20
362.4078274542755
 30
0.0
 10
239.7243925342109
 20
361.8173529828502
 30
0.0
 10
239.5127959020747
 20
361.2539647950762
 30
0.0
 10
239.2820381876726
 20
360.7373068148551
 30
0.0
 10
239.0249318026741
 20
360.2549872466705
 30
0.0
 10
238.7536578975338
 20
359.8267493020295
 30
0.0
 10
238.458080810462
 20
359.4399579212725
 30
0.0
 10
238.152955431632
 20
359.1120993872673
 30
0.0
 10
237.826563549186
 20
358.8327532389112
 30
0.0
 10
237.493634234822
 20
358.6159121345074
 30
0.0
 10
237.1448889010766
 20
358.4540783212028
 30
0.0
 10
236.7919218005548
 20
358.3601722302242
 30
0.0
 10
236.4321274517244
 20
358.322134805186
 30
0.0
 10
236.1976323309018
 20
358.3529704584751
 30
0.0
 10
236.0803847718307
 20
358.3683882901425
 30
0.0
 11
240.4325950332668
 21
366.4396013737269
 31
0.0
 11
240.4288262141175
 21
366.087478195032
 31
0.0
 11
240.4175197566694
 21
365.7353550163367
 31
0.0
 11
240.372523678382
 21
365.0404576238269
 31
0.0
 11
240.2971475793709
 21
364.3481654217887
 31
0.0
 11
240.1941335647638
 21
363.6834462264138
 31
0.0
 11
240.060057239529
 21
363.0242194872355
 31
0.0
 11
239.9028233166469
 21
362.4093465741016
 31
0.0
 11
239.7134242697948
 21
361.8034776245053
 31
0.0
 11
239.5073317851455
 21
361.2562612829411
 31
0.0
 11
239.2676643391133
 21
360.7226605830504
 31
0.0
 11
239.0192864400619
 21
360.2583722804962
 31
0.0
 11
238.7359568330202
 21
359.8141150260268
 31
0.0
 11
238.4524181434099
 21
359.4449368586294
 31
0.0
 11
238.1335206575419
 21
359.1049894765976
 31
0.0
 11
237.8214130821083
 21
358.8400629552898
 31
0.0
 11
237.476854038458
 21
358.6172764938486
 31
0.0
 11
237.141524229883
 21
358.4643019122514
 31
0.0
 11
236.7848052947026
 21
358.3683882901423
 31
0.0
 11
236.4325950332667
 21
358.3360908455919
 31
0.0
 11
236.0803847718307
 21
358.3683882901425
 31
0.0
  0
SPLINE
  5
172
330
59
100
AcDbEntity
  8
1
  6
Continuous
 62
     7
100
AcDbSpline
210
0.0
220
0.0
230
1.0
 70
     8
 71
     3
 72
    25
 73
    21
 74
    19
 42
0.000000001
 43
0.0000000001
 44
0.00000001
 40
0.0
 40
0.0
 40
0.0
 40
0.0
 40
0.3693884349421108
 40
0.7379631240429417
 40
1.148273668939697
 40
1.557660040225328
 40
2.023771432016603
 40
2.489267627625183
 40
3.016183346390874
 40
3.542733637288715
 40
4.1276867908088
 40
4.712425909433001
 40
5.347208693667141
 40
5.981867031589347
 40
6.654590120750217
 40
7.327244189277572
 40
8.023627739649589
 40
8.71998040384649
 40
9.072285057531756
 40
9.42442841458154
 40
9.42442841458154
 40
9.42442841458154
 40
9.42442841458154
 10
236.0803847718307
 20
358.3683882901425
 30
0.0
 10
235.9600874574079
 20
358.396122702541
 30
0.0
 10
235.7197578422484
 20
358.4515304426466
 30
0.0
 10
235.3717196849056
 20
358.6166805263696
 30
0.0
 10
235.0385809535165
 20
358.8325395769319
 30
0.0
 10
234.7122487205962
 20
359.1121654527263
 30
0.0
 10
234.4071052961459
 20
359.4399393636108
 30
0.0
 10
234.1115333823627
 20
359.8267550047958
 30
0.0
 10
233.8402579197466
 20
360.2549856458737
 30
0.0
 10
233.5831519788154
 20
360.7373072964963
 30
0.0
 10
233.3523941330391
 20
361.253964660577
 30
0.0
 10
233.1407975380138
 20
361.8173530222561
 30
0.0
 10
232.9571003634311
 20
362.4078274433979
 30
0.0
 10
232.7969845041837
 20
363.0353731974438
 30
0.0
 10
232.6659459749789
 20
363.682518592093
 30
0.0
 10
232.5618702002355
 20
364.3553315554509
 30
0.0
 10
232.4876035875354
 20
365.040013982746
 30
0.0
 10
232.4502343436602
 20
365.6206717128591
 30
0.0
 10
232.4347886815537
 20
366.0873970538837
 30
0.0
 10
232.4333261366654
 20
366.322217855978
 30
0.0
 10
232.4325950332668
 20
366.4396013737283
 30
0.0
 11
236.0803847718307
 21
358.3683882901425
 31
0.0
 11
235.7236658366503
 21
358.4643019122514
 31
0.0
 11
235.3883360280753
 21
358.6172764938485
 31
0.0
 11
235.0437769844251
 21
358.8400629552899
 31
0.0
 11
234.7316694089916
 21
359.1049894765975
 31
0.0
 11
234.4127719231234
 21
359.4449368586294
 31
0.0
 11
234.1292332335132
 21
359.8141150260269
 31
0.0
 11
233.8459036264715
 21
360.2583722804962
 31
0.0
 11
233.5975257274201
 21
360.7226605830504
 31
0.0
 11
233.3578582813877
 21
361.256261282941
 31
0.0
 11
233.1517657967385
 21
361.8034776245051
 31
0.0
 11
232.9623667498865
 21
362.4093465741015
 31
0.0
 11
232.8051328270045
 21
363.0242194872354
 31
0.0
 11
232.6710565017698
 21
363.6834462264137
 31
0.0
 11
232.5680424871627
 21
364.3481654217887
 31
0.0
 11
232.4926663881515
 21
365.0404576238269
 31
0.0
 11
232.4476703098641
 21
365.7353550163369
 31
0.0
 11
232.4363638524161
 21
366.0874781950325
 31
0.0
 11
232.4325950332668
 21
366.4396013737283
 31
0.0
  0
SPLINE
  5
173
330
59
100
AcDbEntity
  8
1
  6
Continuous
 62
     7
100
AcDbSpline
210
0.0
220
0.0
230
1.0
 70
     8
 71
     3
 72
    27
 73
    23
 74
    21
 42
0.000000001
 43
0.0000000001
 44
0.00000001
 40
0.0
 40
0.0
 40
0.0
 40
0.0
 40
0.5635691099583312
 40
1.127238557117263
 40
2.238983738624165
 40
3.350752159096073
 40
4.416730897015621
 40
5.48276297237876
 40
6.474560141235818
 40
7.466461889391997
 40
8.358933083414879
 40
9.25159401115413
 40
10.02462150576406
 40
10.7980840288556
 40
11.43923201099738
 40
12.08113212820465
 40
12.59132663089538
 40
13.10432938414682
 40
13.50843920731072
 40
13.91674533165413
 40
14.27825507390654
 40
14.6397648045989
 40
14.6397648045989
 40
14.6397648045989
 40
14.6397648045989
 10
240.4325950332668
 20
335.4396013737293
 30
0.0
 10
240.431865160448
 20
335.6274592120613
 30
0.0
 10
240.4304052875013
 20
336.0032083347354
 30
0.0
 10
240.4150247676114
 20
336.7494073915615
 30
0.0
 10
240.3777176826331
 20
337.6778299265422
 30
0.0
 10
240.3037849044214
 20
338.7719812130614
 30
0.0
 10
240.1999070728288
 20
339.8483829682124
 30
0.0
 10
240.069598934588
 20
340.8816429417968
 30
0.0
 10
239.9098228984861
 20
341.8857541281091
 30
0.0
 10
239.7275627356975
 20
342.8272269151684
 30
0.0
 10
239.5165027378155
 20
343.7287369350368
 30
0.0
 10
239.2884757411514
 20
344.5507513654908
 30
0.0
 10
239.0321997880915
 20
345.322656478734
 30
0.0
 10
238.7659634493034
 20
346.0021249620942
 30
0.0
 10
238.4716193319722
 20
346.6217169999636
 30
0.0
 10
238.1748633352481
 20
347.1417384944082
 30
0.0
 10
237.8490875493341
 20
347.5923344226901
 30
0.0
 10
237.5253350773872
 20
347.9431292685376
 30
0.0
 10
237.1714475669994
 20
348.2133832206845
 30
0.0
 10
236.8100550441976
 20
348.3701246880024
 30
0.0
 10
236.4314575960278
 20
348.4410222759872
 30
0.0
 10
236.1940492827955
 20
348.3876934774587
 30
0.0
 10
236.0753451272568
 20
348.3610290820858
 30
0.0
 11
240.4325950332668
 21
335.4396013737293
 31
0.0
 11
240.4288347946715
 21
336.0031579292264
 31
0.0
 11
240.4175540788858
 21
336.5667144847235
 31
0.0
 11
240.3726650467504
 21
337.6775530524363
 31
0.0
 11
240.2973364257394
 21
338.7867665664209
 31
0.0
 11
240.1947438087574
 21
339.8477969263016
 31
0.0
 11
240.0606066703406
 21
340.9053561982664
 31
0.0
 11
239.9043842700254
 21
341.8847724456788
 31
0.0
 11
239.7146660199524
 21
342.8583617140318
 31
0.0
 11
239.5106563972086
 21
343.7272028421141
 31
0.0
 11
239.2701909864188
 21
344.586865518944
 31
0.0
 11
239.0258185454176
 21
345.320250559225
 31
0.0
 11
238.740798917546
 21
346.0392833026254
 31
0.0
 11
238.4645638681853
 21
346.617872044518
 31
0.0
 11
238.1422800717195
 21
347.173001682182
 31
0.0
 11
237.8417054429208
 21
347.5852556363508
 31
0.0
 11
237.4891072315883
 21
347.9578765235902
 31
0.0
 11
237.1643568691524
 21
348.1983800592802
 31
0.0
 11
236.7898449392765
 21
348.3610290820857
 31
0.0
 11
236.4325950332667
 21
348.4163625770394
 31
0.0
 11
236.0753451272568
 21
348.3610290820858
 31
0.0
  0
SPLINE
  5
174
330
59
100
AcDbEntity
  8
1
  6
Continuous
 62
     7
100
AcDbSpline
210
0.0
220
0.0
230
1.0
 70
     8
 71
     3
 72
    25
 73
    21
 74
    19
 42
0.000000001
 43
0.0000000001
 44
0.00000001
 40
0.0
 40
0.0
 40
0.0
 40
0.0
 40
0.4083061153381447
 40
0.8124159427216451
 40
1.325418696420811
 40
1.835613199235173
 40
2.477513316534713
 40
3.118661298731261
 40
3.892123821873977
 40
4.66515131652022
 40
5.557812244293792
 40
6.450283438342314
 40
7.442185186521652
 40
8.433982355394578
 40
9.500014430768346
 40
10.56599316868591
 40
11.67776158913197
 40
12.78950677050831
 40
13.35317621738046
 40
13.91674532635759
 40
13.91674532635759
 40
13.91674532635759
 40
13.91674532635759
 10
236.0753451272568
 20
348.3610290820858
 30
0.0
 10
235.9471968933435
 20
348.3129931737509
 30
0.0
 10
235.6922174421414
 20
348.2174150433929
 30
0.0
 10
235.3403853701724
 20
347.9417270798349
 30
0.0
 10
235.015948550516
 20
347.5927414576314
 30
0.0
 10
234.6903798472287
 20
347.1415980596048
 30
0.0
 10
234.393555265571
 20
346.62175788503
 30
0.0
 10
234.0992317154465
 20
346.0021114732936
 30
0.0
 10
233.8329888095168
 20
345.3226603518208
 30
0.0
 10
233.5767147826307
 20
344.5507501464585
 30
0.0
 10
233.3486871950574
 20
343.7287372783397
 30
0.0
 10
233.1376273668492
 20
342.8272268100206
 30
0.0
 10
232.955367153879
 20
341.885754155729
 30
0.0
 10
232.7955911319696
 20
340.8816429320044
 30
0.0
 10
232.6652829896912
 20
339.8483829691386
 30
0.0
 10
232.5614051593287
 20
338.7719812110179
 30
0.0
 10
232.4874723805762
 20
337.6778299253843
 30
0.0
 10
232.450165296559
 20
336.7494073903399
 30
0.0
 10
232.434784775067
 20
336.0032083340131
 30
0.0
 10
232.4333249060837
 20
335.6274592117331
 30
0.0
 10
232.4325950332667
 20
335.4396013737269
 30
0.0
 11
236.0753451272568
 21
348.3610290820858
 31
0.0
 11
235.700833197381
 21
348.1983800592803
 31
0.0
 11
235.3760828349451
 21
347.9578765235904
 31
0.0
 11
235.0234846236126
 21
347.5852556363509
 31
0.0
 11
234.7229099948138
 21
347.173001682182
 31
0.0
 11
234.400626198348
 21
346.617872044518
 31
0.0
 11
234.1243911489872
 21
346.0392833026254
 31
0.0
 11
233.8393715211155
 21
345.320250559225
 31
0.0
 11
233.5949990801143
 21
344.586865518944
 31
0.0
 11
233.3545336693245
 21
343.7272028421141
 31
0.0
 11
233.1505240465807
 21
342.8583617140319
 31
0.0
 11
232.9608057965077
 21
341.8847724456788
 31
0.0
 11
232.8045833961928
 21
340.9053561982664
 31
0.0
 11
232.670446257776
 21
339.8477969263017
 31
0.0
 11
232.5678536407939
 21
338.786766566421
 31
0.0
 11
232.4925250197828
 21
337.6775530524363
 31
0.0
 11
232.4476359876476
 21
336.5667144847235
 31
0.0
 11
232.4363552718619
 21
336.0031579292253
 31
0.0
 11
232.4325950332667
 21
335.4396013737269
 31
0.0
  0
SPLINE
  5
175
330
59
100
AcDbEntity
  8
1
  6
Continuous
 62
     7
100
AcDbSpline
210
0.0
220
0.0
230
1.0
 70
     8
 71
     3
 72
    43
 73
    39
 74
    37
 42
0.000000001
 43
0.0000000001
 44
0.00000001
 40
0.0
 40
0.0
 40
0.0
 40
0.0
 40
0.070658608371252
 40
0.1305948063444679
 40
0.2374706260751884
 40
0.3487669215853748
 40
0.5130281083321812
 40
0.6759338038800077
 40
0.8842777886850441
 40
1.092949576420936
 40
1.341577026789194
 40
1.590128877144042
 40
1.870961378974549
 40
2.151808202046118
 40
2.456477984348513
 40
2.761144390783052
 40
3.080397873065761
 40
3.399651697364063
 40
3.723818703061868
 40
4.04798570873731
 40
4.367239532969185
 40
4.686493015139725
 40
4.991159421421782
 40
5.29582920352362
 40
5.576676026363478
 40
5.857508527912612
 40
6.106060377971913
 40
6.354687827996087
 40
6.563359615403353
 40
6.771703599844883
 40
6.934609295077972
 40
7.098870481484535
 40
7.210166776806105
 40
7.317042596582896
 40
7.376978795432407
 40
7.447637401994713
 40
7.464342606975223
 40
7.473983730929155
 40
7.473983730929155
 40
7.473983730929155
 40
7.473983730929155
 10
99.16495493329612
 20
224.3972437795142
 30
0.0
 10
99.14308776376501
 20
224.3883252571756
 30
0.0
 10
99.10267176196174
 20
224.3718415814127
 30
0.0
 10
99.02455022276895
 20
224.3570904648552
 30
0.0
 10
98.9321732831045
 20
224.3494740209887
 30
0.0
 10
98.80555601719152
 20
224.3345152999112
 30
0.0
 10
98.66008315647574
 20
224.3203167051141
 30
0.0
 10
98.48206147919312
 20
224.3070459661704
 30
0.0
 10
98.28908709917293
 20
224.2956541257721
 30
0.0
 10
98.06750946447966
 20
224.2840275245947
 30
0.0
 10
97.83245045105522
 20
224.2736786502438
 30
0.0
 10
97.57328807391261
 20
224.2641108463893
 30
0.0
 10
97.30333410828354
 20
224.2559003287002
 30
0.0
 10
97.0146409114188
 20
224.2486506492631
 30
0.0
 10
96.71797064334044
 20
224.2427484713305
 30
0.0
 10
96.40847562595523
 20
224.2380338195821
 30
0.0
 10
96.09410112712484
 20
224.2346882192306
 30
0.0
 10
95.77321526746113
 20
224.2326405294063
 30
0.0
 10
95.45068571651464
 20
224.231971982937
 30
0.0
 10
95.12815616560903
 20
224.2326405296022
 30
0.0
 10
94.80727030595928
 20
224.234688219627
 30
0.0
 10
94.49289580743672
 20
224.2380338201518
 30
0.0
 10
94.18340078951294
 20
224.2427484721518
 30
0.0
 10
93.8867305241394
 20
224.2486506500296
 30
0.0
 10
93.59803731886117
 20
224.2559003304371
 30
0.0
 10
93.32808338402658
 20
224.264110845453
 30
0.0
 10
93.06892090571756
 20
224.2736786588449
 30
0.0
 10
92.83386224160172
 20
224.2840275009972
 30
0.0
 10
92.61228350297976
 20
224.2956542045389
 30
0.0
 10
92.41931279033494
 20
224.3070457054353
 30
0.0
 10
92.24128020334678
 20
224.3203174547726
 30
0.0
 10
92.09584191480796
 20
224.3345128480984
 30
0.0
 10
91.96913500737644
 20
224.3494798704922
 30
0.0
 10
91.87700726632241
 20
224.3570732375141
 30
0.0
 10
91.79830741740514
 20
224.3718779087087
 30
0.0
 10
91.75432349584332
 20
224.390321766718
 30
0.0
 10
91.72230834404739
 20
224.4027503951642
 30
0.0
 10
91.71851243850506
 20
224.4109419473429
 30
0.0
 10
91.71712336670564
 20
224.4139395446469
 30
0.0
 11
99.16495493329612
 21
224.3972437795142
 31
0.0
 11
99.09860805261923
 21
224.3729388412657
 31
0.0
 11
99.03992345208803
 21
224.360754197094
 31
0.0
 11
98.93369805820731
 21
224.3489810723102
 31
0.0
 11
98.823060531995
 21
224.3368896244773
 31
0.0
 11
98.65957946419395
 21
224.320899696903
 31
0.0
 11
98.49714336845926
 21
224.3085392638807
 31
0.0
 11
98.28918389961896
 21
224.2958871841855
 31
0.0
 11
98.0807967084462
 21
224.2849925355088
 31
0.0
 11
97.83241364846951
 21
224.2739714483199
 31
0.0
 11
97.58403253282987
 21
224.2647603949561
 31
0.0
 11
97.30333211064902
 21
224.2561483777394
 31
0.0
 11
97.02257414741293
 21
224.2490841082202
 31
0.0
 11
96.71796541887882
 21
224.2429850480555
 31
0.0
 11
96.41333449318202
 21
224.2383355181249
 31
0.0
 11
96.0940993365512
 21
224.2349149137582
 31
0.0
 11
95.77485200747176
 21
224.2328784860161
 31
0.0
 11
95.45068572050846
 21
224.2321959725324
 31
0.0
 11
95.12651943354516
 21
224.2328784860161
 31
0.0
 11
94.80727210446571
 21
224.2349149137581
 31
0.0
 11
94.4880369478349
 21
224.2383355181249
 31
0.0
 11
94.18340602213809
 21
224.2429850480554
 31
0.0
 11
93.878797293604
 21
224.2490841082202
 31
0.0
 11
93.5980393303679
 21
224.2561483777394
 31
0.0
 11
93.31733890818707
 21
224.2647603949562
 31
0.0
 11
93.06895779254741
 21
224.2739714483199
 31
0.0
 11
92.82057473257069
 21
224.2849925355088
 31
0.0
 11
92.61218754139794
 21
224.2958871841856
 31
0.0
 11
92.40422807255761
 21
224.3085392638807
 31
0.0
 11
92.24179197682294
 21
224.3208996969029
 31
0.0
 11
92.0783109090219
 21
224.3368896244774
 31
0.0
 11
91.96767338280961
 21
224.3489810723102
 31
0.0
 11
91.86144798892887
 21
224.360754197094
 31
0.0
 11
91.8027633883977
 21
224.3729388412657
 31
0.0
 11
91.73641650772083
 21
224.3972437795142
 31
0.0
 11
91.72194665190042
 21
224.4055916620806
 31
0.0
 11
91.71712336670564
 21
224.4139395446469
 31
0.0
  0
SPLINE
  5
176
330
59
100
AcDbEntity
  8
1
  6
Continuous
 62
     7
100
AcDbSpline
210
0.0
220
0.0
230
1.0
 70
     8
 71
     3
 72
     9
 73
     5
 74
     3
 42
0.000000001
 43
0.0000000001
 44
0.00000001
 40
0.0
 40
0.0
 40
0.0
 40
0.0
 40
0.0096411188703219
 40
0.0263463210662115
 40
0.0263463210662115
 40
0.0263463210662115
 40
0.0263463210662115
 10
99.18424807431128
 20
224.4139395444903
 30
0.0
 10
99.18285546877853
 20
224.4109416214948
 30
0.0
 10
99.17904987344131
 20
224.402749197774
 30
0.0
 10
99.17042417180635
 20
224.3993800308999
 30
0.0
 10
99.16495493329612
 20
224.3972437795142
 30
0.0
 11
99.18424807431128
 21
224.4139395444903
 31
0.0
 11
99.17942478902603
 21
224.4055916620022
 31
0.0
 11
99.16495493329612
 21
224.3972437795142
 31
0.0
  0
SPLINE
  5
177
330
59
100
AcDbEntity
  8
1
  6
Continuous
 62
     7
100
AcDbSpline
210
0.0
220
0.0
230
1.0
 70
     8
 71
     3
 72
    25
 73
    21
 74
    19
 42
0.000000001
 43
0.0000000001
 44
0.00000001
 40
0.0
 40
0.0
 40
0.0
 40
0.0
 40
0.3683158848602258
 40
0.7358081395038467
 40
1.145280095519768
 40
1.553820106447933
 40
2.019365388304504
 40
2.484293651920835
 40
3.010900898392117
 40
3.537142787436125
 40
4.122003952123506
 40
4.706651561412935
 40
5.341510863355928
 40
5.976246160341221
 40
6.649165560513518
 40
7.322016239773616
 40
8.018667696853974
 40
8.715288415331687
 40
9.067738210300522
 40
9.420027896312263
 40
9.420027896312263
 40
9.420027896312263
 40
9.420027896312263
 10
95.80171219883559
 20
218.3677507490986
 30
0.0
 10
95.92163833459034
 20
218.3399918612248
 30
0.0
 10
96.16122242233838
 20
218.2845361471664
 30
0.0
 10
96.50810294694233
 20
218.1192563612403
 30
0.0
 10
96.84006508319892
 20
217.9032808908744
 30
0.0
 10
97.16527631906958
 20
217.6235022099361
 30
0.0
 10
97.46931054779412
 20
217.2956011158277
 30
0.0
 10
97.7638548700887
 20
216.9086098055448
 30
0.0
 10
98.03414943378095
 20
216.4802288048367
 30
0.0
 10
98.29036000669285
 20
215.9977012560649
 30
0.0
 10
98.52029290827616
 20
215.4808580650045
 30
0.0
 10
98.73115303628695
 20
214.9172339818562
 30
0.0
 10
98.9141996052565
 20
214.3265380095457
 30
0.0
 10
99.07375852612091
 20
213.6987320095976
 30
0.0
 10
99.20433579150895
 20
213.0513354411635
 30
0.0
 10
99.30804971257561
 20
212.378245402532
 30
0.0
 10
99.38205572034782
 20
211.6932908350729
 30
0.0
 10
99.41929513322673
 20
211.1123985884549
 30
0.0
 10
99.43468663500713
 20
210.645485192811
 30
0.0
 10
99.43614409537979
 20
210.410567270248
 30
0.0
 10
99.43687265846253
 20
210.2931349943095
 30
0.0
 11
95.80171219883559
 21
218.3677507490986
 31
0.0
 11
96.15730030941486
 21
218.2717627684959
 31
0.0
 11
96.49141461199696
 21
218.1187327333751
 31
0.0
 11
96.83486350892072
 21
217.8957750318509
 31
0.0
 11
97.14580944614525
 21
217.6307890624198
 31
0.0
 11
97.46364808829766
 21
217.2906258567373
 31
0.0
 11
97.74614125194428
 21
216.9213618556952
 31
0.0
 11
98.02851426355447
 21
216.4768613787068
 31
0.0
 11
98.27599251109535
 21
216.0124423410264
 31
0.0
 11
98.51484286367571
 21
215.4785761678801
 31
0.0
 11
98.72019993220914
 21
214.9311811539228
 31
0.0
 11
98.90894920453714
 21
214.3250293203595
 31
0.0
 11
99.0656280248939
 21
213.7099353077023
 31
0.0
 11
99.19924222299473
 21
213.050414447426
 31
0.0
 11
99.30189529247735
 21
212.3854404750743
 31
0.0
 11
99.37701052344076
 21
211.692850441356
 31
0.0
 11
99.42184987468511
 21
210.9976743066661
 31
0.0
 11
99.43311696251817
 21
210.6454046504878
 31
0.0
 11
99.43687265846253
 21
210.2931349943095
 31
0.0
  0
SPLINE
  5
178
330
59
100
AcDbEntity
  8
1
  6
Continuous
 62
     7
100
AcDbSpline
210
0.0
220
0.0
230
1.0
 70
     8
 71
     3
 72
    27
 73
    23
 74
    21
 42
0.000000001
 43
0.0000000001
 44
0.00000001
 40
0.0
 40
0.0
 40
0.0
 40
0.0
 40
0.3522896857258678
 40
0.7047394809285287
 40
1.401360199619472
 40
2.098011656751968
 40
2.770862336016758
 40
3.443781736167028
 40
4.078517033116882
 40
4.713376335007755
 40
5.298023944235614
 40
5.882885108840203
 40
6.409126997787902
 40
6.935734244123245
 40
7.400662507567994
 40
7.866207789141555
 40
8.274747799597735
 40
8.684219754505387
 40
9.051712011981866
 40
9.420027905510365
 40
9.772539556429354
 40
10.12505120034324
 40
10.12505120034324
 40
10.12505120034324
 40
10.12505120034324
 10
91.46449880779798
 20
210.2931349943069
 30
0.0
 10
91.46522737088024
 20
210.4105672701496
 30
0.0
 10
91.46668483280331
 20
210.6454851926832
 30
0.0
 10
91.48207633529748
 20
211.1123985883508
 30
0.0
 10
91.51931574832079
 20
211.6932908350508
 30
0.0
 10
91.59332175614587
 20
212.3782454028936
 30
0.0
 10
91.69703567751222
 20
213.0513354404272
 30
0.0
 10
91.82761294209735
 20
213.6987320128269
 30
0.0
 10
91.98717186603095
 20
214.3265379986274
 30
0.0
 10
92.17021842420867
 20
214.9172340214672
 30
0.0
 10
92.38107858966507
 20
215.4808579299102
 30
0.0
 10
92.61101135871613
 20
215.9977017398286
 30
0.0
 10
92.86722237943425
 20
216.4802271978202
 30
0.0
 10
93.13751537300303
 20
216.9086155292055
 30
0.0
 10
93.43206490753488
 20
217.2955825033454
 30
0.0
 10
93.7360809621494
 20
217.6235684503472
 30
0.0
 10
94.0613522251918
 20
217.9030668642588
 30
0.0
 10
94.39310371476007
 20
218.1200258338667
 30
0.0
 10
94.74069498597449
 20
218.2819871865189
 30
0.0
 10
95.09250046030563
 20
218.3759574933713
 30
0.0
 10
95.45115520207557
 20
218.4140458839191
 30
0.0
 10
95.68485986748344
 20
218.3831824640304
 30
0.0
 10
95.80171219883559
 20
218.3677507490986
 30
0.0
 11
91.46449880779798
 21
210.2931349943069
 31
0.0
 11
91.46825450374236
 21
210.6454046504865
 31
0.0
 11
91.47952159157546
 21
210.997674306666
 31
0.0
 11
91.52436094281983
 21
211.692850441356
 31
0.0
 11
91.59947617378322
 21
212.3854404750743
 31
0.0
 11
91.70212924326583
 21
213.050414447426
 31
0.0
 11
91.83574344136665
 21
213.7099353077023
 31
0.0
 11
91.99242226172339
 21
214.3250293203595
 31
0.0
 11
92.18117153405137
 21
214.9311811539228
 31
0.0
 11
92.3865286025848
 21
215.4785761678801
 31
0.0
 11
92.62537895516516
 21
216.0124423410264
 31
0.0
 11
92.87285720270606
 21
216.4768613787069
 31
0.0
 11
93.15523021431626
 21
216.9213618556952
 31
0.0
 11
93.4377233779629
 21
217.2906258567373
 31
0.0
 11
93.75556202011529
 21
217.6307890624198
 31
0.0
 11
94.06650795733981
 21
217.8957750318509
 31
0.0
 11
94.4099568542636
 21
218.1187327333751
 31
0.0
 11
94.7440711568457
 21
218.2717627684959
 31
0.0
 11
95.09965926742495
 21
218.3677507490987
 31
0.0
 11
95.45068573313026
 21
218.4000754406181
 31
0.0
 11
95.80171219883559
 21
218.3677507490986
 31
0.0
  0
SPLINE
  5
179
330
59
100
AcDbEntity
  8
1
  6
Continuous
 62
     7
100
AcDbSpline
210
0.0
220
0.0
230
1.0
 70
     8
 71
     3
 72
    25
 73
    21
 74
    19
 42
0.000000001
 43
0.0000000001
 44
0.00000001
 40
0.0
 40
0.0
 40
0.0
 40
0.0
 40
0.4901394146829414
 40
0.9821060564869811
 40
1.976931028041281
 40
2.971386007914235
 40
4.002836573110564
 40
5.033709434915021
 40
6.118833985717967
 40
7.203361379291758
 40
8.350974228091186
 40
9.49808067224953
 40
10.7087542336075
 40
11.91904444850442
 40
13.1861948297313
 40
14.45307880100493
 40
15.76450983716521
 40
17.07577508843922
 40
17.21840177776799
 40
17.36097256743798
 40
17.36097256743798
 40
17.36097256743798
 40
17.36097256743798
 10
110.9506857205084
 20
200.6729058220011
 30
0.0
 10
110.9477969629796
 20
200.5094949898196
 30
0.0
 10
110.9420086649228
 20
200.182064134533
 30
0.0
 10
110.8793532726697
 20
199.5255640454089
 30
0.0
 10
110.7319180304723
 20
198.7096889077131
 30
0.0
 10
110.4323599105908
 20
197.7459672139005
 30
0.0
 10
110.0224363174932
 20
196.8108020029168
 30
0.0
 10
109.4963247945054
 20
195.9008354659547
 30
0.0
 10
108.8692747154277
 20
195.0354272395603
 30
0.0
 10
108.1341500470679
 20
194.2072416962756
 30
0.0
 10
107.3107541716809
 20
193.436286325488
 30
0.0
 10
106.3902143310733
 20
192.7144237176392
 30
0.0
 10
105.3957980267978
 20
192.0595492889205
 30
0.0
 10
104.3184258984977
 20
191.4650212857861
 30
0.0
 10
103.1826376014628
 20
190.944832962476
 30
0.0
 10
101.981316155346
 20
190.4947968047149
 30
0.0
 10
100.737788380378
 20
190.1244978734454
 30
0.0
 10
99.83819247438834
 20
189.9200692245856
 30
0.0
 10
99.31532739440132
 20
189.8210745780152
 30
0.0
 10
99.22177580141833
 20
189.8041713818752
 30
0.0
 10
99.17500917192913
 20
189.7957214469873
 30
0.0
 11
110.9506857205084
 21
200.6729058220011
 31
0.0
 11
110.9357085304057
 21
200.182995285523
 31
0.0
 11
110.8907769600982
 21
199.6930847490474
 31
0.0
 11
110.7121214109214
 21
198.7144331644127
 31
0.0
 11
110.4189748941296
 21
197.7641669759678
 31
0.0
 11
110.005308415345
 21
196.8193017400522
 31
0.0
 11
109.4909463025054
 21
195.9259202565935
 31
0.0
 11
108.8552183611783
 21
195.0465197357026
 31
0.0
 11
108.1365075230465
 21
194.2343286256678
 31
0.0
 11
107.2997580719909
 21
193.448920701387
 31
0.0
 11
106.39792676375
 21
192.740010632146
 31
0.0
 11
105.3875654152586
 21
192.0730020728228
 31
0.0
 11
104.3284044143421
 21
191.4873568056953
 31
0.0
 11
103.1768137503975
 21
190.9586706683411
 31
0.0
 11
101.9906834466352
 21
190.5135977535358
 31
0.0
 11
100.7340593978568
 21
190.1384346388613
 31
0.0
 11
99.45541530888852
 21
189.8477701466766
 31
0.0
 11
99.3152727665684
 21
189.8212665638076
 31
0.0
 11
99.17500917192913
 21
189.7957214469873
 31
0.0
  0
SPLINE
  5
17A
330
59
100
AcDbEntity
  8
1
  6
Continuous
 62
     7
100
AcDbSpline
210
0.0
220
0.0
230
1.0
 70
     8
 71
     3
 72
    25
 73
    21
 74
    19
 42
0.000000001
 43
0.0000000001
 44
0.00000001
 40
0.0
 40
0.0
 40
0.0
 40
0.0
 40
0.1425707901674823
 40
0.2851974799941003
 40
1.596462731268079
 40
2.907893767428374
 40
4.174777738702016
 40
5.44192811992887
 40
6.652218334825821
 40
7.862891896183779
 40
9.009998340342142
 40
10.15761118914156
 40
11.24213858271532
 40
12.32726313351829
 40
13.35813599532279
 40
14.38958656051908
 40
15.38404154039203
 40
16.37886651194633
 40
16.87083315375137
 40
17.36097256843326
 40
17.36097256843326
 40
17.36097256843326
 40
17.36097256843326
 10
91.72636227006748
 20
189.7957214468123
 30
0.0
 10
91.67959564041473
 20
189.8041713817278
 30
0.0
 10
91.58604404710458
 20
189.8210745779231
 30
0.0
 10
91.06317896679045
 20
189.9200692245489
 30
0.0
 10
90.16358306063879
 20
190.1244978734454
 30
0.0
 10
88.92005528567083
 20
190.494796804715
 30
0.0
 10
87.71873383955398
 20
190.9448329624759
 30
0.0
 10
86.58294554251907
 20
191.4650212857861
 30
0.0
 10
85.50557341421903
 20
192.0595492889205
 30
0.0
 10
84.51115710994353
 20
192.7144237176393
 30
0.0
 10
83.59061726933594
 20
193.4362863254881
 30
0.0
 10
82.76722139394884
 20
194.2072416962757
 30
0.0
 10
82.0320967255891
 20
195.0354272395603
 30
0.0
 10
81.40504664651144
 20
195.9008354659547
 30
0.0
 10
80.87893512352366
 20
196.8108020029169
 30
0.0
 10
80.46901153042604
 20
197.7459672139006
 30
0.0
 10
80.16945341054449
 20
198.7096889077131
 30
0.0
 10
80.02201816834707
 20
199.5255640454093
 30
0.0
 10
79.95936277609385
 20
200.1820641345333
 30
0.0
 10
79.95357447803714
 20
200.50949498982
 30
0.0
 10
79.9506857205084
 20
200.6729058220011
 30
0.0
 11
91.72636227006748
 21
189.7957214468123
 31
0.0
 11
91.58609867493787
 21
189.8212665637168
 31
0.0
 11
91.44595613212826
 21
189.8477701466766
 31
0.0
 11
90.16731204316005
 21
190.1384346388613
 31
0.0
 11
88.91068799438155
 21
190.5135977535358
 31
0.0
 11
87.7245576906193
 21
190.9586706683411
 31
0.0
 11
86.57296702667475
 21
191.4873568056953
 31
0.0
 11
85.51380602575816
 21
192.0730020728229
 31
0.0
 11
84.50344467726687
 21
192.7400106321461
 31
0.0
 11
83.60161336902596
 21
193.448920701387
 31
0.0
 11
82.76486391797027
 21
194.2343286256679
 31
0.0
 11
82.04615307983849
 21
195.0465197357027
 31
0.0
 11
81.41042513851146
 21
195.9259202565936
 31
0.0
 11
80.8960630256718
 21
196.8193017400523
 31
0.0
 11
80.48239654688723
 21
197.7641669759678
 31
0.0
 11
80.18925003009537
 21
198.7144331644128
 31
0.0
 11
80.01059448091863
 21
199.6930847490475
 31
0.0
 11
79.96566291061099
 21
200.1829952855241
 31
0.0
 11
79.9506857205084
 21
200.6729058220011
 31
0.0
  0
SPLINE
  5
17B
330
59
100
AcDbEntity
  8
1
  6
Continuous
 62
     7
100
AcDbSpline
210
0.0
220
0.0
230
1.0
 70
     8
 71
     3
 72
    25
 73
    21
 74
    19
 42
0.000000001
 43
0.0000000001
 44
0.00000001
 40
0.0
 40
0.0
 40
0.0
 40
0.0
 40
0.3683158848602395
 40
0.7358081395038238
 40
1.145280095519725
 40
1.553820106447949
 40
2.019365388304478
 40
2.484293651920916
 40
3.010900898392119
 40
3.53714278743612
 40
4.122003952123487
 40
4.706651561412895
 40
5.341510863355915
 40
5.976246160341205
 40
6.649165560513522
 40
7.322016239773649
 40
8.018667696854006
 40
8.715288415331688
 40
9.067738210300496
 40
9.420027896312236
 40
9.420027896312236
 40
9.420027896312236
 40
9.420027896312236
 10
95.09965924218133
 20
285.8541563021576
 30
0.0
 10
94.97973310642658
 20
285.8263974142836
 30
0.0
 10
94.74014901867855
 20
285.7709417002254
 30
0.0
 10
94.39326849407458
 20
285.6056619142993
 30
0.0
 10
94.06130635781798
 20
285.3896864439334
 30
0.0
 10
93.73609512194739
 20
285.1099077629951
 30
0.0
 10
93.43206089322277
 20
284.7820066688867
 30
0.0
 10
93.13751657092826
 20
284.3950153586038
 30
0.0
 10
92.86722200723591
 20
283.9666343578958
 30
0.0
 10
92.61101143432413
 20
283.4841068091238
 30
0.0
 10
92.38107853274073
 20
282.9672636180636
 30
0.0
 10
92.17021840472992
 20
282.4036395349153
 30
0.0
 10
91.98717183576039
 20
281.8129435626046
 30
0.0
 10
91.82761291489598
 20
281.1851375626567
 30
0.0
 10
91.69703564950802
 20
280.5377409942225
 30
0.0
 10
91.59332172844128
 20
279.8646509555911
 30
0.0
 10
91.51931572066914
 20
279.1796963881319
 30
0.0
 10
91.48207630779015
 20
278.5988041415139
 30
0.0
 10
91.46668480600992
 20
278.13189074587
 30
0.0
 10
91.46522734563719
 20
277.8969728233071
 30
0.0
 10
91.46449878255444
 20
277.7795405473685
 30
0.0
 11
95.09965924218133
 21
285.8541563021576
 31
0.0
 11
94.74407113160204
 21
285.7581683215549
 31
0.0
 11
94.40995682901996
 21
285.6051382864341
 31
0.0
 11
94.06650793209624
 21
285.38218058491
 31
0.0
 11
93.75556199487168
 21
285.1171946154788
 31
0.0
 11
93.43772335271927
 21
284.7770314097963
 31
0.0
 11
93.15523018907263
 21
284.4077674087541
 31
0.0
 11
92.87285717746245
 21
283.9632669317658
 31
0.0
 11
92.62537892992158
 21
283.4988478940854
 31
0.0
 11
92.3865285773412
 21
282.9649817209391
 31
0.0
 11
92.18117150880775
 21
282.4175867069819
 31
0.0
 11
91.99242223647975
 21
281.8114348734185
 31
0.0
 11
91.83574341612301
 21
281.1963408607613
 31
0.0
 11
91.70212921802222
 21
280.5368200004851
 31
0.0
 11
91.59947614853958
 21
279.8718460281333
 31
0.0
 11
91.52436091757617
 21
279.179255994415
 31
0.0
 11
91.47952156633185
 21
278.4840798597251
 31
0.0
 11
91.4682544784988
 21
278.1318102035468
 31
0.0
 11
91.46449878255444
 21
277.7795405473685
 31
0.0
  0
SPLINE
  5
17C
330
59
100
AcDbEntity
  8
1
  6
Continuous
 62
     7
100
AcDbSpline
210
0.0
220
0.0
230
1.0
 70
     8
 71
     3
 72
    27
 73
    23
 74
    21
 42
0.000000001
 43
0.0000000001
 44
0.00000001
 40
0.0
 40
0.0
 40
0.0
 40
0.0
 40
0.3522896857258961
 40
0.7047394809285006
 40
1.401360199619415
 40
2.098011656751941
 40
2.770862336016739
 40
3.443781736167093
 40
4.078517033116944
 40
4.713376335007839
 40
5.298023944235608
 40
5.882885108840196
 40
6.409126997787907
 40
6.935734244123299
 40
7.400662507567949
 40
7.866207789141541
 40
8.274747799597808
 40
8.684219754505385
 40
9.051712011981863
 40
9.42002790551038
 40
9.772539556429368
 40
10.12505120034325
 40
10.12505120034325
 40
10.12505120034325
 40
10.12505120034325
 10
99.43687263321894
 20
277.7795405473659
 30
0.0
 10
99.43614407013668
 20
277.8969728232087
 30
0.0
 10
99.43468660821368
 20
278.1318907457422
 30
0.0
 10
99.41929510571936
 20
278.5988041414097
 30
0.0
 10
99.3820556926962
 20
279.1796963881096
 30
0.0
 10
99.30804968487105
 20
279.8646509559528
 30
0.0
 10
99.20433576350462
 20
280.5377409934863
 30
0.0
 10
99.07375849891955
 20
281.1851375658857
 30
0.0
 10
98.91419957498593
 20
281.8129435516867
 30
0.0
 10
98.73115301680824
 20
282.4036395745262
 30
0.0
 10
98.52029285135185
 20
282.9672634829693
 30
0.0
 10
98.2903600823008
 20
283.4841072928876
 30
0.0
 10
98.0341490615827
 20
283.9666327508792
 30
0.0
 10
97.763856068014
 20
284.3950210822647
 30
0.0
 10
97.46930653348204
 20
284.7819880564044
 30
0.0
 10
97.16529047886752
 20
285.1099740034061
 30
0.0
 10
96.84001921582517
 20
285.3894724173179
 30
0.0
 10
96.50826772625683
 20
285.6064313869256
 30
0.0
 10
96.16067645504245
 20
285.768392739578
 30
0.0
 10
95.8088709807113
 20
285.8623630464302
 30
0.0
 10
95.45021623894134
 20
285.9004514369782
 30
0.0
 10
95.21651157353347
 20
285.8695880170893
 30
0.0
 10
95.09965924218133
 20
285.8541563021576
 30
0.0
 11
99.43687263321894
 21
277.7795405473659
 31
0.0
 11
99.43311693727458
 21
278.1318102035455
 31
0.0
 11
99.42184984944146
 21
278.4840798597249
 31
0.0
 11
99.37701049819711
 21
279.179255994415
 31
0.0
 11
99.3018952672337
 21
279.8718460281333
 31
0.0
 11
99.19924219775103
 21
280.536820000485
 31
0.0
 11
99.06562799965022
 21
281.1963408607613
 31
0.0
 11
98.90894917929349
 21
281.8114348734185
 31
0.0
 11
98.72019990696552
 21
282.4175867069819
 31
0.0
 11
98.51484283843212
 21
282.9649817209391
 31
0.0
 11
98.27599248585176
 21
283.4988478940854
 31
0.0
 11
98.02851423831089
 21
283.9632669317659
 31
0.0
 11
97.74614122670069
 21
284.4077674087542
 31
0.0
 11
97.46364806305407
 21
284.7770314097963
 31
0.0
 11
97.14580942090166
 21
285.1171946154788
 31
0.0
 11
96.8348634836771
 21
285.38218058491
 31
0.0
 11
96.49141458675332
 21
285.6051382864341
 31
0.0
 11
96.15730028417124
 21
285.7581683215549
 31
0.0
 11
95.80171217359197
 21
285.8541563021577
 31
0.0
 11
95.45068570788666
 21
285.8864809936771
 31
0.0
 11
95.09965924218133
 21
285.8541563021576
 31
0.0
  0
SPLINE
  5
17D
330
59
100
AcDbEntity
  8
1
  6
Continuous
 62
     7
100
AcDbSpline
210
0.0
220
0.0
230
1.0
 70
     8
 71
     3
 72
    25
 73
    21
 74
    19
 42
0.000000001
 43
0.0000000001
 44
0.00000001
 40
0.0
 40
0.0
 40
0.0
 40
0.0
 40
0.4901394146829702
 40
0.9821060564869842
 40
1.976931028041246
 40
2.971386007914231
 40
4.002836573110624
 40
5.033709434915
 40
6.118833985718038
 40
7.203361379291799
 40
8.350974228091118
 40
9.498080672249529
 40
10.70875423360742
 40
11.9190444485044
 40
13.18619482973128
 40
14.45307880100495
 40
15.76450983716521
 40
17.07577508843919
 40
17.21840177776797
 40
17.36097256743805
 40
17.36097256743805
 40
17.36097256743805
 40
17.36097256743805
 10
79.95068572050852
 20
305.2655260177319
 30
0.0
 10
79.95357447803728
 20
305.4289368499134
 30
0.0
 10
79.95936277609411
 20
305.7563677052001
 30
0.0
 10
80.0220181683472
 20
306.4128677943239
 30
0.0
 10
80.1694534105446
 20
307.2287429320199
 30
0.0
 10
80.4690115304262
 20
308.1924646258325
 30
0.0
 10
80.87893512352369
 20
309.1276298368163
 30
0.0
 10
81.40504664651162
 20
310.0375963737783
 30
0.0
 10
82.0320967255892
 20
310.9030046001727
 30
0.0
 10
82.76722139394893
 20
311.7311901434574
 30
0.0
 10
83.59061726933612
 20
312.5021455142448
 30
0.0
 10
84.5111571099435
 20
313.2240081220938
 30
0.0
 10
85.50557341421911
 20
313.8788825508125
 30
0.0
 10
86.58294554251913
 20
314.4734105539469
 30
0.0
 10
87.7187338395541
 20
314.9935988772569
 30
0.0
 10
88.92005528567093
 20
315.4436350350181
 30
0.0
 10
90.16358306063896
 20
315.8139339662873
 30
0.0
 10
91.06317896662841
 20
316.018362615148
 30
0.0
 10
91.58604404661563
 20
316.1173572617178
 30
0.0
 10
91.67959563959857
 20
316.1342604578578
 30
0.0
 10
91.72636226908784
 20
316.1427103927457
 30
0.0
 11
79.95068572050852
 21
305.2655260177319
 31
0.0
 11
79.96566291061124
 21
305.75543655421
 31
0.0
 11
80.01059448091875
 21
306.2453470906855
 31
0.0
 11
80.18925003009547
 21
307.2239986753203
 31
0.0
 11
80.48239654688734
 21
308.1742648637652
 31
0.0
 11
80.8960630256719
 21
309.1191300996808
 31
0.0
 11
81.41042513851157
 21
310.0125115831394
 31
0.0
 11
82.0461530798386
 21
310.8919121040304
 31
0.0
 11
82.76486391797039
 21
311.7041032140652
 31
0.0
 11
83.60161336902604
 21
312.489511138346
 31
0.0
 11
84.50344467726693
 21
313.198421207587
 31
0.0
 11
85.51380602575819
 21
313.8654297669101
 31
0.0
 11
86.57296702667483
 21
314.4510750340377
 31
0.0
 11
87.72455769061943
 21
314.9797611713919
 31
0.0
 11
88.91068799438169
 21
315.4248340861972
 31
0.0
 11
90.16731204316015
 21
315.7999972008717
 31
0.0
 11
91.44595613212834
 21
316.0906616930564
 31
0.0
 11
91.5860986744485
 21
316.1171652759253
 31
0.0
 11
91.72636226908784
 21
316.1427103927457
 31
0.0
  0
SPLINE
  5
17E
330
59
100
AcDbEntity
  8
1
  6
Continuous
 62
     7
100
AcDbSpline
210
0.0
220
0.0
230
1.0
 70
     8
 71
     3
 72
    25
 73
    21
 74
    19
 42
0.000000001
 43
0.0000000001
 44
0.00000001
 40
0.0
 40
0.0
 40
0.0
 40
0.0
 40
0.1425707901675116
 40
0.2851974799941051
 40
1.596462731268071
 40
2.907893767428404
 40
4.174777738702062
 40
5.441928119928939
 40
6.652218334825823
 40
7.862891896183809
 40
9.009998340342172
 40
10.15761118914161
 40
11.24213858271535
 40
12.32726313351835
 40
13.3581359953227
 40
14.38958656051909
 40
15.38404154039208
 40
16.37886651194643
 40
16.87083315375141
 40
17.36097256843335
 40
17.36097256843335
 40
17.36097256843335
 40
17.36097256843335
 10
99.17500917094944
 20
316.1427103929207
 30
0.0
 10
99.22177580060219
 20
316.1342604580051
 30
0.0
 10
99.31532739391231
 20
316.1173572618098
 30
0.0
 10
99.83819247422657
 20
316.0183626151843
 30
0.0
 10
100.7377883803781
 20
315.8139339662876
 30
0.0
 10
101.9813161553461
 20
315.443635035018
 30
0.0
 10
103.182637601463
 20
314.9935988772572
 30
0.0
 10
104.3184258984978
 20
314.4734105539467
 30
0.0
 10
105.3957980267979
 20
313.8788825508126
 30
0.0
 10
106.3902143310734
 20
313.2240081220936
 30
0.0
 10
107.310754171681
 20
312.5021455142449
 30
0.0
 10
108.1341500470681
 20
311.7311901434572
 30
0.0
 10
108.869274715428
 20
310.9030046001727
 30
0.0
 10
109.4963247945054
 20
310.0375963737783
 30
0.0
 10
110.0224363174933
 20
309.1276298368161
 30
0.0
 10
110.4323599105908
 20
308.1924646258324
 30
0.0
 10
110.7319180304724
 20
307.2287429320198
 30
0.0
 10
110.87935327267
 20
306.4128677943236
 30
0.0
 10
110.942008664923
 20
305.7563677051996
 30
0.0
 10
110.9477969629798
 20
305.428936849913
 30
0.0
 10
110.9506857205085
 20
305.2655260177318
 30
0.0
 11
99.17500917094944
 21
316.1427103929207
 31
0.0
 11
99.31527276607906
 21
316.1171652760162
 31
0.0
 11
99.45541530888866
 21
316.0906616930563
 31
0.0
 11
100.7340593978569
 21
315.7999972008718
 31
0.0
 11
101.9906834466354
 21
315.4248340861972
 31
0.0
 11
103.1768137503977
 21
314.9797611713919
 31
0.0
 11
104.3284044143422
 21
314.4510750340377
 31
0.0
 11
105.3875654152588
 21
313.8654297669101
 31
0.0
 11
106.3979267637501
 21
313.1984212075869
 31
0.0
 11
107.299758071991
 21
312.489511138346
 31
0.0
 11
108.1365075230467
 21
311.7041032140651
 31
0.0
 11
108.8552183611785
 21
310.8919121040304
 31
0.0
 11
109.4909463025055
 21
310.0125115831394
 31
0.0
 11
110.0053084153451
 21
309.1191300996807
 31
0.0
 11
110.4189748941296
 21
308.1742648637651
 31
0.0
 11
110.7121214109216
 21
307.2239986753202
 31
0.0
 11
110.8907769600984
 21
306.2453470906854
 31
0.0
 11
110.9357085304059
 21
305.7554365542089
 31
0.0
 11
110.9506857205085
 21
305.2655260177318
 31
0.0
  0
SPLINE
  5
17F
330
59
100
AcDbEntity
  8
1
  6
Continuous
 62
     7
100
AcDbSpline
210
0.0
220
0.0
230
1.0
 70
     8
 71
     3
 72
    25
 73
    21
 74
    19
 42
0.000000001
 43
0.0000000001
 44
0.00000001
 40
0.0
 40
0.0
 40
0.0
 40
0.0
 40
0.3683158848602395
 40
0.7358081395038475
 40
1.145280095519686
 40
1.553820106447874
 40
2.019365388304403
 40
2.484293651920841
 40
3.010900898392092
 40
3.537142787436142
 40
4.122003952123458
 40
4.706651561412919
 40
5.341510863355993
 40
5.976246160341228
 40
6.649165560513545
 40
7.322016239773561
 40
8.018667696853862
 40
8.715288415331601
 40
9.067738210300408
 40
9.420027896312149
 40
9.420027896312149
 40
9.420027896312149
 40
9.420027896312149
 10
95.09965924218133
 20
292.4126503936739
 30
0.0
 10
94.9797331064266
 20
292.4404092815478
 30
0.0
 10
94.74014901867852
 20
292.4958649956061
 30
0.0
 10
94.39326849407465
 20
292.6611447815323
 30
0.0
 10
94.06130635781797
 20
292.877120251898
 30
0.0
 10
93.73609512194736
 20
293.1568989328363
 30
0.0
 10
93.43206089322277
 20
293.4848000269447
 30
0.0
 10
93.13751657092826
 20
293.8717913372276
 30
0.0
 10
92.8672220072359
 20
294.3001723379357
 30
0.0
 10
92.61101143432415
 20
294.7826998867077
 30
0.0
 10
92.38107853274067
 20
295.2995430777679
 30
0.0
 10
92.17021840472998
 20
295.8631671609163
 30
0.0
 10
91.98717183576039
 20
296.4538631332268
 30
0.0
 10
91.82761291489598
 20
297.0816691331748
 30
0.0
 10
91.69703564950802
 20
297.729065701609
 30
0.0
 10
91.59332172844128
 20
298.4021557402403
 30
0.0
 10
91.51931572066913
 20
299.0871103076996
 30
0.0
 10
91.48207630779018
 20
299.6680025543174
 30
0.0
 10
91.4666848060099
 20
300.1349159499615
 30
0.0
 10
91.46522734563716
 20
300.3698338725243
 30
0.0
 10
91.46449878255444
 20
300.4872661484629
 30
0.0
 11
95.09965924218133
 21
292.4126503936739
 31
0.0
 11
94.74407113160204
 21
292.5086383742766
 31
0.0
 11
94.40995682901996
 21
292.6616684093975
 31
0.0
 11
94.06650793209624
 21
292.8846261109215
 31
0.0
 11
93.75556199487168
 21
293.1496120803527
 31
0.0
 11
93.43772335271927
 21
293.4897752860351
 31
0.0
 11
93.15523018907263
 21
293.8590392870773
 31
0.0
 11
92.87285717746245
 21
294.3035397640657
 31
0.0
 11
92.62537892992158
 21
294.7679588017461
 31
0.0
 11
92.3865285773412
 21
295.3018249748923
 31
0.0
 11
92.18117150880775
 21
295.8492199888497
 31
0.0
 11
91.99242223647975
 21
296.455371822413
 31
0.0
 11
91.83574341612301
 21
297.0704658350702
 31
0.0
 11
91.70212921802222
 21
297.7299866953464
 31
0.0
 11
91.59947614853958
 21
298.3949606676981
 31
0.0
 11
91.52436091757617
 21
299.0875507014164
 31
0.0
 11
91.47952156633185
 21
299.7827268361063
 31
0.0
 11
91.4682544784988
 21
300.1349964922846
 31
0.0
 11
91.46449878255444
 21
300.4872661484629
 31
0.0
  0
SPLINE
  5
180
330
59
100
AcDbEntity
  8
1
  6
Continuous
 62
     7
100
AcDbSpline
210
0.0
220
0.0
230
1.0
 70
     8
 71
     3
 72
    27
 73
    23
 74
    21
 42
0.000000001
 43
0.0000000001
 44
0.00000001
 40
0.0
 40
0.0
 40
0.0
 40
0.0
 40
0.3522896857258392
 40
0.7047394809286142
 40
1.401360199619529
 40
2.098011656752054
 40
2.770862336016796
 40
3.443781736167095
 40
4.07851703311689
 40
4.713376335007786
 40
5.298023944235608
 40
5.882885108840196
 40
6.409126997787857
 40
6.935734244123249
 40
7.400662507567945
 40
7.866207789141536
 40
8.274747799597804
 40
8.684219754505381
 40
9.05171201198186
 40
9.420027905510377
 40
9.772539556429365
 40
10.12505120034325
 40
10.12505120034325
 40
10.12505120034325
 40
10.12505120034325
 10
99.43687263321894
 20
300.4872661484656
 30
0.0
 10
99.43614407013668
 20
300.3698338726228
 30
0.0
 10
99.43468660821362
 20
300.1349159500894
 30
0.0
 10
99.41929510571941
 20
299.6680025544216
 30
0.0
 10
99.38205569269616
 20
299.0871103077218
 30
0.0
 10
99.30804968487108
 20
298.4021557398788
 30
0.0
 10
99.2043357635046
 20
297.7290657023452
 30
0.0
 10
99.07375849891956
 20
297.0816691299457
 30
0.0
 10
98.91419957498587
 20
296.453863144145
 30
0.0
 10
98.73115301680826
 20
295.8631671213054
 30
0.0
 10
98.52029285135181
 20
295.2995432128623
 30
0.0
 10
98.29036008230085
 20
294.782699402944
 30
0.0
 10
98.03414906158267
 20
294.3001739449523
 30
0.0
 10
97.76385606801398
 20
293.871785613567
 30
0.0
 10
97.46930653348207
 20
293.4848186394271
 30
0.0
 10
97.16529047886752
 20
293.1568326924254
 30
0.0
 10
96.84001921582515
 20
292.8773342785136
 30
0.0
 10
96.50826772625683
 20
292.6603753089059
 30
0.0
 10
96.16067645504245
 20
292.4984139562536
 30
0.0
 10
95.8088709807113
 20
292.4044436494012
 30
0.0
 10
95.45021623894134
 20
292.3663552588534
 30
0.0
 10
95.21651157353347
 20
292.3972186787421
 30
0.0
 10
95.09965924218133
 20
292.4126503936739
 30
0.0
 11
99.43687263321894
 21
300.4872661484656
 31
0.0
 11
99.43311693727458
 21
300.1349964922861
 31
0.0
 11
99.42184984944146
 21
299.7827268361065
 31
0.0
 11
99.37701049819711
 21
299.0875507014164
 31
0.0
 11
99.3018952672337
 21
298.3949606676981
 31
0.0
 11
99.19924219775103
 21
297.7299866953464
 31
0.0
 11
99.06562799965022
 21
297.0704658350702
 31
0.0
 11
98.90894917929349
 21
296.455371822413
 31
0.0
 11
98.72019990696552
 21
295.8492199888497
 31
0.0
 11
98.51484283843212
 21
295.3018249748924
 31
0.0
 11
98.27599248585176
 21
294.7679588017461
 31
0.0
 11
98.02851423831089
 21
294.3035397640657
 31
0.0
 11
97.74614122670069
 21
293.8590392870773
 31
0.0
 11
97.46364806305407
 21
293.4897752860352
 31
0.0
 11
97.14580942090166
 21
293.1496120803528
 31
0.0
 11
96.8348634836771
 21
292.8846261109215
 31
0.0
 11
96.49141458675332
 21
292.6616684093975
 31
0.0
 11
96.15730028417124
 21
292.5086383742766
 31
0.0
 11
95.80171217359197
 21
292.4126503936739
 31
0.0
 11
95.45068570788666
 21
292.3803257021544
 31
0.0
 11
95.09965924218133
 21
292.4126503936739
 31
0.0
  0
ARC
  5
181
330
59
100
AcDbEntity
  8
1
  6
Continuous
 62
     7
100
AcDbCircle
 10
156.040718566448
 20
192.8362640970029
 30
0.0
 40
4.999999999999976
100
AcDbArc
 50
158.4127194836075
 51
177.6228546078044
  0
ARC
  5
182
330
59
100
AcDbEntity
  8
1
  6
Continuous
 62
     7
100
AcDbCircle
 10
158.1219516993671
 20
190.7550309640825
 30
0.0
 40
5.000000000000037
100
AcDbArc
 50
272.3771453921682
 51
291.5872805163928
  0
ARC
  5
183
330
59
100
AcDbEntity
  8
1
  6
Continuous
 62
     7
100
AcDbCircle
 10
174.1839511959845
 20
192.8718121190947
 30
0.0
 40
1.000000000000008
100
AcDbArc
 50
45.0000000000046
 51
126.5155502586302
  0
ARC
  5
184
330
59
100
AcDbEntity
  8
1
  6
Continuous
 62
     7
100
AcDbCircle
 10
178.8986475200801
 20
189.8541720698471
 30
0.0
 40
0.2000000000000498
100
AcDbArc
 50
225.000000000023
 51
315.0
  0
ARC
  5
185
330
59
100
AcDbEntity
  8
1
  6
Continuous
 62
     7
100
AcDbCircle
 10
200.5361150243884
 20
211.4916395741552
 30
0.0
 40
0.1999999999999695
100
AcDbArc
 50
315.0
 51
45.00000000002303
  0
ARC
  5
186
330
59
100
AcDbEntity
  8
1
  6
Continuous
 62
     7
100
AcDbCircle
 10
186.9474212794348
 20
223.7429668099894
 30
0.0
 40
5.000000000000068
100
AcDbArc
 50
92.37714539218422
 51
111.5872805163921
  0
ARC
  5
187
330
59
100
AcDbEntity
  8
1
  6
Continuous
 62
     7
100
AcDbCircle
 10
189.0286544123548
 20
221.6617336770695
 30
0.0
 40
4.999999999999976
100
AcDbArc
 50
338.4127194836075
 51
357.6228546078157
  0
ARC
  5
188
330
59
100
AcDbEntity
  8
1
  6
Continuous
 62
     7
100
AcDbCircle
 10
194.5117770775344
 20
219.2130337958571
 30
0.0
 40
1.000000000000374
100
AcDbArc
 50
158.1688797851218
 51
225.0
  0
ENDBLK
  5
5B
330
59
100
AcDbEntity
  8
0
100
AcDbBlockEnd
  0
BLOCK
  5
5E
330
5C
100
AcDbEntity
  8
0
100
AcDbBlockBegin
  2
81-100X
 70
     0
 10
631.8027633355942
 20
67.88029796346548
 30
0.0
  3
81-100X
  1

  0
INSERT
  5
5D
330
5C
100
AcDbEntity
  8
0
100
AcDbBlockReference
  2
81-100
 10
458.1755013008559
 20
327.0412148163769
 30
0.0
  0
ENDBLK
  5
5F
330
5C
100
AcDbEntity
  8
0
100
AcDbBlockEnd
  0
BLOCK
  5
61
330
60
100
AcDbEntity
  8
0
100
AcDbBlockBegin
  2
Y145-0B
 70
     0
 10
528.9506857205081
 20
48.4396013737269
 30
0.0
  3
Y145-0B
  1

  0
LINE
  5
189
330
60
100
AcDbEntity
  8
1
  6
Continuous
 62
     2
100
AcDbLine
 10
263.2886857205082
 20
172.1241013737268
 30
0.0
 11
250.4506857205084
 21
172.1241013737268
 31
0.0
  0
LINE
  5
18A
330
60
100
AcDbEntity
  8
1
  6
Continuous
 62
     2
100
AcDbLine
 10
250.4506857205084
 20
190.7551013737267
 30
0.0
 11
263.2886857205082
 21
190.7551013737267
 31
0.0
  0
LINE
  5
18B
330
60
100
AcDbEntity
  8
1
  6
Continuous
 62
     7
100
AcDbLine
 10
250.4506857205084
 20
170.9621013737267
 30
0.0
 11
263.2886857205082
 21
170.9621013737268
 31
0.0
  0
LINE
  5
18C
330
60
100
AcDbEntity
  8
1
  6
Continuous
 62
     2
100
AcDbLine
 10
263.2886857205082
 20
190.7551013737267
 30
0.0
 11
264.4506857205084
 21
190.7551013737267
 31
0.0
  0
LINE
  5
18D
330
60
100
AcDbEntity
  8
1
  6
Continuous
 62
     7
100
AcDbLine
 10
263.2886857205082
 20
190.7551013737267
 30
0.0
 11
263.2886857205082
 21
170.9621013737268
 31
0.0
  0
LINE
  5
18E
330
60
100
AcDbEntity
  8
1
  6
Continuous
 62
     7
100
AcDbLine
 10
186.4506857205084
 20
161.4522444121218
 30
0.0
 11
186.4506857205084
 21
176.9396013737264
 31
0.0
  0
LINE
  5
18F
330
60
100
AcDbEntity
  8
1
  6
Continuous
 62
     7
100
AcDbLine
 10
186.4506857205084
 20
161.4522444121218
 30
0.0
 11
186.4731857205084
 21
161.4522444121218
 31
0.0
  0
LINE
  5
190
330
60
100
AcDbEntity
  8
1
  6
Continuous
 62
     7
100
AcDbLine
 10
187.6351857205086
 20
159.4396013737269
 30
0.0
 11
186.4731857205084
 21
159.4396013737269
 31
0.0
  0
LINE
  5
191
330
60
100
AcDbEntity
  8
1
  6
Continuous
 62
     7
100
AcDbLine
 10
186.4731857205084
 20
161.4522444121218
 30
0.0
 11
186.4731857205084
 21
156.939601373727
 31
0.0
  0
LINE
  5
192
330
60
100
AcDbEntity
  8
1
  6
Continuous
 62
     2
100
AcDbLine
 10
187.6351857205086
 20
156.939601373727
 30
0.0
 11
187.6351857205086
 21
159.4396013737269
 31
0.0
  0
LINE
  5
193
330
60
100
AcDbEntity
  8
1
  6
Continuous
 62
     2
100
AcDbLine
 10
187.6351857205086
 20
159.4396013737269
 30
0.0
 11
186.4731857205084
 21
161.4522444121218
 31
0.0
  0
LINE
  5
194
330
60
100
AcDbEntity
  8
1
  6
Continuous
 62
     7
100
AcDbLine
 10
207.4281857205085
 20
161.4522444121218
 30
0.0
 11
207.4281857205085
 21
156.939601373727
 31
0.0
  0
LINE
  5
195
330
60
100
AcDbEntity
  8
1
  6
Continuous
 62
     7
100
AcDbLine
 10
207.4281857205085
 20
159.4396013737269
 30
0.0
 11
206.2661857205086
 21
159.4396013737269
 31
0.0
  0
LINE
  5
196
330
60
100
AcDbEntity
  8
1
  6
Continuous
 62
     2
100
AcDbLine
 10
207.4281857205085
 20
161.4522444121218
 30
0.0
 11
206.2661857205086
 21
159.4396013737269
 31
0.0
  0
LINE
  5
197
330
60
100
AcDbEntity
  8
1
  6
Continuous
 62
     2
100
AcDbLine
 10
206.2661857205086
 20
159.4396013737269
 30
0.0
 11
206.2661857205086
 21
156.939601373727
 31
0.0
  0
LINE
  5
198
330
60
100
AcDbEntity
  8
1
  6
Continuous
 62
     7
100
AcDbLine
 10
263.2886857205082
 20
191.9171013737269
 30
0.0
 11
250.4506857205084
 21
191.9171013737269
 31
0.0
  0
LINE
  5
199
330
60
100
AcDbEntity
  8
1
  6
Continuous
 62
     7
100
AcDbLine
 10
263.2886857205082
 20
191.9171013737269
 30
0.0
 11
263.2886857205082
 21
190.7551013737267
 31
0.0
  0
LINE
  5
19A
330
60
100
AcDbEntity
  8
1
  6
Continuous
 62
     7
100
AcDbLine
 10
264.4506857205084
 20
190.7551013737267
 30
0.0
 11
263.2886857205082
 21
191.9171013737269
 31
0.0
  0
LINE
  5
19B
330
60
100
AcDbEntity
  8
1
  6
Continuous
 62
     7
100
AcDbLine
 10
263.2886857205082
 20
170.9621013737268
 30
0.0
 11
264.4506857205084
 21
172.1241013737269
 31
0.0
  0
LINE
  5
19C
330
60
100
AcDbEntity
  8
1
  6
Continuous
 62
     7
100
AcDbLine
 10
264.4506857205084
 20
190.7551013737267
 30
0.0
 11
264.4506857205084
 21
172.1241013737269
 31
0.0
  0
LINE
  5
19D
330
60
100
AcDbEntity
  8
1
  6
Continuous
 62
     7
100
AcDbLine
 10
221.988005295175
 20
191.9396013737269
 30
0.0
 11
222.4506857205084
 21
191.9396013737269
 31
0.0
  0
LINE
  5
19E
330
60
100
AcDbEntity
  8
1
  6
Continuous
 62
     7
100
AcDbLine
 10
208.3214590277493
 20
161.4522444121218
 30
0.0
 11
207.4281857205085
 21
161.4522444121218
 31
0.0
  0
LINE
  5
19F
330
60
100
AcDbEntity
  8
1
  6
Continuous
 62
     7
100
AcDbLine
 10
222.4506857205084
 20
170.9396013737269
 30
0.0
 11
222.100685720508
 21
170.9396013737269
 31
0.0
  0
LINE
  5
1A0
330
60
100
AcDbEntity
  8
1
  6
Continuous
 62
     7
100
AcDbLine
 10
84.9506857205084
 20
161.4522444121218
 30
0.0
 11
84.97318572050838
 21
161.4522444121218
 31
0.0
  0
LINE
  5
1A1
330
60
100
AcDbEntity
  8
1
  6
Continuous
 62
     7
100
AcDbLine
 10
105.9281857205085
 20
159.4396013737269
 30
0.0
 11
84.97318572050838
 21
159.4396013737269
 31
0.0
  0
LINE
  5
1A2
330
60
100
AcDbEntity
  8
1
  6
Continuous
 62
     7
100
AcDbLine
 10
84.97318572050838
 20
161.4522444121218
 30
0.0
 11
84.97318572050838
 21
156.939601373727
 31
0.0
  0
LINE
  5
1A3
330
60
100
AcDbEntity
  8
1
  6
Continuous
 62
     2
100
AcDbLine
 10
86.13518572050853
 20
159.4396013737269
 30
0.0
 11
84.97318572050838
 21
161.4522444121218
 31
0.0
  0
LINE
  5
1A4
330
60
100
AcDbEntity
  8
1
  6
Continuous
 62
     7
100
AcDbLine
 10
105.9281857205085
 20
161.4522444121218
 30
0.0
 11
105.9281857205085
 21
156.939601373727
 31
0.0
  0
LINE
  5
1A5
330
60
100
AcDbEntity
  8
1
  6
Continuous
 62
     2
100
AcDbLine
 10
105.9281857205085
 20
161.4522444121218
 30
0.0
 11
104.7661857205086
 21
159.4396013737269
 31
0.0
  0
LINE
  5
1A6
330
60
100
AcDbEntity
  8
1
  6
Continuous
 62
     2
100
AcDbLine
 10
104.7661857205086
 20
159.4396013737269
 30
0.0
 11
104.7661857205086
 21
156.939601373727
 31
0.0
  0
LINE
  5
1A7
330
60
100
AcDbEntity
  8
1
  6
Continuous
 62
     7
100
AcDbLine
 10
105.9506857205084
 20
179.5964680709819
 30
0.0
 11
105.9506857205084
 21
161.4522444121218
 31
0.0
  0
LINE
  5
1A8
330
60
100
AcDbEntity
  8
1
  6
Continuous
 62
     7
100
AcDbLine
 10
105.9281857205085
 20
161.4522444121218
 30
0.0
 11
105.9506857205084
 21
161.4522444121218
 31
0.0
  0
LINE
  5
1A9
330
60
100
AcDbEntity
  8
1
  6
Continuous
 62
     7
100
AcDbLine
 10
84.9506857205084
 20
161.4522444121218
 30
0.0
 11
84.9506857205084
 21
179.5964680709819
 31
0.0
  0
LINE
  5
1AA
330
60
100
AcDbEntity
  8
1
  6
Continuous
 62
     2
100
AcDbLine
 10
86.13518572050853
 20
156.939601373727
 30
0.0
 11
86.13518572050853
 21
159.4396013737269
 31
0.0
  0
LINE
  5
1AB
330
60
100
AcDbEntity
  8
1
  6
Continuous
 62
     2
100
AcDbLine
 10
86.13518572050859
 20
366.2450292674178
 30
0.0
 11
86.13518572050859
 21
380.2450292674179
 31
0.0
  0
LINE
  5
1AC
330
60
100
AcDbEntity
  8
1
  6
Continuous
 62
     7
100
AcDbLine
 10
105.9506857205084
 20
338.2450292674179
 30
0.0
 11
105.9506857205084
 21
313.5077231164231
 31
0.0
  0
LINE
  5
1AD
330
60
100
AcDbEntity
  8
1
  6
Continuous
 62
     7
100
AcDbLine
 10
105.9281857205085
 20
366.2450292674178
 30
0.0
 11
105.9281857205085
 21
379.0830292674177
 31
0.0
  0
LINE
  5
1AE
330
60
100
AcDbEntity
  8
1
  6
Continuous
 62
     7
100
AcDbLine
 10
95.4506857205084
 20
380.2450292674179
 30
0.0
 11
104.7661857205085
 21
380.2450292674179
 31
0.0
  0
LINE
  5
1AF
330
60
100
AcDbEntity
  8
1
  6
Continuous
 62
     7
100
AcDbLine
 10
86.13518572050859
 20
380.2450292674179
 30
0.0
 11
95.4506857205084
 21
380.2450292674179
 31
0.0
  0
LINE
  5
1B0
330
60
100
AcDbEntity
  8
1
  6
Continuous
 62
     7
100
AcDbLine
 10
84.97318572050844
 20
379.0830292674177
 30
0.0
 11
84.97318572050844
 21
366.2450292674178
 31
0.0
  0
LINE
  5
1B1
330
60
100
AcDbEntity
  8
1
  6
Continuous
 62
     7
100
AcDbLine
 10
84.97318572050844
 20
379.0830292674177
 30
0.0
 11
95.45068572050852
 21
379.0830292674177
 31
0.0
  0
LINE
  5
1B2
330
60
100
AcDbEntity
  8
1
  6
Continuous
 62
     7
100
AcDbLine
 10
86.13518572050859
 20
380.2450292674179
 30
0.0
 11
84.97318572050844
 21
379.0830292674177
 31
0.0
  0
LINE
  5
1B3
330
60
100
AcDbEntity
  8
1
  6
Continuous
 62
     7
100
AcDbLine
 10
105.9281857205085
 20
379.0830292674177
 30
0.0
 11
104.7661857205085
 21
380.2450292674179
 31
0.0
  0
LINE
  5
1B4
330
60
100
AcDbEntity
  8
1
  6
Continuous
 62
     7
100
AcDbLine
 10
95.45068572050852
 20
379.0830292674177
 30
0.0
 11
105.9281857205085
 21
379.0830292674177
 31
0.0
  0
LINE
  5
1B5
330
60
100
AcDbEntity
  8
1
  6
Continuous
 62
     2
100
AcDbLine
 10
104.7661857205085
 20
380.2450292674179
 30
0.0
 11
104.7661857205085
 21
366.2450292674178
 31
0.0
  0
LINE
  5
1B6
330
60
100
AcDbEntity
  8
1
  6
Continuous
 62
     7
100
AcDbLine
 10
206.2661857205086
 20
159.4396013737269
 30
0.0
 11
187.6351857205086
 21
159.4396013737269
 31
0.0
  0
LINE
  5
1B7
330
60
100
AcDbEntity
  8
1
  6
Continuous
 62
     7
100
AcDbLine
 10
198.5208606980069
 20
209.1935425352991
 30
0.0
 11
211.3814035773767
 21
196.3329996559289
 31
0.0
  0
LINE
  5
1B8
330
60
100
AcDbEntity
  8
1
  6
Continuous
 62
     7
100
AcDbLine
 10
84.95068572050852
 20
313.5077231164231
 30
0.0
 11
84.9506857205084
 21
338.2450292674179
 31
0.0
  0
ARC
  5
1B9
330
60
100
AcDbEntity
  8
1
  6
Continuous
 62
     7
100
AcDbCircle
 10
222.100685720508
 20
156.1896013737269
 30
0.0
 40
14.75
100
AcDbArc
 50
90.0
 51
159.0968500502132
  0
ARC
  5
1BA
330
60
100
AcDbEntity
  8
1
  6
Continuous
 62
     7
100
AcDbCircle
 10
205.9506857205084
 20
179.5964680709819
 30
0.0
 40
100.0
100
AcDbArc
 50
172.2442086529024
 51
180.0
  0
ARC
  5
1BB
330
60
100
AcDbEntity
  8
1
  6
Continuous
 62
     7
100
AcDbCircle
 10
-15.0493142794916
 20
179.5964680709819
 30
0.0
 40
100.0
100
AcDbArc
 50
0.0
 51
7.75579134709762
  0
ARC
  5
1BC
330
60
100
AcDbEntity
  8
1
  6
Continuous
 62
     7
100
AcDbCircle
 10
163.8006857205085
 20
177.0921266906686
 30
0.0
 40
22.6505135476506
100
AcDbArc
 50
359.6141755038878
 51
40.31067756745707
  0
ARC
  5
1BD
330
60
100
AcDbEntity
  8
0
  6
Continuous
 62
     7
100
AcDbCircle
 10
221.988005295175
 20
206.9396013737269
 30
0.0
 40
14.99999999999992
100
AcDbArc
 50
224.9999999999992
 51
270.0
  0
ENDBLK
  5
62
330
60
100
AcDbEntity
  8
0
100
AcDbBlockEnd
  0
BLOCK
  5
64
330
63
100
AcDbEntity
  8
0
100
AcDbBlockBegin
  2
開示A4
 70
     0
 10
0.0
 20
0.0
 30
0.0
  3
開示A4
  1

  0
POINT
  5
1BE
330
63
100
AcDbEntity
  8
1
 62
     4
100
AcDbPoint
 10
93.75
 20
17.0
 30
0.0
  0
POINT
  5
1BF
330
63
100
AcDbEntity
  8
1
 62
     4
100
AcDbPoint
 10
85.25
 20
17.0
 30
0.0
  0
POINT
  5
1C0
330
63
100
AcDbEntity
  8
1
 62
     4
100
AcDbPoint
 10
106.5
 20
19.00000000000001
 30
0.0
  0
POINT
  5
1C1
330
63
100
AcDbEntity
  8
1
 62
     4
100
AcDbPoint
 10
106.5
 20
12.5
 30
0.0
  0
POINT
  5
1C2
330
63
100
AcDbEntity
  8
1
 62
     4
100
AcDbPoint
 10
112.25
 20
12.5
 30
0.0
  0
POINT
  5
1C3
330
63
100
AcDbEntity
  8
1
 62
     4
100
AcDbPoint
 10
100.75
 20
12.5
 30
0.0
  0
POINT
  5
1C4
330
63
100
AcDbEntity
  8
1
 62
     4
100
AcDbPoint
 10
123.5
 20
19.00000000000001
 30
0.0
  0
POINT
  5
1C5
330
63
100
AcDbEntity
  8
1
 62
     4
100
AcDbPoint
 10
123.5
 20
12.5
 30
0.0
  0
POINT
  5
1C6
330
63
100
AcDbEntity
  8
1
 62
     4
100
AcDbPoint
 10
129.25
 20
12.5
 30
0.0
  0
POINT
  5
1C7
330
63
100
AcDbEntity
  8
1
 62
     4
100
AcDbPoint
 10
117.75
 20
12.5
 30
0.0
  0
POINT
  5
1C8
330
63
100
AcDbEntity
  8
1
 62
     4
100
AcDbPoint
 10
140.5
 20
19.00000000000001
 30
0.0
  0
POINT
  5
1C9
330
63
100
AcDbEntity
  8
1
 62
     4
100
AcDbPoint
 10
140.5
 20
12.5
 30
0.0
  0
POINT
  5
1CA
330
63
100
AcDbEntity
  8
1
 62
     4
100
AcDbPoint
 10
146.25
 20
12.5
 30
0.0
  0
POINT
  5
1CB
330
63
100
AcDbEntity
  8
1
 62
     4
100
AcDbPoint
 10
134.75
 20
12.5
 30
0.0
  0
POINT
  5
1CC
330
63
100
AcDbEntity
  8
1
 62
     4
100
AcDbPoint
 10
151.75
 20
12.5
 30
0.0
  0
POINT
  5
1CD
330
63
100
AcDbEntity
  8
1
 62
     4
100
AcDbPoint
 10
163.25
 20
12.5
 30
0.0
  0
POINT
  5
1CE
330
63
100
AcDbEntity
  8
1
 62
     4
100
AcDbPoint
 10
157.5
 20
12.5
 30
0.0
  0
POINT
  5
1CF
330
63
100
AcDbEntity
  8
1
 62
     4
100
AcDbPoint
 10
57.0
 20
14.25
 30
0.0
  0
POINT
  5
1D0
330
63
100
AcDbEntity
  8
1
 62
     4
100
AcDbPoint
 10
57.0
 20
22.75000000000001
 30
0.0
  0
POINT
  5
1D1
330
63
100
AcDbEntity
  8
1
 62
     4
100
AcDbPoint
 10
47.5
 20
282.0000000000003
 30
0.0
  0
POINT
  5
1D2
330
63
100
AcDbEntity
  8
1
 62
     4
100
AcDbPoint
 10
157.5
 20
19.00000000000001
 30
0.0
  0
POINT
  5
1D3
330
63
100
AcDbEntity
  8
1
 62
     4
100
AcDbPoint
 10
57.0
 20
16.25
 30
0.0
  0
POINT
  5
1D4
330
63
100
AcDbEntity
  8
1
 62
     4
100
AcDbPoint
 10
57.0
 20
24.75000000000001
 30
0.0
  0
POINT
  5
1D5
330
63
100
AcDbEntity
  8
1
 62
     4
100
AcDbPoint
 10
57.0
 20
20.75000000000001
 30
0.0
  0
POINT
  5
1D6
330
63
100
AcDbEntity
  8
1
 62
     4
100
AcDbPoint
 10
57.0
 20
12.25
 30
0.0
  0
POINT
  5
1D7
330
63
100
AcDbEntity
  8
1
 62
     4
100
AcDbPoint
 10
34.0
 20
34.00000000000001
 30
0.0
  0
LINE
  5
1D8
330
63
100
AcDbEntity
  8
1
  6
Continuous
 62
     7
100
AcDbLine
 10
105.0
 20
10.0
 30
0.0
 11
200.0
 21
10.0
 31
0.0
  0
LINE
  5
1D9
330
63
100
AcDbEntity
  8
1
  6
Continuous
 62
     2
100
AcDbLine
 10
105.0
 20
10.0
 30
0.0
 11
105.0
 21
5.0
 31
0.0
  0
LINE
  5
1DA
330
63
100
AcDbEntity
  8
1
  6
Continuous
 62
     7
100
AcDbLine
 10
200.0
 20
148.5
 30
0.0
 11
200.0
 21
287.0000000000003
 31
0.0
  0
LINE
  5
1DB
330
63
100
AcDbEntity
  8
1
  6
Continuous
 62
     2
100
AcDbLine
 10
200.0
 20
148.5
 30
0.0
 11
205.0
 21
148.5
 31
0.0
  0
LINE
  5
1DC
330
63
100
AcDbEntity
  8
1
  6
Continuous
 62
     7
100
AcDbLine
 10
25.0
 20
148.5
 30
0.0
 11
25.0
 21
287.0000000000003
 31
0.0
  0
LINE
  5
1DD
330
63
100
AcDbEntity
  8
1
  6
Continuous
 62
     2
100
AcDbLine
 10
25.0
 20
148.5
 30
0.0
 11
20.0
 21
148.5
 31
0.0
  0
LINE
  5
1DE
330
63
100
AcDbEntity
  8
1
  6
Continuous
 62
     7
100
AcDbLine
 10
105.0
 20
287.0000000000003
 30
0.0
 11
25.0
 21
287.0000000000003
 31
0.0
  0
LINE
  5
1DF
330
63
100
AcDbEntity
  8
1
  6
Continuous
 62
     2
100
AcDbLine
 10
105.0
 20
287.0000000000003
 30
0.0
 11
105.0
 21
292.0000000000003
 31
0.0
  0
LINE
  5
1E0
330
63
100
AcDbEntity
  8
1
  6
Continuous
 62
     2
100
AcDbLine
 10
166.0
 20
20.00000000000001
 30
0.0
 11
200.0
 21
20.00000000000001
 31
0.0
  0
LINE
  5
1E1
330
63
100
AcDbEntity
  8
1
  6
Continuous
 62
     2
100
AcDbLine
 10
98.0
 20
27.00000000000001
 30
0.0
 11
98.0
 21
9.99999999999999
 31
0.0
  0
LINE
  5
1E2
330
63
100
AcDbEntity
  8
1
  6
Continuous
 62
     2
100
AcDbLine
 10
115.0
 20
27.00000000000001
 30
0.0
 11
115.0
 21
9.99999999999999
 31
0.0
  0
LINE
  5
1E3
330
63
100
AcDbEntity
  8
1
  6
Continuous
 62
     2
100
AcDbLine
 10
149.0
 20
27.00000000000001
 30
0.0
 11
149.0
 21
10.0
 31
0.0
  0
LINE
  5
1E4
330
63
100
AcDbEntity
  8
1
  6
Continuous
 62
     2
100
AcDbLine
 10
132.0
 20
27.00000000000001
 30
0.0
 11
132.0
 21
9.99999999999999
 31
0.0
  0
LINE
  5
1E5
330
63
100
AcDbEntity
  8
1
  6
Continuous
 62
     2
100
AcDbLine
 10
166.0
 20
27.00000000000001
 30
0.0
 11
166.0
 21
10.0
 31
0.0
  0
LINE
  5
1E6
330
63
100
AcDbEntity
  8
1
  6
Continuous
 62
     2
100
AcDbLine
 10
55.0
 20
277.0000000000003
 30
0.0
 11
25.0
 21
277.0000000000003
 31
0.0
  0
LINE
  5
1E7
330
63
100
AcDbEntity
  8
1
  6
Continuous
 62
     7
100
AcDbLine
 10
25.0
 20
10.0
 30
0.0
 11
25.0
 21
148.5
 31
0.0
  0
LINE
  5
1E8
330
63
100
AcDbEntity
  8
1
  6
Continuous
 62
     2
100
AcDbLine
 10
40.0
 20
287.0000000000003
 30
0.0
 11
40.0
 21
277.0000000000003
 31
0.0
  0
LINE
  5
1E9
330
63
100
AcDbEntity
  8
1
  6
Continuous
 62
     2
100
AcDbLine
 10
55.0
 20
287.0000000000003
 30
0.0
 11
55.0
 21
277.0000000000003
 31
0.0
  0
LINE
  5
1EA
330
63
100
AcDbEntity
  8
1
  6
Continuous
 62
     2
100
AcDbLine
 10
33.0
 20
41.00000000000001
 30
0.0
 11
33.0
 21
27.0
 31
0.0
  0
LINE
  5
1EB
330
63
100
AcDbEntity
  8
1
  6
Continuous
 62
     7
100
AcDbLine
 10
200.0
 20
27.00000000000001
 30
0.0
 11
25.0
 21
27.00000000000001
 31
0.0
  0
LINE
  5
1EC
330
63
100
AcDbEntity
  8
1
  6
Continuous
 62
     7
100
AcDbLine
 10
25.0
 20
41.0
 30
0.0
 11
200.0
 21
41.0
 31
0.0
  0
LINE
  5
1ED
330
63
100
AcDbEntity
  8
1
  6
PHANTOM
 62
     4
100
AcDbLine
 10
0.0
 20
0.0
 30
0.0
 11
210.0
 21
0.0
 31
0.0
  0
LINE
  5
1EE
330
63
100
AcDbEntity
  8
1
  6
PHANTOM
 62
     4
100
AcDbLine
 10
210.0
 20
0.0
 30
0.0
 11
210.0
 21
297.0
 31
0.0
  0
LINE
  5
1EF
330
63
100
AcDbEntity
  8
1
  6
PHANTOM
 62
     4
100
AcDbLine
 10
210.0
 20
297.0
 30
0.0
 11
0.0
 21
297.0
 31
0.0
  0
LINE
  5
1F0
330
63
100
AcDbEntity
  8
1
  6
PHANTOM
 62
     4
100
AcDbLine
 10
0.0
 20
297.0
 30
0.0
 11
0.0
 21
0.0
 31
0.0
  0
LINE
  5
1F1
330
63
100
AcDbEntity
  8
1
  6
Continuous
 62
     7
100
AcDbLine
 10
25.0
 20
10.0
 30
0.0
 11
105.0
 21
10.0
 31
0.0
  0
LINE
  5
1F2
330
63
100
AcDbEntity
  8
1
  6
Continuous
 62
     7
100
AcDbLine
 10
200.0
 20
10.0
 30
0.0
 11
200.0
 21
148.5
 31
0.0
  0
LINE
  5
1F3
330
63
100
AcDbEntity
  8
1
  6
Continuous
 62
     7
100
AcDbLine
 10
200.0
 20
287.0000000000003
 30
0.0
 11
105.0
 21
287.0000000000003
 31
0.0
  0
LINE
  5
1F4
330
63
100
AcDbEntity
  8
1
  6
Continuous
 62
     2
100
AcDbLine
 10
25.0
 20
18.50000000000001
 30
0.0
 11
81.0
 21
18.50000000000001
 31
0.0
  0
LINE
  5
1F5
330
63
100
AcDbEntity
  8
1
  6
Continuous
 62
     2
100
AcDbLine
 10
33.0
 20
27.0
 30
0.0
 11
33.0
 21
10.0
 31
0.0
  0
LINE
  5
1F6
330
63
100
AcDbEntity
  8
1
  6
Continuous
 62
     7
100
AcDbLine
 10
191.0
 20
24.70000000000001
 30
0.0
 11
191.0
 21
22.30000000000001
 31
0.0
  0
LINE
  5
1F7
330
63
100
AcDbEntity
  8
1
  6
Continuous
 62
     7
100
AcDbLine
 10
191.0
 20
24.70000000000001
 30
0.0
 11
196.0
 21
25.50000000000001
 31
0.0
  0
LINE
  5
1F8
330
63
100
AcDbEntity
  8
1
  6
Continuous
 62
     7
100
AcDbLine
 10
196.0
 20
25.50000000000001
 30
0.0
 11
196.0
 21
21.50000000000001
 31
0.0
  0
LINE
  5
1F9
330
63
100
AcDbEntity
  8
1
  6
Continuous
 62
     7
100
AcDbLine
 10
196.0
 20
21.50000000000001
 30
0.0
 11
191.0
 21
22.30000000000001
 31
0.0
  0
LINE
  5
1FA
330
63
100
AcDbEntity
  8
1
  6
DOT_CENTER
 62
     2
100
AcDbLine
 10
184.0
 20
23.50000000000001
 30
0.0
 11
197.0
 21
23.50000000000001
 31
0.0
  0
LINE
  5
1FB
330
63
100
AcDbEntity
  8
1
  6
DOT_CENTER
 62
     2
100
AcDbLine
 10
187.0
 20
26.50000000000001
 30
0.0
 11
187.0
 21
20.50000000000001
 31
0.0
  0
LINE
  5
1FC
330
63
100
AcDbEntity
  8
1
  6
Continuous
 62
     2
100
AcDbLine
 10
81.0
 20
27.00000000000001
 30
0.0
 11
81.0
 21
10.0
 31
0.0
  0
CIRCLE
  5
1FD
330
63
100
AcDbEntity
  8
1
  6
Continuous
 62
     7
100
AcDbCircle
 10
103.5
 20
12.5
 30
0.0
 40
0.2999999999999972
  0
CIRCLE
  5
1FE
330
63
100
AcDbEntity
  8
1
  6
Continuous
 62
     7
100
AcDbCircle
 10
109.5
 20
12.5
 30
0.0
 40
0.2999999999999972
  0
CIRCLE
  5
1FF
330
63
100
AcDbEntity
  8
1
  6
Continuous
 62
     7
100
AcDbCircle
 10
120.5
 20
12.5
 30
0.0
 40
0.2999999999999972
  0
CIRCLE
  5
200
330
63
100
AcDbEntity
  8
1
  6
Continuous
 62
     7
100
AcDbCircle
 10
126.5
 20
12.5
 30
0.0
 40
0.2999999999999972
  0
CIRCLE
  5
201
330
63
100
AcDbEntity
  8
1
  6
Continuous
 62
     7
100
AcDbCircle
 10
137.5
 20
12.5
 30
0.0
 40
0.3000000000000114
  0
CIRCLE
  5
202
330
63
100
AcDbEntity
  8
1
  6
Continuous
 62
     7
100
AcDbCircle
 10
143.5
 20
12.5
 30
0.0
 40
0.3000000000000114
  0
CIRCLE
  5
203
330
63
100
AcDbEntity
  8
1
  6
Continuous
 62
     7
100
AcDbCircle
 10
160.5
 20
12.5
 30
0.0
 40
0.3000000000000114
  0
CIRCLE
  5
204
330
63
100
AcDbEntity
  8
1
  6
Continuous
 62
     7
100
AcDbCircle
 10
154.5
 20
12.5
 30
0.0
 40
0.3000000000000114
  0
CIRCLE
  5
205
330
63
100
AcDbEntity
  8
1
  6
Continuous
 62
     7
100
AcDbCircle
 10
187.0
 20
23.50000000000001
 30
0.0
 40
1.200000000000102
  0
CIRCLE
  5
206
330
63
100
AcDbEntity
  8
1
  6
Continuous
 62
     7
100
AcDbCircle
 10
187.0
 20
23.50000000000001
 30
0.0
 40
2.0
  0
CIRCLE
  5
207
330
63
100
AcDbEntity
  8
1
  6
DOT_CENTER
 62
     7
100
AcDbCircle
 10
89.5
 20
16.0
 30
0.0
 40
0.1000000000000227
  0
CIRCLE
  5
208
330
63
100
AcDbEntity
  8
1
  6
DOT_CENTER
 62
     7
100
AcDbCircle
 10
89.5
 20
18.0
 30
0.0
 40
0.1000000000000227
  0
MTEXT
  5
20A
330
63
100
AcDbEntity
  8
1
 62
     7
100
AcDbMText
 10
188.5
 20
15.0
 30
0.0
 40
3.0
 41
0.0
 71
     5
 72
     1
  1
三栄水栓製作所
  7
CONVERTER_11
 73
     1
 44
1.0
  0
MTEXT
  5
20B
330
63
100
AcDbEntity
  8
1
 62
     7
100
AcDbMText
 10
171.5
 20
15.0
 30
0.0
 40
2.5
 41
0.0
 71
     5
 72
     1
  1
株式会社
  7
CONVERTER_11
 73
     1
 44
1.0
  0
MTEXT
  5
20C
330
63
100
AcDbEntity
  8
1
 62
     2
100
AcDbMText
 10
32.5
 20
282.0000000000003
 30
0.0
 40
5.0
 41
0.0
 71
     5
 72
     1
  1
図番
  7
CONVERTER_11
 73
     1
 44
0.45454545454545
  0
MTEXT
  5
20D
330
63
100
AcDbEntity
  8
1
 62
     2
100
AcDbMText
 10
29.0
 20
34.00000000000001
 30
0.0
 40
3.5
 41
0.0
 71
     5
 72
     1
  1
備考
  7
CONVERTER_11
 73
     1
 44
0.45454545454545
  0
MTEXT
  5
20E
330
63
100
AcDbEntity
  8
1
 62
     2
100
AcDbMText
 10
29.0
 20
22.75
 30
0.0
 40
3.5
 41
0.0
 71
     5
 72
     1
  1
品名
  7
CONVERTER_11
 73
     1
 44
0.72727272727273
  0
MTEXT
  5
20F
330
63
100
AcDbEntity
  8
1
 62
     2
100
AcDbMText
 10
29.0
 20
14.25
 30
0.0
 40
3.5
 41
0.0
 71
     5
 72
     1
  1
品番
  7
CONVERTER_11
 73
     1
 44
0.72727272727273
  0
MTEXT
  5
210
330
63
100
AcDbEntity
  8
1
 62
     2
100
AcDbMText
 10
101.5
 20
25.00000000000001
 30
0.0
 40
3.0
 41
0.0
 71
     5
 72
     1
  1
承認
  7
CONVERTER_11
 73
     1
 44
0.59090909090909
  0
MTEXT
  5
211
330
63
100
AcDbEntity
  8
1
 62
     2
100
AcDbMText
 10
175.0
 20
23.50000000000001
 30
0.0
 40
3.5
 41
0.0
 71
     5
 72
     1
  1
第三角法
  7
CONVERTER_11
 73
     1
 44
0.54545454545455
  0
MTEXT
  5
212
330
63
100
AcDbEntity
  8
1
 62
     2
100
AcDbMText
 10
118.5
 20
25.00000000000001
 30
0.0
 40
3.0
 41
0.0
 71
     5
 72
     1
  1
検図
  7
CONVERTER_11
 73
     1
 44
0.59090909090909
  0
MTEXT
  5
213
330
63
100
AcDbEntity
  8
1
 62
     2
100
AcDbMText
 10
152.5
 20
25.00000000000001
 30
0.0
 40
3.0
 41
0.0
 71
     5
 72
     1
  1
設計
  7
CONVERTER_11
 73
     1
 44
0.59090909090909
  0
MTEXT
  5
214
330
63
100
AcDbEntity
  8
1
 62
     2
100
AcDbMText
 10
135.5
 20
25.00000000000001
 30
0.0
 40
3.0
 41
0.0
 71
     5
 72
     1
  1
製図
  7
CONVERTER_11
 73
     1
 44
0.59090909090909
  0
MTEXT
  5
215
330
63
100
AcDbEntity
  8
1
 62
     2
100
AcDbMText
 10
89.5
 20
24.00000000000001
 30
0.0
 40
3.5
 41
0.0
 71
     5
 72
     1
  1
尺度
  7
CONVERTER_11
 73
     1
 44
0.54545454545455
  0
MTEXT
  5
216
330
63
100
AcDbEntity
  8
1
 62
   250
100
AcDbMText
 10
25.0
 20
5.0
 30
0.0
 40
3.5
 41
0.0
 71
     4
 72
     1
  1
備考欄の文字列 原点位置=4
  7
CONVERTER_11
 73
     1
 44
0.54545454545455
  0
ENDBLK
  5
65
330
63
100
AcDbEntity
  8
0
100
AcDbBlockEnd
  0
BLOCK
  5
240
330
239
100
AcDbEntity
  8
0
100
AcDbBlockBegin
  2
*D10
 70
     1
 10
0.0
 20
0.0
 30
0.0
  3
*D10
  1

  0
LINE
  5
23A
330
239
100
AcDbEntity
  8
1
  6
Continuous
 62
     2
100
AcDbLine
 10
170.0598127552483
 20
243.7446879013602
 30
0.0
 11
264.4506857205084
 21
243.7446879013602
 31
0.0
  0
LINE
  5
23B
330
239
100
AcDbEntity
  8
1
  6
Continuous
 62
     2
100
AcDbLine
 10
264.4506857205084
 20
190.7551013737267
 30
0.0
 11
264.4506857205084
 21
245.2446879013602
 31
0.0
  0
LINE
  5
23C
330
239
100
AcDbEntity
  8
1
  6
Continuous
 62
     2
100
AcDbLine
 10
170.0598127552482
 20
220.3304743389871
 30
0.0
 11
170.0598127552482
 21
245.2446879013602
 31
0.0
  0
SOLID
  5
23D
330
239
100
AcDbEntity
  8
1
 62
     2
100
AcDbTrace
 10
175.3098127552483
 20
244.435863513694
 30
0.0
 11
175.3098127552483
 21
243.0535122890264
 31
0.0
 12
170.0598127552483
 22
243.7446879013602
 32
0.0
 13
170.0598127552483
 23
243.7446879013602
 33
0.0
  0
SOLID
  5
23E
330
239
100
AcDbEntity
  8
1
 62
     2
100
AcDbTrace
 10
259.2006857205084
 20
243.0535122890264
 30
0.0
 11
259.2006857205084
 21
244.435863513694
 31
0.0
 12
264.4506857205084
 22
243.7446879013602
 32
0.0
 13
264.4506857205084
 23
243.7446879013602
 33
0.0
  0
MTEXT
  5
23F
330
239
100
AcDbEntity
  8
1
 62
     7
100
AcDbMText
 10
213.3177492378783
 20
245.2446879013602
 30
0.0
 40
5.25
 41
0.0
 71
     7
 72
     1
  1
94
  7
CONVERTER_12
 11
0.9999999999970619
 21
2.424068405545306E-6
 31
0.0
 73
     1
 44
0.60024009603842
  0
ENDBLK
  5
241
330
239
100
AcDbEntity
  8
0
100
AcDbBlockEnd
  0
BLOCK
  5
24B
330
244
100
AcDbEntity
  8
0
100
AcDbBlockBegin
  2
*D11
 70
     1
 10
0.0
 20
0.0
 30
0.0
  3
*D11
  1

  0
LINE
  5
245
330
244
100
AcDbEntity
  8
1
  6
Continuous
 62
     2
100
AcDbLine
 10
170.0598127552482
 20
243.7386640815625
 30
0.0
 11
151.0394890211446
 21
243.7386640815625
 31
0.0
  0
LINE
  5
246
330
244
100
AcDbEntity
  8
1
  6
Continuous
 62
     2
100
AcDbLine
 10
151.0394890211446
 20
192.8362640970029
 30
0.0
 11
151.0394890211446
 21
245.2386640815625
 31
0.0
  0
LINE
  5
247
330
244
100
AcDbEntity
  8
1
  6
Continuous
 62
     2
100
AcDbLine
 10
170.0598127552482
 20
220.3304743389871
 30
0.0
 11
170.0598127552482
 21
245.2386640815625
 31
0.0
  0
SOLID
  5
248
330
244
100
AcDbEntity
  8
1
 62
     2
100
AcDbTrace
 10
164.8098127552482
 20
243.0474884692287
 30
0.0
 11
164.8098127552482
 21
244.4298396938963
 31
0.0
 12
170.0598127552482
 22
243.7386640815625
 32
0.0
 13
170.0598127552482
 23
243.7386640815625
 33
0.0
  0
SOLID
  5
249
330
244
100
AcDbEntity
  8
1
 62
     2
100
AcDbTrace
 10
156.2894890211446
 20
244.4298396938963
 30
0.0
 11
156.2894890211446
 21
243.0474884692287
 31
0.0
 12
151.0394890211446
 22
243.7386640815625
 32
0.0
 13
151.0394890211446
 23
243.7386640815625
 33
0.0
  0
MTEXT
  5
24A
330
244
100
AcDbEntity
  8
1
 62
     7
100
AcDbMText
 10
157.901228171002
 20
245.2386640815625
 30
0.0
 40
5.25
 41
0.0
 71
     7
 72
     1
  1
19
  7
CONVERTER_12
 11
0.9999999999970619
 21
2.424068405545306E-6
 31
0.0
 73
     1
 44
0.60024009603842
  0
ENDBLK
  5
24C
330
244
100
AcDbEntity
  8
0
100
AcDbBlockEnd
  0
BLOCK
  5
256
330
24F
100
AcDbEntity
  8
0
100
AcDbBlockBegin
  2
*D12
 70
     1
 10
0.0
 20
0.0
 30
0.0
  3
*D12
  1

  0
LINE
  5
250
330
24F
100
AcDbEntity
  8
1
  6
Continuous
 62
     2
100
AcDbLine
 10
277.9506857205084
 20
204.4396013737268
 30
0.0
 11
277.9506857205084
 21
158.4396013737268
 31
0.0
  0
LINE
  5
251
330
24F
100
AcDbEntity
  8
1
  6
Continuous
 62
     2
100
AcDbLine
 10
250.4506857205084
 20
158.4396013737268
 30
0.0
 11
279.4506857205084
 21
158.4396013737268
 31
0.0
  0
LINE
  5
252
330
24F
100
AcDbEntity
  8
1
  6
Continuous
 62
     2
100
AcDbLine
 10
250.4506857205084
 20
204.4396013737268
 30
0.0
 11
279.4506857205084
 21
204.4396013737268
 31
0.0
  0
SOLID
  5
253
330
24F
100
AcDbEntity
  8
1
 62
     2
100
AcDbTrace
 10
278.6418613328422
 20
199.1896013737268
 30
0.0
 11
277.2595101081745
 21
199.1896013737268
 31
0.0
 12
277.9506857205084
 22
204.4396013737268
 32
0.0
 13
277.9506857205084
 23
204.4396013737268
 33
0.0
  0
SOLID
  5
254
330
24F
100
AcDbEntity
  8
1
 62
     2
100
AcDbTrace
 10
277.2595101081745
 20
163.6896013737268
 30
0.0
 11
278.6418613328422
 21
163.6896013737268
 31
0.0
 12
277.9506857205084
 22
158.4396013737268
 32
0.0
 13
277.9506857205084
 23
158.4396013737268
 33
0.0
  0
MTEXT
  5
255
330
24F
100
AcDbEntity
  8
1
 62
     7
100
AcDbMText
 10
276.4506857205084
 20
176.8155907447819
 30
0.0
 40
5.25
 41
0.0
 71
     7
 72
     1
  1
\C7;{\Fgdt;n}\C7;46
  7
CONVERTER_12
 11
0.0
 21
1.0
 31
0.0
 73
     1
 44
0.60024009603842
  0
ENDBLK
  5
257
330
24F
100
AcDbEntity
  8
0
100
AcDbBlockEnd
  0
BLOCK
  5
262
330
25A
100
AcDbEntity
  8
0
100
AcDbBlockBegin
  2
*D13
 70
     1
 10
0.0
 20
0.0
 30
0.0
  3
*D13
  1

  0
LINE
  5
25B
330
25A
100
AcDbEntity
  8
1
  6
Continuous
 62
     2
100
AcDbLine
 10
174.9506857205084
 20
136.9395983737271
 30
0.0
 11
218.9506857205084
 21
136.9395983737271
 31
0.0
  0
LINE
  5
25C
330
25A
100
AcDbEntity
  8
1
  6
Continuous
 62
     2
100
AcDbLine
 10
218.9506857205084
 20
136.9395983737271
 30
0.0
 11
235.3990599550444
 21
136.9395983737271
 31
0.0
  0
LINE
  5
25D
330
25A
100
AcDbEntity
  8
1
  6
Continuous
 62
     2
100
AcDbLine
 10
218.9506857205084
 20
124.9395983737271
 30
0.0
 11
218.9506857205084
 21
138.4395983737271
 31
0.0
  0
LINE
  5
25E
330
25A
100
AcDbEntity
  8
1
  6
Continuous
 62
     2
100
AcDbLine
 10
174.9506857205084
 20
124.9395983737271
 30
0.0
 11
174.9506857205084
 21
138.4395983737271
 31
0.0
  0
SOLID
  5
25F
330
25A
100
AcDbEntity
  8
1
 62
     2
100
AcDbTrace
 10
180.2006857205084
 20
137.6307739860609
 30
0.0
 11
180.2006857205084
 21
136.2484227613933
 31
0.0
 12
174.9506857205084
 22
136.9395983737271
 32
0.0
 13
174.9506857205084
 23
136.9395983737271
 33
0.0
  0
SOLID
  5
260
330
25A
100
AcDbEntity
  8
1
 62
     2
100
AcDbTrace
 10
213.7006857205084
 20
136.2484227613933
 30
0.0
 11
213.7006857205084
 21
137.6307739860609
 31
0.0
 12
218.9506857205084
 22
136.9395983737271
 32
0.0
 13
218.9506857205084
 23
136.9395983737271
 33
0.0
  0
MTEXT
  5
261
330
25A
100
AcDbEntity
  8
1
 62
     7
100
AcDbMText
 10
223.219059955057
 20
138.0538668831004
 30
0.0
 40
5.25
 41
0.0
 71
     7
 72
     1
  1
\C7;{\Fgdt;n}\C7;44
  7
CONVERTER_12
 11
0.9999999999970619
 21
2.424068405545306E-6
 31
0.0
 73
     1
 44
0.60024009603842
  0
ENDBLK
  5
263
330
25A
100
AcDbEntity
  8
0
100
AcDbBlockEnd
  0
BLOCK
  5
26D
330
266
100
AcDbEntity
  8
0
100
AcDbBlockBegin
  2
*D14
 70
     1
 10
0.0
 20
0.0
 30
0.0
  3
*D14
  1

  0
LINE
  5
267
330
266
100
AcDbEntity
  8
1
  6
Continuous
 62
     2
100
AcDbLine
 10
57.45068572050849
 20
228.7446879013603
 30
0.0
 11
57.45068572050849
 21
181.4396013737267
 31
0.0
  0
LINE
  5
268
330
266
100
AcDbEntity
  8
1
  6
Continuous
 62
     2
100
AcDbLine
 10
67.95068572050849
 20
181.4396013737267
 30
0.0
 11
55.95068572050849
 21
181.4396013737267
 31
0.0
  0
LINE
  5
269
330
266
100
AcDbEntity
  8
1
  6
Continuous
 62
     2
100
AcDbLine
 10
95.4506857205084
 20
228.7446879013603
 30
0.0
 11
55.95068572050849
 21
228.7446879013603
 31
0.0
  0
SOLID
  5
26A
330
266
100
AcDbEntity
  8
1
 62
     2
100
AcDbTrace
 10
58.14186133284232
 20
223.4946879013603
 30
0.0
 11
56.75951010817466
 21
223.4946879013603
 31
0.0
 12
57.45068572050849
 22
228.7446879013603
 32
0.0
 13
57.45068572050849
 23
228.7446879013603
 33
0.0
  0
SOLID
  5
26B
330
266
100
AcDbEntity
  8
1
 62
     2
100
AcDbTrace
 10
56.75951010817466
 20
186.6896013737267
 30
0.0
 11
58.14186133284232
 21
186.6896013737267
 31
0.0
 12
57.45068572050849
 22
181.4396013737267
 32
0.0
 13
57.45068572050849
 23
181.4396013737267
 33
0.0
  0
MTEXT
  5
26C
330
266
100
AcDbEntity
  8
1
 62
     7
100
AcDbMText
 10
55.95068572050849
 20
201.1546446375435
 30
0.0
 40
5.25
 41
0.0
 71
     7
 72
     1
  1
48
  7
CONVERTER_12
 11
0.0
 21
1.0
 31
0.0
 73
     1
 44
0.60024009603842
  0
ENDBLK
  5
26E
330
266
100
AcDbEntity
  8
0
100
AcDbBlockEnd
  0
BLOCK
  5
278
330
271
100
AcDbEntity
  8
0
100
AcDbBlockBegin
  2
*D15
 70
     1
 10
0.0
 20
0.0
 30
0.0
  3
*D15
  1

  0
LINE
  5
272
330
271
100
AcDbEntity
  8
1
  6
Continuous
 62
     2
100
AcDbLine
 10
57.4506857205085
 20
181.4396013737267
 30
0.0
 11
57.4506857205085
 21
93.07958128916549
 31
0.0
  0
LINE
  5
273
330
271
100
AcDbEntity
  8
1
  6
Continuous
 62
     2
100
AcDbLine
 10
67.95068572050849
 20
181.4396013737267
 30
0.0
 11
55.9506857205085
 21
181.4396013737267
 31
0.0
  0
LINE
  5
274
330
271
100
AcDbEntity
  8
1
  6
Continuous
 62
     2
100
AcDbLine
 10
93.65068572050828
 20
93.07958128916549
 30
0.0
 11
55.9506857205085
 21
93.07958128916549
 31
0.0
  0
SOLID
  5
275
330
271
100
AcDbEntity
  8
1
 62
     2
100
AcDbTrace
 10
58.14186133284233
 20
176.1896013737267
 30
0.0
 11
56.75951010817467
 21
176.1896013737267
 31
0.0
 12
57.4506857205085
 22
181.4396013737267
 32
0.0
 13
57.4506857205085
 23
181.4396013737267
 33
0.0
  0
SOLID
  5
276
330
271
100
AcDbEntity
  8
1
 62
     2
100
AcDbTrace
 10
56.75951010817467
 20
98.32958128916549
 30
0.0
 11
58.14186133284233
 21
98.32958128916549
 31
0.0
 12
57.4506857205085
 22
93.07958128916549
 32
0.0
 13
57.4506857205085
 23
93.07958128916549
 33
0.0
  0
MTEXT
  5
277
330
271
100
AcDbEntity
  8
1
 62
     7
100
AcDbMText
 10
55.9506857205085
 20
133.3232239801861
 30
0.0
 40
5.25
 41
0.0
 71
     7
 72
     1
  1
88
  7
CONVERTER_12
 11
0.0
 21
1.0
 31
0.0
 73
     1
 44
0.60024009603842
  0
ENDBLK
  5
279
330
271
100
AcDbEntity
  8
0
100
AcDbBlockEnd
  0
BLOCK
  5
283
330
27C
100
AcDbEntity
  8
0
100
AcDbBlockBegin
  2
*D16
 70
     1
 10
0.0
 20
0.0
 30
0.0
  3
*D16
  1

  0
LINE
  5
27D
330
27C
100
AcDbEntity
  8
1
  6
Continuous
 62
     2
100
AcDbLine
 10
196.9506857205084
 20
66.07958128916549
 30
0.0
 11
264.4506857205084
 21
66.07958128916549
 31
0.0
  0
LINE
  5
27E
330
27C
100
AcDbEntity
  8
1
  6
Continuous
 62
     2
100
AcDbLine
 10
196.9506857205084
 20
97.67081636672036
 30
0.0
 11
196.9506857205084
 21
64.57958128916549
 31
0.0
  0
LINE
  5
27F
330
27C
100
AcDbEntity
  8
1
  6
Continuous
 62
     2
100
AcDbLine
 10
264.4506857205084
 20
172.1241013737269
 30
0.0
 11
264.4506857205084
 21
64.57958128916549
 31
0.0
  0
SOLID
  5
280
330
27C
100
AcDbEntity
  8
1
 62
     2
100
AcDbTrace
 10
202.2006857205084
 20
66.77075690149931
 30
0.0
 11
202.2006857205084
 21
65.38840567683167
 31
0.0
 12
196.9506857205084
 22
66.07958128916549
 32
0.0
 13
196.9506857205084
 23
66.07958128916549
 33
0.0
  0
SOLID
  5
281
330
27C
100
AcDbEntity
  8
1
 62
     2
100
AcDbTrace
 10
259.2006857205084
 20
65.38840567683167
 30
0.0
 11
259.2006857205084
 21
66.77075690149931
 31
0.0
 12
264.4506857205084
 22
66.07958128916549
 32
0.0
 13
264.4506857205084
 23
66.07958128916549
 33
0.0
  0
MTEXT
  5
282
330
27C
100
AcDbEntity
  8
1
 62
     7
100
AcDbMText
 10
226.7631857205084
 20
67.57958128916549
 30
0.0
 40
5.25
 41
0.0
 71
     7
 72
     1
  1
68
  7
CONVERTER_12
 11
0.9999999999970619
 21
2.424068405545306E-6
 31
0.0
 73
     1
 44
0.60024009603842
  0
ENDBLK
  5
284
330
27C
100
AcDbEntity
  8
0
100
AcDbBlockEnd
  0
BLOCK
  5
28F
330
287
100
AcDbEntity
  8
0
100
AcDbBlockBegin
  2
*D17
 70
     1
 10
0.0
 20
0.0
 30
0.0
  3
*D17
  1

  0
LINE
  5
288
330
287
100
AcDbEntity
  8
1
  6
Continuous
 62
     2
100
AcDbLine
 10
189.1006857205085
 20
78.07958128916549
 30
0.0
 11
204.8006857205083
 21
78.07958128916549
 31
0.0
  0
LINE
  5
289
330
287
100
AcDbEntity
  8
1
  6
Continuous
 62
     2
100
AcDbLine
 10
204.8006857205083
 20
78.07958128916549
 30
0.0
 11
228.367244884743
 21
78.07958128916549
 31
0.0
  0
LINE
  5
28A
330
287
100
AcDbEntity
  8
1
  6
Continuous
 62
     2
100
AcDbLine
 10
189.1006857205085
 20
103.9396043737272
 30
0.0
 11
189.1006857205085
 21
76.57958128916549
 31
0.0
  0
LINE
  5
28B
330
287
100
AcDbEntity
  8
1
  6
Continuous
 62
     2
100
AcDbLine
 10
204.8006857205083
 20
103.9396043737272
 30
0.0
 11
204.8006857205083
 21
76.57958128916549
 31
0.0
  0
SOLID
  5
28C
330
287
100
AcDbEntity
  8
1
 62
     2
100
AcDbTrace
 10
194.3506857205085
 20
78.77075690149931
 30
0.0
 11
194.3506857205085
 21
77.38840567683167
 31
0.0
 12
189.1006857205085
 22
78.07958128916549
 32
0.0
 13
189.1006857205085
 23
78.07958128916549
 33
0.0
  0
SOLID
  5
28D
330
287
100
AcDbEntity
  8
1
 62
     2
100
AcDbTrace
 10
199.5506857205083
 20
77.38840567683167
 30
0.0
 11
199.5506857205083
 21
78.77075690149931
 31
0.0
 12
204.8006857205083
 22
78.07958128916549
 32
0.0
 13
204.8006857205083
 23
78.07958128916549
 33
0.0
  0
MTEXT
  5
28E
330
287
100
AcDbEntity
  8
1
 62
     7
100
AcDbMText
 10
211.1997448847556
 20
80.10457085355101
 30
0.0
 40
5.25
 41
0.0
 71
     7
 72
     1
  1
\C7;{\Fgdt;n}\C7;15,7
  7
CONVERTER_12
 11
0.9999999999970619
 21
2.424068405545306E-6
 31
0.0
 73
     1
 44
0.60024009603842
  0
ENDBLK
  5
290
330
287
100
AcDbEntity
  8
0
100
AcDbBlockEnd
  0
ENDSEC
  0
SECTION
  2
ENTITIES
  0
INSERT
  5
66
330
1F
100
AcDbEntity
  8
0
100
AcDbBlockReference
  2
38-6
 10
824.8331773136356
 20
143.3396013737267
 30
0.0
  0
INSERT
  5
67
330
1F
100
AcDbEntity
  8
0
100
AcDbBlockReference
  2
35-199BX
 10
481.8977865387964
 20
7.8968331351702
 30
0.0
  0
INSERT
  5
68
330
1F
100
AcDbEntity
  8
1
100
AcDbBlockReference
  2
81-100X
 10
631.8027633355942
 20
67.88029796346548
 30
0.0
  0
INSERT
  5
69
330
1F
100
AcDbEntity
  8
1
100
AcDbBlockReference
  2
Y145-0B
 10
528.9506857205081
 20
48.4396013737269
 30
0.0
  0
INSERT
  5
6A
330
1F
100
AcDbEntity
  8
1
100
AcDbBlockReference
  2
開示A4
 10
0.0
 20
0.0
 30
0.0
 41
1.5
 42
1.5
 43
1.5
  0
LINE
  5
217
330
1F
100
AcDbEntity
  8
1
  6
DASH_CENTER
 62
     2
100
AcDbLine
 10
236.4325950332668
 20
312.9396013737269
 30
0.0
 11
236.4325950332668
 21
373.9396013737269
 31
0.0
  0
LINE
  5
218
330
1F
100
AcDbEntity
  8
1
  6
DASH_CENTER
 62
     2
100
AcDbLine
 10
254.9325950332668
 20
350.9396013737268
 30
0.0
 11
217.9325950332668
 21
350.9396013737268
 31
0.0
  0
LINE
  5
219
330
1F
100
AcDbEntity
  8
1
  6
Continuous
 62
     2
100
AcDbLine
 10
249.0
 20
288.1896013737268
 30
0.0
 11
224.0
 21
288.1896013737268
 31
0.0
  0
LINE
  5
21A
330
1F
100
AcDbEntity
  8
1
  6
DASH_CENTER
 62
     2
100
AcDbLine
 10
268.9506857205084
 20
181.4396013737268
 30
0.0
 11
192.4506857205084
 21
181.4396013737268
 31
0.0
  0
LINE
  5
21B
330
1F
100
AcDbEntity
  8
1
  6
DASH_CENTER
 62
     2
100
AcDbLine
 10
196.9506857205084
 20
97.67081636672036
 30
0.0
 11
196.9506857205084
 21
185.4396013737272
 31
0.0
  0
LINE
  5
21C
330
1F
100
AcDbEntity
  8
1
  6
DASH_CENTER
 62
     2
100
AcDbLine
 10
166.8778322399087
 20
223.5124548543266
 30
0.0
 11
193.315778685823
 21
197.0745084084123
 31
0.0
  0
LINE
  5
21D
330
1F
100
AcDbEntity
  8
1
  6
DASH_CENTER
 62
     2
100
AcDbLine
 10
95.4506857205084
 20
384.7450292674178
 30
0.0
 11
95.4506857205084
 21
262.3172071372509
 31
0.0
  0
LINE
  5
21E
330
1F
100
AcDbEntity
  8
1
  6
DASH_CENTER
 62
     2
100
AcDbLine
 10
68.95068572050832
 20
312.7450292674179
 30
0.0
 11
121.9506857205083
 21
312.7450292674179
 31
0.0
  0
LINE
  5
21F
330
1F
100
AcDbEntity
  8
1
  6
Continuous
 62
     2
100
AcDbLine
 10
266.728322032289
 20
334.5973503430207
 30
0.0
 11
283.457901790327
 21
334.5973503430207
 31
0.0
  0
LINE
  5
220
330
1F
100
AcDbEntity
  8
1
  6
Continuous
 62
     2
100
AcDbLine
 10
247.804699027295
 20
314.3435666810189
 30
0.0
 11
264.122895676529
 21
314.3435666810189
 31
0.0
  0
LINE
  5
221
330
1F
100
AcDbEntity
  8
1
  6
DASH_CENTER
 62
     2
100
AcDbLine
 10
95.4506857205084
 20
233.2446879013602
 30
0.0
 11
95.4506857205084
 21
87.07958128916549
 31
0.0
  0
LINE
  5
222
330
1F
100
AcDbEntity
  8
1
  6
DASH_CENTER
 62
     2
100
AcDbLine
 10
67.95068572050849
 20
181.4396013737268
 30
0.0
 11
122.9506857205083
 21
181.4396013737268
 31
0.0
  0
LINE
  5
223
330
1F
100
AcDbEntity
  8
1
  6
DASH_CENTER
 62
     2
100
AcDbLine
 10
149.9072694914316
 20
184.6215818890664
 30
0.0
 11
195.1621034873708
 21
229.8764158850054
 31
0.0
  0
LINE
  5
224
330
1F
100
AcDbEntity
  8
1
  6
DASH_CENTER
 62
     2
100
AcDbLine
 10
201.0937551365372
 20
93.2359814988578
 30
0.0
 11
196.9506857205084
 21
97.67081636672036
 31
0.0
  0
ARC
  5
225
330
1F
100
AcDbEntity
  8
1
  6
Continuous
 62
     2
100
AcDbCircle
 10
233.4325950332668
 20
352.9396013737268
 30
0.0
 40
30.0
100
AcDbArc
 50
295.0000000000003
 51
335.0000000000001
  0
SOLID
  5
226
330
1F
100
AcDbEntity
  8
1
 62
     2
100
AcDbTrace
 10
248.7645397575148
 20
327.7502949529527
 30
0.0
 11
249.348746629199
 21
326.4974592736168
 31
0.0
 12
244.2985273114146
 22
324.9051312391459
 32
0.0
 13
244.2985273114146
 23
324.9051312391459
 33
0.0
  0
LEADER
  5
227
330
1F
100
AcDbEntity
  8
1
  6
Continuous
 62
     2
100
AcDbLeader
  3
Standard
 71
     0
 76
     2
 10
244.2985273114146
 20
324.9051312391459
 30
0.0
 10
246.1111428854879
 20
325.7503677626274
 30
0.0
  0
SOLID
  5
228
330
1F
100
AcDbEntity
  8
1
 62
     2
100
AcDbTrace
 10
259.8747371333768
 20
337.0234497777947
 30
0.0
 11
258.6219014540409
 21
337.6076566494789
 31
0.0
 12
261.4670651678478
 22
342.0736690955791
 32
0.0
 13
261.4670651678478
 23
342.0736690955791
 33
0.0
  0
LEADER
  5
229
330
1F
100
AcDbEntity
  8
1
  6
Continuous
 62
     2
100
AcDbLeader
  3
Standard
 71
     0
 76
     2
 10
261.4670651678478
 20
342.0736690955791
 30
0.0
 10
260.6218286443663
 20
340.2610535215059
 30
0.0
  0
SOLID
  5
22A
330
1F
100
AcDbEntity
  8
1
 62
     2
100
AcDbTrace
 10
140.4158512601277
 20
248.9447584095775
 30
0.0
 11
141.3910806417365
 21
249.9244637538455
 31
0.0
 12
144.6242663999232
 22
245.730809788609
 32
0.0
 13
144.6242663999232
 23
245.730809788609
 33
0.0
  0
LEADER
  5
22B
330
1F
100
AcDbEntity
  8
1
  6
Continuous
 62
     2
100
AcDbLeader
  3
Standard
 71
     0
 76
     2
 10
144.6242663999232
 20
245.730809788609
 30
0.0
 10
136.9172511452521
 20
253.4026141375769
 30
0.0
  0
SOLID
  5
22C
330
1F
100
AcDbEntity
  8
1
 62
     2
100
AcDbTrace
 10
260.0932613592656
 20
166.7610558100253
 30
0.0
 11
258.8961100817509
 21
166.0698801976915
 31
0.0
 12
256.8696857205083
 22
170.9621013737267
 32
0.0
 13
256.8696857205083
 23
170.9621013737267
 33
0.0
  0
LEADER
  5
22D
330
1F
100
AcDbEntity
  8
1
  6
Continuous
 62
     2
100
AcDbLeader
  3
Standard
 71
     0
 76
     3
 10
256.8696857205083
 20
170.9621013737267
 30
0.0
 10
270.133589141884
 20
147.9883467412174
 30
0.0
 10
292.827780374344
 20
147.9883467412174
 30
0.0
  0
MTEXT
  5
22E
330
1F
100
AcDbEntity
  8
1
 62
     7
100
AcDbMText
 10
255.8331858659125
 20
318.8435666810189
 30
0.0
 40
7.5
 41
0.0
 71
     5
 72
     1
  1
止水
  7
CONVERTER_11
 73
     1
 44
0.54545454545455
  0
MTEXT
  5
22F
330
1F
100
AcDbEntity
  8
1
 62
     7
100
AcDbMText
 10
275.555788274329
 20
339.0973503430207
 30
0.0
 40
7.5
 41
0.0
 71
     5
 72
     1
  1
吐水
  7
CONVERTER_11
 73
     1
 44
0.54545454545455
  0
MTEXT
  5
230
330
1F
100
AcDbEntity
  8
1
 62
     7
100
AcDbMText
 10
235.9506857205082
 20
293.4396013737269
 30
0.0
 40
7.5
 41
0.0
 71
     5
 72
     1
  1
矢視A
  7
CONVERTER_11
 73
     1
 44
0.54545454545455
  0
MTEXT
  5
232
330
1F
100
AcDbEntity
  8
1
 62
     7
100
AcDbMText
 10
281.480684758114
 20
152.4883467412174
 30
0.0
 40
5.25
 41
0.0
 71
     5
 72
     1
  1
PJ1/2
  7
CONVERTER_12
 73
     1
 44
1.32052821128451
  0
MTEXT
  5
233
330
1F
100
AcDbEntity
  8
1
 62
     7
100
AcDbMText
 10
131.7279936175454
 20
258.5773009602361
 30
0.0
 40
7.5
 41
0.0
 71
     5
 72
     1
  1
A
  7
CONVERTER_12
 73
     1
 44
0.7202881152461
  0
MTEXT
  5
234
330
1F
100
AcDbEntity
  8
1
 62
     7
100
AcDbMText
 10
140.625
 20
25.5
 30
0.0
 40
5.25
 41
0.0
 71
     5
 72
     1
  1
1,5
  7
CONVERTER_12
 73
     1
 44
1.32052821128451
  0
MTEXT
  5
235
330
1F
100
AcDbEntity
  8
1
 62
     7
100
AcDbMText
 10
127.875
 20
25.5
 30
0.0
 40
5.25
 41
0.0
 71
     5
 72
     1
  1
1
  7
CONVERTER_12
 73
     1
 44
1.32052821128451
  0
MTEXT
  5
236
330
1F
100
AcDbEntity
  8
1
 62
     7
100
AcDbMText
 10
85.5
 20
21.375
 30
0.0
 40
5.25
 41
0.0
 71
     5
 72
     1
  1
Y145TV-1-13
  7
CONVERTER_12
 73
     1
 44
0.90036014405762
  0
MTEXT
  5
237
330
1F
100
AcDbEntity
  8
1
 62
     7
100
AcDbMText
 10
85.5
 20
34.12500000000001
 30
0.0
 40
5.25
 41
0.0
 71
     5
 72
     1
  1
ミニセラ洗濯機用\P  送り座水栓
  7
CONVERTER_11
 73
     1
 44
0.54545454545455
  0
MTEXT
  5
238
330
1F
100
AcDbEntity
  8
1
 62
     7
100
AcDbMText
 10
51.0
 20
51.00000000000001
 30
0.0
 40
5.25
 41
0.0
 71
     4
 72
     1
  1
JIS
  7
CONVERTER_12
 73
     1
 44
0.7202881152461
  0
DIMENSION
  5
243
330
1F
100
AcDbEntity
  8
1
100
AcDbDimension
  2
*D10
 10
170.0598127552483
 20
243.7446879013602
 30
0.0
 11
217.2552492378783
 21
247.8696879013602
 31
0.0
 70
    32
  1
94
 71
     5
 42
-1.0
 53
0.00013888888889
  3
ME10_DIM_10
100
AcDbAlignedDimension
 13
264.4506857205084
 23
190.7551013737267
 33
0.0
 14
170.0598127552482
 24
220.3304743389871
 34
0.0
100
AcDbRotatedDimension
  0
DIMENSION
  5
24E
330
1F
100
AcDbEntity
  8
1
100
AcDbDimension
  2
*D11
 10
170.0598127552482
 20
243.7386640815625
 30
0.0
 11
161.051228171002
 21
247.8636640815625
 31
0.0
 70
    32
  1
19
 71
     5
 42
-1.0
 53
0.00013888888889
  3
ME10_DIM_11
100
AcDbAlignedDimension
 13
151.0394890211446
 23
192.8362640970029
 33
0.0
 14
170.0598127552482
 24
220.3304743389871
 34
0.0
100
AcDbRotatedDimension
  0
DIMENSION
  5
259
330
1F
100
AcDbEntity
  8
1
100
AcDbDimension
  2
*D12
 10
277.9506857205084
 20
204.4396013737268
 30
0.0
 11
273.8256857205084
 21
181.9080907447819
 31
0.0
 70
    32
  1
<>
 71
     5
 42
-1.0
 53
90.0
  3
ME10_DIM_12
100
AcDbAlignedDimension
 13
250.4506857205084
 23
158.4396013737268
 33
0.0
 14
250.4506857205084
 24
204.4396013737268
 34
0.0
 50
90.0
100
AcDbRotatedDimension
  0
DIMENSION
  5
265
330
1F
100
AcDbEntity
  8
1
100
AcDbDimension
  2
*D13
 10
174.9506857205084
 20
136.9395983737271
 30
0.0
 11
228.3115599550444
 21
140.6788773187149
 31
0.0
 70
    32
  1
<>
 71
     5
 42
-1.0
 53
0.00013888888889
  3
ME10_DIM_13
100
AcDbAlignedDimension
 13
218.9506857205084
 23
124.9395983737271
 33
0.0
 14
174.9506857205084
 24
124.9395983737271
 34
0.0
100
AcDbRotatedDimension
  0
DIMENSION
  5
270
330
1F
100
AcDbEntity
  8
1
100
AcDbDimension
  2
*D14
 10
57.45068572050849
 20
228.7446879013603
 30
0.0
 11
53.32568572050849
 21
205.0921446375435
 31
0.0
 70
    32
  1
48
 71
     5
 42
-1.0
 53
90.0
  3
ME10_DIM_14
100
AcDbAlignedDimension
 13
67.95068572050849
 23
181.4396013737268
 33
0.0
 14
95.4506857205084
 24
228.7446879013603
 34
0.0
 50
90.0
100
AcDbRotatedDimension
  0
DIMENSION
  5
27B
330
1F
100
AcDbEntity
  8
1
100
AcDbDimension
  2
*D15
 10
57.4506857205085
 20
181.4396013737267
 30
0.0
 11
53.3256857205085
 21
137.2607239801861
 31
0.0
 70
    32
  1
88
 71
     5
 42
-1.0
 53
90.0
  3
ME10_DIM_15
100
AcDbAlignedDimension
 13
93.65068572050828
 23
93.07958128916549
 33
0.0
 14
67.95068572050849
 24
181.4396013737268
 34
0.0
 50
90.0
100
AcDbRotatedDimension
  0
DIMENSION
  5
286
330
1F
100
AcDbEntity
  8
1
100
AcDbDimension
  2
*D16
 10
196.9506857205084
 20
66.07958128916549
 30
0.0
 11
230.7006857205084
 21
70.20458128916549
 31
0.0
 70
    32
  1
68
 71
     5
 42
-1.0
 53
0.00013888888889
  3
ME10_DIM_16
100
AcDbAlignedDimension
 13
264.4506857205084
 23
172.1241013737269
 33
0.0
 14
196.9506857205084
 24
97.67081636672036
 34
0.0
100
AcDbRotatedDimension
  0
DIMENSION
  5
292
330
1F
100
AcDbEntity
  8
1
100
AcDbDimension
  2
*D17
 10
189.1006857205085
 20
78.07958128916549
 30
0.0
 11
218.785994884743
 21
82.46708128916549
 31
0.0
 70
    32
  1
<>
 71
     5
 42
-1.0
 53
0.00013888888889
  3
ME10_DIM_17
100
AcDbAlignedDimension
 13
204.8006857205083
 23
103.9396043737272
 33
0.0
 14
189.1006857205085
 24
103.9396043737272
 34
0.0
100
AcDbRotatedDimension
  0
ENDSEC
  0
SECTION
  2
OBJECTS
  0
DICTIONARY
  5
C
330
0
100
AcDbDictionary
281
     1
  3
ACAD_GROUP
350
D
  3
ACAD_LAYOUT
350
1A
  3
ACAD_MATERIAL
350
3B
  3
ACAD_MLEADERSTYLE
350
295
  3
ACAD_MLINESTYLE
350
17
  3
ACAD_PLOTSETTINGS
350
19
  3
ACAD_PLOTSTYLENAME
350
E
  3
ACAD_VISUALSTYLE
350
2A
  3
AcDbVariableDictionary
350
293
  0
DICTIONARY
  5
D
102
{ACAD_REACTORS
330
C
102
}
330
C
100
AcDbDictionary
281
     1
  0
DICTIONARY
  5
1A
102
{ACAD_REACTORS
330
C
102
}
330
C
100
AcDbDictionary
281
     1
  3
Layout1
350
1E
  3
Layout2
350
26
  3
Model
350
22
  0
DICTIONARY
  5
3B
102
{ACAD_REACTORS
330
C
102
}
330
C
100
AcDbDictionary
281
     1
  3
ByBlock
350
3D
  3
ByLayer
350
3C
  3
Global
350
3E
  0
DICTIONARY
  5
295
102
{ACAD_REACTORS
330
C
102
}
330
C
100
AcDbDictionary
281
     1
  0
DICTIONARY
  5
17
102
{ACAD_REACTORS
330
C
102
}
330
C
100
AcDbDictionary
281
     1
  3
Standard
350
18
  0
DICTIONARY
  5
19
102
{ACAD_REACTORS
330
C
102
}
330
C
100
AcDbDictionary
281
     1
  0
ACDBDICTIONARYWDFLT
  5
E
102
{ACAD_REACTORS
330
C
102
}
330
C
100
AcDbDictionary
281
     1
  3
Normal
350
F
100
AcDbDictionaryWithDefault
340
F
  0
DICTIONARY
  5
2A
102
{ACAD_REACTORS
330
C
102
}
330
C
100
AcDbDictionary
281
     1
  3
2dWireframe
350
2F
  3
3D Hidden
350
31
  3
3dWireframe
350
30
  3
Basic
350
32
  3
Brighten
350
36
  3
ColorChange
350
3A
  3
Conceptual
350
34
  3
Dim
350
35
  3
Facepattern
350
39
  3
Flat
350
2B
  3
FlatWithEdges
350
2C
  3
Gouraud
350
2D
  3
GouraudWithEdges
350
2E
  3
Linepattern
350
38
  3
Realistic
350
33
  3
Thicken
350
37
  0
DICTIONARY
  5
293
102
{ACAD_REACTORS
330
C
102
}
330
C
100
AcDbDictionary
281
     1
  3
DIMASSOC
350
296
  3
HIDETEXT
350
297
  0
LAYOUT
  5
1E
102
{ACAD_REACTORS
330
1A
102
}
330
1A
100
AcDbPlotSettings
  1

  2
none_device
  4

  6

 40
0.0
 41
0.0
 42
0.0
 43
0.0
 44
0.0
 45
0.0
 46
0.0
 47
0.0
 48
0.0
 49
0.0
140
0.0
141
0.0
142
1.0
143
1.0
 70
   688
 72
     0
 73
     0
 74
     5
  7

 75
    16
147
1.0
148
0.0
149
0.0
100
AcDbLayout
  1
Layout1
 70
     1
 71
     1
 10
0.0
 20
0.0
 11
12.0
 21
9.0
 12
0.0
 22
0.0
 32
0.0
 14
1.00000000000000E+20
 24
1.00000000000000E+20
 34
1.00000000000000E+20
 15
-1.00000000000000E+20
 25
-1.00000000000000E+20
 35
-1.00000000000000E+20
146
0.0
 13
0.0
 23
0.0
 33
0.0
 16
1.0
 26
0.0
 36
0.0
 17
0.0
 27
1.0
 37
0.0
 76
     0
330
1B
  0
LAYOUT
  5
26
102
{ACAD_REACTORS
330
1A
102
}
330
1A
100
AcDbPlotSettings
  1

  2
none_device
  4

  6

 40
0.0
 41
0.0
 42
0.0
 43
0.0
 44
0.0
 45
0.0
 46
0.0
 47
0.0
 48
0.0
 49
0.0
140
0.0
141
0.0
142
1.0
143
1.0
 70
   688
 72
     0
 73
     0
 74
     5
  7

 75
    16
147
1.0
148
0.0
149
0.0
100
AcDbLayout
  1
Layout2
 70
     1
 71
     2
 10
0.0
 20
0.0
 11
0.0
 21
0.0
 12
0.0
 22
0.0
 32
0.0
 14
0.0
 24
0.0
 34
0.0
 15
0.0
 25
0.0
 35
0.0
146
0.0
 13
0.0
 23
0.0
 33
0.0
 16
1.0
 26
0.0
 36
0.0
 17
0.0
 27
1.0
 37
0.0
 76
     0
330
23
  0
LAYOUT
  5
22
102
{ACAD_REACTORS
330
1A
102
}
330
1A
100
AcDbPlotSettings
  1

  2
none_device
  4

  6

 40
0.0
 41
0.0
 42
0.0
 43
0.0
 44
0.0
 45
0.0
 46
0.0
 47
0.0
 48
0.0
 49
0.0
140
0.0
141
0.0
142
1.0
143
1.0
 70
  1712
 72
     0
 73
     0
 74
     0
  7

 75
     0
147
1.0
148
0.0
149
0.0
100
AcDbLayout
  1
Model
 70
     1
 71
     0
 10
0.0
 20
0.0
 11
12.0
 21
9.0
 12
0.0
 22
0.0
 32
0.0
 14
0.0
 24
0.0
 34
0.0
 15
315.0
 25
445.5
 35
0.0
146
0.0
 13
0.0
 23
0.0
 33
0.0
 16
1.0
 26
0.0
 36
0.0
 17
0.0
 27
1.0
 37
0.0
 76
     0
330
1F
331
29
  0
MATERIAL
  5
3D
102
{ACAD_REACTORS
330
3B
102
}
102
{ACAD_XDICTIONARY
360
2BA
102
}
330
3B
100
AcDbMaterial
  1
ByBlock
  0
MATERIAL
  5
3C
102
{ACAD_REACTORS
330
3B
102
}
102
{ACAD_XDICTIONARY
360
2B8
102
}
330
3B
100
AcDbMaterial
  1
ByLayer
  0
MATERIAL
  5
3E
102
{ACAD_REACTORS
330
3B
102
}
102
{ACAD_XDICTIONARY
360
2BC
102
}
330
3B
100
AcDbMaterial
  1
Global
  0
MLINESTYLE
  5
18
102
{ACAD_REACTORS
330
17
102
}
330
17
100
AcDbMlineStyle
  2
Standard
 70
     0
  3

 62
   256
 51
90.0
 52
90.0
 71
     2
 49
0.5
 62
   256
  6
BYLAYER
 49
-0.5
 62
   256
  6
BYLAYER
  0
ACDBPLACEHOLDER
  5
F
102
{ACAD_REACTORS
330
E
102
}
330
E
  0
VISUALSTYLE
  5
2F
102
{ACAD_REACTORS
330
2A
102
}
102
{ACAD_XDICTIONARY
360
2A0
102
}
330
2A
100
AcDbVisualStyle
  2
2dWireframe
 70
     4
 71
     0
 72
     2
 73
     0
 90
        0
 40
-0.6
 41
-30.0
 62
     5
 63
     7
 74
     1
 91
        4
 64
     7
 65
   257
 75
     1
175
     1
 42
1.0
 92
        0
 66
   257
 43
1.0
 76
     1
 77
     6
 78
     2
 67
     7
 79
     5
170
     0
171
     0
290
     0
174
     0
 93
        1
 44
0.0
173
     0
291
     0
 45
0.0
1001
ACAD
1000
AcDbSavedByObjectVersion
1070
     0
  0
VISUALSTYLE
  5
31
102
{ACAD_REACTORS
330
2A
102
}
102
{ACAD_XDICTIONARY
360
2A4
102
}
330
2A
100
AcDbVisualStyle
  2
3D Hidden
 70
     6
 71
     1
 72
     2
 73
     2
 90
        0
 40
-0.6
 41
-30.0
 62
     5
 63
     7
 74
     2
 91
        2
 64
     7
 65
   257
 75
     2
175
     1
 42
40.0
 92
        0
 66
   257
 43
1.0
 76
     1
 77
     6
 78
     2
 67
     7
 79
     3
170
     0
171
     0
290
     0
174
     0
 93
        1
 44
0.0
173
     0
291
     0
 45
0.0
1001
ACAD
1000
AcDbSavedByObjectVersion
1070
     0
  0
VISUALSTYLE
  5
30
102
{ACAD_REACTORS
330
2A
102
}
102
{ACAD_XDICTIONARY
360
2A2
102
}
330
2A
100
AcDbVisualStyle
  2
3dWireframe
 70
     5
 71
     0
 72
     2
 73
     0
 90
        0
 40
-0.6
 41
-30.0
 62
     5
 63
     7
 74
     1
 91
        4
 64
     7
 65
   257
 75
     1
175
     1
 42
1.0
 92
        0
 66
   257
 43
1.0
 76
     1
 77
     6
 78
     2
 67
     7
 79
     5
170
     0
171
     0
290
     0
174
     0
 93
        1
 44
0.0
173
     0
291
     0
 45
0.0
1001
ACAD
1000
AcDbSavedByObjectVersion
1070
     0
  0
VISUALSTYLE
  5
32
102
{ACAD_REACTORS
330
2A
102
}
102
{ACAD_XDICTIONARY
360
2A6
102
}
330
2A
100
AcDbVisualStyle
  2
Basic
 70
     7
 71
     1
 72
     0
 73
     1
 90
        0
 40
-0.6
 41
-30.0
 62
     5
 63
     7
 74
     0
 91
        4
 64
     7
 65
   257
 75
     1
175
     1
 42
1.0
 92
        8
 66
     7
 43
1.0
 76
     1
 77
     6
 78
     2
 67
     7
 79
     5
170
     0
171
     0
290
     0
174
     0
 93
        1
 44
0.0
173
     0
291
     1
 45
0.0
1001
ACAD
1000
AcDbSavedByObjectVersion
1070
     0
  0
VISUALSTYLE
  5
36
102
{ACAD_REACTORS
330
2A
102
}
102
{ACAD_XDICTIONARY
360
2AE
102
}
330
2A
100
AcDbVisualStyle
  2
Brighten
 70
    12
 71
     2
 72
     2
 73
     0
 90
        0
 40
-0.6
 41
-30.0
 62
     5
 63
     7
 74
     1
 91
        4
 64
     7
 65
   257
 75
     1
175
     1
 42
1.0
 92
        8
 66
     7
 43
1.0
 76
     1
 77
     6
 78
     2
 67
     7
 79
     5
170
     0
171
     0
290
     0
174
     0
 93
        1
 44
50.0
173
     0
291
     1
 45
0.0
1001
ACAD
1000
AcDbSavedByObjectVersion
1070
     0
  0
VISUALSTYLE
  5
3A
102
{ACAD_REACTORS
330
2A
102
}
102
{ACAD_XDICTIONARY
360
2B6
102
}
330
2A
100
AcDbVisualStyle
  2
ColorChange
 70
    16
 71
     2
 72
     2
 73
     3
 90
        0
 40
-0.6
 41
-30.0
 62
     5
 63
     8
 74
     1
 91
        4
 64
     7
 65
   257
 75
     1
175
     1
 42
1.0
 92
        8
 66
     8
 43
1.0
 76
     1
 77
     6
 78
     2
 67
     7
 79
     5
170
     0
171
     0
290
     0
174
     0
 93
        1
 44
0.0
173
     0
291
     1
 45
0.0
1001
ACAD
1000
AcDbSavedByObjectVersion
1070
     0
  0
VISUALSTYLE
  5
34
102
{ACAD_REACTORS
330
2A
102
}
102
{ACAD_XDICTIONARY
360
2AA
102
}
330
2A
100
AcDbVisualStyle
  2
Conceptual
 70
     9
 71
     3
 72
     2
 73
     0
 90
        0
 40
-0.6
 41
-30.0
 62
     5
 63
     7
 74
     2
 91
        2
 64
     7
 65
   257
 75
     1
175
     1
 42
40.0
 92
        8
 66
     7
 43
1.0
 76
     1
 77
     6
 78
     2
 67
     7
 79
     3
170
     0
171
     0
290
     0
174
     0
 93
        1
 44
0.0
173
     0
291
     0
 45
0.0
1001
ACAD
1000
AcDbSavedByObjectVersion
1070
     0
  0
VISUALSTYLE
  5
35
102
{ACAD_REACTORS
330
2A
102
}
102
{ACAD_XDICTIONARY
360
2AC
102
}
330
2A
100
AcDbVisualStyle
  2
Dim
 70
    11
 71
     2
 72
     2
 73
     0
 90
        0
 40
-0.6
 41
-30.0
 62
     5
 63
     7
 74
     1
 91
        4
 64
     7
 65
   257
 75
     1
175
     1
 42
1.0
 92
        8
 66
     7
 43
1.0
 76
     1
 77
     6
 78
     2
 67
     7
 79
     5
170
     0
171
     0
290
     0
174
     0
 93
        1
 44
-50.0
173
     0
291
     1
 45
0.0
1001
ACAD
1000
AcDbSavedByObjectVersion
1070
     0
  0
VISUALSTYLE
  5
39
102
{ACAD_REACTORS
330
2A
102
}
102
{ACAD_XDICTIONARY
360
2B4
102
}
330
2A
100
AcDbVisualStyle
  2
Facepattern
 70
    15
 71
     2
 72
     2
 73
     0
 90
        0
 40
-0.6
 41
-30.0
 62
     5
 63
     7
 74
     1
 91
        4
 64
     7
 65
   257
 75
     1
175
     1
 42
1.0
 92
        8
 66
     7
 43
1.0
 76
     1
 77
     6
 78
     2
 67
     7
 79
     5
170
     0
171
     0
290
     0
174
     0
 93
        1
 44
0.0
173
     0
291
     1
 45
0.0
1001
ACAD
1000
AcDbSavedByObjectVersion
1070
     0
  0
VISUALSTYLE
  5
2B
102
{ACAD_REACTORS
330
2A
102
}
102
{ACAD_XDICTIONARY
360
298
102
}
330
2A
100
AcDbVisualStyle
  2
Flat
 70
     0
 71
     2
 72
     1
 73
     1
 90
        2
 40
-0.6
 41
30.0
 62
     5
 63
     7
 74
     0
 91
        4
 64
     7
 65
   257
 75
     1
175
     1
 42
1.0
 92
        8
 66
     7
 43
1.0
 76
     1
 77
     6
 78
     2
 67
     7
 79
     5
170
     0
171
     0
290
     0
174
     0
 93
       13
 44
0.0
173
     0
291
     1
 45
0.0
1001
ACAD
1000
AcDbSavedByObjectVersion
1070
     0
  0
VISUALSTYLE
  5
2C
102
{ACAD_REACTORS
330
2A
102
}
102
{ACAD_XDICTIONARY
360
29A
102
}
330
2A
100
AcDbVisualStyle
  2
FlatWithEdges
 70
     1
 71
     2
 72
     1
 73
     1
 90
        2
 40
-0.6
 41
30.0
 62
     5
 63
     7
 74
     1
 91
        4
 64
     7
 65
   257
 75
     1
175
     1
 42
1.0
 92
        0
 66
   257
 43
1.0
 76
     1
 77
     6
 78
     2
 67
     7
 79
     5
170
     0
171
     0
290
     0
174
     0
 93
       13
 44
0.0
173
     0
291
     1
 45
0.0
1001
ACAD
1000
AcDbSavedByObjectVersion
1070
     0
  0
VISUALSTYLE
  5
2D
102
{ACAD_REACTORS
330
2A
102
}
102
{ACAD_XDICTIONARY
360
29C
102
}
330
2A
100
AcDbVisualStyle
  2
Gouraud
 70
     2
 71
     2
 72
     2
 73
     1
 90
        2
 40
-0.6
 41
30.0
 62
     5
 63
     7
 74
     0
 91
        4
 64
     7
 65
   257
 75
     1
175
     1
 42
1.0
 92
        0
 66
     7
 43
1.0
 76
     1
 77
     6
 78
     2
 67
     7
 79
     5
170
     0
171
     0
290
     0
174
     0
 93
       13
 44
0.0
173
     0
291
     1
 45
0.0
1001
ACAD
1000
AcDbSavedByObjectVersion
1070
     0
  0
VISUALSTYLE
  5
2E
102
{ACAD_REACTORS
330
2A
102
}
102
{ACAD_XDICTIONARY
360
29E
102
}
330
2A
100
AcDbVisualStyle
  2
GouraudWithEdges
 70
     3
 71
     2
 72
     2
 73
     1
 90
        2
 40
-0.6
 41
30.0
 62
     5
 63
     7
 74
     1
 91
        4
 64
     7
 65
   257
 75
     1
175
     1
 42
1.0
 92
        0
 66
   257
 43
1.0
 76
     1
 77
     6
 78
     2
 67
     7
 79
     5
170
     0
171
     0
290
     0
174
     0
 93
       13
 44
0.0
173
     0
291
     1
 45
0.0
1001
ACAD
1000
AcDbSavedByObjectVersion
1070
     0
  0
VISUALSTYLE
  5
38
102
{ACAD_REACTORS
330
2A
102
}
102
{ACAD_XDICTIONARY
360
2B2
102
}
330
2A
100
AcDbVisualStyle
  2
Linepattern
 70
    14
 71
     2
 72
     2
 73
     0
 90
        0
 40
-0.6
 41
-30.0
 62
     5
 63
     7
 74
     1
 91
        4
 64
     7
 65
   257
 75
     7
175
     7
 42
1.0
 92
        8
 66
     7
 43
1.0
 76
     1
 77
     6
 78
     2
 67
     7
 79
     5
170
     0
171
     0
290
     0
174
     0
 93
        1
 44
0.0
173
     0
291
     1
 45
0.0
1001
ACAD
1000
AcDbSavedByObjectVersion
1070
     0
  0
VISUALSTYLE
  5
33
102
{ACAD_REACTORS
330
2A
102
}
102
{ACAD_XDICTIONARY
360
2A8
102
}
330
2A
100
AcDbVisualStyle
  2
Realistic
 70
     8
 71
     2
 72
     2
 73
     0
 90
        0
 40
-0.6
 41
-30.0
 62
     5
 63
     7
 74
     1
 91
        0
 64
     7
 65
   257
 75
     1
175
     1
 42
1.0
 92
        8
 66
     8
 43
1.0
 76
     1
 77
     6
 78
     2
 67
     7
 79
     5
170
     0
171
     0
290
     0
174
     0
 93
       13
 44
0.0
173
     0
291
     0
 45
0.0
1001
ACAD
1000
AcDbSavedByObjectVersion
1070
     0
  0
VISUALSTYLE
  5
37
102
{ACAD_REACTORS
330
2A
102
}
102
{ACAD_XDICTIONARY
360
2B0
102
}
330
2A
100
AcDbVisualStyle
  2
Thicken
 70
    13
 71
     2
 72
     2
 73
     0
 90
        0
 40
-0.6
 41
-30.0
 62
     5
 63
     7
 74
     1
 91
        4
 64
     7
 65
   257
 75
     1
175
     1
 42
1.0
 92
       12
 66
     7
 43
1.0
 76
     1
 77
     6
 78
     2
 67
     7
 79
     5
170
     0
171
     0
290
     0
174
     0
 93
        1
 44
0.0
173
     0
291
     1
 45
0.0
1001
ACAD
1000
AcDbSavedByObjectVersion
1070
     0
  0
DICTIONARYVAR
  5
296
102
{ACAD_REACTORS
330
293
102
}
330
293
100
DictionaryVariables
280
     0
  1
2
  0
DICTIONARYVAR
  5
297
102
{ACAD_REACTORS
330
293
102
}
330
293
100
DictionaryVariables
280
     0
  1
1
  0
DICTIONARY
  5
2BA
330
3D
100
AcDbDictionary
280
     1
281
     1
  3
ACAD_XREC_ROUNDTRIP
360
2BB
  0
DICTIONARY
  5
2B8
330
3C
100
AcDbDictionary
280
     1
281
     1
  3
ACAD_XREC_ROUNDTRIP
360
2B9
  0
DICTIONARY
  5
2BC
330
3E
100
AcDbDictionary
280
     1
281
     1
  3
ACAD_XREC_ROUNDTRIP
360
2BD
  0
DICTIONARY
  5
2A0
330
2F
100
AcDbDictionary
280
     1
281
     1
  3
ACAD_XREC_ROUNDTRIP
360
2A1
  0
DICTIONARY
  5
2A4
330
31
100
AcDbDictionary
280
     1
281
     1
  3
ACAD_XREC_ROUNDTRIP
360
2A5
  0
DICTIONARY
  5
2A2
330
30
100
AcDbDictionary
280
     1
281
     1
  3
ACAD_XREC_ROUNDTRIP
360
2A3
  0
DICTIONARY
  5
2A6
330
32
100
AcDbDictionary
280
     1
281
     1
  3
ACAD_XREC_ROUNDTRIP
360
2A7
  0
DICTIONARY
  5
2AE
330
36
100
AcDbDictionary
280
     1
281
     1
  3
ACAD_XREC_ROUNDTRIP
360
2AF
  0
DICTIONARY
  5
2B6
330
3A
100
AcDbDictionary
280
     1
281
     1
  3
ACAD_XREC_ROUNDTRIP
360
2B7
  0
DICTIONARY
  5
2AA
330
34
100
AcDbDictionary
280
     1
281
     1
  3
ACAD_XREC_ROUNDTRIP
360
2AB
  0
DICTIONARY
  5
2AC
330
35
100
AcDbDictionary
280
     1
281
     1
  3
ACAD_XREC_ROUNDTRIP
360
2AD
  0
DICTIONARY
  5
2B4
330
39
100
AcDbDictionary
280
     1
281
     1
  3
ACAD_XREC_ROUNDTRIP
360
2B5
  0
DICTIONARY
  5
298
330
2B
100
AcDbDictionary
280
     1
281
     1
  3
ACAD_XREC_ROUNDTRIP
360
299
  0
DICTIONARY
  5
29A
330
2C
100
AcDbDictionary
280
     1
281
     1
  3
ACAD_XREC_ROUNDTRIP
360
29B
  0
DICTIONARY
  5
29C
330
2D
100
AcDbDictionary
280
     1
281
     1
  3
ACAD_XREC_ROUNDTRIP
360
29D
  0
DICTIONARY
  5
29E
330
2E
100
AcDbDictionary
280
     1
281
     1
  3
ACAD_XREC_ROUNDTRIP
360
29F
  0
DICTIONARY
  5
2B2
330
38
100
AcDbDictionary
280
     1
281
     1
  3
ACAD_XREC_ROUNDTRIP
360
2B3
  0
DICTIONARY
  5
2A8
330
33
100
AcDbDictionary
280
     1
281
     1
  3
ACAD_XREC_ROUNDTRIP
360
2A9
  0
DICTIONARY
  5
2B0
330
37
100
AcDbDictionary
280
     1
281
     1
  3
ACAD_XREC_ROUNDTRIP
360
2B1
  0
XRECORD
  5
2BB
102
{ACAD_REACTORS
330
2BA
102
}
330
2BA
100
AcDbXrecord
280
     1
102
MATERIAL
148
0.0
149
0.0
149
0.0
 93
        0
 94
      127
282
     0
 72
     1
 77
     1
171
     1
175
     1
179
     1
273
     0
  0
XRECORD
  5
2B9
102
{ACAD_REACTORS
330
2B8
102
}
330
2B8
100
AcDbXrecord
280
     1
102
MATERIAL
148
0.0
149
0.0
149
0.0
 93
        0
 94
      127
282
     0
 72
     1
 77
     1
171
     1
175
     1
179
     1
273
     0
  0
XRECORD
  5
2BD
102
{ACAD_REACTORS
330
2BC
102
}
330
2BC
100
AcDbXrecord
280
     1
102
MATERIAL
148
0.0
149
0.0
149
0.0
 93
        0
 94
      127
282
     0
 72
     1
 77
     1
171
     1
175
     1
179
     1
273
     0
  0
XRECORD
  5
2A1
102
{ACAD_REACTORS
330
2A0
102
}
330
2A0
100
AcDbXrecord
280
     1
102
RTVSPropertyOp0
 70
     1
102
RTVSPropertyOp1
 70
     1
102
RTVSPropertyOp2
 70
     1
102
RTVSPropertyOp3
 70
     1
102
RTVSPropertyOp4
 70
     1
102
RTVSPropertyOp5
 70
     1
102
RTVSPropertyOp6
 70
     1
102
RTVSPropertyOp7
 70
     1
102
RTVSPropertyOp8
 70
     1
102
RTVSPropertyOp9
 70
     1
102
RTVSPropertyOp10
 70
     1
102
RTVSPropertyOp11
 70
     1
102
RTVSPropertyOp12
 70
     1
102
RTVSPropertyOp13
 70
     1
102
RTVSPropertyOp14
 70
     1
102
RTVSPropertyOp15
 70
     1
102
RTVSPropertyOp16
 70
     1
102
RTVSPropertyOp17
 70
     1
102
RTVSPropertyOp18
 70
     1
102
RTVSPropertyOp19
 70
     1
102
RTVSPropertyOp20
 70
     1
102
RTVSPropertyOp21
 70
     1
102
RTVSPropertyOp22
 70
     1
102
RTVSPropertyOp23
 70
     1
102
RTVSPropertyOp24
 70
     1
102
RTVSPropertyOp25
 70
     1
102
RTVSPropertyOp26
 70
     1
102
RTVSPropertyOp27
 70
     1
102
RTVSPropertyOp28
 70
     1
102
RTVSPropertyOp29
 70
     1
102
RTVSPropertyOp30
 70
     1
102
RTVSPropertyOp31
 70
     1
102
RTVSPropertyOp32
 70
     1
  0
XRECORD
  5
2A5
102
{ACAD_REACTORS
330
2A4
102
}
330
2A4
100
AcDbXrecord
280
     1
102
RTVSPropertyOp0
 70
     1
102
RTVSPropertyOp1
 70
     1
102
RTVSPropertyOp2
 70
     1
102
RTVSPropertyOp3
 70
     1
102
RTVSPropertyOp4
 70
     1
102
RTVSPropertyOp5
 70
     1
102
RTVSPropertyOp6
 70
     1
102
RTVSPropertyOp7
 70
     1
102
RTVSPropertyOp8
 70
     1
102
RTVSPropertyOp9
 70
     1
102
RTVSPropertyOp10
 70
     1
102
RTVSPropertyOp11
 70
     1
102
RTVSPropertyOp12
 70
     1
102
RTVSPropertyOp13
 70
     1
102
RTVSPropertyOp14
 70
     1
102
RTVSPropertyOp15
 70
     1
102
RTVSPropertyOp16
 70
     1
102
RTVSPropertyOp17
 70
     1
102
RTVSPropertyOp18
 70
     1
102
RTVSPropertyOp19
 70
     1
102
RTVSPropertyOp20
 70
     1
102
RTVSPropertyOp21
 70
     1
102
RTVSPropertyOp22
 70
     1
102
RTVSPropertyOp23
 70
     1
102
RTVSPropertyOp24
 70
     1
102
RTVSPropertyOp25
 70
     1
102
RTVSPropertyOp26
 70
     1
102
RTVSPropertyOp27
 70
     1
102
RTVSPropertyOp28
 70
     1
102
RTVSPropertyOp29
 70
     1
102
RTVSPropertyOp30
 70
     1
102
RTVSPropertyOp31
 70
     1
102
RTVSPropertyOp32
 70
     1
  0
XRECORD
  5
2A3
102
{ACAD_REACTORS
330
2A2
102
}
330
2A2
100
AcDbXrecord
280
     1
102
RTVSPropertyOp0
 70
     1
102
RTVSPropertyOp1
 70
     1
102
RTVSPropertyOp2
 70
     1
102
RTVSPropertyOp3
 70
     1
102
RTVSPropertyOp4
 70
     1
102
RTVSPropertyOp5
 70
     1
102
RTVSPropertyOp6
 70
     1
102
RTVSPropertyOp7
 70
     1
102
RTVSPropertyOp8
 70
     1
102
RTVSPropertyOp9
 70
     1
102
RTVSPropertyOp10
 70
     1
102
RTVSPropertyOp11
 70
     1
102
RTVSPropertyOp12
 70
     1
102
RTVSPropertyOp13
 70
     1
102
RTVSPropertyOp14
 70
     1
102
RTVSPropertyOp15
 70
     1
102
RTVSPropertyOp16
 70
     1
102
RTVSPropertyOp17
 70
     1
102
RTVSPropertyOp18
 70
     1
102
RTVSPropertyOp19
 70
     1
102
RTVSPropertyOp20
 70
     1
102
RTVSPropertyOp21
 70
     1
102
RTVSPropertyOp22
 70
     1
102
RTVSPropertyOp23
 70
     1
102
RTVSPropertyOp24
 70
     1
102
RTVSPropertyOp25
 70
     1
102
RTVSPropertyOp26
 70
     1
102
RTVSPropertyOp27
 70
     1
102
RTVSPropertyOp28
 70
     1
102
RTVSPropertyOp29
 70
     1
102
RTVSPropertyOp30
 70
     1
102
RTVSPropertyOp31
 70
     1
102
RTVSPropertyOp32
 70
     1
  0
XRECORD
  5
2A7
102
{ACAD_REACTORS
330
2A6
102
}
330
2A6
100
AcDbXrecord
280
     1
102
RTVSPropertyOp0
 70
     1
102
RTVSPropertyOp1
 70
     1
102
RTVSPropertyOp2
 70
     1
102
RTVSPropertyOp3
 70
     1
102
RTVSPropertyOp4
 70
     1
102
RTVSPropertyOp5
 70
     1
102
RTVSPropertyOp6
 70
     1
102
RTVSPropertyOp7
 70
     1
102
RTVSPropertyOp8
 70
     1
102
RTVSPropertyOp9
 70
     1
102
RTVSPropertyOp10
 70
     1
102
RTVSPropertyOp11
 70
     1
102
RTVSPropertyOp12
 70
     1
102
RTVSPropertyOp13
 70
     1
102
RTVSPropertyOp14
 70
     1
102
RTVSPropertyOp15
 70
     1
102
RTVSPropertyOp16
 70
     1
102
RTVSPropertyOp17
 70
     1
102
RTVSPropertyOp18
 70
     1
102
RTVSPropertyOp19
 70
     1
102
RTVSPropertyOp20
 70
     1
102
RTVSPropertyOp21
 70
     1
102
RTVSPropertyOp22
 70
     1
102
RTVSPropertyOp23
 70
     1
102
RTVSPropertyOp24
 70
     1
102
RTVSPropertyOp25
 70
     1
102
RTVSPropertyOp26
 70
     1
102
RTVSPropertyOp27
 70
     1
102
RTVSPropertyOp28
 70
     1
102
RTVSPropertyOp29
 70
     1
102
RTVSPropertyOp30
 70
     1
102
RTVSPropertyOp31
 70
     1
102
RTVSPropertyOp32
 70
     1
  0
XRECORD
  5
2AF
102
{ACAD_REACTORS
330
2AE
102
}
330
2AE
100
AcDbXrecord
280
     1
102
RTVSPropertyOp0
 70
     1
102
RTVSPropertyOp1
 70
     1
102
RTVSPropertyOp2
 70
     1
102
RTVSPropertyOp3
 70
     1
102
RTVSPropertyOp4
 70
     1
102
RTVSPropertyOp5
 70
     1
102
RTVSPropertyOp6
 70
     1
102
RTVSPropertyOp7
 70
     1
102
RTVSPropertyOp8
 70
     1
102
RTVSPropertyOp9
 70
     1
102
RTVSPropertyOp10
 70
     1
102
RTVSPropertyOp11
 70
     1
102
RTVSPropertyOp12
 70
     1
102
RTVSPropertyOp13
 70
     1
102
RTVSPropertyOp14
 70
     1
102
RTVSPropertyOp15
 70
     1
102
RTVSPropertyOp16
 70
     1
102
RTVSPropertyOp17
 70
     1
102
RTVSPropertyOp18
 70
     1
102
RTVSPropertyOp19
 70
     1
102
RTVSPropertyOp20
 70
     1
102
RTVSPropertyOp21
 70
     1
102
RTVSPropertyOp22
 70
     1
102
RTVSPropertyOp23
 70
     1
102
RTVSPropertyOp24
 70
     1
102
RTVSPropertyOp25
 70
     1
102
RTVSPropertyOp26
 70
     1
102
RTVSPropertyOp27
 70
     1
102
RTVSPropertyOp28
 70
     1
102
RTVSPropertyOp29
 70
     1
102
RTVSPropertyOp30
 70
     1
102
RTVSPropertyOp31
 70
     1
102
RTVSPropertyOp32
 70
     1
  0
XRECORD
  5
2B7
102
{ACAD_REACTORS
330
2B6
102
}
330
2B6
100
AcDbXrecord
280
     1
102
RTVSPropertyOp0
 70
     1
102
RTVSPropertyOp1
 70
     1
102
RTVSPropertyOp2
 70
     1
102
RTVSPropertyOp3
 70
     1
102
RTVSPropertyOp4
 70
     1
102
RTVSPropertyOp5
 70
     1
102
RTVSPropertyOp6
 70
     1
102
RTVSPropertyOp7
 70
     1
102
RTVSPropertyOp8
 70
     1
102
RTVSPropertyOp9
 70
     1
102
RTVSPropertyOp10
 70
     1
102
RTVSPropertyOp11
 70
     1
102
RTVSPropertyOp12
 70
     1
102
RTVSPropertyOp13
 70
     1
102
RTVSPropertyOp14
 70
     1
102
RTVSPropertyOp15
 70
     1
102
RTVSPropertyOp16
 70
     1
102
RTVSPropertyOp17
 70
     1
102
RTVSPropertyOp18
 70
     1
102
RTVSPropertyOp19
 70
     1
102
RTVSPropertyOp20
 70
     1
102
RTVSPropertyOp21
 70
     1
102
RTVSPropertyOp22
 70
     1
102
RTVSPropertyOp23
 70
     1
102
RTVSPropertyOp24
 70
     1
102
RTVSPropertyOp25
 70
     1
102
RTVSPropertyOp26
 70
     1
102
RTVSPropertyOp27
 70
     1
102
RTVSPropertyOp28
 70
     1
102
RTVSPropertyOp29
 70
     1
102
RTVSPropertyOp30
 70
     1
102
RTVSPropertyOp31
 70
     1
102
RTVSPropertyOp32
 70
     1
  0
XRECORD
  5
2AB
102
{ACAD_REACTORS
330
2AA
102
}
330
2AA
100
AcDbXrecord
280
     1
102
RTVSPropertyOp0
 70
     1
102
RTVSPropertyOp1
 70
     1
102
RTVSPropertyOp2
 70
     1
102
RTVSPropertyOp3
 70
     1
102
RTVSPropertyOp4
 70
     1
102
RTVSPropertyOp5
 70
     1
102
RTVSPropertyOp6
 70
     1
102
RTVSPropertyOp7
 70
     1
102
RTVSPropertyOp8
 70
     1
102
RTVSPropertyOp9
 70
     1
102
RTVSPropertyOp10
 70
     1
102
RTVSPropertyOp11
 70
     1
102
RTVSPropertyOp12
 70
     1
102
RTVSPropertyOp13
 70
     1
102
RTVSPropertyOp14
 70
     1
102
RTVSPropertyOp15
 70
     1
102
RTVSPropertyOp16
 70
     1
102
RTVSPropertyOp17
 70
     1
102
RTVSPropertyOp18
 70
     1
102
RTVSPropertyOp19
 70
     1
102
RTVSPropertyOp20
 70
     1
102
RTVSPropertyOp21
 70
     1
102
RTVSPropertyOp22
 70
     1
102
RTVSPropertyOp23
 70
     1
102
RTVSPropertyOp24
 70
     1
102
RTVSPropertyOp25
 70
     1
102
RTVSPropertyOp26
 70
     1
102
RTVSPropertyOp27
 70
     1
102
RTVSPropertyOp28
 70
     1
102
RTVSPropertyOp29
 70
     1
102
RTVSPropertyOp30
 70
     1
102
RTVSPropertyOp31
 70
     1
102
RTVSPropertyOp32
 70
     1
  0
XRECORD
  5
2AD
102
{ACAD_REACTORS
330
2AC
102
}
330
2AC
100
AcDbXrecord
280
     1
102
RTVSPropertyOp0
 70
     1
102
RTVSPropertyOp1
 70
     1
102
RTVSPropertyOp2
 70
     1
102
RTVSPropertyOp3
 70
     1
102
RTVSPropertyOp4
 70
     1
102
RTVSPropertyOp5
 70
     1
102
RTVSPropertyOp6
 70
     1
102
RTVSPropertyOp7
 70
     1
102
RTVSPropertyOp8
 70
     1
102
RTVSPropertyOp9
 70
     1
102
RTVSPropertyOp10
 70
     1
102
RTVSPropertyOp11
 70
     1
102
RTVSPropertyOp12
 70
     1
102
RTVSPropertyOp13
 70
     1
102
RTVSPropertyOp14
 70
     1
102
RTVSPropertyOp15
 70
     1
102
RTVSPropertyOp16
 70
     1
102
RTVSPropertyOp17
 70
     1
102
RTVSPropertyOp18
 70
     1
102
RTVSPropertyOp19
 70
     1
102
RTVSPropertyOp20
 70
     1
102
RTVSPropertyOp21
 70
     1
102
RTVSPropertyOp22
 70
     1
102
RTVSPropertyOp23
 70
     1
102
RTVSPropertyOp24
 70
     1
102
RTVSPropertyOp25
 70
     1
102
RTVSPropertyOp26
 70
     1
102
RTVSPropertyOp27
 70
     1
102
RTVSPropertyOp28
 70
     1
102
RTVSPropertyOp29
 70
     1
102
RTVSPropertyOp30
 70
     1
102
RTVSPropertyOp31
 70
     1
102
RTVSPropertyOp32
 70
     1
  0
XRECORD
  5
2B5
102
{ACAD_REACTORS
330
2B4
102
}
330
2B4
100
AcDbXrecord
280
     1
102
RTVSPropertyOp0
 70
     1
102
RTVSPropertyOp1
 70
     1
102
RTVSPropertyOp2
 70
     1
102
RTVSPropertyOp3
 70
     1
102
RTVSPropertyOp4
 70
     1
102
RTVSPropertyOp5
 70
     1
102
RTVSPropertyOp6
 70
     1
102
RTVSPropertyOp7
 70
     1
102
RTVSPropertyOp8
 70
     1
102
RTVSPropertyOp9
 70
     1
102
RTVSPropertyOp10
 70
     1
102
RTVSPropertyOp11
 70
     1
102
RTVSPropertyOp12
 70
     1
102
RTVSPropertyOp13
 70
     1
102
RTVSPropertyOp14
 70
     1
102
RTVSPropertyOp15
 70
     1
102
RTVSPropertyOp16
 70
     1
102
RTVSPropertyOp17
 70
     1
102
RTVSPropertyOp18
 70
     1
102
RTVSPropertyOp19
 70
     1
102
RTVSPropertyOp20
 70
     1
102
RTVSPropertyOp21
 70
     1
102
RTVSPropertyOp22
 70
     1
102
RTVSPropertyOp23
 70
     1
102
RTVSPropertyOp24
 70
     1
102
RTVSPropertyOp25
 70
     1
102
RTVSPropertyOp26
 70
     1
102
RTVSPropertyOp27
 70
     1
102
RTVSPropertyOp28
 70
     1
102
RTVSPropertyOp29
 70
     1
102
RTVSPropertyOp30
 70
     1
102
RTVSPropertyOp31
 70
     1
102
RTVSPropertyOp32
 70
     1
  0
XRECORD
  5
299
102
{ACAD_REACTORS
330
298
102
}
330
298
100
AcDbXrecord
280
     1
102
RTVSPropertyOp0
 70
     1
102
RTVSPropertyOp1
 70
     1
102
RTVSPropertyOp2
 70
     1
102
RTVSPropertyOp3
 70
     1
102
RTVSPropertyOp4
 70
     1
102
RTVSPropertyOp5
 70
     1
102
RTVSPropertyOp6
 70
     1
102
RTVSPropertyOp7
 70
     1
102
RTVSPropertyOp8
 70
     1
102
RTVSPropertyOp9
 70
     1
102
RTVSPropertyOp10
 70
     1
102
RTVSPropertyOp11
 70
     1
102
RTVSPropertyOp12
 70
     1
102
RTVSPropertyOp13
 70
     1
102
RTVSPropertyOp14
 70
     1
102
RTVSPropertyOp15
 70
     1
102
RTVSPropertyOp16
 70
     1
102
RTVSPropertyOp17
 70
     1
102
RTVSPropertyOp18
 70
     1
102
RTVSPropertyOp19
 70
     1
102
RTVSPropertyOp20
 70
     1
102
RTVSPropertyOp21
 70
     1
102
RTVSPropertyOp22
 70
     1
102
RTVSPropertyOp23
 70
     1
102
RTVSPropertyOp24
 70
     1
102
RTVSPropertyOp25
 70
     1
102
RTVSPropertyOp26
 70
     1
102
RTVSPropertyOp27
 70
     1
102
RTVSPropertyOp28
 70
     1
102
RTVSPropertyOp29
 70
     1
102
RTVSPropertyOp30
 70
     1
102
RTVSPropertyOp31
 70
     1
102
RTVSPropertyOp32
 70
     1
  0
XRECORD
  5
29B
102
{ACAD_REACTORS
330
29A
102
}
330
29A
100
AcDbXrecord
280
     1
102
RTVSPropertyOp0
 70
     1
102
RTVSPropertyOp1
 70
     1
102
RTVSPropertyOp2
 70
     1
102
RTVSPropertyOp3
 70
     1
102
RTVSPropertyOp4
 70
     1
102
RTVSPropertyOp5
 70
     1
102
RTVSPropertyOp6
 70
     1
102
RTVSPropertyOp7
 70
     1
102
RTVSPropertyOp8
 70
     1
102
RTVSPropertyOp9
 70
     1
102
RTVSPropertyOp10
 70
     1
102
RTVSPropertyOp11
 70
     1
102
RTVSPropertyOp12
 70
     1
102
RTVSPropertyOp13
 70
     1
102
RTVSPropertyOp14
 70
     1
102
RTVSPropertyOp15
 70
     1
102
RTVSPropertyOp16
 70
     1
102
RTVSPropertyOp17
 70
     1
102
RTVSPropertyOp18
 70
     1
102
RTVSPropertyOp19
 70
     1
102
RTVSPropertyOp20
 70
     1
102
RTVSPropertyOp21
 70
     1
102
RTVSPropertyOp22
 70
     1
102
RTVSPropertyOp23
 70
     1
102
RTVSPropertyOp24
 70
     1
102
RTVSPropertyOp25
 70
     1
102
RTVSPropertyOp26
 70
     1
102
RTVSPropertyOp27
 70
     1
102
RTVSPropertyOp28
 70
     1
102
RTVSPropertyOp29
 70
     1
102
RTVSPropertyOp30
 70
     1
102
RTVSPropertyOp31
 70
     1
102
RTVSPropertyOp32
 70
     1
  0
XRECORD
  5
29D
102
{ACAD_REACTORS
330
29C
102
}
330
29C
100
AcDbXrecord
280
     1
102
RTVSPropertyOp0
 70
     1
102
RTVSPropertyOp1
 70
     1
102
RTVSPropertyOp2
 70
     1
102
RTVSPropertyOp3
 70
     1
102
RTVSPropertyOp4
 70
     1
102
RTVSPropertyOp5
 70
     1
102
RTVSPropertyOp6
 70
     1
102
RTVSPropertyOp7
 70
     1
102
RTVSPropertyOp8
 70
     1
102
RTVSPropertyOp9
 70
     1
102
RTVSPropertyOp10
 70
     1
102
RTVSPropertyOp11
 70
     1
102
RTVSPropertyOp12
 70
     1
102
RTVSPropertyOp13
 70
     1
102
RTVSPropertyOp14
 70
     1
102
RTVSPropertyOp15
 70
     1
102
RTVSPropertyOp16
 70
     1
102
RTVSPropertyOp17
 70
     1
102
RTVSPropertyOp18
 70
     1
102
RTVSPropertyOp19
 70
     1
102
RTVSPropertyOp20
 70
     1
102
RTVSPropertyOp21
 70
     1
102
RTVSPropertyOp22
 70
     1
102
RTVSPropertyOp23
 70
     1
102
RTVSPropertyOp24
 70
     1
102
RTVSPropertyOp25
 70
     1
102
RTVSPropertyOp26
 70
     1
102
RTVSPropertyOp27
 70
     1
102
RTVSPropertyOp28
 70
     1
102
RTVSPropertyOp29
 70
     1
102
RTVSPropertyOp30
 70
     1
102
RTVSPropertyOp31
 70
     1
102
RTVSPropertyOp32
 70
     1
  0
XRECORD
  5
29F
102
{ACAD_REACTORS
330
29E
102
}
330
29E
100
AcDbXrecord
280
     1
102
RTVSPropertyOp0
 70
     1
102
RTVSPropertyOp1
 70
     1
102
RTVSPropertyOp2
 70
     1
102
RTVSPropertyOp3
 70
     1
102
RTVSPropertyOp4
 70
     1
102
RTVSPropertyOp5
 70
     1
102
RTVSPropertyOp6
 70
     1
102
RTVSPropertyOp7
 70
     1
102
RTVSPropertyOp8
 70
     1
102
RTVSPropertyOp9
 70
     1
102
RTVSPropertyOp10
 70
     1
102
RTVSPropertyOp11
 70
     1
102
RTVSPropertyOp12
 70
     1
102
RTVSPropertyOp13
 70
     1
102
RTVSPropertyOp14
 70
     1
102
RTVSPropertyOp15
 70
     1
102
RTVSPropertyOp16
 70
     1
102
RTVSPropertyOp17
 70
     1
102
RTVSPropertyOp18
 70
     1
102
RTVSPropertyOp19
 70
     1
102
RTVSPropertyOp20
 70
     1
102
RTVSPropertyOp21
 70
     1
102
RTVSPropertyOp22
 70
     1
102
RTVSPropertyOp23
 70
     1
102
RTVSPropertyOp24
 70
     1
102
RTVSPropertyOp25
 70
     1
102
RTVSPropertyOp26
 70
     1
102
RTVSPropertyOp27
 70
     1
102
RTVSPropertyOp28
 70
     1
102
RTVSPropertyOp29
 70
     1
102
RTVSPropertyOp30
 70
     1
102
RTVSPropertyOp31
 70
     1
102
RTVSPropertyOp32
 70
     1
  0
XRECORD
  5
2B3
102
{ACAD_REACTORS
330
2B2
102
}
330
2B2
100
AcDbXrecord
280
     1
102
RTVSPropertyOp0
 70
     1
102
RTVSPropertyOp1
 70
     1
102
RTVSPropertyOp2
 70
     1
102
RTVSPropertyOp3
 70
     1
102
RTVSPropertyOp4
 70
     1
102
RTVSPropertyOp5
 70
     1
102
RTVSPropertyOp6
 70
     1
102
RTVSPropertyOp7
 70
     1
102
RTVSPropertyOp8
 70
     1
102
RTVSPropertyOp9
 70
     1
102
RTVSPropertyOp10
 70
     1
102
RTVSPropertyOp11
 70
     1
102
RTVSPropertyOp12
 70
     1
102
RTVSPropertyOp13
 70
     1
102
RTVSPropertyOp14
 70
     1
102
RTVSPropertyOp15
 70
     1
102
RTVSPropertyOp16
 70
     1
102
RTVSPropertyOp17
 70
     1
102
RTVSPropertyOp18
 70
     1
102
RTVSPropertyOp19
 70
     1
102
RTVSPropertyOp20
 70
     1
102
RTVSPropertyOp21
 70
     1
102
RTVSPropertyOp22
 70
     1
102
RTVSPropertyOp23
 70
     1
102
RTVSPropertyOp24
 70
     1
102
RTVSPropertyOp25
 70
     1
102
RTVSPropertyOp26
 70
     1
102
RTVSPropertyOp27
 70
     1
102
RTVSPropertyOp28
 70
     1
102
RTVSPropertyOp29
 70
     1
102
RTVSPropertyOp30
 70
     1
102
RTVSPropertyOp31
 70
     1
102
RTVSPropertyOp32
 70
     1
  0
XRECORD
  5
2A9
102
{ACAD_REACTORS
330
2A8
102
}
330
2A8
100
AcDbXrecord
280
     1
102
RTVSPropertyOp0
 70
     1
102
RTVSPropertyOp1
 70
     1
102
RTVSPropertyOp2
 70
     1
102
RTVSPropertyOp3
 70
     1
102
RTVSPropertyOp4
 70
     1
102
RTVSPropertyOp5
 70
     1
102
RTVSPropertyOp6
 70
     1
102
RTVSPropertyOp7
 70
     1
102
RTVSPropertyOp8
 70
     1
102
RTVSPropertyOp9
 70
     1
102
RTVSPropertyOp10
 70
     1
102
RTVSPropertyOp11
 70
     1
102
RTVSPropertyOp12
 70
     1
102
RTVSPropertyOp13
 70
     1
102
RTVSPropertyOp14
 70
     1
102
RTVSPropertyOp15
 70
     1
102
RTVSPropertyOp16
 70
     1
102
RTVSPropertyOp17
 70
     1
102
RTVSPropertyOp18
 70
     1
102
RTVSPropertyOp19
 70
     1
102
RTVSPropertyOp20
 70
     1
102
RTVSPropertyOp21
 70
     1
102
RTVSPropertyOp22
 70
     1
102
RTVSPropertyOp23
 70
     1
102
RTVSPropertyOp24
 70
     1
102
RTVSPropertyOp25
 70
     1
102
RTVSPropertyOp26
 70
     1
102
RTVSPropertyOp27
 70
     1
102
RTVSPropertyOp28
 70
     1
102
RTVSPropertyOp29
 70
     1
102
RTVSPropertyOp30
 70
     1
102
RTVSPropertyOp31
 70
     1
102
RTVSPropertyOp32
 70
     1
  0
XRECORD
  5
2B1
102
{ACAD_REACTORS
330
2B0
102
}
330
2B0
100
AcDbXrecord
280
     1
102
RTVSPropertyOp0
 70
     1
102
RTVSPropertyOp1
 70
     1
102
RTVSPropertyOp2
 70
     1
102
RTVSPropertyOp3
 70
     1
102
RTVSPropertyOp4
 70
     1
102
RTVSPropertyOp5
 70
     1
102
RTVSPropertyOp6
 70
     1
102
RTVSPropertyOp7
 70
     1
102
RTVSPropertyOp8
 70
     1
102
RTVSPropertyOp9
 70
     1
102
RTVSPropertyOp10
 70
     1
102
RTVSPropertyOp11
 70
     1
102
RTVSPropertyOp12
 70
     1
102
RTVSPropertyOp13
 70
     1
102
RTVSPropertyOp14
 70
     1
102
RTVSPropertyOp15
 70
     1
102
RTVSPropertyOp16
 70
     1
102
RTVSPropertyOp17
 70
     1
102
RTVSPropertyOp18
 70
     1
102
RTVSPropertyOp19
 70
     1
102
RTVSPropertyOp20
 70
     1
102
RTVSPropertyOp21
 70
     1
102
RTVSPropertyOp22
 70
     1
102
RTVSPropertyOp23
 70
     1
102
RTVSPropertyOp24
 70
     1
102
RTVSPropertyOp25
 70
     1
102
RTVSPropertyOp26
 70
     1
102
RTVSPropertyOp27
 70
     1
102
RTVSPropertyOp28
 70
     1
102
RTVSPropertyOp29
 70
     1
102
RTVSPropertyOp30
 70
     1
102
RTVSPropertyOp31
 70
     1
102
RTVSPropertyOp32
 70
     1
  0
ENDSEC
  0
EOF
