  0
SECTION
  2
HEADER
  9
$ACADVER
  1
AC1015
  9
$ACADMAINTVER
 70
     6
  9
$DWGCODEPAGE
  3
DOS932
  9
$INSBASE
 10
0.0
 20
0.0
 30
0.0
  9
$EXTMIN
 10
0.0
 20
0.0
 30
0.0
  9
$EXTMAX
 10
420.0
 20
594.0
 30
0.0
  9
$LIMMIN
 10
0.0
 20
0.0
  9
$LIMMAX
 10
12.0
 20
9.0
  9
$ORTHOMODE
 70
     0
  9
$REGENMODE
 70
     1
  9
$FILLMODE
 70
     1
  9
$QTEXTMODE
 70
     0
  9
$MIRRTEXT
 70
     1
  9
$LTSCALE
 40
1.0
  9
$ATTMODE
 70
     1
  9
$TEXTSIZE
 40
0.2
  9
$TRACEWID
 40
0.05
  9
$TEXTSTYLE
  7
Standard
  9
$CLAYER
  8
0
  9
$CELTYPE
  6
ByLayer
  9
$CECOLOR
 62
   256
  9
$CELTSCALE
 40
1.0
  9
$DISPSILH
 70
     0
  9
$DIMSCALE
 40
1.0
  9
$DIMASZ
 40
0.18
  9
$DIMEXO
 40
0.0625
  9
$DIMDLI
 40
0.38
  9
$DIMRND
 40
0.0
  9
$DIMDLE
 40
0.0
  9
$DIMEXE
 40
0.18
  9
$DIMTP
 40
0.0
  9
$DIMTM
 40
0.0
  9
$DIMTXT
 40
0.18
  9
$DIMCEN
 40
0.09
  9
$DIMTSZ
 40
0.0
  9
$DIMTOL
 70
     0
  9
$DIMLIM
 70
     0
  9
$DIMTIH
 70
     1
  9
$DIMTOH
 70
     1
  9
$DIMSE1
 70
     0
  9
$DIMSE2
 70
     0
  9
$DIMTAD
 70
     0
  9
$DIMZIN
 70
     0
  9
$DIMBLK
  1

  9
$DIMASO
 70
     1
  9
$DIMSHO
 70
     1
  9
$DIMPOST
  1

  9
$DIMAPOST
  1

  9
$DIMALT
 70
     0
  9
$DIMALTD
 70
     2
  9
$DIMALTF
 40
25.4
  9
$DIMLFAC
 40
1.0
  9
$DIMTOFL
 70
     0
  9
$DIMTVP
 40
0.0
  9
$DIMTIX
 70
     0
  9
$DIMSOXD
 70
     0
  9
$DIMSAH
 70
     0
  9
$DIMBLK1
  1

  9
$DIMBLK2
  1

  9
$DIMSTYLE
  2
Standard
  9
$DIMCLRD
 70
     0
  9
$DIMCLRE
 70
     0
  9
$DIMCLRT
 70
     0
  9
$DIMTFAC
 40
1.0
  9
$DIMGAP
 40
0.09
  9
$DIMJUST
 70
     0
  9
$DIMSD1
 70
     0
  9
$DIMSD2
 70
     0
  9
$DIMTOLJ
 70
     1
  9
$DIMTZIN
 70
     0
  9
$DIMALTZ
 70
     0
  9
$DIMALTTZ
 70
     0
  9
$DIMUPT
 70
     0
  9
$DIMDEC
 70
     4
  9
$DIMTDEC
 70
     4
  9
$DIMALTU
 70
     2
  9
$DIMALTTD
 70
     2
  9
$DIMTXSTY
  7
Standard
  9
$DIMAUNIT
 70
     0
  9
$DIMADEC
 70
     0
  9
$DIMALTRND
 40
0.0
  9
$DIMAZIN
 70
     0
  9
$DIMDSEP
 70
    46
  9
$DIMATFIT
 70
     3
  9
$DIMFRAC
 70
     0
  9
$DIMLDRBLK
  1

  9
$DIMLUNIT
 70
     2
  9
$DIMLWD
 70
    -2
  9
$DIMLWE
 70
    -2
  9
$DIMTMOVE
 70
     0
  9
$LUNITS
 70
     2
  9
$LUPREC
 70
     4
  9
$SKETCHINC
 40
0.1
  9
$FILLETRAD
 40
0.5
  9
$AUNITS
 70
     0
  9
$AUPREC
 70
     0
  9
$MENU
  1
.
  9
$ELEVATION
 40
0.0
  9
$PELEVATION
 40
0.0
  9
$THICKNESS
 40
0.0
  9
$LIMCHECK
 70
     0
  9
$CHAMFERA
 40
0.5
  9
$CHAMFERB
 40
0.5
  9
$CHAMFERC
 40
1.0
  9
$CHAMFERD
 40
0.0
  9
$SKPOLY
 70
     0
  9
$TDCREATE
 40
2456142.579264132
  9
$TDUCREATE
 40
2456142.204264132
  9
$TDUPDATE
 40
2456142.579264144
  9
$TDUUPDATE
 40
2456142.204264144
  9
$TDINDWG
 40
0.0000000116
  9
$TDUSRTIMER
 40
0.0000000116
  9
$USRTIMER
 70
     1
  9
$ANGBASE
 50
0.0
  9
$ANGDIR
 70
     0
  9
$PDMODE
 70
     0
  9
$PDSIZE
 40
0.0
  9
$PLINEWID
 40
0.0
  9
$SPLFRAME
 70
     0
  9
$SPLINETYPE
 70
     6
  9
$SPLINESEGS
 70
     8
  9
$HANDSEED
  5
1DE
  9
$SURFTAB1
 70
     6
  9
$SURFTAB2
 70
     6
  9
$SURFTYPE
 70
     6
  9
$SURFU
 70
     6
  9
$SURFV
 70
     6
  9
$UCSBASE
  2

  9
$UCSNAME
  2

  9
$UCSORG
 10
0.0
 20
0.0
 30
0.0
  9
$UCSXDIR
 10
1.0
 20
0.0
 30
0.0
  9
$UCSYDIR
 10
0.0
 20
1.0
 30
0.0
  9
$UCSORTHOREF
  2

  9
$UCSORTHOVIEW
 70
     0
  9
$UCSORGTOP
 10
0.0
 20
0.0
 30
0.0
  9
$UCSORGBOTTOM
 10
0.0
 20
0.0
 30
0.0
  9
$UCSORGLEFT
 10
0.0
 20
0.0
 30
0.0
  9
$UCSORGRIGHT
 10
0.0
 20
0.0
 30
0.0
  9
$UCSORGFRONT
 10
0.0
 20
0.0
 30
0.0
  9
$UCSORGBACK
 10
0.0
 20
0.0
 30
0.0
  9
$PUCSBASE
  2

  9
$PUCSNAME
  2

  9
$PUCSORG
 10
0.0
 20
0.0
 30
0.0
  9
$PUCSXDIR
 10
1.0
 20
0.0
 30
0.0
  9
$PUCSYDIR
 10
0.0
 20
1.0
 30
0.0
  9
$PUCSORTHOREF
  2

  9
$PUCSORTHOVIEW
 70
     0
  9
$PUCSORGTOP
 10
0.0
 20
0.0
 30
0.0
  9
$PUCSORGBOTTOM
 10
0.0
 20
0.0
 30
0.0
  9
$PUCSORGLEFT
 10
0.0
 20
0.0
 30
0.0
  9
$PUCSORGRIGHT
 10
0.0
 20
0.0
 30
0.0
  9
$PUCSORGFRONT
 10
0.0
 20
0.0
 30
0.0
  9
$PUCSORGBACK
 10
0.0
 20
0.0
 30
0.0
  9
$USERI1
 70
     0
  9
$USERI2
 70
     0
  9
$USERI3
 70
     0
  9
$USERI4
 70
     0
  9
$USERI5
 70
     0
  9
$USERR1
 40
13.2
  9
$USERR2
 40
0.0
  9
$USERR3
 40
0.0
  9
$USERR4
 40
0.0
  9
$USERR5
 40
0.0
  9
$WORLDVIEW
 70
     1
  9
$SHADEDGE
 70
     3
  9
$SHADEDIF
 70
    70
  9
$TILEMODE
 70
     1
  9
$MAXACTVP
 70
    64
  9
$PINSBASE
 10
0.0
 20
0.0
 30
0.0
  9
$PLIMCHECK
 70
     0
  9
$PEXTMIN
 10
1.00000000000000E+20
 20
1.00000000000000E+20
 30
1.00000000000000E+20
  9
$PEXTMAX
 10
-1.00000000000000E+20
 20
-1.00000000000000E+20
 30
-1.00000000000000E+20
  9
$PLIMMIN
 10
0.0
 20
0.0
  9
$PLIMMAX
 10
12.0
 20
9.0
  9
$UNITMODE
 70
     0
  9
$VISRETAIN
 70
     1
  9
$PLINEGEN
 70
     0
  9
$PSLTSCALE
 70
     1
  9
$TREEDEPTH
 70
  3020
  9
$CMLSTYLE
  2
Standard
  9
$CMLJUST
 70
     0
  9
$CMLSCALE
 40
1.0
  9
$PROXYGRAPHICS
 70
     1
  9
$MEASUREMENT
 70
     1
  9
$CELWEIGHT
370
    -1
  9
$ENDCAPS
280
     0
  9
$JOINSTYLE
280
     0
  9
$LWDISPLAY
290
     0
  9
$INSUNITS
 70
     1
  9
$HYPERLINKBASE
  1

  9
$STYLESHEET
  1

  9
$XEDIT
290
     1
  9
$CEPSNTYPE
380
     0
  9
$PSTYLEMODE
290
     0
  9
$FINGERPRINTGUID
  2
{FAEB1C30-E019-11D5-929B-00C0DF256EC4}
  9
$VERSIONGUID
  2
{FAEB1C32-E019-11D5-929B-00C0DF256EC4}
  9
$EXTNAMES
290
     1
  9
$PSVPSCALE
 40
0.0
  9
$OLESTARTUP
290
     0
  0
ENDSEC
  0
SECTION
  2
CLASSES
  0
CLASS
  1
ACDBDICTIONARYWDFLT
  2
AcDbDictionaryWithDefault
  3
ObjectDBX Classes
 90
        0
280
     0
281
     0
  0
CLASS
  1
TABLESTYLE
  2
AcDbTableStyle
  3
ObjectDBX Classes
 90
     2047
280
     0
281
     0
  0
CLASS
  1
DICTIONARYVAR
  2
AcDbDictionaryVar
  3
ObjectDBX Classes
 90
        0
280
     0
281
     0
  0
CLASS
  1

  2
exOdDbCircle
  3

 90
        0
280
     0
281
     1
  0
CLASS
  1
ACDBPLACEHOLDER
  2
AcDbPlaceHolder
  3
ObjectDBX Classes
 90
        0
280
     0
281
     0
  0
CLASS
  1
LAYOUT
  2
AcDbLayout
  3
ObjectDBX Classes
 90
        0
280
     0
281
     0
  0
ENDSEC
  0
SECTION
  2
TABLES
  0
TABLE
  2
VPORT
  5
8
330
0
100
AcDbSymbolTable
 70
     2
  0
VPORT
  5
29
330
8
100
AcDbSymbolTableRecord
100
AcDbViewportTableRecord
  2
*Active
 70
     0
 10
0.0
 20
0.0
 11
1.0
 21
1.0
 12
210.0
 22
297.0
 13
0.0
 23
0.0
 14
0.5
 24
0.5
 15
0.5
 25
0.5
 16
0.0
 26
0.0
 36
1.0
 17
0.0
 27
0.0
 37
0.0
 40
653.4000000000001
 41
1.60267857142857
 42
50.0
 43
0.0
 44
0.0
 50
0.0
 51
0.0
 71
     0
 72
   100
 73
     1
 74
     3
 75
     0
 76
     0
 77
     0
 78
     0
281
     0
 65
     1
110
0.0
120
0.0
130
0.0
111
1.0
121
0.0
131
0.0
112
0.0
122
1.0
132
0.0
 79
     0
146
0.0
  0
ENDTAB
  0
TABLE
  2
LTYPE
  5
5
330
0
100
AcDbSymbolTable
 70
     8
  0
LTYPE
  5
14
330
5
100
AcDbSymbolTableRecord
100
AcDbLinetypeTableRecord
  2
ByBlock
 70
     0
  3

 72
    65
 73
     0
 40
0.0
  0
LTYPE
  5
15
330
5
100
AcDbSymbolTableRecord
100
AcDbLinetypeTableRecord
  2
ByLayer
 70
     0
  3

 72
    65
 73
     0
 40
0.0
  0
LTYPE
  5
16
330
5
100
AcDbSymbolTableRecord
100
AcDbLinetypeTableRecord
  2
Continuous
 70
     0
  3
Solid line
 72
    65
 73
     0
 40
0.0
  0
LTYPE
  5
2E
330
5
100
AcDbSymbolTableRecord
100
AcDbLinetypeTableRecord
  2
DASHED
 70
     0
  3
Dashed
 72
    65
 73
     2
 40
15.0
 49
7.0
 74
     0
 49
-8.0
 74
     0
  0
LTYPE
  5
2F
330
5
100
AcDbSymbolTableRecord
100
AcDbLinetypeTableRecord
  2
DOTTED
 70
     0
  3
Dotted
 72
    65
 73
     2
 40
1.0
 49
0.0
 74
     0
 49
-1.0
 74
     0
  0
LTYPE
  5
30
330
5
100
AcDbSymbolTableRecord
100
AcDbLinetypeTableRecord
  2
DOT_CENTER
 70
     0
  3
Dot_Center
 72
    65
 73
     4
 40
14.0
 49
12.0
 74
     0
 49
-1.0
 74
     0
 49
0.0
 74
     0
 49
-1.0
 74
     0
  0
LTYPE
  5
31
330
5
100
AcDbSymbolTableRecord
100
AcDbLinetypeTableRecord
  2
LONG_DASHED
 70
     0
  3
Long_Dashed
 72
    65
 73
     2
 40
15.0
 49
10.0
 74
     0
 49
-5.0
 74
     0
  0
LTYPE
  5
32
330
5
100
AcDbSymbolTableRecord
100
AcDbLinetypeTableRecord
  2
DASH_CENTER
 70
     0
  3
Dash_Center
 72
    65
 73
     4
 40
14.0
 49
11.0
 74
     0
 49
-1.0
 74
     0
 49
1.0
 74
     0
 49
-1.0
 74
     0
  0
LTYPE
  5
33
330
5
100
AcDbSymbolTableRecord
100
AcDbLinetypeTableRecord
  2
PHANTOM
 70
     0
  3
Phantom
 72
    65
 73
     6
 40
13.0
 49
10.0
 74
     0
 49
-1.0
 74
     0
 49
0.0
 74
     0
 49
-1.0
 74
     0
 49
0.0
 74
     0
 49
-1.0
 74
     0
  0
LTYPE
  5
34
330
5
100
AcDbSymbolTableRecord
100
AcDbLinetypeTableRecord
  2
CENTER_DASH_DASH
 70
     0
  3
Center_Dash_Dash
 72
    65
 73
     6
 40
14.0
 49
9.0
 74
     0
 49
-1.0
 74
     0
 49
1.0
 74
     0
 49
-1.0
 74
     0
 49
1.0
 74
     0
 49
-1.0
 74
     0
  0
ENDTAB
  0
TABLE
  2
LAYER
  5
2
330
0
100
AcDbSymbolTable
 70
     2
  0
LAYER
  5
10
330
2
100
AcDbSymbolTableRecord
100
AcDbLayerTableRecord
  2
0
 70
     0
 62
     7
  6
Continuous
370
    -3
390
F
  0
LAYER
  5
35
330
2
100
AcDbSymbolTableRecord
100
AcDbLayerTableRecord
  2
1
 70
     0
 62
     7
  6
Continuous
370
    -3
390
F
  0
ENDTAB
  0
TABLE
  2
STYLE
  5
3
330
0
100
AcDbSymbolTable
 70
     3
  0
STYLE
  5
11
330
3
100
AcDbSymbolTableRecord
100
AcDbTextStyleTableRecord
  2
Standard
 70
     0
 40
0.0
 41
1.0
 50
0.0
 71
     0
 42
0.2
  3
txt
  4

  0
STYLE
  5
154
330
3
100
AcDbSymbolTableRecord
100
AcDbTextStyleTableRecord
  2
CONVERTER_1
 70
     0
 40
0.0
 41
0.89
 50
0.0
 71
     0
 42
0.2
  3
msmincho.ttc
  4

1001
ACAD
1000
MS Mincho
1071
    32785
  0
STYLE
  5
178
330
3
100
AcDbSymbolTableRecord
100
AcDbTextStyleTableRecord
  2
CONVERTER_2
 70
     0
 40
0.0
 41
0.9
 50
0.0
 71
     0
 42
0.2
  3
txt.shx
  4

  0
ENDTAB
  0
TABLE
  2
VIEW
  5
6
330
0
100
AcDbSymbolTable
 70
     0
  0
ENDTAB
  0
TABLE
  2
UCS
  5
7
330
0
100
AcDbSymbolTable
 70
     0
  0
ENDTAB
  0
TABLE
  2
APPID
  5
9
330
0
100
AcDbSymbolTable
 70
     1
  0
APPID
  5
12
330
9
100
AcDbSymbolTableRecord
100
AcDbRegAppTableRecord
  2
ACAD
 70
     0
  0
ENDTAB
  0
TABLE
  2
DIMSTYLE
  5
A
330
0
100
AcDbSymbolTable
 70
     9
100
AcDbDimStyleTable
  0
DIMSTYLE
105
27
330
A
100
AcDbSymbolTableRecord
100
AcDbDimStyleTableRecord
  2
Standard
 70
     0
340
11
  0
DIMSTYLE
105
18D
102
{ACAD_REACTORS
330
18E
102
}
330
A
100
AcDbSymbolTableRecord
100
AcDbDimStyleTableRecord
  2
ME10_DIM_0
 70
     0
 41
6.0
 42
0.0
 44
2.0
 73
     0
 74
     0
 77
     1
 78
     8
140
7.0
147
0.625
172
     1
173
     1
176
     2
177
     2
178
     7
271
     2
340
178
344
18A
  0
DIMSTYLE
105
198
102
{ACAD_REACTORS
330
199
102
}
330
A
100
AcDbSymbolTableRecord
100
AcDbDimStyleTableRecord
  2
ME10_DIM_1
 70
     0
 41
7.0
 42
0.0
 44
2.0
 73
     0
 74
     0
 77
     1
 78
     8
140
7.0
147
0.625
172
     1
173
     1
176
     2
177
     2
178
     7
271
     2
340
178
  0
DIMSTYLE
105
1A3
102
{ACAD_REACTORS
330
1A4
102
}
330
A
100
AcDbSymbolTableRecord
100
AcDbDimStyleTableRecord
  2
ME10_DIM_2
 70
     0
 41
6.0
 42
0.0
 44
2.0
 73
     0
 74
     0
 77
     1
 78
     8
140
7.0
147
0.625
172
     1
173
     1
176
     2
177
     2
178
     7
271
     2
340
178
  0
DIMSTYLE
105
1AE
102
{ACAD_REACTORS
330
1AF
102
}
330
A
100
AcDbSymbolTableRecord
100
AcDbDimStyleTableRecord
  2
ME10_DIM_3
 70
     0
 41
6.0
 42
0.0
 44
2.0
 73
     0
 74
     0
 77
     1
 78
     8
140
7.0
147
0.625
172
     1
173
     1
176
     2
177
     2
178
     7
271
     2
340
178
  0
DIMSTYLE
105
1B9
102
{ACAD_REACTORS
330
1BA
102
}
330
A
100
AcDbSymbolTableRecord
100
AcDbDimStyleTableRecord
  2
ME10_DIM_4
 70
     0
 41
6.0
 42
0.0
 44
2.0
 73
     0
 74
     0
 77
     1
 78
     8
140
7.0
147
0.625
172
     1
173
     1
176
     2
177
     2
178
     7
271
     2
340
178
  0
DIMSTYLE
105
1C6
102
{ACAD_REACTORS
330
1C7
102
}
330
A
100
AcDbSymbolTableRecord
100
AcDbDimStyleTableRecord
  2
ME10_DIM_5
 70
     0
 41
7.0
 42
0.0
 44
2.0
 73
     0
 74
     0
 77
     1
 78
     8
140
7.0
147
0.625
172
     1
173
     1
176
     2
177
     2
178
     7
271
     2
340
178
  0
DIMSTYLE
105
1D1
102
{ACAD_REACTORS
330
1D2
102
}
330
A
100
AcDbSymbolTableRecord
100
AcDbDimStyleTableRecord
  2
ME10_DIM_6
 70
     0
 41
7.0
 42
0.0
 44
2.0
 73
     0
 74
     0
 77
     1
 78
     8
140
7.0
147
0.625
172
     1
173
     1
176
     2
177
     2
178
     7
271
     2
340
178
  0
DIMSTYLE
105
1DC
102
{ACAD_REACTORS
330
1DD
102
}
330
A
100
AcDbSymbolTableRecord
100
AcDbDimStyleTableRecord
  2
ME10_DIM_7
 70
     0
 41
6.0
 42
0.0
 44
2.0
 73
     0
 74
     0
 77
     1
 78
    12
140
7.0
147
0.625
172
     1
173
     1
176
     2
177
     2
178
     7
271
     0
340
178
  0
ENDTAB
  0
TABLE
  2
BLOCK_RECORD
  5
1
330
0
100
AcDbSymbolTable
 70
    17
  0
BLOCK_RECORD
  5
1F
330
1
100
AcDbSymbolTableRecord
100
AcDbBlockTableRecord
  2
*Model_Space
340
22
  0
BLOCK_RECORD
  5
1B
330
1
100
AcDbSymbolTableRecord
100
AcDbBlockTableRecord
  2
*Paper_Space
340
1E
  0
BLOCK_RECORD
  5
23
330
1
100
AcDbSymbolTableRecord
100
AcDbBlockTableRecord
  2
*Paper_Space0
340
26
  0
BLOCK_RECORD
  5
36
330
1
100
AcDbSymbolTableRecord
100
AcDbBlockTableRecord
  2
84-34-M21
340
0
102
{BLKREFS
331
40
102
}
  0
BLOCK_RECORD
  5
39
330
1
100
AcDbSymbolTableRecord
100
AcDbBlockTableRecord
  2
84-35-I
340
0
102
{BLKREFS
331
41
102
}
  0
BLOCK_RECORD
  5
3C
330
1
100
AcDbSymbolTableRecord
100
AcDbBlockTableRecord
  2
87-18
340
0
102
{BLKREFS
331
42
102
}
  0
BLOCK_RECORD
  5
3F
330
1
100
AcDbSymbolTableRecord
100
AcDbBlockTableRecord
  2
R261F
340
0
102
{BLKREFS
331
4E
102
}
  0
BLOCK_RECORD
  5
45
330
1
100
AcDbSymbolTableRecord
100
AcDbBlockTableRecord
  2
Y201-0
340
0
102
{BLKREFS
331
4F
102
}
  0
BLOCK_RECORD
  5
48
330
1
100
AcDbSymbolTableRecord
100
AcDbBlockTableRecord
  2
30-205-M11
340
0
102
{BLKREFS
331
50
102
}
  0
BLOCK_RECORD
  5
4B
330
1
100
AcDbSymbolTableRecord
100
AcDbBlockTableRecord
  2
_J__A4
340
0
102
{BLKREFS
331
51
102
}
  0
BLOCK_RECORD
  5
181
330
1
100
AcDbSymbolTableRecord
100
AcDbBlockTableRecord
  2
*D08
340
0
  0
BLOCK_RECORD
  5
18A
330
1
100
AcDbSymbolTableRecord
100
AcDbBlockTableRecord
  2
_None
340
0
  0
BLOCK_RECORD
  5
18F
330
1
100
AcDbSymbolTableRecord
100
AcDbBlockTableRecord
  2
*D110
340
0
  0
BLOCK_RECORD
  5
19A
330
1
100
AcDbSymbolTableRecord
100
AcDbBlockTableRecord
  2
*D211
340
0
  0
BLOCK_RECORD
  5
1A5
330
1
100
AcDbSymbolTableRecord
100
AcDbBlockTableRecord
  2
*D312
340
0
  0
BLOCK_RECORD
  5
1B0
330
1
100
AcDbSymbolTableRecord
100
AcDbBlockTableRecord
  2
*D413
340
0
  0
BLOCK_RECORD
  5
1BB
330
1
100
AcDbSymbolTableRecord
100
AcDbBlockTableRecord
  2
*D514
340
0
  0
BLOCK_RECORD
  5
1C8
330
1
100
AcDbSymbolTableRecord
100
AcDbBlockTableRecord
  2
*D615
340
0
  0
BLOCK_RECORD
  5
1D3
330
1
100
AcDbSymbolTableRecord
100
AcDbBlockTableRecord
  2
*D716
340
0
  0
ENDTAB
  0
ENDSEC
  0
SECTION
  2
BLOCKS
  0
BLOCK
  5
20
330
1F
100
AcDbEntity
  8
0
100
AcDbBlockBegin
  2
*Model_Space
 70
     0
 71
     0
 10
0.0
 20
0.0
 30
0.0
  3
*Model_Space
  1

  0
ENDBLK
  5
21
330
1F
100
AcDbEntity
  8
0
100
AcDbBlockEnd
  0
BLOCK
  5
1C
330
1B
100
AcDbEntity
 67
     1
  8
0
100
AcDbBlockBegin
  2
*Paper_Space
 70
     0
 71
     0
 10
0.0
 20
0.0
 30
0.0
  3
*Paper_Space
  1

  0
ENDBLK
  5
1D
330
1B
100
AcDbEntity
 67
     1
  8
0
100
AcDbBlockEnd
  0
BLOCK
  5
24
330
23
100
AcDbEntity
  8
0
100
AcDbBlockBegin
  2
*Paper_Space0
 70
     0
 71
     0
 10
0.0
 20
0.0
 30
0.0
  3
*Paper_Space0
  1

  0
ENDBLK
  5
25
330
23
100
AcDbEntity
  8
0
100
AcDbBlockEnd
  0
BLOCK
  5
37
330
36
100
AcDbEntity
  8
0
100
AcDbBlockBegin
  2
84-34-M21
 70
     0
 71
     0
 10
247.7605994417384
 20
283.3582368170392
 30
0.0
  3
84-34-M21
  1

  0
LINE
  5
52
330
36
100
AcDbEntity
  8
1
  6
Continuous
 62
     7
100
AcDbLine
 10
250.2605994417384
 20
236.3709303222436
 30
0.0
 11
270.2605994417384
 21
236.3709303222436
 31
0.0
  0
LINE
  5
53
330
36
100
AcDbEntity
  8
1
  6
Continuous
 62
     7
100
AcDbLine
 10
247.7605994417384
 20
234.8709303222436
 30
0.0
 11
247.7605994417384
 21
236.3005896525864
 31
0.0
  0
LINE
  5
54
330
36
100
AcDbEntity
  8
1
  6
Continuous
 62
     7
100
AcDbLine
 10
272.7605994417384
 20
236.3005896525864
 30
0.0
 11
272.7605994417384
 21
234.8709303222436
 31
0.0
  0
LINE
  5
55
330
36
100
AcDbEntity
  8
1
  6
Continuous
 62
     7
100
AcDbLine
 10
122.897583733613
 20
234.78831780043
 30
0.0
 11
122.897583733613
 21
236.217977130773
 31
0.0
  0
LINE
  5
56
330
36
100
AcDbEntity
  8
1
  6
Continuous
 62
     7
100
AcDbLine
 10
147.897583733613
 20
236.217977130773
 30
0.0
 11
147.897583733613
 21
234.78831780043
 31
0.0
  0
LINE
  5
57
330
36
100
AcDbEntity
  8
1
  6
Continuous
 62
     7
100
AcDbLine
 10
125.397583733613
 20
236.28831780043
 30
0.0
 11
135.397583733613
 21
236.28831780043
 31
0.0
  0
LINE
  5
58
330
36
100
AcDbEntity
  8
1
  6
Continuous
 62
     7
100
AcDbLine
 10
135.397583733613
 20
236.28831780043
 30
0.0
 11
145.397583733613
 21
236.28831780043
 31
0.0
  0
ARC
  5
59
330
36
100
AcDbEntity
  8
1
  6
Continuous
 62
     7
100
AcDbCircle
 10
260.2605994417384
 20
-163.5040501404005
 30
0.0
 40
400.0
100
AcDbArc
 50
91.43254373756652
 51
91.79078465932896
  0
ARC
  5
5A
330
36
100
AcDbEntity
  8
1
  6
Continuous
 62
     7
100
AcDbCircle
 10
260.2605994417384
 20
-163.5040501404005
 30
0.0
 40
400.0
100
AcDbArc
 50
88.20921534067105
 51
88.5674562624335
  0
ARC
  5
5B
330
36
100
AcDbEntity
  8
1
  6
Continuous
 62
     7
100
AcDbCircle
 10
135.397583733613
 20
-163.5866626622139
 30
0.0
 40
399.9999999999998
100
AcDbArc
 50
91.43254373756652
 51
91.79078465932896
  0
ARC
  5
5C
330
36
100
AcDbEntity
  8
1
  6
Continuous
 62
     7
100
AcDbCircle
 10
135.397583733613
 20
-163.5866626622139
 30
0.0
 40
400.0
100
AcDbArc
 50
88.20921534067105
 51
88.5674562624335
  0
CIRCLE
  5
5D
330
36
100
AcDbEntity
  8
1
  6
Continuous
 62
     7
100
AcDbCircle
 10
135.397583733613
 20
365.6513335085554
 30
0.0
 40
12.5
  0
ENDBLK
  5
38
330
36
100
AcDbEntity
  8
0
100
AcDbBlockEnd
  0
BLOCK
  5
3A
330
39
100
AcDbEntity
  8
0
100
AcDbBlockBegin
  2
84-35-I
 70
     0
 71
     0
 10
390.7248299506973
 20
232.5057869007977
 30
0.0
  3
84-35-I
  1

  0
CIRCLE
  5
5E
330
39
100
AcDbEntity
  8
1
  6
Continuous
 62
     7
100
AcDbCircle
 10
135.397583733613
 20
365.6513335085554
 30
0.0
 40
10.0
  0
ENDBLK
  5
3B
330
39
100
AcDbEntity
  8
0
100
AcDbBlockEnd
  0
BLOCK
  5
3D
330
3C
100
AcDbEntity
  8
0
100
AcDbBlockBegin
  2
87-18
 70
     0
 71
     0
 10
346.7313128893859
 20
191.03831780043
 30
0.0
  3
87-18
  1

  0
LINE
  5
5F
330
3C
100
AcDbEntity
  8
1
  6
Continuous
 62
     7
100
AcDbLine
 10
244.7605994417333
 20
234.78831780043
 30
0.0
 11
275.7605994417432
 21
234.78831780043
 31
0.0
  0
LINE
  5
60
330
3C
100
AcDbEntity
  8
1
  6
Continuous
 62
     7
100
AcDbLine
 10
242.7605994417333
 20
190.78831780043
 30
0.0
 11
277.7605994417432
 21
190.78831780043
 31
0.0
  0
LINE
  5
61
330
3C
100
AcDbEntity
  8
1
  6
Continuous
 62
     7
100
AcDbLine
 10
278.7605994417432
 20
231.78831780043
 30
0.0
 11
278.7605994417432
 21
191.78831780043
 31
0.0
  0
LINE
  5
62
330
3C
100
AcDbEntity
  8
1
  6
Continuous
 62
     7
100
AcDbLine
 10
241.7605994417333
 20
191.78831780043
 30
0.0
 11
241.7605994417333
 21
231.78831780043
 31
0.0
  0
LINE
  5
63
330
3C
100
AcDbEntity
  8
1
  6
Continuous
 62
     7
100
AcDbLine
 10
239.7605994417382
 20
209.78831780043
 30
0.0
 11
212.7605994417382
 21
209.78831780043
 31
0.0
  0
LINE
  5
64
330
3C
100
AcDbEntity
  8
1
  6
Continuous
 62
     7
100
AcDbLine
 10
212.7605994417382
 20
234.78831780043
 30
0.0
 11
244.7605994417333
 21
234.78831780043
 31
0.0
  0
LINE
  5
65
330
3C
100
AcDbEntity
  8
1
  6
Continuous
 62
     7
100
AcDbLine
 10
139.87660316847
 20
344.1775705544995
 30
0.0
 11
139.6594020719216
 21
307.6394447072565
 31
0.0
  0
LINE
  5
66
330
3C
100
AcDbEntity
  8
1
  6
Continuous
 62
     7
100
AcDbLine
 10
133.1357300590933
 20
305.6513335085554
 30
0.0
 11
137.6594374081327
 21
305.6513335085554
 31
0.0
  0
LINE
  5
67
330
3C
100
AcDbEntity
  8
1
  6
Continuous
 62
     7
100
AcDbLine
 10
130.9185642987563
 20
344.1775705544995
 30
0.0
 11
131.1357653953047
 21
307.6394447072565
 31
0.0
  0
LINE
  5
68
330
3C
100
AcDbEntity
  8
1
  6
Continuous
 62
     7
100
AcDbLine
 10
116.897583733608
 20
191.78831780043
 30
0.0
 11
116.897583733608
 21
231.78831780043
 31
0.0
  0
LINE
  5
69
330
3C
100
AcDbEntity
  8
1
  6
Continuous
 62
     7
100
AcDbLine
 10
153.8975837336179
 20
231.78831780043
 30
0.0
 11
153.8975837336179
 21
191.78831780043
 31
0.0
  0
LINE
  5
6A
330
3C
100
AcDbEntity
  8
1
  6
Continuous
 62
     7
100
AcDbLine
 10
152.8975837336179
 20
190.78831780043
 30
0.0
 11
117.897583733608
 21
190.78831780043
 31
0.0
  0
LINE
  5
6B
330
3C
100
AcDbEntity
  8
1
  6
Continuous
 62
     7
100
AcDbLine
 10
119.897583733608
 20
234.78831780043
 30
0.0
 11
150.8975837336179
 21
234.78831780043
 31
0.0
  0
LINE
  5
6C
330
3C
100
AcDbEntity
  8
1
  6
Continuous
 62
     7
100
AcDbLine
 10
133.1357653953045
 20
209.78831780043
 30
0.0
 11
137.6594020719215
 21
209.78831780043
 31
0.0
  0
LINE
  5
6D
330
3C
100
AcDbEntity
  8
1
  6
Continuous
 62
     7
100
AcDbLine
 10
139.6594020719215
 20
211.78831780043
 30
0.0
 11
139.6594020719215
 21
232.78831780043
 31
0.0
  0
LINE
  5
6E
330
3C
100
AcDbEntity
  8
1
  6
Continuous
 62
     7
100
AcDbLine
 10
131.1357653953045
 20
232.78831780043
 30
0.0
 11
131.1357653953045
 21
211.78831780043
 31
0.0
  0
ARC
  5
6F
330
3C
100
AcDbEntity
  8
1
  6
Continuous
 62
     7
100
AcDbCircle
 10
212.7605994417382
 20
222.28831780043
 30
0.0
 40
12.5
100
AcDbArc
 50
180.0
 51
-90.0
  0
ARC
  5
70
330
3C
100
AcDbEntity
  8
1
  6
Continuous
 62
     7
100
AcDbCircle
 10
212.7605994417382
 20
222.28831780043
 30
0.0
 40
12.5
100
AcDbArc
 50
90.0
 51
180.0
  0
ARC
  5
71
330
3C
100
AcDbEntity
  8
1
  6
Continuous
 62
     7
100
AcDbCircle
 10
133.1357653953045
 20
232.78831780043
 30
0.0
 40
2.0
100
AcDbArc
 50
90.0
 51
180.0
  0
ARC
  5
72
330
3C
100
AcDbEntity
  8
1
  6
Continuous
 62
     7
100
AcDbCircle
 10
137.6594020719215
 20
232.78831780043
 30
0.0
 40
2.0
100
AcDbArc
 50
0.0
 51
90.0
  0
CIRCLE
  5
73
330
3C
100
AcDbEntity
  8
1
  6
Continuous
 62
     7
100
AcDbCircle
 10
212.7605994417382
 20
222.28831780043
 30
0.0
 40
8.5
  0
CIRCLE
  5
74
330
3C
100
AcDbEntity
  8
1
  6
Continuous
 62
     7
100
AcDbCircle
 10
135.3975837336131
 20
365.6513335085554
 30
0.0
 40
18.5
  0
ARC
  5
75
330
3C
100
AcDbEntity
  8
1
  6
Continuous
 62
     7
100
AcDbCircle
 10
244.7605994417333
 20
231.78831780043
 30
0.0
 40
3.0
100
AcDbArc
 50
90.0
 51
180.0
  0
ARC
  5
76
330
3C
100
AcDbEntity
  8
1
  6
Continuous
 62
     7
100
AcDbCircle
 10
275.7605994417432
 20
231.78831780043
 30
0.0
 40
3.0
100
AcDbArc
 50
0.0
 51
90.0
  0
ARC
  5
77
330
3C
100
AcDbEntity
  8
1
  6
Continuous
 62
     7
100
AcDbCircle
 10
277.7605994417432
 20
191.78831780043
 30
0.0
 40
1.0
100
AcDbArc
 50
-90.0
 51
0.0
  0
ARC
  5
78
330
3C
100
AcDbEntity
  8
1
  6
Continuous
 62
     7
100
AcDbCircle
 10
242.7605994417333
 20
191.78831780043
 30
0.0
 40
1.0
100
AcDbArc
 50
180.0
 51
-90.0
  0
ARC
  5
79
330
3C
100
AcDbEntity
  8
1
  6
Continuous
 62
     7
100
AcDbCircle
 10
239.7605994417382
 20
207.78831780043
 30
0.0
 40
2.0
100
AcDbArc
 50
0.0
 51
90.0
  0
ARC
  5
7A
330
3C
100
AcDbEntity
  8
1
  6
Continuous
 62
     7
100
AcDbCircle
 10
144.8765148279419
 20
344.1478485512522
 30
0.0
 40
4.999999999999935
100
AcDbArc
 50
113.788320038113
 51
179.6594089251826
  0
ARC
  5
7B
330
3C
100
AcDbEntity
  8
1
  6
Continuous
 62
     7
100
AcDbCircle
 10
125.9186526392844
 20
344.1478485512522
 30
0.0
 40
5.000000000000013
100
AcDbArc
 50
0.34059107481745
 51
66.21167996188896
  0
ARC
  5
7C
330
3C
100
AcDbEntity
  8
1
  6
Continuous
 62
     7
100
AcDbCircle
 10
137.6594374081327
 20
307.6513335085554
 30
0.0
 40
2.0
100
AcDbArc
 50
-90.0
 51
-0.34059107481808
  0
ARC
  5
7D
330
3C
100
AcDbEntity
  8
1
  6
Continuous
 62
     7
100
AcDbCircle
 10
133.1357300590933
 20
307.6513335085554
 30
0.0
 40
1.999999999999846
100
AcDbArc
 50
-179.6594089251819
 51
-90.0
  0
ARC
  5
7E
330
3C
100
AcDbEntity
  8
1
  6
Continuous
 62
     7
100
AcDbCircle
 10
117.897583733608
 20
191.78831780043
 30
0.0
 40
1.0
100
AcDbArc
 50
180.0
 51
-90.0
  0
ARC
  5
7F
330
3C
100
AcDbEntity
  8
1
  6
Continuous
 62
     7
100
AcDbCircle
 10
152.8975837336179
 20
191.78831780043
 30
0.0
 40
1.0
100
AcDbArc
 50
-90.0
 51
0.0
  0
ARC
  5
80
330
3C
100
AcDbEntity
  8
1
  6
Continuous
 62
     7
100
AcDbCircle
 10
150.8975837336179
 20
231.78831780043
 30
0.0
 40
3.0
100
AcDbArc
 50
0.0
 51
90.0
  0
ARC
  5
81
330
3C
100
AcDbEntity
  8
1
  6
Continuous
 62
     7
100
AcDbCircle
 10
119.897583733608
 20
231.78831780043
 30
0.0
 40
3.0
100
AcDbArc
 50
90.0
 51
180.0
  0
ARC
  5
82
330
3C
100
AcDbEntity
  8
1
  6
Continuous
 62
     7
100
AcDbCircle
 10
133.1357653953045
 20
211.78831780043
 30
0.0
 40
2.0
100
AcDbArc
 50
180.0
 51
-90.0
  0
ARC
  5
83
330
3C
100
AcDbEntity
  8
1
  6
Continuous
 62
     7
100
AcDbCircle
 10
137.6594020719215
 20
211.78831780043
 30
0.0
 40
2.0
100
AcDbArc
 50
-90.0
 51
0.0
  0
ENDBLK
  5
3E
330
3C
100
AcDbEntity
  8
0
100
AcDbBlockEnd
  0
BLOCK
  5
43
330
3F
100
AcDbEntity
  8
0
100
AcDbBlockBegin
  2
R261F
 70
     0
 71
     0
 10
-3.26511484397599
 20
68.11739496918455
 30
0.0
  3
R261F
  1

  0
INSERT
  5
40
330
3F
100
AcDbEntity
  8
1
100
AcDbBlockReference
  2
84-34-M21
 10
247.7605994417384
 20
283.3582368170392
 30
0.0
  0
INSERT
  5
41
330
3F
100
AcDbEntity
  8
0
100
AcDbBlockReference
  2
84-35-I
 10
390.7248299506973
 20
232.5057869007977
 30
0.0
  0
INSERT
  5
42
330
3F
100
AcDbEntity
  8
0
100
AcDbBlockReference
  2
87-18
 10
346.7313128893859
 20
191.03831780043
 30
0.0
  0
ENDBLK
  5
44
330
3F
100
AcDbEntity
  8
0
100
AcDbBlockEnd
  0
BLOCK
  5
46
330
45
100
AcDbEntity
  8
0
100
AcDbBlockBegin
  2
Y201-0
 70
     0
 71
     0
 10
227.3275816902591
 20
211.9164994874952
 30
0.0
  3
Y201-0
  1

  0
LINE
  5
84
330
45
100
AcDbEntity
  8
1
  6
Continuous
 62
     7
100
AcDbLine
 10
348.7605994417383
 20
155.7883178004301
 30
0.0
 11
348.7605994417383
 21
147.7883178004301
 31
0.0
  0
LINE
  5
85
330
45
100
AcDbEntity
  8
1
  6
Continuous
 62
     7
100
AcDbLine
 10
348.7605994417383
 20
183.4611217891888
 30
0.0
 11
348.7605994417383
 21
158.1155138116714
 31
0.0
  0
LINE
  5
86
330
45
100
AcDbEntity
  8
1
  6
Continuous
 62
     7
100
AcDbLine
 10
348.7605994417383
 20
193.78831780043
 30
0.0
 11
348.7605994417383
 21
185.7883178004301
 31
0.0
  0
LINE
  5
87
330
45
100
AcDbEntity
  8
1
  6
Continuous
 62
     7
100
AcDbLine
 10
352.9926502493072
 20
180.2883178004301
 30
0.0
 11
352.9926502493072
 21
160.2883178004301
 31
0.0
  0
LINE
  5
88
330
45
100
AcDbEntity
  8
1
  6
Continuous
 62
     7
100
AcDbLine
 10
352.9926502493072
 20
181.2883178004301
 30
0.0
 11
364.2605994417383
 21
181.2883178004301
 31
0.0
  0
LINE
  5
89
330
45
100
AcDbEntity
  8
0
  6
Continuous
 62
     7
100
AcDbLine
 10
149.3975837336132
 20
190.78831780043
 30
0.0
 11
149.3975837336132
 21
188.7418697900437
 31
0.0
  0
LINE
  5
8A
330
45
100
AcDbEntity
  8
1
  6
Continuous
 62
     7
100
AcDbLine
 10
121.3975837336131
 20
188.7418697900438
 30
0.0
 11
121.397583733613
 21
190.78831780043
 31
0.0
  0
LINE
  5
8B
330
45
100
AcDbEntity
  8
1
  6
Continuous
 62
     7
100
AcDbLine
 10
116.397583733613
 20
369.3150065288999
 30
0.0
 11
116.397583733613
 21
446.1513335085554
 31
0.0
  0
LINE
  5
8C
330
45
100
AcDbEntity
  8
1
  6
Continuous
 62
     7
100
AcDbLine
 10
154.397583733613
 20
369.3150065288999
 30
0.0
 11
154.397583733613
 21
446.1513335085554
 31
0.0
  0
LINE
  5
8D
330
45
100
AcDbEntity
  8
1
  6
Continuous
 62
     7
100
AcDbLine
 10
124.397583733613
 20
454.1513335085554
 30
0.0
 11
146.397583733613
 21
454.1513335085554
 31
0.0
  0
LINE
  5
8E
330
45
100
AcDbEntity
  8
1
  6
Continuous
 62
     7
100
AcDbLine
 10
155.397583733613
 20
365.6513335085553
 30
0.0
 11
155.397583733613
 21
347.6513335085554
 31
0.0
  0
LINE
  5
8F
330
45
100
AcDbEntity
  8
1
  6
Continuous
 62
     7
100
AcDbLine
 10
115.397583733613
 20
365.6513335085553
 30
0.0
 11
115.397583733613
 21
347.6513335085554
 31
0.0
  0
LINE
  5
90
330
45
100
AcDbEntity
  8
1
  6
DASH_CENTER
 62
     2
100
AcDbLine
 10
155.397583733613
 20
365.6513335085553
 30
0.0
 11
160.397583733613
 21
365.6513335085554
 31
0.0
  0
LINE
  5
91
330
45
100
AcDbEntity
  8
1
  6
Continuous
 62
     7
100
AcDbLine
 10
155.397583733613
 20
447.906335510157
 30
0.0
 11
155.397583733613
 21
365.6513335085553
 31
0.0
  0
LINE
  5
92
330
45
100
AcDbEntity
  8
1
  6
Continuous
 62
     7
100
AcDbLine
 10
115.397583733613
 20
447.906335510157
 30
0.0
 11
115.397583733613
 21
365.6513335085553
 31
0.0
  0
LINE
  5
93
330
45
100
AcDbEntity
  8
1
  6
Continuous
 62
     7
100
AcDbLine
 10
125.897583733613
 20
469.6513335085554
 30
0.0
 11
144.897583733613
 21
469.6513335085554
 31
0.0
  0
LINE
  5
94
330
45
100
AcDbEntity
  8
1
  6
Continuous
 62
     7
100
AcDbLine
 10
125.897583733613
 20
458.3833843161242
 30
0.0
 11
144.897583733613
 21
458.3833843161242
 31
0.0
  0
LINE
  5
95
330
45
100
AcDbEntity
  8
1
  6
Continuous
 62
     7
100
AcDbLine
 10
158.397583733613
 20
456.6513335085554
 30
0.0
 11
158.397583733613
 21
454.1513335085554
 31
0.0
  0
LINE
  5
96
330
45
100
AcDbEntity
  8
1
  6
Continuous
 62
     7
100
AcDbLine
 10
112.397583733613
 20
456.6513335085554
 30
0.0
 11
158.397583733613
 21
456.6513335085554
 31
0.0
  0
LINE
  5
97
330
45
100
AcDbEntity
  8
1
  6
Continuous
 62
     7
100
AcDbLine
 10
145.897583733613
 20
469.6513335085554
 30
0.0
 11
145.897583733613
 21
458.3833843161242
 31
0.0
  0
LINE
  5
98
330
45
100
AcDbEntity
  8
1
  6
Continuous
 62
     7
100
AcDbLine
 10
135.397583733613
 20
470.6513335085554
 30
0.0
 11
144.897583733613
 21
470.6513335085554
 31
0.0
  0
LINE
  5
99
330
45
100
AcDbEntity
  8
1
  6
Continuous
 62
     2
100
AcDbLine
 10
144.897583733613
 20
458.3833843161242
 30
0.0
 11
145.897583733613
 21
456.6513335085554
 31
0.0
  0
LINE
  5
9A
330
45
100
AcDbEntity
  8
1
  6
Continuous
 62
     2
100
AcDbLine
 10
144.897583733613
 20
470.6513335085554
 30
0.0
 11
144.897583733613
 21
469.6513335085554
 31
0.0
  0
LINE
  5
9B
330
45
100
AcDbEntity
  8
1
  6
Continuous
 62
     7
100
AcDbLine
 10
145.897583733613
 20
469.6513335085554
 30
0.0
 11
144.897583733613
 21
470.6513335085554
 31
0.0
  0
LINE
  5
9C
330
45
100
AcDbEntity
  8
1
  6
DASH_CENTER
 62
     2
100
AcDbLine
 10
135.397583733613
 20
474.8378669880285
 30
0.0
 11
135.397583733613
 21
454.1513335085554
 31
0.0
  0
LINE
  5
9D
330
45
100
AcDbEntity
  8
1
  6
Continuous
 62
     7
100
AcDbLine
 10
125.897583733613
 20
470.6513335085554
 30
0.0
 11
124.897583733613
 21
469.6513335085554
 31
0.0
  0
LINE
  5
9E
330
45
100
AcDbEntity
  8
1
  6
Continuous
 62
     7
100
AcDbLine
 10
125.897583733613
 20
470.6513335085554
 30
0.0
 11
135.397583733613
 21
470.6513335085554
 31
0.0
  0
LINE
  5
9F
330
45
100
AcDbEntity
  8
1
  6
Continuous
 62
     2
100
AcDbLine
 10
125.897583733613
 20
458.3833843161242
 30
0.0
 11
125.897583733613
 21
469.6513335085554
 31
0.0
  0
LINE
  5
A0
330
45
100
AcDbEntity
  8
1
  6
Continuous
 62
     2
100
AcDbLine
 10
124.897583733613
 20
456.6513335085554
 30
0.0
 11
125.897583733613
 21
458.3833843161242
 31
0.0
  0
LINE
  5
A1
330
45
100
AcDbEntity
  8
1
  6
Continuous
 62
     7
100
AcDbLine
 10
124.897583733613
 20
456.6513335085554
 30
0.0
 11
124.897583733613
 21
458.3833843161242
 31
0.0
  0
LINE
  5
A2
330
45
100
AcDbEntity
  8
1
  6
Continuous
 62
     7
100
AcDbLine
 10
112.397583733613
 20
454.1513335085554
 30
0.0
 11
112.397583733613
 21
456.6513335085554
 31
0.0
  0
LINE
  5
A3
330
45
100
AcDbEntity
  8
1
  6
Continuous
 62
     7
100
AcDbLine
 10
124.897583733613
 20
469.6513335085554
 30
0.0
 11
125.897583733613
 21
469.6513335085554
 31
0.0
  0
LINE
  5
A4
330
45
100
AcDbEntity
  8
1
  6
Continuous
 62
     2
100
AcDbLine
 10
125.897583733613
 20
469.6513335085554
 30
0.0
 11
125.897583733613
 21
470.6513335085554
 31
0.0
  0
LINE
  5
A5
330
45
100
AcDbEntity
  8
1
  6
Continuous
 62
     7
100
AcDbLine
 10
145.897583733613
 20
469.6513335085554
 30
0.0
 11
144.897583733613
 21
469.6513335085554
 31
0.0
  0
LINE
  5
A6
330
45
100
AcDbEntity
  8
1
  6
Continuous
 62
     2
100
AcDbLine
 10
144.897583733613
 20
469.6513335085554
 30
0.0
 11
144.897583733613
 21
458.3833843161242
 31
0.0
  0
LINE
  5
A7
330
45
100
AcDbEntity
  8
1
  6
Continuous
 62
     7
100
AcDbLine
 10
144.897583733613
 20
458.3833843161242
 30
0.0
 11
145.897583733613
 21
458.3833843161242
 31
0.0
  0
LINE
  5
A8
330
45
100
AcDbEntity
  8
1
  6
Continuous
 62
     7
100
AcDbLine
 10
145.897583733613
 20
458.3833843161242
 30
0.0
 11
145.897583733613
 21
456.6513335085554
 31
0.0
  0
LINE
  5
A9
330
45
100
AcDbEntity
  8
1
  6
Continuous
 62
     7
100
AcDbLine
 10
125.897583733613
 20
458.3833843161242
 30
0.0
 11
124.897583733613
 21
458.3833843161242
 31
0.0
  0
LINE
  5
AA
330
45
100
AcDbEntity
  8
1
  6
Continuous
 62
     7
100
AcDbLine
 10
124.897583733613
 20
458.3833843161242
 30
0.0
 11
124.897583733613
 21
469.6513335085554
 31
0.0
  0
LINE
  5
AB
330
45
100
AcDbEntity
  8
1
  6
Continuous
 62
     7
100
AcDbLine
 10
351.2605994417383
 20
181.2883178004301
 30
0.0
 11
352.9926502493072
 21
181.2883178004301
 31
0.0
  0
LINE
  5
AC
330
45
100
AcDbEntity
  8
1
  6
Continuous
 62
     7
100
AcDbLine
 10
352.9926502493072
 20
160.2883178004301
 30
0.0
 11
351.2605994417383
 21
160.2883178004301
 31
0.0
  0
LINE
  5
AD
330
45
100
AcDbEntity
  8
1
  6
Continuous
 62
     7
100
AcDbLine
 10
352.9926502493072
 20
181.2883178004301
 30
0.0
 11
352.9926502493072
 21
180.2883178004301
 31
0.0
  0
LINE
  5
AE
330
45
100
AcDbEntity
  8
1
  6
Continuous
 62
     2
100
AcDbLine
 10
364.2605994417383
 20
161.2883178004301
 30
0.0
 11
352.9926502493072
 21
161.2883178004301
 31
0.0
  0
LINE
  5
AF
330
45
100
AcDbEntity
  8
1
  6
Continuous
 62
     7
100
AcDbLine
 10
364.2605994417383
 20
160.2883178004301
 30
0.0
 11
364.2605994417383
 21
181.2883178004301
 31
0.0
  0
LINE
  5
B0
330
45
100
AcDbEntity
  8
1
  6
Continuous
 62
     2
100
AcDbLine
 10
352.9926502493072
 20
180.2883178004301
 30
0.0
 11
365.2605994417383
 21
180.2883178004301
 31
0.0
  0
LINE
  5
B1
330
45
100
AcDbEntity
  8
1
  6
Continuous
 62
     7
100
AcDbLine
 10
243.2605994417383
 20
185.7883178004301
 30
0.0
 11
242.5916976456792
 21
185.7883178004301
 31
0.0
  0
LINE
  5
B2
330
45
100
AcDbEntity
  8
1
  6
Continuous
 62
     7
100
AcDbLine
 10
348.7605994417383
 20
193.78831780043
 30
0.0
 11
351.2605994417383
 21
193.78831780043
 31
0.0
  0
LINE
  5
B3
330
45
100
AcDbEntity
  8
1
  6
Continuous
 62
     7
100
AcDbLine
 10
351.2605994417383
 20
193.78831780043
 30
0.0
 11
351.2605994417383
 21
181.2883178004301
 31
0.0
  0
LINE
  5
B4
330
45
100
AcDbEntity
  8
1
  6
Continuous
 62
     7
100
AcDbLine
 10
365.2605994417383
 20
180.2883178004301
 30
0.0
 11
365.2605994417383
 21
170.7883178004301
 31
0.0
  0
LINE
  5
B5
330
45
100
AcDbEntity
  8
1
  6
Continuous
 62
     2
100
AcDbLine
 10
351.2605994417383
 20
181.2883178004301
 30
0.0
 11
352.9926502493072
 21
180.2883178004301
 31
0.0
  0
LINE
  5
B6
330
45
100
AcDbEntity
  8
1
  6
Continuous
 62
     7
100
AcDbLine
 10
365.2605994417383
 20
180.2883178004301
 30
0.0
 11
364.2605994417383
 21
181.2883178004301
 31
0.0
  0
LINE
  5
B7
330
45
100
AcDbEntity
  8
1
  6
Continuous
 62
     7
100
AcDbLine
 10
340.7605994417383
 20
155.7883178004301
 30
0.0
 11
265.8585337760691
 21
155.7883178004301
 31
0.0
  0
LINE
  5
B8
330
45
100
AcDbEntity
  8
1
  6
Continuous
 62
     7
100
AcDbLine
 10
364.2605994417383
 20
160.2883178004301
 30
0.0
 11
365.2605994417383
 21
161.2883178004301
 31
0.0
  0
LINE
  5
B9
330
45
100
AcDbEntity
  8
1
  6
Continuous
 62
     7
100
AcDbLine
 10
365.2605994417383
 20
170.7883178004301
 30
0.0
 11
365.2605994417383
 21
161.2883178004301
 31
0.0
  0
LINE
  5
BA
330
45
100
AcDbEntity
  8
1
  6
Continuous
 62
     2
100
AcDbLine
 10
365.2605994417383
 20
161.2883178004301
 30
0.0
 11
364.2605994417383
 21
161.2883178004301
 31
0.0
  0
LINE
  5
BB
330
45
100
AcDbEntity
  8
1
  6
Continuous
 62
     2
100
AcDbLine
 10
352.9926502493072
 20
161.2883178004301
 30
0.0
 11
351.2605994417383
 21
160.2883178004301
 31
0.0
  0
LINE
  5
BC
330
45
100
AcDbEntity
  8
1
  6
Continuous
 62
     7
100
AcDbLine
 10
364.2605994417383
 20
160.2883178004301
 30
0.0
 11
352.9926502493072
 21
160.2883178004301
 31
0.0
  0
LINE
  5
BD
330
45
100
AcDbEntity
  8
1
  6
Continuous
 62
     7
100
AcDbLine
 10
351.2605994417383
 20
181.2883178004301
 30
0.0
 11
351.2605994417383
 21
147.7883178004301
 31
0.0
  0
LINE
  5
BE
330
45
100
AcDbEntity
  8
1
  6
Continuous
 62
     7
100
AcDbLine
 10
351.2605994417383
 20
147.7883178004301
 30
0.0
 11
348.7605994417383
 21
147.7883178004301
 31
0.0
  0
LINE
  5
BF
330
45
100
AcDbEntity
  8
1
  6
Continuous
 62
     7
100
AcDbLine
 10
274.2605994417384
 20
190.78831780043
 30
0.0
 11
274.2605994417384
 21
188.7883178004301
 31
0.0
  0
LINE
  5
C0
330
45
100
AcDbEntity
  8
1
  6
Continuous
 62
     7
100
AcDbLine
 10
340.7605994417383
 20
185.7883178004301
 30
0.0
 11
242.5916976456792
 21
185.7883178004301
 31
0.0
  0
LINE
  5
C1
330
45
100
AcDbEntity
  8
1
  6
Continuous
 62
     7
100
AcDbLine
 10
246.2605994417383
 20
188.7883178004301
 30
0.0
 11
246.2605994417383
 21
190.78831780043
 31
0.0
  0
LINE
  5
C2
330
45
100
AcDbEntity
  8
1
  6
Continuous
 62
     7
100
AcDbLine
 10
265.8585337760691
 20
155.7883178004301
 30
0.0
 11
224.8235366995574
 21
155.7883178004301
 31
0.0
  0
LINE
  5
C3
330
45
100
AcDbEntity
  8
1
  6
DASH_CENTER
 62
     2
100
AcDbLine
 10
135.397583733613
 20
241.0661241453661
 30
0.0
 11
135.397583733613
 21
236.28831780043
 31
0.0
  0
LINE
  5
C4
330
45
100
AcDbEntity
  8
1
  6
DASH_CENTER
 62
     2
100
AcDbLine
 10
110.397583733613
 20
365.6513335085554
 30
0.0
 11
115.397583733613
 21
365.6513335085553
 31
0.0
  0
LINE
  5
C5
330
45
100
AcDbEntity
  8
1
  6
Continuous
 62
     7
100
AcDbLine
 10
149.3975837336131
 20
185.7883178004301
 30
0.0
 11
121.3975837336131
 21
185.7883178004301
 31
0.0
  0
LINE
  5
C6
330
45
100
AcDbEntity
  8
1
  6
Continuous
 62
     7
100
AcDbLine
 10
119.147583733613
 20
185.7883178004301
 30
0.0
 11
121.3975837336131
 21
185.7883178004301
 31
0.0
  0
LINE
  5
C7
330
45
100
AcDbEntity
  8
1
  6
Continuous
 62
     7
100
AcDbLine
 10
151.647583733613
 20
185.7883178004301
 30
0.0
 11
149.3975837336131
 21
185.7883178004301
 31
0.0
  0
LINE
  5
C8
330
45
100
AcDbEntity
  8
1
  6
Continuous
 62
     7
100
AcDbLine
 10
119.147583733613
 20
155.7883178004301
 30
0.0
 11
151.647583733613
 21
155.7883178004301
 31
0.0
  0
LINE
  5
C9
330
45
100
AcDbEntity
  8
1
  6
Continuous
 62
     7
100
AcDbLine
 10
148.647583733613
 20
151.7883178004301
 30
0.0
 11
148.647583733613
 21
152.7883178004301
 31
0.0
  0
LINE
  5
CA
330
45
100
AcDbEntity
  8
1
  6
Continuous
 62
     7
100
AcDbLine
 10
119.1427137269479
 20
155.7883178004301
 30
0.0
 11
119.147583733613
 21
155.7883178004301
 31
0.0
  0
LINE
  5
CB
330
45
100
AcDbEntity
  8
1
  6
Continuous
 62
     7
100
AcDbLine
 10
122.147583733613
 20
151.7883178004301
 30
0.0
 11
122.147583733613
 21
152.7883178004301
 31
0.0
  0
LINE
  5
CC
330
45
100
AcDbEntity
  8
1
  6
Continuous
 62
     7
100
AcDbLine
 10
151.6524537402782
 20
155.7883178004301
 30
0.0
 11
151.647583733613
 21
155.7883178004301
 31
0.0
  0
LINE
  5
CD
330
45
100
AcDbEntity
  8
1
  6
DASH_CENTER
 62
     2
100
AcDbLine
 10
135.3975837336131
 20
148.7630515282407
 30
0.0
 11
135.3975837336131
 21
148.7883178004301
 31
0.0
  0
LINE
  5
CE
330
45
100
AcDbEntity
  8
1
  6
Continuous
 62
     7
100
AcDbLine
 10
122.147583733613
 20
151.7883178004301
 30
0.0
 11
148.647583733613
 21
151.7883178004301
 31
0.0
  0
LINE
  5
CF
330
45
100
AcDbEntity
  8
1
  6
Continuous
 62
     7
100
AcDbLine
 10
228.0105994417383
 20
151.7883178004301
 30
0.0
 11
228.0105994417383
 21
152.7935283962895
 31
0.0
  0
LINE
  5
D0
330
45
100
AcDbEntity
  8
1
  6
Continuous
 62
     7
100
AcDbLine
 10
254.5105994417383
 20
151.7883178004301
 30
0.0
 11
254.5105994417383
 21
152.7883178004301
 31
0.0
  0
LINE
  5
D1
330
45
100
AcDbEntity
  8
1
  6
Continuous
 62
     7
100
AcDbLine
 10
228.0105994417383
 20
151.7883178004301
 30
0.0
 11
254.5105994417383
 21
151.7883178004301
 31
0.0
  0
ARC
  5
D2
330
45
100
AcDbEntity
  8
1
  6
Continuous
 62
     7
100
AcDbCircle
 10
225.0518116008026
 20
158.7796202875521
 30
0.0
 40
3.00000000000008
100
AcDbArc
 50
158.4978872813915
 51
-94.36394756238923
  0
ARC
  5
D3
330
45
100
AcDbEntity
  8
0
  6
Continuous
 62
     7
100
AcDbCircle
 10
135.3975837336115
 20
170.7883178004316
 30
0.0
 40
22.99999999999795
100
AcDbArc
 50
127.4952497645575
 51
140.6701034720422
  0
ARC
  5
D4
330
45
100
AcDbEntity
  8
0
  6
Continuous
 62
     7
100
AcDbCircle
 10
135.397583733613
 20
170.7883178004301
 30
0.0
 40
23.00000000000006
100
AcDbArc
 50
39.32989652795835
 51
52.50475023544092
  0
ARC
  5
D5
330
45
100
AcDbEntity
  8
0
  6
Continuous
 62
     7
100
AcDbCircle
 10
152.3975837336131
 20
188.7418697900437
 30
0.0
 40
2.999999999999886
100
AcDbArc
 50
180.0
 51
-97.133885418257
  0
ARC
  5
D6
330
45
100
AcDbEntity
  8
0
  6
Continuous
 62
     7
100
AcDbCircle
 10
118.3975837336131
 20
188.7418697900438
 30
0.0
 40
3.000000000000064
100
AcDbArc
 50
-82.8661145817449
 51
0.0
  0
ARC
  5
D7
330
45
100
AcDbEntity
  8
1
  6
Continuous
 62
     7
100
AcDbCircle
 10
135.397583733613
 20
347.6513335085554
 30
0.0
 40
20.00000000000013
100
AcDbArc
 50
-177.1340160174012
 51
-102.6610808468906
  0
ARC
  5
D8
330
45
100
AcDbEntity
  8
1
  6
Continuous
 62
     7
100
AcDbCircle
 10
352.0256510662212
 20
84.63940115459718
 30
0.0
 40
150.0000000000001
100
AcDbArc
 50
138.1117650681175
 51
149.8941652186491
  0
ARC
  5
D9
330
45
100
AcDbEntity
  8
1
  6
Continuous
 62
     7
100
AcDbCircle
 10
135.397583733613
 20
347.6513335085554
 30
0.0
 40
20.00000000000007
100
AcDbArc
 50
-77.33891915310851
 51
0.0
  0
ARC
  5
DA
330
45
100
AcDbEntity
  8
1
  6
Continuous
 62
     7
100
AcDbCircle
 10
163.397583733613
 20
447.906335510157
 30
0.0
 40
7.999999999999993
100
AcDbArc
 50
128.6821874534895
 51
180.0
  0
ARC
  5
DB
330
45
100
AcDbEntity
  8
1
  6
Continuous
 62
     7
100
AcDbCircle
 10
107.397583733613
 20
447.906335510157
 30
0.0
 40
8.0
100
AcDbArc
 50
0.0
 51
51.31781254651052
  0
ARC
  5
DC
330
45
100
AcDbEntity
  8
1
  6
Continuous
 62
     7
100
AcDbCircle
 10
135.397583733613
 20
347.6513335085554
 30
0.0
 40
20.0
100
AcDbArc
 50
180.0
 51
-177.1340160174012
  0
ARC
  5
DD
330
45
100
AcDbEntity
  8
1
  6
Continuous
 62
     7
100
AcDbCircle
 10
135.397583733613
 20
170.7883178004301
 30
0.0
 40
23.00000000000005
100
AcDbArc
 50
-54.82421198737274
 51
-39.32989652795813
  0
ARC
  5
DE
330
45
100
AcDbEntity
  8
1
  6
Continuous
 62
     7
100
AcDbCircle
 10
55.3975837336082
 20
170.7883178004301
 30
0.0
 40
100.0000000000049
100
AcDbArc
 50
-7.10634339789092
 51
0.0
  0
ARC
  5
DF
330
45
100
AcDbEntity
  8
1
  6
Continuous
 62
     7
100
AcDbCircle
 10
135.397583733613
 20
170.7883178004301
 30
0.0
 40
23.00000000000005
100
AcDbArc
 50
-33.4350591067357
 51
33.43505910673576
  0
ARC
  5
E0
330
45
100
AcDbEntity
  8
1
  6
Continuous
 62
     7
100
AcDbCircle
 10
135.397583733613
 20
170.7883178004301
 30
0.0
 40
22.99999999999998
100
AcDbArc
 50
146.5649408932641
 51
-146.5649408932642
  0
ARC
  5
E1
330
45
100
AcDbEntity
  8
1
  6
Continuous
 62
     7
100
AcDbCircle
 10
215.3975837336179
 20
170.7883178004301
 30
0.0
 40
100.0000000000048
100
AcDbArc
 50
180.0
 51
-172.8936566021091
  0
ARC
  5
E2
330
45
100
AcDbEntity
  8
1
  6
Continuous
 62
     7
100
AcDbCircle
 10
215.3975837336179
 20
170.7883178004301
 30
0.0
 40
100.0000000000049
100
AcDbArc
 50
172.8936566021091
 51
180.0
  0
ARC
  5
E3
330
45
100
AcDbEntity
  8
1
  6
Continuous
 62
     7
100
AcDbCircle
 10
55.3975837336082
 20
170.7883178004301
 30
0.0
 40
100.0000000000048
100
AcDbArc
 50
0.0
 51
7.10634339789093
  0
ARC
  5
E4
330
45
100
AcDbEntity
  8
1
  6
Continuous
 62
     7
100
AcDbCircle
 10
135.397583733613
 20
170.7883178004301
 30
0.0
 40
23.00000000000007
100
AcDbArc
 50
-140.6701034720418
 51
-125.1757880126273
  0
ARC
  5
E5
330
45
100
AcDbEntity
  8
1
  6
Continuous
 62
     7
100
AcDbCircle
 10
135.397583733613
 20
170.7883178004301
 30
0.0
 40
23.0000000000001
100
AcDbArc
 50
-58.55101861062059
 51
-55.6988472432081
  0
ARC
  5
E6
330
45
100
AcDbEntity
  8
1
  6
Continuous
 62
     7
100
AcDbCircle
 10
225.0518116008026
 20
158.7796202875521
 30
0.0
 40
3.000000000000128
100
AcDbArc
 50
-94.36394756238923
 51
-86.51247950672538
  0
ARC
  5
E7
330
45
100
AcDbEntity
  8
1
  6
Continuous
 62
     7
100
AcDbCircle
 10
225.0105994417383
 20
152.7935283962895
 30
0.0
 40
3.0
100
AcDbArc
 50
0.0
 51
85.7235689734671
  0
ARC
  5
E8
330
45
100
AcDbEntity
  8
1
  6
Continuous
 62
     7
100
AcDbCircle
 10
135.397583733613
 20
170.7883178004301
 30
0.0
 40
23.00000000000005
100
AcDbArc
 50
-124.3011527567917
 51
-121.4489813893794
  0
ARC
  5
E9
330
45
100
AcDbEntity
  8
1
  6
Continuous
 62
     7
100
AcDbCircle
 10
146.397583733613
 20
446.1513335085554
 30
0.0
 40
8.0
100
AcDbArc
 50
0.0
 51
90.0
  0
ARC
  5
EA
330
45
100
AcDbEntity
  8
1
  6
Continuous
 62
     7
100
AcDbCircle
 10
124.397583733613
 20
446.1513335085554
 30
0.0
 40
8.0
100
AcDbArc
 50
90.0
 51
180.0
  0
ARC
  5
EB
330
45
100
AcDbEntity
  8
1
  6
Continuous
 62
     7
100
AcDbCircle
 10
340.7605994417383
 20
193.78831780043
 30
0.0
 40
7.999999999999915
100
AcDbArc
 50
-90.0
 51
0.0
  0
ARC
  5
EC
330
45
100
AcDbEntity
  8
1
  6
Continuous
 62
     7
100
AcDbCircle
 10
340.7605994417383
 20
147.7883178004301
 30
0.0
 40
8.0
100
AcDbArc
 50
0.0
 51
90.0
  0
ARC
  5
ED
330
45
100
AcDbEntity
  8
1
  6
Continuous
 62
     7
100
AcDbCircle
 10
277.2605994417384
 20
188.7883178004301
 30
0.0
 40
3.0
100
AcDbArc
 50
180.0
 51
-90.0
  0
ARC
  5
EE
330
45
100
AcDbEntity
  8
1
  6
Continuous
 62
     7
100
AcDbCircle
 10
243.2605994417383
 20
188.7883178004301
 30
0.0
 40
3.0
100
AcDbArc
 50
-90.0
 51
0.0
  0
ARC
  5
EF
330
45
100
AcDbEntity
  8
1
  6
Continuous
 62
     7
100
AcDbCircle
 10
242.5916976456792
 20
182.7883178004301
 30
0.0
 40
3.0
100
AcDbArc
 50
90.0
 51
138.111765068117
  0
ARC
  5
F0
330
45
100
AcDbEntity
  8
1
  6
Continuous
 62
     7
100
AcDbCircle
 10
151.6524537402782
 20
182.7883178004301
 30
0.0
 40
3.000000000000035
100
AcDbArc
 50
7.10634339789038
 51
82.86611458174416
  0
ARC
  5
F1
330
45
100
AcDbEntity
  8
1
  6
Continuous
 62
     7
100
AcDbCircle
 10
119.1427137269479
 20
182.7883178004301
 30
0.0
 40
2.999999999999981
100
AcDbArc
 50
97.13388541825559
 51
172.8936566021096
  0
ARC
  5
F2
330
45
100
AcDbEntity
  8
1
  6
Continuous
 62
     7
100
AcDbCircle
 10
119.147583733613
 20
152.7883178004301
 30
0.0
 40
3.0
100
AcDbArc
 50
0.0
 51
90.0
  0
ARC
  5
F3
330
45
100
AcDbEntity
  8
1
  6
Continuous
 62
     7
100
AcDbCircle
 10
151.647583733613
 20
152.7883178004301
 30
0.0
 40
3.0
100
AcDbArc
 50
90.0
 51
180.0
  0
ARC
  5
F4
330
45
100
AcDbEntity
  8
1
  6
Continuous
 62
     7
100
AcDbCircle
 10
119.1427137269479
 20
158.7883178004301
 30
0.0
 40
3.000000000000018
100
AcDbArc
 50
-172.8936566021101
 51
-90.0
  0
ARC
  5
F5
330
45
100
AcDbEntity
  8
1
  6
Continuous
 62
     7
100
AcDbCircle
 10
151.6524537402782
 20
158.7883178004301
 30
0.0
 40
3.0
100
AcDbArc
 50
-90.0
 51
-7.10634339788984
  0
ARC
  5
F6
330
45
100
AcDbEntity
  8
1
  6
Continuous
 62
     7
100
AcDbCircle
 10
257.5105994417383
 20
152.7883178004301
 30
0.0
 40
3.0
100
AcDbArc
 50
90.0
 51
180.0
  0
ENDBLK
  5
47
330
45
100
AcDbEntity
  8
0
100
AcDbBlockEnd
  0
BLOCK
  5
49
330
48
100
AcDbEntity
  8
0
100
AcDbBlockBegin
  2
30-205-M11
 70
     0
 71
     0
 10
480.652144469526
 20
437.5984198645594
 30
0.0
  3
30-205-M11
  1

  0
LINE
  5
F7
330
48
100
AcDbEntity
  8
1
  6
Continuous
 62
     7
100
AcDbLine
 10
229.2605994417383
 20
148.6883178004301
 30
0.0
 11
230.2605994417383
 21
148.6883178004301
 31
0.0
  0
LINE
  5
F8
330
48
100
AcDbEntity
  8
1
  6
Continuous
 62
     7
100
AcDbLine
 10
230.2605994417383
 20
143.6883178004301
 30
0.0
 11
230.2605994417383
 21
148.6883178004301
 31
0.0
  0
LINE
  5
F9
330
48
100
AcDbEntity
  8
1
  6
Continuous
 62
     7
100
AcDbLine
 10
229.2605994417383
 20
151.7883178004301
 30
0.0
 11
229.2605994417383
 21
148.6883178004301
 31
0.0
  0
LINE
  5
FA
330
48
100
AcDbEntity
  8
1
  6
Continuous
 62
     7
100
AcDbLine
 10
230.2605994417383
 20
143.6883178004301
 30
0.0
 11
252.2605994417383
 21
143.6883178004301
 31
0.0
  0
LINE
  5
FB
330
48
100
AcDbEntity
  8
1
  6
Continuous
 62
     7
100
AcDbLine
 10
253.2605994417383
 20
148.6883178004301
 30
0.0
 11
253.2605994417383
 21
151.7883178004301
 31
0.0
  0
LINE
  5
FC
330
48
100
AcDbEntity
  8
1
  6
Continuous
 62
     7
100
AcDbLine
 10
252.2605994417383
 20
148.6883178004301
 30
0.0
 11
252.2605994417383
 21
143.6883178004301
 31
0.0
  0
LINE
  5
FD
330
48
100
AcDbEntity
  8
1
  6
Continuous
 62
     7
100
AcDbLine
 10
252.2605994417383
 20
148.6883178004301
 30
0.0
 11
253.2605994417383
 21
148.6883178004301
 31
0.0
  0
LINE
  5
FE
330
48
100
AcDbEntity
  8
1
  6
Continuous
 62
     7
100
AcDbLine
 10
124.397583733613
 20
143.6883178004301
 30
0.0
 11
124.397583733613
 21
148.6883178004301
 31
0.0
  0
LINE
  5
FF
330
48
100
AcDbEntity
  8
1
  6
Continuous
 62
     7
100
AcDbLine
 10
123.397583733613
 20
151.3222923966457
 30
0.0
 11
123.397583733613
 21
148.6883178004301
 31
0.0
  0
LINE
  5
100
330
48
100
AcDbEntity
  8
1
  6
Continuous
 62
     2
100
AcDbLine
 10
123.397583733613
 20
151.2512783135354
 30
0.0
 11
123.7076436259371
 21
151.7883178004301
 31
0.0
  0
LINE
  5
101
330
48
100
AcDbEntity
  8
1
  6
Continuous
 62
     7
100
AcDbLine
 10
147.397583733613
 20
148.6883178004301
 30
0.0
 11
147.397583733613
 21
151.3222923966457
 31
0.0
  0
LINE
  5
102
330
48
100
AcDbEntity
  8
1
  6
Continuous
 62
     7
100
AcDbLine
 10
123.397583733613
 20
148.6883178004301
 30
0.0
 11
147.397583733613
 21
148.6883178004301
 31
0.0
  0
LINE
  5
103
330
48
100
AcDbEntity
  8
1
  6
Continuous
 62
     7
100
AcDbLine
 10
147.397583733613
 20
151.3222923966457
 30
0.0
 11
147.397583733613
 21
151.7883178004301
 31
0.0
  0
LINE
  5
104
330
48
100
AcDbEntity
  8
1
  6
Continuous
 62
     7
100
AcDbLine
 10
124.397583733613
 20
143.6883178004301
 30
0.0
 11
146.397583733613
 21
143.6883178004301
 31
0.0
  0
LINE
  5
105
330
48
100
AcDbEntity
  8
1
  6
Continuous
 62
     7
100
AcDbLine
 10
146.397583733613
 20
148.6883178004301
 30
0.0
 11
146.397583733613
 21
143.6883178004301
 31
0.0
  0
LINE
  5
106
330
48
100
AcDbEntity
  8
1
  6
Continuous
 62
     7
100
AcDbLine
 10
123.397583733613
 20
151.7883178004301
 30
0.0
 11
123.397583733613
 21
151.3222923966457
 31
0.0
  0
LINE
  5
107
330
48
100
AcDbEntity
  8
1
  6
Continuous
 62
     2
100
AcDbLine
 10
147.0875238412888
 20
151.7883178004301
 30
0.0
 11
147.397583733613
 21
151.2512783135354
 31
0.0
  0
LINE
  5
108
330
48
100
AcDbEntity
  8
1
  6
Continuous
 62
     7
100
AcDbLine
 10
230.2605994417383
 20
148.6883178004301
 30
0.0
 11
252.2605994417383
 21
148.6883178004301
 31
0.0
  0
ENDBLK
  5
4A
330
48
100
AcDbEntity
  8
0
100
AcDbBlockEnd
  0
BLOCK
  5
4C
330
4B
100
AcDbEntity
  8
0
100
AcDbBlockBegin
  2
_J__A4
 70
     0
 71
     0
 10
0.0
 20
0.0
 30
0.0
  3
_J__A4
  1

  0
POINT
  5
109
330
4B
100
AcDbEntity
  8
1
 62
     4
100
AcDbPoint
 10
93.75
 20
17.0
 30
0.0
  0
POINT
  5
10A
330
4B
100
AcDbEntity
  8
1
 62
     4
100
AcDbPoint
 10
85.25
 20
17.0
 30
0.0
  0
POINT
  5
10B
330
4B
100
AcDbEntity
  8
1
 62
     4
100
AcDbPoint
 10
106.5
 20
19.00000000000001
 30
0.0
  0
POINT
  5
10C
330
4B
100
AcDbEntity
  8
1
 62
     4
100
AcDbPoint
 10
106.5
 20
12.5
 30
0.0
  0
POINT
  5
10D
330
4B
100
AcDbEntity
  8
1
 62
     4
100
AcDbPoint
 10
112.25
 20
12.5
 30
0.0
  0
POINT
  5
10E
330
4B
100
AcDbEntity
  8
1
 62
     4
100
AcDbPoint
 10
100.75
 20
12.5
 30
0.0
  0
POINT
  5
10F
330
4B
100
AcDbEntity
  8
1
 62
     4
100
AcDbPoint
 10
123.5
 20
19.00000000000001
 30
0.0
  0
POINT
  5
110
330
4B
100
AcDbEntity
  8
1
 62
     4
100
AcDbPoint
 10
123.5
 20
12.5
 30
0.0
  0
POINT
  5
111
330
4B
100
AcDbEntity
  8
1
 62
     4
100
AcDbPoint
 10
129.25
 20
12.5
 30
0.0
  0
POINT
  5
112
330
4B
100
AcDbEntity
  8
1
 62
     4
100
AcDbPoint
 10
117.75
 20
12.5
 30
0.0
  0
POINT
  5
113
330
4B
100
AcDbEntity
  8
1
 62
     4
100
AcDbPoint
 10
140.5
 20
19.00000000000001
 30
0.0
  0
POINT
  5
114
330
4B
100
AcDbEntity
  8
1
 62
     4
100
AcDbPoint
 10
140.5
 20
12.5
 30
0.0
  0
POINT
  5
115
330
4B
100
AcDbEntity
  8
1
 62
     4
100
AcDbPoint
 10
146.25
 20
12.5
 30
0.0
  0
POINT
  5
116
330
4B
100
AcDbEntity
  8
1
 62
     4
100
AcDbPoint
 10
134.75
 20
12.5
 30
0.0
  0
POINT
  5
117
330
4B
100
AcDbEntity
  8
1
 62
     4
100
AcDbPoint
 10
151.75
 20
12.5
 30
0.0
  0
POINT
  5
118
330
4B
100
AcDbEntity
  8
1
 62
     4
100
AcDbPoint
 10
163.25
 20
12.5
 30
0.0
  0
POINT
  5
119
330
4B
100
AcDbEntity
  8
1
 62
     4
100
AcDbPoint
 10
157.5
 20
12.5
 30
0.0
  0
POINT
  5
11A
330
4B
100
AcDbEntity
  8
1
 62
     4
100
AcDbPoint
 10
57.0
 20
14.25
 30
0.0
  0
POINT
  5
11B
330
4B
100
AcDbEntity
  8
1
 62
     4
100
AcDbPoint
 10
57.0
 20
22.75000000000001
 30
0.0
  0
POINT
  5
11C
330
4B
100
AcDbEntity
  8
1
 62
     4
100
AcDbPoint
 10
47.5
 20
282.0000000000003
 30
0.0
  0
POINT
  5
11D
330
4B
100
AcDbEntity
  8
1
 62
     4
100
AcDbPoint
 10
157.5
 20
19.00000000000001
 30
0.0
  0
POINT
  5
11E
330
4B
100
AcDbEntity
  8
1
 62
     4
100
AcDbPoint
 10
57.0
 20
16.25
 30
0.0
  0
POINT
  5
11F
330
4B
100
AcDbEntity
  8
1
 62
     4
100
AcDbPoint
 10
57.0
 20
24.75000000000001
 30
0.0
  0
POINT
  5
120
330
4B
100
AcDbEntity
  8
1
 62
     4
100
AcDbPoint
 10
57.0
 20
20.75000000000001
 30
0.0
  0
POINT
  5
121
330
4B
100
AcDbEntity
  8
1
 62
     4
100
AcDbPoint
 10
57.0
 20
12.25
 30
0.0
  0
POINT
  5
122
330
4B
100
AcDbEntity
  8
1
 62
     4
100
AcDbPoint
 10
34.0
 20
34.00000000000001
 30
0.0
  0
LINE
  5
123
330
4B
100
AcDbEntity
  8
1
  6
Continuous
 62
     7
100
AcDbLine
 10
105.0
 20
10.0
 30
0.0
 11
200.0
 21
10.0
 31
0.0
  0
LINE
  5
124
330
4B
100
AcDbEntity
  8
1
  6
Continuous
 62
     2
100
AcDbLine
 10
105.0
 20
10.0
 30
0.0
 11
105.0
 21
5.0
 31
0.0
  0
LINE
  5
125
330
4B
100
AcDbEntity
  8
1
  6
Continuous
 62
     7
100
AcDbLine
 10
200.0
 20
148.5
 30
0.0
 11
200.0
 21
287.0000000000003
 31
0.0
  0
LINE
  5
126
330
4B
100
AcDbEntity
  8
1
  6
Continuous
 62
     2
100
AcDbLine
 10
200.0
 20
148.5
 30
0.0
 11
205.0
 21
148.5
 31
0.0
  0
LINE
  5
127
330
4B
100
AcDbEntity
  8
1
  6
Continuous
 62
     7
100
AcDbLine
 10
25.0
 20
148.5
 30
0.0
 11
25.0
 21
287.0000000000003
 31
0.0
  0
LINE
  5
128
330
4B
100
AcDbEntity
  8
1
  6
Continuous
 62
     2
100
AcDbLine
 10
25.0
 20
148.5
 30
0.0
 11
20.0
 21
148.5
 31
0.0
  0
LINE
  5
129
330
4B
100
AcDbEntity
  8
1
  6
Continuous
 62
     7
100
AcDbLine
 10
105.0
 20
287.0000000000003
 30
0.0
 11
25.0
 21
287.0000000000003
 31
0.0
  0
LINE
  5
12A
330
4B
100
AcDbEntity
  8
1
  6
Continuous
 62
     2
100
AcDbLine
 10
105.0
 20
287.0000000000003
 30
0.0
 11
105.0
 21
292.0000000000003
 31
0.0
  0
LINE
  5
12B
330
4B
100
AcDbEntity
  8
1
  6
Continuous
 62
     2
100
AcDbLine
 10
166.0
 20
20.00000000000001
 30
0.0
 11
200.0
 21
20.00000000000001
 31
0.0
  0
LINE
  5
12C
330
4B
100
AcDbEntity
  8
1
  6
Continuous
 62
     2
100
AcDbLine
 10
98.0
 20
27.00000000000001
 30
0.0
 11
98.0
 21
9.99999999999999
 31
0.0
  0
LINE
  5
12D
330
4B
100
AcDbEntity
  8
1
  6
Continuous
 62
     2
100
AcDbLine
 10
115.0
 20
27.00000000000001
 30
0.0
 11
115.0
 21
9.99999999999999
 31
0.0
  0
LINE
  5
12E
330
4B
100
AcDbEntity
  8
1
  6
Continuous
 62
     2
100
AcDbLine
 10
149.0
 20
27.00000000000001
 30
0.0
 11
149.0
 21
10.0
 31
0.0
  0
LINE
  5
12F
330
4B
100
AcDbEntity
  8
1
  6
Continuous
 62
     2
100
AcDbLine
 10
132.0
 20
27.00000000000001
 30
0.0
 11
132.0
 21
9.99999999999999
 31
0.0
  0
LINE
  5
130
330
4B
100
AcDbEntity
  8
1
  6
Continuous
 62
     2
100
AcDbLine
 10
166.0
 20
27.00000000000001
 30
0.0
 11
166.0
 21
10.0
 31
0.0
  0
LINE
  5
131
330
4B
100
AcDbEntity
  8
1
  6
Continuous
 62
     2
100
AcDbLine
 10
55.0
 20
277.0000000000003
 30
0.0
 11
25.0
 21
277.0000000000003
 31
0.0
  0
LINE
  5
132
330
4B
100
AcDbEntity
  8
1
  6
Continuous
 62
     7
100
AcDbLine
 10
25.0
 20
10.0
 30
0.0
 11
25.0
 21
148.5
 31
0.0
  0
LINE
  5
133
330
4B
100
AcDbEntity
  8
1
  6
Continuous
 62
     2
100
AcDbLine
 10
40.0
 20
287.0000000000003
 30
0.0
 11
40.0
 21
277.0000000000003
 31
0.0
  0
LINE
  5
134
330
4B
100
AcDbEntity
  8
1
  6
Continuous
 62
     2
100
AcDbLine
 10
55.0
 20
287.0000000000003
 30
0.0
 11
55.0
 21
277.0000000000003
 31
0.0
  0
LINE
  5
135
330
4B
100
AcDbEntity
  8
1
  6
Continuous
 62
     2
100
AcDbLine
 10
33.0
 20
41.00000000000001
 30
0.0
 11
33.0
 21
27.0
 31
0.0
  0
LINE
  5
136
330
4B
100
AcDbEntity
  8
1
  6
Continuous
 62
     7
100
AcDbLine
 10
200.0
 20
27.00000000000001
 30
0.0
 11
25.0
 21
27.00000000000001
 31
0.0
  0
LINE
  5
137
330
4B
100
AcDbEntity
  8
1
  6
Continuous
 62
     7
100
AcDbLine
 10
25.0
 20
41.0
 30
0.0
 11
200.0
 21
41.0
 31
0.0
  0
LINE
  5
138
330
4B
100
AcDbEntity
  8
1
  6
PHANTOM
 62
     4
100
AcDbLine
 10
0.0
 20
0.0
 30
0.0
 11
210.0
 21
0.0
 31
0.0
  0
LINE
  5
139
330
4B
100
AcDbEntity
  8
1
  6
PHANTOM
 62
     4
100
AcDbLine
 10
210.0
 20
0.0
 30
0.0
 11
210.0
 21
297.0
 31
0.0
  0
LINE
  5
13A
330
4B
100
AcDbEntity
  8
1
  6
PHANTOM
 62
     4
100
AcDbLine
 10
210.0
 20
297.0
 30
0.0
 11
0.0
 21
297.0
 31
0.0
  0
LINE
  5
13B
330
4B
100
AcDbEntity
  8
1
  6
PHANTOM
 62
     4
100
AcDbLine
 10
0.0
 20
297.0
 30
0.0
 11
0.0
 21
0.0
 31
0.0
  0
LINE
  5
13C
330
4B
100
AcDbEntity
  8
1
  6
Continuous
 62
     7
100
AcDbLine
 10
25.0
 20
10.0
 30
0.0
 11
105.0
 21
10.0
 31
0.0
  0
LINE
  5
13D
330
4B
100
AcDbEntity
  8
1
  6
Continuous
 62
     7
100
AcDbLine
 10
200.0
 20
10.0
 30
0.0
 11
200.0
 21
148.5
 31
0.0
  0
LINE
  5
13E
330
4B
100
AcDbEntity
  8
1
  6
Continuous
 62
     7
100
AcDbLine
 10
200.0
 20
287.0000000000003
 30
0.0
 11
105.0
 21
287.0000000000003
 31
0.0
  0
LINE
  5
13F
330
4B
100
AcDbEntity
  8
1
  6
Continuous
 62
     2
100
AcDbLine
 10
25.0
 20
18.50000000000001
 30
0.0
 11
81.0
 21
18.50000000000001
 31
0.0
  0
LINE
  5
140
330
4B
100
AcDbEntity
  8
1
  6
Continuous
 62
     2
100
AcDbLine
 10
33.0
 20
27.0
 30
0.0
 11
33.0
 21
10.0
 31
0.0
  0
LINE
  5
141
330
4B
100
AcDbEntity
  8
1
  6
Continuous
 62
     7
100
AcDbLine
 10
191.0
 20
24.70000000000001
 30
0.0
 11
191.0
 21
22.30000000000001
 31
0.0
  0
LINE
  5
142
330
4B
100
AcDbEntity
  8
1
  6
Continuous
 62
     7
100
AcDbLine
 10
191.0
 20
24.70000000000001
 30
0.0
 11
196.0
 21
25.50000000000001
 31
0.0
  0
LINE
  5
143
330
4B
100
AcDbEntity
  8
1
  6
Continuous
 62
     7
100
AcDbLine
 10
196.0
 20
25.50000000000001
 30
0.0
 11
196.0
 21
21.50000000000001
 31
0.0
  0
LINE
  5
144
330
4B
100
AcDbEntity
  8
1
  6
Continuous
 62
     7
100
AcDbLine
 10
196.0
 20
21.50000000000001
 30
0.0
 11
191.0
 21
22.30000000000001
 31
0.0
  0
LINE
  5
145
330
4B
100
AcDbEntity
  8
1
  6
DOT_CENTER
 62
     2
100
AcDbLine
 10
184.0
 20
23.50000000000001
 30
0.0
 11
197.0
 21
23.50000000000001
 31
0.0
  0
LINE
  5
146
330
4B
100
AcDbEntity
  8
1
  6
DOT_CENTER
 62
     2
100
AcDbLine
 10
187.0
 20
26.50000000000001
 30
0.0
 11
187.0
 21
20.50000000000001
 31
0.0
  0
LINE
  5
147
330
4B
100
AcDbEntity
  8
1
  6
Continuous
 62
     2
100
AcDbLine
 10
81.0
 20
27.00000000000001
 30
0.0
 11
81.0
 21
10.0
 31
0.0
  0
CIRCLE
  5
148
330
4B
100
AcDbEntity
  8
1
  6
Continuous
 62
     7
100
AcDbCircle
 10
103.5
 20
12.5
 30
0.0
 40
0.2999999999999972
  0
CIRCLE
  5
149
330
4B
100
AcDbEntity
  8
1
  6
Continuous
 62
     7
100
AcDbCircle
 10
109.5
 20
12.5
 30
0.0
 40
0.2999999999999972
  0
CIRCLE
  5
14A
330
4B
100
AcDbEntity
  8
1
  6
Continuous
 62
     7
100
AcDbCircle
 10
120.5
 20
12.5
 30
0.0
 40
0.2999999999999972
  0
CIRCLE
  5
14B
330
4B
100
AcDbEntity
  8
1
  6
Continuous
 62
     7
100
AcDbCircle
 10
126.5
 20
12.5
 30
0.0
 40
0.2999999999999972
  0
CIRCLE
  5
14C
330
4B
100
AcDbEntity
  8
1
  6
Continuous
 62
     7
100
AcDbCircle
 10
137.5
 20
12.5
 30
0.0
 40
0.3000000000000114
  0
CIRCLE
  5
14D
330
4B
100
AcDbEntity
  8
1
  6
Continuous
 62
     7
100
AcDbCircle
 10
143.5
 20
12.5
 30
0.0
 40
0.3000000000000114
  0
CIRCLE
  5
14E
330
4B
100
AcDbEntity
  8
1
  6
Continuous
 62
     7
100
AcDbCircle
 10
160.5
 20
12.5
 30
0.0
 40
0.3000000000000114
  0
CIRCLE
  5
14F
330
4B
100
AcDbEntity
  8
1
  6
Continuous
 62
     7
100
AcDbCircle
 10
154.5
 20
12.5
 30
0.0
 40
0.3000000000000114
  0
CIRCLE
  5
150
330
4B
100
AcDbEntity
  8
1
  6
Continuous
 62
     7
100
AcDbCircle
 10
187.0
 20
23.50000000000001
 30
0.0
 40
1.200000000000102
  0
CIRCLE
  5
151
330
4B
100
AcDbEntity
  8
1
  6
Continuous
 62
     7
100
AcDbCircle
 10
187.0
 20
23.50000000000001
 30
0.0
 40
2.0
  0
CIRCLE
  5
152
330
4B
100
AcDbEntity
  8
1
  6
DOT_CENTER
 62
     7
100
AcDbCircle
 10
89.5
 20
16.0
 30
0.0
 40
0.1000000000000227
  0
CIRCLE
  5
153
330
4B
100
AcDbEntity
  8
1
  6
DOT_CENTER
 62
     7
100
AcDbCircle
 10
89.5
 20
18.0
 30
0.0
 40
0.1000000000000227
  0
MTEXT
  5
155
330
4B
100
AcDbEntity
  8
1
 62
     7
100
AcDbMText
 10
188.5
 20
15.0
 30
0.0
 40
3.0
 41
0.0
 71
     5
 72
     1
  1
三栄水栓製作所
  7
CONVERTER_1
 73
     1
 44
1.32052821128451
  0
MTEXT
  5
156
330
4B
100
AcDbEntity
  8
1
 62
     7
100
AcDbMText
 10
171.5
 20
15.0
 30
0.0
 40
2.5
 41
0.0
 71
     5
 72
     1
  1
株式会社
  7
CONVERTER_1
 73
     1
 44
1.32052821128451
  0
MTEXT
  5
157
330
4B
100
AcDbEntity
  8
1
 62
     2
100
AcDbMText
 10
32.5
 20
282.0000000000003
 30
0.0
 40
5.0
 41
0.0
 71
     5
 72
     1
  1
図番
  7
CONVERTER_1
 73
     1
 44
0.60024009603842
  0
MTEXT
  5
158
330
4B
100
AcDbEntity
  8
1
 62
     2
100
AcDbMText
 10
29.0
 20
34.00000000000001
 30
0.0
 40
3.5
 41
0.0
 71
     5
 72
     1
  1
備考
  7
CONVERTER_1
 73
     1
 44
0.60024009603842
  0
MTEXT
  5
159
330
4B
100
AcDbEntity
  8
1
 62
     2
100
AcDbMText
 10
29.0
 20
22.75
 30
0.0
 40
3.5
 41
0.0
 71
     5
 72
     1
  1
品名
  7
CONVERTER_1
 73
     1
 44
0.96038415366146
  0
MTEXT
  5
15A
330
4B
100
AcDbEntity
  8
1
 62
     2
100
AcDbMText
 10
29.0
 20
14.25
 30
0.0
 40
3.5
 41
0.0
 71
     5
 72
     1
  1
品番
  7
CONVERTER_1
 73
     1
 44
0.96038415366146
  0
MTEXT
  5
15B
330
4B
100
AcDbEntity
  8
1
 62
     2
100
AcDbMText
 10
101.5
 20
25.00000000000001
 30
0.0
 40
3.0
 41
0.0
 71
     5
 72
     1
  1
承認
  7
CONVERTER_1
 73
     1
 44
0.78031212484994
  0
MTEXT
  5
15C
330
4B
100
AcDbEntity
  8
1
 62
     2
100
AcDbMText
 10
175.0
 20
23.50000000000001
 30
0.0
 40
3.5
 41
0.0
 71
     5
 72
     1
  1
第三角法
  7
CONVERTER_1
 73
     1
 44
0.7202881152461
  0
MTEXT
  5
15D
330
4B
100
AcDbEntity
  8
1
 62
     2
100
AcDbMText
 10
118.5
 20
25.00000000000001
 30
0.0
 40
3.0
 41
0.0
 71
     5
 72
     1
  1
検図
  7
CONVERTER_1
 73
     1
 44
0.78031212484994
  0
MTEXT
  5
15E
330
4B
100
AcDbEntity
  8
1
 62
     2
100
AcDbMText
 10
152.5
 20
25.00000000000001
 30
0.0
 40
3.0
 41
0.0
 71
     5
 72
     1
  1
設計
  7
CONVERTER_1
 73
     1
 44
0.78031212484994
  0
MTEXT
  5
15F
330
4B
100
AcDbEntity
  8
1
 62
     2
100
AcDbMText
 10
135.5
 20
25.00000000000001
 30
0.0
 40
3.0
 41
0.0
 71
     5
 72
     1
  1
製図
  7
CONVERTER_1
 73
     1
 44
0.78031212484994
  0
MTEXT
  5
160
330
4B
100
AcDbEntity
  8
1
 62
     2
100
AcDbMText
 10
89.5
 20
24.00000000000001
 30
0.0
 40
3.5
 41
0.0
 71
     5
 72
     1
  1
尺度
  7
CONVERTER_1
 73
     1
 44
0.7202881152461
  0
MTEXT
  5
161
330
4B
100
AcDbEntity
  8
1
 62
   250
100
AcDbMText
 10
25.0
 20
5.0
 30
0.0
 40
3.5
 41
0.0
 71
     4
 72
     1
  1
備考欄の文字列 原点位置=4
  7
CONVERTER_1
 73
     1
 44
0.7202881152461
  0
ENDBLK
  5
4D
330
4B
100
AcDbEntity
  8
0
100
AcDbBlockEnd
  0
BLOCK
  5
188
330
181
100
AcDbEntity
  8
0
100
AcDbBlockBegin
  2
*D08
 70
     1
 71
     0
 10
0.0
 20
0.0
 30
0.0
  3
*D08
  1

  0
LINE
  5
182
330
181
100
AcDbEntity
  8
1
  6
Continuous
 62
     2
100
AcDbLine
 10
365.2605994417383
 20
123.6883178004301
 30
0.0
 11
377.2605994417383
 21
123.6883178004301
 31
0.0
  0
LINE
  5
183
330
181
100
AcDbEntity
  8
1
  6
Continuous
 62
     2
100
AcDbLine
 10
351.2605994417383
 20
123.6883178004301
 30
0.0
 11
365.2605994417383
 21
123.6883178004301
 31
0.0
  0
LINE
  5
184
330
181
100
AcDbEntity
  8
1
  6
Continuous
 62
     2
100
AcDbLine
 10
351.2605994417383
 20
147.7883178004301
 30
0.0
 11
351.2605994417383
 21
121.6883178004301
 31
0.0
  0
LINE
  5
185
330
181
100
AcDbEntity
  8
1
  6
Continuous
 62
     2
100
AcDbLine
 10
365.2605994417383
 20
161.2883178004301
 30
0.0
 11
365.2605994417383
 21
121.6883178004301
 31
0.0
  0
SOLID
  5
186
330
181
100
AcDbEntity
  8
1
 62
     2
100
AcDbTrace
 10
371.2605994417383
 20
124.4782327859545
 30
0.0
 11
371.2605994417383
 21
122.8984028149057
 31
0.0
 12
365.2605994417383
 22
123.6883178004301
 32
0.0
 13
365.2605994417383
 23
123.6883178004301
 33
0.0
  0
MTEXT
  5
187
330
181
100
AcDbEntity
  8
1
 62
     7
100
AcDbMText
 10
354.0605994417383
 20
125.6883178004301
 30
0.0
 40
7.0
 41
0.0
 71
     7
 72
     1
  1
14
  7
CONVERTER_2
 11
0.9999999999970621
 21
2.424068405545307E-6
 31
0.0
 73
     1
 44
0.60024009603842
  0
ENDBLK
  5
189
330
181
100
AcDbEntity
  8
0
100
AcDbBlockEnd
  0
BLOCK
  5
18B
330
18A
100
AcDbEntity
  8
0
100
AcDbBlockBegin
  2
_None
 70
     0
 71
     0
 10
0.0
 20
0.0
 30
0.0
  3
_None
  1

  0
ENDBLK
  5
18C
330
18A
100
AcDbEntity
  8
0
100
AcDbBlockEnd
  0
BLOCK
  5
196
330
18F
100
AcDbEntity
  8
0
100
AcDbBlockBegin
  2
*D110
 70
     1
 71
     0
 10
0.0
 20
0.0
 30
0.0
  3
*D110
  1

  0
LINE
  5
190
330
18F
100
AcDbEntity
  8
1
  6
Continuous
 62
     2
100
AcDbLine
 10
112.397583733613
 20
490.6513335085554
 30
0.0
 11
158.397583733613
 21
490.6513335085554
 31
0.0
  0
LINE
  5
191
330
18F
100
AcDbEntity
  8
1
  6
Continuous
 62
     2
100
AcDbLine
 10
158.397583733613
 20
456.6513335085554
 30
0.0
 11
158.397583733613
 21
492.6513335085554
 31
0.0
  0
LINE
  5
192
330
18F
100
AcDbEntity
  8
1
  6
Continuous
 62
     2
100
AcDbLine
 10
112.397583733613
 20
456.6513335085554
 30
0.0
 11
112.397583733613
 21
492.6513335085554
 31
0.0
  0
SOLID
  5
193
330
18F
100
AcDbEntity
  8
1
 62
     2
100
AcDbTrace
 10
119.397583733613
 20
491.5729009916672
 30
0.0
 11
119.397583733613
 21
489.7297660254437
 31
0.0
 12
112.397583733613
 22
490.6513335085554
 32
0.0
 13
112.397583733613
 23
490.6513335085554
 33
0.0
  0
SOLID
  5
194
330
18F
100
AcDbEntity
  8
1
 62
     2
100
AcDbTrace
 10
151.397583733613
 20
489.7297660254437
 30
0.0
 11
151.397583733613
 21
491.5729009916672
 31
0.0
 12
158.397583733613
 22
490.6513335085554
 32
0.0
 13
158.397583733613
 23
490.6513335085554
 33
0.0
  0
MTEXT
  5
195
330
18F
100
AcDbEntity
  8
1
 62
     7
100
AcDbMText
 10
130.147583733613
 20
492.6513335085554
 30
0.0
 40
7.0
 41
0.0
 71
     7
 72
     1
  1
46
  7
CONVERTER_2
 11
0.9999999999970621
 21
2.424068405545307E-6
 31
0.0
 73
     1
 44
0.60024009603842
  0
ENDBLK
  5
197
330
18F
100
AcDbEntity
  8
0
100
AcDbBlockEnd
  0
BLOCK
  5
1A1
330
19A
100
AcDbEntity
  8
0
100
AcDbBlockBegin
  2
*D211
 70
     1
 71
     0
 10
0.0
 20
0.0
 30
0.0
  3
*D211
  1

  0
LINE
  5
19B
330
19A
100
AcDbEntity
  8
1
  6
Continuous
 62
     2
100
AcDbLine
 10
92.397583733613
 20
365.6513335085555
 30
0.0
 11
92.397583733613
 21
305.6513335085555
 31
0.0
  0
LINE
  5
19C
330
19A
100
AcDbEntity
  8
1
  6
Continuous
 62
     2
100
AcDbLine
 10
110.397583733613
 20
365.6513335085555
 30
0.0
 11
90.397583733613
 21
365.6513335085555
 31
0.0
  0
LINE
  5
19D
330
19A
100
AcDbEntity
  8
1
  6
Continuous
 62
     2
100
AcDbLine
 10
133.1357300590933
 20
305.6513335085555
 30
0.0
 11
90.397583733613
 21
305.6513335085555
 31
0.0
  0
SOLID
  5
19E
330
19A
100
AcDbEntity
  8
1
 62
     2
100
AcDbTrace
 10
93.18749871913738
 20
359.6513335085555
 30
0.0
 11
91.60766874808863
 21
359.6513335085555
 31
0.0
 12
92.397583733613
 22
365.6513335085555
 32
0.0
 13
92.397583733613
 23
365.6513335085555
 33
0.0
  0
SOLID
  5
19F
330
19A
100
AcDbEntity
  8
1
 62
     2
100
AcDbTrace
 10
91.60766874808863
 20
311.6513335085555
 30
0.0
 11
93.18749871913738
 21
311.6513335085555
 31
0.0
 12
92.397583733613
 22
305.6513335085555
 32
0.0
 13
92.397583733613
 23
305.6513335085555
 33
0.0
  0
MTEXT
  5
1A0
330
19A
100
AcDbEntity
  8
1
 62
     7
100
AcDbMText
 10
90.397583733613
 20
330.4013335085554
 30
0.0
 40
7.0
 41
0.0
 71
     7
 72
     1
  1
60
  7
CONVERTER_2
 11
0.0
 21
1.0
 31
0.0
 73
     1
 44
0.60024009603842
  0
ENDBLK
  5
1A2
330
19A
100
AcDbEntity
  8
0
100
AcDbBlockEnd
  0
BLOCK
  5
1AC
330
1A5
100
AcDbEntity
  8
0
100
AcDbBlockBegin
  2
*D312
 70
     1
 71
     0
 10
0.0
 20
0.0
 30
0.0
  3
*D312
  1

  0
LINE
  5
1A6
330
1A5
100
AcDbEntity
  8
0
  6
Continuous
 62
     2
100
AcDbLine
 10
351.2605994417383
 20
123.6883178004301
 30
0.0
 11
241.2605994417383
 21
123.6883178004301
 31
0.0
  0
LINE
  5
1A7
330
1A5
100
AcDbEntity
  8
0
  6
Continuous
 62
     2
100
AcDbLine
 10
351.2605994417383
 20
147.7883178004301
 30
0.0
 11
351.2605994417383
 21
121.6883178004301
 31
0.0
  0
LINE
  5
1A8
330
1A5
100
AcDbEntity
  8
0
  6
Continuous
 62
     2
100
AcDbLine
 10
241.2605994417383
 20
140.0149634147482
 30
0.0
 11
241.2605994417383
 21
121.6883178004301
 31
0.0
  0
SOLID
  5
1A9
330
1A5
100
AcDbEntity
  8
0
 62
     2
100
AcDbTrace
 10
345.2605994417383
 20
122.8984028149057
 30
0.0
 11
345.2605994417383
 21
124.4782327859545
 31
0.0
 12
351.2605994417383
 22
123.6883178004301
 32
0.0
 13
351.2605994417383
 23
123.6883178004301
 33
0.0
  0
SOLID
  5
1AA
330
1A5
100
AcDbEntity
  8
0
 62
     2
100
AcDbTrace
 10
247.2605994417383
 20
124.4782327859545
 30
0.0
 11
247.2605994417383
 21
122.8984028149057
 31
0.0
 12
241.2605994417383
 22
123.6883178004301
 32
0.0
 13
241.2605994417383
 23
123.6883178004301
 33
0.0
  0
MTEXT
  5
1AB
330
1A5
100
AcDbEntity
  8
0
 62
     7
100
AcDbMText
 10
289.9605994417383
 20
125.6883178004301
 30
0.0
 40
7.0
 41
0.0
 71
     7
 72
     1
  1
110
  7
CONVERTER_2
 11
0.9999999999970621
 21
2.424068405545307E-6
 31
0.0
 73
     1
 44
0.60024009603842
  0
ENDBLK
  5
1AD
330
1A5
100
AcDbEntity
  8
0
100
AcDbBlockEnd
  0
BLOCK
  5
1B7
330
1B0
100
AcDbEntity
  8
0
100
AcDbBlockBegin
  2
*D413
 70
     1
 71
     0
 10
0.0
 20
0.0
 30
0.0
  3
*D413
  1

  0
LINE
  5
1B1
330
1B0
100
AcDbEntity
  8
1
  6
Continuous
 62
     2
100
AcDbLine
 10
178.3975837336131
 20
143.6883178004301
 30
0.0
 11
178.3975837336131
 21
170.7883178004301
 31
0.0
  0
LINE
  5
1B2
330
1B0
100
AcDbEntity
  8
1
  6
Continuous
 62
     2
100
AcDbLine
 10
146.397583733613
 20
143.6883178004301
 30
0.0
 11
180.3975837336131
 21
143.6883178004301
 31
0.0
  0
LINE
  5
1B3
330
1B0
100
AcDbEntity
  8
1
  6
Continuous
 62
     2
100
AcDbLine
 10
161.4734180828692
 20
170.7883178004301
 30
0.0
 11
180.3975837336131
 21
170.7883178004301
 31
0.0
  0
SOLID
  5
1B4
330
1B0
100
AcDbEntity
  8
1
 62
     2
100
AcDbTrace
 10
177.6076687480887
 20
149.6883178004301
 30
0.0
 11
179.1874987191375
 21
149.6883178004301
 31
0.0
 12
178.3975837336131
 22
143.6883178004301
 32
0.0
 13
178.3975837336131
 23
143.6883178004301
 33
0.0
  0
SOLID
  5
1B5
330
1B0
100
AcDbEntity
  8
1
 62
     2
100
AcDbTrace
 10
179.1874987191375
 20
164.7883178004301
 30
0.0
 11
177.6076687480887
 21
164.7883178004301
 31
0.0
 12
178.3975837336131
 22
170.7883178004301
 32
0.0
 13
178.3975837336131
 23
170.7883178004301
 33
0.0
  0
MTEXT
  5
1B6
330
1B0
100
AcDbEntity
  8
1
 62
     7
100
AcDbMText
 10
176.3975837336131
 20
151.9883178004301
 30
0.0
 40
7.0
 41
0.0
 71
     7
 72
     1
  1
28
  7
CONVERTER_2
 11
0.0
 21
1.0
 31
0.0
 73
     1
 44
0.60024009603842
  0
ENDBLK
  5
1B8
330
1B0
100
AcDbEntity
  8
0
100
AcDbBlockEnd
  0
BLOCK
  5
1C4
330
1BB
100
AcDbEntity
  8
0
100
AcDbBlockBegin
  2
*D514
 70
     1
 71
     0
 10
0.0
 20
0.0
 30
0.0
  3
*D514
  1

  0
LINE
  5
1BC
330
1BB
100
AcDbEntity
  8
1
  6
Continuous
 62
     2
100
AcDbLine
 10
92.397583733613
 20
484.6513335085554
 30
0.0
 11
92.397583733613
 21
470.6513335085554
 31
0.0
  0
LINE
  5
1BD
330
1BB
100
AcDbEntity
  8
1
  6
Continuous
 62
     2
100
AcDbLine
 10
92.397583733613
 20
470.6513335085554
 30
0.0
 11
92.397583733613
 21
456.6513335085554
 31
0.0
  0
LINE
  5
1BE
330
1BB
100
AcDbEntity
  8
1
  6
Continuous
 62
     2
100
AcDbLine
 10
92.397583733613
 20
456.6513335085554
 30
0.0
 11
92.397583733613
 21
442.6513335085554
 31
0.0
  0
LINE
  5
1BF
330
1BB
100
AcDbEntity
  8
1
  6
Continuous
 62
     2
100
AcDbLine
 10
112.397583733613
 20
456.6513335085554
 30
0.0
 11
90.397583733613
 21
456.6513335085554
 31
0.0
  0
LINE
  5
1C0
330
1BB
100
AcDbEntity
  8
1
  6
Continuous
 62
     2
100
AcDbLine
 10
135.397583733613
 20
470.6513335085554
 30
0.0
 11
90.397583733613
 21
470.6513335085554
 31
0.0
  0
SOLID
  5
1C1
330
1BB
100
AcDbEntity
  8
1
 62
     2
100
AcDbTrace
 10
91.47601625050123
 20
477.6513335085554
 30
0.0
 11
93.31915121672478
 21
477.6513335085554
 31
0.0
 12
92.397583733613
 22
470.6513335085554
 32
0.0
 13
92.397583733613
 23
470.6513335085554
 33
0.0
  0
SOLID
  5
1C2
330
1BB
100
AcDbEntity
  8
1
 62
     2
100
AcDbTrace
 10
93.31915121672478
 20
449.6513335085554
 30
0.0
 11
91.47601625050123
 21
449.6513335085554
 31
0.0
 12
92.397583733613
 22
456.6513335085554
 32
0.0
 13
92.397583733613
 23
456.6513335085554
 33
0.0
  0
MTEXT
  5
1C3
330
1BB
100
AcDbEntity
  8
1
 62
     7
100
AcDbMText
 10
90.397583733613
 20
459.4513335085554
 30
0.0
 40
7.0
 41
0.0
 71
     7
 72
     1
  1
14
  7
CONVERTER_2
 11
0.0
 21
1.0
 31
0.0
 73
     1
 44
0.60024009603842
  0
ENDBLK
  5
1C5
330
1BB
100
AcDbEntity
  8
0
100
AcDbBlockEnd
  0
BLOCK
  5
1CF
330
1C8
100
AcDbEntity
  8
0
100
AcDbBlockBegin
  2
*D615
 70
     1
 71
     0
 10
0.0
 20
0.0
 30
0.0
  3
*D615
  1

  0
LINE
  5
1C9
330
1C8
100
AcDbEntity
  8
1
  6
Continuous
 62
     2
100
AcDbLine
 10
92.397583733613
 20
365.6513335085554
 30
0.0
 11
92.397583733613
 21
456.6513335085555
 31
0.0
  0
LINE
  5
1CA
330
1C8
100
AcDbEntity
  8
1
  6
Continuous
 62
     2
100
AcDbLine
 10
112.397583733613
 20
456.6513335085555
 30
0.0
 11
90.397583733613
 21
456.6513335085555
 31
0.0
  0
LINE
  5
1CB
330
1C8
100
AcDbEntity
  8
1
  6
Continuous
 62
     2
100
AcDbLine
 10
115.397583733613
 20
365.6513335085554
 30
0.0
 11
90.397583733613
 21
365.6513335085554
 31
0.0
  0
SOLID
  5
1CC
330
1C8
100
AcDbEntity
  8
1
 62
     2
100
AcDbTrace
 10
91.47601625050123
 20
372.6513335085554
 30
0.0
 11
93.31915121672478
 21
372.6513335085554
 31
0.0
 12
92.397583733613
 22
365.6513335085554
 32
0.0
 13
92.397583733613
 23
365.6513335085554
 33
0.0
  0
SOLID
  5
1CD
330
1C8
100
AcDbEntity
  8
1
 62
     2
100
AcDbTrace
 10
93.31915121672478
 20
449.6513335085555
 30
0.0
 11
91.47601625050123
 21
449.6513335085555
 31
0.0
 12
92.397583733613
 22
456.6513335085555
 32
0.0
 13
92.397583733613
 23
456.6513335085555
 33
0.0
  0
MTEXT
  5
1CE
330
1C8
100
AcDbEntity
  8
1
 62
     7
100
AcDbMText
 10
90.397583733613
 20
406.9513335085554
 30
0.0
 40
7.0
 41
0.0
 71
     7
 72
     1
  1
91
  7
CONVERTER_2
 11
0.0
 21
1.0
 31
0.0
 73
     1
 44
0.60024009603842
  0
ENDBLK
  5
1D0
330
1C8
100
AcDbEntity
  8
0
100
AcDbBlockEnd
  0
BLOCK
  5
1DA
330
1D3
100
AcDbEntity
  8
0
100
AcDbBlockBegin
  2
*D716
 70
     1
 71
     0
 10
0.0
 20
0.0
 30
0.0
  3
*D716
  1

  0
LINE
  5
1D4
330
1D3
100
AcDbEntity
  8
0
  6
Continuous
 62
     2
100
AcDbLine
 10
178.3975837336131
 20
236.28831780043
 30
0.0
 11
178.3975837336131
 21
170.7883178004301
 31
0.0
  0
LINE
  5
1D5
330
1D3
100
AcDbEntity
  8
0
  6
Continuous
 62
     2
100
AcDbLine
 10
135.397583733613
 20
236.28831780043
 30
0.0
 11
180.3975837336131
 21
236.28831780043
 31
0.0
  0
LINE
  5
1D6
330
1D3
100
AcDbEntity
  8
0
  6
Continuous
 62
     2
100
AcDbLine
 10
161.4734180828692
 20
170.7883178004301
 30
0.0
 11
180.3975837336131
 21
170.7883178004301
 31
0.0
  0
SOLID
  5
1D7
330
1D3
100
AcDbEntity
  8
0
 62
     2
100
AcDbTrace
 10
179.1874987191375
 20
230.28831780043
 30
0.0
 11
177.6076687480887
 21
230.28831780043
 31
0.0
 12
178.3975837336131
 22
236.28831780043
 32
0.0
 13
178.3975837336131
 23
236.28831780043
 33
0.0
  0
SOLID
  5
1D8
330
1D3
100
AcDbEntity
  8
0
 62
     2
100
AcDbTrace
 10
177.6076687480887
 20
176.7883178004301
 30
0.0
 11
179.1874987191375
 21
176.7883178004301
 31
0.0
 12
178.3975837336131
 22
170.7883178004301
 32
0.0
 13
178.3975837336131
 23
170.7883178004301
 33
0.0
  0
MTEXT
  5
1D9
330
1D3
100
AcDbEntity
  8
0
 62
     7
100
AcDbMText
 10
176.3975837336131
 20
198.28831780043
 30
0.0
 40
7.0
 41
0.0
 71
     7
 72
     1
  1
66
  7
CONVERTER_2
 11
0.0
 21
1.0
 31
0.0
 73
     1
 44
0.60024009603842
  0
ENDBLK
  5
1DB
330
1D3
100
AcDbEntity
  8
0
100
AcDbBlockEnd
  0
ENDSEC
  0
SECTION
  2
ENTITIES
  0
INSERT
  5
4E
330
1F
100
AcDbEntity
  8
0
100
AcDbBlockReference
  2
R261F
 10
-3.26511484397599
 20
68.11739496918455
 30
0.0
  0
INSERT
  5
4F
330
1F
100
AcDbEntity
  8
0
100
AcDbBlockReference
  2
Y201-0
 10
227.3275816902591
 20
211.9164994874952
 30
0.0
  0
INSERT
  5
50
330
1F
100
AcDbEntity
  8
1
100
AcDbBlockReference
  2
30-205-M11
 10
480.652144469526
 20
437.5984198645594
 30
0.0
  0
INSERT
  5
51
330
1F
100
AcDbEntity
  8
1
100
AcDbBlockReference
  2
_J__A4
 10
0.0
 20
0.0
 30
0.0
 41
2.0
 42
2.0
 43
2.0
  0
LINE
  5
162
330
1F
100
AcDbEntity
  8
1
  6
DASH_CENTER
 62
     2
100
AcDbLine
 10
260.2605994417384
 20
238.9792286723276
 30
0.0
 11
260.2605994417384
 21
185.2520158183639
 31
0.0
  0
LINE
  5
163
330
1F
100
AcDbEntity
  8
1
  6
DASH_CENTER
 62
     2
100
AcDbLine
 10
110.397583733613
 20
346.6513335085554
 30
0.0
 11
160.397583733613
 21
346.6513335085554
 31
0.0
  0
LINE
  5
164
330
1F
100
AcDbEntity
  8
1
  6
DASH_CENTER
 62
     2
100
AcDbLine
 10
155.397583733613
 20
365.6513335085553
 30
0.0
 11
115.397583733613
 21
365.6513335085553
 31
0.0
  0
LINE
  5
165
330
1F
100
AcDbEntity
  8
1
  6
DASH_CENTER
 62
     2
100
AcDbLine
 10
135.397583733613
 20
475.6513335085554
 30
0.0
 11
135.397583733613
 21
302.6513335085554
 31
0.0
  0
LINE
  5
166
330
1F
100
AcDbEntity
  8
1
  6
DASH_CENTER
 62
     2
100
AcDbLine
 10
161.4734180828692
 20
170.7883178004301
 30
0.0
 11
109.463669105073
 21
170.7883178004301
 31
0.0
  0
LINE
  5
167
330
1F
100
AcDbEntity
  8
1
  6
DASH_CENTER
 62
     2
100
AcDbLine
 10
135.397583733613
 20
236.28831780043
 30
0.0
 11
135.397583733613
 21
140.4883178004301
 31
0.0
  0
LINE
  5
168
330
1F
100
AcDbEntity
  8
1
  6
DASH_CENTER
 62
     2
100
AcDbLine
 10
247.7605994417383
 20
170.7883178004301
 30
0.0
 11
224.5333839107745
 21
170.7883178004301
 31
0.0
  0
LINE
  5
169
330
1F
100
AcDbEntity
  8
0
  6
DASH_CENTER
 62
     2
100
AcDbLine
 10
241.2605994417383
 20
175.4903770202642
 30
0.0
 11
241.2605994417383
 21
140.0149634147482
 31
0.0
  0
LINE
  5
16A
330
1F
100
AcDbEntity
  8
1
  6
DASH_CENTER
 62
     2
100
AcDbLine
 10
369.4471329212115
 20
170.7883178004301
 30
0.0
 11
365.2605994417383
 21
170.7883178004301
 31
0.0
  0
LINE
  5
16B
330
1F
100
AcDbEntity
  8
1
  6
DASH_CENTER
 62
     2
100
AcDbLine
 10
365.2605994417383
 20
170.7883178004301
 30
0.0
 11
348.7605994417383
 21
170.7883178004301
 31
0.0
  0
LINE
  5
16C
330
1F
100
AcDbEntity
  8
1
  6
DASH_CENTER
 62
     2
100
AcDbLine
 10
348.7605994417383
 20
170.7883178004301
 30
0.0
 11
247.7605994417383
 21
170.7883178004301
 31
0.0
  0
LINE
  5
16D
330
1F
100
AcDbEntity
  8
0
  6
DASH_CENTER
 62
     2
100
AcDbLine
 10
212.7605994417382
 20
206.5883178004299
 30
0.0
 11
212.7605994417382
 21
237.5883178004299
 31
0.0
  0
LINE
  5
16E
330
1F
100
AcDbEntity
  8
0
  6
DASH_CENTER
 62
     2
100
AcDbLine
 10
198.2605994417382
 20
222.0883178004299
 30
0.0
 11
227.2605994417382
 21
222.0883178004299
 31
0.0
  0
LINE
  5
16F
330
1F
100
AcDbEntity
  8
1
  6
Continuous
 62
     2
100
AcDbLine
 10
185.837912954702
 20
320.9828069913256
 30
0.0
 11
200.263509660477
 21
320.9828069913256
 31
0.0
  0
LINE
  5
170
330
1F
100
AcDbEntity
  8
1
  6
Continuous
 62
     2
100
AcDbLine
 10
121.714722374124
 20
285.323828818884
 30
0.0
 11
135.614719157108
 21
285.323828818884
 31
0.0
  0
ARC
  5
171
330
1F
100
AcDbEntity
  8
1
  6
Continuous
 62
     2
100
AcDbCircle
 10
136.397583733613
 20
365.6513335085553
 30
0.0
 40
69.17306198700436
100
AcDbArc
 50
-82.07673999032306
 51
-47.20359297991232
  0
SOLID
  5
172
330
1F
100
AcDbEntity
  8
1
 62
     2
100
AcDbTrace
 10
149.1057612919975
 20
298.3556737645264
 30
0.0
 11
149.2937055843954
 21
296.5221461681509
 31
0.0
 12
142.2362210477139
 22
296.7251206503666
 32
0.0
 13
142.2362210477139
 23
296.7251206503666
 33
0.0
  0
LEADER
  5
173
330
1F
100
AcDbEntity
  8
1
  6
Continuous
 62
     2
100
AcDbLeader
  3
Standard
 71
     0
 76
     2
 10
142.2362210477139
 20
296.7251206503666
 30
0.0
 10
144.6638921957415
 20
296.9739671564092
 30
0.0
  0
SOLID
  5
174
330
1F
100
AcDbEntity
  8
1
 62
     2
100
AcDbTrace
 10
181.143756677764
 20
311.4374320760485
 30
0.0
 11
179.8626976191588
 21
312.7625864791585
 31
0.0
 12
185.5360006521705
 22
316.9653140841253
 32
0.0
 13
185.5360006521705
 23
316.9653140841253
 33
0.0
  0
LEADER
  5
175
330
1F
100
AcDbEntity
  8
1
  6
Continuous
 62
     2
100
AcDbLeader
  3
Standard
 71
     0
 76
     2
 10
185.5360006521705
 20
316.9653140841253
 30
0.0
 10
183.3934363267025
 20
314.8940449313809
 30
0.0
  0
SOLID
  5
176
330
1F
100
AcDbEntity
  8
1
 62
     2
100
AcDbTrace
 10
362.043631628149
 20
154.6753932582597
 30
0.0
 11
360.4449590751827
 21
153.7581187235058
 31
0.0
 12
357.7605994417383
 22
160.2883178004301
 32
0.0
 13
357.7605994417383
 23
160.2883178004301
 33
0.0
  0
LEADER
  5
177
330
1F
100
AcDbEntity
  8
1
  6
Continuous
 62
     2
100
AcDbLeader
  3
Standard
 71
     0
 76
     3
 10
357.7605994417383
 20
160.2883178004301
 30
0.0
 10
368.6069238280011
 20
141.3847938935554
 30
0.0
 10
396.410015290389
 20
141.3847938935554
 30
0.0
  0
MTEXT
  5
179
330
1F
100
AcDbEntity
  8
1
 62
     7
100
AcDbMText
 10
382.5084695591951
 20
147.3847938935554
 30
0.0
 40
7.0
 41
0.0
 71
     5
 72
     1
  1
PJ1/2
  7
CONVERTER_2
 73
     1
 44
1.32052821128451
  0
MTEXT
  5
17A
330
1F
100
AcDbEntity
  8
1
 62
     7
100
AcDbMText
 10
128.5164924541463
 20
291.323828818884
 30
0.0
 40
7.0
 41
0.0
 71
     5
 72
     1
  1
止水
  7
CONVERTER_1
 73
     1
 44
1.32052821128451
  0
MTEXT
  5
17B
330
1F
100
AcDbEntity
  8
1
 62
     7
100
AcDbMText
 10
193.1795321030229
 20
326.9828069913256
 30
0.0
 40
7.0
 41
0.0
 71
     5
 72
     1
  1
吐水
  7
CONVERTER_1
 73
     1
 44
1.32052821128451
  0
MTEXT
  5
17C
330
1F
100
AcDbEntity
  8
0
 62
     7
100
AcDbMText
 10
187.5
 20
34.0
 30
0.0
 40
7.0
 41
0.0
 71
     5
 72
     1
  1
2
  7
CONVERTER_2
 73
     1
 44
1.32052821128451
  0
MTEXT
  5
17D
330
1F
100
AcDbEntity
  8
0
 62
     7
100
AcDbMText
 10
170.5
 20
34.0
 30
0.0
 40
7.0
 41
0.0
 71
     5
 72
     1
  1
1
  7
CONVERTER_2
 73
     1
 44
1.32052821128451
  0
MTEXT
  5
17E
330
1F
100
AcDbEntity
  8
0
 62
     7
100
AcDbMText
 10
114.0
 20
28.5
 30
0.0
 40
7.0
 41
0.0
 71
     5
 72
     1
  1
Y202HC-13
  7
CONVERTER_2
 73
     1
 44
0.90036014405762
  0
MTEXT
  5
17F
330
1F
100
AcDbEntity
  8
0
 62
     7
100
AcDbMText
 10
114.0
 20
45.50000000000002
 30
0.0
 40
7.0
 41
0.0
 71
     5
 72
     1
  1
胴長水栓
  7
CONVERTER_1
 73
     1
 44
1.32052821128451
  0
MTEXT
  5
180
330
1F
100
AcDbEntity
  8
1
 62
     7
100
AcDbMText
 10
68.0
 20
68.00000000000001
 30
0.0
 40
7.0
 41
0.0
 71
     4
 72
     1
  1
JIS
  7
CONVERTER_2
 73
     1
 44
0.7202881152461
  0
DIMENSION
  5
18E
330
1F
100
AcDbEntity
  8
1
100
AcDbDimension
  2
*D08
 10
351.2605994417383
 20
123.6883178004301
 30
0.0
 11
358.2605994417383
 21
129.1883178004301
 31
0.0
  1
<>
 71
     5
 42
0.0
 53
0.00013888888889
  3
ME10_DIM_0
100
AcDbAlignedDimension
 13
365.2605994417383
 23
161.2883178004301
 33
0.0
 14
351.2605994417383
 24
147.7883178004301
 34
0.0
100
AcDbRotatedDimension
  0
DIMENSION
  5
199
330
1F
100
AcDbEntity
  8
1
100
AcDbDimension
  2
*D110
 10
112.397583733613
 20
490.6513335085554
 30
0.0
 11
135.397583733613
 21
496.1513335085554
 31
0.0
  1
<>
 71
     5
 42
0.0
 53
0.00013888888889
  3
ME10_DIM_1
100
AcDbAlignedDimension
 13
158.397583733613
 23
456.6513335085554
 33
0.0
 14
112.397583733613
 24
456.6513335085554
 34
0.0
100
AcDbRotatedDimension
  0
DIMENSION
  5
1A4
330
1F
100
AcDbEntity
  8
1
100
AcDbDimension
  2
*D211
 10
92.397583733613
 20
365.6513335085555
 30
0.0
 11
86.897583733613
 21
335.6513335085554
 31
0.0
  1
<>
 71
     5
 42
0.0
 53
90.0
  3
ME10_DIM_2
100
AcDbAlignedDimension
 13
133.1357300590933
 23
305.6513335085554
 33
0.0
 14
110.397583733613
 24
365.6513335085554
 34
0.0
 50
90.0
100
AcDbRotatedDimension
  0
DIMENSION
  5
1AF
330
1F
100
AcDbEntity
  8
0
100
AcDbDimension
  2
*D312
 10
351.2605994417383
 20
123.6883178004301
 30
0.0
 11
296.2605994417383
 21
129.1883178004301
 31
0.0
  1
<>
 71
     5
 42
0.0
 53
0.00013888888889
  3
ME10_DIM_3
100
AcDbAlignedDimension
 13
241.2605994417383
 23
140.0149634147482
 33
0.0
 14
351.2605994417383
 24
147.7883178004301
 34
0.0
100
AcDbRotatedDimension
  0
DIMENSION
  5
1BA
330
1F
100
AcDbEntity
  8
1
100
AcDbDimension
  2
*D413
 10
178.3975837336131
 20
143.6883178004301
 30
0.0
 11
172.8975837336131
 21
157.2383178004301
 31
0.0
  1
28
 71
     5
 42
0.0
 53
90.0
  3
ME10_DIM_4
100
AcDbAlignedDimension
 13
161.4734180828692
 23
170.7883178004301
 33
0.0
 14
146.397583733613
 24
143.6883178004301
 34
0.0
 50
90.0
100
AcDbRotatedDimension
  0
DIMENSION
  5
1C7
330
1F
100
AcDbEntity
  8
1
100
AcDbDimension
  2
*D514
 10
92.397583733613
 20
470.6513335085554
 30
0.0
 11
86.897583733613
 21
463.6513335085554
 31
0.0
  1
<>
 71
     5
 42
0.0
 53
90.0
  3
ME10_DIM_5
100
AcDbAlignedDimension
 13
112.397583733613
 23
456.6513335085554
 33
0.0
 14
135.397583733613
 24
470.6513335085554
 34
0.0
 50
90.0
100
AcDbRotatedDimension
  0
DIMENSION
  5
1D2
330
1F
100
AcDbEntity
  8
1
100
AcDbDimension
  2
*D615
 10
92.397583733613
 20
365.6513335085554
 30
0.0
 11
86.897583733613
 21
411.1513335085554
 31
0.0
  1
<>
 71
     5
 42
0.0
 53
90.0
  3
ME10_DIM_6
100
AcDbAlignedDimension
 13
112.397583733613
 23
456.6513335085554
 33
0.0
 14
115.397583733613
 24
365.6513335085553
 34
0.0
 50
90.0
100
AcDbRotatedDimension
  0
DIMENSION
  5
1DD
330
1F
100
AcDbEntity
  8
0
100
AcDbDimension
  2
*D716
 10
178.3975837336131
 20
236.28831780043
 30
0.0
 11
172.8975837336131
 21
203.53831780043
 31
0.0
  1
<>
 71
     5
 42
0.0
 53
90.0
  3
ME10_DIM_7
100
AcDbAlignedDimension
 13
161.4734180828692
 23
170.7883178004301
 33
0.0
 14
135.397583733613
 24
236.28831780043
 34
0.0
 50
90.0
100
AcDbRotatedDimension
  0
ENDSEC
  0
SECTION
  2
OBJECTS
  0
DICTIONARY
  5
C
330
0
100
AcDbDictionary
281
     1
  3
ACAD_GROUP
350
D
  3
ACAD_LAYOUT
350
1A
  3
ACAD_MLINESTYLE
350
17
  3
ACAD_PLOTSETTINGS
350
19
  3
ACAD_PLOTSTYLENAME
350
E
  3
ACAD_TABLESTYLE
350
2A
  3
AcDbVariableDictionary
350
2C
  0
DICTIONARY
  5
D
102
{ACAD_REACTORS
330
C
102
}
330
C
100
AcDbDictionary
281
     1
  0
DICTIONARY
  5
1A
102
{ACAD_REACTORS
330
C
102
}
330
C
100
AcDbDictionary
281
     1
  3
Layout1
350
1E
  3
Layout2
350
26
  3
Model
350
22
  0
DICTIONARY
  5
17
102
{ACAD_REACTORS
330
C
102
}
330
C
100
AcDbDictionary
281
     1
  3
Standard
350
18
  0
DICTIONARY
  5
19
102
{ACAD_REACTORS
330
C
102
}
330
C
100
AcDbDictionary
281
     1
  0
ACDBDICTIONARYWDFLT
  5
E
102
{ACAD_REACTORS
330
C
102
}
330
C
100
AcDbDictionary
281
     1
  3
Normal
350
F
100
AcDbDictionaryWithDefault
340
F
  0
DICTIONARY
  5
2A
102
{ACAD_REACTORS
330
C
102
}
330
C
100
AcDbDictionary
281
     1
  3
Standard
350
2B
  0
DICTIONARY
  5
2C
102
{ACAD_REACTORS
330
C
102
}
330
C
100
AcDbDictionary
281
     1
  3
CTABLESTYLE
350
2D
  0
LAYOUT
  5
1E
102
{ACAD_REACTORS
330
1A
102
}
330
1A
100
AcDbPlotSettings
  1

  2

  4

  6

 40
0.0
 41
0.0
 42
0.0
 43
0.0
 44
0.0
 45
0.0
 46
0.0
 47
0.0
 48
0.0
 49
0.0
140
0.0
141
0.0
142
1.0
143
1.0
 70
   688
 72
     0
 73
     0
 74
     5
  7

 75
    16
147
1.0
148
0.0
149
0.0
100
AcDbLayout
  1
Layout1
 70
     1
 71
     1
 10
0.0
 20
0.0
 11
12.0
 21
9.0
 12
0.0
 22
0.0
 32
0.0
 14
1.00000000000000E+20
 24
1.00000000000000E+20
 34
1.00000000000000E+20
 15
-1.00000000000000E+20
 25
-1.00000000000000E+20
 35
-1.00000000000000E+20
146
0.0
 13
0.0
 23
0.0
 33
0.0
 16
1.0
 26
0.0
 36
0.0
 17
0.0
 27
1.0
 37
0.0
 76
     0
330
1B
  0
LAYOUT
  5
26
102
{ACAD_REACTORS
330
1A
102
}
330
1A
100
AcDbPlotSettings
  1

  2

  4

  6

 40
0.0
 41
0.0
 42
0.0
 43
0.0
 44
0.0
 45
0.0
 46
0.0
 47
0.0
 48
0.0
 49
0.0
140
0.0
141
0.0
142
1.0
143
1.0
 70
   688
 72
     0
 73
     0
 74
     5
  7

 75
    16
147
1.0
148
0.0
149
0.0
100
AcDbLayout
  1
Layout2
 70
     1
 71
     2
 10
0.0
 20
0.0
 11
0.0
 21
0.0
 12
0.0
 22
0.0
 32
0.0
 14
0.0
 24
0.0
 34
0.0
 15
0.0
 25
0.0
 35
0.0
146
0.0
 13
0.0
 23
0.0
 33
0.0
 16
1.0
 26
0.0
 36
0.0
 17
0.0
 27
1.0
 37
0.0
 76
     0
330
23
  0
LAYOUT
  5
22
102
{ACAD_REACTORS
330
1A
102
}
330
1A
100
AcDbPlotSettings
  1

  2

  4

  6

 40
0.0
 41
0.0
 42
0.0
 43
0.0
 44
0.0
 45
0.0
 46
0.0
 47
0.0
 48
0.0
 49
0.0
140
0.0
141
0.0
142
1.0
143
1.0
 70
  1712
 72
     0
 73
     0
 74
     0
  7

 75
     0
147
1.0
148
0.0
149
0.0
100
AcDbLayout
  1
Model
 70
     1
 71
     0
 10
0.0
 20
0.0
 11
0.0
 21
0.0
 12
0.0
 22
0.0
 32
0.0
 14
0.0
 24
0.0
 34
0.0
 15
420.0
 25
594.0
 35
0.0
146
0.0
 13
0.0
 23
0.0
 33
0.0
 16
1.0
 26
0.0
 36
0.0
 17
0.0
 27
1.0
 37
0.0
 76
     0
330
1F
  0
MLINESTYLE
  5
18
102
{ACAD_REACTORS
330
17
102
}
330
17
100
AcDbMlineStyle
  2
Standard
 70
     0
  3

 62
   256
 51
90.0
 52
90.0
 71
     2
 49
0.5
 62
   256
  6
BYLAYER
 49
-0.5
 62
   256
  6
BYLAYER
  0
ACDBPLACEHOLDER
  5
F
102
{ACAD_REACTORS
330
E
102
}
330
E
  0
TABLESTYLE
  5
2B
102
{ACAD_REACTORS
330
2A
102
}
330
2A
100
AcDbTableStyle
  3
Standard
 70
     0
 71
     0
 40
0.06
 41
0.06
280
     0
281
     0
  7
Standard
140
0.18
170
     2
 62
     0
 63
     7
283
     0
274
    -2
284
     1
 64
     0
275
    -2
285
     1
 65
     0
276
    -2
286
     1
 66
     0
277
    -2
287
     1
 67
     0
278
    -2
288
     1
 68
     0
279
    -2
289
     1
 69
     0
  7
Standard
140
0.25
170
     5
 62
     0
 63
     7
283
     0
274
    -2
284
     1
 64
     0
275
    -2
285
     1
 65
     0
276
    -2
286
     1
 66
     0
277
    -2
287
     1
 67
     0
278
    -2
288
     1
 68
     0
279
    -2
289
     1
 69
     0
  7
Standard
140
0.18
170
     5
 62
     0
 63
     7
283
     0
274
    -2
284
     1
 64
     0
275
    -2
285
     1
 65
     0
276
    -2
286
     1
 66
     0
277
    -2
287
     1
 67
     0
278
    -2
288
     1
 68
     0
279
    -2
289
     1
 69
     0
  0
DICTIONARYVAR
  5
2D
102
{ACAD_REACTORS
330
2C
102
}
330
2C
100
DictionaryVariables
280
     0
  1
Standard
  0
ENDSEC
  0
EOF
