  0
SECTION
  2
HEADER
  9
$ACADVER
  1
AC1015
  9
$ACADMAINTVER
 70
     6
  9
$DWGCODEPAGE
  3
DOS932
  9
$INSBASE
 10
0.0
 20
0.0
 30
0.0
  9
$EXTMIN
 10
0.0
 20
0.0
 30
0.0
  9
$EXTMAX
 10
420.0
 20
594.0
 30
0.0
  9
$LIMMIN
 10
0.0
 20
0.0
  9
$LIMMAX
 10
12.0
 20
9.0
  9
$ORTHOMODE
 70
     0
  9
$REGENMODE
 70
     1
  9
$FILLMODE
 70
     1
  9
$QTEXTMODE
 70
     0
  9
$MIRRTEXT
 70
     1
  9
$LTSCALE
 40
1.0
  9
$ATTMODE
 70
     1
  9
$TEXTSIZE
 40
0.2
  9
$TRACEWID
 40
0.05
  9
$TEXTSTYLE
  7
Standard
  9
$CLAYER
  8
0
  9
$CELTYPE
  6
ByLayer
  9
$CECOLOR
 62
   256
  9
$CELTSCALE
 40
1.0
  9
$DISPSILH
 70
     0
  9
$DIMSCALE
 40
1.0
  9
$DIMASZ
 40
0.18
  9
$DIMEXO
 40
0.0625
  9
$DIMDLI
 40
0.38
  9
$DIMRND
 40
0.0
  9
$DIMDLE
 40
0.0
  9
$DIMEXE
 40
0.18
  9
$DIMTP
 40
0.0
  9
$DIMTM
 40
0.0
  9
$DIMTXT
 40
0.18
  9
$DIMCEN
 40
0.09
  9
$DIMTSZ
 40
0.0
  9
$DIMTOL
 70
     0
  9
$DIMLIM
 70
     0
  9
$DIMTIH
 70
     1
  9
$DIMTOH
 70
     1
  9
$DIMSE1
 70
     0
  9
$DIMSE2
 70
     0
  9
$DIMTAD
 70
     0
  9
$DIMZIN
 70
     0
  9
$DIMBLK
  1

  9
$DIMASO
 70
     1
  9
$DIMSHO
 70
     1
  9
$DIMPOST
  1

  9
$DIMAPOST
  1

  9
$DIMALT
 70
     0
  9
$DIMALTD
 70
     2
  9
$DIMALTF
 40
25.4
  9
$DIMLFAC
 40
1.0
  9
$DIMTOFL
 70
     0
  9
$DIMTVP
 40
0.0
  9
$DIMTIX
 70
     0
  9
$DIMSOXD
 70
     0
  9
$DIMSAH
 70
     0
  9
$DIMBLK1
  1

  9
$DIMBLK2
  1

  9
$DIMSTYLE
  2
Standard
  9
$DIMCLRD
 70
     0
  9
$DIMCLRE
 70
     0
  9
$DIMCLRT
 70
     0
  9
$DIMTFAC
 40
1.0
  9
$DIMGAP
 40
0.09
  9
$DIMJUST
 70
     0
  9
$DIMSD1
 70
     0
  9
$DIMSD2
 70
     0
  9
$DIMTOLJ
 70
     1
  9
$DIMTZIN
 70
     0
  9
$DIMALTZ
 70
     0
  9
$DIMALTTZ
 70
     0
  9
$DIMUPT
 70
     0
  9
$DIMDEC
 70
     4
  9
$DIMTDEC
 70
     4
  9
$DIMALTU
 70
     2
  9
$DIMALTTD
 70
     2
  9
$DIMTXSTY
  7
Standard
  9
$DIMAUNIT
 70
     0
  9
$DIMADEC
 70
     0
  9
$DIMALTRND
 40
0.0
  9
$DIMAZIN
 70
     0
  9
$DIMDSEP
 70
    46
  9
$DIMATFIT
 70
     3
  9
$DIMFRAC
 70
     0
  9
$DIMLDRBLK
  1

  9
$DIMLUNIT
 70
     2
  9
$DIMLWD
 70
    -2
  9
$DIMLWE
 70
    -2
  9
$DIMTMOVE
 70
     0
  9
$LUNITS
 70
     2
  9
$LUPREC
 70
     4
  9
$SKETCHINC
 40
0.1
  9
$FILLETRAD
 40
0.5
  9
$AUNITS
 70
     0
  9
$AUPREC
 70
     0
  9
$MENU
  1
.
  9
$ELEVATION
 40
0.0
  9
$PELEVATION
 40
0.0
  9
$THICKNESS
 40
0.0
  9
$LIMCHECK
 70
     0
  9
$CHAMFERA
 40
0.5
  9
$CHAMFERB
 40
0.5
  9
$CHAMFERC
 40
1.0
  9
$CHAMFERD
 40
0.0
  9
$SKPOLY
 70
     0
  9
$TDCREATE
 40
2456189.625905127
  9
$TDUCREATE
 40
2456189.250905127
  9
$TDUPDATE
 40
2456189.625905139
  9
$TDUUPDATE
 40
2456189.250905139
  9
$TDINDWG
 40
0.0000000116
  9
$TDUSRTIMER
 40
0.0000000116
  9
$USRTIMER
 70
     1
  9
$ANGBASE
 50
0.0
  9
$ANGDIR
 70
     0
  9
$PDMODE
 70
     0
  9
$PDSIZE
 40
0.0
  9
$PLINEWID
 40
0.0
  9
$SPLFRAME
 70
     0
  9
$SPLINETYPE
 70
     6
  9
$SPLINESEGS
 70
     8
  9
$HANDSEED
  5
246
  9
$SURFTAB1
 70
     6
  9
$SURFTAB2
 70
     6
  9
$SURFTYPE
 70
     6
  9
$SURFU
 70
     6
  9
$SURFV
 70
     6
  9
$UCSBASE
  2

  9
$UCSNAME
  2

  9
$UCSORG
 10
0.0
 20
0.0
 30
0.0
  9
$UCSXDIR
 10
1.0
 20
0.0
 30
0.0
  9
$UCSYDIR
 10
0.0
 20
1.0
 30
0.0
  9
$UCSORTHOREF
  2

  9
$UCSORTHOVIEW
 70
     0
  9
$UCSORGTOP
 10
0.0
 20
0.0
 30
0.0
  9
$UCSORGBOTTOM
 10
0.0
 20
0.0
 30
0.0
  9
$UCSORGLEFT
 10
0.0
 20
0.0
 30
0.0
  9
$UCSORGRIGHT
 10
0.0
 20
0.0
 30
0.0
  9
$UCSORGFRONT
 10
0.0
 20
0.0
 30
0.0
  9
$UCSORGBACK
 10
0.0
 20
0.0
 30
0.0
  9
$PUCSBASE
  2

  9
$PUCSNAME
  2

  9
$PUCSORG
 10
0.0
 20
0.0
 30
0.0
  9
$PUCSXDIR
 10
1.0
 20
0.0
 30
0.0
  9
$PUCSYDIR
 10
0.0
 20
1.0
 30
0.0
  9
$PUCSORTHOREF
  2

  9
$PUCSORTHOVIEW
 70
     0
  9
$PUCSORGTOP
 10
0.0
 20
0.0
 30
0.0
  9
$PUCSORGBOTTOM
 10
0.0
 20
0.0
 30
0.0
  9
$PUCSORGLEFT
 10
0.0
 20
0.0
 30
0.0
  9
$PUCSORGRIGHT
 10
0.0
 20
0.0
 30
0.0
  9
$PUCSORGFRONT
 10
0.0
 20
0.0
 30
0.0
  9
$PUCSORGBACK
 10
0.0
 20
0.0
 30
0.0
  9
$USERI1
 70
     0
  9
$USERI2
 70
     0
  9
$USERI3
 70
     0
  9
$USERI4
 70
     0
  9
$USERI5
 70
     0
  9
$USERR1
 40
13.2
  9
$USERR2
 40
0.0
  9
$USERR3
 40
0.0
  9
$USERR4
 40
0.0
  9
$USERR5
 40
0.0
  9
$WORLDVIEW
 70
     1
  9
$SHADEDGE
 70
     3
  9
$SHADEDIF
 70
    70
  9
$TILEMODE
 70
     1
  9
$MAXACTVP
 70
    64
  9
$PINSBASE
 10
0.0
 20
0.0
 30
0.0
  9
$PLIMCHECK
 70
     0
  9
$PEXTMIN
 10
1.00000000000000E+20
 20
1.00000000000000E+20
 30
1.00000000000000E+20
  9
$PEXTMAX
 10
-1.00000000000000E+20
 20
-1.00000000000000E+20
 30
-1.00000000000000E+20
  9
$PLIMMIN
 10
0.0
 20
0.0
  9
$PLIMMAX
 10
12.0
 20
9.0
  9
$UNITMODE
 70
     0
  9
$VISRETAIN
 70
     1
  9
$PLINEGEN
 70
     0
  9
$PSLTSCALE
 70
     1
  9
$TREEDEPTH
 70
  3020
  9
$CMLSTYLE
  2
Standard
  9
$CMLJUST
 70
     0
  9
$CMLSCALE
 40
1.0
  9
$PROXYGRAPHICS
 70
     1
  9
$MEASUREMENT
 70
     1
  9
$CELWEIGHT
370
    -1
  9
$ENDCAPS
280
     0
  9
$JOINSTYLE
280
     0
  9
$LWDISPLAY
290
     0
  9
$INSUNITS
 70
     1
  9
$HYPERLINKBASE
  1

  9
$STYLESHEET
  1

  9
$XEDIT
290
     1
  9
$CEPSNTYPE
380
     0
  9
$PSTYLEMODE
290
     0
  9
$FINGERPRINTGUID
  2
{FAEB1C30-E019-11D5-929B-00C0DF256EC4}
  9
$VERSIONGUID
  2
{FAEB1C32-E019-11D5-929B-00C0DF256EC4}
  9
$EXTNAMES
290
     1
  9
$PSVPSCALE
 40
0.0
  9
$OLESTARTUP
290
     0
  0
ENDSEC
  0
SECTION
  2
CLASSES
  0
CLASS
  1
ACDBDICTIONARYWDFLT
  2
AcDbDictionaryWithDefault
  3
ObjectDBX Classes
 90
        0
280
     0
281
     0
  0
CLASS
  1
TABLESTYLE
  2
AcDbTableStyle
  3
ObjectDBX Classes
 90
     2047
280
     0
281
     0
  0
CLASS
  1
DICTIONARYVAR
  2
AcDbDictionaryVar
  3
ObjectDBX Classes
 90
        0
280
     0
281
     0
  0
CLASS
  1

  2
exOdDbCircle
  3

 90
        0
280
     0
281
     1
  0
CLASS
  1
ACDBPLACEHOLDER
  2
AcDbPlaceHolder
  3
ObjectDBX Classes
 90
        0
280
     0
281
     0
  0
CLASS
  1
LAYOUT
  2
AcDbLayout
  3
ObjectDBX Classes
 90
        0
280
     0
281
     0
  0
ENDSEC
  0
SECTION
  2
TABLES
  0
TABLE
  2
VPORT
  5
8
330
0
100
AcDbSymbolTable
 70
     2
  0
VPORT
  5
29
330
8
100
AcDbSymbolTableRecord
100
AcDbViewportTableRecord
  2
*Active
 70
     0
 10
0.0
 20
0.0
 11
1.0
 21
1.0
 12
210.0
 22
297.0
 13
0.0
 23
0.0
 14
0.5
 24
0.5
 15
0.5
 25
0.5
 16
0.0
 26
0.0
 36
1.0
 17
0.0
 27
0.0
 37
0.0
 40
653.4000000000001
 41
1.60267857142857
 42
50.0
 43
0.0
 44
0.0
 50
0.0
 51
0.0
 71
     0
 72
   100
 73
     1
 74
     3
 75
     0
 76
     0
 77
     0
 78
     0
281
     0
 65
     1
110
0.0
120
0.0
130
0.0
111
1.0
121
0.0
131
0.0
112
0.0
122
1.0
132
0.0
 79
     0
146
0.0
  0
ENDTAB
  0
TABLE
  2
LTYPE
  5
5
330
0
100
AcDbSymbolTable
 70
     8
  0
LTYPE
  5
14
330
5
100
AcDbSymbolTableRecord
100
AcDbLinetypeTableRecord
  2
ByBlock
 70
     0
  3

 72
    65
 73
     0
 40
0.0
  0
LTYPE
  5
15
330
5
100
AcDbSymbolTableRecord
100
AcDbLinetypeTableRecord
  2
ByLayer
 70
     0
  3

 72
    65
 73
     0
 40
0.0
  0
LTYPE
  5
16
330
5
100
AcDbSymbolTableRecord
100
AcDbLinetypeTableRecord
  2
Continuous
 70
     0
  3
Solid line
 72
    65
 73
     0
 40
0.0
  0
LTYPE
  5
2E
330
5
100
AcDbSymbolTableRecord
100
AcDbLinetypeTableRecord
  2
DASHED
 70
     0
  3
Dashed
 72
    65
 73
     2
 40
15.0
 49
7.0
 74
     0
 49
-8.0
 74
     0
  0
LTYPE
  5
2F
330
5
100
AcDbSymbolTableRecord
100
AcDbLinetypeTableRecord
  2
DOTTED
 70
     0
  3
Dotted
 72
    65
 73
     2
 40
1.0
 49
0.0
 74
     0
 49
-1.0
 74
     0
  0
LTYPE
  5
30
330
5
100
AcDbSymbolTableRecord
100
AcDbLinetypeTableRecord
  2
DOT_CENTER
 70
     0
  3
Dot_Center
 72
    65
 73
     4
 40
14.0
 49
12.0
 74
     0
 49
-1.0
 74
     0
 49
0.0
 74
     0
 49
-1.0
 74
     0
  0
LTYPE
  5
31
330
5
100
AcDbSymbolTableRecord
100
AcDbLinetypeTableRecord
  2
LONG_DASHED
 70
     0
  3
Long_Dashed
 72
    65
 73
     2
 40
15.0
 49
10.0
 74
     0
 49
-5.0
 74
     0
  0
LTYPE
  5
32
330
5
100
AcDbSymbolTableRecord
100
AcDbLinetypeTableRecord
  2
DASH_CENTER
 70
     0
  3
Dash_Center
 72
    65
 73
     4
 40
14.0
 49
11.0
 74
     0
 49
-1.0
 74
     0
 49
1.0
 74
     0
 49
-1.0
 74
     0
  0
LTYPE
  5
33
330
5
100
AcDbSymbolTableRecord
100
AcDbLinetypeTableRecord
  2
PHANTOM
 70
     0
  3
Phantom
 72
    65
 73
     6
 40
13.0
 49
10.0
 74
     0
 49
-1.0
 74
     0
 49
0.0
 74
     0
 49
-1.0
 74
     0
 49
0.0
 74
     0
 49
-1.0
 74
     0
  0
LTYPE
  5
34
330
5
100
AcDbSymbolTableRecord
100
AcDbLinetypeTableRecord
  2
CENTER_DASH_DASH
 70
     0
  3
Center_Dash_Dash
 72
    65
 73
     6
 40
14.0
 49
9.0
 74
     0
 49
-1.0
 74
     0
 49
1.0
 74
     0
 49
-1.0
 74
     0
 49
1.0
 74
     0
 49
-1.0
 74
     0
  0
ENDTAB
  0
TABLE
  2
LAYER
  5
2
330
0
100
AcDbSymbolTable
 70
     2
  0
LAYER
  5
10
330
2
100
AcDbSymbolTableRecord
100
AcDbLayerTableRecord
  2
0
 70
     0
 62
     7
  6
Continuous
370
    -3
390
F
  0
LAYER
  5
35
330
2
100
AcDbSymbolTableRecord
100
AcDbLayerTableRecord
  2
1
 70
     0
 62
     7
  6
Continuous
370
    -3
390
F
  0
ENDTAB
  0
TABLE
  2
STYLE
  5
3
330
0
100
AcDbSymbolTable
 70
     3
  0
STYLE
  5
11
330
3
100
AcDbSymbolTableRecord
100
AcDbTextStyleTableRecord
  2
Standard
 70
     0
 40
0.0
 41
1.0
 50
0.0
 71
     0
 42
0.2
  3
txt
  4

  0
STYLE
  5
9D
330
3
100
AcDbSymbolTableRecord
100
AcDbTextStyleTableRecord
  2
CONVERTER_1
 70
     0
 40
0.0
 41
0.89
 50
0.0
 71
     0
 42
0.2
  3
msmincho.ttc
  4

1001
ACAD
1000
MS Mincho
1071
    32785
  0
STYLE
  5
1DF
330
3
100
AcDbSymbolTableRecord
100
AcDbTextStyleTableRecord
  2
CONVERTER_2
 70
     0
 40
0.0
 41
0.9
 50
0.0
 71
     0
 42
0.2
  3
txt.shx
  4

  0
ENDTAB
  0
TABLE
  2
VIEW
  5
6
330
0
100
AcDbSymbolTable
 70
     0
  0
ENDTAB
  0
TABLE
  2
UCS
  5
7
330
0
100
AcDbSymbolTable
 70
     0
  0
ENDTAB
  0
TABLE
  2
APPID
  5
9
330
0
100
AcDbSymbolTable
 70
     1
  0
APPID
  5
12
330
9
100
AcDbSymbolTableRecord
100
AcDbRegAppTableRecord
  2
ACAD
 70
     0
  0
ENDTAB
  0
TABLE
  2
DIMSTYLE
  5
A
330
0
100
AcDbSymbolTable
 70
     9
100
AcDbDimStyleTable
  0
DIMSTYLE
105
27
330
A
100
AcDbSymbolTableRecord
100
AcDbDimStyleTableRecord
  2
Standard
 70
     0
340
11
  0
DIMSTYLE
105
1F2
102
{ACAD_REACTORS
330
1F3
102
}
330
A
100
AcDbSymbolTableRecord
100
AcDbDimStyleTableRecord
  2
ME10_DIM_0
 70
     0
 41
7.0
 42
0.0
 44
2.0
 73
     0
 74
     0
 77
     1
 78
     8
140
7.0
147
0.625
172
     1
173
     1
176
     2
177
     2
178
     7
271
     2
340
1DF
  0
DIMSTYLE
105
1FD
102
{ACAD_REACTORS
330
1FE
102
}
330
A
100
AcDbSymbolTableRecord
100
AcDbDimStyleTableRecord
  2
ME10_DIM_1
 70
     0
 41
7.0
 42
0.0
 44
2.0
 73
     0
 74
     0
 77
     1
 78
     8
140
7.0
147
0.625
172
     1
173
     1
176
     2
177
     2
178
     7
271
     2
340
1DF
  0
DIMSTYLE
105
20A
102
{ACAD_REACTORS
330
20B
102
}
330
A
100
AcDbSymbolTableRecord
100
AcDbDimStyleTableRecord
  2
ME10_DIM_2
 70
     0
 41
7.0
 42
0.0
 44
2.0
 73
     0
 74
     0
 77
     1
 78
     8
140
7.0
147
0.625
172
     1
173
     1
176
     2
177
     2
178
     7
271
     2
340
1DF
  0
DIMSTYLE
105
215
102
{ACAD_REACTORS
330
216
102
}
330
A
100
AcDbSymbolTableRecord
100
AcDbDimStyleTableRecord
  2
ME10_DIM_3
 70
     0
 41
6.0
 42
0.0
 44
2.0
 73
     0
 74
     0
 77
     1
 78
     8
140
7.0
147
0.625
172
     1
173
     1
176
     2
177
     2
178
     7
271
     2
340
1DF
  0
DIMSTYLE
105
220
102
{ACAD_REACTORS
330
221
102
}
330
A
100
AcDbSymbolTableRecord
100
AcDbDimStyleTableRecord
  2
ME10_DIM_4
 70
     0
  3
{\Fgdt;n}<>
 41
7.0
 42
0.0
 44
2.0
 73
     0
 74
     0
 77
     1
 78
     8
140
7.0
147
0.625
172
     1
173
     1
176
     2
177
     2
178
     7
271
     2
340
1DF
  0
DIMSTYLE
105
22E
102
{ACAD_REACTORS
330
22F
102
}
330
A
100
AcDbSymbolTableRecord
100
AcDbDimStyleTableRecord
  2
ME10_DIM_5
 70
     0
 41
6.0
 42
0.0
 44
2.0
 73
     0
 74
     0
 77
     1
 78
     8
140
7.0
147
0.625
172
     1
173
     1
176
     2
177
     2
178
     7
271
     2
340
1DF
344
22B
  0
DIMSTYLE
105
239
102
{ACAD_REACTORS
330
23A
102
}
330
A
100
AcDbSymbolTableRecord
100
AcDbDimStyleTableRecord
  2
ME10_DIM_6
 70
     0
 41
6.0
 42
0.0
 44
2.0
 73
     0
 74
     0
 77
     1
 78
    12
140
7.0
147
0.625
172
     1
173
     1
176
     2
177
     2
178
     7
271
     0
340
1DF
  0
DIMSTYLE
105
244
102
{ACAD_REACTORS
330
245
102
}
330
A
100
AcDbSymbolTableRecord
100
AcDbDimStyleTableRecord
  2
ME10_DIM_7
 70
     0
 41
6.0
 42
0.0
 44
2.0
 73
     0
 74
     0
 77
     1
 78
     8
140
7.0
147
0.625
172
     1
173
     1
176
     2
177
     2
178
     7
271
     2
340
1DF
  0
ENDTAB
  0
TABLE
  2
BLOCK_RECORD
  5
1
330
0
100
AcDbSymbolTable
 70
    17
  0
BLOCK_RECORD
  5
1F
330
1
100
AcDbSymbolTableRecord
100
AcDbBlockTableRecord
  2
*Model_Space
340
22
  0
BLOCK_RECORD
  5
1B
330
1
100
AcDbSymbolTableRecord
100
AcDbBlockTableRecord
  2
*Paper_Space
340
1E
  0
BLOCK_RECORD
  5
23
330
1
100
AcDbSymbolTableRecord
100
AcDbBlockTableRecord
  2
*Paper_Space0
340
26
  0
BLOCK_RECORD
  5
36
330
1
100
AcDbSymbolTableRecord
100
AcDbBlockTableRecord
  2
_J__A4
340
0
102
{BLKREFS
331
4E
102
}
  0
BLOCK_RECORD
  5
39
330
1
100
AcDbSymbolTableRecord
100
AcDbBlockTableRecord
  2
Y201-0
340
0
102
{BLKREFS
331
4F
102
}
  0
BLOCK_RECORD
  5
3C
330
1
100
AcDbSymbolTableRecord
100
AcDbBlockTableRecord
  2
84-34-M21
340
0
102
{BLKREFS
331
46
102
}
  0
BLOCK_RECORD
  5
3F
330
1
100
AcDbSymbolTableRecord
100
AcDbBlockTableRecord
  2
84-35-I
340
0
102
{BLKREFS
331
47
102
}
  0
BLOCK_RECORD
  5
42
330
1
100
AcDbSymbolTableRecord
100
AcDbBlockTableRecord
  2
87-18
340
0
102
{BLKREFS
331
48
102
}
  0
BLOCK_RECORD
  5
45
330
1
100
AcDbSymbolTableRecord
100
AcDbBlockTableRecord
  2
R261F
340
0
102
{BLKREFS
331
50
102
}
  0
BLOCK_RECORD
  5
4B
330
1
100
AcDbSymbolTableRecord
100
AcDbBlockTableRecord
  2
30-205-M11
340
0
102
{BLKREFS
331
51
102
}
  0
BLOCK_RECORD
  5
1E9
330
1
100
AcDbSymbolTableRecord
100
AcDbBlockTableRecord
  2
*D08
340
0
  0
BLOCK_RECORD
  5
1F4
330
1
100
AcDbSymbolTableRecord
100
AcDbBlockTableRecord
  2
*D19
340
0
  0
BLOCK_RECORD
  5
1FF
330
1
100
AcDbSymbolTableRecord
100
AcDbBlockTableRecord
  2
*D210
340
0
  0
BLOCK_RECORD
  5
20C
330
1
100
AcDbSymbolTableRecord
100
AcDbBlockTableRecord
  2
*D311
340
0
  0
BLOCK_RECORD
  5
217
330
1
100
AcDbSymbolTableRecord
100
AcDbBlockTableRecord
  2
*D412
340
0
  0
BLOCK_RECORD
  5
222
330
1
100
AcDbSymbolTableRecord
100
AcDbBlockTableRecord
  2
*D513
340
0
  0
BLOCK_RECORD
  5
22B
330
1
100
AcDbSymbolTableRecord
100
AcDbBlockTableRecord
  2
_None
340
0
  0
BLOCK_RECORD
  5
230
330
1
100
AcDbSymbolTableRecord
100
AcDbBlockTableRecord
  2
*D615
340
0
  0
BLOCK_RECORD
  5
23B
330
1
100
AcDbSymbolTableRecord
100
AcDbBlockTableRecord
  2
*D716
340
0
  0
ENDTAB
  0
ENDSEC
  0
SECTION
  2
BLOCKS
  0
BLOCK
  5
20
330
1F
100
AcDbEntity
  8
0
100
AcDbBlockBegin
  2
*Model_Space
 70
     0
 71
     0
 10
0.0
 20
0.0
 30
0.0
  3
*Model_Space
  1

  0
ENDBLK
  5
21
330
1F
100
AcDbEntity
  8
0
100
AcDbBlockEnd
  0
BLOCK
  5
1C
330
1B
100
AcDbEntity
 67
     1
  8
0
100
AcDbBlockBegin
  2
*Paper_Space
 70
     0
 71
     0
 10
0.0
 20
0.0
 30
0.0
  3
*Paper_Space
  1

  0
ENDBLK
  5
1D
330
1B
100
AcDbEntity
 67
     1
  8
0
100
AcDbBlockEnd
  0
BLOCK
  5
24
330
23
100
AcDbEntity
  8
0
100
AcDbBlockBegin
  2
*Paper_Space0
 70
     0
 71
     0
 10
0.0
 20
0.0
 30
0.0
  3
*Paper_Space0
  1

  0
ENDBLK
  5
25
330
23
100
AcDbEntity
  8
0
100
AcDbBlockEnd
  0
BLOCK
  5
37
330
36
100
AcDbEntity
  8
0
100
AcDbBlockBegin
  2
_J__A4
 70
     0
 71
     0
 10
0.0
 20
0.0
 30
0.0
  3
_J__A4
  1

  0
POINT
  5
52
330
36
100
AcDbEntity
  8
1
 62
     4
100
AcDbPoint
 10
34.0
 20
34.00000000000001
 30
0.0
  0
POINT
  5
53
330
36
100
AcDbEntity
  8
1
 62
     4
100
AcDbPoint
 10
57.0
 20
12.25
 30
0.0
  0
POINT
  5
54
330
36
100
AcDbEntity
  8
1
 62
     4
100
AcDbPoint
 10
57.0
 20
20.75000000000001
 30
0.0
  0
POINT
  5
55
330
36
100
AcDbEntity
  8
1
 62
     4
100
AcDbPoint
 10
57.0
 20
24.75000000000001
 30
0.0
  0
POINT
  5
56
330
36
100
AcDbEntity
  8
1
 62
     4
100
AcDbPoint
 10
57.0
 20
16.25
 30
0.0
  0
POINT
  5
57
330
36
100
AcDbEntity
  8
1
 62
     4
100
AcDbPoint
 10
157.5
 20
19.00000000000001
 30
0.0
  0
POINT
  5
58
330
36
100
AcDbEntity
  8
1
 62
     4
100
AcDbPoint
 10
47.5
 20
282.0000000000003
 30
0.0
  0
POINT
  5
59
330
36
100
AcDbEntity
  8
1
 62
     4
100
AcDbPoint
 10
57.0
 20
22.75000000000001
 30
0.0
  0
POINT
  5
5A
330
36
100
AcDbEntity
  8
1
 62
     4
100
AcDbPoint
 10
57.0
 20
14.25
 30
0.0
  0
POINT
  5
5B
330
36
100
AcDbEntity
  8
1
 62
     4
100
AcDbPoint
 10
157.5
 20
12.5
 30
0.0
  0
POINT
  5
5C
330
36
100
AcDbEntity
  8
1
 62
     4
100
AcDbPoint
 10
163.25
 20
12.5
 30
0.0
  0
POINT
  5
5D
330
36
100
AcDbEntity
  8
1
 62
     4
100
AcDbPoint
 10
151.75
 20
12.5
 30
0.0
  0
POINT
  5
5E
330
36
100
AcDbEntity
  8
1
 62
     4
100
AcDbPoint
 10
134.75
 20
12.5
 30
0.0
  0
POINT
  5
5F
330
36
100
AcDbEntity
  8
1
 62
     4
100
AcDbPoint
 10
146.25
 20
12.5
 30
0.0
  0
POINT
  5
60
330
36
100
AcDbEntity
  8
1
 62
     4
100
AcDbPoint
 10
140.5
 20
12.5
 30
0.0
  0
POINT
  5
61
330
36
100
AcDbEntity
  8
1
 62
     4
100
AcDbPoint
 10
140.5
 20
19.00000000000001
 30
0.0
  0
POINT
  5
62
330
36
100
AcDbEntity
  8
1
 62
     4
100
AcDbPoint
 10
117.75
 20
12.5
 30
0.0
  0
POINT
  5
63
330
36
100
AcDbEntity
  8
1
 62
     4
100
AcDbPoint
 10
129.25
 20
12.5
 30
0.0
  0
POINT
  5
64
330
36
100
AcDbEntity
  8
1
 62
     4
100
AcDbPoint
 10
123.5
 20
12.5
 30
0.0
  0
POINT
  5
65
330
36
100
AcDbEntity
  8
1
 62
     4
100
AcDbPoint
 10
123.5
 20
19.00000000000001
 30
0.0
  0
POINT
  5
66
330
36
100
AcDbEntity
  8
1
 62
     4
100
AcDbPoint
 10
100.75
 20
12.5
 30
0.0
  0
POINT
  5
67
330
36
100
AcDbEntity
  8
1
 62
     4
100
AcDbPoint
 10
112.25
 20
12.5
 30
0.0
  0
POINT
  5
68
330
36
100
AcDbEntity
  8
1
 62
     4
100
AcDbPoint
 10
106.5
 20
12.5
 30
0.0
  0
POINT
  5
69
330
36
100
AcDbEntity
  8
1
 62
     4
100
AcDbPoint
 10
106.5
 20
19.00000000000001
 30
0.0
  0
POINT
  5
6A
330
36
100
AcDbEntity
  8
1
 62
     4
100
AcDbPoint
 10
85.25
 20
17.0
 30
0.0
  0
POINT
  5
6B
330
36
100
AcDbEntity
  8
1
 62
     4
100
AcDbPoint
 10
93.75
 20
17.0
 30
0.0
  0
LINE
  5
6C
330
36
100
AcDbEntity
  8
1
  6
Continuous
 62
     2
100
AcDbLine
 10
81.0
 20
27.00000000000001
 30
0.0
 11
81.0
 21
10.0
 31
0.0
  0
LINE
  5
6D
330
36
100
AcDbEntity
  8
1
  6
DOT_CENTER
 62
     2
100
AcDbLine
 10
187.0
 20
26.50000000000001
 30
0.0
 11
187.0
 21
20.50000000000001
 31
0.0
  0
LINE
  5
6E
330
36
100
AcDbEntity
  8
1
  6
DOT_CENTER
 62
     2
100
AcDbLine
 10
184.0
 20
23.50000000000001
 30
0.0
 11
197.0
 21
23.50000000000001
 31
0.0
  0
LINE
  5
6F
330
36
100
AcDbEntity
  8
1
  6
Continuous
 62
     7
100
AcDbLine
 10
196.0
 20
21.50000000000001
 30
0.0
 11
191.0
 21
22.30000000000001
 31
0.0
  0
LINE
  5
70
330
36
100
AcDbEntity
  8
1
  6
Continuous
 62
     7
100
AcDbLine
 10
196.0
 20
25.50000000000001
 30
0.0
 11
196.0
 21
21.50000000000001
 31
0.0
  0
LINE
  5
71
330
36
100
AcDbEntity
  8
1
  6
Continuous
 62
     7
100
AcDbLine
 10
191.0
 20
24.70000000000001
 30
0.0
 11
196.0
 21
25.50000000000001
 31
0.0
  0
LINE
  5
72
330
36
100
AcDbEntity
  8
1
  6
Continuous
 62
     7
100
AcDbLine
 10
191.0
 20
24.70000000000001
 30
0.0
 11
191.0
 21
22.30000000000001
 31
0.0
  0
LINE
  5
73
330
36
100
AcDbEntity
  8
1
  6
Continuous
 62
     2
100
AcDbLine
 10
33.0
 20
27.0
 30
0.0
 11
33.0
 21
10.0
 31
0.0
  0
LINE
  5
74
330
36
100
AcDbEntity
  8
1
  6
Continuous
 62
     2
100
AcDbLine
 10
25.0
 20
18.50000000000001
 30
0.0
 11
81.0
 21
18.50000000000001
 31
0.0
  0
LINE
  5
75
330
36
100
AcDbEntity
  8
1
  6
Continuous
 62
     7
100
AcDbLine
 10
200.0
 20
287.0000000000003
 30
0.0
 11
105.0
 21
287.0000000000003
 31
0.0
  0
LINE
  5
76
330
36
100
AcDbEntity
  8
1
  6
Continuous
 62
     7
100
AcDbLine
 10
200.0
 20
10.0
 30
0.0
 11
200.0
 21
148.5
 31
0.0
  0
LINE
  5
77
330
36
100
AcDbEntity
  8
1
  6
Continuous
 62
     7
100
AcDbLine
 10
25.0
 20
10.0
 30
0.0
 11
105.0
 21
10.0
 31
0.0
  0
LINE
  5
78
330
36
100
AcDbEntity
  8
1
  6
PHANTOM
 62
     4
100
AcDbLine
 10
0.0
 20
297.0
 30
0.0
 11
0.0
 21
0.0
 31
0.0
  0
LINE
  5
79
330
36
100
AcDbEntity
  8
1
  6
PHANTOM
 62
     4
100
AcDbLine
 10
210.0
 20
297.0
 30
0.0
 11
0.0
 21
297.0
 31
0.0
  0
LINE
  5
7A
330
36
100
AcDbEntity
  8
1
  6
PHANTOM
 62
     4
100
AcDbLine
 10
210.0
 20
0.0
 30
0.0
 11
210.0
 21
297.0
 31
0.0
  0
LINE
  5
7B
330
36
100
AcDbEntity
  8
1
  6
PHANTOM
 62
     4
100
AcDbLine
 10
0.0
 20
0.0
 30
0.0
 11
210.0
 21
0.0
 31
0.0
  0
LINE
  5
7C
330
36
100
AcDbEntity
  8
1
  6
Continuous
 62
     7
100
AcDbLine
 10
25.0
 20
41.0
 30
0.0
 11
200.0
 21
41.0
 31
0.0
  0
LINE
  5
7D
330
36
100
AcDbEntity
  8
1
  6
Continuous
 62
     7
100
AcDbLine
 10
200.0
 20
27.00000000000001
 30
0.0
 11
25.0
 21
27.00000000000001
 31
0.0
  0
LINE
  5
7E
330
36
100
AcDbEntity
  8
1
  6
Continuous
 62
     2
100
AcDbLine
 10
33.0
 20
41.00000000000001
 30
0.0
 11
33.0
 21
27.0
 31
0.0
  0
LINE
  5
7F
330
36
100
AcDbEntity
  8
1
  6
Continuous
 62
     2
100
AcDbLine
 10
55.0
 20
287.0000000000003
 30
0.0
 11
55.0
 21
277.0000000000003
 31
0.0
  0
LINE
  5
80
330
36
100
AcDbEntity
  8
1
  6
Continuous
 62
     2
100
AcDbLine
 10
40.0
 20
287.0000000000003
 30
0.0
 11
40.0
 21
277.0000000000003
 31
0.0
  0
LINE
  5
81
330
36
100
AcDbEntity
  8
1
  6
Continuous
 62
     7
100
AcDbLine
 10
25.0
 20
10.0
 30
0.0
 11
25.0
 21
148.5
 31
0.0
  0
LINE
  5
82
330
36
100
AcDbEntity
  8
1
  6
Continuous
 62
     2
100
AcDbLine
 10
55.0
 20
277.0000000000003
 30
0.0
 11
25.0
 21
277.0000000000003
 31
0.0
  0
LINE
  5
83
330
36
100
AcDbEntity
  8
1
  6
Continuous
 62
     2
100
AcDbLine
 10
166.0
 20
27.00000000000001
 30
0.0
 11
166.0
 21
10.0
 31
0.0
  0
LINE
  5
84
330
36
100
AcDbEntity
  8
1
  6
Continuous
 62
     2
100
AcDbLine
 10
132.0
 20
27.00000000000001
 30
0.0
 11
132.0
 21
9.99999999999999
 31
0.0
  0
LINE
  5
85
330
36
100
AcDbEntity
  8
1
  6
Continuous
 62
     2
100
AcDbLine
 10
149.0
 20
27.00000000000001
 30
0.0
 11
149.0
 21
10.0
 31
0.0
  0
LINE
  5
86
330
36
100
AcDbEntity
  8
1
  6
Continuous
 62
     2
100
AcDbLine
 10
115.0
 20
27.00000000000001
 30
0.0
 11
115.0
 21
9.99999999999999
 31
0.0
  0
LINE
  5
87
330
36
100
AcDbEntity
  8
1
  6
Continuous
 62
     2
100
AcDbLine
 10
98.0
 20
27.00000000000001
 30
0.0
 11
98.0
 21
9.99999999999999
 31
0.0
  0
LINE
  5
88
330
36
100
AcDbEntity
  8
1
  6
Continuous
 62
     2
100
AcDbLine
 10
166.0
 20
20.00000000000001
 30
0.0
 11
200.0
 21
20.00000000000001
 31
0.0
  0
LINE
  5
89
330
36
100
AcDbEntity
  8
1
  6
Continuous
 62
     2
100
AcDbLine
 10
105.0
 20
287.0000000000003
 30
0.0
 11
105.0
 21
292.0000000000003
 31
0.0
  0
LINE
  5
8A
330
36
100
AcDbEntity
  8
1
  6
Continuous
 62
     7
100
AcDbLine
 10
105.0
 20
287.0000000000003
 30
0.0
 11
25.0
 21
287.0000000000003
 31
0.0
  0
LINE
  5
8B
330
36
100
AcDbEntity
  8
1
  6
Continuous
 62
     2
100
AcDbLine
 10
25.0
 20
148.5
 30
0.0
 11
20.0
 21
148.5
 31
0.0
  0
LINE
  5
8C
330
36
100
AcDbEntity
  8
1
  6
Continuous
 62
     7
100
AcDbLine
 10
25.0
 20
148.5
 30
0.0
 11
25.0
 21
287.0000000000003
 31
0.0
  0
LINE
  5
8D
330
36
100
AcDbEntity
  8
1
  6
Continuous
 62
     2
100
AcDbLine
 10
200.0
 20
148.5
 30
0.0
 11
205.0
 21
148.5
 31
0.0
  0
LINE
  5
8E
330
36
100
AcDbEntity
  8
1
  6
Continuous
 62
     7
100
AcDbLine
 10
200.0
 20
148.5
 30
0.0
 11
200.0
 21
287.0000000000003
 31
0.0
  0
LINE
  5
8F
330
36
100
AcDbEntity
  8
1
  6
Continuous
 62
     2
100
AcDbLine
 10
105.0
 20
10.0
 30
0.0
 11
105.0
 21
5.0
 31
0.0
  0
LINE
  5
90
330
36
100
AcDbEntity
  8
1
  6
Continuous
 62
     7
100
AcDbLine
 10
105.0
 20
10.0
 30
0.0
 11
200.0
 21
10.0
 31
0.0
  0
CIRCLE
  5
91
330
36
100
AcDbEntity
  8
1
  6
DOT_CENTER
 62
     7
100
AcDbCircle
 10
89.5
 20
18.0
 30
0.0
 40
0.1000000000000227
  0
CIRCLE
  5
92
330
36
100
AcDbEntity
  8
1
  6
DOT_CENTER
 62
     7
100
AcDbCircle
 10
89.5
 20
16.0
 30
0.0
 40
0.1000000000000227
  0
CIRCLE
  5
93
330
36
100
AcDbEntity
  8
1
  6
Continuous
 62
     7
100
AcDbCircle
 10
187.0
 20
23.50000000000001
 30
0.0
 40
2.0
  0
CIRCLE
  5
94
330
36
100
AcDbEntity
  8
1
  6
Continuous
 62
     7
100
AcDbCircle
 10
187.0
 20
23.50000000000001
 30
0.0
 40
1.200000000000102
  0
CIRCLE
  5
95
330
36
100
AcDbEntity
  8
1
  6
Continuous
 62
     7
100
AcDbCircle
 10
154.5
 20
12.5
 30
0.0
 40
0.3000000000000114
  0
CIRCLE
  5
96
330
36
100
AcDbEntity
  8
1
  6
Continuous
 62
     7
100
AcDbCircle
 10
160.5
 20
12.5
 30
0.0
 40
0.3000000000000114
  0
CIRCLE
  5
97
330
36
100
AcDbEntity
  8
1
  6
Continuous
 62
     7
100
AcDbCircle
 10
143.5
 20
12.5
 30
0.0
 40
0.3000000000000114
  0
CIRCLE
  5
98
330
36
100
AcDbEntity
  8
1
  6
Continuous
 62
     7
100
AcDbCircle
 10
137.5
 20
12.5
 30
0.0
 40
0.3000000000000114
  0
CIRCLE
  5
99
330
36
100
AcDbEntity
  8
1
  6
Continuous
 62
     7
100
AcDbCircle
 10
126.5
 20
12.5
 30
0.0
 40
0.2999999999999972
  0
CIRCLE
  5
9A
330
36
100
AcDbEntity
  8
1
  6
Continuous
 62
     7
100
AcDbCircle
 10
120.5
 20
12.5
 30
0.0
 40
0.2999999999999972
  0
CIRCLE
  5
9B
330
36
100
AcDbEntity
  8
1
  6
Continuous
 62
     7
100
AcDbCircle
 10
109.5
 20
12.5
 30
0.0
 40
0.2999999999999972
  0
CIRCLE
  5
9C
330
36
100
AcDbEntity
  8
1
  6
Continuous
 62
     7
100
AcDbCircle
 10
103.5
 20
12.5
 30
0.0
 40
0.2999999999999972
  0
MTEXT
  5
9E
330
36
100
AcDbEntity
  8
1
 62
   250
100
AcDbMText
 10
25.0
 20
5.0
 30
0.0
 40
3.5
 41
0.0
 71
     4
 72
     1
  1
備考欄の文字列 原点位置=4
  7
CONVERTER_1
 73
     1
 44
0.7202881152461
  0
MTEXT
  5
9F
330
36
100
AcDbEntity
  8
1
 62
     2
100
AcDbMText
 10
89.5
 20
24.00000000000001
 30
0.0
 40
3.5
 41
0.0
 71
     5
 72
     1
  1
尺度
  7
CONVERTER_1
 73
     1
 44
0.7202881152461
  0
MTEXT
  5
A0
330
36
100
AcDbEntity
  8
1
 62
     2
100
AcDbMText
 10
135.5
 20
25.00000000000001
 30
0.0
 40
3.0
 41
0.0
 71
     5
 72
     1
  1
製図
  7
CONVERTER_1
 73
     1
 44
0.78031212484994
  0
MTEXT
  5
A1
330
36
100
AcDbEntity
  8
1
 62
     2
100
AcDbMText
 10
152.5
 20
25.00000000000001
 30
0.0
 40
3.0
 41
0.0
 71
     5
 72
     1
  1
設計
  7
CONVERTER_1
 73
     1
 44
0.78031212484994
  0
MTEXT
  5
A2
330
36
100
AcDbEntity
  8
1
 62
     2
100
AcDbMText
 10
118.5
 20
25.00000000000001
 30
0.0
 40
3.0
 41
0.0
 71
     5
 72
     1
  1
検図
  7
CONVERTER_1
 73
     1
 44
0.78031212484994
  0
MTEXT
  5
A3
330
36
100
AcDbEntity
  8
1
 62
     2
100
AcDbMText
 10
175.0
 20
23.50000000000001
 30
0.0
 40
3.5
 41
0.0
 71
     5
 72
     1
  1
第三角法
  7
CONVERTER_1
 73
     1
 44
0.7202881152461
  0
MTEXT
  5
A4
330
36
100
AcDbEntity
  8
1
 62
     2
100
AcDbMText
 10
101.5
 20
25.00000000000001
 30
0.0
 40
3.0
 41
0.0
 71
     5
 72
     1
  1
承認
  7
CONVERTER_1
 73
     1
 44
0.78031212484994
  0
MTEXT
  5
A5
330
36
100
AcDbEntity
  8
1
 62
     2
100
AcDbMText
 10
29.0
 20
14.25
 30
0.0
 40
3.5
 41
0.0
 71
     5
 72
     1
  1
品番
  7
CONVERTER_1
 73
     1
 44
0.96038415366146
  0
MTEXT
  5
A6
330
36
100
AcDbEntity
  8
1
 62
     2
100
AcDbMText
 10
29.0
 20
22.75
 30
0.0
 40
3.5
 41
0.0
 71
     5
 72
     1
  1
品名
  7
CONVERTER_1
 73
     1
 44
0.96038415366146
  0
MTEXT
  5
A7
330
36
100
AcDbEntity
  8
1
 62
     2
100
AcDbMText
 10
29.0
 20
34.00000000000001
 30
0.0
 40
3.5
 41
0.0
 71
     5
 72
     1
  1
備考
  7
CONVERTER_1
 73
     1
 44
0.60024009603842
  0
MTEXT
  5
A8
330
36
100
AcDbEntity
  8
1
 62
     2
100
AcDbMText
 10
32.5
 20
282.0000000000003
 30
0.0
 40
5.0
 41
0.0
 71
     5
 72
     1
  1
図番
  7
CONVERTER_1
 73
     1
 44
0.60024009603842
  0
MTEXT
  5
A9
330
36
100
AcDbEntity
  8
1
 62
     7
100
AcDbMText
 10
171.5
 20
15.0
 30
0.0
 40
2.5
 41
0.0
 71
     5
 72
     1
  1
株式会社
  7
CONVERTER_1
 73
     1
 44
1.32052821128451
  0
MTEXT
  5
AA
330
36
100
AcDbEntity
  8
1
 62
     7
100
AcDbMText
 10
188.5
 20
15.0
 30
0.0
 40
3.0
 41
0.0
 71
     5
 72
     1
  1
三栄水栓製作所
  7
CONVERTER_1
 73
     1
 44
1.32052821128451
  0
ENDBLK
  5
38
330
36
100
AcDbEntity
  8
0
100
AcDbBlockEnd
  0
BLOCK
  5
3A
330
39
100
AcDbEntity
  8
0
100
AcDbBlockBegin
  2
Y201-0
 70
     0
 71
     0
 10
213.3275816902591
 20
231.4164994874952
 30
0.0
  3
Y201-0
  1

  0
LINE
  5
AB
330
39
100
AcDbEntity
  8
1
  6
Continuous
 62
     2
100
AcDbLine
 10
117.597583733613
 20
162.0007533657283
 30
0.0
 11
116.897583733613
 21
160.7883178004302
 31
0.0
  0
LINE
  5
AC
330
39
100
AcDbEntity
  8
1
  6
Continuous
 62
     7
100
AcDbLine
 10
116.897583733613
 20
160.7883178004302
 30
0.0
 11
125.897583733613
 21
160.7883178004302
 31
0.0
  0
LINE
  5
AD
330
39
100
AcDbEntity
  8
1
  6
Continuous
 62
     7
100
AcDbLine
 10
116.897583733613
 20
163.1883178004301
 30
0.0
 11
116.897583733613
 21
160.7883178004302
 31
0.0
  0
LINE
  5
AE
330
39
100
AcDbEntity
  8
1
  6
Continuous
 62
     7
100
AcDbLine
 10
114.397583733613
 20
160.7883178004302
 30
0.0
 11
116.897583733613
 21
160.7883178004302
 31
0.0
  0
LINE
  5
AF
330
39
100
AcDbEntity
  8
1
  6
Continuous
 62
     7
100
AcDbLine
 10
113.397583733613
 20
157.2883178004302
 30
0.0
 11
113.397583733613
 21
160.2883178004302
 31
0.0
  0
LINE
  5
B0
330
39
100
AcDbEntity
  8
1
  6
Continuous
 62
     2
100
AcDbLine
 10
114.397583733613
 20
160.7883178004302
 30
0.0
 11
114.397583733613
 21
156.7883178004302
 31
0.0
  0
LINE
  5
B1
330
39
100
AcDbEntity
  8
1
  6
Continuous
 62
     7
100
AcDbLine
 10
113.897583733613
 20
156.7883178004302
 30
0.0
 11
114.397583733613
 21
156.7883178004302
 31
0.0
  0
LINE
  5
B2
330
39
100
AcDbEntity
  8
1
  6
Continuous
 62
     7
100
AcDbLine
 10
113.897583733613
 20
160.7883178004302
 30
0.0
 11
114.397583733613
 21
160.7883178004302
 31
0.0
  0
LINE
  5
B3
330
39
100
AcDbEntity
  8
1
  6
Continuous
 62
     2
100
AcDbLine
 10
115.397583733613
 20
160.3821572253813
 30
0.0
 11
115.397583733613
 21
157.0405858736502
 31
0.0
  0
LINE
  5
B4
330
39
100
AcDbEntity
  8
1
  6
Continuous
 62
     2
100
AcDbLine
 10
116.397583733613
 20
160.1251132752481
 30
0.0
 11
116.397583733613
 21
157.1833880681687
 31
0.0
  0
LINE
  5
B5
330
39
100
AcDbEntity
  8
1
  6
Continuous
 62
     2
100
AcDbLine
 10
117.397583733613
 20
160.0108715196335
 30
0.0
 11
117.397583733613
 21
157.3833111404944
 31
0.0
  0
LINE
  5
B6
330
39
100
AcDbEntity
  8
1
  6
Continuous
 62
     2
100
AcDbLine
 10
118.397583733613
 20
159.7538275695002
 30
0.0
 11
118.397583733613
 21
157.4118715793981
 31
0.0
  0
LINE
  5
B7
330
39
100
AcDbEntity
  8
1
  6
Continuous
 62
     2
100
AcDbLine
 10
119.397583733613
 20
159.4396627415598
 30
0.0
 11
119.397583733613
 21
157.6403550906276
 31
0.0
  0
LINE
  5
B8
330
39
100
AcDbEntity
  8
1
  6
Continuous
 62
     2
100
AcDbLine
 10
120.397583733613
 20
159.2968605470413
 30
0.0
 11
120.397583733613
 21
157.9545199185681
 31
0.0
  0
LINE
  5
B9
330
39
100
AcDbEntity
  8
1
  6
Continuous
 62
     7
100
AcDbLine
 10
128.397583733613
 20
156.7883178004302
 30
0.0
 11
114.397583733613
 21
156.7883178004302
 31
0.0
  0
LINE
  5
BA
330
39
100
AcDbEntity
  8
1
  6
Continuous
 62
     7
100
AcDbLine
 10
125.897583733613
 20
162.0007533657283
 30
0.0
 11
116.897583733613
 21
162.0007533657283
 31
0.0
  0
LINE
  5
BB
330
39
100
AcDbEntity
  8
1
  6
Continuous
 62
     2
100
AcDbLine
 10
125.1975837336131
 20
162.0007533657283
 30
0.0
 11
125.1975837336131
 21
163.1883178004301
 31
0.0
  0
LINE
  5
BC
330
39
100
AcDbEntity
  8
1
  6
Continuous
 62
     2
100
AcDbLine
 10
125.897583733613
 20
160.7883178004302
 30
0.0
 11
125.1975837336131
 21
162.0007533657283
 31
0.0
  0
LINE
  5
BD
330
39
100
AcDbEntity
  8
1
  6
Continuous
 62
     7
100
AcDbLine
 10
125.897583733613
 20
160.7883178004302
 30
0.0
 11
125.897583733613
 21
163.1883178004301
 31
0.0
  0
LINE
  5
BE
330
39
100
AcDbEntity
  8
1
  6
Continuous
 62
     7
100
AcDbLine
 10
125.897583733613
 20
160.7883178004302
 30
0.0
 11
128.397583733613
 21
160.7883178004302
 31
0.0
  0
LINE
  5
BF
330
39
100
AcDbEntity
  8
1
  6
Continuous
 62
     7
100
AcDbLine
 10
129.397583733613
 20
160.2883178004302
 30
0.0
 11
129.397583733613
 21
157.2883178004302
 31
0.0
  0
LINE
  5
C0
330
39
100
AcDbEntity
  8
1
  6
Continuous
 62
     2
100
AcDbLine
 10
128.397583733613
 20
156.7883178004302
 30
0.0
 11
128.397583733613
 21
160.7883178004302
 31
0.0
  0
LINE
  5
C1
330
39
100
AcDbEntity
  8
1
  6
Continuous
 62
     7
100
AcDbLine
 10
128.397583733613
 20
156.7883178004302
 30
0.0
 11
128.897583733613
 21
156.7883178004302
 31
0.0
  0
LINE
  5
C2
330
39
100
AcDbEntity
  8
1
  6
Continuous
 62
     7
100
AcDbLine
 10
128.397583733613
 20
160.7883178004302
 30
0.0
 11
128.897583733613
 21
160.7883178004302
 31
0.0
  0
LINE
  5
C3
330
39
100
AcDbEntity
  8
1
  6
Continuous
 62
     2
100
AcDbLine
 10
127.397583733613
 20
157.0405858736502
 30
0.0
 11
127.397583733613
 21
160.3821572253813
 31
0.0
  0
LINE
  5
C4
330
39
100
AcDbEntity
  8
1
  6
Continuous
 62
     2
100
AcDbLine
 10
126.397583733613
 20
157.1833880681687
 30
0.0
 11
126.397583733613
 21
160.1251132752481
 31
0.0
  0
LINE
  5
C5
330
39
100
AcDbEntity
  8
1
  6
Continuous
 62
     2
100
AcDbLine
 10
125.397583733613
 20
157.3833111404944
 30
0.0
 11
125.397583733613
 21
160.0108715196335
 31
0.0
  0
LINE
  5
C6
330
39
100
AcDbEntity
  8
1
  6
Continuous
 62
     2
100
AcDbLine
 10
124.397583733613
 20
157.4118715793981
 30
0.0
 11
124.397583733613
 21
159.7538275695002
 31
0.0
  0
LINE
  5
C7
330
39
100
AcDbEntity
  8
1
  6
Continuous
 62
     2
100
AcDbLine
 10
123.397583733613
 20
157.6403550906276
 30
0.0
 11
123.397583733613
 21
159.4396627415598
 31
0.0
  0
LINE
  5
C8
330
39
100
AcDbEntity
  8
1
  6
Continuous
 62
     2
100
AcDbLine
 10
122.397583733613
 20
157.9545199185681
 30
0.0
 11
122.397583733613
 21
159.2968605470413
 31
0.0
  0
LINE
  5
C9
330
39
100
AcDbEntity
  8
1
  6
Continuous
 62
     2
100
AcDbLine
 10
117.597583733613
 20
163.1883178004301
 30
0.0
 11
117.597583733613
 21
162.0007533657283
 31
0.0
  0
LINE
  5
CA
330
39
100
AcDbEntity
  8
1
  6
Continuous
 62
     7
100
AcDbLine
 10
324.271759840697
 20
165.7883178004302
 30
0.0
 11
319.8698360520504
 21
165.7883178004302
 31
0.0
  0
LINE
  5
CB
330
39
100
AcDbEntity
  8
1
  6
Continuous
 62
     7
100
AcDbLine
 10
321.396759840697
 20
165.2883178004302
 30
0.0
 11
317.271759840697
 21
165.2883178004302
 31
0.0
  0
LINE
  5
CC
330
39
100
AcDbEntity
  8
1
  6
Continuous
 62
     7
100
AcDbLine
 10
324.271759840697
 20
175.0883178004302
 30
0.0
 11
324.271759840697
 21
165.7883178004302
 31
0.0
  0
LINE
  5
CD
330
39
100
AcDbEntity
  8
1
  6
Continuous
 62
     7
100
AcDbLine
 10
317.271759840697
 20
166.5383178004302
 30
0.0
 11
319.8698360520504
 21
167.2883178004302
 31
0.0
  0
LINE
  5
CE
330
39
100
AcDbEntity
  8
1
  6
Continuous
 62
     7
100
AcDbLine
 10
319.8698360520504
 20
165.7883178004302
 30
0.0
 11
317.271759840697
 21
166.5383178004302
 31
0.0
  0
LINE
  5
CF
330
39
100
AcDbEntity
  8
1
  6
Continuous
 62
     7
100
AcDbLine
 10
323.771759840697
 20
165.2883178004302
 30
0.0
 11
321.396759840697
 21
165.2883178004302
 31
0.0
  0
LINE
  5
D0
330
39
100
AcDbEntity
  8
1
  6
Continuous
 62
     7
100
AcDbLine
 10
319.8698360520504
 20
167.2883178004302
 30
0.0
 11
314.6736836293437
 21
167.2883178004302
 31
0.0
  0
LINE
  5
D1
330
39
100
AcDbEntity
  8
1
  6
Continuous
 62
     7
100
AcDbLine
 10
319.8698360520504
 20
165.7883178004302
 30
0.0
 11
319.8698360520504
 21
167.2883178004302
 31
0.0
  0
LINE
  5
D2
330
39
100
AcDbEntity
  8
1
  6
Continuous
 62
     7
100
AcDbLine
 10
323.771759840697
 20
165.2883178004302
 30
0.0
 11
324.271759840697
 21
165.7883178004302
 31
0.0
  0
LINE
  5
D3
330
39
100
AcDbEntity
  8
1
  6
Continuous
 62
     7
100
AcDbLine
 10
324.071759840697
 20
175.2883178004302
 30
0.0
 11
324.271759840697
 21
175.0883178004302
 31
0.0
  0
LINE
  5
D4
330
39
100
AcDbEntity
  8
1
  6
Continuous
 62
     7
100
AcDbLine
 10
314.6736836293437
 20
165.7883178004302
 30
0.0
 11
310.271759840697
 21
165.7883178004302
 31
0.0
  0
LINE
  5
D5
330
39
100
AcDbEntity
  8
1
  6
Continuous
 62
     7
100
AcDbLine
 10
317.271759840697
 20
165.2883178004302
 30
0.0
 11
313.146759840697
 21
165.2883178004302
 31
0.0
  0
LINE
  5
D6
330
39
100
AcDbEntity
  8
1
  6
Continuous
 62
     7
100
AcDbLine
 10
310.271759840697
 20
165.7883178004302
 30
0.0
 11
310.271759840697
 21
175.0883178004302
 31
0.0
  0
LINE
  5
D7
330
39
100
AcDbEntity
  8
1
  6
Continuous
 62
     7
100
AcDbLine
 10
314.6736836293437
 20
167.2883178004302
 30
0.0
 11
317.271759840697
 21
166.5383178004302
 31
0.0
  0
LINE
  5
D8
330
39
100
AcDbEntity
  8
1
  6
Continuous
 62
     7
100
AcDbLine
 10
317.271759840697
 20
166.5383178004302
 30
0.0
 11
314.6736836293437
 21
165.7883178004302
 31
0.0
  0
LINE
  5
D9
330
39
100
AcDbEntity
  8
1
  6
Continuous
 62
     7
100
AcDbLine
 10
313.146759840697
 20
165.2883178004302
 30
0.0
 11
310.771759840697
 21
165.2883178004302
 31
0.0
  0
LINE
  5
DA
330
39
100
AcDbEntity
  8
1
  6
Continuous
 62
     7
100
AcDbLine
 10
314.6736836293437
 20
167.2883178004302
 30
0.0
 11
314.6736836293437
 21
165.7883178004302
 31
0.0
  0
LINE
  5
DB
330
39
100
AcDbEntity
  8
1
  6
Continuous
 62
     7
100
AcDbLine
 10
310.271759840697
 20
165.7883178004302
 30
0.0
 11
310.771759840697
 21
165.2883178004302
 31
0.0
  0
LINE
  5
DC
330
39
100
AcDbEntity
  8
1
  6
Continuous
 62
     7
100
AcDbLine
 10
310.271759840697
 20
175.0883178004302
 30
0.0
 11
310.471759840697
 21
175.2883178004302
 31
0.0
  0
LINE
  5
DD
330
39
100
AcDbEntity
  8
1
  6
Continuous
 62
     7
100
AcDbLine
 10
312.771759840697
 20
165.2883178004302
 30
0.0
 11
312.771759840697
 21
162.0007533657283
 31
0.0
  0
LINE
  5
DE
330
39
100
AcDbEntity
  8
1
  6
Continuous
 62
     2
100
AcDbLine
 10
313.471759840697
 20
165.2883178004302
 30
0.0
 11
313.471759840697
 21
162.0007533657283
 31
0.0
  0
LINE
  5
DF
330
39
100
AcDbEntity
  8
1
  6
Continuous
 62
     2
100
AcDbLine
 10
318.271759840697
 20
157.9545199185681
 30
0.0
 11
318.271759840697
 21
159.2968605470413
 31
0.0
  0
LINE
  5
E0
330
39
100
AcDbEntity
  8
1
  6
Continuous
 62
     2
100
AcDbLine
 10
319.271759840697
 20
157.6403550906276
 30
0.0
 11
319.271759840697
 21
159.4396627415598
 31
0.0
  0
LINE
  5
E1
330
39
100
AcDbEntity
  8
1
  6
Continuous
 62
     2
100
AcDbLine
 10
320.271759840697
 20
157.4118715793981
 30
0.0
 11
320.271759840697
 21
159.7538275695002
 31
0.0
  0
LINE
  5
E2
330
39
100
AcDbEntity
  8
1
  6
Continuous
 62
     2
100
AcDbLine
 10
321.271759840697
 20
157.3833111404944
 30
0.0
 11
321.271759840697
 21
160.0108715196335
 31
0.0
  0
LINE
  5
E3
330
39
100
AcDbEntity
  8
1
  6
Continuous
 62
     2
100
AcDbLine
 10
322.271759840697
 20
157.1833880681687
 30
0.0
 11
322.271759840697
 21
160.1251132752481
 31
0.0
  0
LINE
  5
E4
330
39
100
AcDbEntity
  8
1
  6
Continuous
 62
     2
100
AcDbLine
 10
323.271759840697
 20
157.0405858736502
 30
0.0
 11
323.271759840697
 21
160.3821572253813
 31
0.0
  0
LINE
  5
E5
330
39
100
AcDbEntity
  8
1
  6
Continuous
 62
     7
100
AcDbLine
 10
324.271759840697
 20
160.7883178004302
 30
0.0
 11
324.771759840697
 21
160.7883178004302
 31
0.0
  0
LINE
  5
E6
330
39
100
AcDbEntity
  8
1
  6
Continuous
 62
     7
100
AcDbLine
 10
324.271759840697
 20
156.7883178004302
 30
0.0
 11
324.771759840697
 21
156.7883178004302
 31
0.0
  0
LINE
  5
E7
330
39
100
AcDbEntity
  8
1
  6
Continuous
 62
     2
100
AcDbLine
 10
324.271759840697
 20
156.7883178004302
 30
0.0
 11
324.271759840697
 21
160.7883178004302
 31
0.0
  0
LINE
  5
E8
330
39
100
AcDbEntity
  8
1
  6
Continuous
 62
     7
100
AcDbLine
 10
325.271759840697
 20
160.2883178004302
 30
0.0
 11
325.271759840697
 21
157.2883178004302
 31
0.0
  0
LINE
  5
E9
330
39
100
AcDbEntity
  8
1
  6
Continuous
 62
     7
100
AcDbLine
 10
321.771759840697
 20
160.7883178004302
 30
0.0
 11
324.271759840697
 21
160.7883178004302
 31
0.0
  0
LINE
  5
EA
330
39
100
AcDbEntity
  8
1
  6
Continuous
 62
     7
100
AcDbLine
 10
321.771759840697
 20
160.7883178004302
 30
0.0
 11
321.771759840697
 21
162.0007533657283
 31
0.0
  0
LINE
  5
EB
330
39
100
AcDbEntity
  8
1
  6
Continuous
 62
     2
100
AcDbLine
 10
321.771759840697
 20
160.7883178004302
 30
0.0
 11
321.0717598406971
 21
162.0007533657283
 31
0.0
  0
LINE
  5
EC
330
39
100
AcDbEntity
  8
1
  6
Continuous
 62
     2
100
AcDbLine
 10
321.0717598406971
 20
162.0007533657283
 30
0.0
 11
321.0717598406971
 21
165.2883178004302
 31
0.0
  0
LINE
  5
ED
330
39
100
AcDbEntity
  8
1
  6
Continuous
 62
     7
100
AcDbLine
 10
321.0717598406971
 20
162.0007533657283
 30
0.0
 11
317.271759840697
 21
162.0007533657283
 31
0.0
  0
LINE
  5
EE
330
39
100
AcDbEntity
  8
1
  6
Continuous
 62
     7
100
AcDbLine
 10
321.0717598406971
 20
162.0007533657283
 30
0.0
 11
321.771759840697
 21
162.0007533657283
 31
0.0
  0
LINE
  5
EF
330
39
100
AcDbEntity
  8
1
  6
Continuous
 62
     7
100
AcDbLine
 10
321.771759840697
 20
162.0007533657283
 30
0.0
 11
321.771759840697
 21
165.2883178004302
 31
0.0
  0
LINE
  5
F0
330
39
100
AcDbEntity
  8
1
  6
Continuous
 62
     7
100
AcDbLine
 10
324.271759840697
 20
156.7883178004302
 30
0.0
 11
310.271759840697
 21
156.7883178004302
 31
0.0
  0
LINE
  5
F1
330
39
100
AcDbEntity
  8
1
  6
Continuous
 62
     2
100
AcDbLine
 10
316.271759840697
 20
159.2968605470413
 30
0.0
 11
316.271759840697
 21
157.9545199185681
 31
0.0
  0
LINE
  5
F2
330
39
100
AcDbEntity
  8
1
  6
Continuous
 62
     2
100
AcDbLine
 10
315.271759840697
 20
159.4396627415598
 30
0.0
 11
315.271759840697
 21
157.6403550906276
 31
0.0
  0
LINE
  5
F3
330
39
100
AcDbEntity
  8
1
  6
Continuous
 62
     2
100
AcDbLine
 10
314.271759840697
 20
159.7538275695002
 30
0.0
 11
314.271759840697
 21
157.4118715793981
 31
0.0
  0
LINE
  5
F4
330
39
100
AcDbEntity
  8
1
  6
Continuous
 62
     2
100
AcDbLine
 10
313.271759840697
 20
160.0108715196335
 30
0.0
 11
313.271759840697
 21
157.3833111404944
 31
0.0
  0
LINE
  5
F5
330
39
100
AcDbEntity
  8
1
  6
Continuous
 62
     2
100
AcDbLine
 10
312.271759840697
 20
160.1251132752481
 30
0.0
 11
312.271759840697
 21
157.1833880681687
 31
0.0
  0
LINE
  5
F6
330
39
100
AcDbEntity
  8
1
  6
Continuous
 62
     2
100
AcDbLine
 10
311.271759840697
 20
160.3821572253813
 30
0.0
 11
311.271759840697
 21
157.0405858736502
 31
0.0
  0
LINE
  5
F7
330
39
100
AcDbEntity
  8
1
  6
Continuous
 62
     7
100
AcDbLine
 10
309.771759840697
 20
160.7883178004302
 30
0.0
 11
310.271759840697
 21
160.7883178004302
 31
0.0
  0
LINE
  5
F8
330
39
100
AcDbEntity
  8
1
  6
Continuous
 62
     7
100
AcDbLine
 10
309.771759840697
 20
156.7883178004302
 30
0.0
 11
310.271759840697
 21
156.7883178004302
 31
0.0
  0
LINE
  5
F9
330
39
100
AcDbEntity
  8
1
  6
Continuous
 62
     2
100
AcDbLine
 10
310.271759840697
 20
160.7883178004302
 30
0.0
 11
310.271759840697
 21
156.7883178004302
 31
0.0
  0
LINE
  5
FA
330
39
100
AcDbEntity
  8
1
  6
Continuous
 62
     7
100
AcDbLine
 10
309.271759840697
 20
157.2883178004302
 30
0.0
 11
309.271759840697
 21
160.2883178004302
 31
0.0
  0
LINE
  5
FB
330
39
100
AcDbEntity
  8
1
  6
Continuous
 62
     7
100
AcDbLine
 10
310.271759840697
 20
160.7883178004302
 30
0.0
 11
312.771759840697
 21
160.7883178004302
 31
0.0
  0
LINE
  5
FC
330
39
100
AcDbEntity
  8
1
  6
Continuous
 62
     7
100
AcDbLine
 10
312.771759840697
 20
162.0007533657283
 30
0.0
 11
312.771759840697
 21
160.7883178004302
 31
0.0
  0
LINE
  5
FD
330
39
100
AcDbEntity
  8
1
  6
Continuous
 62
     7
100
AcDbLine
 10
312.771759840697
 20
160.7883178004302
 30
0.0
 11
321.771759840697
 21
160.7883178004302
 31
0.0
  0
LINE
  5
FE
330
39
100
AcDbEntity
  8
1
  6
Continuous
 62
     2
100
AcDbLine
 10
313.471759840697
 20
162.0007533657283
 30
0.0
 11
312.771759840697
 21
160.7883178004302
 31
0.0
  0
LINE
  5
FF
330
39
100
AcDbEntity
  8
1
  6
Continuous
 62
     7
100
AcDbLine
 10
317.271759840697
 20
162.0007533657283
 30
0.0
 11
313.471759840697
 21
162.0007533657283
 31
0.0
  0
LINE
  5
100
330
39
100
AcDbEntity
  8
1
  6
Continuous
 62
     7
100
AcDbLine
 10
312.771759840697
 20
162.0007533657283
 30
0.0
 11
313.471759840697
 21
162.0007533657283
 31
0.0
  0
LINE
  5
101
330
39
100
AcDbEntity
  8
1
  6
Continuous
 62
     7
100
AcDbLine
 10
214.0105994417383
 20
171.2883178004301
 30
0.0
 11
240.5105994417383
 21
171.2883178004301
 31
0.0
  0
LINE
  5
102
330
39
100
AcDbEntity
  8
1
  6
Continuous
 62
     7
100
AcDbLine
 10
240.5105994417383
 20
171.2883178004301
 30
0.0
 11
240.5105994417383
 21
172.2883178004301
 31
0.0
  0
LINE
  5
103
330
39
100
AcDbEntity
  8
1
  6
Continuous
 62
     7
100
AcDbLine
 10
214.0105994417383
 20
171.2883178004301
 30
0.0
 11
214.0105994417383
 21
172.2935283962895
 31
0.0
  0
LINE
  5
104
330
39
100
AcDbEntity
  8
1
  6
Continuous
 62
     7
100
AcDbLine
 10
108.147583733613
 20
171.2883178004301
 30
0.0
 11
134.647583733613
 21
171.2883178004301
 31
0.0
  0
LINE
  5
105
330
39
100
AcDbEntity
  8
1
  6
DASH_CENTER
 62
     2
100
AcDbLine
 10
121.3975837336131
 20
168.2630515282407
 30
0.0
 11
121.3975837336131
 21
168.2883178004301
 31
0.0
  0
LINE
  5
106
330
39
100
AcDbEntity
  8
1
  6
Continuous
 62
     7
100
AcDbLine
 10
137.6524537402782
 20
175.2883178004301
 30
0.0
 11
137.647583733613
 21
175.2883178004301
 31
0.0
  0
LINE
  5
107
330
39
100
AcDbEntity
  8
1
  6
Continuous
 62
     7
100
AcDbLine
 10
108.147583733613
 20
171.2883178004301
 30
0.0
 11
108.147583733613
 21
172.2883178004301
 31
0.0
  0
LINE
  5
108
330
39
100
AcDbEntity
  8
1
  6
Continuous
 62
     7
100
AcDbLine
 10
105.1427137269479
 20
175.2883178004301
 30
0.0
 11
105.147583733613
 21
175.2883178004301
 31
0.0
  0
LINE
  5
109
330
39
100
AcDbEntity
  8
1
  6
Continuous
 62
     7
100
AcDbLine
 10
134.647583733613
 20
171.2883178004301
 30
0.0
 11
134.647583733613
 21
172.2883178004301
 31
0.0
  0
LINE
  5
10A
330
39
100
AcDbEntity
  8
1
  6
Continuous
 62
     7
100
AcDbLine
 10
105.147583733613
 20
175.2883178004301
 30
0.0
 11
137.647583733613
 21
175.2883178004301
 31
0.0
  0
LINE
  5
10B
330
39
100
AcDbEntity
  8
1
  6
Continuous
 62
     7
100
AcDbLine
 10
137.647583733613
 20
205.2883178004301
 30
0.0
 11
135.3975837336131
 21
205.2883178004301
 31
0.0
  0
LINE
  5
10C
330
39
100
AcDbEntity
  8
1
  6
Continuous
 62
     7
100
AcDbLine
 10
105.147583733613
 20
205.2883178004301
 30
0.0
 11
107.3975837336131
 21
205.2883178004301
 31
0.0
  0
LINE
  5
10D
330
39
100
AcDbEntity
  8
1
  6
Continuous
 62
     7
100
AcDbLine
 10
135.3975837336131
 20
205.2883178004301
 30
0.0
 11
107.3975837336131
 21
205.2883178004301
 31
0.0
  0
LINE
  5
10E
330
39
100
AcDbEntity
  8
1
  6
DASH_CENTER
 62
     2
100
AcDbLine
 10
96.39758373361298
 20
385.1513335085554
 30
0.0
 11
101.397583733613
 21
385.1513335085553
 31
0.0
  0
LINE
  5
10F
330
39
100
AcDbEntity
  8
1
  6
DASH_CENTER
 62
     2
100
AcDbLine
 10
121.397583733613
 20
260.5661241453661
 30
0.0
 11
121.397583733613
 21
255.78831780043
 31
0.0
  0
LINE
  5
110
330
39
100
AcDbEntity
  8
1
  6
Continuous
 62
     7
100
AcDbLine
 10
251.8585337760691
 20
175.2883178004301
 30
0.0
 11
210.8235366995574
 21
175.2883178004301
 31
0.0
  0
LINE
  5
111
330
39
100
AcDbEntity
  8
1
  6
Continuous
 62
     7
100
AcDbLine
 10
232.2605994417383
 20
208.2883178004301
 30
0.0
 11
232.2605994417383
 21
210.28831780043
 31
0.0
  0
LINE
  5
112
330
39
100
AcDbEntity
  8
1
  6
Continuous
 62
     7
100
AcDbLine
 10
326.7605994417383
 20
205.2883178004301
 30
0.0
 11
228.5916976456792
 21
205.2883178004301
 31
0.0
  0
LINE
  5
113
330
39
100
AcDbEntity
  8
1
  6
Continuous
 62
     7
100
AcDbLine
 10
260.2605994417384
 20
210.28831780043
 30
0.0
 11
260.2605994417384
 21
208.2883178004301
 31
0.0
  0
LINE
  5
114
330
39
100
AcDbEntity
  8
1
  6
Continuous
 62
     7
100
AcDbLine
 10
337.2605994417383
 20
167.2883178004301
 30
0.0
 11
334.7605994417383
 21
167.2883178004301
 31
0.0
  0
LINE
  5
115
330
39
100
AcDbEntity
  8
1
  6
Continuous
 62
     7
100
AcDbLine
 10
337.2605994417383
 20
200.7883178004301
 30
0.0
 11
337.2605994417383
 21
167.2883178004301
 31
0.0
  0
LINE
  5
116
330
39
100
AcDbEntity
  8
1
  6
Continuous
 62
     7
100
AcDbLine
 10
350.2605994417383
 20
179.7883178004301
 30
0.0
 11
338.9926502493072
 21
179.7883178004301
 31
0.0
  0
LINE
  5
117
330
39
100
AcDbEntity
  8
1
  6
Continuous
 62
     2
100
AcDbLine
 10
338.9926502493072
 20
180.7883178004301
 30
0.0
 11
337.2605994417383
 21
179.7883178004301
 31
0.0
  0
LINE
  5
118
330
39
100
AcDbEntity
  8
1
  6
Continuous
 62
     2
100
AcDbLine
 10
351.2605994417383
 20
180.7883178004301
 30
0.0
 11
350.2605994417383
 21
180.7883178004301
 31
0.0
  0
LINE
  5
119
330
39
100
AcDbEntity
  8
1
  6
Continuous
 62
     7
100
AcDbLine
 10
351.2605994417383
 20
190.2883178004301
 30
0.0
 11
351.2605994417383
 21
180.7883178004301
 31
0.0
  0
LINE
  5
11A
330
39
100
AcDbEntity
  8
1
  6
Continuous
 62
     7
100
AcDbLine
 10
350.2605994417383
 20
179.7883178004301
 30
0.0
 11
351.2605994417383
 21
180.7883178004301
 31
0.0
  0
LINE
  5
11B
330
39
100
AcDbEntity
  8
1
  6
Continuous
 62
     7
100
AcDbLine
 10
326.7605994417383
 20
175.2883178004301
 30
0.0
 11
251.8585337760691
 21
175.2883178004301
 31
0.0
  0
LINE
  5
11C
330
39
100
AcDbEntity
  8
1
  6
Continuous
 62
     7
100
AcDbLine
 10
351.2605994417383
 20
199.7883178004301
 30
0.0
 11
350.2605994417383
 21
200.7883178004301
 31
0.0
  0
LINE
  5
11D
330
39
100
AcDbEntity
  8
1
  6
Continuous
 62
     2
100
AcDbLine
 10
337.2605994417383
 20
200.7883178004301
 30
0.0
 11
338.9926502493072
 21
199.7883178004301
 31
0.0
  0
LINE
  5
11E
330
39
100
AcDbEntity
  8
1
  6
Continuous
 62
     7
100
AcDbLine
 10
351.2605994417383
 20
199.7883178004301
 30
0.0
 11
351.2605994417383
 21
190.2883178004301
 31
0.0
  0
LINE
  5
11F
330
39
100
AcDbEntity
  8
1
  6
Continuous
 62
     7
100
AcDbLine
 10
337.2605994417383
 20
213.28831780043
 30
0.0
 11
337.2605994417383
 21
200.7883178004301
 31
0.0
  0
LINE
  5
120
330
39
100
AcDbEntity
  8
1
  6
Continuous
 62
     7
100
AcDbLine
 10
334.7605994417383
 20
213.28831780043
 30
0.0
 11
337.2605994417383
 21
213.28831780043
 31
0.0
  0
LINE
  5
121
330
39
100
AcDbEntity
  8
1
  6
Continuous
 62
     7
100
AcDbLine
 10
229.2605994417383
 20
205.2883178004301
 30
0.0
 11
228.5916976456792
 21
205.2883178004301
 31
0.0
  0
LINE
  5
122
330
39
100
AcDbEntity
  8
1
  6
Continuous
 62
     2
100
AcDbLine
 10
338.9926502493072
 20
199.7883178004301
 30
0.0
 11
351.2605994417383
 21
199.7883178004301
 31
0.0
  0
LINE
  5
123
330
39
100
AcDbEntity
  8
1
  6
Continuous
 62
     7
100
AcDbLine
 10
350.2605994417383
 20
179.7883178004301
 30
0.0
 11
350.2605994417383
 21
200.7883178004301
 31
0.0
  0
LINE
  5
124
330
39
100
AcDbEntity
  8
1
  6
Continuous
 62
     2
100
AcDbLine
 10
350.2605994417383
 20
180.7883178004301
 30
0.0
 11
338.9926502493072
 21
180.7883178004301
 31
0.0
  0
LINE
  5
125
330
39
100
AcDbEntity
  8
1
  6
Continuous
 62
     7
100
AcDbLine
 10
338.9926502493072
 20
200.7883178004301
 30
0.0
 11
338.9926502493072
 21
199.7883178004301
 31
0.0
  0
LINE
  5
126
330
39
100
AcDbEntity
  8
1
  6
Continuous
 62
     7
100
AcDbLine
 10
338.9926502493072
 20
179.7883178004301
 30
0.0
 11
337.2605994417383
 21
179.7883178004301
 31
0.0
  0
LINE
  5
127
330
39
100
AcDbEntity
  8
1
  6
Continuous
 62
     7
100
AcDbLine
 10
337.2605994417383
 20
200.7883178004301
 30
0.0
 11
338.9926502493072
 21
200.7883178004301
 31
0.0
  0
LINE
  5
128
330
39
100
AcDbEntity
  8
1
  6
Continuous
 62
     7
100
AcDbLine
 10
110.897583733613
 20
477.8833843161242
 30
0.0
 11
110.897583733613
 21
489.1513335085554
 31
0.0
  0
LINE
  5
129
330
39
100
AcDbEntity
  8
1
  6
Continuous
 62
     7
100
AcDbLine
 10
111.897583733613
 20
477.8833843161242
 30
0.0
 11
110.897583733613
 21
477.8833843161242
 31
0.0
  0
LINE
  5
12A
330
39
100
AcDbEntity
  8
1
  6
Continuous
 62
     7
100
AcDbLine
 10
131.897583733613
 20
477.8833843161242
 30
0.0
 11
131.897583733613
 21
476.1513335085554
 31
0.0
  0
LINE
  5
12B
330
39
100
AcDbEntity
  8
1
  6
Continuous
 62
     7
100
AcDbLine
 10
130.897583733613
 20
477.8833843161242
 30
0.0
 11
131.897583733613
 21
477.8833843161242
 31
0.0
  0
LINE
  5
12C
330
39
100
AcDbEntity
  8
1
  6
Continuous
 62
     2
100
AcDbLine
 10
130.897583733613
 20
489.1513335085554
 30
0.0
 11
130.897583733613
 21
477.8833843161242
 31
0.0
  0
LINE
  5
12D
330
39
100
AcDbEntity
  8
1
  6
Continuous
 62
     7
100
AcDbLine
 10
131.897583733613
 20
489.1513335085554
 30
0.0
 11
130.897583733613
 21
489.1513335085554
 31
0.0
  0
LINE
  5
12E
330
39
100
AcDbEntity
  8
1
  6
Continuous
 62
     2
100
AcDbLine
 10
111.897583733613
 20
489.1513335085554
 30
0.0
 11
111.897583733613
 21
490.1513335085554
 31
0.0
  0
LINE
  5
12F
330
39
100
AcDbEntity
  8
1
  6
Continuous
 62
     7
100
AcDbLine
 10
110.897583733613
 20
489.1513335085554
 30
0.0
 11
111.897583733613
 21
489.1513335085554
 31
0.0
  0
LINE
  5
130
330
39
100
AcDbEntity
  8
1
  6
Continuous
 62
     7
100
AcDbLine
 10
98.39758373361298
 20
473.6513335085554
 30
0.0
 11
98.39758373361298
 21
476.1513335085554
 31
0.0
  0
LINE
  5
131
330
39
100
AcDbEntity
  8
1
  6
Continuous
 62
     7
100
AcDbLine
 10
110.897583733613
 20
476.1513335085554
 30
0.0
 11
110.897583733613
 21
477.8833843161242
 31
0.0
  0
LINE
  5
132
330
39
100
AcDbEntity
  8
1
  6
Continuous
 62
     2
100
AcDbLine
 10
110.897583733613
 20
476.1513335085554
 30
0.0
 11
111.897583733613
 21
477.8833843161242
 31
0.0
  0
LINE
  5
133
330
39
100
AcDbEntity
  8
1
  6
Continuous
 62
     2
100
AcDbLine
 10
111.897583733613
 20
477.8833843161242
 30
0.0
 11
111.897583733613
 21
489.1513335085554
 31
0.0
  0
LINE
  5
134
330
39
100
AcDbEntity
  8
1
  6
Continuous
 62
     7
100
AcDbLine
 10
111.897583733613
 20
490.1513335085554
 30
0.0
 11
121.397583733613
 21
490.1513335085554
 31
0.0
  0
LINE
  5
135
330
39
100
AcDbEntity
  8
1
  6
Continuous
 62
     7
100
AcDbLine
 10
111.897583733613
 20
490.1513335085554
 30
0.0
 11
110.897583733613
 21
489.1513335085554
 31
0.0
  0
LINE
  5
136
330
39
100
AcDbEntity
  8
1
  6
DASH_CENTER
 62
     2
100
AcDbLine
 10
121.397583733613
 20
494.3378669880285
 30
0.0
 11
121.397583733613
 21
473.6513335085554
 31
0.0
  0
LINE
  5
137
330
39
100
AcDbEntity
  8
1
  6
Continuous
 62
     7
100
AcDbLine
 10
131.897583733613
 20
489.1513335085554
 30
0.0
 11
130.897583733613
 21
490.1513335085554
 31
0.0
  0
LINE
  5
138
330
39
100
AcDbEntity
  8
1
  6
Continuous
 62
     2
100
AcDbLine
 10
130.897583733613
 20
490.1513335085554
 30
0.0
 11
130.897583733613
 21
489.1513335085554
 31
0.0
  0
LINE
  5
139
330
39
100
AcDbEntity
  8
1
  6
Continuous
 62
     2
100
AcDbLine
 10
130.897583733613
 20
477.8833843161242
 30
0.0
 11
131.897583733613
 21
476.1513335085554
 31
0.0
  0
LINE
  5
13A
330
39
100
AcDbEntity
  8
1
  6
Continuous
 62
     7
100
AcDbLine
 10
121.397583733613
 20
490.1513335085554
 30
0.0
 11
130.897583733613
 21
490.1513335085554
 31
0.0
  0
LINE
  5
13B
330
39
100
AcDbEntity
  8
1
  6
Continuous
 62
     7
100
AcDbLine
 10
131.897583733613
 20
489.1513335085554
 30
0.0
 11
131.897583733613
 21
477.8833843161242
 31
0.0
  0
LINE
  5
13C
330
39
100
AcDbEntity
  8
1
  6
Continuous
 62
     7
100
AcDbLine
 10
98.39758373361298
 20
476.1513335085554
 30
0.0
 11
144.397583733613
 21
476.1513335085554
 31
0.0
  0
LINE
  5
13D
330
39
100
AcDbEntity
  8
1
  6
Continuous
 62
     7
100
AcDbLine
 10
144.397583733613
 20
476.1513335085554
 30
0.0
 11
144.397583733613
 21
473.6513335085554
 31
0.0
  0
LINE
  5
13E
330
39
100
AcDbEntity
  8
1
  6
Continuous
 62
     7
100
AcDbLine
 10
111.897583733613
 20
477.8833843161242
 30
0.0
 11
130.897583733613
 21
477.8833843161242
 31
0.0
  0
LINE
  5
13F
330
39
100
AcDbEntity
  8
1
  6
Continuous
 62
     7
100
AcDbLine
 10
111.897583733613
 20
489.1513335085554
 30
0.0
 11
130.897583733613
 21
489.1513335085554
 31
0.0
  0
LINE
  5
140
330
39
100
AcDbEntity
  8
1
  6
Continuous
 62
     7
100
AcDbLine
 10
101.397583733613
 20
467.406335510157
 30
0.0
 11
101.397583733613
 21
385.1513335085553
 31
0.0
  0
LINE
  5
141
330
39
100
AcDbEntity
  8
1
  6
Continuous
 62
     7
100
AcDbLine
 10
141.397583733613
 20
467.406335510157
 30
0.0
 11
141.397583733613
 21
385.1513335085553
 31
0.0
  0
LINE
  5
142
330
39
100
AcDbEntity
  8
1
  6
DASH_CENTER
 62
     2
100
AcDbLine
 10
141.397583733613
 20
385.1513335085553
 30
0.0
 11
146.397583733613
 21
385.1513335085554
 31
0.0
  0
LINE
  5
143
330
39
100
AcDbEntity
  8
1
  6
Continuous
 62
     7
100
AcDbLine
 10
101.397583733613
 20
385.1513335085553
 30
0.0
 11
101.397583733613
 21
367.1513335085554
 31
0.0
  0
LINE
  5
144
330
39
100
AcDbEntity
  8
1
  6
Continuous
 62
     7
100
AcDbLine
 10
141.397583733613
 20
385.1513335085553
 30
0.0
 11
141.397583733613
 21
367.1513335085554
 31
0.0
  0
LINE
  5
145
330
39
100
AcDbEntity
  8
1
  6
Continuous
 62
     7
100
AcDbLine
 10
110.397583733613
 20
473.6513335085554
 30
0.0
 11
132.397583733613
 21
473.6513335085554
 31
0.0
  0
LINE
  5
146
330
39
100
AcDbEntity
  8
1
  6
Continuous
 62
     7
100
AcDbLine
 10
140.397583733613
 20
388.8150065288999
 30
0.0
 11
140.397583733613
 21
465.6513335085554
 31
0.0
  0
LINE
  5
147
330
39
100
AcDbEntity
  8
1
  6
Continuous
 62
     7
100
AcDbLine
 10
102.397583733613
 20
388.8150065288999
 30
0.0
 11
102.397583733613
 21
465.6513335085554
 31
0.0
  0
LINE
  5
148
330
39
100
AcDbEntity
  8
1
  6
Continuous
 62
     7
100
AcDbLine
 10
107.3975837336131
 20
208.2418697900438
 30
0.0
 11
107.397583733613
 21
210.28831780043
 31
0.0
  0
LINE
  5
149
330
39
100
AcDbEntity
  8
0
  6
Continuous
 62
     7
100
AcDbLine
 10
135.3975837336132
 20
210.28831780043
 30
0.0
 11
135.3975837336132
 21
208.2418697900437
 31
0.0
  0
LINE
  5
14A
330
39
100
AcDbEntity
  8
1
  6
Continuous
 62
     7
100
AcDbLine
 10
338.9926502493072
 20
200.7883178004301
 30
0.0
 11
350.2605994417383
 21
200.7883178004301
 31
0.0
  0
LINE
  5
14B
330
39
100
AcDbEntity
  8
1
  6
Continuous
 62
     7
100
AcDbLine
 10
338.9926502493072
 20
199.7883178004301
 30
0.0
 11
338.9926502493072
 21
179.7883178004301
 31
0.0
  0
LINE
  5
14C
330
39
100
AcDbEntity
  8
1
  6
Continuous
 62
     7
100
AcDbLine
 10
334.7605994417383
 20
213.28831780043
 30
0.0
 11
334.7605994417383
 21
205.2883178004301
 31
0.0
  0
LINE
  5
14D
330
39
100
AcDbEntity
  8
1
  6
Continuous
 62
     7
100
AcDbLine
 10
334.7605994417383
 20
202.9611217891888
 30
0.0
 11
334.7605994417383
 21
177.6155138116714
 31
0.0
  0
LINE
  5
14E
330
39
100
AcDbEntity
  8
1
  6
Continuous
 62
     7
100
AcDbLine
 10
334.7605994417383
 20
175.2883178004301
 30
0.0
 11
334.7605994417383
 21
167.2883178004301
 31
0.0
  0
ARC
  5
14F
330
39
100
AcDbEntity
  8
1
  6
Continuous
 62
     7
100
AcDbCircle
 10
121.397583733613
 20
190.2883178004301
 30
0.0
 40
23.00000000000005
100
AcDbArc
 50
-124.3011527567917
 51
-121.4489813893794
  0
ARC
  5
150
330
39
100
AcDbEntity
  8
1
  6
Continuous
 62
     7
100
AcDbCircle
 10
317.4957979463737
 20
171.1241816548399
 30
0.0
 40
5.840162668967433
100
AcDbArc
 50
-92.19849841521686
 51
-66.01471228652237
  0
ARC
  5
151
330
39
100
AcDbEntity
  8
1
  6
Continuous
 62
     7
100
AcDbCircle
 10
317.0477217350205
 20
171.1241816548399
 30
0.0
 40
5.840162668967477
100
AcDbArc
 50
-113.9852877134787
 51
-87.80150158478593
  0
ARC
  5
152
330
39
100
AcDbEntity
  8
1
  6
Continuous
 62
     7
100
AcDbCircle
 10
211.0105994417383
 20
172.2935283962895
 30
0.0
 40
3.0
100
AcDbArc
 50
0.0
 51
85.7235689734671
  0
ARC
  5
153
330
39
100
AcDbEntity
  8
1
  6
Continuous
 62
     7
100
AcDbCircle
 10
211.0518116008026
 20
178.2796202875521
 30
0.0
 40
3.000000000000128
100
AcDbArc
 50
-94.36394756238923
 51
-86.51247950672538
  0
ARC
  5
154
330
39
100
AcDbEntity
  8
1
  6
Continuous
 62
     7
100
AcDbCircle
 10
121.397583733613
 20
190.2883178004301
 30
0.0
 40
23.0000000000001
100
AcDbArc
 50
-58.55101861062059
 51
-55.6988472432081
  0
ARC
  5
155
330
39
100
AcDbEntity
  8
1
  6
Continuous
 62
     7
100
AcDbCircle
 10
121.397583733613
 20
190.2883178004301
 30
0.0
 40
23.00000000000007
100
AcDbArc
 50
-140.6701034720418
 51
-125.1757880126273
  0
ARC
  5
156
330
39
100
AcDbEntity
  8
1
  6
Continuous
 62
     7
100
AcDbCircle
 10
41.3975837336082
 20
190.2883178004301
 30
0.0
 40
100.0000000000048
100
AcDbArc
 50
0.0
 51
7.10634339789093
  0
ARC
  5
157
330
39
100
AcDbEntity
  8
1
  6
Continuous
 62
     7
100
AcDbCircle
 10
201.3975837336179
 20
190.2883178004301
 30
0.0
 40
100.0000000000049
100
AcDbArc
 50
172.8936566021091
 51
180.0
  0
ARC
  5
158
330
39
100
AcDbEntity
  8
1
  6
Continuous
 62
     7
100
AcDbCircle
 10
201.3975837336179
 20
190.2883178004301
 30
0.0
 40
100.0000000000048
100
AcDbArc
 50
180.0
 51
-172.8936566021091
  0
ARC
  5
159
330
39
100
AcDbEntity
  8
1
  6
Continuous
 62
     7
100
AcDbCircle
 10
121.397583733613
 20
190.2883178004301
 30
0.0
 40
22.99999999999998
100
AcDbArc
 50
146.5649408932641
 51
-146.5649408932642
  0
ARC
  5
15A
330
39
100
AcDbEntity
  8
1
  6
Continuous
 62
     7
100
AcDbCircle
 10
121.397583733613
 20
190.2883178004301
 30
0.0
 40
23.00000000000005
100
AcDbArc
 50
-33.4350591067357
 51
33.43505910673576
  0
ARC
  5
15B
330
39
100
AcDbEntity
  8
1
  6
Continuous
 62
     7
100
AcDbCircle
 10
41.3975837336082
 20
190.2883178004301
 30
0.0
 40
100.0000000000049
100
AcDbArc
 50
-7.10634339789092
 51
0.0
  0
ARC
  5
15C
330
39
100
AcDbEntity
  8
1
  6
Continuous
 62
     7
100
AcDbCircle
 10
121.397583733613
 20
190.2883178004301
 30
0.0
 40
23.00000000000005
100
AcDbArc
 50
-54.82421198737274
 51
-39.32989652795813
  0
ARC
  5
15D
330
39
100
AcDbEntity
  8
1
  6
Continuous
 62
     7
100
AcDbCircle
 10
121.397583733613
 20
367.1513335085554
 30
0.0
 40
20.0
100
AcDbArc
 50
180.0
 51
-177.1340160174012
  0
ARC
  5
15E
330
39
100
AcDbEntity
  8
1
  6
Continuous
 62
     7
100
AcDbCircle
 10
93.39758373361298
 20
467.406335510157
 30
0.0
 40
8.000000000000028
100
AcDbArc
 50
0.0
 51
51.31781254651052
  0
ARC
  5
15F
330
39
100
AcDbEntity
  8
1
  6
Continuous
 62
     7
100
AcDbCircle
 10
149.397583733613
 20
467.406335510157
 30
0.0
 40
7.999999999999993
100
AcDbArc
 50
128.6821874534895
 51
180.0
  0
ARC
  5
160
330
39
100
AcDbEntity
  8
1
  6
Continuous
 62
     7
100
AcDbCircle
 10
121.397583733613
 20
367.1513335085554
 30
0.0
 40
20.00000000000006
100
AcDbArc
 50
-77.33891915310855
 51
0.0
  0
ARC
  5
161
330
39
100
AcDbEntity
  8
1
  6
Continuous
 62
     7
100
AcDbCircle
 10
338.0256510662212
 20
104.1394011545972
 30
0.0
 40
150.0
100
AcDbArc
 50
138.1117650681175
 51
149.8941652186491
  0
ARC
  5
162
330
39
100
AcDbEntity
  8
1
  6
Continuous
 62
     7
100
AcDbCircle
 10
121.397583733613
 20
367.1513335085554
 30
0.0
 40
20.00000000000013
100
AcDbArc
 50
-177.1340160174012
 51
-102.6610808468907
  0
ARC
  5
163
330
39
100
AcDbEntity
  8
0
  6
Continuous
 62
     7
100
AcDbCircle
 10
104.3975837336131
 20
208.2418697900438
 30
0.0
 40
3.000000000000064
100
AcDbArc
 50
-82.8661145817449
 51
0.0
  0
ARC
  5
164
330
39
100
AcDbEntity
  8
0
  6
Continuous
 62
     7
100
AcDbCircle
 10
138.3975837336131
 20
208.2418697900437
 30
0.0
 40
2.999999999999886
100
AcDbArc
 50
180.0
 51
-97.133885418257
  0
ARC
  5
165
330
39
100
AcDbEntity
  8
0
  6
Continuous
 62
     7
100
AcDbCircle
 10
121.397583733613
 20
190.2883178004301
 30
0.0
 40
23.00000000000006
100
AcDbArc
 50
39.32989652795835
 51
52.50475023544092
  0
ARC
  5
166
330
39
100
AcDbEntity
  8
0
  6
Continuous
 62
     7
100
AcDbCircle
 10
121.3975837336115
 20
190.2883178004316
 30
0.0
 40
22.99999999999795
100
AcDbArc
 50
127.4952497645575
 51
140.6701034720422
  0
ARC
  5
167
330
39
100
AcDbEntity
  8
1
  6
Continuous
 62
     7
100
AcDbCircle
 10
211.0518116008026
 20
178.2796202875521
 30
0.0
 40
3.00000000000008
100
AcDbArc
 50
158.4978872813915
 51
-94.36394756238923
  0
ARC
  5
168
330
39
100
AcDbEntity
  8
1
  6
Continuous
 62
     7
100
AcDbCircle
 10
113.897583733613
 20
157.2883178004302
 30
0.0
 40
0.5
100
AcDbArc
 50
180.0
 51
-90.0
  0
ARC
  5
169
330
39
100
AcDbEntity
  8
1
  6
Continuous
 62
     7
100
AcDbCircle
 10
113.897583733613
 20
160.2883178004302
 30
0.0
 40
0.5
100
AcDbArc
 50
90.0
 51
180.0
  0
ARC
  5
16A
330
39
100
AcDbEntity
  8
1
  6
Continuous
 62
     7
100
AcDbCircle
 10
128.897583733613
 20
157.2883178004302
 30
0.0
 40
0.5
100
AcDbArc
 50
-90.0
 51
0.0
  0
ARC
  5
16B
330
39
100
AcDbEntity
  8
1
  6
Continuous
 62
     7
100
AcDbCircle
 10
128.897583733613
 20
160.2883178004302
 30
0.0
 40
0.5
100
AcDbArc
 50
0.0
 51
90.0
  0
ARC
  5
16C
330
39
100
AcDbEntity
  8
1
  6
Continuous
 62
     7
100
AcDbCircle
 10
324.771759840697
 20
160.2883178004302
 30
0.0
 40
0.5
100
AcDbArc
 50
0.0
 51
90.0
  0
ARC
  5
16D
330
39
100
AcDbEntity
  8
1
  6
Continuous
 62
     7
100
AcDbCircle
 10
324.771759840697
 20
157.2883178004302
 30
0.0
 40
0.5
100
AcDbArc
 50
-90.0
 51
0.0
  0
ARC
  5
16E
330
39
100
AcDbEntity
  8
1
  6
Continuous
 62
     7
100
AcDbCircle
 10
309.771759840697
 20
160.2883178004302
 30
0.0
 40
0.5
100
AcDbArc
 50
90.0
 51
180.0
  0
ARC
  5
16F
330
39
100
AcDbEntity
  8
1
  6
Continuous
 62
     7
100
AcDbCircle
 10
309.771759840697
 20
157.2883178004302
 30
0.0
 40
0.5
100
AcDbArc
 50
180.0
 51
-90.0
  0
ARC
  5
170
330
39
100
AcDbEntity
  8
1
  6
Continuous
 62
     7
100
AcDbCircle
 10
243.5105994417383
 20
172.2883178004301
 30
0.0
 40
3.0
100
AcDbArc
 50
90.0
 51
180.0
  0
ARC
  5
171
330
39
100
AcDbEntity
  8
1
  6
Continuous
 62
     7
100
AcDbCircle
 10
137.6524537402782
 20
178.2883178004301
 30
0.0
 40
3.0
100
AcDbArc
 50
-90.0
 51
-7.10634339788984
  0
ARC
  5
172
330
39
100
AcDbEntity
  8
1
  6
Continuous
 62
     7
100
AcDbCircle
 10
105.1427137269479
 20
178.2883178004301
 30
0.0
 40
3.000000000000018
100
AcDbArc
 50
-172.8936566021101
 51
-90.0
  0
ARC
  5
173
330
39
100
AcDbEntity
  8
1
  6
Continuous
 62
     7
100
AcDbCircle
 10
137.647583733613
 20
172.2883178004301
 30
0.0
 40
3.0
100
AcDbArc
 50
90.0
 51
180.0
  0
ARC
  5
174
330
39
100
AcDbEntity
  8
1
  6
Continuous
 62
     7
100
AcDbCircle
 10
105.147583733613
 20
172.2883178004301
 30
0.0
 40
3.0
100
AcDbArc
 50
0.0
 51
90.0
  0
ARC
  5
175
330
39
100
AcDbEntity
  8
1
  6
Continuous
 62
     7
100
AcDbCircle
 10
105.1427137269479
 20
202.2883178004301
 30
0.0
 40
2.999999999999981
100
AcDbArc
 50
97.13388541825559
 51
172.8936566021096
  0
ARC
  5
176
330
39
100
AcDbEntity
  8
1
  6
Continuous
 62
     7
100
AcDbCircle
 10
137.6524537402782
 20
202.2883178004301
 30
0.0
 40
3.000000000000035
100
AcDbArc
 50
7.10634339789038
 51
82.86611458174416
  0
ARC
  5
177
330
39
100
AcDbEntity
  8
1
  6
Continuous
 62
     7
100
AcDbCircle
 10
228.5916976456792
 20
202.2883178004301
 30
0.0
 40
3.0
100
AcDbArc
 50
90.0
 51
138.111765068117
  0
ARC
  5
178
330
39
100
AcDbEntity
  8
1
  6
Continuous
 62
     7
100
AcDbCircle
 10
229.2605994417383
 20
208.2883178004301
 30
0.0
 40
3.0
100
AcDbArc
 50
-90.0
 51
0.0
  0
ARC
  5
179
330
39
100
AcDbEntity
  8
1
  6
Continuous
 62
     7
100
AcDbCircle
 10
263.2605994417384
 20
208.2883178004301
 30
0.0
 40
3.0
100
AcDbArc
 50
180.0
 51
-90.0
  0
ARC
  5
17A
330
39
100
AcDbEntity
  8
1
  6
Continuous
 62
     7
100
AcDbCircle
 10
326.7605994417383
 20
167.2883178004301
 30
0.0
 40
8.0
100
AcDbArc
 50
0.0
 51
90.0
  0
ARC
  5
17B
330
39
100
AcDbEntity
  8
1
  6
Continuous
 62
     7
100
AcDbCircle
 10
326.7605994417383
 20
213.28831780043
 30
0.0
 40
7.999999999999915
100
AcDbArc
 50
-90.0
 51
0.0
  0
ARC
  5
17C
330
39
100
AcDbEntity
  8
1
  6
Continuous
 62
     7
100
AcDbCircle
 10
110.397583733613
 20
465.6513335085554
 30
0.0
 40
8.0
100
AcDbArc
 50
90.0
 51
180.0
  0
ARC
  5
17D
330
39
100
AcDbEntity
  8
1
  6
Continuous
 62
     7
100
AcDbCircle
 10
132.397583733613
 20
465.6513335085554
 30
0.0
 40
8.0
100
AcDbArc
 50
0.0
 51
90.0
  0
ENDBLK
  5
3B
330
39
100
AcDbEntity
  8
0
100
AcDbBlockEnd
  0
BLOCK
  5
3D
330
3C
100
AcDbEntity
  8
0
100
AcDbBlockBegin
  2
84-34-M21
 70
     0
 71
     0
 10
233.7605994417384
 20
302.8582368170392
 30
0.0
  3
84-34-M21
  1

  0
LINE
  5
17E
330
3C
100
AcDbEntity
  8
1
  6
Continuous
 62
     7
100
AcDbLine
 10
121.397583733613
 20
255.78831780043
 30
0.0
 11
131.397583733613
 21
255.78831780043
 31
0.0
  0
LINE
  5
17F
330
3C
100
AcDbEntity
  8
1
  6
Continuous
 62
     7
100
AcDbLine
 10
111.397583733613
 20
255.78831780043
 30
0.0
 11
121.397583733613
 21
255.78831780043
 31
0.0
  0
LINE
  5
180
330
3C
100
AcDbEntity
  8
1
  6
Continuous
 62
     7
100
AcDbLine
 10
133.897583733613
 20
255.717977130773
 30
0.0
 11
133.897583733613
 21
254.28831780043
 31
0.0
  0
LINE
  5
181
330
3C
100
AcDbEntity
  8
1
  6
Continuous
 62
     7
100
AcDbLine
 10
108.897583733613
 20
254.28831780043
 30
0.0
 11
108.897583733613
 21
255.717977130773
 31
0.0
  0
LINE
  5
182
330
3C
100
AcDbEntity
  8
1
  6
Continuous
 62
     7
100
AcDbLine
 10
258.7605994417384
 20
255.8005896525864
 30
0.0
 11
258.7605994417384
 21
254.3709303222436
 31
0.0
  0
LINE
  5
183
330
3C
100
AcDbEntity
  8
1
  6
Continuous
 62
     7
100
AcDbLine
 10
233.7605994417384
 20
254.3709303222436
 30
0.0
 11
233.7605994417384
 21
255.8005896525864
 31
0.0
  0
LINE
  5
184
330
3C
100
AcDbEntity
  8
1
  6
Continuous
 62
     7
100
AcDbLine
 10
236.2605994417384
 20
255.8709303222436
 30
0.0
 11
256.2605994417384
 21
255.8709303222436
 31
0.0
  0
ARC
  5
185
330
3C
100
AcDbEntity
  8
1
  6
Continuous
 62
     7
100
AcDbCircle
 10
121.397583733613
 20
-144.0866626622139
 30
0.0
 40
400.0
100
AcDbArc
 50
88.20921534067105
 51
88.5674562624335
  0
ARC
  5
186
330
3C
100
AcDbEntity
  8
1
  6
Continuous
 62
     7
100
AcDbCircle
 10
121.397583733613
 20
-144.0866626622139
 30
0.0
 40
399.9999999999998
100
AcDbArc
 50
91.43254373756652
 51
91.79078465932896
  0
ARC
  5
187
330
3C
100
AcDbEntity
  8
1
  6
Continuous
 62
     7
100
AcDbCircle
 10
246.2605994417384
 20
-144.0040501404005
 30
0.0
 40
400.0
100
AcDbArc
 50
88.20921534067105
 51
88.5674562624335
  0
ARC
  5
188
330
3C
100
AcDbEntity
  8
1
  6
Continuous
 62
     7
100
AcDbCircle
 10
246.2605994417384
 20
-144.0040501404005
 30
0.0
 40
400.0
100
AcDbArc
 50
91.43254373756652
 51
91.79078465932896
  0
CIRCLE
  5
189
330
3C
100
AcDbEntity
  8
1
  6
Continuous
 62
     7
100
AcDbCircle
 10
121.397583733613
 20
385.1513335085554
 30
0.0
 40
12.5
  0
ENDBLK
  5
3E
330
3C
100
AcDbEntity
  8
0
100
AcDbBlockEnd
  0
BLOCK
  5
40
330
3F
100
AcDbEntity
  8
0
100
AcDbBlockBegin
  2
84-35-I
 70
     0
 71
     0
 10
376.7248299506973
 20
252.0057869007977
 30
0.0
  3
84-35-I
  1

  0
CIRCLE
  5
18A
330
3F
100
AcDbEntity
  8
1
  6
Continuous
 62
     7
100
AcDbCircle
 10
121.397583733613
 20
385.1513335085554
 30
0.0
 40
10.0
  0
ENDBLK
  5
41
330
3F
100
AcDbEntity
  8
0
100
AcDbBlockEnd
  0
BLOCK
  5
43
330
42
100
AcDbEntity
  8
0
100
AcDbBlockBegin
  2
87-18
 70
     0
 71
     0
 10
332.7313128893859
 20
210.53831780043
 30
0.0
  3
87-18
  1

  0
LINE
  5
18B
330
42
100
AcDbEntity
  8
1
  6
PHANTOM
 62
     5
100
AcDbLine
 10
142.8713466876688
 20
389.6303529434123
 30
0.0
 11
179.4094725349118
 21
389.4131518468639
 31
0.0
  0
LINE
  5
18C
330
42
100
AcDbEntity
  8
1
  6
PHANTOM
 62
     5
100
AcDbLine
 10
142.8713466876688
 20
380.6723140736986
 30
0.0
 11
179.4094725349118
 21
380.889515170247
 31
0.0
  0
LINE
  5
18D
330
42
100
AcDbEntity
  8
1
  6
PHANTOM
 62
     5
100
AcDbLine
 10
181.3975837336129
 20
382.8894798340356
 30
0.0
 11
181.3975837336129
 21
387.413187183075
 31
0.0
  0
LINE
  5
18E
330
42
100
AcDbEntity
  8
1
  6
Continuous
 62
     7
100
AcDbLine
 10
117.1357653953045
 20
252.28831780043
 30
0.0
 11
117.1357653953045
 21
231.28831780043
 31
0.0
  0
LINE
  5
18F
330
42
100
AcDbEntity
  8
1
  6
Continuous
 62
     7
100
AcDbLine
 10
125.6594020719215
 20
231.28831780043
 30
0.0
 11
125.6594020719215
 21
252.28831780043
 31
0.0
  0
LINE
  5
190
330
42
100
AcDbEntity
  8
1
  6
Continuous
 62
     7
100
AcDbLine
 10
119.1357653953045
 20
229.28831780043
 30
0.0
 11
123.6594020719215
 21
229.28831780043
 31
0.0
  0
LINE
  5
191
330
42
100
AcDbEntity
  8
1
  6
Continuous
 62
     7
100
AcDbLine
 10
105.897583733608
 20
254.28831780043
 30
0.0
 11
136.8975837336179
 21
254.28831780043
 31
0.0
  0
LINE
  5
192
330
42
100
AcDbEntity
  8
1
  6
Continuous
 62
     7
100
AcDbLine
 10
138.8975837336179
 20
210.28831780043
 30
0.0
 11
103.897583733608
 21
210.28831780043
 31
0.0
  0
LINE
  5
193
330
42
100
AcDbEntity
  8
1
  6
Continuous
 62
     7
100
AcDbLine
 10
139.8975837336179
 20
251.28831780043
 30
0.0
 11
139.8975837336179
 21
211.28831780043
 31
0.0
  0
LINE
  5
194
330
42
100
AcDbEntity
  8
1
  6
Continuous
 62
     7
100
AcDbLine
 10
102.897583733608
 20
211.28831780043
 30
0.0
 11
102.897583733608
 21
251.28831780043
 31
0.0
  0
LINE
  5
195
330
42
100
AcDbEntity
  8
1
  6
Continuous
 62
     7
100
AcDbLine
 10
116.9185642987563
 20
363.6775705544995
 30
0.0
 11
117.1357653953047
 21
327.1394447072565
 31
0.0
  0
LINE
  5
196
330
42
100
AcDbEntity
  8
1
  6
Continuous
 62
     7
100
AcDbLine
 10
119.1357300590933
 20
325.1513335085554
 30
0.0
 11
123.6594374081327
 21
325.1513335085554
 31
0.0
  0
LINE
  5
197
330
42
100
AcDbEntity
  8
1
  6
Continuous
 62
     7
100
AcDbLine
 10
125.87660316847
 20
363.6775705544995
 30
0.0
 11
125.6594020719216
 21
327.1394447072565
 31
0.0
  0
LINE
  5
198
330
42
100
AcDbEntity
  8
1
  6
Continuous
 62
     7
100
AcDbLine
 10
198.7605994417382
 20
254.28831780043
 30
0.0
 11
230.7605994417333
 21
254.28831780043
 31
0.0
  0
LINE
  5
199
330
42
100
AcDbEntity
  8
1
  6
Continuous
 62
     7
100
AcDbLine
 10
225.7605994417382
 20
229.28831780043
 30
0.0
 11
198.7605994417382
 21
229.28831780043
 31
0.0
  0
LINE
  5
19A
330
42
100
AcDbEntity
  8
1
  6
Continuous
 62
     7
100
AcDbLine
 10
227.7605994417333
 20
211.28831780043
 30
0.0
 11
227.7605994417333
 21
251.28831780043
 31
0.0
  0
LINE
  5
19B
330
42
100
AcDbEntity
  8
1
  6
Continuous
 62
     7
100
AcDbLine
 10
264.7605994417432
 20
251.28831780043
 30
0.0
 11
264.7605994417432
 21
211.28831780043
 31
0.0
  0
LINE
  5
19C
330
42
100
AcDbEntity
  8
1
  6
Continuous
 62
     7
100
AcDbLine
 10
228.7605994417333
 20
210.28831780043
 30
0.0
 11
263.7605994417432
 21
210.28831780043
 31
0.0
  0
LINE
  5
19D
330
42
100
AcDbEntity
  8
1
  6
Continuous
 62
     7
100
AcDbLine
 10
230.7605994417333
 20
254.28831780043
 30
0.0
 11
261.7605994417432
 21
254.28831780043
 31
0.0
  0
ARC
  5
19E
330
42
100
AcDbEntity
  8
1
  6
Continuous
 62
     7
100
AcDbCircle
 10
123.6594020719215
 20
252.28831780043
 30
0.0
 40
2.0
100
AcDbArc
 50
0.0
 51
90.0
  0
ARC
  5
19F
330
42
100
AcDbEntity
  8
1
  6
Continuous
 62
     7
100
AcDbCircle
 10
119.1357653953045
 20
252.28831780043
 30
0.0
 40
2.0
100
AcDbArc
 50
90.0
 51
180.0
  0
ARC
  5
1A0
330
42
100
AcDbEntity
  8
1
  6
Continuous
 62
     7
100
AcDbCircle
 10
198.7605994417382
 20
241.78831780043
 30
0.0
 40
12.5
100
AcDbArc
 50
90.0
 51
180.0
  0
ARC
  5
1A1
330
42
100
AcDbEntity
  8
1
  6
Continuous
 62
     7
100
AcDbCircle
 10
198.7605994417382
 20
241.78831780043
 30
0.0
 40
12.5
100
AcDbArc
 50
180.0
 51
-90.0
  0
ARC
  5
1A2
330
42
100
AcDbEntity
  8
1
  6
Continuous
 62
     7
100
AcDbCircle
 10
121.3975837336131
 20
385.1513335085554
 30
0.0
 40
18.50000000000004
100
AcDbArc
 50
-66.21167996188727
 51
-116.8208865018451
  0
ARC
  5
1A3
330
42
100
AcDbEntity
  8
1
  6
Continuous
 62
     7
100
AcDbCircle
 10
121.3975837336131
 20
385.1513335085554
 30
0.0
 40
18.49999999999995
100
AcDbArc
 50
-116.8208865018451
 51
-113.788320038113
  0
CIRCLE
  5
1A4
330
42
100
AcDbEntity
  8
1
  6
Continuous
 62
     7
100
AcDbCircle
 10
198.7605994417382
 20
241.78831780043
 30
0.0
 40
8.5
  0
ARC
  5
1A5
330
42
100
AcDbEntity
  8
1
  6
PHANTOM
 62
     5
100
AcDbCircle
 10
179.3975837336129
 20
387.413187183075
 30
0.0
 40
2.0
100
AcDbArc
 50
0.0
 51
89.65940892518273
  0
ARC
  5
1A6
330
42
100
AcDbEntity
  8
1
  6
PHANTOM
 62
     5
100
AcDbCircle
 10
179.3975837336129
 20
382.8894798340356
 30
0.0
 40
1.999999999999846
100
AcDbArc
 50
-89.65940892518269
 51
0.0
  0
ARC
  5
1A7
330
42
100
AcDbEntity
  8
1
  6
Continuous
 62
     7
100
AcDbCircle
 10
123.6594020719215
 20
231.28831780043
 30
0.0
 40
2.0
100
AcDbArc
 50
-90.0
 51
0.0
  0
ARC
  5
1A8
330
42
100
AcDbEntity
  8
1
  6
Continuous
 62
     7
100
AcDbCircle
 10
119.1357653953045
 20
231.28831780043
 30
0.0
 40
2.0
100
AcDbArc
 50
180.0
 51
-90.0
  0
ARC
  5
1A9
330
42
100
AcDbEntity
  8
1
  6
Continuous
 62
     7
100
AcDbCircle
 10
105.897583733608
 20
251.28831780043
 30
0.0
 40
3.0
100
AcDbArc
 50
90.0
 51
180.0
  0
ARC
  5
1AA
330
42
100
AcDbEntity
  8
1
  6
Continuous
 62
     7
100
AcDbCircle
 10
136.8975837336179
 20
251.28831780043
 30
0.0
 40
3.0
100
AcDbArc
 50
0.0
 51
90.0
  0
ARC
  5
1AB
330
42
100
AcDbEntity
  8
1
  6
Continuous
 62
     7
100
AcDbCircle
 10
138.8975837336179
 20
211.28831780043
 30
0.0
 40
1.0
100
AcDbArc
 50
-90.0
 51
0.0
  0
ARC
  5
1AC
330
42
100
AcDbEntity
  8
1
  6
Continuous
 62
     7
100
AcDbCircle
 10
103.897583733608
 20
211.28831780043
 30
0.0
 40
1.0
100
AcDbArc
 50
180.0
 51
-90.0
  0
ARC
  5
1AD
330
42
100
AcDbEntity
  8
1
  6
Continuous
 62
     7
100
AcDbCircle
 10
119.1357300590933
 20
327.1513335085554
 30
0.0
 40
1.999999999999846
100
AcDbArc
 50
-179.6594089251819
 51
-90.0
  0
ARC
  5
1AE
330
42
100
AcDbEntity
  8
1
  6
Continuous
 62
     7
100
AcDbCircle
 10
123.6594374081327
 20
327.1513335085554
 30
0.0
 40
2.0
100
AcDbArc
 50
-90.0
 51
-0.34059107481808
  0
ARC
  5
1AF
330
42
100
AcDbEntity
  8
1
  6
Continuous
 62
     7
100
AcDbCircle
 10
111.9186526392844
 20
363.6478485512522
 30
0.0
 40
4.999999999999999
100
AcDbArc
 50
0.34059107481745
 51
66.21167996188896
  0
ARC
  5
1B0
330
42
100
AcDbEntity
  8
1
  6
Continuous
 62
     7
100
AcDbCircle
 10
130.8765148279419
 20
363.6478485512522
 30
0.0
 40
4.999999999999935
100
AcDbArc
 50
113.788320038113
 51
179.6594089251826
  0
ARC
  5
1B1
330
42
100
AcDbEntity
  8
1
  6
Continuous
 62
     7
100
AcDbCircle
 10
225.7605994417382
 20
227.28831780043
 30
0.0
 40
2.0
100
AcDbArc
 50
0.0
 51
90.0
  0
ARC
  5
1B2
330
42
100
AcDbEntity
  8
1
  6
Continuous
 62
     7
100
AcDbCircle
 10
228.7605994417333
 20
211.28831780043
 30
0.0
 40
1.0
100
AcDbArc
 50
180.0
 51
-90.0
  0
ARC
  5
1B3
330
42
100
AcDbEntity
  8
1
  6
Continuous
 62
     7
100
AcDbCircle
 10
263.7605994417432
 20
211.28831780043
 30
0.0
 40
1.0
100
AcDbArc
 50
-90.0
 51
0.0
  0
ARC
  5
1B4
330
42
100
AcDbEntity
  8
1
  6
Continuous
 62
     7
100
AcDbCircle
 10
261.7605994417432
 20
251.28831780043
 30
0.0
 40
3.0
100
AcDbArc
 50
0.0
 51
90.0
  0
ARC
  5
1B5
330
42
100
AcDbEntity
  8
1
  6
Continuous
 62
     7
100
AcDbCircle
 10
230.7605994417333
 20
251.28831780043
 30
0.0
 40
3.0
100
AcDbArc
 50
90.0
 51
180.0
  0
ENDBLK
  5
44
330
42
100
AcDbEntity
  8
0
100
AcDbBlockEnd
  0
BLOCK
  5
49
330
45
100
AcDbEntity
  8
0
100
AcDbBlockBegin
  2
R261F
 70
     0
 71
     0
 10
-17.26511484397599
 20
87.61739496918455
 30
0.0
  3
R261F
  1

  0
INSERT
  5
46
330
45
100
AcDbEntity
  8
1
100
AcDbBlockReference
  2
84-34-M21
 10
233.7605994417384
 20
302.8582368170392
 30
0.0
  0
INSERT
  5
47
330
45
100
AcDbEntity
  8
0
100
AcDbBlockReference
  2
84-35-I
 10
376.7248299506973
 20
252.0057869007977
 30
0.0
  0
INSERT
  5
48
330
45
100
AcDbEntity
  8
0
100
AcDbBlockReference
  2
87-18
 10
332.7313128893859
 20
210.53831780043
 30
0.0
  0
ENDBLK
  5
4A
330
45
100
AcDbEntity
  8
0
100
AcDbBlockEnd
  0
BLOCK
  5
4C
330
4B
100
AcDbEntity
  8
0
100
AcDbBlockBegin
  2
30-205-M11
 70
     0
 71
     0
 10
443.053047404063
 20
867.5112866817152
 30
0.0
  3
30-205-M11
  1

  0
LINE
  5
1B6
330
4B
100
AcDbEntity
  8
1
  6
Continuous
 62
     7
100
AcDbLine
 10
238.2605994417383
 20
168.1883178004301
 30
0.0
 11
216.2605994417383
 21
168.1883178004301
 31
0.0
  0
LINE
  5
1B7
330
4B
100
AcDbEntity
  8
1
  6
Continuous
 62
     7
100
AcDbLine
 10
215.2605994417383
 20
168.1883178004301
 30
0.0
 11
216.2605994417383
 21
168.1883178004301
 31
0.0
  0
LINE
  5
1B8
330
4B
100
AcDbEntity
  8
1
  6
Continuous
 62
     7
100
AcDbLine
 10
216.2605994417383
 20
163.1883178004301
 30
0.0
 11
216.2605994417383
 21
168.1883178004301
 31
0.0
  0
LINE
  5
1B9
330
4B
100
AcDbEntity
  8
1
  6
Continuous
 62
     7
100
AcDbLine
 10
216.2605994417383
 20
163.1883178004301
 30
0.0
 11
238.2605994417383
 21
163.1883178004301
 31
0.0
  0
LINE
  5
1BA
330
4B
100
AcDbEntity
  8
1
  6
Continuous
 62
     7
100
AcDbLine
 10
215.2605994417383
 20
171.2883178004301
 30
0.0
 11
215.2605994417383
 21
168.1883178004301
 31
0.0
  0
LINE
  5
1BB
330
4B
100
AcDbEntity
  8
1
  6
Continuous
 62
     7
100
AcDbLine
 10
239.2605994417383
 20
168.1883178004301
 30
0.0
 11
239.2605994417383
 21
171.2883178004301
 31
0.0
  0
LINE
  5
1BC
330
4B
100
AcDbEntity
  8
1
  6
Continuous
 62
     7
100
AcDbLine
 10
238.2605994417383
 20
168.1883178004301
 30
0.0
 11
238.2605994417383
 21
163.1883178004301
 31
0.0
  0
LINE
  5
1BD
330
4B
100
AcDbEntity
  8
1
  6
Continuous
 62
     7
100
AcDbLine
 10
238.2605994417383
 20
168.1883178004301
 30
0.0
 11
239.2605994417383
 21
168.1883178004301
 31
0.0
  0
LINE
  5
1BE
330
4B
100
AcDbEntity
  8
1
  6
Continuous
 62
     2
100
AcDbLine
 10
133.0875238412888
 20
171.2883178004301
 30
0.0
 11
133.397583733613
 21
170.7512783135354
 31
0.0
  0
LINE
  5
1BF
330
4B
100
AcDbEntity
  8
1
  6
Continuous
 62
     7
100
AcDbLine
 10
109.397583733613
 20
171.2883178004301
 30
0.0
 11
109.397583733613
 21
170.8222923966458
 31
0.0
  0
LINE
  5
1C0
330
4B
100
AcDbEntity
  8
1
  6
Continuous
 62
     7
100
AcDbLine
 10
132.397583733613
 20
168.1883178004301
 30
0.0
 11
132.397583733613
 21
163.1883178004301
 31
0.0
  0
LINE
  5
1C1
330
4B
100
AcDbEntity
  8
1
  6
Continuous
 62
     7
100
AcDbLine
 10
110.397583733613
 20
163.1883178004301
 30
0.0
 11
132.397583733613
 21
163.1883178004301
 31
0.0
  0
LINE
  5
1C2
330
4B
100
AcDbEntity
  8
1
  6
Continuous
 62
     7
100
AcDbLine
 10
133.397583733613
 20
170.8222923966458
 30
0.0
 11
133.397583733613
 21
171.2883178004301
 31
0.0
  0
LINE
  5
1C3
330
4B
100
AcDbEntity
  8
1
  6
Continuous
 62
     7
100
AcDbLine
 10
109.397583733613
 20
168.1883178004301
 30
0.0
 11
133.397583733613
 21
168.1883178004301
 31
0.0
  0
LINE
  5
1C4
330
4B
100
AcDbEntity
  8
1
  6
Continuous
 62
     7
100
AcDbLine
 10
133.397583733613
 20
168.1883178004301
 30
0.0
 11
133.397583733613
 21
170.8222923966458
 31
0.0
  0
LINE
  5
1C5
330
4B
100
AcDbEntity
  8
1
  6
Continuous
 62
     2
100
AcDbLine
 10
109.397583733613
 20
170.7512783135354
 30
0.0
 11
109.7076436259371
 21
171.2883178004301
 31
0.0
  0
LINE
  5
1C6
330
4B
100
AcDbEntity
  8
1
  6
Continuous
 62
     7
100
AcDbLine
 10
109.397583733613
 20
170.8222923966458
 30
0.0
 11
109.397583733613
 21
168.1883178004301
 31
0.0
  0
LINE
  5
1C7
330
4B
100
AcDbEntity
  8
1
  6
Continuous
 62
     7
100
AcDbLine
 10
110.397583733613
 20
163.1883178004301
 30
0.0
 11
110.397583733613
 21
168.1883178004301
 31
0.0
  0
ENDBLK
  5
4D
330
4B
100
AcDbEntity
  8
0
100
AcDbBlockEnd
  0
BLOCK
  5
1F0
330
1E9
100
AcDbEntity
  8
0
100
AcDbBlockBegin
  2
*D08
 70
     1
 71
     0
 10
0.0
 20
0.0
 30
0.0
  3
*D08
  1

  0
LINE
  5
1EA
330
1E9
100
AcDbEntity
  8
1
  6
Continuous
 62
     2
100
AcDbLine
 10
78.39758373361298
 20
385.1513335085554
 30
0.0
 11
78.39758373361298
 21
325.1513335085555
 31
0.0
  0
LINE
  5
1EB
330
1E9
100
AcDbEntity
  8
1
  6
Continuous
 62
     2
100
AcDbLine
 10
96.39758373361298
 20
385.1513335085554
 30
0.0
 11
76.39758373361298
 21
385.1513335085554
 31
0.0
  0
LINE
  5
1EC
330
1E9
100
AcDbEntity
  8
1
  6
Continuous
 62
     2
100
AcDbLine
 10
119.1357300590933
 20
325.1513335085555
 30
0.0
 11
76.39758373361298
 21
325.1513335085555
 31
0.0
  0
SOLID
  5
1ED
330
1E9
100
AcDbEntity
  8
1
 62
     2
100
AcDbTrace
 10
79.31915121672475
 20
378.1513335085554
 30
0.0
 11
77.4760162505012
 21
378.1513335085554
 31
0.0
 12
78.39758373361298
 22
385.1513335085554
 32
0.0
 13
78.39758373361298
 23
385.1513335085554
 33
0.0
  0
SOLID
  5
1EE
330
1E9
100
AcDbEntity
  8
1
 62
     2
100
AcDbTrace
 10
77.4760162505012
 20
332.1513335085555
 30
0.0
 11
79.31915121672475
 21
332.1513335085555
 31
0.0
 12
78.39758373361298
 22
325.1513335085555
 32
0.0
 13
78.39758373361298
 23
325.1513335085555
 33
0.0
  0
MTEXT
  5
1EF
330
1E9
100
AcDbEntity
  8
1
 62
     7
100
AcDbMText
 10
76.39758373361298
 20
349.9013335085554
 30
0.0
 40
7.0
 41
0.0
 71
     7
 72
     1
  1
60
  7
CONVERTER_2
 11
0.0
 21
1.0
 31
0.0
 73
     1
 44
0.60024009603842
  0
ENDBLK
  5
1F1
330
1E9
100
AcDbEntity
  8
0
100
AcDbBlockEnd
  0
BLOCK
  5
1FB
330
1F4
100
AcDbEntity
  8
0
100
AcDbBlockBegin
  2
*D19
 70
     1
 71
     0
 10
0.0
 20
0.0
 30
0.0
  3
*D19
  1

  0
LINE
  5
1F5
330
1F4
100
AcDbEntity
  8
1
  6
Continuous
 62
     2
100
AcDbLine
 10
78.39758373361298
 20
476.1513335085555
 30
0.0
 11
78.39758373361298
 21
385.1513335085554
 31
0.0
  0
LINE
  5
1F6
330
1F4
100
AcDbEntity
  8
1
  6
Continuous
 62
     2
100
AcDbLine
 10
98.39758373361298
 20
476.1513335085555
 30
0.0
 11
76.39758373361298
 21
476.1513335085555
 31
0.0
  0
LINE
  5
1F7
330
1F4
100
AcDbEntity
  8
1
  6
Continuous
 62
     2
100
AcDbLine
 10
101.397583733613
 20
385.1513335085554
 30
0.0
 11
76.39758373361298
 21
385.1513335085554
 31
0.0
  0
SOLID
  5
1F8
330
1F4
100
AcDbEntity
  8
1
 62
     2
100
AcDbTrace
 10
79.31915121672475
 20
469.1513335085555
 30
0.0
 11
77.4760162505012
 21
469.1513335085555
 31
0.0
 12
78.39758373361298
 22
476.1513335085555
 32
0.0
 13
78.39758373361298
 23
476.1513335085555
 33
0.0
  0
SOLID
  5
1F9
330
1F4
100
AcDbEntity
  8
1
 62
     2
100
AcDbTrace
 10
77.4760162505012
 20
392.1513335085554
 30
0.0
 11
79.31915121672475
 21
392.1513335085554
 31
0.0
 12
78.39758373361298
 22
385.1513335085554
 32
0.0
 13
78.39758373361298
 23
385.1513335085554
 33
0.0
  0
MTEXT
  5
1FA
330
1F4
100
AcDbEntity
  8
1
 62
     7
100
AcDbMText
 10
76.39758373361298
 20
426.4513335085554
 30
0.0
 40
7.0
 41
0.0
 71
     7
 72
     1
  1
91
  7
CONVERTER_2
 11
0.0
 21
1.0
 31
0.0
 73
     1
 44
0.60024009603842
  0
ENDBLK
  5
1FC
330
1F4
100
AcDbEntity
  8
0
100
AcDbBlockEnd
  0
BLOCK
  5
208
330
1FF
100
AcDbEntity
  8
0
100
AcDbBlockBegin
  2
*D210
 70
     1
 71
     0
 10
0.0
 20
0.0
 30
0.0
  3
*D210
  1

  0
LINE
  5
200
330
1FF
100
AcDbEntity
  8
1
  6
Continuous
 62
     2
100
AcDbLine
 10
78.39758373361298
 20
476.1513335085554
 30
0.0
 11
78.39758373361298
 21
462.1513335085554
 31
0.0
  0
LINE
  5
201
330
1FF
100
AcDbEntity
  8
1
  6
Continuous
 62
     2
100
AcDbLine
 10
78.39758373361298
 20
490.1513335085554
 30
0.0
 11
78.39758373361298
 21
476.1513335085554
 31
0.0
  0
LINE
  5
202
330
1FF
100
AcDbEntity
  8
1
  6
Continuous
 62
     2
100
AcDbLine
 10
78.39758373361298
 20
504.1513335085554
 30
0.0
 11
78.39758373361298
 21
490.1513335085554
 31
0.0
  0
LINE
  5
203
330
1FF
100
AcDbEntity
  8
1
  6
Continuous
 62
     2
100
AcDbLine
 10
111.897583733613
 20
490.1513335085554
 30
0.0
 11
76.39758373361298
 21
490.1513335085554
 31
0.0
  0
LINE
  5
204
330
1FF
100
AcDbEntity
  8
1
  6
Continuous
 62
     2
100
AcDbLine
 10
98.39758373361298
 20
476.1513335085554
 30
0.0
 11
76.39758373361298
 21
476.1513335085554
 31
0.0
  0
SOLID
  5
205
330
1FF
100
AcDbEntity
  8
1
 62
     2
100
AcDbTrace
 10
77.4760162505012
 20
497.1513335085554
 30
0.0
 11
79.31915121672475
 21
497.1513335085554
 31
0.0
 12
78.39758373361298
 22
490.1513335085554
 32
0.0
 13
78.39758373361298
 23
490.1513335085554
 33
0.0
  0
SOLID
  5
206
330
1FF
100
AcDbEntity
  8
1
 62
     2
100
AcDbTrace
 10
79.31915121672475
 20
469.1513335085554
 30
0.0
 11
77.4760162505012
 21
469.1513335085554
 31
0.0
 12
78.39758373361298
 22
476.1513335085554
 32
0.0
 13
78.39758373361298
 23
476.1513335085554
 33
0.0
  0
MTEXT
  5
207
330
1FF
100
AcDbEntity
  8
1
 62
     7
100
AcDbMText
 10
76.39758373361298
 20
478.9513335085554
 30
0.0
 40
7.0
 41
0.0
 71
     7
 72
     1
  1
14
  7
CONVERTER_2
 11
0.0
 21
1.0
 31
0.0
 73
     1
 44
0.60024009603842
  0
ENDBLK
  5
209
330
1FF
100
AcDbEntity
  8
0
100
AcDbBlockEnd
  0
BLOCK
  5
213
330
20C
100
AcDbEntity
  8
0
100
AcDbBlockBegin
  2
*D311
 70
     1
 71
     0
 10
0.0
 20
0.0
 30
0.0
  3
*D311
  1

  0
LINE
  5
20D
330
20C
100
AcDbEntity
  8
0
  6
Continuous
 62
     2
100
AcDbLine
 10
337.2605994417383
 20
136.7883178004302
 30
0.0
 11
227.2605994417383
 21
136.7883178004302
 31
0.0
  0
LINE
  5
20E
330
20C
100
AcDbEntity
  8
0
  6
Continuous
 62
     2
100
AcDbLine
 10
227.2605994417383
 20
159.5149634147482
 30
0.0
 11
227.2605994417383
 21
134.7883178004302
 31
0.0
  0
LINE
  5
20F
330
20C
100
AcDbEntity
  8
0
  6
Continuous
 62
     2
100
AcDbLine
 10
337.2605994417383
 20
167.2883178004301
 30
0.0
 11
337.2605994417383
 21
134.7883178004302
 31
0.0
  0
SOLID
  5
210
330
20C
100
AcDbEntity
  8
0
 62
     2
100
AcDbTrace
 10
331.2605994417383
 20
135.9984028149058
 30
0.0
 11
331.2605994417383
 21
137.5782327859546
 31
0.0
 12
337.2605994417383
 22
136.7883178004302
 32
0.0
 13
337.2605994417383
 23
136.7883178004302
 33
0.0
  0
SOLID
  5
211
330
20C
100
AcDbEntity
  8
0
 62
     2
100
AcDbTrace
 10
233.2605994417383
 20
137.5782327859546
 30
0.0
 11
233.2605994417383
 21
135.9984028149058
 31
0.0
 12
227.2605994417383
 22
136.7883178004302
 32
0.0
 13
227.2605994417383
 23
136.7883178004302
 33
0.0
  0
MTEXT
  5
212
330
20C
100
AcDbEntity
  8
0
 62
     7
100
AcDbMText
 10
275.9605994417383
 20
138.7883178004302
 30
0.0
 40
7.0
 41
0.0
 71
     7
 72
     1
  1
110
  7
CONVERTER_2
 11
0.9999999999970621
 21
2.424068405545307E-6
 31
0.0
 73
     1
 44
0.60024009603842
  0
ENDBLK
  5
214
330
20C
100
AcDbEntity
  8
0
100
AcDbBlockEnd
  0
BLOCK
  5
21E
330
217
100
AcDbEntity
  8
0
100
AcDbBlockBegin
  2
*D412
 70
     1
 71
     0
 10
0.0
 20
0.0
 30
0.0
  3
*D412
  1

  0
LINE
  5
218
330
217
100
AcDbEntity
  8
1
  6
Continuous
 62
     2
100
AcDbLine
 10
98.39758373361298
 20
510.1513335085554
 30
0.0
 11
144.397583733613
 21
510.1513335085554
 31
0.0
  0
LINE
  5
219
330
217
100
AcDbEntity
  8
1
  6
Continuous
 62
     2
100
AcDbLine
 10
98.39758373361298
 20
476.1513335085554
 30
0.0
 11
98.39758373361298
 21
512.1513335085554
 31
0.0
  0
LINE
  5
21A
330
217
100
AcDbEntity
  8
1
  6
Continuous
 62
     2
100
AcDbLine
 10
144.397583733613
 20
476.1513335085554
 30
0.0
 11
144.397583733613
 21
512.1513335085554
 31
0.0
  0
SOLID
  5
21B
330
217
100
AcDbEntity
  8
1
 62
     2
100
AcDbTrace
 10
105.397583733613
 20
511.0729009916671
 30
0.0
 11
105.397583733613
 21
509.2297660254436
 31
0.0
 12
98.39758373361298
 22
510.1513335085554
 32
0.0
 13
98.39758373361298
 23
510.1513335085554
 33
0.0
  0
SOLID
  5
21C
330
217
100
AcDbEntity
  8
1
 62
     2
100
AcDbTrace
 10
137.397583733613
 20
509.2297660254436
 30
0.0
 11
137.397583733613
 21
511.0729009916671
 31
0.0
 12
144.397583733613
 22
510.1513335085554
 32
0.0
 13
144.397583733613
 23
510.1513335085554
 33
0.0
  0
MTEXT
  5
21D
330
217
100
AcDbEntity
  8
1
 62
     7
100
AcDbMText
 10
108.8675837336467
 20
512.1513056802501
 30
0.0
 40
7.0
 41
0.0
 71
     7
 72
     1
  1
\C7;{\Fgdt;n}\C7;46
  7
CONVERTER_2
 11
0.9999999999970621
 21
2.424068405545307E-6
 31
0.0
 73
     1
 44
0.60024009603842
  0
ENDBLK
  5
21F
330
217
100
AcDbEntity
  8
0
100
AcDbBlockEnd
  0
BLOCK
  5
229
330
222
100
AcDbEntity
  8
0
100
AcDbBlockBegin
  2
*D513
 70
     1
 71
     0
 10
0.0
 20
0.0
 30
0.0
  3
*D513
  1

  0
LINE
  5
223
330
222
100
AcDbEntity
  8
1
  6
Continuous
 62
     2
100
AcDbLine
 10
351.2605994417383
 20
136.7883178004302
 30
0.0
 11
363.2605994417383
 21
136.7883178004302
 31
0.0
  0
LINE
  5
224
330
222
100
AcDbEntity
  8
1
  6
Continuous
 62
     2
100
AcDbLine
 10
337.2605994417383
 20
136.7883178004302
 30
0.0
 11
351.2605994417383
 21
136.7883178004302
 31
0.0
  0
LINE
  5
225
330
222
100
AcDbEntity
  8
1
  6
Continuous
 62
     2
100
AcDbLine
 10
337.2605994417383
 20
167.2883178004301
 30
0.0
 11
337.2605994417383
 21
134.7883178004302
 31
0.0
  0
LINE
  5
226
330
222
100
AcDbEntity
  8
1
  6
Continuous
 62
     2
100
AcDbLine
 10
351.2605994417383
 20
180.7883178004301
 30
0.0
 11
351.2605994417383
 21
134.7883178004302
 31
0.0
  0
SOLID
  5
227
330
222
100
AcDbEntity
  8
1
 62
     2
100
AcDbTrace
 10
357.2605994417383
 20
137.5782327859546
 30
0.0
 11
357.2605994417383
 21
135.9984028149058
 31
0.0
 12
351.2605994417383
 22
136.7883178004302
 32
0.0
 13
351.2605994417383
 23
136.7883178004302
 33
0.0
  0
MTEXT
  5
228
330
222
100
AcDbEntity
  8
1
 62
     7
100
AcDbMText
 10
340.0605994417383
 20
138.7883178004302
 30
0.0
 40
7.0
 41
0.0
 71
     7
 72
     1
  1
14
  7
CONVERTER_2
 11
0.9999999999970621
 21
2.424068405545307E-6
 31
0.0
 73
     1
 44
0.60024009603842
  0
ENDBLK
  5
22A
330
222
100
AcDbEntity
  8
0
100
AcDbBlockEnd
  0
BLOCK
  5
22C
330
22B
100
AcDbEntity
  8
0
100
AcDbBlockBegin
  2
_None
 70
     0
 71
     0
 10
0.0
 20
0.0
 30
0.0
  3
_None
  1

  0
ENDBLK
  5
22D
330
22B
100
AcDbEntity
  8
0
100
AcDbBlockEnd
  0
BLOCK
  5
237
330
230
100
AcDbEntity
  8
0
100
AcDbBlockBegin
  2
*D615
 70
     1
 71
     0
 10
0.0
 20
0.0
 30
0.0
  3
*D615
  1

  0
LINE
  5
231
330
230
100
AcDbEntity
  8
0
  6
Continuous
 62
     2
100
AcDbLine
 10
164.3975837336131
 20
255.78831780043
 30
0.0
 11
164.3975837336131
 21
190.2883178004301
 31
0.0
  0
LINE
  5
232
330
230
100
AcDbEntity
  8
0
  6
Continuous
 62
     2
100
AcDbLine
 10
147.4734180828692
 20
190.2883178004301
 30
0.0
 11
166.3975837336131
 21
190.2883178004301
 31
0.0
  0
LINE
  5
233
330
230
100
AcDbEntity
  8
0
  6
Continuous
 62
     2
100
AcDbLine
 10
121.397583733613
 20
255.78831780043
 30
0.0
 11
166.3975837336131
 21
255.78831780043
 31
0.0
  0
SOLID
  5
234
330
230
100
AcDbEntity
  8
0
 62
     2
100
AcDbTrace
 10
165.1874987191375
 20
249.78831780043
 30
0.0
 11
163.6076687480887
 21
249.78831780043
 31
0.0
 12
164.3975837336131
 22
255.78831780043
 32
0.0
 13
164.3975837336131
 23
255.78831780043
 33
0.0
  0
SOLID
  5
235
330
230
100
AcDbEntity
  8
0
 62
     2
100
AcDbTrace
 10
163.6076687480887
 20
196.2883178004301
 30
0.0
 11
165.1874987191375
 21
196.2883178004301
 31
0.0
 12
164.3975837336131
 22
190.2883178004301
 32
0.0
 13
164.3975837336131
 23
190.2883178004301
 33
0.0
  0
MTEXT
  5
236
330
230
100
AcDbEntity
  8
0
 62
     7
100
AcDbMText
 10
162.3975837336131
 20
217.7531474656016
 30
0.0
 40
7.0
 41
0.0
 71
     7
 72
     1
  1
66
  7
CONVERTER_2
 11
0.0
 21
1.0
 31
0.0
 73
     1
 44
0.60024009603842
  0
ENDBLK
  5
238
330
230
100
AcDbEntity
  8
0
100
AcDbBlockEnd
  0
BLOCK
  5
242
330
23B
100
AcDbEntity
  8
0
100
AcDbBlockBegin
  2
*D716
 70
     1
 71
     0
 10
0.0
 20
0.0
 30
0.0
  3
*D716
  1

  0
LINE
  5
23C
330
23B
100
AcDbEntity
  8
0
  6
Continuous
 62
     2
100
AcDbLine
 10
164.3975837336131
 20
190.2883178004301
 30
0.0
 11
164.3975837336131
 21
163.1883178004301
 31
0.0
  0
LINE
  5
23D
330
23B
100
AcDbEntity
  8
0
  6
Continuous
 62
     2
100
AcDbLine
 10
132.397583733613
 20
163.1883178004301
 30
0.0
 11
166.3975837336131
 21
163.1883178004301
 31
0.0
  0
LINE
  5
23E
330
23B
100
AcDbEntity
  8
0
  6
Continuous
 62
     2
100
AcDbLine
 10
147.4734180828692
 20
190.2883178004301
 30
0.0
 11
166.3975837336131
 21
190.2883178004301
 31
0.0
  0
SOLID
  5
23F
330
23B
100
AcDbEntity
  8
0
 62
     2
100
AcDbTrace
 10
165.1874987191375
 20
184.2883178004301
 30
0.0
 11
163.6076687480887
 21
184.2883178004301
 31
0.0
 12
164.3975837336131
 22
190.2883178004301
 32
0.0
 13
164.3975837336131
 23
190.2883178004301
 33
0.0
  0
SOLID
  5
240
330
23B
100
AcDbEntity
  8
0
 62
     2
100
AcDbTrace
 10
163.6076687480887
 20
169.1883178004301
 30
0.0
 11
165.1874987191375
 21
169.1883178004301
 31
0.0
 12
164.3975837336131
 22
163.1883178004301
 32
0.0
 13
164.3975837336131
 23
163.1883178004301
 33
0.0
  0
MTEXT
  5
241
330
23B
100
AcDbEntity
  8
0
 62
     7
100
AcDbMText
 10
162.3975837336131
 20
171.4883178004301
 30
0.0
 40
7.0
 41
0.0
 71
     7
 72
     1
  1
28
  7
CONVERTER_2
 11
0.0
 21
1.0
 31
0.0
 73
     1
 44
0.60024009603842
  0
ENDBLK
  5
243
330
23B
100
AcDbEntity
  8
0
100
AcDbBlockEnd
  0
ENDSEC
  0
SECTION
  2
ENTITIES
  0
INSERT
  5
4E
330
1F
100
AcDbEntity
  8
1
100
AcDbBlockReference
  2
_J__A4
 10
0.0
 20
0.0
 30
0.0
 41
2.0
 42
2.0
 43
2.0
  0
INSERT
  5
4F
330
1F
100
AcDbEntity
  8
0
100
AcDbBlockReference
  2
Y201-0
 10
213.3275816902591
 20
231.4164994874952
 30
0.0
  0
INSERT
  5
50
330
1F
100
AcDbEntity
  8
0
100
AcDbBlockReference
  2
R261F
 10
-17.26511484397599
 20
87.61739496918455
 30
0.0
  0
INSERT
  5
51
330
1F
100
AcDbEntity
  8
1
100
AcDbBlockReference
  2
30-205-M11
 10
443.053047404063
 20
867.5112866817152
 30
0.0
  0
LINE
  5
1C8
330
1F
100
AcDbEntity
  8
1
  6
Continuous
 62
     2
100
AcDbLine
 10
108.454350773838
 20
304.823828818884
 30
0.0
 11
122.993488468838
 21
304.823828818884
 31
0.0
  0
LINE
  5
1C9
330
1F
100
AcDbEntity
  8
1
  6
Continuous
 62
     2
100
AcDbLine
 10
174.28648562557
 20
340.4828069913256
 30
0.0
 11
189.379303762253
 21
340.4828069913256
 31
0.0
  0
LINE
  5
1CA
330
1F
100
AcDbEntity
  8
1
  6
DASH_CENTER
 62
     2
100
AcDbLine
 10
317.271759840697
 20
181.8589718117672
 30
0.0
 11
317.271759840697
 21
154.8508814346922
 31
0.0
  0
LINE
  5
1CB
330
1F
100
AcDbEntity
  8
0
  6
DASH_CENTER
 62
     2
100
AcDbLine
 10
184.2605994417382
 20
241.5883178004299
 30
0.0
 11
213.2605994417382
 21
241.5883178004299
 31
0.0
  0
LINE
  5
1CC
330
1F
100
AcDbEntity
  8
0
  6
DASH_CENTER
 62
     2
100
AcDbLine
 10
198.7605994417382
 20
226.0883178004299
 30
0.0
 11
198.7605994417382
 21
257.0883178004299
 31
0.0
  0
LINE
  5
1CD
330
1F
100
AcDbEntity
  8
1
  6
DASH_CENTER
 62
     2
100
AcDbLine
 10
334.7605994417383
 20
190.2883178004301
 30
0.0
 11
233.7605994417383
 21
190.2883178004301
 31
0.0
  0
LINE
  5
1CE
330
1F
100
AcDbEntity
  8
1
  6
DASH_CENTER
 62
     2
100
AcDbLine
 10
351.2605994417383
 20
190.2883178004301
 30
0.0
 11
334.7605994417383
 21
190.2883178004301
 31
0.0
  0
LINE
  5
1CF
330
1F
100
AcDbEntity
  8
1
  6
DASH_CENTER
 62
     2
100
AcDbLine
 10
355.4471329212115
 20
190.2883178004301
 30
0.0
 11
351.2605994417383
 21
190.2883178004301
 31
0.0
  0
LINE
  5
1D0
330
1F
100
AcDbEntity
  8
0
  6
DASH_CENTER
 62
     2
100
AcDbLine
 10
227.2605994417383
 20
194.9903770202642
 30
0.0
 11
227.2605994417383
 21
159.5149634147482
 31
0.0
  0
LINE
  5
1D1
330
1F
100
AcDbEntity
  8
1
  6
DASH_CENTER
 62
     2
100
AcDbLine
 10
233.7605994417383
 20
190.2883178004301
 30
0.0
 11
210.5333839107745
 21
190.2883178004301
 31
0.0
  0
LINE
  5
1D2
330
1F
100
AcDbEntity
  8
1
  6
DASH_CENTER
 62
     2
100
AcDbLine
 10
121.397583733613
 20
255.78831780043
 30
0.0
 11
121.397583733613
 21
153.7883178004302
 31
0.0
  0
LINE
  5
1D3
330
1F
100
AcDbEntity
  8
1
  6
DASH_CENTER
 62
     2
100
AcDbLine
 10
147.4734180828692
 20
190.2883178004301
 30
0.0
 11
95.46366910507298
 21
190.2883178004301
 31
0.0
  0
LINE
  5
1D4
330
1F
100
AcDbEntity
  8
1
  6
DASH_CENTER
 62
     2
100
AcDbLine
 10
121.397583733613
 20
495.1513335085554
 30
0.0
 11
121.397583733613
 21
322.1513335085554
 31
0.0
  0
LINE
  5
1D5
330
1F
100
AcDbEntity
  8
1
  6
DASH_CENTER
 62
     2
100
AcDbLine
 10
187.3975837336129
 20
385.1513335085553
 30
0.0
 11
96.39758373361298
 21
385.1513335085553
 31
0.0
  0
LINE
  5
1D6
330
1F
100
AcDbEntity
  8
1
  6
DASH_CENTER
 62
     2
100
AcDbLine
 10
96.39758373361298
 20
366.1513335085554
 30
0.0
 11
146.397583733613
 21
366.1513335085554
 31
0.0
  0
LINE
  5
1D7
330
1F
100
AcDbEntity
  8
1
  6
DASH_CENTER
 62
     2
100
AcDbLine
 10
246.2605994417384
 20
258.4792286723276
 30
0.0
 11
246.2605994417384
 21
204.7520158183639
 31
0.0
  0
ARC
  5
1D8
330
1F
100
AcDbEntity
  8
1
  6
Continuous
 62
     2
100
AcDbCircle
 10
123.897583733613
 20
385.1513335085553
 30
0.0
 40
69.17306198700436
100
AcDbArc
 50
-82.07673999032306
 51
-47.20359297991232
  0
SOLID
  5
1D9
330
1F
100
AcDbEntity
  8
1
 62
     2
100
AcDbTrace
 10
348.0587002934147
 20
174.1869237154949
 30
0.0
 11
346.4624985900618
 21
173.2653562323831
 31
0.0
 12
343.7605994417383
 22
179.7883178004301
 32
0.0
 13
343.7605994417383
 23
179.7883178004301
 33
0.0
  0
LEADER
  5
1DA
330
1F
100
AcDbEntity
  8
1
  6
Continuous
 62
     2
100
AcDbLeader
  3
Standard
 71
     0
 76
     3
 10
343.7605994417383
 20
179.7883178004301
 30
0.0
 10
355.7738036198994
 20
158.9808378021563
 30
0.0
 10
392.567766225333
 20
158.9808378021563
 30
0.0
  0
SOLID
  5
1DB
330
1F
100
AcDbEntity
  8
1
 62
     2
100
AcDbTrace
 10
168.643756677764
 20
330.9374320760485
 30
0.0
 11
167.3626976191588
 21
332.2625864791585
 31
0.0
 12
173.0360006521705
 22
336.4653140841253
 32
0.0
 13
173.0360006521705
 23
336.4653140841253
 33
0.0
  0
LEADER
  5
1DC
330
1F
100
AcDbEntity
  8
1
  6
Continuous
 62
     2
100
AcDbLeader
  3
Standard
 71
     0
 76
     2
 10
173.0360006521705
 20
336.4653140841253
 30
0.0
 10
170.8934363267025
 20
334.3940449313809
 30
0.0
  0
SOLID
  5
1DD
330
1F
100
AcDbEntity
  8
1
 62
     2
100
AcDbTrace
 10
136.6057612919975
 20
317.8556737645264
 30
0.0
 11
136.7937055843954
 21
316.0221461681509
 31
0.0
 12
129.7362210477139
 22
316.2251206503666
 32
0.0
 13
129.7362210477139
 23
316.2251206503666
 33
0.0
  0
LEADER
  5
1DE
330
1F
100
AcDbEntity
  8
1
  6
Continuous
 62
     2
100
AcDbLeader
  3
Standard
 71
     0
 76
     2
 10
129.7362210477139
 20
316.2251206503666
 30
0.0
 10
132.1638921957415
 20
316.4739671564092
 30
0.0
  0
MTEXT
  5
1E0
330
1F
100
AcDbEntity
  8
1
 62
     7
100
AcDbMText
 10
157.4244578947279
 20
313.4274012865778
 30
0.0
 40
7.0
 41
0.0
 71
     5
 72
     1
  1
90{\Fgdt;~}
  7
CONVERTER_2
 73
     1
 44
0.7202881152461
  0
MTEXT
  5
1E1
330
1F
100
AcDbEntity
  8
1
 62
     7
100
AcDbMText
 10
68.0
 20
68.00000000000001
 30
0.0
 40
7.0
 41
0.0
 71
     4
 72
     1
  1
JIS
  7
CONVERTER_2
 73
     1
 44
0.7202881152461
  0
MTEXT
  5
1E2
330
1F
100
AcDbEntity
  8
0
 62
     7
100
AcDbMText
 10
114.0
 20
45.50000000000002
 30
0.0
 40
7.0
 41
0.0
 71
     5
 72
     1
  1
胴長水栓
  7
CONVERTER_1
 73
     1
 44
1.32052821128451
  0
MTEXT
  5
1E3
330
1F
100
AcDbEntity
  8
0
 62
     7
100
AcDbMText
 10
114.0
 20
28.5
 30
0.0
 40
7.0
 41
0.0
 71
     5
 72
     1
  1
Y202HCK-13
  7
CONVERTER_2
 73
     1
 44
0.90036014405762
  0
MTEXT
  5
1E4
330
1F
100
AcDbEntity
  8
0
 62
     7
100
AcDbMText
 10
170.5
 20
34.0
 30
0.0
 40
7.0
 41
0.0
 71
     5
 72
     1
  1
1
  7
CONVERTER_2
 73
     1
 44
1.32052821128451
  0
MTEXT
  5
1E5
330
1F
100
AcDbEntity
  8
0
 62
     7
100
AcDbMText
 10
187.5
 20
34.0
 30
0.0
 40
7.0
 41
0.0
 71
     5
 72
     1
  1
2
  7
CONVERTER_2
 73
     1
 44
1.32052821128451
  0
MTEXT
  5
1E6
330
1F
100
AcDbEntity
  8
1
 62
     7
100
AcDbMText
 10
181.6795321030229
 20
346.4828069913256
 30
0.0
 40
7.0
 41
0.0
 71
     5
 72
     1
  1
吐水
  7
CONVERTER_1
 73
     1
 44
1.32052821128451
  0
MTEXT
  5
1E7
330
1F
100
AcDbEntity
  8
1
 62
     7
100
AcDbMText
 10
115.5164924541463
 20
310.823828818884
 30
0.0
 40
7.0
 41
0.0
 71
     5
 72
     1
  1
止水
  7
CONVERTER_1
 73
     1
 44
1.32052821128451
  0
MTEXT
  5
1E8
330
1F
100
AcDbEntity
  8
1
 62
     7
100
AcDbMText
 10
374.1707849226162
 20
164.9808378021563
 30
0.0
 40
7.0
 41
0.0
 71
     5
 72
     1
  1
PJ1/2
  7
CONVERTER_2
 73
     1
 44
1.32052821128451
  0
DIMENSION
  5
1F3
330
1F
100
AcDbEntity
  8
1
100
AcDbDimension
  2
*D08
 10
78.39758373361298
 20
385.1513335085554
 30
0.0
 11
72.89758373361298
 21
355.1513335085554
 31
0.0
  1
<>
 71
     5
 42
0.0
 53
90.0
  3
ME10_DIM_0
100
AcDbAlignedDimension
 13
119.1357300590933
 23
325.1513335085554
 33
0.0
 14
96.39758373361298
 24
385.1513335085553
 34
0.0
 50
90.0
100
AcDbRotatedDimension
  0
DIMENSION
  5
1FE
330
1F
100
AcDbEntity
  8
1
100
AcDbDimension
  2
*D19
 10
78.39758373361298
 20
476.1513335085555
 30
0.0
 11
72.89758373361298
 21
430.6513335085554
 31
0.0
  1
<>
 71
     5
 42
0.0
 53
90.0
  3
ME10_DIM_1
100
AcDbAlignedDimension
 13
101.397583733613
 23
385.1513335085553
 33
0.0
 14
98.39758373361298
 24
476.1513335085554
 34
0.0
 50
90.0
100
AcDbRotatedDimension
  0
DIMENSION
  5
20B
330
1F
100
AcDbEntity
  8
1
100
AcDbDimension
  2
*D210
 10
78.39758373361298
 20
490.1513335085554
 30
0.0
 11
72.89758373361298
 21
483.1513335085554
 31
0.0
  1
<>
 71
     5
 42
0.0
 53
90.0
  3
ME10_DIM_2
100
AcDbAlignedDimension
 13
98.39758373361298
 23
476.1513335085554
 33
0.0
 14
111.897583733613
 24
490.1513335085554
 34
0.0
 50
90.0
100
AcDbRotatedDimension
  0
DIMENSION
  5
216
330
1F
100
AcDbEntity
  8
0
100
AcDbDimension
  2
*D311
 10
337.2605994417383
 20
136.7883178004302
 30
0.0
 11
282.2605994417383
 21
142.2883178004302
 31
0.0
  1
<>
 71
     5
 42
0.0
 53
0.00013888888889
  3
ME10_DIM_3
100
AcDbAlignedDimension
 13
227.2605994417383
 23
159.5149634147482
 33
0.0
 14
337.2605994417383
 24
167.2883178004301
 34
0.0
100
AcDbRotatedDimension
  0
DIMENSION
  5
221
330
1F
100
AcDbEntity
  8
1
100
AcDbDimension
  2
*D412
 10
98.39758373361298
 20
510.1513335085554
 30
0.0
 11
121.397583733613
 21
515.6513335085554
 31
0.0
  1
<>
 71
     5
 42
0.0
 53
0.00013888888889
  3
ME10_DIM_4
100
AcDbAlignedDimension
 13
144.397583733613
 23
476.1513335085554
 33
0.0
 14
98.39758373361298
 24
476.1513335085554
 34
0.0
100
AcDbRotatedDimension
  0
DIMENSION
  5
22F
330
1F
100
AcDbEntity
  8
1
100
AcDbDimension
  2
*D513
 10
337.2605994417383
 20
136.7883178004302
 30
0.0
 11
344.2605994417383
 21
142.2883178004302
 31
0.0
  1
<>
 71
     5
 42
0.0
 53
0.00013888888889
  3
ME10_DIM_5
100
AcDbAlignedDimension
 13
351.2605994417383
 23
180.7883178004301
 33
0.0
 14
337.2605994417383
 24
167.2883178004301
 34
0.0
100
AcDbRotatedDimension
  0
DIMENSION
  5
23A
330
1F
100
AcDbEntity
  8
0
100
AcDbDimension
  2
*D615
 10
164.3975837336131
 20
255.78831780043
 30
0.0
 11
158.8975837336131
 21
223.0031474656016
 31
0.0
  1
<>
 71
     5
 42
0.0
 53
90.0
  3
ME10_DIM_6
100
AcDbAlignedDimension
 13
147.4734180828692
 23
190.2883178004301
 33
0.0
 14
121.397583733613
 24
255.78831780043
 34
0.0
 50
90.0
100
AcDbRotatedDimension
  0
DIMENSION
  5
245
330
1F
100
AcDbEntity
  8
0
100
AcDbDimension
  2
*D716
 10
164.3975837336131
 20
190.2883178004301
 30
0.0
 11
158.8975837336131
 21
176.7383178004301
 31
0.0
  1
28
 71
     5
 42
0.0
 53
90.0
  3
ME10_DIM_7
100
AcDbAlignedDimension
 13
132.397583733613
 23
163.1883178004301
 33
0.0
 14
147.4734180828692
 24
190.2883178004301
 34
0.0
 50
90.0
100
AcDbRotatedDimension
  0
ENDSEC
  0
SECTION
  2
OBJECTS
  0
DICTIONARY
  5
C
330
0
100
AcDbDictionary
281
     1
  3
ACAD_GROUP
350
D
  3
ACAD_LAYOUT
350
1A
  3
ACAD_MLINESTYLE
350
17
  3
ACAD_PLOTSETTINGS
350
19
  3
ACAD_PLOTSTYLENAME
350
E
  3
ACAD_TABLESTYLE
350
2A
  3
AcDbVariableDictionary
350
2C
  0
DICTIONARY
  5
D
102
{ACAD_REACTORS
330
C
102
}
330
C
100
AcDbDictionary
281
     1
  0
DICTIONARY
  5
1A
102
{ACAD_REACTORS
330
C
102
}
330
C
100
AcDbDictionary
281
     1
  3
Layout1
350
1E
  3
Layout2
350
26
  3
Model
350
22
  0
DICTIONARY
  5
17
102
{ACAD_REACTORS
330
C
102
}
330
C
100
AcDbDictionary
281
     1
  3
Standard
350
18
  0
DICTIONARY
  5
19
102
{ACAD_REACTORS
330
C
102
}
330
C
100
AcDbDictionary
281
     1
  0
ACDBDICTIONARYWDFLT
  5
E
102
{ACAD_REACTORS
330
C
102
}
330
C
100
AcDbDictionary
281
     1
  3
Normal
350
F
100
AcDbDictionaryWithDefault
340
F
  0
DICTIONARY
  5
2A
102
{ACAD_REACTORS
330
C
102
}
330
C
100
AcDbDictionary
281
     1
  3
Standard
350
2B
  0
DICTIONARY
  5
2C
102
{ACAD_REACTORS
330
C
102
}
330
C
100
AcDbDictionary
281
     1
  3
CTABLESTYLE
350
2D
  0
LAYOUT
  5
1E
102
{ACAD_REACTORS
330
1A
102
}
330
1A
100
AcDbPlotSettings
  1

  2

  4

  6

 40
0.0
 41
0.0
 42
0.0
 43
0.0
 44
0.0
 45
0.0
 46
0.0
 47
0.0
 48
0.0
 49
0.0
140
0.0
141
0.0
142
1.0
143
1.0
 70
   688
 72
     0
 73
     0
 74
     5
  7

 75
    16
147
1.0
148
0.0
149
0.0
100
AcDbLayout
  1
Layout1
 70
     1
 71
     1
 10
0.0
 20
0.0
 11
12.0
 21
9.0
 12
0.0
 22
0.0
 32
0.0
 14
1.00000000000000E+20
 24
1.00000000000000E+20
 34
1.00000000000000E+20
 15
-1.00000000000000E+20
 25
-1.00000000000000E+20
 35
-1.00000000000000E+20
146
0.0
 13
0.0
 23
0.0
 33
0.0
 16
1.0
 26
0.0
 36
0.0
 17
0.0
 27
1.0
 37
0.0
 76
     0
330
1B
  0
LAYOUT
  5
26
102
{ACAD_REACTORS
330
1A
102
}
330
1A
100
AcDbPlotSettings
  1

  2

  4

  6

 40
0.0
 41
0.0
 42
0.0
 43
0.0
 44
0.0
 45
0.0
 46
0.0
 47
0.0
 48
0.0
 49
0.0
140
0.0
141
0.0
142
1.0
143
1.0
 70
   688
 72
     0
 73
     0
 74
     5
  7

 75
    16
147
1.0
148
0.0
149
0.0
100
AcDbLayout
  1
Layout2
 70
     1
 71
     2
 10
0.0
 20
0.0
 11
0.0
 21
0.0
 12
0.0
 22
0.0
 32
0.0
 14
0.0
 24
0.0
 34
0.0
 15
0.0
 25
0.0
 35
0.0
146
0.0
 13
0.0
 23
0.0
 33
0.0
 16
1.0
 26
0.0
 36
0.0
 17
0.0
 27
1.0
 37
0.0
 76
     0
330
23
  0
LAYOUT
  5
22
102
{ACAD_REACTORS
330
1A
102
}
330
1A
100
AcDbPlotSettings
  1

  2

  4

  6

 40
0.0
 41
0.0
 42
0.0
 43
0.0
 44
0.0
 45
0.0
 46
0.0
 47
0.0
 48
0.0
 49
0.0
140
0.0
141
0.0
142
1.0
143
1.0
 70
  1712
 72
     0
 73
     0
 74
     0
  7

 75
     0
147
1.0
148
0.0
149
0.0
100
AcDbLayout
  1
Model
 70
     1
 71
     0
 10
0.0
 20
0.0
 11
0.0
 21
0.0
 12
0.0
 22
0.0
 32
0.0
 14
0.0
 24
0.0
 34
0.0
 15
420.0
 25
594.0
 35
0.0
146
0.0
 13
0.0
 23
0.0
 33
0.0
 16
1.0
 26
0.0
 36
0.0
 17
0.0
 27
1.0
 37
0.0
 76
     0
330
1F
  0
MLINESTYLE
  5
18
102
{ACAD_REACTORS
330
17
102
}
330
17
100
AcDbMlineStyle
  2
Standard
 70
     0
  3

 62
   256
 51
90.0
 52
90.0
 71
     2
 49
0.5
 62
   256
  6
BYLAYER
 49
-0.5
 62
   256
  6
BYLAYER
  0
ACDBPLACEHOLDER
  5
F
102
{ACAD_REACTORS
330
E
102
}
330
E
  0
TABLESTYLE
  5
2B
102
{ACAD_REACTORS
330
2A
102
}
330
2A
100
AcDbTableStyle
  3
Standard
 70
     0
 71
     0
 40
0.06
 41
0.06
280
     0
281
     0
  7
Standard
140
0.18
170
     2
 62
     0
 63
     7
283
     0
274
    -2
284
     1
 64
     0
275
    -2
285
     1
 65
     0
276
    -2
286
     1
 66
     0
277
    -2
287
     1
 67
     0
278
    -2
288
     1
 68
     0
279
    -2
289
     1
 69
     0
  7
Standard
140
0.25
170
     5
 62
     0
 63
     7
283
     0
274
    -2
284
     1
 64
     0
275
    -2
285
     1
 65
     0
276
    -2
286
     1
 66
     0
277
    -2
287
     1
 67
     0
278
    -2
288
     1
 68
     0
279
    -2
289
     1
 69
     0
  7
Standard
140
0.18
170
     5
 62
     0
 63
     7
283
     0
274
    -2
284
     1
 64
     0
275
    -2
285
     1
 65
     0
276
    -2
286
     1
 66
     0
277
    -2
287
     1
 67
     0
278
    -2
288
     1
 68
     0
279
    -2
289
     1
 69
     0
  0
DICTIONARYVAR
  5
2D
102
{ACAD_REACTORS
330
2C
102
}
330
2C
100
DictionaryVariables
280
     0
  1
Standard
  0
ENDSEC
  0
EOF
