  0
SECTION
  2
HEADER
  9
$ACADVER
  1
AC1015
  9
$ACADMAINTVER
 70
     6
  9
$DWGCODEPAGE
  3
ANSI_932
  9
$INSBASE
 10
0.0
 20
0.0
 30
0.0
  9
$EXTMIN
 10
0.0
 20
0.0
 30
0.0
  9
$EXTMAX
 10
315.0
 20
445.5
 30
0.0
  9
$LIMMIN
 10
0.0
 20
0.0
  9
$LIMMAX
 10
12.0
 20
9.0
  9
$ORTHOMODE
 70
     0
  9
$REGENMODE
 70
     1
  9
$FILLMODE
 70
     1
  9
$QTEXTMODE
 70
     0
  9
$MIRRTEXT
 70
     1
  9
$LTSCALE
 40
1.0
  9
$ATTMODE
 70
     1
  9
$TEXTSIZE
 40
0.2
  9
$TRACEWID
 40
0.05
  9
$TEXTSTYLE
  7
Standard
  9
$CLAYER
  8
0
  9
$CELTYPE
  6
ByLayer
  9
$CECOLOR
 62
   256
  9
$CELTSCALE
 40
1.0
  9
$DISPSILH
 70
     0
  9
$DIMSCALE
 40
1.0
  9
$DIMASZ
 40
0.18
  9
$DIMEXO
 40
0.0625
  9
$DIMDLI
 40
0.38
  9
$DIMRND
 40
0.0
  9
$DIMDLE
 40
0.0
  9
$DIMEXE
 40
0.18
  9
$DIMTP
 40
0.0
  9
$DIMTM
 40
0.0
  9
$DIMTXT
 40
0.18
  9
$DIMCEN
 40
0.09
  9
$DIMTSZ
 40
0.0
  9
$DIMTOL
 70
     0
  9
$DIMLIM
 70
     0
  9
$DIMTIH
 70
     1
  9
$DIMTOH
 70
     1
  9
$DIMSE1
 70
     0
  9
$DIMSE2
 70
     0
  9
$DIMTAD
 70
     0
  9
$DIMZIN
 70
     0
  9
$DIMBLK
  1

  9
$DIMASO
 70
     1
  9
$DIMSHO
 70
     1
  9
$DIMPOST
  1

  9
$DIMAPOST
  1

  9
$DIMALT
 70
     0
  9
$DIMALTD
 70
     2
  9
$DIMALTF
 40
25.4
  9
$DIMLFAC
 40
1.0
  9
$DIMTOFL
 70
     0
  9
$DIMTVP
 40
0.0
  9
$DIMTIX
 70
     0
  9
$DIMSOXD
 70
     0
  9
$DIMSAH
 70
     0
  9
$DIMBLK1
  1

  9
$DIMBLK2
  1

  9
$DIMSTYLE
  2
Standard
  9
$DIMCLRD
 70
     0
  9
$DIMCLRE
 70
     0
  9
$DIMCLRT
 70
     0
  9
$DIMTFAC
 40
1.0
  9
$DIMGAP
 40
0.09
  9
$DIMJUST
 70
     0
  9
$DIMSD1
 70
     0
  9
$DIMSD2
 70
     0
  9
$DIMTOLJ
 70
     1
  9
$DIMTZIN
 70
     0
  9
$DIMALTZ
 70
     0
  9
$DIMALTTZ
 70
     0
  9
$DIMUPT
 70
     0
  9
$DIMDEC
 70
     4
  9
$DIMTDEC
 70
     4
  9
$DIMALTU
 70
     2
  9
$DIMALTTD
 70
     2
  9
$DIMTXSTY
  7
Standard
  9
$DIMAUNIT
 70
     0
  9
$DIMADEC
 70
     0
  9
$DIMALTRND
 40
0.0
  9
$DIMAZIN
 70
     0
  9
$DIMDSEP
 70
    46
  9
$DIMATFIT
 70
     3
  9
$DIMFRAC
 70
     0
  9
$DIMLDRBLK
  1

  9
$DIMLUNIT
 70
     2
  9
$DIMLWD
 70
    -2
  9
$DIMLWE
 70
    -2
  9
$DIMTMOVE
 70
     0
  9
$LUNITS
 70
     2
  9
$LUPREC
 70
     4
  9
$SKETCHINC
 40
0.1
  9
$FILLETRAD
 40
0.5
  9
$AUNITS
 70
     0
  9
$AUPREC
 70
     0
  9
$MENU
  1
.
  9
$ELEVATION
 40
0.0
  9
$PELEVATION
 40
0.0
  9
$THICKNESS
 40
0.0
  9
$LIMCHECK
 70
     0
  9
$CHAMFERA
 40
0.5
  9
$CHAMFERB
 40
0.5
  9
$CHAMFERC
 40
1.0
  9
$CHAMFERD
 40
0.0
  9
$SKPOLY
 70
     0
  9
$TDCREATE
 40
2457186.582154167
  9
$TDUCREATE
 40
2457186.207154167
  9
$TDUPDATE
 40
2457186.582155069
  9
$TDUUPDATE
 40
2457186.207155069
  9
$TDINDWG
 40
0.0000000116
  9
$TDUSRTIMER
 40
0.0000000116
  9
$USRTIMER
 70
     1
  9
$ANGBASE
 50
0.0
  9
$ANGDIR
 70
     0
  9
$PDMODE
 70
     0
  9
$PDSIZE
 40
0.0
  9
$PLINEWID
 40
0.0
  9
$SPLFRAME
 70
     0
  9
$SPLINETYPE
 70
     6
  9
$SPLINESEGS
 70
     8
  9
$HANDSEED
  5
20D
  9
$SURFTAB1
 70
     6
  9
$SURFTAB2
 70
     6
  9
$SURFTYPE
 70
     6
  9
$SURFU
 70
     6
  9
$SURFV
 70
     6
  9
$UCSBASE
  2

  9
$UCSNAME
  2

  9
$UCSORG
 10
0.0
 20
0.0
 30
0.0
  9
$UCSXDIR
 10
1.0
 20
0.0
 30
0.0
  9
$UCSYDIR
 10
0.0
 20
1.0
 30
0.0
  9
$UCSORTHOREF
  2

  9
$UCSORTHOVIEW
 70
     0
  9
$UCSORGTOP
 10
0.0
 20
0.0
 30
0.0
  9
$UCSORGBOTTOM
 10
0.0
 20
0.0
 30
0.0
  9
$UCSORGLEFT
 10
0.0
 20
0.0
 30
0.0
  9
$UCSORGRIGHT
 10
0.0
 20
0.0
 30
0.0
  9
$UCSORGFRONT
 10
0.0
 20
0.0
 30
0.0
  9
$UCSORGBACK
 10
0.0
 20
0.0
 30
0.0
  9
$PUCSBASE
  2

  9
$PUCSNAME
  2

  9
$PUCSORG
 10
0.0
 20
0.0
 30
0.0
  9
$PUCSXDIR
 10
1.0
 20
0.0
 30
0.0
  9
$PUCSYDIR
 10
0.0
 20
1.0
 30
0.0
  9
$PUCSORTHOREF
  2

  9
$PUCSORTHOVIEW
 70
     0
  9
$PUCSORGTOP
 10
0.0
 20
0.0
 30
0.0
  9
$PUCSORGBOTTOM
 10
0.0
 20
0.0
 30
0.0
  9
$PUCSORGLEFT
 10
0.0
 20
0.0
 30
0.0
  9
$PUCSORGRIGHT
 10
0.0
 20
0.0
 30
0.0
  9
$PUCSORGFRONT
 10
0.0
 20
0.0
 30
0.0
  9
$PUCSORGBACK
 10
0.0
 20
0.0
 30
0.0
  9
$USERI1
 70
     0
  9
$USERI2
 70
     0
  9
$USERI3
 70
     0
  9
$USERI4
 70
     0
  9
$USERI5
 70
     0
  9
$USERR1
 40
18.1
  9
$USERR2
 40
0.0
  9
$USERR3
 40
0.0
  9
$USERR4
 40
0.0
  9
$USERR5
 40
0.0
  9
$WORLDVIEW
 70
     1
  9
$SHADEDGE
 70
     3
  9
$SHADEDIF
 70
    70
  9
$TILEMODE
 70
     1
  9
$MAXACTVP
 70
    64
  9
$PINSBASE
 10
0.0
 20
0.0
 30
0.0
  9
$PLIMCHECK
 70
     0
  9
$PEXTMIN
 10
1.00000000000000E+20
 20
1.00000000000000E+20
 30
1.00000000000000E+20
  9
$PEXTMAX
 10
-1.00000000000000E+20
 20
-1.00000000000000E+20
 30
-1.00000000000000E+20
  9
$PLIMMIN
 10
0.0
 20
0.0
  9
$PLIMMAX
 10
12.0
 20
9.0
  9
$UNITMODE
 70
     0
  9
$VISRETAIN
 70
     1
  9
$PLINEGEN
 70
     0
  9
$PSLTSCALE
 70
     1
  9
$TREEDEPTH
 70
  3020
  9
$CMLSTYLE
  2
Standard
  9
$CMLJUST
 70
     0
  9
$CMLSCALE
 40
1.0
  9
$PROXYGRAPHICS
 70
     1
  9
$MEASUREMENT
 70
     1
  9
$CELWEIGHT
370
    -1
  9
$ENDCAPS
280
     0
  9
$JOINSTYLE
280
     0
  9
$LWDISPLAY
290
     0
  9
$INSUNITS
 70
     4
  9
$HYPERLINKBASE
  1

  9
$STYLESHEET
  1

  9
$XEDIT
290
     1
  9
$CEPSNTYPE
380
     0
  9
$PSTYLEMODE
290
     1
  9
$FINGERPRINTGUID
  2
{72B0AC67-8D58-4E30-AE71-12DC7B092E11}
  9
$VERSIONGUID
  2
{FAEB1C32-E019-11D5-929B-00C0DF256EC4}
  9
$EXTNAMES
290
     1
  9
$PSVPSCALE
 40
0.0
  9
$OLESTARTUP
290
     0
  0
ENDSEC
  0
SECTION
  2
CLASSES
  0
CLASS
  1
ACDBDICTIONARYWDFLT
  2
AcDbDictionaryWithDefault
  3
ObjectDBX Classes
 90
        0
280
     0
281
     0
  0
CLASS
  1
VISUALSTYLE
  2
AcDbVisualStyle
  3
ObjectDBX Classes
 90
     4095
280
     0
281
     0
  0
CLASS
  1
MATERIAL
  2
AcDbMaterial
  3
ObjectDBX Classes
 90
     1153
280
     0
281
     0
  0
CLASS
  1
DICTIONARYVAR
  2
AcDbDictionaryVar
  3
ObjectDBX Classes
 90
        0
280
     0
281
     0
  0
CLASS
  1
ACDBPLACEHOLDER
  2
AcDbPlaceHolder
  3
ObjectDBX Classes
 90
        0
280
     0
281
     0
  0
CLASS
  1
LAYOUT
  2
AcDbLayout
  3
ObjectDBX Classes
 90
        0
280
     0
281
     0
  0
ENDSEC
  0
SECTION
  2
TABLES
  0
TABLE
  2
VPORT
  5
8
330
0
100
AcDbSymbolTable
 70
     1
  0
VPORT
  5
29
330
8
100
AcDbSymbolTableRecord
100
AcDbViewportTableRecord
  2
*Active
 70
     0
 10
0.0
 20
0.0
 11
1.0
 21
1.0
 12
157.5
 22
222.75
 13
0.0
 23
0.0
 14
0.5
 24
0.5
 15
0.5
 25
0.5
 16
0.0
 26
0.0
 36
1.0
 17
0.0
 27
0.0
 37
0.0
 40
490.05
 41
1.60267857142857
 42
50.0
 43
0.0
 44
0.0
 50
0.0
 51
0.0
 71
     0
 72
   100
 73
     1
 74
     3
 75
     0
 76
     0
 77
     0
 78
     0
281
     0
 65
     1
110
0.0
120
0.0
130
0.0
111
1.0
121
0.0
131
0.0
112
0.0
122
1.0
132
0.0
 79
     0
146
0.0
  0
ENDTAB
  0
TABLE
  2
LTYPE
  5
5
330
0
100
AcDbSymbolTable
 70
     8
  0
LTYPE
  5
14
330
5
100
AcDbSymbolTableRecord
100
AcDbLinetypeTableRecord
  2
ByBlock
 70
     0
  3

 72
    65
 73
     0
 40
0.0
  0
LTYPE
  5
15
330
5
100
AcDbSymbolTableRecord
100
AcDbLinetypeTableRecord
  2
ByLayer
 70
     0
  3

 72
    65
 73
     0
 40
0.0
  0
LTYPE
  5
16
330
5
100
AcDbSymbolTableRecord
100
AcDbLinetypeTableRecord
  2
Continuous
 70
     0
  3
Solid line
 72
    65
 73
     0
 40
0.0
  0
LTYPE
  5
3F
330
5
100
AcDbSymbolTableRecord
100
AcDbLinetypeTableRecord
  2
DASHED
 70
     0
  3
Dashed
 72
    65
 73
     2
 40
15.0
 49
7.0
 74
     0
 49
-8.0
 74
     0
  0
LTYPE
  5
40
330
5
100
AcDbSymbolTableRecord
100
AcDbLinetypeTableRecord
  2
DOTTED
 70
     0
  3
Dotted
 72
    65
 73
     2
 40
1.0
 49
0.0
 74
     0
 49
-1.0
 74
     0
  0
LTYPE
  5
41
330
5
100
AcDbSymbolTableRecord
100
AcDbLinetypeTableRecord
  2
DOT_CENTER
 70
     0
  3
Dot_Center
 72
    65
 73
     4
 40
14.0
 49
12.0
 74
     0
 49
-1.0
 74
     0
 49
0.0
 74
     0
 49
-1.0
 74
     0
  0
LTYPE
  5
42
330
5
100
AcDbSymbolTableRecord
100
AcDbLinetypeTableRecord
  2
LONG_DASHED
 70
     0
  3
Long_Dashed
 72
    65
 73
     2
 40
15.0
 49
10.0
 74
     0
 49
-5.0
 74
     0
  0
LTYPE
  5
43
330
5
100
AcDbSymbolTableRecord
100
AcDbLinetypeTableRecord
  2
DASH_CENTER
 70
     0
  3
Dash_Center
 72
    65
 73
     4
 40
14.0
 49
11.0
 74
     0
 49
-1.0
 74
     0
 49
1.0
 74
     0
 49
-1.0
 74
     0
  0
LTYPE
  5
44
330
5
100
AcDbSymbolTableRecord
100
AcDbLinetypeTableRecord
  2
PHANTOM
 70
     0
  3
Phantom
 72
    65
 73
     6
 40
13.0
 49
10.0
 74
     0
 49
-1.0
 74
     0
 49
0.0
 74
     0
 49
-1.0
 74
     0
 49
0.0
 74
     0
 49
-1.0
 74
     0
  0
LTYPE
  5
45
330
5
100
AcDbSymbolTableRecord
100
AcDbLinetypeTableRecord
  2
CENTER_DASH_DASH
 70
     0
  3
Center_Dash_Dash
 72
    65
 73
     6
 40
14.0
 49
9.0
 74
     0
 49
-1.0
 74
     0
 49
1.0
 74
     0
 49
-1.0
 74
     0
 49
1.0
 74
     0
 49
-1.0
 74
     0
  0
ENDTAB
  0
TABLE
  2
LAYER
  5
2
330
0
100
AcDbSymbolTable
 70
     2
  0
LAYER
  5
10
330
2
100
AcDbSymbolTableRecord
100
AcDbLayerTableRecord
  2
0
 70
     0
 62
     7
  6
Continuous
370
    -3
390
F
  0
LAYER
  5
46
330
2
100
AcDbSymbolTableRecord
100
AcDbLayerTableRecord
  2
1
 70
     0
 62
     7
  6
Continuous
370
    -3
390
F
  0
ENDTAB
  0
TABLE
  2
STYLE
  5
3
330
0
100
AcDbSymbolTable
 70
     3
  0
STYLE
  5
11
330
3
100
AcDbSymbolTableRecord
100
AcDbTextStyleTableRecord
  2
Standard
 70
     0
 40
0.0
 41
1.0
 50
0.0
 71
     0
 42
0.2
  3
txt
  4

  0
STYLE
  5
AA
330
3
100
AcDbSymbolTableRecord
100
AcDbTextStyleTableRecord
  2
CONVERTER_11
 70
     0
 40
0.0
 41
0.89
 50
0.0
 71
     0
 42
0.2
  3
MS Mincho.ttf
  4

1001
ACAD
1000
MS Mincho
1071
    32785
  0
STYLE
  5
18E
330
3
100
AcDbSymbolTableRecord
100
AcDbTextStyleTableRecord
  2
CONVERTER_12
 70
     0
 40
0.0
 41
0.9
 50
0.0
 71
     0
 42
0.2
  3
txt.shx
  4

  0
ENDTAB
  0
TABLE
  2
VIEW
  5
6
330
0
100
AcDbSymbolTable
 70
     0
  0
ENDTAB
  0
TABLE
  2
UCS
  5
7
330
0
100
AcDbSymbolTable
 70
     0
  0
ENDTAB
  0
TABLE
  2
APPID
  5
9
330
0
100
AcDbSymbolTable
 70
     1
  0
APPID
  5
12
330
9
100
AcDbSymbolTableRecord
100
AcDbRegAppTableRecord
  2
ACAD
 70
     0
  0
ENDTAB
  0
TABLE
  2
DIMSTYLE
  5
A
330
0
100
AcDbSymbolTable
 70
     7
100
AcDbDimStyleTable
  0
DIMSTYLE
105
27
330
A
100
AcDbSymbolTableRecord
100
AcDbDimStyleTableRecord
  2
Standard
 70
     0
178
     0
340
11
  0
DIMSTYLE
105
1A8
102
{ACAD_REACTORS
330
1A9
102
}
330
A
100
AcDbSymbolTableRecord
100
AcDbDimStyleTableRecord
  2
ME10_DIM_10
 70
     0
 41
5.25
 42
0.0
 44
1.5
 73
     0
 74
     0
 77
     1
 78
     8
140
5.25
147
1.5
172
     1
173
     1
174
     1
175
     1
176
     2
177
     2
271
     2
178
     7
271
     2
340
18E
344
1A5
  0
DIMSTYLE
105
1B3
102
{ACAD_REACTORS
330
1B4
102
}
330
A
100
AcDbSymbolTableRecord
100
AcDbDimStyleTableRecord
  2
ME10_DIM_11
 70
     0
 41
5.25
 42
0.0
 44
1.5
 73
     0
 74
     0
 77
     1
 78
     8
140
5.25
147
1.5
172
     1
173
     1
174
     1
175
     1
176
     2
177
     2
271
     2
178
     7
271
     2
340
18E
  0
DIMSTYLE
105
1BE
102
{ACAD_REACTORS
330
1BF
102
}
330
A
100
AcDbSymbolTableRecord
100
AcDbDimStyleTableRecord
  2
ME10_DIM_12
 70
     0
 41
5.25
 42
0.0
 44
1.5
 73
     0
 74
     0
 77
     1
 78
     8
140
5.25
147
1.5
172
     1
173
     1
174
     1
175
     1
176
     2
177
     2
271
     2
178
     7
271
     2
340
18E
  0
DIMSTYLE
105
1C9
102
{ACAD_REACTORS
330
1CA
102
}
330
A
100
AcDbSymbolTableRecord
100
AcDbDimStyleTableRecord
  2
ME10_DIM_13
 70
     0
 41
5.25
 42
0.0
 44
1.5
 73
     0
 74
     0
 77
     1
 78
     8
140
5.25
147
1.5
172
     1
173
     1
174
     1
175
     1
176
     2
177
     2
271
     2
178
     7
271
     2
340
18E
  0
DIMSTYLE
105
1D4
102
{ACAD_REACTORS
330
1D5
102
}
330
A
100
AcDbSymbolTableRecord
100
AcDbDimStyleTableRecord
  2
ME10_DIM_14
 70
     0
 41
5.25
 42
0.0
 44
1.5
 73
     0
 74
     0
 77
     1
 78
     8
140
5.25
147
1.5
172
     1
173
     1
174
     1
175
     1
176
     2
177
     2
271
     2
178
     7
271
     2
340
18E
  0
DIMSTYLE
105
1E0
102
{ACAD_REACTORS
330
1E1
102
}
330
A
100
AcDbSymbolTableRecord
100
AcDbDimStyleTableRecord
  2
ME10_DIM_15
 70
     0
 41
5.25
 42
0.0
 44
1.5
 73
     0
 74
     0
 77
     1
 78
     8
140
5.25
147
1.5
172
     1
173
     1
174
     1
175
     1
176
     2
177
     2
271
     2
178
     7
271
     2
340
18E
344
1A5
  0
ENDTAB
  0
TABLE
  2
BLOCK_RECORD
  5
1
330
0
100
AcDbSymbolTable
 70
    14
  0
BLOCK_RECORD
  5
1F
330
1
100
AcDbSymbolTableRecord
100
AcDbBlockTableRecord
  2
*Model_Space
340
22
  0
BLOCK_RECORD
  5
1B
330
1
100
AcDbSymbolTableRecord
100
AcDbBlockTableRecord
  2
*Paper_Space
340
1E
  0
BLOCK_RECORD
  5
23
330
1
100
AcDbSymbolTableRecord
100
AcDbBlockTableRecord
  2
*Paper_Space0
340
26
  0
BLOCK_RECORD
  5
47
330
1
100
AcDbSymbolTableRecord
100
AcDbBlockTableRecord
  2
開示A4
340
0
102
{BLKREFS
331
5A
102
}
  0
BLOCK_RECORD
  5
4A
330
1
100
AcDbSymbolTableRecord
100
AcDbBlockTableRecord
  2
Y205-0
340
0
102
{BLKREFS
331
5B
102
}
  0
BLOCK_RECORD
  5
4D
330
1
100
AcDbSymbolTableRecord
100
AcDbBlockTableRecord
  2
75-26
340
0
102
{BLKREFS
331
5C
102
}
  0
BLOCK_RECORD
  5
50
330
1
100
AcDbSymbolTableRecord
100
AcDbBlockTableRecord
  2
Y105-0
340
0
102
{BLKREFS
331
5D
102
}
  0
BLOCK_RECORD
  5
53
330
1
100
AcDbSymbolTableRecord
100
AcDbBlockTableRecord
  2
81-100K
340
0
102
{BLKREFS
331
57
102
}
  0
BLOCK_RECORD
  5
56
330
1
100
AcDbSymbolTableRecord
100
AcDbBlockTableRecord
  2
81-100X-M21
340
0
102
{BLKREFS
331
5E
102
}
  0
BLOCK_RECORD
  5
19C
330
1
100
AcDbSymbolTableRecord
100
AcDbBlockTableRecord
  2
*D7
340
0
  0
BLOCK_RECORD
  5
1A5
330
1
100
AcDbSymbolTableRecord
100
AcDbBlockTableRecord
  2
_NONE
340
0
  0
BLOCK_RECORD
  5
1AA
330
1
100
AcDbSymbolTableRecord
100
AcDbBlockTableRecord
  2
*D9
340
0
  0
BLOCK_RECORD
  5
1B5
330
1
100
AcDbSymbolTableRecord
100
AcDbBlockTableRecord
  2
*D10
340
0
  0
BLOCK_RECORD
  5
1C0
330
1
100
AcDbSymbolTableRecord
100
AcDbBlockTableRecord
  2
*D11
340
0
  0
BLOCK_RECORD
  5
1CB
330
1
100
AcDbSymbolTableRecord
100
AcDbBlockTableRecord
  2
*D12
340
0
  0
BLOCK_RECORD
  5
1D6
330
1
100
AcDbSymbolTableRecord
100
AcDbBlockTableRecord
  2
*D13
340
0
  0
ENDTAB
  0
ENDSEC
  0
SECTION
  2
BLOCKS
  0
BLOCK
  5
20
330
1F
100
AcDbEntity
  8
0
100
AcDbBlockBegin
  2
*Model_Space
 70
     0
 10
0.0
 20
0.0
 30
0.0
  3
*Model_Space
  1

  0
ENDBLK
  5
21
330
1F
100
AcDbEntity
  8
0
100
AcDbBlockEnd
  0
BLOCK
  5
1C
330
1B
100
AcDbEntity
 67
     1
  8
0
100
AcDbBlockBegin
  2
*Paper_Space
 70
     0
 10
0.0
 20
0.0
 30
0.0
  3
*Paper_Space
  1

  0
ENDBLK
  5
1D
330
1B
100
AcDbEntity
 67
     1
  8
0
100
AcDbBlockEnd
  0
BLOCK
  5
24
330
23
100
AcDbEntity
  8
0
100
AcDbBlockBegin
  2
*Paper_Space0
 70
     0
 10
0.0
 20
0.0
 30
0.0
  3
*Paper_Space0
  1

  0
ENDBLK
  5
25
330
23
100
AcDbEntity
  8
0
100
AcDbBlockEnd
  0
BLOCK
  5
48
330
47
100
AcDbEntity
  8
0
100
AcDbBlockBegin
  2
開示A4
 70
     0
 10
0.0
 20
0.0
 30
0.0
  3
開示A4
  1

  0
POINT
  5
5F
330
47
100
AcDbEntity
  8
1
 62
     4
100
AcDbPoint
 10
93.75
 20
17.0
 30
0.0
  0
POINT
  5
60
330
47
100
AcDbEntity
  8
1
 62
     4
100
AcDbPoint
 10
85.25
 20
17.0
 30
0.0
  0
POINT
  5
61
330
47
100
AcDbEntity
  8
1
 62
     4
100
AcDbPoint
 10
106.5
 20
19.00000000000001
 30
0.0
  0
POINT
  5
62
330
47
100
AcDbEntity
  8
1
 62
     4
100
AcDbPoint
 10
106.5
 20
12.5
 30
0.0
  0
POINT
  5
63
330
47
100
AcDbEntity
  8
1
 62
     4
100
AcDbPoint
 10
112.25
 20
12.5
 30
0.0
  0
POINT
  5
64
330
47
100
AcDbEntity
  8
1
 62
     4
100
AcDbPoint
 10
100.75
 20
12.5
 30
0.0
  0
POINT
  5
65
330
47
100
AcDbEntity
  8
1
 62
     4
100
AcDbPoint
 10
123.5
 20
19.00000000000001
 30
0.0
  0
POINT
  5
66
330
47
100
AcDbEntity
  8
1
 62
     4
100
AcDbPoint
 10
123.5
 20
12.5
 30
0.0
  0
POINT
  5
67
330
47
100
AcDbEntity
  8
1
 62
     4
100
AcDbPoint
 10
129.25
 20
12.5
 30
0.0
  0
POINT
  5
68
330
47
100
AcDbEntity
  8
1
 62
     4
100
AcDbPoint
 10
117.75
 20
12.5
 30
0.0
  0
POINT
  5
69
330
47
100
AcDbEntity
  8
1
 62
     4
100
AcDbPoint
 10
140.5
 20
19.00000000000001
 30
0.0
  0
POINT
  5
6A
330
47
100
AcDbEntity
  8
1
 62
     4
100
AcDbPoint
 10
140.5
 20
12.5
 30
0.0
  0
POINT
  5
6B
330
47
100
AcDbEntity
  8
1
 62
     4
100
AcDbPoint
 10
146.25
 20
12.5
 30
0.0
  0
POINT
  5
6C
330
47
100
AcDbEntity
  8
1
 62
     4
100
AcDbPoint
 10
134.75
 20
12.5
 30
0.0
  0
POINT
  5
6D
330
47
100
AcDbEntity
  8
1
 62
     4
100
AcDbPoint
 10
151.75
 20
12.5
 30
0.0
  0
POINT
  5
6E
330
47
100
AcDbEntity
  8
1
 62
     4
100
AcDbPoint
 10
163.25
 20
12.5
 30
0.0
  0
POINT
  5
6F
330
47
100
AcDbEntity
  8
1
 62
     4
100
AcDbPoint
 10
157.5
 20
12.5
 30
0.0
  0
POINT
  5
70
330
47
100
AcDbEntity
  8
1
 62
     4
100
AcDbPoint
 10
57.0
 20
14.25
 30
0.0
  0
POINT
  5
71
330
47
100
AcDbEntity
  8
1
 62
     4
100
AcDbPoint
 10
57.0
 20
22.75000000000001
 30
0.0
  0
POINT
  5
72
330
47
100
AcDbEntity
  8
1
 62
     4
100
AcDbPoint
 10
47.5
 20
282.0000000000003
 30
0.0
  0
POINT
  5
73
330
47
100
AcDbEntity
  8
1
 62
     4
100
AcDbPoint
 10
157.5
 20
19.00000000000001
 30
0.0
  0
POINT
  5
74
330
47
100
AcDbEntity
  8
1
 62
     4
100
AcDbPoint
 10
57.0
 20
16.25
 30
0.0
  0
POINT
  5
75
330
47
100
AcDbEntity
  8
1
 62
     4
100
AcDbPoint
 10
57.0
 20
24.75000000000001
 30
0.0
  0
POINT
  5
76
330
47
100
AcDbEntity
  8
1
 62
     4
100
AcDbPoint
 10
57.0
 20
20.75000000000001
 30
0.0
  0
POINT
  5
77
330
47
100
AcDbEntity
  8
1
 62
     4
100
AcDbPoint
 10
57.0
 20
12.25
 30
0.0
  0
POINT
  5
78
330
47
100
AcDbEntity
  8
1
 62
     4
100
AcDbPoint
 10
34.0
 20
34.00000000000001
 30
0.0
  0
LINE
  5
79
330
47
100
AcDbEntity
  8
1
  6
Continuous
 62
     7
100
AcDbLine
 10
105.0
 20
10.0
 30
0.0
 11
200.0
 21
10.0
 31
0.0
  0
LINE
  5
7A
330
47
100
AcDbEntity
  8
1
  6
Continuous
 62
     2
100
AcDbLine
 10
105.0
 20
10.0
 30
0.0
 11
105.0
 21
5.0
 31
0.0
  0
LINE
  5
7B
330
47
100
AcDbEntity
  8
1
  6
Continuous
 62
     7
100
AcDbLine
 10
200.0
 20
148.5
 30
0.0
 11
200.0
 21
287.0000000000003
 31
0.0
  0
LINE
  5
7C
330
47
100
AcDbEntity
  8
1
  6
Continuous
 62
     2
100
AcDbLine
 10
200.0
 20
148.5
 30
0.0
 11
205.0
 21
148.5
 31
0.0
  0
LINE
  5
7D
330
47
100
AcDbEntity
  8
1
  6
Continuous
 62
     7
100
AcDbLine
 10
25.0
 20
148.5
 30
0.0
 11
25.0
 21
287.0000000000003
 31
0.0
  0
LINE
  5
7E
330
47
100
AcDbEntity
  8
1
  6
Continuous
 62
     2
100
AcDbLine
 10
25.0
 20
148.5
 30
0.0
 11
20.0
 21
148.5
 31
0.0
  0
LINE
  5
7F
330
47
100
AcDbEntity
  8
1
  6
Continuous
 62
     7
100
AcDbLine
 10
105.0
 20
287.0000000000003
 30
0.0
 11
25.0
 21
287.0000000000003
 31
0.0
  0
LINE
  5
80
330
47
100
AcDbEntity
  8
1
  6
Continuous
 62
     2
100
AcDbLine
 10
105.0
 20
287.0000000000003
 30
0.0
 11
105.0
 21
292.0000000000003
 31
0.0
  0
LINE
  5
81
330
47
100
AcDbEntity
  8
1
  6
Continuous
 62
     2
100
AcDbLine
 10
166.0
 20
20.00000000000001
 30
0.0
 11
200.0
 21
20.00000000000001
 31
0.0
  0
LINE
  5
82
330
47
100
AcDbEntity
  8
1
  6
Continuous
 62
     2
100
AcDbLine
 10
98.0
 20
27.00000000000001
 30
0.0
 11
98.0
 21
9.99999999999999
 31
0.0
  0
LINE
  5
83
330
47
100
AcDbEntity
  8
1
  6
Continuous
 62
     2
100
AcDbLine
 10
115.0
 20
27.00000000000001
 30
0.0
 11
115.0
 21
9.99999999999999
 31
0.0
  0
LINE
  5
84
330
47
100
AcDbEntity
  8
1
  6
Continuous
 62
     2
100
AcDbLine
 10
149.0
 20
27.00000000000001
 30
0.0
 11
149.0
 21
10.0
 31
0.0
  0
LINE
  5
85
330
47
100
AcDbEntity
  8
1
  6
Continuous
 62
     2
100
AcDbLine
 10
132.0
 20
27.00000000000001
 30
0.0
 11
132.0
 21
9.99999999999999
 31
0.0
  0
LINE
  5
86
330
47
100
AcDbEntity
  8
1
  6
Continuous
 62
     2
100
AcDbLine
 10
166.0
 20
27.00000000000001
 30
0.0
 11
166.0
 21
10.0
 31
0.0
  0
LINE
  5
87
330
47
100
AcDbEntity
  8
1
  6
Continuous
 62
     2
100
AcDbLine
 10
55.0
 20
277.0000000000003
 30
0.0
 11
25.0
 21
277.0000000000003
 31
0.0
  0
LINE
  5
88
330
47
100
AcDbEntity
  8
1
  6
Continuous
 62
     7
100
AcDbLine
 10
25.0
 20
10.0
 30
0.0
 11
25.0
 21
148.5
 31
0.0
  0
LINE
  5
89
330
47
100
AcDbEntity
  8
1
  6
Continuous
 62
     2
100
AcDbLine
 10
40.0
 20
287.0000000000003
 30
0.0
 11
40.0
 21
277.0000000000003
 31
0.0
  0
LINE
  5
8A
330
47
100
AcDbEntity
  8
1
  6
Continuous
 62
     2
100
AcDbLine
 10
55.0
 20
287.0000000000003
 30
0.0
 11
55.0
 21
277.0000000000003
 31
0.0
  0
LINE
  5
8B
330
47
100
AcDbEntity
  8
1
  6
Continuous
 62
     2
100
AcDbLine
 10
33.0
 20
41.00000000000001
 30
0.0
 11
33.0
 21
27.0
 31
0.0
  0
LINE
  5
8C
330
47
100
AcDbEntity
  8
1
  6
Continuous
 62
     7
100
AcDbLine
 10
200.0
 20
27.00000000000001
 30
0.0
 11
25.0
 21
27.00000000000001
 31
0.0
  0
LINE
  5
8D
330
47
100
AcDbEntity
  8
1
  6
Continuous
 62
     7
100
AcDbLine
 10
25.0
 20
41.0
 30
0.0
 11
200.0
 21
41.0
 31
0.0
  0
LINE
  5
8E
330
47
100
AcDbEntity
  8
1
  6
PHANTOM
 62
     4
100
AcDbLine
 10
0.0
 20
0.0
 30
0.0
 11
210.0
 21
0.0
 31
0.0
  0
LINE
  5
8F
330
47
100
AcDbEntity
  8
1
  6
PHANTOM
 62
     4
100
AcDbLine
 10
210.0
 20
0.0
 30
0.0
 11
210.0
 21
297.0
 31
0.0
  0
LINE
  5
90
330
47
100
AcDbEntity
  8
1
  6
PHANTOM
 62
     4
100
AcDbLine
 10
210.0
 20
297.0
 30
0.0
 11
0.0
 21
297.0
 31
0.0
  0
LINE
  5
91
330
47
100
AcDbEntity
  8
1
  6
PHANTOM
 62
     4
100
AcDbLine
 10
0.0
 20
297.0
 30
0.0
 11
0.0
 21
0.0
 31
0.0
  0
LINE
  5
92
330
47
100
AcDbEntity
  8
1
  6
Continuous
 62
     7
100
AcDbLine
 10
25.0
 20
10.0
 30
0.0
 11
105.0
 21
10.0
 31
0.0
  0
LINE
  5
93
330
47
100
AcDbEntity
  8
1
  6
Continuous
 62
     7
100
AcDbLine
 10
200.0
 20
10.0
 30
0.0
 11
200.0
 21
148.5
 31
0.0
  0
LINE
  5
94
330
47
100
AcDbEntity
  8
1
  6
Continuous
 62
     7
100
AcDbLine
 10
200.0
 20
287.0000000000003
 30
0.0
 11
105.0
 21
287.0000000000003
 31
0.0
  0
LINE
  5
95
330
47
100
AcDbEntity
  8
1
  6
Continuous
 62
     2
100
AcDbLine
 10
25.0
 20
18.50000000000001
 30
0.0
 11
81.0
 21
18.50000000000001
 31
0.0
  0
LINE
  5
96
330
47
100
AcDbEntity
  8
1
  6
Continuous
 62
     2
100
AcDbLine
 10
33.0
 20
27.0
 30
0.0
 11
33.0
 21
10.0
 31
0.0
  0
LINE
  5
97
330
47
100
AcDbEntity
  8
1
  6
Continuous
 62
     7
100
AcDbLine
 10
191.0
 20
24.70000000000001
 30
0.0
 11
191.0
 21
22.30000000000001
 31
0.0
  0
LINE
  5
98
330
47
100
AcDbEntity
  8
1
  6
Continuous
 62
     7
100
AcDbLine
 10
191.0
 20
24.70000000000001
 30
0.0
 11
196.0
 21
25.50000000000001
 31
0.0
  0
LINE
  5
99
330
47
100
AcDbEntity
  8
1
  6
Continuous
 62
     7
100
AcDbLine
 10
196.0
 20
25.50000000000001
 30
0.0
 11
196.0
 21
21.50000000000001
 31
0.0
  0
LINE
  5
9A
330
47
100
AcDbEntity
  8
1
  6
Continuous
 62
     7
100
AcDbLine
 10
196.0
 20
21.50000000000001
 30
0.0
 11
191.0
 21
22.30000000000001
 31
0.0
  0
LINE
  5
9B
330
47
100
AcDbEntity
  8
1
  6
DOT_CENTER
 62
     2
100
AcDbLine
 10
184.0
 20
23.50000000000001
 30
0.0
 11
197.0
 21
23.50000000000001
 31
0.0
  0
LINE
  5
9C
330
47
100
AcDbEntity
  8
1
  6
DOT_CENTER
 62
     2
100
AcDbLine
 10
187.0
 20
26.50000000000001
 30
0.0
 11
187.0
 21
20.50000000000001
 31
0.0
  0
LINE
  5
9D
330
47
100
AcDbEntity
  8
1
  6
Continuous
 62
     2
100
AcDbLine
 10
81.0
 20
27.00000000000001
 30
0.0
 11
81.0
 21
10.0
 31
0.0
  0
CIRCLE
  5
9E
330
47
100
AcDbEntity
  8
1
  6
Continuous
 62
     7
100
AcDbCircle
 10
103.5
 20
12.5
 30
0.0
 40
0.2999999999999972
  0
CIRCLE
  5
9F
330
47
100
AcDbEntity
  8
1
  6
Continuous
 62
     7
100
AcDbCircle
 10
109.5
 20
12.5
 30
0.0
 40
0.2999999999999972
  0
CIRCLE
  5
A0
330
47
100
AcDbEntity
  8
1
  6
Continuous
 62
     7
100
AcDbCircle
 10
120.5
 20
12.5
 30
0.0
 40
0.2999999999999972
  0
CIRCLE
  5
A1
330
47
100
AcDbEntity
  8
1
  6
Continuous
 62
     7
100
AcDbCircle
 10
126.5
 20
12.5
 30
0.0
 40
0.2999999999999972
  0
CIRCLE
  5
A2
330
47
100
AcDbEntity
  8
1
  6
Continuous
 62
     7
100
AcDbCircle
 10
137.5
 20
12.5
 30
0.0
 40
0.3000000000000114
  0
CIRCLE
  5
A3
330
47
100
AcDbEntity
  8
1
  6
Continuous
 62
     7
100
AcDbCircle
 10
143.5
 20
12.5
 30
0.0
 40
0.3000000000000114
  0
CIRCLE
  5
A4
330
47
100
AcDbEntity
  8
1
  6
Continuous
 62
     7
100
AcDbCircle
 10
160.5
 20
12.5
 30
0.0
 40
0.3000000000000114
  0
CIRCLE
  5
A5
330
47
100
AcDbEntity
  8
1
  6
Continuous
 62
     7
100
AcDbCircle
 10
154.5
 20
12.5
 30
0.0
 40
0.3000000000000114
  0
CIRCLE
  5
A6
330
47
100
AcDbEntity
  8
1
  6
Continuous
 62
     7
100
AcDbCircle
 10
187.0
 20
23.50000000000001
 30
0.0
 40
1.200000000000102
  0
CIRCLE
  5
A7
330
47
100
AcDbEntity
  8
1
  6
Continuous
 62
     7
100
AcDbCircle
 10
187.0
 20
23.50000000000001
 30
0.0
 40
2.0
  0
CIRCLE
  5
A8
330
47
100
AcDbEntity
  8
1
  6
DOT_CENTER
 62
     7
100
AcDbCircle
 10
89.5
 20
16.0
 30
0.0
 40
0.1000000000000227
  0
CIRCLE
  5
A9
330
47
100
AcDbEntity
  8
1
  6
DOT_CENTER
 62
     7
100
AcDbCircle
 10
89.5
 20
18.0
 30
0.0
 40
0.1000000000000227
  0
MTEXT
  5
AB
330
47
100
AcDbEntity
  8
1
 62
     7
100
AcDbMText
 10
188.5
 20
15.0
 30
0.0
 40
3.0
 41
0.0
 71
     5
 72
     1
  1
三栄水栓製作所
  7
CONVERTER_11
 73
     1
 44
1.0
  0
MTEXT
  5
AC
330
47
100
AcDbEntity
  8
1
 62
     7
100
AcDbMText
 10
171.5
 20
15.0
 30
0.0
 40
2.5
 41
0.0
 71
     5
 72
     1
  1
株式会社
  7
CONVERTER_11
 73
     1
 44
1.0
  0
MTEXT
  5
AD
330
47
100
AcDbEntity
  8
1
 62
     2
100
AcDbMText
 10
32.5
 20
282.0000000000003
 30
0.0
 40
5.0
 41
0.0
 71
     5
 72
     1
  1
図番
  7
CONVERTER_11
 73
     1
 44
0.45454545454545
  0
MTEXT
  5
AE
330
47
100
AcDbEntity
  8
1
 62
     2
100
AcDbMText
 10
29.0
 20
34.00000000000001
 30
0.0
 40
3.5
 41
0.0
 71
     5
 72
     1
  1
備考
  7
CONVERTER_11
 73
     1
 44
0.45454545454545
  0
MTEXT
  5
AF
330
47
100
AcDbEntity
  8
1
 62
     2
100
AcDbMText
 10
29.0
 20
22.75
 30
0.0
 40
3.5
 41
0.0
 71
     5
 72
     1
  1
品名
  7
CONVERTER_11
 73
     1
 44
0.72727272727273
  0
MTEXT
  5
B0
330
47
100
AcDbEntity
  8
1
 62
     2
100
AcDbMText
 10
29.0
 20
14.25
 30
0.0
 40
3.5
 41
0.0
 71
     5
 72
     1
  1
品番
  7
CONVERTER_11
 73
     1
 44
0.72727272727273
  0
MTEXT
  5
B1
330
47
100
AcDbEntity
  8
1
 62
     2
100
AcDbMText
 10
101.5
 20
25.00000000000001
 30
0.0
 40
3.0
 41
0.0
 71
     5
 72
     1
  1
承認
  7
CONVERTER_11
 73
     1
 44
0.59090909090909
  0
MTEXT
  5
B2
330
47
100
AcDbEntity
  8
1
 62
     2
100
AcDbMText
 10
175.0
 20
23.50000000000001
 30
0.0
 40
3.5
 41
0.0
 71
     5
 72
     1
  1
第三角法
  7
CONVERTER_11
 73
     1
 44
0.54545454545455
  0
MTEXT
  5
B3
330
47
100
AcDbEntity
  8
1
 62
     2
100
AcDbMText
 10
118.5
 20
25.00000000000001
 30
0.0
 40
3.0
 41
0.0
 71
     5
 72
     1
  1
検図
  7
CONVERTER_11
 73
     1
 44
0.59090909090909
  0
MTEXT
  5
B4
330
47
100
AcDbEntity
  8
1
 62
     2
100
AcDbMText
 10
152.5
 20
25.00000000000001
 30
0.0
 40
3.0
 41
0.0
 71
     5
 72
     1
  1
設計
  7
CONVERTER_11
 73
     1
 44
0.59090909090909
  0
MTEXT
  5
B5
330
47
100
AcDbEntity
  8
1
 62
     2
100
AcDbMText
 10
135.5
 20
25.00000000000001
 30
0.0
 40
3.0
 41
0.0
 71
     5
 72
     1
  1
製図
  7
CONVERTER_11
 73
     1
 44
0.59090909090909
  0
MTEXT
  5
B6
330
47
100
AcDbEntity
  8
1
 62
     2
100
AcDbMText
 10
89.5
 20
24.00000000000001
 30
0.0
 40
3.5
 41
0.0
 71
     5
 72
     1
  1
尺度
  7
CONVERTER_11
 73
     1
 44
0.54545454545455
  0
MTEXT
  5
B7
330
47
100
AcDbEntity
  8
1
 62
   250
100
AcDbMText
 10
25.0
 20
5.0
 30
0.0
 40
3.5
 41
0.0
 71
     4
 72
     1
  1
備考欄の文字列 原点位置=4
  7
CONVERTER_11
 73
     1
 44
0.54545454545455
  0
ENDBLK
  5
49
330
47
100
AcDbEntity
  8
0
100
AcDbBlockEnd
  0
BLOCK
  5
4B
330
4A
100
AcDbEntity
  8
0
100
AcDbBlockBegin
  2
Y205-0
 70
     0
 10
74.9896431314989
 20
40.37491258156891
 30
0.0
  3
Y205-0
  1

  0
LINE
  5
B8
330
4A
100
AcDbEntity
  8
1
  6
Continuous
 62
     7
100
AcDbLine
 10
143.6431923426086
 20
126.0507647476369
 30
0.0
 11
144.4595815785764
 21
132.6997215054279
 31
0.0
  0
LINE
  5
B9
330
4A
100
AcDbEntity
  8
1
  6
Continuous
 62
     7
100
AcDbLine
 10
67.82626755844927
 20
355.4638259968029
 30
0.0
 11
80.32626755844929
 21
355.4638259968029
 31
0.0
  0
LINE
  5
BA
330
4A
100
AcDbEntity
  8
1
  6
Continuous
 62
     7
100
AcDbLine
 10
67.82626755844927
 20
355.4638259968029
 30
0.0
 11
67.82626755844927
 21
353.4567950733111
 31
0.0
  0
LINE
  5
BB
330
4A
100
AcDbEntity
  8
1
  6
Continuous
 62
     7
100
AcDbLine
 10
68.28703801058539
 20
352.9583364064446
 30
0.0
 11
78.0746751301257
 21
352.962232934396
 31
0.0
  0
LINE
  5
BC
330
4A
100
AcDbEntity
  8
1
  6
Continuous
 62
     7
100
AcDbLine
 10
81.32626755844929
 20
357.1958768043718
 30
0.0
 11
100.3262675584493
 21
357.1958768043718
 31
0.0
  0
LINE
  5
BD
330
4A
100
AcDbEntity
  8
1
  6
Continuous
 62
     7
100
AcDbLine
 10
81.32626755844929
 20
368.4638259968029
 30
0.0
 11
100.3262675584493
 21
368.4638259968029
 31
0.0
  0
LINE
  5
BE
330
4A
100
AcDbEntity
  8
1
  6
Continuous
 62
     7
100
AcDbLine
 10
81.32626755844929
 20
369.4638259968029
 30
0.0
 11
100.3262675584493
 21
369.4638259968029
 31
0.0
  0
LINE
  5
BF
330
4A
100
AcDbEntity
  8
1
  6
Continuous
 62
     7
100
AcDbLine
 10
103.5764126072561
 20
352.9636809427362
 30
0.0
 11
113.3654971063132
 21
352.9633259689793
 31
0.0
  0
LINE
  5
C0
330
4A
100
AcDbEntity
  8
1
  6
Continuous
 62
     7
100
AcDbLine
 10
113.8262675584493
 20
353.461784635846
 30
0.0
 11
113.8262675584493
 21
355.4638259968029
 31
0.0
  0
LINE
  5
C1
330
4A
100
AcDbEntity
  8
1
  6
Continuous
 62
     7
100
AcDbLine
 10
101.3262675584493
 20
355.4638259968029
 30
0.0
 11
113.8262675584493
 21
355.4638259968029
 31
0.0
  0
LINE
  5
C2
330
4A
100
AcDbEntity
  8
1
  6
Continuous
 62
     7
100
AcDbLine
 10
101.3262675584493
 20
357.1958768043718
 30
0.0
 11
101.3262675584493
 21
355.4638259968029
 31
0.0
  0
LINE
  5
C3
330
4A
100
AcDbEntity
  8
1
  6
Continuous
 62
     2
100
AcDbLine
 10
100.3262675584493
 20
357.1958768043718
 30
0.0
 11
101.3262675584493
 21
355.4638259968029
 31
0.0
  0
LINE
  5
C4
330
4A
100
AcDbEntity
  8
1
  6
Continuous
 62
     2
100
AcDbLine
 10
100.3262675584493
 20
368.4638259968029
 30
0.0
 11
100.3262675584493
 21
357.1958768043718
 31
0.0
  0
LINE
  5
C5
330
4A
100
AcDbEntity
  8
1
  6
Continuous
 62
     7
100
AcDbLine
 10
101.3262675584493
 20
368.4638259968029
 30
0.0
 11
100.3262675584493
 21
369.4638259968029
 31
0.0
  0
LINE
  5
C6
330
4A
100
AcDbEntity
  8
1
  6
Continuous
 62
     7
100
AcDbLine
 10
101.3262675584493
 20
357.1958768043718
 30
0.0
 11
100.3262675584493
 21
357.1958768043718
 31
0.0
  0
LINE
  5
C7
330
4A
100
AcDbEntity
  8
1
  6
Continuous
 62
     7
100
AcDbLine
 10
101.3262675584493
 20
368.4638259968029
 30
0.0
 11
101.3262675584493
 21
357.1958768043718
 31
0.0
  0
LINE
  5
C8
330
4A
100
AcDbEntity
  8
1
  6
Continuous
 62
     7
100
AcDbLine
 10
100.3262675584493
 20
368.4638259968029
 30
0.0
 11
101.3262675584493
 21
368.4638259968029
 31
0.0
  0
LINE
  5
C9
330
4A
100
AcDbEntity
  8
1
  6
Continuous
 62
     2
100
AcDbLine
 10
100.3262675584493
 20
369.4638259968029
 30
0.0
 11
100.3262675584493
 21
368.4638259968029
 31
0.0
  0
LINE
  5
CA
330
4A
100
AcDbEntity
  8
1
  6
Continuous
 62
     2
100
AcDbLine
 10
81.32626755844929
 20
368.4638259968029
 30
0.0
 11
81.32626755844929
 21
369.4638259968029
 31
0.0
  0
LINE
  5
CB
330
4A
100
AcDbEntity
  8
1
  6
Continuous
 62
     7
100
AcDbLine
 10
80.32626755844929
 20
368.4638259968029
 30
0.0
 11
81.32626755844929
 21
368.4638259968029
 31
0.0
  0
LINE
  5
CC
330
4A
100
AcDbEntity
  8
1
  6
Continuous
 62
     7
100
AcDbLine
 10
80.32626755844929
 20
357.1958768043718
 30
0.0
 11
80.32626755844929
 21
368.4638259968029
 31
0.0
  0
LINE
  5
CD
330
4A
100
AcDbEntity
  8
1
  6
Continuous
 62
     7
100
AcDbLine
 10
81.32626755844929
 20
357.1958768043718
 30
0.0
 11
80.32626755844929
 21
357.1958768043718
 31
0.0
  0
LINE
  5
CE
330
4A
100
AcDbEntity
  8
1
  6
Continuous
 62
     7
100
AcDbLine
 10
81.32626755844929
 20
369.4638259968029
 30
0.0
 11
80.32626755844929
 21
368.4638259968029
 31
0.0
  0
LINE
  5
CF
330
4A
100
AcDbEntity
  8
1
  6
Continuous
 62
     2
100
AcDbLine
 10
81.32626755844929
 20
357.1958768043718
 30
0.0
 11
81.32626755844929
 21
368.4638259968029
 31
0.0
  0
LINE
  5
D0
330
4A
100
AcDbEntity
  8
1
  6
Continuous
 62
     2
100
AcDbLine
 10
80.32626755844929
 20
355.4638259968029
 30
0.0
 11
81.32626755844929
 21
357.1958768043718
 31
0.0
  0
LINE
  5
D1
330
4A
100
AcDbEntity
  8
1
  6
Continuous
 62
     7
100
AcDbLine
 10
80.32626755844929
 20
355.4638259968029
 30
0.0
 11
80.32626755844929
 21
357.1958768043718
 31
0.0
  0
LINE
  5
D2
330
4A
100
AcDbEntity
  8
1
  6
Continuous
 62
     7
100
AcDbLine
 10
82.07626755844929
 20
348.9622332513745
 30
0.0
 11
82.0762675584494
 21
303.8346589739501
 31
0.0
  0
LINE
  5
D3
330
4A
100
AcDbEntity
  8
1
  6
Continuous
 62
     7
100
AcDbLine
 10
99.57626755844929
 20
348.9636809453662
 30
0.0
 11
99.57626755844929
 21
303.8346589739501
 31
0.0
  0
LINE
  5
D4
330
4A
100
AcDbEntity
  8
1
  6
Continuous
 62
     7
100
AcDbLine
 10
80.32626755844929
 20
355.4638259968029
 30
0.0
 11
101.3262675584493
 21
355.4638259968029
 31
0.0
  0
LINE
  5
D5
330
4A
100
AcDbEntity
  8
1
  6
Continuous
 62
     7
100
AcDbLine
 10
103.5764126072561
 20
352.9636809427362
 30
0.0
 11
78.0746751301257
 21
352.9636809427362
 31
0.0
  0
LINE
  5
D6
330
4A
100
AcDbEntity
  8
1
  6
Continuous
 62
     7
100
AcDbLine
 10
82.57626755844929
 20
244.4638259968029
 30
0.0
 11
82.57626755844929
 21
255.8643026965327
 31
0.0
  0
LINE
  5
D7
330
4A
100
AcDbEntity
  8
1
  6
Continuous
 62
     7
100
AcDbLine
 10
99.07626755844929
 20
244.4638259968029
 30
0.0
 11
99.07626755844929
 21
255.8643026965327
 31
0.0
  0
LINE
  5
D8
330
4A
100
AcDbEntity
  8
1
  6
Continuous
 62
     7
100
AcDbLine
 10
275.6739393313006
 20
147.1161542239518
 30
0.0
 11
275.6739393313006
 21
134.1161542239518
 31
0.0
  0
LINE
  5
D9
330
4A
100
AcDbEntity
  8
1
  6
Continuous
 62
     7
100
AcDbLine
 10
164.4713586621919
 20
149.1621405794545
 30
0.0
 11
159.1997451101152
 21
148.2326128783549
 31
0.0
  0
LINE
  5
DA
330
4A
100
AcDbEntity
  8
1
  6
Continuous
 62
     7
100
AcDbLine
 10
275.6739393313006
 20
134.1161542239518
 30
0.0
 11
275.6739393313006
 21
131.1161542239518
 31
0.0
  0
LINE
  5
DB
330
4A
100
AcDbEntity
  8
1
  6
Continuous
 62
     7
100
AcDbLine
 10
259.1737942772339
 20
127.866009175145
 30
0.0
 11
259.173439303477
 21
118.0769246760879
 31
0.0
  0
LINE
  5
DC
330
4A
100
AcDbEntity
  8
1
  6
Continuous
 62
     7
100
AcDbLine
 10
255.173794279864
 20
131.8661542239518
 30
0.0
 11
210.0447723084477
 21
131.8661542239518
 31
0.0
  0
LINE
  5
DD
330
4A
100
AcDbEntity
  8
1
  6
Continuous
 62
     7
100
AcDbLine
 10
259.6718979703437
 20
117.6161542239518
 30
0.0
 11
261.6739393313006
 21
117.6161542239518
 31
0.0
  0
LINE
  5
DE
330
4A
100
AcDbEntity
  8
1
  6
Continuous
 62
     7
100
AcDbLine
 10
261.6739393313006
 20
130.1161542239518
 30
0.0
 11
261.6739393313006
 21
117.6161542239518
 31
0.0
  0
LINE
  5
DF
330
4A
100
AcDbEntity
  8
1
  6
Continuous
 62
     7
100
AcDbLine
 10
263.4059901388695
 20
130.1161542239518
 30
0.0
 11
261.6739393313006
 21
130.1161542239518
 31
0.0
  0
LINE
  5
E0
330
4A
100
AcDbEntity
  8
1
  6
Continuous
 62
     2
100
AcDbLine
 10
263.4059901388695
 20
131.1161542239518
 30
0.0
 11
261.6739393313006
 21
130.1161542239518
 31
0.0
  0
LINE
  5
E1
330
4A
100
AcDbEntity
  8
1
  6
Continuous
 62
     2
100
AcDbLine
 10
274.6739393313006
 20
131.1161542239518
 30
0.0
 11
263.4059901388695
 21
131.1161542239518
 31
0.0
  0
LINE
  5
E2
330
4A
100
AcDbEntity
  8
1
  6
Continuous
 62
     7
100
AcDbLine
 10
274.6739393313006
 20
130.1161542239518
 30
0.0
 11
275.6739393313006
 21
131.1161542239518
 31
0.0
  0
LINE
  5
E3
330
4A
100
AcDbEntity
  8
1
  6
Continuous
 62
     7
100
AcDbLine
 10
263.4059901388695
 20
130.1161542239518
 30
0.0
 11
263.4059901388695
 21
131.1161542239518
 31
0.0
  0
LINE
  5
E4
330
4A
100
AcDbEntity
  8
1
  6
Continuous
 62
     7
100
AcDbLine
 10
274.6739393313006
 20
130.1161542239518
 30
0.0
 11
263.4059901388695
 21
130.1161542239518
 31
0.0
  0
LINE
  5
E5
330
4A
100
AcDbEntity
  8
1
  6
Continuous
 62
     7
100
AcDbLine
 10
274.6739393313006
 20
131.1161542239518
 30
0.0
 11
274.6739393313006
 21
130.1161542239518
 31
0.0
  0
LINE
  5
E6
330
4A
100
AcDbEntity
  8
1
  6
Continuous
 62
     2
100
AcDbLine
 10
275.6739393313006
 20
131.1161542239518
 30
0.0
 11
274.6739393313006
 21
131.1161542239518
 31
0.0
  0
LINE
  5
E7
330
4A
100
AcDbEntity
  8
1
  6
Continuous
 62
     2
100
AcDbLine
 10
274.6739393313006
 20
150.1161542239518
 30
0.0
 11
275.6739393313006
 21
150.1161542239518
 31
0.0
  0
LINE
  5
E8
330
4A
100
AcDbEntity
  8
1
  6
Continuous
 62
     7
100
AcDbLine
 10
274.6739393313006
 20
151.1161542239518
 30
0.0
 11
274.6739393313006
 21
150.1161542239518
 31
0.0
  0
LINE
  5
E9
330
4A
100
AcDbEntity
  8
1
  6
Continuous
 62
     7
100
AcDbLine
 10
263.4059901388695
 20
151.1161542239518
 30
0.0
 11
274.6739393313006
 21
151.1161542239518
 31
0.0
  0
LINE
  5
EA
330
4A
100
AcDbEntity
  8
1
  6
Continuous
 62
     7
100
AcDbLine
 10
263.4059901388695
 20
150.1161542239518
 30
0.0
 11
263.4059901388695
 21
151.1161542239518
 31
0.0
  0
LINE
  5
EB
330
4A
100
AcDbEntity
  8
1
  6
Continuous
 62
     7
100
AcDbLine
 10
275.6739393313006
 20
150.1161542239518
 30
0.0
 11
274.6739393313006
 21
151.1161542239518
 31
0.0
  0
LINE
  5
EC
330
4A
100
AcDbEntity
  8
1
  6
Continuous
 62
     7
100
AcDbLine
 10
275.6739393313006
 20
150.1161542239518
 30
0.0
 11
275.6739393313006
 21
147.1161542239518
 31
0.0
  0
LINE
  5
ED
330
4A
100
AcDbEntity
  8
1
  6
Continuous
 62
     2
100
AcDbLine
 10
263.4059901388695
 20
150.1161542239518
 30
0.0
 11
274.6739393313006
 21
150.1161542239518
 31
0.0
  0
LINE
  5
EE
330
4A
100
AcDbEntity
  8
1
  6
Continuous
 62
     2
100
AcDbLine
 10
261.6739393313006
 20
151.1161542239518
 30
0.0
 11
263.4059901388695
 21
150.1161542239518
 31
0.0
  0
LINE
  5
EF
330
4A
100
AcDbEntity
  8
1
  6
Continuous
 62
     7
100
AcDbLine
 10
261.6739393313006
 20
151.1161542239518
 30
0.0
 11
263.4059901388695
 21
151.1161542239518
 31
0.0
  0
LINE
  5
F0
330
4A
100
AcDbEntity
  8
1
  6
Continuous
 62
     7
100
AcDbLine
 10
261.6739393313006
 20
163.6161542239518
 30
0.0
 11
261.6739393313006
 21
151.1161542239518
 31
0.0
  0
LINE
  5
F1
330
4A
100
AcDbEntity
  8
1
  6
Continuous
 62
     7
100
AcDbLine
 10
261.6739393313006
 20
163.6161542239518
 30
0.0
 11
259.6669084078088
 21
163.6161542239518
 31
0.0
  0
LINE
  5
F2
330
4A
100
AcDbEntity
  8
1
  6
Continuous
 62
     7
100
AcDbLine
 10
259.1684497409423
 20
163.1553837718157
 30
0.0
 11
259.1723462688938
 21
153.3677466522755
 31
0.0
  0
LINE
  5
F3
330
4A
100
AcDbEntity
  8
1
  6
Continuous
 62
     7
100
AcDbLine
 10
142.4854335802597
 20
116.6215763070443
 30
0.0
 11
143.6431923426086
 21
126.0507647476369
 31
0.0
  0
LINE
  5
F4
330
4A
100
AcDbEntity
  8
1
  6
Continuous
 62
     7
100
AcDbLine
 10
158.8624450823415
 20
114.6107321408593
 30
0.0
 11
160.2550469524375
 21
125.9525642071674
 31
0.0
  0
LINE
  5
F5
330
4A
100
AcDbEntity
  8
1
  6
Continuous
 62
     7
100
AcDbLine
 10
142.4854335802597
 20
116.6215763070443
 30
0.0
 11
150.6739393313006
 21
115.6161542239518
 31
0.0
  0
LINE
  5
F6
330
4A
100
AcDbEntity
  8
1
  6
Continuous
 62
     7
100
AcDbLine
 10
150.6739393313006
 20
115.6161542239518
 30
0.0
 11
158.8624450823415
 21
114.6107321408593
 31
0.0
  0
LINE
  5
F7
330
4A
100
AcDbEntity
  8
1
  6
Continuous
 62
     7
100
AcDbLine
 10
255.1723465858723
 20
149.3661542239518
 30
0.0
 11
208.7779749975833
 21
149.3661542239518
 31
0.0
  0
LINE
  5
F8
330
4A
100
AcDbEntity
  8
1
  6
Continuous
 62
     7
100
AcDbLine
 10
198.1739393313007
 20
162.6161542239518
 30
0.0
 11
198.1739393313007
 21
158.2226094376151
 31
0.0
  0
LINE
  5
F9
330
4A
100
AcDbEntity
  8
1
  6
Continuous
 62
     7
100
AcDbLine
 10
173.1739393313006
 20
162.6161542239518
 30
0.0
 11
173.1739393313006
 21
157.8742996998165
 31
0.0
  0
LINE
  5
FA
330
4A
100
AcDbEntity
  8
1
  6
Continuous
 62
     7
100
AcDbLine
 10
259.1723462688938
 20
153.3677466522755
 30
0.0
 11
259.1723462688938
 21
127.866009175145
 31
0.0
  0
LINE
  5
FB
330
4A
100
AcDbEntity
  8
1
  6
Continuous
 62
     7
100
AcDbLine
 10
261.6739393313006
 20
130.1161542239518
 30
0.0
 11
261.6739393313006
 21
151.1161542239518
 31
0.0
  0
LINE
  5
FC
330
4A
100
AcDbEntity
  8
1
  6
Continuous
 62
     7
100
AcDbLine
 10
263.4059901388695
 20
150.1161542239518
 30
0.0
 11
263.4059901388695
 21
131.1161542239518
 31
0.0
  0
LINE
  5
FD
330
4A
100
AcDbEntity
  8
1
  6
Continuous
 62
     7
100
AcDbLine
 10
274.6739393313006
 20
131.1161542239518
 30
0.0
 11
274.6739393313006
 21
150.1161542239518
 31
0.0
  0
ARC
  5
FE
330
4A
100
AcDbEntity
  8
1
  6
Continuous
 62
     7
100
AcDbCircle
 10
117.8262675584494
 20
279.4638259968028
 30
0.0
 40
40.00000000000011
100
AcDbArc
 50
160.2154746552194
 51
165.2427891660376
  0
ARC
  5
FF
330
4A
100
AcDbEntity
  8
1
  6
Continuous
 62
     7
100
AcDbCircle
 10
63.82626755844935
 20
279.4638259968028
 30
0.0
 40
39.99999999999997
100
AcDbArc
 50
337.2396569598172
 51
345.2427891660388
  0
ARC
  5
100
330
4A
100
AcDbEntity
  8
1
  6
Continuous
 62
     7
100
AcDbCircle
 10
210.0447723084477
 20
99.86615422395177
 30
0.0
 40
32.00000000000004
100
AcDbArc
 50
90.0
 51
109.7845253447805
  0
ARC
  5
101
330
4A
100
AcDbEntity
  8
1
  6
Continuous
 62
     7
100
AcDbCircle
 10
166.7065969381061
 20
125.1604134750339
 30
0.0
 40
6.499999999999917
100
AcDbArc
 50
65.92702608510919
 51
172.9999999999997
  0
ARC
  5
102
330
4A
100
AcDbEntity
  8
1
  6
Continuous
 62
     7
100
AcDbCircle
 10
162.3254123081202
 20
130.5060733241352
 30
0.0
 40
18.0
100
AcDbArc
 50
100.0000000000008
 51
172.9999999999999
  0
ARC
  5
103
330
4A
100
AcDbEntity
  8
1
  6
Continuous
 62
     7
100
AcDbCircle
 10
162.5612287078556
 20
159.9950258625888
 30
0.0
 40
11.00000000000001
100
AcDbArc
 50
280.0000000000003
 51
339.3012545943237
  0
ARC
  5
104
330
4A
100
AcDbEntity
  8
1
  6
Continuous
 62
     7
100
AcDbCircle
 10
208.7779749975833
 20
160.3661542239518
 30
0.0
 40
11.00000000000004
100
AcDbArc
 50
200.931862744197
 51
270.0
  0
ARC
  5
105
330
4A
100
AcDbEntity
  8
1
  6
Continuous
 62
     7
100
AcDbCircle
 10
185.6739393313007
 20
167.6161542239518
 30
0.0
 40
40.00000000000014
100
AcDbArc
 50
245.9270260851096
 51
289.7845253447804
  0
ARC
  5
106
330
4A
100
AcDbEntity
  8
1
  6
Continuous
 62
     7
100
AcDbCircle
 10
117.8262675584494
 20
279.4638259968028
 30
0.0
 40
39.99999999999993
100
AcDbArc
 50
194.7572108339619
 51
202.7603430401828
  0
ARC
  5
107
330
4A
100
AcDbEntity
  8
1
  6
Continuous
 62
     7
100
AcDbCircle
 10
50.0762675584494
 20
303.8346589739501
 30
0.0
 40
31.99999999999996
100
AcDbArc
 50
340.2154746552192
 51
0.0
  0
ARC
  5
108
330
4A
100
AcDbEntity
  8
1
  6
Continuous
 62
     7
100
AcDbCircle
 10
131.5762675584493
 20
303.8346589739501
 30
0.0
 40
32.00000000000001
100
AcDbArc
 50
180.0
 51
199.7845253447807
  0
ARC
  5
109
330
4A
100
AcDbEntity
  8
1
  6
Continuous
 62
     7
100
AcDbCircle
 10
63.82626755844935
 20
279.4638259968028
 30
0.0
 40
40.00000000000003
100
AcDbArc
 50
14.75721083396162
 51
19.78452534478065
  0
ARC
  5
10A
330
4A
100
AcDbEntity
  8
1
  6
Continuous
 62
     7
100
AcDbCircle
 10
120.0762675584493
 20
255.8643026965327
 30
0.0
 40
20.99999999999993
100
AcDbArc
 50
157.2396569598172
 51
180.0
  0
ARC
  5
10B
330
4A
100
AcDbEntity
  8
1
  6
Continuous
 62
     7
100
AcDbCircle
 10
61.57626755844935
 20
255.8643026965327
 30
0.0
 40
20.99999999999994
100
AcDbArc
 50
0.0
 51
22.76034304018275
  0
SPLINE
  5
10C
330
4A
100
AcDbEntity
  8
1
  6
Continuous
 62
     7
100
AcDbSpline
210
0.0
220
0.0
230
1.0
 70
     8
 71
     3
 72
    45
 73
    41
 74
    39
 42
0.000000001
 43
0.0000000001
 44
0.00000001
 40
0.0
 40
0.0
 40
0.0
 40
0.0
 40
0.3569415821182468
 40
0.7145757285796678
 40
1.429139180978725
 40
2.143700128581385
 40
2.858723140193725
 40
3.573741458820192
 40
4.289467127573475
 40
5.005186505539559
 40
5.721772632901854
 40
6.438351651092444
 40
7.155851906344402
 40
7.87334509931405
 40
8.591702906150495
 40
9.310054540924652
 40
10.02911025395409
 40
10.74816140896747
 40
11.46767175057929
 40
12.18717967488242
 40
12.90684700516655
 40
13.6265143354507
 40
14.34602225975387
 40
15.0655326013657
 40
15.78458375637907
 40
16.50363946940849
 40
17.22199110418262
 40
17.94034891101909
 40
18.65784210398874
 40
19.37534235924073
 40
20.09192137743135
 40
20.8085075047936
 40
21.52422688275962
 40
22.23995255151294
 40
22.95497087013942
 40
23.66999388175175
 40
24.38455482935436
 40
25.09911828175342
 40
25.45675242821288
 40
25.81369401032923
 40
25.81369401032923
 40
25.81369401032923
 40
25.81369401032923
 10
82.5762675584494
 20
244.4638259968051
 30
0.0
 10
82.57778895538743
 20
244.3448344218464
 30
0.0
 10
82.580834713189
 20
244.1066203959984
 30
0.0
 10
82.61338497048624
 20
243.6311567462204
 30
0.0
 10
82.69111758710925
 20
243.0398877885062
 30
0.0
 10
82.84749471790182
 20
242.3415313042699
 30
0.0
 10
83.06400815496228
 20
241.6592837199725
 30
0.0
 10
83.3400468021591
 20
240.998442112518
 30
0.0
 10
83.67266595956255
 20
240.363935223793
 30
0.0
 10
84.06011381055127
 20
239.760722043079
 30
0.0
 10
84.49867326428587
 20
239.1932241350048
 30
0.0
 10
84.98574966470532
 20
238.6659740263167
 30
0.0
 10
85.51690748408032
 20
238.1827136692247
 30
0.0
 10
86.08879490839627
 20
237.7474417164885
 30
0.0
 10
86.6964072427173
 20
237.3630835021422
 30
0.0
 10
87.33571569808726
 20
237.0330014177274
 30
0.0
 10
88.00132594823572
 20
236.7592051918043
 30
0.0
 10
88.68862551410743
 20
236.5443237127287
 30
0.0
 10
89.39202337258331
 20
236.3893952137299
 30
0.0
 10
90.10643580430784
 20
236.2962248502122
 30
0.0
 10
90.82626755844935
 20
236.2648668008192
 30
0.0
 10
91.5460993125908
 20
236.2962248502123
 30
0.0
 10
92.26051174431538
 20
236.3893952137299
 30
0.0
 10
92.96390960279125
 20
236.5443237127287
 30
0.0
 10
93.65120916866299
 20
236.7592051918044
 30
0.0
 10
94.31681941881135
 20
237.0330014177274
 30
0.0
 10
94.95612787418135
 20
237.3630835021423
 30
0.0
 10
95.56374020850238
 20
237.7474417164885
 30
0.0
 10
96.1356276328184
 20
238.1827136692246
 30
0.0
 10
96.6667854521934
 20
238.6659740263165
 30
0.0
 10
97.1538618526129
 20
239.1932241350047
 30
0.0
 10
97.59242130634739
 20
239.760722043079
 30
0.0
 10
97.97986915733597
 20
240.3639352237931
 30
0.0
 10
98.3124883147395
 20
240.998442112518
 30
0.0
 10
98.58852696193634
 20
241.6592837199726
 30
0.0
 10
98.8050403989968
 20
242.3415313042698
 30
0.0
 10
98.96141752978926
 20
243.0398877885062
 30
0.0
 10
99.03915014641213
 20
243.6311567462196
 30
0.0
 10
99.07170040370946
 20
244.1066203959965
 30
0.0
 10
99.07474616151116
 20
244.3448344218432
 30
0.0
 10
99.07626755844923
 20
244.4638259968012
 30
0.0
 11
82.5762675584494
 21
244.4638259968051
 31
0.0
 11
82.58413272328114
 21
244.106971073028
 31
0.0
 11
82.60772821777667
 21
243.7501161492508
 31
0.0
 11
82.70163153077566
 21
243.0417496502316
 31
0.0
 11
82.85747067261222
 21
242.3443892624838
 31
0.0
 11
83.07390670780552
 21
241.6629104658586
 31
0.0
 11
83.34936012838008
 21
241.0030797228481
 31
0.0
 11
83.68176097799028
 21
240.3692241332984
 31
0.0
 11
84.0684384580035
 21
239.7669494827112
 31
0.0
 11
84.50669695029427
 21
239.2000057710915
 31
0.0
 11
84.9928427569858
 21
238.6735575360052
 31
0.0
 11
85.52362168609643
 21
238.1907735833151
 31
0.0
 11
86.09447345725854
 21
237.7561188495367
 31
0.0
 11
86.7016165662653
 21
237.3721719989094
 31
0.0
 11
87.33985130024882
 21
237.0424971654755
 31
0.0
 11
88.00488190236786
 21
236.7690462247801
 31
0.0
 11
88.6911363050771
 21
236.554361668811
 31
0.0
 11
89.39382632372438
 21
236.399694705097
 31
0.0
 11
90.10727737908624
 21
236.3065322393522
 31
0.0
 11
90.8262675584493
 21
236.275320245762
 31
0.0
 11
91.54525773781239
 21
236.3065322393522
 31
0.0
 11
92.25870879317429
 21
236.399694705097
 31
0.0
 11
92.9613988118216
 21
236.554361668811
 31
0.0
 11
93.64765321453082
 21
236.7690462247801
 31
0.0
 11
94.31268381664984
 21
237.0424971654755
 31
0.0
 11
94.95091855063333
 21
237.3721719989094
 31
0.0
 11
95.55806165964012
 21
237.7561188495367
 31
0.0
 11
96.12891343080227
 21
238.190773583315
 31
0.0
 11
96.65969235991295
 21
238.6735575360051
 31
0.0
 11
97.14583816660449
 21
239.2000057710914
 31
0.0
 11
97.58409665889513
 21
239.7669494827112
 31
0.0
 11
97.97077413890824
 21
240.3692241332984
 31
0.0
 11
98.3031749885185
 21
241.0030797228481
 31
0.0
 11
98.57862840909311
 21
241.6629104658586
 31
0.0
 11
98.79506444428638
 21
242.3443892624838
 31
0.0
 11
98.95090358612285
 21
243.0417496502315
 31
0.0
 11
99.04480689912185
 21
243.7501161492508
 31
0.0
 11
99.06840239361733
 21
244.106971073026
 31
0.0
 11
99.07626755844923
 21
244.4638259968012
 31
0.0
  0
ARC
  5
10D
330
4A
100
AcDbEntity
  8
1
  6
Continuous
 62
     7
100
AcDbCircle
 10
68.32626755844927
 20
353.4567950733111
 30
0.0
 40
0.5
100
AcDbArc
 50
180.0
 51
265.5000000000044
  0
ARC
  5
10E
330
4A
100
AcDbEntity
  8
0
  6
Continuous
 62
     7
100
AcDbCircle
 10
103.5762675584493
 20
348.9636809453662
 30
0.0
 40
3.999999999999863
100
AcDbArc
 50
89.99792232888628
 51
180.0
  0
ARC
  5
10F
330
4A
100
AcDbEntity
  8
0
  6
Continuous
 62
     7
100
AcDbCircle
 10
78.07626755844929
 20
348.9622332513745
 30
0.0
 40
4.0
100
AcDbArc
 50
0.0
 51
90.02280985613224
  0
ARC
  5
110
330
4A
100
AcDbEntity
  8
1
  6
Continuous
 62
     7
100
AcDbCircle
 10
113.3262675584493
 20
353.461784635846
 30
0.0
 40
0.5000000000001583
100
AcDbArc
 50
274.4999999999957
 51
0.0
  0
ARC
  5
111
330
4A
100
AcDbEntity
  8
1
  6
Continuous
 62
     7
100
AcDbCircle
 10
168.1739393313006
 20
157.8742996998165
 30
0.0
 40
5.000000000000126
100
AcDbArc
 50
339.3012545943238
 51
0.0
  0
ARC
  5
112
330
4A
100
AcDbEntity
  8
1
  6
Continuous
 62
     7
100
AcDbCircle
 10
203.1739393313006
 20
158.2226094376151
 30
0.0
 40
4.999999999999915
100
AcDbArc
 50
180.0
 51
200.9318627441971
  0
ARC
  5
113
330
4A
100
AcDbEntity
  8
0
  6
Continuous
 62
     7
100
AcDbCircle
 10
255.1737942798639
 20
127.8661542239518
 30
0.0
 40
3.99999999999992
100
AcDbArc
 50
359.9979223288863
 51
89.99999999999837
  0
ARC
  5
114
330
4A
100
AcDbEntity
  8
0
  6
Continuous
 62
     7
100
AcDbCircle
 10
255.1723465858722
 20
153.3661542239518
 30
0.0
 40
4.0
100
AcDbArc
 50
270.0000000000016
 51
0.02280985613385
  0
ARC
  5
115
330
4A
100
AcDbEntity
  8
1
  6
Continuous
 62
     7
100
AcDbCircle
 10
259.6718979703437
 20
118.1161542239518
 30
0.0
 40
0.5000000000001583
100
AcDbArc
 50
184.4999999999957
 51
270.0
  0
ARC
  5
116
330
4A
100
AcDbEntity
  8
1
  6
Continuous
 62
     7
100
AcDbCircle
 10
259.6669084078088
 20
163.1161542239518
 30
0.0
 40
0.5
100
AcDbArc
 50
90.0
 51
175.5000000000023
  0
ENDBLK
  5
4C
330
4A
100
AcDbEntity
  8
0
100
AcDbBlockEnd
  0
BLOCK
  5
4E
330
4D
100
AcDbEntity
  8
0
100
AcDbBlockBegin
  2
75-26
 70
     0
 10
169.0650359733516
 20
74.7713568104607
 30
0.0
  3
75-26
  1

  0
LINE
  5
117
330
4D
100
AcDbEntity
  8
0
  6
Continuous
 62
     7
100
AcDbLine
 10
91.57626755844937
 20
116.3109337850014
 30
0.0
 11
90.82626755844943
 21
115.6161542239518
 31
0.0
  0
LINE
  5
118
330
4D
100
AcDbEntity
  8
0
  6
Continuous
 62
     7
100
AcDbLine
 10
90.07626755844954
 20
116.3109337850013
 30
0.0
 11
90.82626755844943
 21
115.6161542239518
 31
0.0
  0
LINE
  5
119
330
4D
100
AcDbEntity
  8
0
  6
Continuous
 62
     7
100
AcDbLine
 10
87.89111973737054
 20
116.2187125672467
 30
0.0
 11
90.82626755844943
 21
115.6161542239518
 31
0.0
  0
LINE
  5
11A
330
4D
100
AcDbEntity
  8
0
  6
Continuous
 62
     7
100
AcDbLine
 10
85.07626755844943
 20
115.6161542239518
 30
0.0
 11
90.82626755844943
 21
115.6161542239518
 31
0.0
  0
LINE
  5
11B
330
4D
100
AcDbEntity
  8
0
  6
Continuous
 62
     7
100
AcDbLine
 10
87.89111973737054
 20
115.0135958806569
 30
0.0
 11
90.82626755844943
 21
115.6161542239518
 31
0.0
  0
LINE
  5
11C
330
4D
100
AcDbEntity
  8
0
  6
Continuous
 62
     7
100
AcDbLine
 10
90.07626755844966
 20
114.9213746629023
 30
0.0
 11
90.82626755844943
 21
115.6161542239518
 31
0.0
  0
LINE
  5
11D
330
4D
100
AcDbEntity
  8
0
  6
Continuous
 62
     7
100
AcDbLine
 10
91.57626755844943
 20
114.9213746629023
 30
0.0
 11
90.82626755844943
 21
115.6161542239518
 31
0.0
  0
LINE
  5
11E
330
4D
100
AcDbEntity
  8
0
  6
Continuous
 62
     7
100
AcDbLine
 10
93.76141537952826
 20
115.0135958806569
 30
0.0
 11
90.82626755844943
 21
115.6161542239518
 31
0.0
  0
LINE
  5
11F
330
4D
100
AcDbEntity
  8
0
  6
Continuous
 62
     7
100
AcDbLine
 10
96.57626755844943
 20
115.6161542239518
 30
0.0
 11
90.82626755844943
 21
115.6161542239518
 31
0.0
  0
LINE
  5
120
330
4D
100
AcDbEntity
  8
0
  6
Continuous
 62
     7
100
AcDbLine
 10
93.76141537952815
 20
116.2187125672467
 30
0.0
 11
90.82626755844943
 21
115.6161542239518
 31
0.0
  0
ENDBLK
  5
4F
330
4D
100
AcDbEntity
  8
0
100
AcDbBlockEnd
  0
BLOCK
  5
51
330
50
100
AcDbEntity
  8
0
100
AcDbBlockBegin
  2
Y105-0
 70
     0
 10
562.5
 20
284.0
 30
0.0
  3
Y105-0
  1

  0
LINE
  5
121
330
50
100
AcDbEntity
  8
1
  6
Continuous
 62
     7
100
AcDbLine
 10
82.57626755844943
 20
130.5693885752448
 30
0.0
 11
82.57626755844943
 21
140.9121405794531
 31
0.0
  0
LINE
  5
122
330
50
100
AcDbEntity
  8
1
  6
Continuous
 62
     7
100
AcDbLine
 10
99.07626755844943
 20
130.5693885752449
 30
0.0
 11
99.07626755844943
 21
140.9121405794531
 31
0.0
  0
LINE
  5
123
330
50
100
AcDbEntity
  8
1
  6
Continuous
 62
     7
100
AcDbLine
 10
82.57626755844943
 20
119.1466991773047
 30
0.0
 11
82.57626755844943
 21
130.5693885752448
 31
0.0
  0
LINE
  5
124
330
50
100
AcDbEntity
  8
1
  6
Continuous
 62
     7
100
AcDbLine
 10
99.07626755844943
 20
119.1466991773047
 30
0.0
 11
99.07626755844943
 21
130.5693885752449
 31
0.0
  0
LINE
  5
125
330
50
100
AcDbEntity
  8
1
  6
Continuous
 62
     7
100
AcDbLine
 10
82.57626755844943
 20
115.6161542239518
 30
0.0
 11
82.57626755844943
 21
119.1466991773047
 31
0.0
  0
LINE
  5
126
330
50
100
AcDbEntity
  8
1
  6
Continuous
 62
     7
100
AcDbLine
 10
99.07626755844943
 20
115.6161542239518
 30
0.0
 11
99.07626755844943
 21
119.1466991773047
 31
0.0
  0
LINE
  5
127
330
50
100
AcDbEntity
  8
1
  6
Continuous
 62
     7
100
AcDbLine
 10
78.32626755844954
 20
159.9228888002597
 30
0.0
 11
78.32626755844954
 21
147.1545026392734
 31
0.0
  0
LINE
  5
128
330
50
100
AcDbEntity
  8
1
  6
Continuous
 62
     7
100
AcDbLine
 10
103.3262675584497
 20
159.9228888002596
 30
0.0
 11
103.3262675584497
 21
147.1545026392711
 31
0.0
  0
LINE
  5
129
330
50
100
AcDbEntity
  8
1
  6
Continuous
 62
     7
100
AcDbLine
 10
78.32626755844954
 20
162.6161542239504
 30
0.0
 11
78.32626755844954
 21
159.9228888002597
 31
0.0
  0
LINE
  5
12A
330
50
100
AcDbEntity
  8
1
  6
Continuous
 62
     7
100
AcDbLine
 10
103.3262675584497
 20
162.6161542239504
 30
0.0
 11
103.3262675584497
 21
159.9228888002596
 31
0.0
  0
ARC
  5
12B
330
50
100
AcDbEntity
  8
1
  6
Continuous
 62
     7
100
AcDbCircle
 10
90.82626755844943
 20
140.9121405794531
 30
0.0
 40
8.25
100
AcDbArc
 50
0.0
 51
180.0
  0
ARC
  5
12C
330
50
100
AcDbEntity
  8
1
  6
Continuous
 62
     7
100
AcDbCircle
 10
90.82626755844943
 20
140.6161542239518
 30
0.0
 40
13.00000000000144
100
AcDbArc
 50
171.2539867167446
 51
230.6085359026693
  0
ARC
  5
12D
330
50
100
AcDbEntity
  8
1
  6
Continuous
 62
     7
100
AcDbCircle
 10
90.82626755844943
 20
140.6161542239518
 30
0.0
 40
13.00000000000144
100
AcDbArc
 50
309.3914640973309
 51
8.74601328325214
  0
ARC
  5
12E
330
50
100
AcDbEntity
  8
1
  6
Continuous
 62
     7
100
AcDbCircle
 10
90.82626755844943
 20
140.6161542239518
 30
0.0
 40
23.0
100
AcDbArc
 50
122.9207345280893
 51
248.9798868500859
  0
ARC
  5
12F
330
50
100
AcDbEntity
  8
1
  6
Continuous
 62
     7
100
AcDbCircle
 10
90.82626755844943
 20
140.6161542239518
 30
0.0
 40
22.99999999999997
100
AcDbArc
 50
0.0
 51
57.07926547190983
  0
ARC
  5
130
330
50
100
AcDbEntity
  8
1
  6
Continuous
 62
     7
100
AcDbCircle
 10
90.82626755844943
 20
140.6161542239518
 30
0.0
 40
23.00000000000002
100
AcDbArc
 50
291.0201131499142
 51
0.0
  0
SPLINE
  5
131
330
50
100
AcDbEntity
  8
1
  6
Continuous
 62
     7
100
AcDbSpline
210
0.0
220
0.0
230
1.0
 70
     8
 71
     3
 72
    45
 73
    41
 74
    39
 42
0.000000001
 43
0.0000000001
 44
0.00000001
 40
0.0
 40
0.0
 40
0.0
 40
0.0
 40
0.0471601795787573
 40
0.1023980588959418
 40
0.2712118453150684
 40
0.4281897210840172
 40
0.6864589422259837
 40
0.9456505621245301
 40
1.312434386333869
 40
1.678848171323919
 40
2.144305742332856
 40
2.609733532300341
 40
3.16144077790204
 40
3.713123115983982
 40
4.33507617810506
 40
4.957016966002376
 40
5.630844477598963
 40
6.30466626789916
 40
7.010300994873406
 40
7.715933155560297
 40
8.432283407416364
 40
9.148633659272459
 40
9.854265819959336
 40
10.55990054693351
 40
11.23372233723364
 40
11.90754984883024
 40
12.52949063672759
 40
13.15144369884874
 40
13.70312603693073
 40
14.2548332825325
 40
14.72026107250001
 40
15.18571864350893
 40
15.55213242849891
 40
15.91891625270814
 40
16.17810787260667
 40
16.4363770937488
 40
16.59335496951777
 40
16.76216875593683
 40
16.81740663521676
 40
16.86456681476513
 40
16.86456681476513
 40
16.86456681476513
 40
16.86456681476513
 10
99.07626755844943
 20
115.616154223942
 30
0.0
 10
99.07406497941238
 20
115.6319829546335
 30
0.0
 10
99.06928257352199
 20
115.6663515992544
 30
0.0
 10
99.01215700828023
 20
115.7394589742891
 30
0.0
 10
98.91833377590463
 20
115.8257299398436
 30
0.0
 10
98.74203143800587
 20
115.912975526872
 30
0.0
 10
98.5263162200176
 20
115.976713254922
 30
0.0
 10
98.24309996919061
 20
116.0583844295989
 30
0.0
 10
97.92042535088295
 20
116.1321750665641
 30
0.0
 10
97.52764474336514
 20
116.205697345284
 30
0.0
 10
97.10004813799469
 20
116.2706759754851
 30
0.0
 10
96.61002790964308
 20
116.334960602859
 30
0.0
 10
96.09015913588041
 20
116.3919177837422
 30
0.0
 10
95.51746696629519
 20
116.4448722824443
 30
0.0
 10
94.9206526187117
 20
116.4904181095792
 30
0.0
 10
94.28265536736747
 20
116.5305296292175
 30
0.0
 10
93.62691985555246
 20
116.5631812525853
 30
0.0
 10
92.94297487015083
 20
116.589267986347
 30
0.0
 10
92.24817734968246
 20
116.6077867190473
 30
0.0
 10
91.53904887862991
 20
116.6191159624878
 30
0.0
 10
90.8262675584494
 20
116.6228157666962
 30
0.0
 10
90.11348623826893
 20
116.6191159624879
 30
0.0
 10
89.40435776721641
 20
116.6077867190474
 30
0.0
 10
88.70956024674807
 20
116.5892679863471
 30
0.0
 10
88.02561526134652
 20
116.5631812525852
 30
0.0
 10
87.36987974953149
 20
116.5305296292175
 30
0.0
 10
86.73188249818725
 20
116.4904181095792
 30
0.0
 10
86.13506815060367
 20
116.4448722824444
 30
0.0
 10
85.56237598101839
 20
116.3919177837423
 30
0.0
 10
85.04250720725568
 20
116.334960602859
 30
0.0
 10
84.55248697890403
 20
116.2706759754851
 30
0.0
 10
84.12489037353363
 20
116.2056973452841
 30
0.0
 10
83.73210976601587
 20
116.1321750665641
 30
0.0
 10
83.40943514770831
 20
116.0583844295988
 30
0.0
 10
83.12621889688134
 20
115.9767132549221
 30
0.0
 10
82.91050367889284
 20
115.9129755268717
 30
0.0
 10
82.73420134099439
 20
115.8257299398444
 30
0.0
 10
82.640378108627
 20
115.7394589742954
 30
0.0
 10
82.58325254339954
 20
115.6663515992851
 30
0.0
 10
82.57847013749365
 20
115.6319829546906
 30
0.0
 10
82.57626755844943
 20
115.616154224011
 30
0.0
 11
99.07626755844943
 21
115.616154223942
 31
0.0
 11
99.06609934256394
 21
115.6622051714645
 31
0.0
 11
99.0355946948986
 21
115.708256118987
 31
0.0
 11
98.91055407099853
 21
115.8216710058012
 31
0.0
 11
98.77153937790189
 21
115.8945885507877
 31
0.0
 11
98.52655352979042
 21
115.976349938009
 31
0.0
 11
98.27703953992804
 21
116.04651449086
 31
0.0
 11
97.91983986533744
 21
116.1298137456909
 31
0.0
 11
97.55978982774798
 21
116.1978066275924
 31
0.0
 11
97.09982640517273
 21
116.2691116056613
 31
0.0
 11
96.6383613689288
 21
116.3297172787553
 31
0.0
 11
96.08999824154981
 21
116.3903701009247
 31
0.0
 11
95.54067496446147
 21
116.4413341945937
 31
0.0
 11
94.92055379329739
 21
116.4890347587152
 31
0.0
 11
94.29984420076389
 21
116.5281492651061
 31
0.0
 11
93.62686129589247
 21
116.5618764673688
 31
0.0
 11
92.95353089573521
 21
116.5876053673424
 31
0.0
 11
92.24815003839298
 21
116.6065318790706
 31
0.0
 11
91.5426078568324
 21
116.617800199093
 31
0.0
 11
90.82626755844943
 21
116.6215763070444
 31
0.0
 11
90.10992726006643
 21
116.617800199093
 31
0.0
 11
89.40438507850587
 21
116.6065318790707
 31
0.0
 11
88.6990042211637
 21
116.5876053673425
 31
0.0
 11
88.02567382100652
 21
116.5618764673688
 31
0.0
 11
87.35269091613509
 21
116.5281492651061
 31
0.0
 11
86.73198132360154
 21
116.4890347587153
 31
0.0
 11
86.11186015243739
 21
116.4413341945938
 31
0.0
 11
85.56253687534901
 21
116.3903701009248
 31
0.0
 11
85.01417374796995
 21
116.3297172787553
 31
0.0
 11
84.552708711726
 21
116.2691116056613
 31
0.0
 11
84.09274528915077
 21
116.1978066275924
 31
0.0
 11
83.73269525156138
 21
116.1298137456909
 31
0.0
 11
83.37549557697089
 21
116.04651449086
 31
0.0
 11
83.12598158710853
 21
115.976349938009
 31
0.0
 11
82.88099573899689
 21
115.8945885507877
 31
0.0
 11
82.74198104590022
 21
115.8216710058012
 31
0.0
 11
82.61694042200028
 21
115.708256118987
 31
0.0
 11
82.58643577435025
 21
115.662205171499
 31
0.0
 11
82.57626755844943
 21
115.616154224011
 31
0.0
  0
SPLINE
  5
132
330
50
100
AcDbEntity
  8
1
  6
Continuous
 62
     7
100
AcDbSpline
210
0.0
220
0.0
230
1.0
 70
    11
 71
     3
 72
    79
 73
    75
 74
    73
 42
0.000000001
 43
0.0000000001
 44
0.00000001
 40
0.0
 40
0.0
 40
0.0
 40
0.0
 40
0.1176580913598853
 40
0.2270669144367191
 40
0.4070727351234645
 40
0.5877214395004464
 40
0.8433586497476895
 40
1.098737953902094
 40
1.423147775465919
 40
1.747536840565014
 40
2.132060071623152
 40
2.516565942924758
 40
2.950048379410592
 40
3.383522261164781
 40
3.853159616981541
 40
4.322792985253264
 40
4.81459900634763
 40
5.306403238840152
 40
5.805677656100661
 40
6.30495207338918
 40
6.796756305965042
 40
7.288562327200615
 40
7.75819569566515
 40
8.227833051735415
 40
8.661306933780894
 40
9.094789370614377
 40
9.479295242271636
 40
9.863818473725724
 40
10.18820753918346
 40
10.51261736111142
 40
10.76799666555115
 40
11.0236338760693
 40
11.20428258056652
 40
11.3842884008596
 40
11.49369722287699
 40
11.61135531578097
 40
11.68152822717525
 40
11.7517011385726
 40
11.86935923148288
 40
11.97876805350427
 40
12.15877387380046
 40
12.33942257829952
 40
12.59505978881822
 40
12.85043909325629
 40
13.1748489151797
 40
13.49923798063083
 40
13.88376121207501
 40
14.26826708372083
 40
14.70174952054029
 40
15.13522340257168
 40
15.60486075862858
 40
16.07449412708418
 40
16.56630014831831
 40
17.05810438090482
 40
17.55737879822188
 40
18.0566532155353
 40
18.54845744811118
 40
19.04026346932825
 40
19.50989683776224
 40
19.97953419379368
 40
20.41300807579969
 40
20.84649051259442
 40
21.23099638422176
 40
21.61551961565563
 40
21.93990868111067
 40
22.26431850306127
 40
22.51969780754971
 40
22.77533501817116
 40
22.95598372281924
 40
23.13598954345316
 40
23.2453983658764
 40
23.36305645964155
 40
23.43322937151562
 40
23.50340228610591
 40
23.50340228610591
 40
23.50340228610591
 40
23.50340228610591
 10
85.10461531183341
 20
115.6803464538248
 30
0.0
 10
85.1322480151628
 20
115.7086084800215
 30
0.0
 10
85.18557602273133
 20
115.7631510296298
 30
0.0
 10
85.30956623593605
 20
115.8226101543291
 30
0.0
 10
85.45945666851813
 20
115.8675866030374
 30
0.0
 10
85.65700363845707
 20
115.9243225468542
 30
0.0
 10
85.88184136218504
 20
115.9758210955988
 30
0.0
 10
86.15561533737343
 20
116.0270423336938
 30
0.0
 10
86.45363125744764
 20
116.0723376860413
 30
0.0
 10
86.79516229196977
 20
116.1171399597429
 30
0.0
 10
87.15749451185543
 20
116.1568380682074
 30
0.0
 10
87.55664376198746
 20
116.193745551029
 30
0.0
 10
87.97260522740555
 20
116.2254896708969
 30
0.0
 10
88.41726999149918
 20
116.2534461670691
 30
0.0
 10
88.87429776775689
 20
116.2762033632663
 30
0.0
 10
89.35098669737621
 20
116.2943850241752
 30
0.0
 10
89.83523951365103
 20
116.3072920194684
 30
0.0
 10
90.32948056861042
 20
116.3151881582066
 30
0.0
 10
90.82626754862358
 20
116.3177668092055
 30
0.0
 10
91.32305452870159
 20
116.3151881574626
 30
0.0
 10
91.81729558361108
 20
116.3072920177331
 30
0.0
 10
92.30154840044197
 20
116.2943850224382
 30
0.0
 10
92.77823732866806
 20
116.2762033580068
 30
0.0
 10
93.23526511075173
 20
116.2534461710028
 30
0.0
 10
93.67992985567827
 20
116.2254896397854
 30
0.0
 10
94.09589138992567
 20
116.193745640439
 30
0.0
 10
94.49504041199506
 20
116.1568377532745
 30
0.0
 10
94.85737341896565
 20
116.117141035154
 30
0.0
 10
95.19890195129437
 20
116.072334336962
 30
0.0
 10
95.49692622129947
 20
116.0270537450179
 30
0.0
 10
95.77067524998623
 20
115.9757884049295
 30
0.0
 10
95.99559247235379
 20
115.9244303959226
 30
0.0
 10
96.19292379078256
 20
115.867313216325
 30
0.0
 10
96.34345425267746
 20
115.823468233103
 30
0.0
 10
96.46588437081998
 20
115.761251121923
 30
0.0
 10
96.54043510742926
 20
115.6982361307283
 30
0.0
 10
96.5896544050036
 20
115.6161542235497
 30
0.0
 10
96.54043510742483
 20
115.5340723163712
 30
0.0
 10
96.46588437081573
 20
115.4710573251711
 30
0.0
 10
96.34345425267263
 20
115.4088402139818
 30
0.0
 10
96.19292379077814
 20
115.3649952307483
 30
0.0
 10
95.99559247235143
 20
115.3078780511368
 30
0.0
 10
95.77067524998698
 20
115.2565200421152
 30
0.0
 10
95.49692622130499
 20
115.2052547020115
 30
0.0
 10
95.19890195130614
 20
115.1599741100542
 30
0.0
 10
94.85737341898579
 20
115.1151674118526
 30
0.0
 10
94.49504041202476
 20
115.0754706937292
 30
0.0
 10
94.0958913899665
 20
115.0385628065721
 30
0.0
 10
93.67992985573063
 20
115.0068188072468
 30
0.0
 10
93.23526511081533
 20
114.9788622760694
 30
0.0
 10
92.77823732874064
 20
114.9561050891283
 30
0.0
 10
92.3015484005187
 20
114.9379234247887
 30
0.0
 10
91.81729558368482
 20
114.9250164296197
 30
0.0
 10
91.32305452875782
 20
114.9171202900494
 30
0.0
 10
90.82626754865613
 20
114.9145416385279
 30
0.0
 10
90.32948056855852
 20
114.9171202897153
 30
0.0
 10
89.83523951363013
 20
114.9250164289699
 30
0.0
 10
89.3509866968279
 20
114.937923423784
 30
0.0
 10
88.87429776853192
 20
114.956105087974
 30
0.0
 10
88.41726998677005
 20
114.978862274109
 30
0.0
 10
87.97260524081943
 20
115.0068188068869
 30
0.0
 10
87.55664371027872
 20
115.038562799483
 30
0.0
 10
87.15749467593419
 20
115.0754707081896
 30
0.0
 10
86.7951617113012
 20
115.1151673513508
 30
0.0
 10
86.45363304431226
 20
115.1599742875175
 30
0.0
 10
86.15560922355088
 20
115.2052540852447
 30
0.0
 10
85.88185885251775
 20
115.2565217983628
 30
0.0
 10
85.65694590763019
 20
115.307872245608
 30
0.0
 10
85.45960298559152
 20
115.3650099383757
 30
0.0
 10
85.30910696141389
 20
115.408794042217
 30
0.0
 10
85.1865928995704
 20
115.4711595514231
 30
0.0
 10
85.1122973253222
 20
115.5337234624254
 30
0.0
 10
85.06246600429147
 20
115.6168873189332
 30
0.0
 10
85.09056554675968
 20
115.6591934067211
 30
0.0
 10
85.10461531183341
 20
115.6803464538248
 30
0.0
 11
85.10461531183341
 21
115.6803464538248
 31
0.0
 11
85.1917648375819
 21
115.7593931931196
 31
0.0
 11
85.2886538661038
 21
115.8102145123527
 31
0.0
 11
85.45940157842402
 21
115.8671997216281
 31
0.0
 11
85.6333052683281
 21
115.9161022887666
 31
0.0
 11
85.88226261728514
 21
115.9741593451639
 31
0.0
 11
86.13320658287773
 21
116.0215483234588
 31
0.0
 11
86.45378715012708
 21
116.0712457324159
 31
0.0
 11
86.77541429660005
 21
116.1134860500269
 31
0.0
 11
87.15760677931873
 21
116.1557592291148
 31
0.0
 11
87.54046845728942
 21
116.1912796580355
 31
0.0
 11
87.97267412204025
 21
116.2245255057566
 31
0.0
 11
88.40528989865459
 21
116.251787131423
 31
0.0
 11
88.87433858992866
 21
116.2752939693636
 31
0.0
 11
89.34362947488671
 21
116.2932262329817
 31
0.0
 11
89.83525855727669
 21
116.3064174381255
 31
0.0
 11
90.32700007775827
 21
116.3142711157168
 31
0.0
 11
90.82626755844943
 21
116.3169029485314
 31
0.0
 11
91.32553503914062
 21
116.3142711157168
 31
0.0
 11
91.8172765596222
 21
116.3064174381255
 31
0.0
 11
92.30890564201215
 21
116.2932262329816
 31
0.0
 11
92.77819652697016
 21
116.2752939693636
 31
0.0
 11
93.24724521824427
 21
116.251787131423
 31
0.0
 11
93.67986099485863
 21
116.2245255057566
 31
0.0
 11
94.11206665960938
 21
116.1912796580356
 31
0.0
 11
94.49492833757999
 21
116.1557592291148
 31
0.0
 11
94.8771208202987
 21
116.1134860500269
 31
0.0
 11
95.1987479667717
 21
116.0712457324159
 31
0.0
 11
95.51932853402107
 21
116.0215483234588
 31
0.0
 11
95.77027249961371
 21
115.9741593451638
 31
0.0
 11
96.01922984857089
 21
115.9161022887666
 31
0.0
 11
96.19313353847505
 21
115.867199721628
 31
0.0
 11
96.36388125079516
 21
115.8102145123526
 31
0.0
 11
96.46077027931702
 21
115.7593931931196
 31
0.0
 11
96.54791980506548
 21
115.6803464538248
 31
0.0
 11
96.57626755844942
 21
115.6161542239518
 31
0.0
 11
96.54791980506548
 21
115.5519619940788
 31
0.0
 11
96.46077027931699
 21
115.4729152547841
 31
0.0
 11
96.36388125079515
 21
115.422093935551
 31
0.0
 11
96.19313353847507
 21
115.3651087262756
 31
0.0
 11
96.0192298485709
 21
115.316206159137
 31
0.0
 11
95.7702724996137
 21
115.2581491027397
 31
0.0
 11
95.51932853402104
 21
115.2107601244447
 31
0.0
 11
95.19874796677168
 21
115.1610627154877
 31
0.0
 11
94.87712082029873
 21
115.1188223978767
 31
0.0
 11
94.49492833758005
 21
115.0765492187888
 31
0.0
 11
94.11206665960935
 21
115.0410287898681
 31
0.0
 11
93.67986099485854
 21
115.007782942147
 31
0.0
 11
93.2472452182443
 21
114.9805213164807
 31
0.0
 11
92.77819652697029
 21
114.9570144785401
 31
0.0
 11
92.3089056420122
 21
114.939082214922
 31
0.0
 11
91.81727655962216
 21
114.9258910097781
 31
0.0
 11
91.32553503914056
 21
114.9180373321868
 31
0.0
 11
90.82626755844942
 21
114.9154054993723
 31
0.0
 11
90.32700007775827
 21
114.9180373321868
 31
0.0
 11
89.83525855727667
 21
114.9258910097781
 31
0.0
 11
89.34362947488665
 21
114.9390822149219
 31
0.0
 11
88.8743385899286
 21
114.9570144785399
 31
0.0
 11
88.40528989865462
 21
114.9805213164806
 31
0.0
 11
87.97267412204036
 21
115.007782942147
 31
0.0
 11
87.54046845728956
 21
115.0410287898681
 31
0.0
 11
87.15760677931884
 21
115.0765492187888
 31
0.0
 11
86.7754142966001
 21
115.1188223978767
 31
0.0
 11
86.4537871501271
 21
115.1610627154877
 31
0.0
 11
86.13320658287773
 21
115.2107601244448
 31
0.0
 11
85.88226261728512
 21
115.2581491027398
 31
0.0
 11
85.63330526832797
 21
115.316206159137
 31
0.0
 11
85.45940157842385
 21
115.3651087262756
 31
0.0
 11
85.28865386610374
 21
115.4220939355509
 31
0.0
 11
85.19176483758187
 21
115.472915254784
 31
0.0
 11
85.10461531183341
 21
115.5519619940788
 31
0.0
 11
85.0762675584495
 21
115.6161542239518
 31
0.0
 11
85.10461531183341
 21
115.6803464538248
 31
0.0
  0
SPLINE
  5
133
330
50
100
AcDbEntity
  8
1
  6
Continuous
 62
     7
100
AcDbSpline
210
0.0
220
0.0
230
1.0
 70
     8
 71
     3
 72
    45
 73
    41
 74
    39
 42
0.000000001
 43
0.0000000001
 44
0.00000001
 40
0.0
 40
0.0
 40
0.0
 40
0.0
 40
0.0471601795772956
 40
0.1023980588859575
 40
0.2712118453051815
 40
0.4281897210740668
 40
0.6864589422159478
 40
0.9456505621144904
 40
1.312434386323822
 40
1.678848171313771
 40
2.14430574232265
 40
2.609733532290142
 40
3.161440777891916
 40
3.713123115973899
 40
4.335076178095059
 40
4.957016965992459
 40
5.630844477589103
 40
6.304666267889245
 40
7.010300994863407
 40
7.715933155550268
 40
8.432283407406336
 40
9.148633659262432
 40
9.854265819949322
 40
10.5599005469235
 40
11.23372233722361
 40
11.90754984882027
 40
12.52949063671764
 40
13.1514436988387
 40
13.70312603692062
 40
14.25483328252237
 40
14.72026107248988
 40
15.18571864349884
 40
15.55213242848886
 40
15.91891625269811
 40
16.17810787259661
 40
16.43637709373861
 40
16.59335496950756
 40
16.7621687559267
 40
16.81740663525817
 40
16.86456681481535
 40
16.86456681481535
 40
16.86456681481535
 40
16.86456681481535
 10
99.07626755844943
 20
115.6161542239518
 30
0.0
 10
99.07406497941062
 20
115.6003254932612
 30
0.0
 10
99.06928257351669
 20
115.5659568486445
 30
0.0
 10
99.01215700827933
 20
115.4928494736122
 30
0.0
 10
98.9183337759041
 20
115.4065785080601
 30
0.0
 10
98.74203143800602
 20
115.3193329210315
 30
0.0
 10
98.52631622001749
 20
115.2555951929815
 30
0.0
 10
98.24309996919064
 20
115.1739240183047
 30
0.0
 10
97.92042535088302
 20
115.1001333813395
 30
0.0
 10
97.52764474336522
 20
115.0266111026196
 30
0.0
 10
97.10004813799488
 20
114.9616324724186
 30
0.0
 10
96.61002790964321
 20
114.8973478450445
 30
0.0
 10
96.0901591358805
 20
114.8403906641613
 30
0.0
 10
95.51746696629527
 20
114.7874361654593
 30
0.0
 10
94.92065261871161
 20
114.7418903383244
 30
0.0
 10
94.28265536736737
 20
114.7017788186862
 30
0.0
 10
93.62691985555233
 20
114.6691271953183
 30
0.0
 10
92.94297487015072
 20
114.6430404615566
 30
0.0
 10
92.24817734968244
 20
114.6245217288562
 30
0.0
 10
91.53904887862987
 20
114.6131924854156
 30
0.0
 10
90.82626755844942
 20
114.6094926812075
 30
0.0
 10
90.11348623826896
 20
114.6131924854157
 30
0.0
 10
89.40435776721634
 20
114.6245217288562
 30
0.0
 10
88.7095602467481
 20
114.6430404615566
 30
0.0
 10
88.02561526134646
 20
114.6691271953183
 30
0.0
 10
87.36987974953145
 20
114.7017788186862
 30
0.0
 10
86.7318824981872
 20
114.7418903383245
 30
0.0
 10
86.13506815060367
 20
114.7874361654592
 30
0.0
 10
85.56237598101848
 20
114.8403906641613
 30
0.0
 10
85.0425072072558
 20
114.8973478450446
 30
0.0
 10
84.5524869789041
 20
114.9616324724185
 30
0.0
 10
84.12489037353372
 20
115.0266111026196
 30
0.0
 10
83.73210976601582
 20
115.1001333813394
 30
0.0
 10
83.40943514770845
 20
115.1739240183048
 30
0.0
 10
83.12621889688097
 20
115.2555951929814
 30
0.0
 10
82.91050367889419
 20
115.3193329210321
 30
0.0
 10
82.73420134099179
 20
115.4065785080587
 30
0.0
 10
82.64037810862253
 20
115.4928494736215
 30
0.0
 10
82.58325254336808
 20
115.5659568486474
 30
0.0
 10
82.57847013748312
 20
115.600325493267
 30
0.0
 10
82.57626755844943
 20
115.6161542239518
 30
0.0
 11
99.07626755844943
 21
115.6161542239518
 31
0.0
 11
99.06609934255953
 21
115.5701032764318
 31
0.0
 11
99.0355946948985
 21
115.5240523289166
 31
0.0
 11
98.9105540709984
 21
115.4106374421023
 31
0.0
 11
98.77153937790182
 21
115.3377198971158
 31
0.0
 11
98.52655352979042
 21
115.2559585098946
 31
0.0
 11
98.27703953992804
 21
115.1857939570436
 31
0.0
 11
97.91983986533745
 21
115.1024947022127
 31
0.0
 11
97.55978982774809
 21
115.0345018203112
 31
0.0
 11
97.0998264051729
 21
114.9631968422424
 31
0.0
 11
96.63836136892897
 21
114.9025911691483
 31
0.0
 11
96.0899982415499
 21
114.8419383469788
 31
0.0
 11
95.54067496446153
 21
114.7909742533099
 31
0.0
 11
94.92055379329736
 21
114.7432736891884
 31
0.0
 11
94.29984420076377
 21
114.7041591827975
 31
0.0
 11
93.6268612958923
 21
114.6704319805348
 31
0.0
 11
92.9535308957351
 21
114.6447030805611
 31
0.0
 11
92.24815003839295
 21
114.6257765688329
 31
0.0
 11
91.5426078568324
 21
114.6145082488106
 31
0.0
 11
90.82626755844943
 21
114.6107321408593
 31
0.0
 11
90.10992726006643
 21
114.6145082488106
 31
0.0
 11
89.40438507850585
 21
114.6257765688329
 31
0.0
 11
88.69900422116369
 21
114.6447030805611
 31
0.0
 11
88.02567382100652
 21
114.6704319805348
 31
0.0
 11
87.35269091613503
 21
114.7041591827975
 31
0.0
 11
86.73198132360147
 21
114.7432736891884
 31
0.0
 11
86.1118601524374
 21
114.7909742533099
 31
0.0
 11
85.5625368753491
 21
114.8419383469788
 31
0.0
 11
85.01417374797005
 21
114.9025911691483
 31
0.0
 11
84.5527087117261
 21
114.9631968422423
 31
0.0
 11
84.09274528915083
 21
115.0345018203112
 31
0.0
 11
83.7326952515614
 21
115.1024947022127
 31
0.0
 11
83.37549557697089
 21
115.1857939570436
 31
0.0
 11
83.12598158710856
 21
115.2559585098946
 31
0.0
 11
82.88099573899703
 21
115.3377198971158
 31
0.0
 11
82.74198104590039
 21
115.4106374421024
 31
0.0
 11
82.61694042200035
 21
115.5240523289166
 31
0.0
 11
82.58643577432409
 21
115.570103276449
 31
0.0
 11
82.57626755844943
 21
115.6161542239518
 31
0.0
  0
ARC
  5
134
330
50
100
AcDbEntity
  8
1
  6
Continuous
 62
     7
100
AcDbCircle
 10
48.32626755844955
 20
147.1545026392734
 30
0.0
 40
30.00000000000005
100
AcDbArc
 50
351.2539867167446
 51
0.0
  0
ARC
  5
135
330
50
100
AcDbEntity
  8
1
  6
Continuous
 62
     7
100
AcDbCircle
 10
133.3262675584496
 20
147.1545026392711
 30
0.0
 40
29.99999999999989
100
AcDbArc
 50
180.0
 51
188.7460132832524
  0
ENDBLK
  5
52
330
50
100
AcDbEntity
  8
0
100
AcDbBlockEnd
  0
BLOCK
  5
54
330
53
100
AcDbEntity
  8
0
100
AcDbBlockBegin
  2
81-100K
 70
     0
 10
503.7400229344021
 20
330.9582757173827
 30
0.0
  3
81-100K
  1

  0
LINE
  5
136
330
53
100
AcDbEntity
  8
1
  6
Continuous
 62
     7
100
AcDbLine
 10
75.32626755844944
 20
162.6161542239504
 30
0.0
 11
106.3262675584494
 21
162.6161542239504
 31
0.0
  0
LINE
  5
137
330
53
100
AcDbEntity
  8
1
  6
Continuous
 62
     7
100
AcDbLine
 10
106.3262675584494
 20
175.1161542239503
 30
0.0
 11
106.3262675584494
 21
162.6161542239504
 31
0.0
  0
LINE
  5
138
330
53
100
AcDbEntity
  8
1
  6
Continuous
 62
     7
100
AcDbLine
 10
75.32626755844944
 20
175.1161542239503
 30
0.0
 11
75.32626755844944
 21
162.6161542239504
 31
0.0
  0
LINE
  5
139
330
53
100
AcDbEntity
  8
1
  6
Continuous
 62
     7
100
AcDbLine
 10
170.1739393313006
 20
168.2837417079583
 30
0.0
 11
170.1739393313007
 21
162.8161542239518
 31
0.0
  0
LINE
  5
13A
330
53
100
AcDbEntity
  8
1
  6
Continuous
 62
     7
100
AcDbLine
 10
201.1739393313007
 20
172.5358546527117
 30
0.0
 11
201.1739393313007
 21
162.8161542239518
 31
0.0
  0
LINE
  5
13B
330
53
100
AcDbEntity
  8
1
  6
Continuous
 62
     7
100
AcDbLine
 10
170.1739393313006
 20
175.1161542239517
 30
0.0
 11
170.1739393313006
 21
168.2837417079583
 31
0.0
  0
LINE
  5
13C
330
53
100
AcDbEntity
  8
1
  6
Continuous
 62
     7
100
AcDbLine
 10
201.1739393313007
 20
175.1161542239517
 30
0.0
 11
201.1739393313007
 21
172.5358546527117
 31
0.0
  0
LINE
  5
13D
330
53
100
AcDbEntity
  8
1
  6
Continuous
 62
     7
100
AcDbLine
 10
170.373939331301
 20
162.6161542239518
 30
0.0
 11
200.9739393313008
 21
162.6161542239518
 31
0.0
  0
LINE
  5
13E
330
53
100
AcDbEntity
  8
1
  6
PHANTOM
 62
     5
100
AcDbLine
 10
121.8262675584493
 20
283.4638259968031
 30
0.0
 11
108.3262675584494
 21
283.4638259968031
 31
0.0
  0
LINE
  5
13F
330
53
100
AcDbEntity
  8
1
  6
PHANTOM
 62
     5
100
AcDbLine
 10
121.8262675584493
 20
275.463825996803
 30
0.0
 11
108.3262675584494
 21
275.463825996803
 31
0.0
  0
LINE
  5
140
330
53
100
AcDbEntity
  8
1
  6
Continuous
 62
     7
100
AcDbLine
 10
94.8262675584494
 20
263.9638259968031
 30
0.0
 11
94.8262675584494
 21
264.4888468649312
 31
0.0
  0
LINE
  5
141
330
53
100
AcDbEntity
  8
1
  6
Continuous
 62
     7
100
AcDbLine
 10
86.82626755844935
 20
263.9638259968031
 30
0.0
 11
86.82626755844935
 21
264.4888468649312
 31
0.0
  0
LINE
  5
142
330
53
100
AcDbEntity
  8
1
  6
Continuous
 62
     7
100
AcDbLine
 10
94.8262675584494
 20
263.9638259968031
 30
0.0
 11
94.8262675584494
 21
263.9638259968055
 31
0.0
  0
LINE
  5
143
330
53
100
AcDbEntity
  8
1
  6
Continuous
 62
     7
100
AcDbLine
 10
94.8262675584494
 20
248.4638259968032
 30
0.0
 11
94.8262675584494
 21
263.9638259968031
 31
0.0
  0
LINE
  5
144
330
53
100
AcDbEntity
  8
1
  6
Continuous
 62
     7
100
AcDbLine
 10
86.82626755844935
 20
248.4638259968032
 30
0.0
 11
86.82626755844935
 21
263.9638259968031
 31
0.0
  0
LINE
  5
145
330
53
100
AcDbEntity
  8
1
  6
Continuous
 62
     7
100
AcDbLine
 10
94.82626755844943
 20
295.4638259968031
 30
0.0
 11
94.82626755844943
 21
294.4388051286749
 31
0.0
  0
LINE
  5
146
330
53
100
AcDbEntity
  8
1
  6
Continuous
 62
     7
100
AcDbLine
 10
86.82626755844943
 20
295.4638259968031
 30
0.0
 11
86.82626755844943
 21
294.4388051286751
 31
0.0
  0
ARC
  5
147
330
53
100
AcDbEntity
  8
1
  6
Continuous
 62
     7
100
AcDbCircle
 10
-5.1737324415506
 20
179.6161542239506
 30
0.0
 40
100.0
100
AcDbArc
 50
0.0
 51
4.33382936637408
  0
ARC
  5
148
330
53
100
AcDbEntity
  8
1
  6
Continuous
 62
     7
100
AcDbCircle
 10
90.82626755844943
 20
186.8914351228283
 30
0.0
 40
3.724719101121593
100
AcDbArc
 50
90.0
 51
175.6661706336259
  0
ARC
  5
149
330
53
100
AcDbEntity
  8
1
  6
Continuous
 62
     7
100
AcDbCircle
 10
186.8262675584497
 20
179.6161542239506
 30
0.0
 40
100.0000000000002
100
AcDbArc
 50
175.6661706336259
 51
180.0
  0
ARC
  5
14A
330
53
100
AcDbEntity
  8
1
  6
Continuous
 62
     7
100
AcDbCircle
 10
-5.1737324415506
 20
179.6161542239506
 30
0.0
 40
100.0000000000001
100
AcDbArc
 50
355.6661706336255
 51
0.0
  0
ARC
  5
14B
330
53
100
AcDbEntity
  8
1
  6
Continuous
 62
     7
100
AcDbCircle
 10
90.82626755844943
 20
172.3408733250724
 30
0.0
 40
3.72471910112381
100
AcDbArc
 50
270.0
 51
355.6661706336226
  0
ARC
  5
14C
330
53
100
AcDbEntity
  8
1
  6
Continuous
 62
     7
100
AcDbCircle
 10
186.8262675584497
 20
179.6161542239506
 30
0.0
 40
100.0
100
AcDbArc
 50
180.0
 51
184.3338293663745
  0
ARC
  5
14D
330
53
100
AcDbEntity
  8
1
  6
Continuous
 62
     7
100
AcDbCircle
 10
90.82626755844943
 20
172.3408733250724
 30
0.0
 40
3.724719101123406
100
AcDbArc
 50
184.3338293663776
 51
270.0
  0
ARC
  5
14E
330
53
100
AcDbEntity
  8
1
  6
Continuous
 62
     7
100
AcDbCircle
 10
90.82626755844943
 20
186.8914351228283
 30
0.0
 40
3.724719101123559
100
AcDbArc
 50
4.3338293663739
 51
90.0
  0
ARC
  5
14F
330
53
100
AcDbEntity
  8
1
  6
Continuous
 62
     7
100
AcDbCircle
 10
90.82626755844943
 20
175.1161542239503
 30
0.0
 40
15.49999999999997
100
AcDbArc
 50
0.0
 51
180.0
  0
ARC
  5
150
330
53
100
AcDbEntity
  8
1
  6
Continuous
 62
     7
100
AcDbCircle
 10
185.6739393313007
 20
175.1161542239518
 30
0.0
 40
15.5
100
AcDbArc
 50
90.0
 51
99.36885182365522
  0
ARC
  5
151
330
53
100
AcDbEntity
  8
1
  6
Continuous
 62
     7
100
AcDbCircle
 10
185.6739393313007
 20
175.1161542239518
 30
0.0
 40
15.5
100
AcDbArc
 50
359.9999999999996
 51
61.4977761969174
  0
ARC
  5
152
330
53
100
AcDbEntity
  8
1
  6
Continuous
 62
     7
100
AcDbCircle
 10
185.6739393313007
 20
175.1161542239518
 30
0.0
 40
15.50000000000009
100
AcDbArc
 50
61.4977761969174
 51
90.0
  0
ARC
  5
153
330
53
100
AcDbEntity
  8
1
  6
Continuous
 62
     7
100
AcDbCircle
 10
185.6739393313007
 20
175.1161542239518
 30
0.0
 40
15.50000000000001
100
AcDbArc
 50
99.36885182365522
 51
180.0000000000004
  0
ARC
  5
154
330
53
100
AcDbEntity
  8
1
  6
Continuous
 62
     7
100
AcDbCircle
 10
198.6739393313007
 20
179.6161542239517
 30
0.0
 40
7.0
100
AcDbArc
 50
0.0
 51
47.37714539218306
  0
ARC
  5
155
330
53
100
AcDbEntity
  8
1
  6
Continuous
 62
     7
100
AcDbCircle
 10
178.1739393313008
 20
130.6161542239517
 30
0.0
 40
60.00000000000013
100
AcDbArc
 50
66.58728051639265
 51
75.62455135571636
  0
ARC
  5
156
330
53
100
AcDbEntity
  8
1
  6
Continuous
 62
     7
100
AcDbCircle
 10
198.6739393313007
 20
179.6161542239517
 30
0.0
 40
7.00000000000012
100
AcDbArc
 50
312.622854607817
 51
0.0
  0
ARC
  5
157
330
53
100
AcDbEntity
  8
1
  6
Continuous
 62
     7
100
AcDbCircle
 10
178.1739393313008
 20
228.6161542239517
 30
0.0
 40
59.99999999999993
100
AcDbArc
 50
246.5872805163921
 51
261.5155502586235
  0
ARC
  5
158
330
53
100
AcDbEntity
  8
1
  6
Continuous
 62
     7
100
AcDbCircle
 10
157.6739393313007
 20
179.6161542239517
 30
0.0
 40
6.999999999999801
100
AcDbArc
 50
180.0
 51
227.3771453921678
  0
ARC
  5
159
330
53
100
AcDbEntity
  8
1
  6
Continuous
 62
     7
100
AcDbCircle
 10
178.1739393313008
 20
228.6161542239517
 30
0.0
 40
59.99999999999986
100
AcDbArc
 50
293.1688797851185
 51
293.4127194836073
  0
ARC
  5
15A
330
53
100
AcDbEntity
  8
1
  6
Continuous
 62
     7
100
AcDbCircle
 10
178.1739393313008
 20
130.6161542239517
 30
0.0
 40
60.0
100
AcDbArc
 50
90.0
 51
113.4127194836066
  0
ARC
  5
15B
330
53
100
AcDbEntity
  8
1
  6
Continuous
 62
     7
100
AcDbCircle
 10
157.6739393313007
 20
179.6161542239517
 30
0.0
 40
6.999999999999807
100
AcDbArc
 50
132.6228546078032
 51
180.0
  0
ARC
  5
15C
330
53
100
AcDbEntity
  8
1
  6
Continuous
 62
     7
100
AcDbCircle
 10
178.1739393313008
 20
130.6161542239517
 30
0.0
 40
59.99999999999999
100
AcDbArc
 50
85.2420766648554
 51
90.0
  0
ARC
  5
15D
330
53
100
AcDbEntity
  8
1
  6
PHANTOM
 62
     5
100
AcDbCircle
 10
74.82626755844933
 20
279.4638259968031
 30
0.0
 40
3.99999999999989
100
AcDbArc
 50
100.0000000000013
 51
259.999999999999
  0
ARC
  5
15E
330
53
100
AcDbEntity
  8
1
  6
PHANTOM
 62
     5
100
AcDbCircle
 10
121.8262675584493
 20
279.4638259968031
 30
0.0
 40
4.000000000000114
100
AcDbArc
 50
270.0
 51
90.0
  0
ARC
  5
15F
330
53
100
AcDbEntity
  8
1
  6
Continuous
 62
     7
100
AcDbCircle
 10
90.82626755844943
 20
295.4638259968031
 30
0.0
 40
4.0
100
AcDbArc
 50
0.0
 51
180.0
  0
ARC
  5
160
330
53
100
AcDbEntity
  8
1
  6
Continuous
 62
     7
100
AcDbCircle
 10
90.8262675584494
 20
279.4638259968031
 30
0.0
 40
15.50000000000003
100
AcDbArc
 50
104.9552483166432
 51
255.0447516833565
  0
ARC
  5
161
330
53
100
AcDbEntity
  8
1
  6
Continuous
 62
     7
100
AcDbCircle
 10
90.8262675584494
 20
279.4638259968031
 30
0.0
 40
15.49999999999998
100
AcDbArc
 50
284.9552483166433
 51
75.04475168335644
  0
ARC
  5
162
330
53
100
AcDbEntity
  8
1
  6
Continuous
 62
     7
100
AcDbCircle
 10
90.8262675584494
 20
248.4638259968032
 30
0.0
 40
4.000000000000057
100
AcDbArc
 50
180.0
 51
0.0
  0
SPLINE
  5
163
330
53
100
AcDbEntity
  8
1
  6
Continuous
 62
     7
100
AcDbSpline
210
0.0
220
0.0
230
1.0
 70
     8
 71
     3
 72
    27
 73
    23
 74
    21
 42
0.000000001
 43
0.0000000001
 44
0.00000001
 40
0.0
 40
0.0
 40
0.0
 40
0.0
 40
0.3521433567561272
 40
0.7044480106677278
 40
1.400800675077353
 40
2.097184225501784
 40
2.769838294033708
 40
3.442561383172285
 40
4.077219721058829
 40
4.712002505240311
 40
5.296741623802384
 40
5.881694777238859
 40
6.408245068039317
 40
6.935160786667891
 40
7.400656982103088
 40
7.866768373608849
 40
8.276154744419237
 40
8.686465288213471
 40
9.055039980231104
 40
9.424428423782858
 40
9.778116410379646
 40
10.13180439006604
 40
10.13180439006604
 40
10.13180439006604
 40
10.13180439006604
 10
94.82626755844943
 20
294.9638259968031
 30
0.0
 10
94.82553645505135
 20
294.8464424791513
 30
0.0
 10
94.82407390864097
 20
294.6116216770911
 30
0.0
 10
94.80862824579356
 20
294.1448963360489
 30
0.0
 10
94.77125900178082
 20
293.5642386058561
 30
0.0
 10
94.69699238902325
 20
292.8795561781794
 30
0.0
 10
94.59291661398257
 20
292.2067432159134
 30
0.0
 10
94.46187808557232
 20
291.5595978173197
 30
0.0
 10
94.30176222328392
 20
290.9320520773517
 30
0.0
 10
94.11806505939359
 20
290.3415776059263
 30
0.0
 10
93.90646842725738
 20
289.7781894181524
 30
0.0
 10
93.67571071285539
 20
289.2615314379314
 30
0.0
 10
93.41860432785671
 20
288.7792118697466
 30
0.0
 10
93.1473304227164
 20
288.3509739251058
 30
0.0
 10
92.85175333564476
 20
287.9641825443488
 30
0.0
 10
92.54662795681463
 20
287.6363240103436
 30
0.0
 10
92.2202360743686
 20
287.3569778619874
 30
0.0
 10
91.8873067600046
 20
287.1401367575833
 30
0.0
 10
91.53856142625922
 20
286.978302944279
 30
0.0
 10
91.18559432573748
 20
286.8843968533006
 30
0.0
 10
90.82579997690706
 20
286.8463594282623
 30
0.0
 10
90.59130485608443
 20
286.8771950815511
 30
0.0
 10
90.47405729701343
 20
286.8926129132186
 30
0.0
 11
94.82626755844943
 21
294.9638259968031
 31
0.0
 11
94.8224987393001
 21
294.6117028181081
 31
0.0
 11
94.81119228185207
 21
294.2595796394129
 31
0.0
 11
94.76619620356468
 21
293.564682246903
 31
0.0
 11
94.69082010455345
 21
292.8723900448648
 31
0.0
 11
94.58780608994633
 21
292.2076708494899
 31
0.0
 11
94.45372976471162
 21
291.5484441103117
 31
0.0
 11
94.2964958418295
 21
290.9335711971777
 31
0.0
 11
94.10709679497748
 21
290.3277022475814
 31
0.0
 11
93.90100431032816
 21
289.7804859060172
 31
0.0
 11
93.66133686429595
 21
289.2468852061265
 31
0.0
 11
93.41295896524457
 21
288.7825969035724
 31
0.0
 11
93.12962935820283
 21
288.3383396491031
 31
0.0
 11
92.84609066859258
 21
287.9691614817056
 31
0.0
 11
92.5271931827245
 21
287.6292140996738
 31
0.0
 11
92.21508560729102
 21
287.3642875783661
 31
0.0
 11
91.87052656364068
 21
287.1415011169247
 31
0.0
 11
91.53519675506563
 21
286.9885265353275
 31
0.0
 11
91.17847781988522
 21
286.8926129132186
 31
0.0
 11
90.82626755844936
 21
286.8603154686681
 31
0.0
 11
90.47405729701343
 21
286.8926129132186
 31
0.0
  0
SPLINE
  5
164
330
53
100
AcDbEntity
  8
1
  6
Continuous
 62
     7
100
AcDbSpline
210
0.0
220
0.0
230
1.0
 70
     8
 71
     3
 72
    25
 73
    21
 74
    19
 42
0.000000001
 43
0.0000000001
 44
0.00000001
 40
0.0
 40
0.0
 40
0.0
 40
0.0
 40
0.3693884349422069
 40
0.7379631240430742
 40
1.148273668939884
 40
1.557660040225585
 40
2.023771432016828
 40
2.489267627625382
 40
3.016183346391002
 40
3.542733637288843
 40
4.127686790808927
 40
4.712425909433129
 40
5.347208693667206
 40
5.981867031589471
 40
6.654590120750271
 40
7.327244189277626
 40
8.023627739649637
 40
8.719980403846542
 40
9.072285057531866
 40
9.424428414581593
 40
9.424428414581593
 40
9.424428414581593
 40
9.424428414581593
 10
90.47405729701343
 20
286.8926129132186
 30
0.0
 10
90.35375998259055
 20
286.9203473256172
 30
0.0
 10
90.11343036743114
 20
286.9757550657226
 30
0.0
 10
89.7653922100881
 20
287.1409051494457
 30
0.0
 10
89.43225347869915
 20
287.3567642000082
 30
0.0
 10
89.10592124577879
 20
287.6363900758027
 30
0.0
 10
88.80077782132851
 20
287.9641639866871
 30
0.0
 10
88.50520590754529
 20
288.350979627872
 30
0.0
 10
88.2339304449293
 20
288.7792102689499
 30
0.0
 10
87.97682450399796
 20
289.2615319195723
 30
0.0
 10
87.7460666582218
 20
289.7781892836533
 30
0.0
 10
87.53447006319641
 20
290.3415776453322
 30
0.0
 10
87.35077288861379
 20
290.9320520664742
 30
0.0
 10
87.19065702936635
 20
291.5595978205199
 30
0.0
 10
87.0596185001616
 20
292.2067432151691
 30
0.0
 10
86.95554272541821
 20
292.8795561785271
 30
0.0
 10
86.88127611271814
 20
293.5642386058221
 30
0.0
 10
86.843906868843
 20
294.1448963359353
 30
0.0
 10
86.82846120673625
 20
294.6116216769598
 30
0.0
 10
86.82699866184804
 20
294.8464424790541
 30
0.0
 10
86.82626755844943
 20
294.9638259968044
 30
0.0
 11
90.47405729701343
 21
286.8926129132186
 31
0.0
 11
90.11733836183292
 21
286.9885265353275
 31
0.0
 11
89.78200855325797
 21
287.1415011169247
 31
0.0
 11
89.43744950960773
 21
287.3642875783661
 31
0.0
 11
89.12534193417414
 21
287.6292140996738
 31
0.0
 11
88.80644444830594
 21
287.9691614817056
 31
0.0
 11
88.52290575869574
 21
288.3383396491031
 31
0.0
 11
88.23957615165413
 21
288.7825969035724
 31
0.0
 11
87.99119825260271
 21
289.2468852061265
 31
0.0
 11
87.75153080657036
 21
289.7804859060172
 31
0.0
 11
87.54543832192108
 21
290.3277022475813
 31
0.0
 11
87.35603927506918
 21
290.9335711971776
 31
0.0
 11
87.1988053521871
 21
291.5484441103116
 31
0.0
 11
87.06472902695245
 21
292.2076708494898
 31
0.0
 11
86.96171501234538
 21
292.8723900448648
 31
0.0
 11
86.88633891333423
 21
293.564682246903
 31
0.0
 11
86.84134283504682
 21
294.259579639413
 31
0.0
 11
86.83003637759877
 21
294.6117028181087
 31
0.0
 11
86.82626755844943
 21
294.9638259968044
 31
0.0
  0
SPLINE
  5
165
330
53
100
AcDbEntity
  8
1
  6
Continuous
 62
     7
100
AcDbSpline
210
0.0
220
0.0
230
1.0
 70
     8
 71
     3
 72
    27
 73
    23
 74
    21
 42
0.000000001
 43
0.0000000001
 44
0.00000001
 40
0.0
 40
0.0
 40
0.0
 40
0.0
 40
0.5635691099583311
 40
1.127238557117207
 40
2.238983738624168
 40
3.350752159096017
 40
4.416730897015613
 40
5.482762972378697
 40
6.474560141235814
 40
7.466461889391929
 40
8.358933083414795
 40
9.251594011154099
 40
10.02462150576409
 40
10.79808402885564
 40
11.43923201099738
 40
12.08113212820466
 40
12.59132663089548
 40
13.10432938414693
 40
13.5084392073108
 40
13.91674533165421
 40
14.27825507390665
 40
14.63976480459903
 40
14.63976480459903
 40
14.63976480459903
 40
14.63976480459903
 10
94.8262675584494
 20
263.9638259968055
 30
0.0
 10
94.8255376856306
 20
264.1516838351374
 30
0.0
 10
94.82407781268404
 20
264.5274329578118
 30
0.0
 10
94.80869729279385
 20
265.2736320146375
 30
0.0
 10
94.7713902078156
 20
266.2020545496184
 30
0.0
 10
94.69745742960394
 20
267.2962058361375
 30
0.0
 10
94.59357959801137
 20
268.3726075912885
 30
0.0
 10
94.46327145977062
 20
269.4058675648731
 30
0.0
 10
94.30349542366861
 20
270.4099787511851
 30
0.0
 10
94.12123526088016
 20
271.3514515382445
 30
0.0
 10
93.9101752629982
 20
272.2529615581129
 30
0.0
 10
93.68214826633414
 20
273.074975988567
 30
0.0
 10
93.42587231327425
 20
273.8468811018102
 30
0.0
 10
93.15963597448598
 20
274.5263495851703
 30
0.0
 10
92.86529185715493
 20
275.1459416230398
 30
0.0
 10
92.56853586043059
 20
275.6659631174844
 30
0.0
 10
92.24276007451684
 20
276.1165590457663
 30
0.0
 10
91.9190076025697
 20
276.4673538916138
 30
0.0
 10
91.56512009218208
 20
276.7376078437609
 30
0.0
 10
91.20372756938022
 20
276.8943493110786
 30
0.0
 10
90.82513012121044
 20
276.9652468990636
 30
0.0
 10
90.58772180797804
 20
276.9119181005348
 30
0.0
 10
90.4690176524394
 20
276.885253705162
 30
0.0
 11
94.8262675584494
 21
263.9638259968055
 31
0.0
 11
94.82250731985411
 21
264.5273825523026
 31
0.0
 11
94.81122660406835
 21
265.0909391077996
 31
0.0
 11
94.76633757193292
 21
266.2017776755125
 31
0.0
 11
94.69100895092191
 21
267.310991189497
 31
0.0
 11
94.58841633394003
 21
268.3720215493778
 31
0.0
 11
94.4542791955232
 21
269.4295808213425
 31
0.0
 11
94.29805679520807
 21
270.408997068755
 31
0.0
 11
94.10833854513504
 21
271.382586337108
 31
0.0
 11
93.90432892239133
 21
272.2514274651903
 31
0.0
 11
93.66386351160156
 21
273.1110901420202
 31
0.0
 11
93.41949107060037
 21
273.8444751823013
 31
0.0
 11
93.13447144272868
 21
274.5635079257017
 31
0.0
 11
92.85823639336787
 21
275.1420966675942
 31
0.0
 11
92.53595259690218
 21
275.6972263052582
 31
0.0
 11
92.23537796810339
 21
276.1094802594271
 31
0.0
 11
91.88277975677089
 21
276.4821011466665
 31
0.0
 11
91.55802939433501
 21
276.7226046823565
 31
0.0
 11
91.18351746445913
 21
276.885253705162
 31
0.0
 11
90.8262675584493
 21
276.9405872001157
 31
0.0
 11
90.4690176524394
 21
276.885253705162
 31
0.0
  0
SPLINE
  5
166
330
53
100
AcDbEntity
  8
1
  6
Continuous
 62
     7
100
AcDbSpline
210
0.0
220
0.0
230
1.0
 70
     8
 71
     3
 72
    25
 73
    21
 74
    19
 42
0.000000001
 43
0.0000000001
 44
0.00000001
 40
0.0
 40
0.0
 40
0.0
 40
0.0
 40
0.4083061153381803
 40
0.8124159427216241
 40
1.325418696420749
 40
1.835613199235119
 40
2.477513316534708
 40
3.118661298731219
 40
3.89212382187394
 40
4.665151316520188
 40
5.557812244293845
 40
6.450283438342296
 40
7.442185186521621
 40
8.433982355394548
 40
9.500014430768376
 40
10.56599316868588
 40
11.67776158913194
 40
12.78950677050822
 40
13.35317621738037
 40
13.9167453263575
 40
13.9167453263575
 40
13.9167453263575
 40
13.9167453263575
 10
90.4690176524394
 20
276.885253705162
 30
0.0
 10
90.34086941852605
 20
276.8372177968271
 30
0.0
 10
90.08588996732406
 20
276.7416396664691
 30
0.0
 10
89.73405789535502
 20
276.465951702911
 30
0.0
 10
89.40962107569864
 20
276.1169660807077
 30
0.0
 10
89.0840523724113
 20
275.665822682681
 30
0.0
 10
88.78722779075365
 20
275.1459825081064
 30
0.0
 10
88.4929042406292
 20
274.5263360963696
 30
0.0
 10
88.22666133469937
 20
273.846884974897
 30
0.0
 10
87.97038730781335
 20
273.0749747695346
 30
0.0
 10
87.7423597202399
 20
272.2529619014161
 30
0.0
 10
87.53129989203184
 20
271.3514514330967
 30
0.0
 10
87.34903967906168
 20
270.4099787788053
 30
0.0
 10
87.18926365715225
 20
269.4058675550804
 30
0.0
 10
87.05895551487384
 20
268.3726075922149
 30
0.0
 10
86.95507768451141
 20
267.2962058340939
 30
0.0
 10
86.88114490575899
 20
266.2020545484606
 30
0.0
 10
86.84383782174166
 20
265.2736320134161
 30
0.0
 10
86.82845730024968
 20
264.5274329570894
 30
0.0
 10
86.82699743126634
 20
264.1516838348093
 30
0.0
 10
86.82626755844935
 20
263.9638259968031
 30
0.0
 11
90.4690176524394
 21
276.885253705162
 31
0.0
 11
90.0945057225636
 21
276.7226046823565
 31
0.0
 11
89.76975536012775
 21
276.4821011466665
 31
0.0
 11
89.41715714879523
 21
276.1094802594271
 31
0.0
 11
89.11658251999637
 21
275.6972263052583
 31
0.0
 11
88.7942987235306
 21
275.1420966675942
 31
0.0
 11
88.51806367416984
 21
274.5635079257016
 31
0.0
 11
88.23304404629813
 21
273.8444751823012
 31
0.0
 11
87.9886716052969
 21
273.1110901420201
 31
0.0
 11
87.74820619450706
 21
272.2514274651903
 31
0.0
 11
87.54419657176334
 21
271.3825863371081
 31
0.0
 11
87.35447832169041
 21
270.408997068755
 31
0.0
 11
87.19825592137542
 21
269.4295808213426
 31
0.0
 11
87.06411878295863
 21
268.3720215493778
 31
0.0
 11
86.96152616597664
 21
267.3109911894971
 31
0.0
 11
86.88619754496555
 21
266.2017776755125
 31
0.0
 11
86.84130851283024
 21
265.0909391077997
 31
0.0
 11
86.83002779704456
 21
264.5273825523015
 31
0.0
 11
86.82626755844935
 21
263.9638259968031
 31
0.0
  0
ARC
  5
167
330
53
100
AcDbEntity
  8
1
  6
Continuous
 62
     7
100
AcDbCircle
 10
202.1739393313007
 20
172.5358546527117
 30
0.0
 40
1.000000000000265
100
AcDbArc
 50
113.1688797851108
 51
180.0
  0
ARC
  5
168
330
53
100
AcDbEntity
  8
1
  6
Continuous
 62
     7
100
AcDbCircle
 10
200.0282784037706
 20
178.1445001624338
 30
0.0
 40
5.000000000000047
100
AcDbArc
 50
293.412719483609
 51
312.6228546078166
  0
ARC
  5
169
330
53
100
AcDbEntity
  8
1
  6
Continuous
 62
     7
100
AcDbCircle
 10
200.0282784037706
 20
181.0878082854695
 30
0.0
 40
4.999999999999998
100
AcDbArc
 50
47.37714539218422
 51
66.58728051639113
  0
ARC
  5
16A
330
53
100
AcDbEntity
  8
1
  6
Continuous
 62
     7
100
AcDbCircle
 10
200.9739393313008
 20
162.8161542239518
 30
0.0
 40
0.1999999999999886
100
AcDbArc
 50
270.0
 51
0.0
  0
ARC
  5
16B
330
53
100
AcDbEntity
  8
1
  6
Continuous
 62
     7
100
AcDbCircle
 10
170.373939331301
 20
162.8161542239518
 30
0.0
 40
0.2000000000003013
100
AcDbArc
 50
180.0
 51
270.0
  0
ARC
  5
16C
330
53
100
AcDbEntity
  8
1
  6
Continuous
 62
     7
100
AcDbCircle
 10
169.1739393313006
 20
168.2837417079583
 30
0.0
 40
1.0
100
AcDbArc
 50
0.0
 51
81.5155502586215
  0
ARC
  5
16D
330
53
100
AcDbEntity
  8
1
  6
Continuous
 62
     7
100
AcDbCircle
 10
156.3196002588306
 20
178.1445001624343
 30
0.0
 40
4.999999999999997
100
AcDbArc
 50
227.3771453921674
 51
246.5872805163901
  0
ARC
  5
16E
330
53
100
AcDbEntity
  8
1
  6
Continuous
 62
     7
100
AcDbCircle
 10
156.3196002588314
 20
181.0878082854698
 30
0.0
 40
4.999999999999799
100
AcDbArc
 50
113.4127194836049
 51
132.6228546078042
  0
ENDBLK
  5
55
330
53
100
AcDbEntity
  8
0
100
AcDbBlockEnd
  0
BLOCK
  5
58
330
56
100
AcDbEntity
  8
0
100
AcDbBlockBegin
  2
81-100X-M21
 70
     0
 10
415.0584073304066
 20
1.4114401015036
 30
0.0
  3
81-100X-M21
  1

  0
INSERT
  5
57
330
56
100
AcDbEntity
  8
0
100
AcDbBlockReference
  2
81-100K
 10
503.7400229344021
 20
330.9582757173827
 30
0.0
  0
ENDBLK
  5
59
330
56
100
AcDbEntity
  8
0
100
AcDbBlockEnd
  0
BLOCK
  5
1A3
330
19C
100
AcDbEntity
  8
0
100
AcDbBlockBegin
  2
*D7
 70
     1
 10
0.0
 20
0.0
 30
0.0
  3
*D7
  1

  0
LINE
  5
19D
330
19C
100
AcDbEntity
  8
1
  6
Continuous
 62
     2
100
AcDbLine
 10
261.6739393313006
 20
99.6107321408593
 30
0.0
 11
275.6739393313006
 21
99.6107321408593
 31
0.0
  0
LINE
  5
19E
330
19C
100
AcDbEntity
  8
1
  6
Continuous
 62
     2
100
AcDbLine
 10
275.6739393313006
 20
99.6107321408593
 30
0.0
 11
284.6739393313006
 21
99.6107321408593
 31
0.0
  0
LINE
  5
19F
330
19C
100
AcDbEntity
  8
1
  6
Continuous
 62
     2
100
AcDbLine
 10
275.6739393313006
 20
131.1161542239518
 30
0.0
 11
275.6739393313006
 21
98.1107321408593
 31
0.0
  0
LINE
  5
1A0
330
19C
100
AcDbEntity
  8
1
  6
Continuous
 62
     2
100
AcDbLine
 10
261.6739393313006
 20
117.6161542239518
 30
0.0
 11
261.6739393313006
 21
98.1107321408593
 31
0.0
  0
SOLID
  5
1A1
330
19C
100
AcDbEntity
  8
1
 62
     2
100
AcDbTrace
 10
280.1739393313006
 20
100.2031683800026
 30
0.0
 11
280.1739393313006
 21
99.01829590171602
 31
0.0
 12
275.6739393313006
 22
99.6107321408593
 32
0.0
 13
275.6739393313006
 23
99.6107321408593
 33
0.0
  0
MTEXT
  5
1A2
330
19C
100
AcDbEntity
  8
1
 62
     7
100
AcDbMText
 10
265.5239393313005
 20
101.1107321408593
 30
0.0
 40
5.25
 41
0.0
 71
     7
 72
     1
  1
14
  7
CONVERTER_12
 11
0.9999999999970619
 21
2.424068405545306E-6
 31
0.0
 73
     1
 44
0.60024009603842
  0
ENDBLK
  5
1A4
330
19C
100
AcDbEntity
  8
0
100
AcDbBlockEnd
  0
BLOCK
  5
1A6
330
1A5
100
AcDbEntity
  8
0
100
AcDbBlockBegin
  2
_NONE
 70
     0
 10
0.0
 20
0.0
 30
0.0
  3
_NONE
  1

  0
ENDBLK
  5
1A7
330
1A5
100
AcDbEntity
  8
0
100
AcDbBlockEnd
  0
BLOCK
  5
1B1
330
1AA
100
AcDbEntity
  8
0
100
AcDbBlockBegin
  2
*D9
 70
     1
 10
0.0
 20
0.0
 30
0.0
  3
*D9
  1

  0
LINE
  5
1AB
330
1AA
100
AcDbEntity
  8
1
  6
Continuous
 62
     2
100
AcDbLine
 10
127.4854335802597
 20
140.6161542239519
 30
0.0
 11
127.4854335802597
 21
190.6161542239518
 31
0.0
  0
LINE
  5
1AC
330
1AA
100
AcDbEntity
  8
1
  6
Continuous
 62
     2
100
AcDbLine
 10
178.1739393313008
 20
190.6161542239518
 30
0.0
 11
125.9854335802597
 21
190.6161542239518
 31
0.0
  0
LINE
  5
1AD
330
1AA
100
AcDbEntity
  8
1
  6
Continuous
 62
     2
100
AcDbLine
 10
140.6739393313007
 20
140.6161542239519
 30
0.0
 11
125.9854335802597
 21
140.6161542239519
 31
0.0
  0
SOLID
  5
1AE
330
1AA
100
AcDbEntity
  8
1
 62
     2
100
AcDbTrace
 10
126.7942579679259
 20
145.8661542239519
 30
0.0
 11
128.1766091925935
 21
145.8661542239519
 31
0.0
 12
127.4854335802597
 22
140.6161542239519
 32
0.0
 13
127.4854335802597
 23
140.6161542239519
 33
0.0
  0
SOLID
  5
1AF
330
1AA
100
AcDbEntity
  8
1
 62
     2
100
AcDbTrace
 10
128.1766091925935
 20
185.3661542239518
 30
0.0
 11
126.7942579679259
 21
185.3661542239518
 31
0.0
 12
127.4854335802597
 22
190.6161542239518
 32
0.0
 13
127.4854335802597
 23
190.6161542239518
 33
0.0
  0
MTEXT
  5
1B0
330
1AA
100
AcDbEntity
  8
1
 62
     7
100
AcDbMText
 10
125.9854335802597
 20
161.6786542239518
 30
0.0
 40
5.25
 41
0.0
 71
     7
 72
     1
  1
50
  7
CONVERTER_12
 11
0.0
 21
1.0
 31
0.0
 73
     1
 44
0.60024009603842
  0
ENDBLK
  5
1B2
330
1AA
100
AcDbEntity
  8
0
100
AcDbBlockEnd
  0
BLOCK
  5
1BC
330
1B5
100
AcDbEntity
  8
0
100
AcDbBlockBegin
  2
*D10
 70
     1
 10
0.0
 20
0.0
 30
0.0
  3
*D10
  1

  0
LINE
  5
1B6
330
1B5
100
AcDbEntity
  8
1
  6
Continuous
 62
     2
100
AcDbLine
 10
127.4854335802597
 20
115.6161542239518
 30
0.0
 11
127.4854335802597
 21
140.6161542239518
 31
0.0
  0
LINE
  5
1B7
330
1B5
100
AcDbEntity
  8
1
  6
Continuous
 62
     2
100
AcDbLine
 10
140.6739393313007
 20
140.6161542239518
 30
0.0
 11
125.9854335802597
 21
140.6161542239518
 31
0.0
  0
LINE
  5
1B8
330
1B5
100
AcDbEntity
  8
1
  6
Continuous
 62
     2
100
AcDbLine
 10
150.6739393313006
 20
115.6161542239518
 30
0.0
 11
125.9854335802597
 21
115.6161542239518
 31
0.0
  0
SOLID
  5
1B9
330
1B5
100
AcDbEntity
  8
1
 62
     2
100
AcDbTrace
 10
126.7942579679259
 20
120.8661542239518
 30
0.0
 11
128.1766091925935
 21
120.8661542239518
 31
0.0
 12
127.4854335802597
 22
115.6161542239518
 32
0.0
 13
127.4854335802597
 23
115.6161542239518
 33
0.0
  0
SOLID
  5
1BA
330
1B5
100
AcDbEntity
  8
1
 62
     2
100
AcDbTrace
 10
128.1766091925935
 20
135.3661542239518
 30
0.0
 11
126.7942579679259
 21
135.3661542239518
 31
0.0
 12
127.4854335802597
 22
140.6161542239518
 32
0.0
 13
127.4854335802597
 23
140.6161542239518
 33
0.0
  0
MTEXT
  5
1BB
330
1B5
100
AcDbEntity
  8
1
 62
     7
100
AcDbMText
 10
125.9854335802597
 20
124.1786542239518
 30
0.0
 40
5.25
 41
0.0
 71
     7
 72
     1
  1
25
  7
CONVERTER_12
 11
0.0
 21
1.0
 31
0.0
 73
     1
 44
0.60024009603842
  0
ENDBLK
  5
1BD
330
1B5
100
AcDbEntity
  8
0
100
AcDbBlockEnd
  0
BLOCK
  5
1C7
330
1C0
100
AcDbEntity
  8
0
100
AcDbBlockBegin
  2
*D11
 70
     1
 10
0.0
 20
0.0
 30
0.0
  3
*D11
  1

  0
LINE
  5
1C1
330
1C0
100
AcDbEntity
  8
1
  6
Continuous
 62
     2
100
AcDbLine
 10
150.6739393313006
 20
99.6107321408593
 30
0.0
 11
185.6739393313007
 21
99.6107321408593
 31
0.0
  0
LINE
  5
1C2
330
1C0
100
AcDbEntity
  8
1
  6
Continuous
 62
     2
100
AcDbLine
 10
185.6739393313007
 20
125.6161542239518
 30
0.0
 11
185.6739393313007
 21
98.1107321408593
 31
0.0
  0
LINE
  5
1C3
330
1C0
100
AcDbEntity
  8
1
  6
Continuous
 62
     2
100
AcDbLine
 10
150.6739393313006
 20
115.6161542239518
 30
0.0
 11
150.6739393313006
 21
98.1107321408593
 31
0.0
  0
SOLID
  5
1C4
330
1C0
100
AcDbEntity
  8
1
 62
     2
100
AcDbTrace
 10
155.9239393313006
 20
100.3019077531931
 30
0.0
 11
155.9239393313006
 21
98.91955652852548
 31
0.0
 12
150.6739393313006
 22
99.6107321408593
 32
0.0
 13
150.6739393313006
 23
99.6107321408593
 33
0.0
  0
SOLID
  5
1C5
330
1C0
100
AcDbEntity
  8
1
 62
     2
100
AcDbTrace
 10
180.4239393313007
 20
98.91955652852548
 30
0.0
 11
180.4239393313007
 21
100.3019077531931
 31
0.0
 12
185.6739393313007
 22
99.6107321408593
 32
0.0
 13
185.6739393313007
 23
99.6107321408593
 33
0.0
  0
MTEXT
  5
1C6
330
1C0
100
AcDbEntity
  8
1
 62
     7
100
AcDbMText
 10
164.2364393313006
 20
101.1107321408593
 30
0.0
 40
5.25
 41
0.0
 71
     7
 72
     1
  1
35
  7
CONVERTER_12
 11
0.9999999999970619
 21
2.424068405545306E-6
 31
0.0
 73
     1
 44
0.60024009603842
  0
ENDBLK
  5
1C8
330
1C0
100
AcDbEntity
  8
0
100
AcDbBlockEnd
  0
BLOCK
  5
1D2
330
1CB
100
AcDbEntity
  8
0
100
AcDbBlockBegin
  2
*D12
 70
     1
 10
0.0
 20
0.0
 30
0.0
  3
*D12
  1

  0
LINE
  5
1CC
330
1CB
100
AcDbEntity
  8
1
  6
Continuous
 62
     2
100
AcDbLine
 10
185.6739393313007
 20
99.6107321408593
 30
0.0
 11
261.6739393313006
 21
99.6107321408593
 31
0.0
  0
LINE
  5
1CD
330
1CB
100
AcDbEntity
  8
1
  6
Continuous
 62
     2
100
AcDbLine
 10
261.6739393313006
 20
117.6161542239518
 30
0.0
 11
261.6739393313006
 21
98.1107321408593
 31
0.0
  0
LINE
  5
1CE
330
1CB
100
AcDbEntity
  8
1
  6
Continuous
 62
     2
100
AcDbLine
 10
185.6739393313007
 20
125.6161542239518
 30
0.0
 11
185.6739393313007
 21
98.1107321408593
 31
0.0
  0
SOLID
  5
1CF
330
1CB
100
AcDbEntity
  8
1
 62
     2
100
AcDbTrace
 10
190.9239393313007
 20
100.3019077531931
 30
0.0
 11
190.9239393313007
 21
98.91955652852548
 31
0.0
 12
185.6739393313007
 22
99.6107321408593
 32
0.0
 13
185.6739393313007
 23
99.6107321408593
 33
0.0
  0
SOLID
  5
1D0
330
1CB
100
AcDbEntity
  8
1
 62
     2
100
AcDbTrace
 10
256.4239393313006
 20
98.91955652852548
 30
0.0
 11
256.4239393313006
 21
100.3019077531931
 31
0.0
 12
261.6739393313006
 22
99.6107321408593
 32
0.0
 13
261.6739393313006
 23
99.6107321408593
 33
0.0
  0
MTEXT
  5
1D1
330
1CB
100
AcDbEntity
  8
1
 62
     7
100
AcDbMText
 10
219.7364393313006
 20
101.1107321408593
 30
0.0
 40
5.25
 41
0.0
 71
     7
 72
     1
  1
76
  7
CONVERTER_12
 11
0.9999999999970619
 21
2.424068405545306E-6
 31
0.0
 73
     1
 44
0.60024009603842
  0
ENDBLK
  5
1D3
330
1CB
100
AcDbEntity
  8
0
100
AcDbBlockEnd
  0
BLOCK
  5
1DE
330
1D6
100
AcDbEntity
  8
0
100
AcDbBlockBegin
  2
*D13
 70
     1
 10
0.0
 20
0.0
 30
0.0
  3
*D13
  1

  0
LINE
  5
1D7
330
1D6
100
AcDbEntity
  8
1
  6
Continuous
 62
     2
100
AcDbLine
 10
148.7222219367683
 20
99.72069163337561
 30
0.0
 11
148.5394179216606
 21
98.23187240591363
 31
0.0
  0
LINE
  5
1D8
330
1D6
100
AcDbEntity
  8
1
  6
Continuous
 62
     2
100
AcDbLine
 10
150.6739393313006
 20
99.60131948373275
 30
0.0
 11
150.6739393313006
 21
98.10131948373275
 31
0.0
  0
LINE
  5
1D9
330
1D6
100
AcDbEntity
  8
1
  6
Continuous
 62
     2
100
AcDbLine
 10
150.2352096950421
 20
112.042988078043
 30
0.0
 11
148.7222219367683
 21
99.72069163337561
 31
0.0
  0
LINE
  5
1DA
330
1D6
100
AcDbEntity
  8
1
  6
Continuous
 62
     2
100
AcDbLine
 10
150.6739393313006
 20
112.042988078043
 30
0.0
 11
150.6739393313006
 21
99.60131948373275
 31
0.0
  0
ARC
  5
1DB
330
1D6
100
AcDbEntity
  8
1
  6
Continuous
 62
     2
100
AcDbCircle
 10
150.6739393313006
 20
115.6161542239518
 30
0.0
 40
16.01483474021905
100
AcDbArc
 50
234.8258557778072
 51
270.0
  0
SOLID
  5
1DC
330
1D6
100
AcDbEntity
  8
1
 62
     2
100
AcDbTrace
 10
143.4905528681778
 20
100.539142904887
 30
0.0
 11
143.8806484453746
 21
101.8653104467125
 31
0.0
 12
148.7222219367683
 22
99.72069163337561
 32
0.0
 13
148.7222219367683
 23
99.72069163337561
 33
0.0
  0
MTEXT
  5
1DD
330
1D6
100
AcDbEntity
  8
1
 62
     7
100
AcDbMText
 10
140.6425176116519
 20
104.5845558779083
 30
0.0
 40
5.25
 41
0.0
 71
     7
 72
     1
  1
7{\Fgdt;~}
  7
CONVERTER_12
 11
0.87418663305428
 21
-0.4855900849371019
 31
0.0
 73
     1
 44
0.60024009603842
  0
ENDBLK
  5
1DF
330
1D6
100
AcDbEntity
  8
0
100
AcDbBlockEnd
  0
ENDSEC
  0
SECTION
  2
ENTITIES
  0
INSERT
  5
5A
330
1F
100
AcDbEntity
  8
1
100
AcDbBlockReference
  2
開示A4
 10
0.0
 20
0.0
 30
0.0
 41
1.5
 42
1.5
 43
1.5
  0
INSERT
  5
5B
330
1F
100
AcDbEntity
  8
1
100
AcDbBlockReference
  2
Y205-0
 10
74.9896431314989
 20
40.37491258156891
 30
0.0
  0
INSERT
  5
5C
330
1F
100
AcDbEntity
  8
0
100
AcDbBlockReference
  2
75-26
 10
169.0650359733516
 20
74.7713568104607
 30
0.0
  0
INSERT
  5
5D
330
1F
100
AcDbEntity
  8
1
100
AcDbBlockReference
  2
Y105-0
 10
562.5
 20
284.0
 30
0.0
  0
INSERT
  5
5E
330
1F
100
AcDbEntity
  8
1
100
AcDbBlockReference
  2
81-100X-M21
 10
415.0584073304066
 20
1.4114401015036
 30
0.0
  0
LINE
  5
16F
330
1F
100
AcDbEntity
  8
1
  6
Continuous
 62
     7
100
AcDbLine
 10
246.6288083876352
 20
402.5346406957418
 30
0.0
 11
275.6288083876352
 21
402.5346406957418
 31
0.0
  0
LINE
  5
170
330
1F
100
AcDbEntity
  8
1
  6
Continuous
 62
     7
100
AcDbLine
 10
193.1288083876352
 20
402.5346406957418
 30
0.0
 11
246.6288083876352
 21
402.5346406957418
 31
0.0
  0
LINE
  5
171
330
1F
100
AcDbEntity
  8
1
  6
Continuous
 62
     7
100
AcDbLine
 10
275.6288083876352
 20
402.5346406957418
 30
0.0
 11
275.6288083876352
 21
367.5346406957418
 31
0.0
  0
LINE
  5
172
330
1F
100
AcDbEntity
  8
1
  6
Continuous
 62
     7
100
AcDbLine
 10
275.6288083876352
 20
367.5346406957418
 30
0.0
 11
193.1288083876352
 21
367.5346406957418
 31
0.0
  0
LINE
  5
173
330
1F
100
AcDbEntity
  8
1
  6
Continuous
 62
     7
100
AcDbLine
 10
193.1288083876352
 20
367.5346406957418
 30
0.0
 11
193.1288083876352
 21
402.5346406957418
 31
0.0
  0
LINE
  5
174
330
1F
100
AcDbEntity
  8
1
  6
Continuous
 62
     2
100
AcDbLine
 10
193.1288083876352
 20
387.5346406957418
 30
0.0
 11
275.6288083876352
 21
387.5346406957418
 31
0.0
  0
LINE
  5
175
330
1F
100
AcDbEntity
  8
1
  6
Continuous
 62
     2
100
AcDbLine
 10
193.1288083876352
 20
377.5346406957418
 30
0.0
 11
275.6288083876352
 21
377.5346406957418
 31
0.0
  0
LINE
  5
176
330
1F
100
AcDbEntity
  8
1
  6
Continuous
 62
     2
100
AcDbLine
 10
246.6288083876352
 20
367.5346406957418
 30
0.0
 11
246.6288083876352
 21
402.5346406957418
 31
0.0
  0
LINE
  5
177
330
1F
100
AcDbEntity
  8
1
  6
Continuous
 62
     2
100
AcDbLine
 10
150.6739393313006
 20
115.6161542239518
 30
0.0
 11
150.6739393313006
 21
112.042988078043
 31
0.0
  0
LINE
  5
178
330
1F
100
AcDbEntity
  8
1
  6
DASH_CENTER
 62
     2
100
AcDbLine
 10
150.6739393313006
 20
115.6161542239518
 30
0.0
 11
155.0445839821234
 21
151.2121983738252
 31
0.0
  0
LINE
  5
179
330
1F
100
AcDbEntity
  8
1
  6
DASH_CENTER
 62
     2
100
AcDbLine
 10
150.2352096950421
 20
112.042988078043
 30
0.0
 11
150.6739393313006
 21
115.6161542239518
 31
0.0
  0
LINE
  5
17A
330
1F
100
AcDbEntity
  8
1
  6
DASH_CENTER
 62
     2
100
AcDbLine
 10
280.1739393313005
 20
140.6161542239518
 30
0.0
 11
140.6739393313007
 21
140.6161542239518
 31
0.0
  0
LINE
  5
17B
330
1F
100
AcDbEntity
  8
1
  6
DASH_CENTER
 62
     2
100
AcDbLine
 10
185.6739393313007
 20
195.1161542239518
 30
0.0
 11
185.6739393313007
 21
125.6161542239518
 31
0.0
  0
LINE
  5
17C
330
1F
100
AcDbEntity
  8
1
  6
Continuous
 62
     2
100
AcDbLine
 10
126.463095728157
 20
264.2674233593599
 30
0.0
 11
136.97471397397
 21
264.2674233593599
 31
0.0
  0
LINE
  5
17D
330
1F
100
AcDbEntity
  8
1
  6
Continuous
 62
     2
100
AcDbLine
 10
108.73559050825
 20
238.8993612375569
 30
0.0
 11
118.629489443389
 21
238.8993612375569
 31
0.0
  0
LINE
  5
17E
330
1F
100
AcDbEntity
  8
1
  6
DASH_CENTER
 62
     2
100
AcDbLine
 10
70.82626755844939
 20
279.4638259968029
 30
0.0
 11
110.8262675584493
 21
279.4638259968029
 31
0.0
  0
LINE
  5
17F
330
1F
100
AcDbEntity
  8
1
  6
DASH_CENTER
 62
     2
100
AcDbLine
 10
78.20212733287414
 20
243.0389617550796
 30
0.0
 11
103.4504077840244
 21
243.0389617550796
 31
0.0
  0
LINE
  5
180
330
1F
100
AcDbEntity
  8
1
  6
DASH_CENTER
 62
     2
100
AcDbLine
 10
90.8262675584494
 20
231.775320245762
 30
0.0
 11
90.8262675584494
 21
373.9638259968029
 31
0.0
  0
LINE
  5
181
330
1F
100
AcDbEntity
  8
1
  6
DASH_CENTER
 62
     2
100
AcDbLine
 10
63.32626755844939
 20
140.6161542239518
 30
0.0
 11
118.3262675584496
 21
140.6161542239518
 31
0.0
  0
LINE
  5
182
330
1F
100
AcDbEntity
  8
1
  6
DASH_CENTER
 62
     2
100
AcDbLine
 10
90.82626755844943
 20
110.1107321408592
 30
0.0
 11
90.82626755844943
 21
195.1161542239517
 31
0.0
  0
LINE
  5
183
330
1F
100
AcDbEntity
  8
1
  6
DASH_CENTER
 62
     2
100
AcDbLine
 10
146.1739393313007
 20
179.6161542239516
 30
0.0
 11
210.1739393313007
 21
179.6161542239516
 31
0.0
  0
ARC
  5
184
330
1F
100
AcDbEntity
  8
1
  6
Continuous
 62
     2
100
AcDbCircle
 10
90.8262675584494
 20
279.463825996803
 30
0.0
 40
30.0
100
AcDbArc
 50
295.0000000000001
 51
334.9999999999999
  0
SOLID
  5
185
330
1F
100
AcDbEntity
  8
1
 62
     2
100
AcDbTrace
 10
106.1582122826974
 20
254.2745195760287
 30
0.0
 11
106.7424191543816
 21
253.0216838966928
 31
0.0
 12
101.6921998365971
 22
251.4293558622221
 32
0.0
 13
101.6921998365971
 23
251.4293558622221
 33
0.0
  0
LEADER
  5
186
330
1F
100
AcDbEntity
  8
1
  6
Continuous
 62
     2
100
AcDbLeader
  3
Standard
 71
     0
 76
     2
 10
101.6921998365971
 20
251.4293558622221
 30
0.0
 10
103.5048154106704
 20
252.2745923857035
 30
0.0
  0
SOLID
  5
187
330
1F
100
AcDbEntity
  8
1
 62
     2
100
AcDbTrace
 10
117.2684096585597
 20
263.5476744008708
 30
0.0
 11
116.0155739792237
 21
264.1318812725549
 31
0.0
 12
118.8607376930303
 22
268.5978937186553
 32
0.0
 13
118.8607376930303
 23
268.5978937186553
 33
0.0
  0
LEADER
  5
188
330
1F
100
AcDbEntity
  8
1
  6
Continuous
 62
     2
100
AcDbLeader
  3
Standard
 71
     0
 76
     2
 10
118.8607376930303
 20
268.5978937186553
 30
0.0
 10
118.0155011695489
 20
266.785278144582
 30
0.0
  0
SOLID
  5
189
330
1F
100
AcDbEntity
  8
1
 62
     2
100
AcDbTrace
 10
103.352691919692
 20
366.856047172838
 30
0.0
 11
104.5498431972067
 21
366.1648715605042
 31
0.0
 12
101.3262675584493
 22
361.9638259968028
 32
0.0
 13
101.3262675584493
 23
361.9638259968028
 33
0.0
  0
LEADER
  5
18A
330
1F
100
AcDbEntity
  8
1
  6
Continuous
 62
     2
100
AcDbLeader
  3
Standard
 71
     0
 76
     3
 10
101.3262675584493
 20
361.9638259968028
 30
0.0
 10
113.6191040992803
 20
383.2556434546613
 30
0.0
 10
138.533177119705
 20
383.2556434546613
 30
0.0
  0
MTEXT
  5
18B
330
1F
100
AcDbEntity
  8
1
 62
     2
100
AcDbMText
 10
219.878808387635
 20
395.0346406957418
 30
0.0
 40
5.25
 41
0.0
 71
     5
 72
     1
  1
品番
  7
CONVERTER_11
 73
     1
 44
0.54545454545455
  0
MTEXT
  5
18C
330
1F
100
AcDbEntity
  8
1
 62
     2
100
AcDbMText
 10
261.1288083876352
 20
397.5346406957418
 30
0.0
 40
5.25
 41
0.0
 71
     5
 72
     1
  1
ハンドル
  7
CONVERTER_11
 73
     1
 44
0.54545454545455
  0
MTEXT
  5
18D
330
1F
100
AcDbEntity
  8
1
 62
     7
100
AcDbMText
 10
261.1288083876352
 20
372.5346406957418
 30
0.0
 40
5.25
 41
0.0
 71
     5
 72
     1
  1
赤
  7
CONVERTER_11
 73
     1
 44
0.54545454545455
  0
MTEXT
  5
18F
330
1F
100
AcDbEntity
  8
1
 62
     7
100
AcDbMText
 10
219.878808387635
 20
372.5346406957418
 30
0.0
 40
5.25
 41
0.0
 71
     5
 72
     1
  1
Y205-13R
  7
CONVERTER_12
 73
     1
 44
0.7202881152461
  0
MTEXT
  5
190
330
1F
100
AcDbEntity
  8
1
 62
     7
100
AcDbMText
 10
219.878808387635
 20
382.5346406957418
 30
0.0
 40
5.25
 41
0.0
 71
     5
 72
     1
  1
Y205-13
  7
CONVERTER_12
 73
     1
 44
0.7202881152461
  0
MTEXT
  5
191
330
1F
100
AcDbEntity
  8
1
 62
     7
100
AcDbMText
 10
261.1288083876352
 20
382.5346406957418
 30
0.0
 40
5.25
 41
0.0
 71
     5
 72
     1
  1
－
  7
CONVERTER_11
 73
     1
 44
0.54545454545455
  0
MTEXT
  5
192
330
1F
100
AcDbEntity
  8
1
 62
     2
100
AcDbMText
 10
261.1288083876352
 20
392.5346406957418
 30
0.0
 40
5.25
 41
0.0
 71
     5
 72
     1
  1
表示リング
  7
CONVERTER_11
 73
     1
 44
0.54545454545455
  0
MTEXT
  5
193
330
1F
100
AcDbEntity
  8
1
 62
     7
100
AcDbMText
 10
85.5
 20
18.375
 30
0.0
 40
5.25
 41
0.0
 71
     5
 72
     1
  1
Y205-13R
  7
CONVERTER_12
 73
     1
 44
0.90036014405762
  0
MTEXT
  5
194
330
1F
100
AcDbEntity
  8
1
 62
     7
100
AcDbMText
 10
126.0761406094926
 20
387.7556434546613
 30
0.0
 40
5.25
 41
0.0
 71
     5
 72
     1
  1
PJ1/2
  7
CONVERTER_12
 73
     1
 44
1.32052821128451
  0
MTEXT
  5
195
330
1F
100
AcDbEntity
  8
1
 62
     7
100
AcDbMText
 10
113.6952884576332
 20
243.3993612375569
 30
0.0
 40
5.25
 41
0.0
 71
     5
 72
     1
  1
止水
  7
CONVERTER_11
 73
     1
 44
0.54545454545455
  0
MTEXT
  5
196
330
1F
100
AcDbEntity
  8
1
 62
     7
100
AcDbMText
 10
131.2344245306588
 20
268.7674233593598
 30
0.0
 40
5.25
 41
0.0
 71
     5
 72
     1
  1
吐水
  7
CONVERTER_11
 73
     1
 44
0.54545454545455
  0
MTEXT
  5
197
330
1F
100
AcDbEntity
  8
1
 62
     7
100
AcDbMText
 10
140.625
 20
25.5
 30
0.0
 40
5.25
 41
0.0
 71
     5
 72
     1
  1
1,5
  7
CONVERTER_12
 73
     1
 44
1.32052821128451
  0
MTEXT
  5
198
330
1F
100
AcDbEntity
  8
1
 62
     7
100
AcDbMText
 10
127.875
 20
25.5
 30
0.0
 40
5.25
 41
0.0
 71
     5
 72
     1
  1
1
  7
CONVERTER_12
 73
     1
 44
1.32052821128451
  0
MTEXT
  5
199
330
1F
100
AcDbEntity
  8
1
 62
     7
100
AcDbMText
 10
85.5
 20
24.375
 30
0.0
 40
5.25
 41
0.0
 71
     5
 72
     1
  1
Y205-13
  7
CONVERTER_12
 73
     1
 44
0.90036014405762
  0
MTEXT
  5
19A
330
1F
100
AcDbEntity
  8
1
 62
     7
100
AcDbMText
 10
85.5
 20
34.12500000000001
 30
0.0
 40
5.25
 41
0.0
 71
     5
 72
     1
  1
ミニセラ胴長横水栓
  7
CONVERTER_11
 73
     1
 44
1.0
  0
MTEXT
  5
19B
330
1F
100
AcDbEntity
  8
1
 62
     7
100
AcDbMText
 10
51.0
 20
51.00000000000001
 30
0.0
 40
5.25
 41
0.0
 71
     4
 72
     1
  1
JIS
  7
CONVERTER_12
 73
     1
 44
0.7202881152461
  0
DIMENSION
  5
1A9
330
1F
100
AcDbEntity
  8
1
100
AcDbDimension
  2
*D7
 10
261.6739393313006
 20
99.6107321408593
 30
0.0
 11
268.6739393313005
 21
103.7357321408593
 31
0.0
 70
    32
  1
<>
 71
     5
 42
-1.0
 53
0.00013888888889
  3
ME10_DIM_10
100
AcDbAlignedDimension
 13
275.6739393313005
 23
131.1161542239518
 33
0.0
 14
261.6739393313006
 24
117.6161542239518
 34
0.0
100
AcDbRotatedDimension
  0
DIMENSION
  5
1B4
330
1F
100
AcDbEntity
  8
1
100
AcDbDimension
  2
*D9
 10
127.4854335802597
 20
140.6161542239519
 30
0.0
 11
123.3604335802597
 21
165.6161542239518
 31
0.0
 70
    32
  1
<>
 71
     5
 42
-1.0
 53
90.0
  3
ME10_DIM_11
100
AcDbAlignedDimension
 13
178.1739393313008
 23
190.6161542239517
 33
0.0
 14
140.6739393313007
 24
140.6161542239518
 34
0.0
 50
90.0
100
AcDbRotatedDimension
  0
DIMENSION
  5
1BF
330
1F
100
AcDbEntity
  8
1
100
AcDbDimension
  2
*D10
 10
127.4854335802597
 20
115.6161542239518
 30
0.0
 11
123.3604335802597
 21
128.1161542239518
 31
0.0
 70
    32
  1
<>
 71
     5
 42
-1.0
 53
90.0
  3
ME10_DIM_12
100
AcDbAlignedDimension
 13
140.6739393313007
 23
140.6161542239518
 33
0.0
 14
150.6739393313006
 24
115.6161542239518
 34
0.0
 50
90.0
100
AcDbRotatedDimension
  0
DIMENSION
  5
1CA
330
1F
100
AcDbEntity
  8
1
100
AcDbDimension
  2
*D11
 10
150.6739393313006
 20
99.6107321408593
 30
0.0
 11
168.1739393313006
 21
103.7357321408593
 31
0.0
 70
    32
  1
<>
 71
     5
 42
-1.0
 53
0.00013888888889
  3
ME10_DIM_13
100
AcDbAlignedDimension
 13
185.6739393313007
 23
125.6161542239518
 33
0.0
 14
150.6739393313006
 24
115.6161542239518
 34
0.0
100
AcDbRotatedDimension
  0
DIMENSION
  5
1D5
330
1F
100
AcDbEntity
  8
1
100
AcDbDimension
  2
*D12
 10
185.6739393313007
 20
99.6107321408593
 30
0.0
 11
223.6739393313006
 21
103.7357321408593
 31
0.0
 70
    32
  1
<>
 71
     5
 42
-1.0
 53
0.00013888888889
  3
ME10_DIM_14
100
AcDbAlignedDimension
 13
261.6739393313006
 23
117.6161542239518
 33
0.0
 14
185.6739393313007
 24
125.6161542239518
 34
0.0
100
AcDbRotatedDimension
  0
DIMENSION
  5
1E1
330
1F
100
AcDbEntity
  8
1
100
AcDbDimension
  2
*D13
 10
149.6962570595183
 20
99.63119037876373
 30
0.0
 11
144.9003534699095
 21
105.2222196248279
 31
0.0
 70
    37
  1
<>
 71
     5
 42
-1.0
  3
ME10_DIM_15
100
AcDb3PointAngularDimension
 13
150.2352096950421
 23
112.042988078043
 33
0.0
 14
150.6739393313006
 24
112.042988078043
 34
0.0
 15
150.6739393313006
 25
115.6161542239518
 35
0.0
  0
ENDSEC
  0
SECTION
  2
OBJECTS
  0
DICTIONARY
  5
C
330
0
100
AcDbDictionary
281
     1
  3
ACAD_GROUP
350
D
  3
ACAD_LAYOUT
350
1A
  3
ACAD_MATERIAL
350
3B
  3
ACAD_MLEADERSTYLE
350
1E4
  3
ACAD_MLINESTYLE
350
17
  3
ACAD_PLOTSETTINGS
350
19
  3
ACAD_PLOTSTYLENAME
350
E
  3
ACAD_VISUALSTYLE
350
2A
  3
AcDbVariableDictionary
350
1E2
  0
DICTIONARY
  5
D
102
{ACAD_REACTORS
330
C
102
}
330
C
100
AcDbDictionary
281
     1
  0
DICTIONARY
  5
1A
102
{ACAD_REACTORS
330
C
102
}
330
C
100
AcDbDictionary
281
     1
  3
Layout1
350
1E
  3
Layout2
350
26
  3
Model
350
22
  0
DICTIONARY
  5
3B
102
{ACAD_REACTORS
330
C
102
}
330
C
100
AcDbDictionary
281
     1
  3
ByBlock
350
3D
  3
ByLayer
350
3C
  3
Global
350
3E
  0
DICTIONARY
  5
1E4
102
{ACAD_REACTORS
330
C
102
}
330
C
100
AcDbDictionary
281
     1
  0
DICTIONARY
  5
17
102
{ACAD_REACTORS
330
C
102
}
330
C
100
AcDbDictionary
281
     1
  3
Standard
350
18
  0
DICTIONARY
  5
19
102
{ACAD_REACTORS
330
C
102
}
330
C
100
AcDbDictionary
281
     1
  0
ACDBDICTIONARYWDFLT
  5
E
102
{ACAD_REACTORS
330
C
102
}
330
C
100
AcDbDictionary
281
     1
  3
Normal
350
F
100
AcDbDictionaryWithDefault
340
F
  0
DICTIONARY
  5
2A
102
{ACAD_REACTORS
330
C
102
}
330
C
100
AcDbDictionary
281
     1
  3
2dWireframe
350
2F
  3
3D Hidden
350
31
  3
3dWireframe
350
30
  3
Basic
350
32
  3
Brighten
350
36
  3
ColorChange
350
3A
  3
Conceptual
350
34
  3
Dim
350
35
  3
Facepattern
350
39
  3
Flat
350
2B
  3
FlatWithEdges
350
2C
  3
Gouraud
350
2D
  3
GouraudWithEdges
350
2E
  3
Linepattern
350
38
  3
Realistic
350
33
  3
Thicken
350
37
  0
DICTIONARY
  5
1E2
102
{ACAD_REACTORS
330
C
102
}
330
C
100
AcDbDictionary
281
     1
  3
DIMASSOC
350
1E5
  3
HIDETEXT
350
1E6
  0
LAYOUT
  5
1E
102
{ACAD_REACTORS
330
1A
102
}
330
1A
100
AcDbPlotSettings
  1

  2
none_device
  4

  6

 40
0.0
 41
0.0
 42
0.0
 43
0.0
 44
0.0
 45
0.0
 46
0.0
 47
0.0
 48
0.0
 49
0.0
140
0.0
141
0.0
142
1.0
143
1.0
 70
   688
 72
     0
 73
     0
 74
     5
  7

 75
    16
147
1.0
148
0.0
149
0.0
100
AcDbLayout
  1
Layout1
 70
     1
 71
     1
 10
0.0
 20
0.0
 11
12.0
 21
9.0
 12
0.0
 22
0.0
 32
0.0
 14
1.00000000000000E+20
 24
1.00000000000000E+20
 34
1.00000000000000E+20
 15
-1.00000000000000E+20
 25
-1.00000000000000E+20
 35
-1.00000000000000E+20
146
0.0
 13
0.0
 23
0.0
 33
0.0
 16
1.0
 26
0.0
 36
0.0
 17
0.0
 27
1.0
 37
0.0
 76
     0
330
1B
  0
LAYOUT
  5
26
102
{ACAD_REACTORS
330
1A
102
}
330
1A
100
AcDbPlotSettings
  1

  2
none_device
  4

  6

 40
0.0
 41
0.0
 42
0.0
 43
0.0
 44
0.0
 45
0.0
 46
0.0
 47
0.0
 48
0.0
 49
0.0
140
0.0
141
0.0
142
1.0
143
1.0
 70
   688
 72
     0
 73
     0
 74
     5
  7

 75
    16
147
1.0
148
0.0
149
0.0
100
AcDbLayout
  1
Layout2
 70
     1
 71
     2
 10
0.0
 20
0.0
 11
0.0
 21
0.0
 12
0.0
 22
0.0
 32
0.0
 14
0.0
 24
0.0
 34
0.0
 15
0.0
 25
0.0
 35
0.0
146
0.0
 13
0.0
 23
0.0
 33
0.0
 16
1.0
 26
0.0
 36
0.0
 17
0.0
 27
1.0
 37
0.0
 76
     0
330
23
  0
LAYOUT
  5
22
102
{ACAD_REACTORS
330
1A
102
}
330
1A
100
AcDbPlotSettings
  1

  2
none_device
  4

  6

 40
0.0
 41
0.0
 42
0.0
 43
0.0
 44
0.0
 45
0.0
 46
0.0
 47
0.0
 48
0.0
 49
0.0
140
0.0
141
0.0
142
1.0
143
1.0
 70
  1712
 72
     0
 73
     0
 74
     0
  7

 75
     0
147
1.0
148
0.0
149
0.0
100
AcDbLayout
  1
Model
 70
     1
 71
     0
 10
0.0
 20
0.0
 11
12.0
 21
9.0
 12
0.0
 22
0.0
 32
0.0
 14
0.0
 24
0.0
 34
0.0
 15
315.0
 25
445.5
 35
0.0
146
0.0
 13
0.0
 23
0.0
 33
0.0
 16
1.0
 26
0.0
 36
0.0
 17
0.0
 27
1.0
 37
0.0
 76
     0
330
1F
331
29
  0
MATERIAL
  5
3D
102
{ACAD_REACTORS
330
3B
102
}
102
{ACAD_XDICTIONARY
360
209
102
}
330
3B
100
AcDbMaterial
  1
ByBlock
  0
MATERIAL
  5
3C
102
{ACAD_REACTORS
330
3B
102
}
102
{ACAD_XDICTIONARY
360
207
102
}
330
3B
100
AcDbMaterial
  1
ByLayer
  0
MATERIAL
  5
3E
102
{ACAD_REACTORS
330
3B
102
}
102
{ACAD_XDICTIONARY
360
20B
102
}
330
3B
100
AcDbMaterial
  1
Global
  0
MLINESTYLE
  5
18
102
{ACAD_REACTORS
330
17
102
}
330
17
100
AcDbMlineStyle
  2
Standard
 70
     0
  3

 62
   256
 51
90.0
 52
90.0
 71
     2
 49
0.5
 62
   256
  6
BYLAYER
 49
-0.5
 62
   256
  6
BYLAYER
  0
ACDBPLACEHOLDER
  5
F
102
{ACAD_REACTORS
330
E
102
}
330
E
  0
VISUALSTYLE
  5
2F
102
{ACAD_REACTORS
330
2A
102
}
102
{ACAD_XDICTIONARY
360
1EF
102
}
330
2A
100
AcDbVisualStyle
  2
2dWireframe
 70
     4
 71
     0
 72
     2
 73
     0
 90
        0
 40
-0.6
 41
-30.0
 62
     5
 63
     7
 74
     1
 91
        4
 64
     7
 65
   257
 75
     1
175
     1
 42
1.0
 92
        0
 66
   257
 43
1.0
 76
     1
 77
     6
 78
     2
 67
     7
 79
     5
170
     0
171
     0
290
     0
174
     0
 93
        1
 44
0.0
173
     0
291
     0
 45
0.0
1001
ACAD
1000
AcDbSavedByObjectVersion
1070
     0
  0
VISUALSTYLE
  5
31
102
{ACAD_REACTORS
330
2A
102
}
102
{ACAD_XDICTIONARY
360
1F3
102
}
330
2A
100
AcDbVisualStyle
  2
3D Hidden
 70
     6
 71
     1
 72
     2
 73
     2
 90
        0
 40
-0.6
 41
-30.0
 62
     5
 63
     7
 74
     2
 91
        2
 64
     7
 65
   257
 75
     2
175
     1
 42
40.0
 92
        0
 66
   257
 43
1.0
 76
     1
 77
     6
 78
     2
 67
     7
 79
     3
170
     0
171
     0
290
     0
174
     0
 93
        1
 44
0.0
173
     0
291
     0
 45
0.0
1001
ACAD
1000
AcDbSavedByObjectVersion
1070
     0
  0
VISUALSTYLE
  5
30
102
{ACAD_REACTORS
330
2A
102
}
102
{ACAD_XDICTIONARY
360
1F1
102
}
330
2A
100
AcDbVisualStyle
  2
3dWireframe
 70
     5
 71
     0
 72
     2
 73
     0
 90
        0
 40
-0.6
 41
-30.0
 62
     5
 63
     7
 74
     1
 91
        4
 64
     7
 65
   257
 75
     1
175
     1
 42
1.0
 92
        0
 66
   257
 43
1.0
 76
     1
 77
     6
 78
     2
 67
     7
 79
     5
170
     0
171
     0
290
     0
174
     0
 93
        1
 44
0.0
173
     0
291
     0
 45
0.0
1001
ACAD
1000
AcDbSavedByObjectVersion
1070
     0
  0
VISUALSTYLE
  5
32
102
{ACAD_REACTORS
330
2A
102
}
102
{ACAD_XDICTIONARY
360
1F5
102
}
330
2A
100
AcDbVisualStyle
  2
Basic
 70
     7
 71
     1
 72
     0
 73
     1
 90
        0
 40
-0.6
 41
-30.0
 62
     5
 63
     7
 74
     0
 91
        4
 64
     7
 65
   257
 75
     1
175
     1
 42
1.0
 92
        8
 66
     7
 43
1.0
 76
     1
 77
     6
 78
     2
 67
     7
 79
     5
170
     0
171
     0
290
     0
174
     0
 93
        1
 44
0.0
173
     0
291
     1
 45
0.0
1001
ACAD
1000
AcDbSavedByObjectVersion
1070
     0
  0
VISUALSTYLE
  5
36
102
{ACAD_REACTORS
330
2A
102
}
102
{ACAD_XDICTIONARY
360
1FD
102
}
330
2A
100
AcDbVisualStyle
  2
Brighten
 70
    12
 71
     2
 72
     2
 73
     0
 90
        0
 40
-0.6
 41
-30.0
 62
     5
 63
     7
 74
     1
 91
        4
 64
     7
 65
   257
 75
     1
175
     1
 42
1.0
 92
        8
 66
     7
 43
1.0
 76
     1
 77
     6
 78
     2
 67
     7
 79
     5
170
     0
171
     0
290
     0
174
     0
 93
        1
 44
50.0
173
     0
291
     1
 45
0.0
1001
ACAD
1000
AcDbSavedByObjectVersion
1070
     0
  0
VISUALSTYLE
  5
3A
102
{ACAD_REACTORS
330
2A
102
}
102
{ACAD_XDICTIONARY
360
205
102
}
330
2A
100
AcDbVisualStyle
  2
ColorChange
 70
    16
 71
     2
 72
     2
 73
     3
 90
        0
 40
-0.6
 41
-30.0
 62
     5
 63
     8
 74
     1
 91
        4
 64
     7
 65
   257
 75
     1
175
     1
 42
1.0
 92
        8
 66
     8
 43
1.0
 76
     1
 77
     6
 78
     2
 67
     7
 79
     5
170
     0
171
     0
290
     0
174
     0
 93
        1
 44
0.0
173
     0
291
     1
 45
0.0
1001
ACAD
1000
AcDbSavedByObjectVersion
1070
     0
  0
VISUALSTYLE
  5
34
102
{ACAD_REACTORS
330
2A
102
}
102
{ACAD_XDICTIONARY
360
1F9
102
}
330
2A
100
AcDbVisualStyle
  2
Conceptual
 70
     9
 71
     3
 72
     2
 73
     0
 90
        0
 40
-0.6
 41
-30.0
 62
     5
 63
     7
 74
     2
 91
        2
 64
     7
 65
   257
 75
     1
175
     1
 42
40.0
 92
        8
 66
     7
 43
1.0
 76
     1
 77
     6
 78
     2
 67
     7
 79
     3
170
     0
171
     0
290
     0
174
     0
 93
        1
 44
0.0
173
     0
291
     0
 45
0.0
1001
ACAD
1000
AcDbSavedByObjectVersion
1070
     0
  0
VISUALSTYLE
  5
35
102
{ACAD_REACTORS
330
2A
102
}
102
{ACAD_XDICTIONARY
360
1FB
102
}
330
2A
100
AcDbVisualStyle
  2
Dim
 70
    11
 71
     2
 72
     2
 73
     0
 90
        0
 40
-0.6
 41
-30.0
 62
     5
 63
     7
 74
     1
 91
        4
 64
     7
 65
   257
 75
     1
175
     1
 42
1.0
 92
        8
 66
     7
 43
1.0
 76
     1
 77
     6
 78
     2
 67
     7
 79
     5
170
     0
171
     0
290
     0
174
     0
 93
        1
 44
-50.0
173
     0
291
     1
 45
0.0
1001
ACAD
1000
AcDbSavedByObjectVersion
1070
     0
  0
VISUALSTYLE
  5
39
102
{ACAD_REACTORS
330
2A
102
}
102
{ACAD_XDICTIONARY
360
203
102
}
330
2A
100
AcDbVisualStyle
  2
Facepattern
 70
    15
 71
     2
 72
     2
 73
     0
 90
        0
 40
-0.6
 41
-30.0
 62
     5
 63
     7
 74
     1
 91
        4
 64
     7
 65
   257
 75
     1
175
     1
 42
1.0
 92
        8
 66
     7
 43
1.0
 76
     1
 77
     6
 78
     2
 67
     7
 79
     5
170
     0
171
     0
290
     0
174
     0
 93
        1
 44
0.0
173
     0
291
     1
 45
0.0
1001
ACAD
1000
AcDbSavedByObjectVersion
1070
     0
  0
VISUALSTYLE
  5
2B
102
{ACAD_REACTORS
330
2A
102
}
102
{ACAD_XDICTIONARY
360
1E7
102
}
330
2A
100
AcDbVisualStyle
  2
Flat
 70
     0
 71
     2
 72
     1
 73
     1
 90
        2
 40
-0.6
 41
30.0
 62
     5
 63
     7
 74
     0
 91
        4
 64
     7
 65
   257
 75
     1
175
     1
 42
1.0
 92
        8
 66
     7
 43
1.0
 76
     1
 77
     6
 78
     2
 67
     7
 79
     5
170
     0
171
     0
290
     0
174
     0
 93
       13
 44
0.0
173
     0
291
     1
 45
0.0
1001
ACAD
1000
AcDbSavedByObjectVersion
1070
     0
  0
VISUALSTYLE
  5
2C
102
{ACAD_REACTORS
330
2A
102
}
102
{ACAD_XDICTIONARY
360
1E9
102
}
330
2A
100
AcDbVisualStyle
  2
FlatWithEdges
 70
     1
 71
     2
 72
     1
 73
     1
 90
        2
 40
-0.6
 41
30.0
 62
     5
 63
     7
 74
     1
 91
        4
 64
     7
 65
   257
 75
     1
175
     1
 42
1.0
 92
        0
 66
   257
 43
1.0
 76
     1
 77
     6
 78
     2
 67
     7
 79
     5
170
     0
171
     0
290
     0
174
     0
 93
       13
 44
0.0
173
     0
291
     1
 45
0.0
1001
ACAD
1000
AcDbSavedByObjectVersion
1070
     0
  0
VISUALSTYLE
  5
2D
102
{ACAD_REACTORS
330
2A
102
}
102
{ACAD_XDICTIONARY
360
1EB
102
}
330
2A
100
AcDbVisualStyle
  2
Gouraud
 70
     2
 71
     2
 72
     2
 73
     1
 90
        2
 40
-0.6
 41
30.0
 62
     5
 63
     7
 74
     0
 91
        4
 64
     7
 65
   257
 75
     1
175
     1
 42
1.0
 92
        0
 66
     7
 43
1.0
 76
     1
 77
     6
 78
     2
 67
     7
 79
     5
170
     0
171
     0
290
     0
174
     0
 93
       13
 44
0.0
173
     0
291
     1
 45
0.0
1001
ACAD
1000
AcDbSavedByObjectVersion
1070
     0
  0
VISUALSTYLE
  5
2E
102
{ACAD_REACTORS
330
2A
102
}
102
{ACAD_XDICTIONARY
360
1ED
102
}
330
2A
100
AcDbVisualStyle
  2
GouraudWithEdges
 70
     3
 71
     2
 72
     2
 73
     1
 90
        2
 40
-0.6
 41
30.0
 62
     5
 63
     7
 74
     1
 91
        4
 64
     7
 65
   257
 75
     1
175
     1
 42
1.0
 92
        0
 66
   257
 43
1.0
 76
     1
 77
     6
 78
     2
 67
     7
 79
     5
170
     0
171
     0
290
     0
174
     0
 93
       13
 44
0.0
173
     0
291
     1
 45
0.0
1001
ACAD
1000
AcDbSavedByObjectVersion
1070
     0
  0
VISUALSTYLE
  5
38
102
{ACAD_REACTORS
330
2A
102
}
102
{ACAD_XDICTIONARY
360
201
102
}
330
2A
100
AcDbVisualStyle
  2
Linepattern
 70
    14
 71
     2
 72
     2
 73
     0
 90
        0
 40
-0.6
 41
-30.0
 62
     5
 63
     7
 74
     1
 91
        4
 64
     7
 65
   257
 75
     7
175
     7
 42
1.0
 92
        8
 66
     7
 43
1.0
 76
     1
 77
     6
 78
     2
 67
     7
 79
     5
170
     0
171
     0
290
     0
174
     0
 93
        1
 44
0.0
173
     0
291
     1
 45
0.0
1001
ACAD
1000
AcDbSavedByObjectVersion
1070
     0
  0
VISUALSTYLE
  5
33
102
{ACAD_REACTORS
330
2A
102
}
102
{ACAD_XDICTIONARY
360
1F7
102
}
330
2A
100
AcDbVisualStyle
  2
Realistic
 70
     8
 71
     2
 72
     2
 73
     0
 90
        0
 40
-0.6
 41
-30.0
 62
     5
 63
     7
 74
     1
 91
        0
 64
     7
 65
   257
 75
     1
175
     1
 42
1.0
 92
        8
 66
     8
 43
1.0
 76
     1
 77
     6
 78
     2
 67
     7
 79
     5
170
     0
171
     0
290
     0
174
     0
 93
       13
 44
0.0
173
     0
291
     0
 45
0.0
1001
ACAD
1000
AcDbSavedByObjectVersion
1070
     0
  0
VISUALSTYLE
  5
37
102
{ACAD_REACTORS
330
2A
102
}
102
{ACAD_XDICTIONARY
360
1FF
102
}
330
2A
100
AcDbVisualStyle
  2
Thicken
 70
    13
 71
     2
 72
     2
 73
     0
 90
        0
 40
-0.6
 41
-30.0
 62
     5
 63
     7
 74
     1
 91
        4
 64
     7
 65
   257
 75
     1
175
     1
 42
1.0
 92
       12
 66
     7
 43
1.0
 76
     1
 77
     6
 78
     2
 67
     7
 79
     5
170
     0
171
     0
290
     0
174
     0
 93
        1
 44
0.0
173
     0
291
     1
 45
0.0
1001
ACAD
1000
AcDbSavedByObjectVersion
1070
     0
  0
DICTIONARYVAR
  5
1E5
102
{ACAD_REACTORS
330
1E2
102
}
330
1E2
100
DictionaryVariables
280
     0
  1
2
  0
DICTIONARYVAR
  5
1E6
102
{ACAD_REACTORS
330
1E2
102
}
330
1E2
100
DictionaryVariables
280
     0
  1
1
  0
DICTIONARY
  5
209
330
3D
100
AcDbDictionary
280
     1
281
     1
  3
ACAD_XREC_ROUNDTRIP
360
20A
  0
DICTIONARY
  5
207
330
3C
100
AcDbDictionary
280
     1
281
     1
  3
ACAD_XREC_ROUNDTRIP
360
208
  0
DICTIONARY
  5
20B
330
3E
100
AcDbDictionary
280
     1
281
     1
  3
ACAD_XREC_ROUNDTRIP
360
20C
  0
DICTIONARY
  5
1EF
330
2F
100
AcDbDictionary
280
     1
281
     1
  3
ACAD_XREC_ROUNDTRIP
360
1F0
  0
DICTIONARY
  5
1F3
330
31
100
AcDbDictionary
280
     1
281
     1
  3
ACAD_XREC_ROUNDTRIP
360
1F4
  0
DICTIONARY
  5
1F1
330
30
100
AcDbDictionary
280
     1
281
     1
  3
ACAD_XREC_ROUNDTRIP
360
1F2
  0
DICTIONARY
  5
1F5
330
32
100
AcDbDictionary
280
     1
281
     1
  3
ACAD_XREC_ROUNDTRIP
360
1F6
  0
DICTIONARY
  5
1FD
330
36
100
AcDbDictionary
280
     1
281
     1
  3
ACAD_XREC_ROUNDTRIP
360
1FE
  0
DICTIONARY
  5
205
330
3A
100
AcDbDictionary
280
     1
281
     1
  3
ACAD_XREC_ROUNDTRIP
360
206
  0
DICTIONARY
  5
1F9
330
34
100
AcDbDictionary
280
     1
281
     1
  3
ACAD_XREC_ROUNDTRIP
360
1FA
  0
DICTIONARY
  5
1FB
330
35
100
AcDbDictionary
280
     1
281
     1
  3
ACAD_XREC_ROUNDTRIP
360
1FC
  0
DICTIONARY
  5
203
330
39
100
AcDbDictionary
280
     1
281
     1
  3
ACAD_XREC_ROUNDTRIP
360
204
  0
DICTIONARY
  5
1E7
330
2B
100
AcDbDictionary
280
     1
281
     1
  3
ACAD_XREC_ROUNDTRIP
360
1E8
  0
DICTIONARY
  5
1E9
330
2C
100
AcDbDictionary
280
     1
281
     1
  3
ACAD_XREC_ROUNDTRIP
360
1EA
  0
DICTIONARY
  5
1EB
330
2D
100
AcDbDictionary
280
     1
281
     1
  3
ACAD_XREC_ROUNDTRIP
360
1EC
  0
DICTIONARY
  5
1ED
330
2E
100
AcDbDictionary
280
     1
281
     1
  3
ACAD_XREC_ROUNDTRIP
360
1EE
  0
DICTIONARY
  5
201
330
38
100
AcDbDictionary
280
     1
281
     1
  3
ACAD_XREC_ROUNDTRIP
360
202
  0
DICTIONARY
  5
1F7
330
33
100
AcDbDictionary
280
     1
281
     1
  3
ACAD_XREC_ROUNDTRIP
360
1F8
  0
DICTIONARY
  5
1FF
330
37
100
AcDbDictionary
280
     1
281
     1
  3
ACAD_XREC_ROUNDTRIP
360
200
  0
XRECORD
  5
20A
102
{ACAD_REACTORS
330
209
102
}
330
209
100
AcDbXrecord
280
     1
102
MATERIAL
148
0.0
149
0.0
149
0.0
 93
        0
 94
      127
282
     0
 72
     1
 77
     1
171
     1
175
     1
179
     1
273
     0
  0
XRECORD
  5
208
102
{ACAD_REACTORS
330
207
102
}
330
207
100
AcDbXrecord
280
     1
102
MATERIAL
148
0.0
149
0.0
149
0.0
 93
        0
 94
      127
282
     0
 72
     1
 77
     1
171
     1
175
     1
179
     1
273
     0
  0
XRECORD
  5
20C
102
{ACAD_REACTORS
330
20B
102
}
330
20B
100
AcDbXrecord
280
     1
102
MATERIAL
148
0.0
149
0.0
149
0.0
 93
        0
 94
      127
282
     0
 72
     1
 77
     1
171
     1
175
     1
179
     1
273
     0
  0
XRECORD
  5
1F0
102
{ACAD_REACTORS
330
1EF
102
}
330
1EF
100
AcDbXrecord
280
     1
102
RTVSPropertyOp0
 70
     1
102
RTVSPropertyOp1
 70
     1
102
RTVSPropertyOp2
 70
     1
102
RTVSPropertyOp3
 70
     1
102
RTVSPropertyOp4
 70
     1
102
RTVSPropertyOp5
 70
     1
102
RTVSPropertyOp6
 70
     1
102
RTVSPropertyOp7
 70
     1
102
RTVSPropertyOp8
 70
     1
102
RTVSPropertyOp9
 70
     1
102
RTVSPropertyOp10
 70
     1
102
RTVSPropertyOp11
 70
     1
102
RTVSPropertyOp12
 70
     1
102
RTVSPropertyOp13
 70
     1
102
RTVSPropertyOp14
 70
     1
102
RTVSPropertyOp15
 70
     1
102
RTVSPropertyOp16
 70
     1
102
RTVSPropertyOp17
 70
     1
102
RTVSPropertyOp18
 70
     1
102
RTVSPropertyOp19
 70
     1
102
RTVSPropertyOp20
 70
     1
102
RTVSPropertyOp21
 70
     1
102
RTVSPropertyOp22
 70
     1
102
RTVSPropertyOp23
 70
     1
102
RTVSPropertyOp24
 70
     1
102
RTVSPropertyOp25
 70
     1
102
RTVSPropertyOp26
 70
     1
102
RTVSPropertyOp27
 70
     1
102
RTVSPropertyOp28
 70
     1
102
RTVSPropertyOp29
 70
     1
102
RTVSPropertyOp30
 70
     1
102
RTVSPropertyOp31
 70
     1
102
RTVSPropertyOp32
 70
     1
  0
XRECORD
  5
1F4
102
{ACAD_REACTORS
330
1F3
102
}
330
1F3
100
AcDbXrecord
280
     1
102
RTVSPropertyOp0
 70
     1
102
RTVSPropertyOp1
 70
     1
102
RTVSPropertyOp2
 70
     1
102
RTVSPropertyOp3
 70
     1
102
RTVSPropertyOp4
 70
     1
102
RTVSPropertyOp5
 70
     1
102
RTVSPropertyOp6
 70
     1
102
RTVSPropertyOp7
 70
     1
102
RTVSPropertyOp8
 70
     1
102
RTVSPropertyOp9
 70
     1
102
RTVSPropertyOp10
 70
     1
102
RTVSPropertyOp11
 70
     1
102
RTVSPropertyOp12
 70
     1
102
RTVSPropertyOp13
 70
     1
102
RTVSPropertyOp14
 70
     1
102
RTVSPropertyOp15
 70
     1
102
RTVSPropertyOp16
 70
     1
102
RTVSPropertyOp17
 70
     1
102
RTVSPropertyOp18
 70
     1
102
RTVSPropertyOp19
 70
     1
102
RTVSPropertyOp20
 70
     1
102
RTVSPropertyOp21
 70
     1
102
RTVSPropertyOp22
 70
     1
102
RTVSPropertyOp23
 70
     1
102
RTVSPropertyOp24
 70
     1
102
RTVSPropertyOp25
 70
     1
102
RTVSPropertyOp26
 70
     1
102
RTVSPropertyOp27
 70
     1
102
RTVSPropertyOp28
 70
     1
102
RTVSPropertyOp29
 70
     1
102
RTVSPropertyOp30
 70
     1
102
RTVSPropertyOp31
 70
     1
102
RTVSPropertyOp32
 70
     1
  0
XRECORD
  5
1F2
102
{ACAD_REACTORS
330
1F1
102
}
330
1F1
100
AcDbXrecord
280
     1
102
RTVSPropertyOp0
 70
     1
102
RTVSPropertyOp1
 70
     1
102
RTVSPropertyOp2
 70
     1
102
RTVSPropertyOp3
 70
     1
102
RTVSPropertyOp4
 70
     1
102
RTVSPropertyOp5
 70
     1
102
RTVSPropertyOp6
 70
     1
102
RTVSPropertyOp7
 70
     1
102
RTVSPropertyOp8
 70
     1
102
RTVSPropertyOp9
 70
     1
102
RTVSPropertyOp10
 70
     1
102
RTVSPropertyOp11
 70
     1
102
RTVSPropertyOp12
 70
     1
102
RTVSPropertyOp13
 70
     1
102
RTVSPropertyOp14
 70
     1
102
RTVSPropertyOp15
 70
     1
102
RTVSPropertyOp16
 70
     1
102
RTVSPropertyOp17
 70
     1
102
RTVSPropertyOp18
 70
     1
102
RTVSPropertyOp19
 70
     1
102
RTVSPropertyOp20
 70
     1
102
RTVSPropertyOp21
 70
     1
102
RTVSPropertyOp22
 70
     1
102
RTVSPropertyOp23
 70
     1
102
RTVSPropertyOp24
 70
     1
102
RTVSPropertyOp25
 70
     1
102
RTVSPropertyOp26
 70
     1
102
RTVSPropertyOp27
 70
     1
102
RTVSPropertyOp28
 70
     1
102
RTVSPropertyOp29
 70
     1
102
RTVSPropertyOp30
 70
     1
102
RTVSPropertyOp31
 70
     1
102
RTVSPropertyOp32
 70
     1
  0
XRECORD
  5
1F6
102
{ACAD_REACTORS
330
1F5
102
}
330
1F5
100
AcDbXrecord
280
     1
102
RTVSPropertyOp0
 70
     1
102
RTVSPropertyOp1
 70
     1
102
RTVSPropertyOp2
 70
     1
102
RTVSPropertyOp3
 70
     1
102
RTVSPropertyOp4
 70
     1
102
RTVSPropertyOp5
 70
     1
102
RTVSPropertyOp6
 70
     1
102
RTVSPropertyOp7
 70
     1
102
RTVSPropertyOp8
 70
     1
102
RTVSPropertyOp9
 70
     1
102
RTVSPropertyOp10
 70
     1
102
RTVSPropertyOp11
 70
     1
102
RTVSPropertyOp12
 70
     1
102
RTVSPropertyOp13
 70
     1
102
RTVSPropertyOp14
 70
     1
102
RTVSPropertyOp15
 70
     1
102
RTVSPropertyOp16
 70
     1
102
RTVSPropertyOp17
 70
     1
102
RTVSPropertyOp18
 70
     1
102
RTVSPropertyOp19
 70
     1
102
RTVSPropertyOp20
 70
     1
102
RTVSPropertyOp21
 70
     1
102
RTVSPropertyOp22
 70
     1
102
RTVSPropertyOp23
 70
     1
102
RTVSPropertyOp24
 70
     1
102
RTVSPropertyOp25
 70
     1
102
RTVSPropertyOp26
 70
     1
102
RTVSPropertyOp27
 70
     1
102
RTVSPropertyOp28
 70
     1
102
RTVSPropertyOp29
 70
     1
102
RTVSPropertyOp30
 70
     1
102
RTVSPropertyOp31
 70
     1
102
RTVSPropertyOp32
 70
     1
  0
XRECORD
  5
1FE
102
{ACAD_REACTORS
330
1FD
102
}
330
1FD
100
AcDbXrecord
280
     1
102
RTVSPropertyOp0
 70
     1
102
RTVSPropertyOp1
 70
     1
102
RTVSPropertyOp2
 70
     1
102
RTVSPropertyOp3
 70
     1
102
RTVSPropertyOp4
 70
     1
102
RTVSPropertyOp5
 70
     1
102
RTVSPropertyOp6
 70
     1
102
RTVSPropertyOp7
 70
     1
102
RTVSPropertyOp8
 70
     1
102
RTVSPropertyOp9
 70
     1
102
RTVSPropertyOp10
 70
     1
102
RTVSPropertyOp11
 70
     1
102
RTVSPropertyOp12
 70
     1
102
RTVSPropertyOp13
 70
     1
102
RTVSPropertyOp14
 70
     1
102
RTVSPropertyOp15
 70
     1
102
RTVSPropertyOp16
 70
     1
102
RTVSPropertyOp17
 70
     1
102
RTVSPropertyOp18
 70
     1
102
RTVSPropertyOp19
 70
     1
102
RTVSPropertyOp20
 70
     1
102
RTVSPropertyOp21
 70
     1
102
RTVSPropertyOp22
 70
     1
102
RTVSPropertyOp23
 70
     1
102
RTVSPropertyOp24
 70
     1
102
RTVSPropertyOp25
 70
     1
102
RTVSPropertyOp26
 70
     1
102
RTVSPropertyOp27
 70
     1
102
RTVSPropertyOp28
 70
     1
102
RTVSPropertyOp29
 70
     1
102
RTVSPropertyOp30
 70
     1
102
RTVSPropertyOp31
 70
     1
102
RTVSPropertyOp32
 70
     1
  0
XRECORD
  5
206
102
{ACAD_REACTORS
330
205
102
}
330
205
100
AcDbXrecord
280
     1
102
RTVSPropertyOp0
 70
     1
102
RTVSPropertyOp1
 70
     1
102
RTVSPropertyOp2
 70
     1
102
RTVSPropertyOp3
 70
     1
102
RTVSPropertyOp4
 70
     1
102
RTVSPropertyOp5
 70
     1
102
RTVSPropertyOp6
 70
     1
102
RTVSPropertyOp7
 70
     1
102
RTVSPropertyOp8
 70
     1
102
RTVSPropertyOp9
 70
     1
102
RTVSPropertyOp10
 70
     1
102
RTVSPropertyOp11
 70
     1
102
RTVSPropertyOp12
 70
     1
102
RTVSPropertyOp13
 70
     1
102
RTVSPropertyOp14
 70
     1
102
RTVSPropertyOp15
 70
     1
102
RTVSPropertyOp16
 70
     1
102
RTVSPropertyOp17
 70
     1
102
RTVSPropertyOp18
 70
     1
102
RTVSPropertyOp19
 70
     1
102
RTVSPropertyOp20
 70
     1
102
RTVSPropertyOp21
 70
     1
102
RTVSPropertyOp22
 70
     1
102
RTVSPropertyOp23
 70
     1
102
RTVSPropertyOp24
 70
     1
102
RTVSPropertyOp25
 70
     1
102
RTVSPropertyOp26
 70
     1
102
RTVSPropertyOp27
 70
     1
102
RTVSPropertyOp28
 70
     1
102
RTVSPropertyOp29
 70
     1
102
RTVSPropertyOp30
 70
     1
102
RTVSPropertyOp31
 70
     1
102
RTVSPropertyOp32
 70
     1
  0
XRECORD
  5
1FA
102
{ACAD_REACTORS
330
1F9
102
}
330
1F9
100
AcDbXrecord
280
     1
102
RTVSPropertyOp0
 70
     1
102
RTVSPropertyOp1
 70
     1
102
RTVSPropertyOp2
 70
     1
102
RTVSPropertyOp3
 70
     1
102
RTVSPropertyOp4
 70
     1
102
RTVSPropertyOp5
 70
     1
102
RTVSPropertyOp6
 70
     1
102
RTVSPropertyOp7
 70
     1
102
RTVSPropertyOp8
 70
     1
102
RTVSPropertyOp9
 70
     1
102
RTVSPropertyOp10
 70
     1
102
RTVSPropertyOp11
 70
     1
102
RTVSPropertyOp12
 70
     1
102
RTVSPropertyOp13
 70
     1
102
RTVSPropertyOp14
 70
     1
102
RTVSPropertyOp15
 70
     1
102
RTVSPropertyOp16
 70
     1
102
RTVSPropertyOp17
 70
     1
102
RTVSPropertyOp18
 70
     1
102
RTVSPropertyOp19
 70
     1
102
RTVSPropertyOp20
 70
     1
102
RTVSPropertyOp21
 70
     1
102
RTVSPropertyOp22
 70
     1
102
RTVSPropertyOp23
 70
     1
102
RTVSPropertyOp24
 70
     1
102
RTVSPropertyOp25
 70
     1
102
RTVSPropertyOp26
 70
     1
102
RTVSPropertyOp27
 70
     1
102
RTVSPropertyOp28
 70
     1
102
RTVSPropertyOp29
 70
     1
102
RTVSPropertyOp30
 70
     1
102
RTVSPropertyOp31
 70
     1
102
RTVSPropertyOp32
 70
     1
  0
XRECORD
  5
1FC
102
{ACAD_REACTORS
330
1FB
102
}
330
1FB
100
AcDbXrecord
280
     1
102
RTVSPropertyOp0
 70
     1
102
RTVSPropertyOp1
 70
     1
102
RTVSPropertyOp2
 70
     1
102
RTVSPropertyOp3
 70
     1
102
RTVSPropertyOp4
 70
     1
102
RTVSPropertyOp5
 70
     1
102
RTVSPropertyOp6
 70
     1
102
RTVSPropertyOp7
 70
     1
102
RTVSPropertyOp8
 70
     1
102
RTVSPropertyOp9
 70
     1
102
RTVSPropertyOp10
 70
     1
102
RTVSPropertyOp11
 70
     1
102
RTVSPropertyOp12
 70
     1
102
RTVSPropertyOp13
 70
     1
102
RTVSPropertyOp14
 70
     1
102
RTVSPropertyOp15
 70
     1
102
RTVSPropertyOp16
 70
     1
102
RTVSPropertyOp17
 70
     1
102
RTVSPropertyOp18
 70
     1
102
RTVSPropertyOp19
 70
     1
102
RTVSPropertyOp20
 70
     1
102
RTVSPropertyOp21
 70
     1
102
RTVSPropertyOp22
 70
     1
102
RTVSPropertyOp23
 70
     1
102
RTVSPropertyOp24
 70
     1
102
RTVSPropertyOp25
 70
     1
102
RTVSPropertyOp26
 70
     1
102
RTVSPropertyOp27
 70
     1
102
RTVSPropertyOp28
 70
     1
102
RTVSPropertyOp29
 70
     1
102
RTVSPropertyOp30
 70
     1
102
RTVSPropertyOp31
 70
     1
102
RTVSPropertyOp32
 70
     1
  0
XRECORD
  5
204
102
{ACAD_REACTORS
330
203
102
}
330
203
100
AcDbXrecord
280
     1
102
RTVSPropertyOp0
 70
     1
102
RTVSPropertyOp1
 70
     1
102
RTVSPropertyOp2
 70
     1
102
RTVSPropertyOp3
 70
     1
102
RTVSPropertyOp4
 70
     1
102
RTVSPropertyOp5
 70
     1
102
RTVSPropertyOp6
 70
     1
102
RTVSPropertyOp7
 70
     1
102
RTVSPropertyOp8
 70
     1
102
RTVSPropertyOp9
 70
     1
102
RTVSPropertyOp10
 70
     1
102
RTVSPropertyOp11
 70
     1
102
RTVSPropertyOp12
 70
     1
102
RTVSPropertyOp13
 70
     1
102
RTVSPropertyOp14
 70
     1
102
RTVSPropertyOp15
 70
     1
102
RTVSPropertyOp16
 70
     1
102
RTVSPropertyOp17
 70
     1
102
RTVSPropertyOp18
 70
     1
102
RTVSPropertyOp19
 70
     1
102
RTVSPropertyOp20
 70
     1
102
RTVSPropertyOp21
 70
     1
102
RTVSPropertyOp22
 70
     1
102
RTVSPropertyOp23
 70
     1
102
RTVSPropertyOp24
 70
     1
102
RTVSPropertyOp25
 70
     1
102
RTVSPropertyOp26
 70
     1
102
RTVSPropertyOp27
 70
     1
102
RTVSPropertyOp28
 70
     1
102
RTVSPropertyOp29
 70
     1
102
RTVSPropertyOp30
 70
     1
102
RTVSPropertyOp31
 70
     1
102
RTVSPropertyOp32
 70
     1
  0
XRECORD
  5
1E8
102
{ACAD_REACTORS
330
1E7
102
}
330
1E7
100
AcDbXrecord
280
     1
102
RTVSPropertyOp0
 70
     1
102
RTVSPropertyOp1
 70
     1
102
RTVSPropertyOp2
 70
     1
102
RTVSPropertyOp3
 70
     1
102
RTVSPropertyOp4
 70
     1
102
RTVSPropertyOp5
 70
     1
102
RTVSPropertyOp6
 70
     1
102
RTVSPropertyOp7
 70
     1
102
RTVSPropertyOp8
 70
     1
102
RTVSPropertyOp9
 70
     1
102
RTVSPropertyOp10
 70
     1
102
RTVSPropertyOp11
 70
     1
102
RTVSPropertyOp12
 70
     1
102
RTVSPropertyOp13
 70
     1
102
RTVSPropertyOp14
 70
     1
102
RTVSPropertyOp15
 70
     1
102
RTVSPropertyOp16
 70
     1
102
RTVSPropertyOp17
 70
     1
102
RTVSPropertyOp18
 70
     1
102
RTVSPropertyOp19
 70
     1
102
RTVSPropertyOp20
 70
     1
102
RTVSPropertyOp21
 70
     1
102
RTVSPropertyOp22
 70
     1
102
RTVSPropertyOp23
 70
     1
102
RTVSPropertyOp24
 70
     1
102
RTVSPropertyOp25
 70
     1
102
RTVSPropertyOp26
 70
     1
102
RTVSPropertyOp27
 70
     1
102
RTVSPropertyOp28
 70
     1
102
RTVSPropertyOp29
 70
     1
102
RTVSPropertyOp30
 70
     1
102
RTVSPropertyOp31
 70
     1
102
RTVSPropertyOp32
 70
     1
  0
XRECORD
  5
1EA
102
{ACAD_REACTORS
330
1E9
102
}
330
1E9
100
AcDbXrecord
280
     1
102
RTVSPropertyOp0
 70
     1
102
RTVSPropertyOp1
 70
     1
102
RTVSPropertyOp2
 70
     1
102
RTVSPropertyOp3
 70
     1
102
RTVSPropertyOp4
 70
     1
102
RTVSPropertyOp5
 70
     1
102
RTVSPropertyOp6
 70
     1
102
RTVSPropertyOp7
 70
     1
102
RTVSPropertyOp8
 70
     1
102
RTVSPropertyOp9
 70
     1
102
RTVSPropertyOp10
 70
     1
102
RTVSPropertyOp11
 70
     1
102
RTVSPropertyOp12
 70
     1
102
RTVSPropertyOp13
 70
     1
102
RTVSPropertyOp14
 70
     1
102
RTVSPropertyOp15
 70
     1
102
RTVSPropertyOp16
 70
     1
102
RTVSPropertyOp17
 70
     1
102
RTVSPropertyOp18
 70
     1
102
RTVSPropertyOp19
 70
     1
102
RTVSPropertyOp20
 70
     1
102
RTVSPropertyOp21
 70
     1
102
RTVSPropertyOp22
 70
     1
102
RTVSPropertyOp23
 70
     1
102
RTVSPropertyOp24
 70
     1
102
RTVSPropertyOp25
 70
     1
102
RTVSPropertyOp26
 70
     1
102
RTVSPropertyOp27
 70
     1
102
RTVSPropertyOp28
 70
     1
102
RTVSPropertyOp29
 70
     1
102
RTVSPropertyOp30
 70
     1
102
RTVSPropertyOp31
 70
     1
102
RTVSPropertyOp32
 70
     1
  0
XRECORD
  5
1EC
102
{ACAD_REACTORS
330
1EB
102
}
330
1EB
100
AcDbXrecord
280
     1
102
RTVSPropertyOp0
 70
     1
102
RTVSPropertyOp1
 70
     1
102
RTVSPropertyOp2
 70
     1
102
RTVSPropertyOp3
 70
     1
102
RTVSPropertyOp4
 70
     1
102
RTVSPropertyOp5
 70
     1
102
RTVSPropertyOp6
 70
     1
102
RTVSPropertyOp7
 70
     1
102
RTVSPropertyOp8
 70
     1
102
RTVSPropertyOp9
 70
     1
102
RTVSPropertyOp10
 70
     1
102
RTVSPropertyOp11
 70
     1
102
RTVSPropertyOp12
 70
     1
102
RTVSPropertyOp13
 70
     1
102
RTVSPropertyOp14
 70
     1
102
RTVSPropertyOp15
 70
     1
102
RTVSPropertyOp16
 70
     1
102
RTVSPropertyOp17
 70
     1
102
RTVSPropertyOp18
 70
     1
102
RTVSPropertyOp19
 70
     1
102
RTVSPropertyOp20
 70
     1
102
RTVSPropertyOp21
 70
     1
102
RTVSPropertyOp22
 70
     1
102
RTVSPropertyOp23
 70
     1
102
RTVSPropertyOp24
 70
     1
102
RTVSPropertyOp25
 70
     1
102
RTVSPropertyOp26
 70
     1
102
RTVSPropertyOp27
 70
     1
102
RTVSPropertyOp28
 70
     1
102
RTVSPropertyOp29
 70
     1
102
RTVSPropertyOp30
 70
     1
102
RTVSPropertyOp31
 70
     1
102
RTVSPropertyOp32
 70
     1
  0
XRECORD
  5
1EE
102
{ACAD_REACTORS
330
1ED
102
}
330
1ED
100
AcDbXrecord
280
     1
102
RTVSPropertyOp0
 70
     1
102
RTVSPropertyOp1
 70
     1
102
RTVSPropertyOp2
 70
     1
102
RTVSPropertyOp3
 70
     1
102
RTVSPropertyOp4
 70
     1
102
RTVSPropertyOp5
 70
     1
102
RTVSPropertyOp6
 70
     1
102
RTVSPropertyOp7
 70
     1
102
RTVSPropertyOp8
 70
     1
102
RTVSPropertyOp9
 70
     1
102
RTVSPropertyOp10
 70
     1
102
RTVSPropertyOp11
 70
     1
102
RTVSPropertyOp12
 70
     1
102
RTVSPropertyOp13
 70
     1
102
RTVSPropertyOp14
 70
     1
102
RTVSPropertyOp15
 70
     1
102
RTVSPropertyOp16
 70
     1
102
RTVSPropertyOp17
 70
     1
102
RTVSPropertyOp18
 70
     1
102
RTVSPropertyOp19
 70
     1
102
RTVSPropertyOp20
 70
     1
102
RTVSPropertyOp21
 70
     1
102
RTVSPropertyOp22
 70
     1
102
RTVSPropertyOp23
 70
     1
102
RTVSPropertyOp24
 70
     1
102
RTVSPropertyOp25
 70
     1
102
RTVSPropertyOp26
 70
     1
102
RTVSPropertyOp27
 70
     1
102
RTVSPropertyOp28
 70
     1
102
RTVSPropertyOp29
 70
     1
102
RTVSPropertyOp30
 70
     1
102
RTVSPropertyOp31
 70
     1
102
RTVSPropertyOp32
 70
     1
  0
XRECORD
  5
202
102
{ACAD_REACTORS
330
201
102
}
330
201
100
AcDbXrecord
280
     1
102
RTVSPropertyOp0
 70
     1
102
RTVSPropertyOp1
 70
     1
102
RTVSPropertyOp2
 70
     1
102
RTVSPropertyOp3
 70
     1
102
RTVSPropertyOp4
 70
     1
102
RTVSPropertyOp5
 70
     1
102
RTVSPropertyOp6
 70
     1
102
RTVSPropertyOp7
 70
     1
102
RTVSPropertyOp8
 70
     1
102
RTVSPropertyOp9
 70
     1
102
RTVSPropertyOp10
 70
     1
102
RTVSPropertyOp11
 70
     1
102
RTVSPropertyOp12
 70
     1
102
RTVSPropertyOp13
 70
     1
102
RTVSPropertyOp14
 70
     1
102
RTVSPropertyOp15
 70
     1
102
RTVSPropertyOp16
 70
     1
102
RTVSPropertyOp17
 70
     1
102
RTVSPropertyOp18
 70
     1
102
RTVSPropertyOp19
 70
     1
102
RTVSPropertyOp20
 70
     1
102
RTVSPropertyOp21
 70
     1
102
RTVSPropertyOp22
 70
     1
102
RTVSPropertyOp23
 70
     1
102
RTVSPropertyOp24
 70
     1
102
RTVSPropertyOp25
 70
     1
102
RTVSPropertyOp26
 70
     1
102
RTVSPropertyOp27
 70
     1
102
RTVSPropertyOp28
 70
     1
102
RTVSPropertyOp29
 70
     1
102
RTVSPropertyOp30
 70
     1
102
RTVSPropertyOp31
 70
     1
102
RTVSPropertyOp32
 70
     1
  0
XRECORD
  5
1F8
102
{ACAD_REACTORS
330
1F7
102
}
330
1F7
100
AcDbXrecord
280
     1
102
RTVSPropertyOp0
 70
     1
102
RTVSPropertyOp1
 70
     1
102
RTVSPropertyOp2
 70
     1
102
RTVSPropertyOp3
 70
     1
102
RTVSPropertyOp4
 70
     1
102
RTVSPropertyOp5
 70
     1
102
RTVSPropertyOp6
 70
     1
102
RTVSPropertyOp7
 70
     1
102
RTVSPropertyOp8
 70
     1
102
RTVSPropertyOp9
 70
     1
102
RTVSPropertyOp10
 70
     1
102
RTVSPropertyOp11
 70
     1
102
RTVSPropertyOp12
 70
     1
102
RTVSPropertyOp13
 70
     1
102
RTVSPropertyOp14
 70
     1
102
RTVSPropertyOp15
 70
     1
102
RTVSPropertyOp16
 70
     1
102
RTVSPropertyOp17
 70
     1
102
RTVSPropertyOp18
 70
     1
102
RTVSPropertyOp19
 70
     1
102
RTVSPropertyOp20
 70
     1
102
RTVSPropertyOp21
 70
     1
102
RTVSPropertyOp22
 70
     1
102
RTVSPropertyOp23
 70
     1
102
RTVSPropertyOp24
 70
     1
102
RTVSPropertyOp25
 70
     1
102
RTVSPropertyOp26
 70
     1
102
RTVSPropertyOp27
 70
     1
102
RTVSPropertyOp28
 70
     1
102
RTVSPropertyOp29
 70
     1
102
RTVSPropertyOp30
 70
     1
102
RTVSPropertyOp31
 70
     1
102
RTVSPropertyOp32
 70
     1
  0
XRECORD
  5
200
102
{ACAD_REACTORS
330
1FF
102
}
330
1FF
100
AcDbXrecord
280
     1
102
RTVSPropertyOp0
 70
     1
102
RTVSPropertyOp1
 70
     1
102
RTVSPropertyOp2
 70
     1
102
RTVSPropertyOp3
 70
     1
102
RTVSPropertyOp4
 70
     1
102
RTVSPropertyOp5
 70
     1
102
RTVSPropertyOp6
 70
     1
102
RTVSPropertyOp7
 70
     1
102
RTVSPropertyOp8
 70
     1
102
RTVSPropertyOp9
 70
     1
102
RTVSPropertyOp10
 70
     1
102
RTVSPropertyOp11
 70
     1
102
RTVSPropertyOp12
 70
     1
102
RTVSPropertyOp13
 70
     1
102
RTVSPropertyOp14
 70
     1
102
RTVSPropertyOp15
 70
     1
102
RTVSPropertyOp16
 70
     1
102
RTVSPropertyOp17
 70
     1
102
RTVSPropertyOp18
 70
     1
102
RTVSPropertyOp19
 70
     1
102
RTVSPropertyOp20
 70
     1
102
RTVSPropertyOp21
 70
     1
102
RTVSPropertyOp22
 70
     1
102
RTVSPropertyOp23
 70
     1
102
RTVSPropertyOp24
 70
     1
102
RTVSPropertyOp25
 70
     1
102
RTVSPropertyOp26
 70
     1
102
RTVSPropertyOp27
 70
     1
102
RTVSPropertyOp28
 70
     1
102
RTVSPropertyOp29
 70
     1
102
RTVSPropertyOp30
 70
     1
102
RTVSPropertyOp31
 70
     1
102
RTVSPropertyOp32
 70
     1
  0
ENDSEC
  0
EOF
