  0
SECTION
  2
HEADER
  9
$ACADVER
  1
AC1015
  9
$ACADMAINTVER
 70
     6
  9
$DWGCODEPAGE
  3
DOS932
  9
$INSBASE
 10
0.0
 20
0.0
 30
0.0
  9
$EXTMIN
 10
0.0
 20
0.0
 30
0.0
  9
$EXTMAX
 10
315.0
 20
445.5
 30
0.0
  9
$LIMMIN
 10
0.0
 20
0.0
  9
$LIMMAX
 10
12.0
 20
9.0
  9
$ORTHOMODE
 70
     0
  9
$REGENMODE
 70
     1
  9
$FILLMODE
 70
     1
  9
$QTEXTMODE
 70
     0
  9
$MIRRTEXT
 70
     1
  9
$LTSCALE
 40
1.0
  9
$ATTMODE
 70
     1
  9
$TEXTSIZE
 40
0.2
  9
$TRACEWID
 40
0.05
  9
$TEXTSTYLE
  7
Standard
  9
$CLAYER
  8
0
  9
$CELTYPE
  6
ByLayer
  9
$CECOLOR
 62
   256
  9
$CELTSCALE
 40
1.0
  9
$DISPSILH
 70
     0
  9
$DIMSCALE
 40
1.0
  9
$DIMASZ
 40
0.18
  9
$DIMEXO
 40
0.0625
  9
$DIMDLI
 40
0.38
  9
$DIMRND
 40
0.0
  9
$DIMDLE
 40
0.0
  9
$DIMEXE
 40
0.18
  9
$DIMTP
 40
0.0
  9
$DIMTM
 40
0.0
  9
$DIMTXT
 40
0.18
  9
$DIMCEN
 40
0.09
  9
$DIMTSZ
 40
0.0
  9
$DIMTOL
 70
     0
  9
$DIMLIM
 70
     0
  9
$DIMTIH
 70
     1
  9
$DIMTOH
 70
     1
  9
$DIMSE1
 70
     0
  9
$DIMSE2
 70
     0
  9
$DIMTAD
 70
     0
  9
$DIMZIN
 70
     0
  9
$DIMBLK
  1

  9
$DIMASO
 70
     1
  9
$DIMSHO
 70
     1
  9
$DIMPOST
  1

  9
$DIMAPOST
  1

  9
$DIMALT
 70
     0
  9
$DIMALTD
 70
     2
  9
$DIMALTF
 40
25.4
  9
$DIMLFAC
 40
1.0
  9
$DIMTOFL
 70
     0
  9
$DIMTVP
 40
0.0
  9
$DIMTIX
 70
     0
  9
$DIMSOXD
 70
     0
  9
$DIMSAH
 70
     0
  9
$DIMBLK1
  1

  9
$DIMBLK2
  1

  9
$DIMSTYLE
  2
Standard
  9
$DIMCLRD
 70
     0
  9
$DIMCLRE
 70
     0
  9
$DIMCLRT
 70
     0
  9
$DIMTFAC
 40
1.0
  9
$DIMGAP
 40
0.09
  9
$DIMJUST
 70
     0
  9
$DIMSD1
 70
     0
  9
$DIMSD2
 70
     0
  9
$DIMTOLJ
 70
     1
  9
$DIMTZIN
 70
     0
  9
$DIMALTZ
 70
     0
  9
$DIMALTTZ
 70
     0
  9
$DIMUPT
 70
     0
  9
$DIMDEC
 70
     4
  9
$DIMTDEC
 70
     4
  9
$DIMALTU
 70
     2
  9
$DIMALTTD
 70
     2
  9
$DIMTXSTY
  7
Standard
  9
$DIMAUNIT
 70
     0
  9
$DIMADEC
 70
     0
  9
$DIMALTRND
 40
0.0
  9
$DIMAZIN
 70
     0
  9
$DIMDSEP
 70
    46
  9
$DIMATFIT
 70
     3
  9
$DIMFRAC
 70
     0
  9
$DIMLDRBLK
  1

  9
$DIMLUNIT
 70
     2
  9
$DIMLWD
 70
    -2
  9
$DIMLWE
 70
    -2
  9
$DIMTMOVE
 70
     0
  9
$LUNITS
 70
     2
  9
$LUPREC
 70
     4
  9
$SKETCHINC
 40
0.1
  9
$FILLETRAD
 40
0.5
  9
$AUNITS
 70
     0
  9
$AUPREC
 70
     0
  9
$MENU
  1
.
  9
$ELEVATION
 40
0.0
  9
$PELEVATION
 40
0.0
  9
$THICKNESS
 40
0.0
  9
$LIMCHECK
 70
     0
  9
$CHAMFERA
 40
0.5
  9
$CHAMFERB
 40
0.5
  9
$CHAMFERC
 40
1.0
  9
$CHAMFERD
 40
0.0
  9
$SKPOLY
 70
     0
  9
$TDCREATE
 40
2456143.66488588
  9
$TDUCREATE
 40
2456143.28988588
  9
$TDUPDATE
 40
2456143.664885891
  9
$TDUUPDATE
 40
2456143.289885891
  9
$TDINDWG
 40
0.0000000116
  9
$TDUSRTIMER
 40
0.0000000116
  9
$USRTIMER
 70
     1
  9
$ANGBASE
 50
0.0
  9
$ANGDIR
 70
     0
  9
$PDMODE
 70
     0
  9
$PDSIZE
 40
0.0
  9
$PLINEWID
 40
0.0
  9
$SPLFRAME
 70
     0
  9
$SPLINETYPE
 70
     6
  9
$SPLINESEGS
 70
     8
  9
$HANDSEED
  5
32B
  9
$SURFTAB1
 70
     6
  9
$SURFTAB2
 70
     6
  9
$SURFTYPE
 70
     6
  9
$SURFU
 70
     6
  9
$SURFV
 70
     6
  9
$UCSBASE
  2

  9
$UCSNAME
  2

  9
$UCSORG
 10
0.0
 20
0.0
 30
0.0
  9
$UCSXDIR
 10
1.0
 20
0.0
 30
0.0
  9
$UCSYDIR
 10
0.0
 20
1.0
 30
0.0
  9
$UCSORTHOREF
  2

  9
$UCSORTHOVIEW
 70
     0
  9
$UCSORGTOP
 10
0.0
 20
0.0
 30
0.0
  9
$UCSORGBOTTOM
 10
0.0
 20
0.0
 30
0.0
  9
$UCSORGLEFT
 10
0.0
 20
0.0
 30
0.0
  9
$UCSORGRIGHT
 10
0.0
 20
0.0
 30
0.0
  9
$UCSORGFRONT
 10
0.0
 20
0.0
 30
0.0
  9
$UCSORGBACK
 10
0.0
 20
0.0
 30
0.0
  9
$PUCSBASE
  2

  9
$PUCSNAME
  2

  9
$PUCSORG
 10
0.0
 20
0.0
 30
0.0
  9
$PUCSXDIR
 10
1.0
 20
0.0
 30
0.0
  9
$PUCSYDIR
 10
0.0
 20
1.0
 30
0.0
  9
$PUCSORTHOREF
  2

  9
$PUCSORTHOVIEW
 70
     0
  9
$PUCSORGTOP
 10
0.0
 20
0.0
 30
0.0
  9
$PUCSORGBOTTOM
 10
0.0
 20
0.0
 30
0.0
  9
$PUCSORGLEFT
 10
0.0
 20
0.0
 30
0.0
  9
$PUCSORGRIGHT
 10
0.0
 20
0.0
 30
0.0
  9
$PUCSORGFRONT
 10
0.0
 20
0.0
 30
0.0
  9
$PUCSORGBACK
 10
0.0
 20
0.0
 30
0.0
  9
$USERI1
 70
     0
  9
$USERI2
 70
     0
  9
$USERI3
 70
     0
  9
$USERI4
 70
     0
  9
$USERI5
 70
     0
  9
$USERR1
 40
13.2
  9
$USERR2
 40
0.0
  9
$USERR3
 40
0.0
  9
$USERR4
 40
0.0
  9
$USERR5
 40
0.0
  9
$WORLDVIEW
 70
     1
  9
$SHADEDGE
 70
     3
  9
$SHADEDIF
 70
    70
  9
$TILEMODE
 70
     1
  9
$MAXACTVP
 70
    64
  9
$PINSBASE
 10
0.0
 20
0.0
 30
0.0
  9
$PLIMCHECK
 70
     0
  9
$PEXTMIN
 10
1.00000000000000E+20
 20
1.00000000000000E+20
 30
1.00000000000000E+20
  9
$PEXTMAX
 10
-1.00000000000000E+20
 20
-1.00000000000000E+20
 30
-1.00000000000000E+20
  9
$PLIMMIN
 10
0.0
 20
0.0
  9
$PLIMMAX
 10
12.0
 20
9.0
  9
$UNITMODE
 70
     0
  9
$VISRETAIN
 70
     1
  9
$PLINEGEN
 70
     0
  9
$PSLTSCALE
 70
     1
  9
$TREEDEPTH
 70
  3020
  9
$CMLSTYLE
  2
Standard
  9
$CMLJUST
 70
     0
  9
$CMLSCALE
 40
1.0
  9
$PROXYGRAPHICS
 70
     1
  9
$MEASUREMENT
 70
     1
  9
$CELWEIGHT
370
    -1
  9
$ENDCAPS
280
     0
  9
$JOINSTYLE
280
     0
  9
$LWDISPLAY
290
     0
  9
$INSUNITS
 70
     1
  9
$HYPERLINKBASE
  1

  9
$STYLESHEET
  1

  9
$XEDIT
290
     1
  9
$CEPSNTYPE
380
     0
  9
$PSTYLEMODE
290
     0
  9
$FINGERPRINTGUID
  2
{FAEB1C30-E019-11D5-929B-00C0DF256EC4}
  9
$VERSIONGUID
  2
{FAEB1C32-E019-11D5-929B-00C0DF256EC4}
  9
$EXTNAMES
290
     1
  9
$PSVPSCALE
 40
0.0
  9
$OLESTARTUP
290
     0
  0
ENDSEC
  0
SECTION
  2
CLASSES
  0
CLASS
  1
ACDBDICTIONARYWDFLT
  2
AcDbDictionaryWithDefault
  3
ObjectDBX Classes
 90
        0
280
     0
281
     0
  0
CLASS
  1
TABLESTYLE
  2
AcDbTableStyle
  3
ObjectDBX Classes
 90
     2047
280
     0
281
     0
  0
CLASS
  1
DICTIONARYVAR
  2
AcDbDictionaryVar
  3
ObjectDBX Classes
 90
        0
280
     0
281
     0
  0
CLASS
  1

  2
exOdDbCircle
  3

 90
        0
280
     0
281
     1
  0
CLASS
  1

  2
exOdDbSpline
  3

 90
        0
280
     0
281
     1
  0
CLASS
  1
ACDBPLACEHOLDER
  2
AcDbPlaceHolder
  3
ObjectDBX Classes
 90
        0
280
     0
281
     0
  0
CLASS
  1
LAYOUT
  2
AcDbLayout
  3
ObjectDBX Classes
 90
        0
280
     0
281
     0
  0
ENDSEC
  0
SECTION
  2
TABLES
  0
TABLE
  2
VPORT
  5
8
330
0
100
AcDbSymbolTable
 70
     2
  0
VPORT
  5
29
330
8
100
AcDbSymbolTableRecord
100
AcDbViewportTableRecord
  2
*Active
 70
     0
 10
0.0
 20
0.0
 11
1.0
 21
1.0
 12
157.5
 22
222.75
 13
0.0
 23
0.0
 14
0.5
 24
0.5
 15
0.5
 25
0.5
 16
0.0
 26
0.0
 36
1.0
 17
0.0
 27
0.0
 37
0.0
 40
490.05
 41
1.60267857142857
 42
50.0
 43
0.0
 44
0.0
 50
0.0
 51
0.0
 71
     0
 72
   100
 73
     1
 74
     3
 75
     0
 76
     0
 77
     0
 78
     0
281
     0
 65
     1
110
0.0
120
0.0
130
0.0
111
1.0
121
0.0
131
0.0
112
0.0
122
1.0
132
0.0
 79
     0
146
0.0
  0
ENDTAB
  0
TABLE
  2
LTYPE
  5
5
330
0
100
AcDbSymbolTable
 70
     8
  0
LTYPE
  5
14
330
5
100
AcDbSymbolTableRecord
100
AcDbLinetypeTableRecord
  2
ByBlock
 70
     0
  3

 72
    65
 73
     0
 40
0.0
  0
LTYPE
  5
15
330
5
100
AcDbSymbolTableRecord
100
AcDbLinetypeTableRecord
  2
ByLayer
 70
     0
  3

 72
    65
 73
     0
 40
0.0
  0
LTYPE
  5
16
330
5
100
AcDbSymbolTableRecord
100
AcDbLinetypeTableRecord
  2
Continuous
 70
     0
  3
Solid line
 72
    65
 73
     0
 40
0.0
  0
LTYPE
  5
2E
330
5
100
AcDbSymbolTableRecord
100
AcDbLinetypeTableRecord
  2
DASHED
 70
     0
  3
Dashed
 72
    65
 73
     2
 40
15.0
 49
7.0
 74
     0
 49
-8.0
 74
     0
  0
LTYPE
  5
2F
330
5
100
AcDbSymbolTableRecord
100
AcDbLinetypeTableRecord
  2
DOTTED
 70
     0
  3
Dotted
 72
    65
 73
     2
 40
1.0
 49
0.0
 74
     0
 49
-1.0
 74
     0
  0
LTYPE
  5
30
330
5
100
AcDbSymbolTableRecord
100
AcDbLinetypeTableRecord
  2
DOT_CENTER
 70
     0
  3
Dot_Center
 72
    65
 73
     4
 40
14.0
 49
12.0
 74
     0
 49
-1.0
 74
     0
 49
0.0
 74
     0
 49
-1.0
 74
     0
  0
LTYPE
  5
31
330
5
100
AcDbSymbolTableRecord
100
AcDbLinetypeTableRecord
  2
LONG_DASHED
 70
     0
  3
Long_Dashed
 72
    65
 73
     2
 40
15.0
 49
10.0
 74
     0
 49
-5.0
 74
     0
  0
LTYPE
  5
32
330
5
100
AcDbSymbolTableRecord
100
AcDbLinetypeTableRecord
  2
DASH_CENTER
 70
     0
  3
Dash_Center
 72
    65
 73
     4
 40
14.0
 49
11.0
 74
     0
 49
-1.0
 74
     0
 49
1.0
 74
     0
 49
-1.0
 74
     0
  0
LTYPE
  5
33
330
5
100
AcDbSymbolTableRecord
100
AcDbLinetypeTableRecord
  2
PHANTOM
 70
     0
  3
Phantom
 72
    65
 73
     6
 40
13.0
 49
10.0
 74
     0
 49
-1.0
 74
     0
 49
0.0
 74
     0
 49
-1.0
 74
     0
 49
0.0
 74
     0
 49
-1.0
 74
     0
  0
LTYPE
  5
34
330
5
100
AcDbSymbolTableRecord
100
AcDbLinetypeTableRecord
  2
CENTER_DASH_DASH
 70
     0
  3
Center_Dash_Dash
 72
    65
 73
     6
 40
14.0
 49
9.0
 74
     0
 49
-1.0
 74
     0
 49
1.0
 74
     0
 49
-1.0
 74
     0
 49
1.0
 74
     0
 49
-1.0
 74
     0
  0
ENDTAB
  0
TABLE
  2
LAYER
  5
2
330
0
100
AcDbSymbolTable
 70
     2
  0
LAYER
  5
10
330
2
100
AcDbSymbolTableRecord
100
AcDbLayerTableRecord
  2
0
 70
     0
 62
     7
  6
Continuous
370
    -3
390
F
  0
LAYER
  5
35
330
2
100
AcDbSymbolTableRecord
100
AcDbLayerTableRecord
  2
1
 70
     0
 62
     7
  6
Continuous
370
    -3
390
F
  0
ENDTAB
  0
TABLE
  2
STYLE
  5
3
330
0
100
AcDbSymbolTable
 70
     3
  0
STYLE
  5
11
330
3
100
AcDbSymbolTableRecord
100
AcDbTextStyleTableRecord
  2
Standard
 70
     0
 40
0.0
 41
1.0
 50
0.0
 71
     0
 42
0.2
  3
txt
  4

  0
STYLE
  5
1BC
330
3
100
AcDbSymbolTableRecord
100
AcDbTextStyleTableRecord
  2
CONVERTER_1
 70
     0
 40
0.0
 41
0.89
 50
0.0
 71
     0
 42
0.2
  3
msmincho.ttc
  4

1001
ACAD
1000
MS Mincho
1071
    32785
  0
STYLE
  5
2C6
330
3
100
AcDbSymbolTableRecord
100
AcDbTextStyleTableRecord
  2
CONVERTER_2
 70
     0
 40
0.0
 41
0.9
 50
0.0
 71
     0
 42
0.2
  3
txt.shx
  4

  0
ENDTAB
  0
TABLE
  2
VIEW
  5
6
330
0
100
AcDbSymbolTable
 70
     0
  0
ENDTAB
  0
TABLE
  2
UCS
  5
7
330
0
100
AcDbSymbolTable
 70
     0
  0
ENDTAB
  0
TABLE
  2
APPID
  5
9
330
0
100
AcDbSymbolTable
 70
     1
  0
APPID
  5
12
330
9
100
AcDbSymbolTableRecord
100
AcDbRegAppTableRecord
  2
ACAD
 70
     0
  0
ENDTAB
  0
TABLE
  2
DIMSTYLE
  5
A
330
0
100
AcDbSymbolTable
 70
     9
100
AcDbDimStyleTable
  0
DIMSTYLE
105
27
330
A
100
AcDbSymbolTableRecord
100
AcDbDimStyleTableRecord
  2
Standard
 70
     0
340
11
  0
DIMSTYLE
105
2D6
102
{ACAD_REACTORS
330
2D7
102
}
330
A
100
AcDbSymbolTableRecord
100
AcDbDimStyleTableRecord
  2
ME10_DIM_0
 70
     0
 41
5.25
 42
0.0
 44
1.5
 73
     0
 74
     0
 77
     1
 78
     8
140
5.25
147
0.625
172
     1
173
     1
176
     2
177
     2
178
     7
271
     2
340
2C6
  0
DIMSTYLE
105
2E3
102
{ACAD_REACTORS
330
2E4
102
}
330
A
100
AcDbSymbolTableRecord
100
AcDbDimStyleTableRecord
  2
ME10_DIM_1
 70
     0
 41
5.25
 42
0.0
 44
1.5
 73
     0
 74
     0
 77
     1
 78
     8
140
5.25
147
0.625
172
     1
173
     1
176
     2
177
     2
178
     7
271
     2
340
2C6
  0
DIMSTYLE
105
2EE
102
{ACAD_REACTORS
330
2EF
102
}
330
A
100
AcDbSymbolTableRecord
100
AcDbDimStyleTableRecord
  2
ME10_DIM_2
 70
     0
 41
5.25
 42
0.0
 44
1.5
 73
     0
 74
     0
 77
     1
 78
     8
140
5.25
147
0.625
172
     1
173
     1
176
     2
177
     2
178
     7
271
     2
340
2C6
  0
DIMSTYLE
105
2F9
102
{ACAD_REACTORS
330
2FA
102
}
330
A
100
AcDbSymbolTableRecord
100
AcDbDimStyleTableRecord
  2
ME10_DIM_3
 70
     0
  3
{\Fgdt;n}<>
 41
5.25
 42
0.0
 44
1.5
 73
     0
 74
     0
 77
     1
 78
     8
140
5.25
147
0.625
172
     1
173
     1
176
     2
177
     2
178
     7
271
     2
340
2C6
  0
DIMSTYLE
105
307
102
{ACAD_REACTORS
330
308
102
}
330
A
100
AcDbSymbolTableRecord
100
AcDbDimStyleTableRecord
  2
ME10_DIM_4
 70
     0
 41
5.25
 42
0.0
 44
1.5
 73
     0
 74
     0
 77
     1
 78
     8
140
5.25
147
0.625
172
     1
173
     1
176
     2
177
     2
178
     7
271
     2
340
2C6
344
304
  0
DIMSTYLE
105
312
102
{ACAD_REACTORS
330
313
102
}
330
A
100
AcDbSymbolTableRecord
100
AcDbDimStyleTableRecord
  2
ME10_DIM_5
 70
     0
 41
5.25
 42
0.0
 44
1.5
 77
     1
 78
     8
140
5.25
147
0.625
172
     1
173
     1
176
     2
177
     2
178
     7
271
     2
340
2C6
  0
DIMSTYLE
105
31D
102
{ACAD_REACTORS
330
31E
102
}
330
A
100
AcDbSymbolTableRecord
100
AcDbDimStyleTableRecord
  2
ME10_DIM_6
 70
     0
 41
5.25
 42
0.0
 44
1.5
 73
     0
 74
     0
 77
     1
 78
     8
140
5.25
147
0.625
172
     1
173
     1
176
     2
177
     2
178
     7
271
     2
340
1BC
  0
DIMSTYLE
105
329
102
{ACAD_REACTORS
330
32A
102
}
330
A
100
AcDbSymbolTableRecord
100
AcDbDimStyleTableRecord
  2
ME10_DIM_7
 70
     0
 41
5.25
 42
0.0
 44
1.5
 73
     0
 74
     0
 77
     1
 78
     8
140
5.25
147
0.625
172
     1
173
     1
176
     2
177
     2
178
     7
271
     2
340
2C6
344
304
  0
ENDTAB
  0
TABLE
  2
BLOCK_RECORD
  5
1
330
0
100
AcDbSymbolTable
 70
    24
  0
BLOCK_RECORD
  5
1F
330
1
100
AcDbSymbolTableRecord
100
AcDbBlockTableRecord
  2
*Model_Space
340
22
  0
BLOCK_RECORD
  5
1B
330
1
100
AcDbSymbolTableRecord
100
AcDbBlockTableRecord
  2
*Paper_Space
340
1E
  0
BLOCK_RECORD
  5
23
330
1
100
AcDbSymbolTableRecord
100
AcDbBlockTableRecord
  2
*Paper_Space0
340
26
  0
BLOCK_RECORD
  5
36
330
1
100
AcDbSymbolTableRecord
100
AcDbBlockTableRecord
  2
P82A-15
340
0
102
{BLKREFS
331
69
102
}
  0
BLOCK_RECORD
  5
39
330
1
100
AcDbSymbolTableRecord
100
AcDbBlockTableRecord
  2
42-1
340
0
102
{BLKREFS
331
4C
102
}
  0
BLOCK_RECORD
  5
3C
330
1
100
AcDbSymbolTableRecord
100
AcDbBlockTableRecord
  2
21-1A
340
0
102
{BLKREFS
331
4D
102
}
  0
BLOCK_RECORD
  5
3F
330
1
100
AcDbSymbolTableRecord
100
AcDbBlockTableRecord
  2
R20F
340
0
102
{BLKREFS
331
4E
102
}
  0
BLOCK_RECORD
  5
42
330
1
100
AcDbSymbolTableRecord
100
AcDbBlockTableRecord
  2
P42A-1S-13
340
0
102
{BLKREFS
331
4F
102
}
  0
BLOCK_RECORD
  5
45
330
1
100
AcDbSymbolTableRecord
100
AcDbBlockTableRecord
  2
37-1-13
340
0
102
{BLKREFS
331
50
102
}
  0
BLOCK_RECORD
  5
48
330
1
100
AcDbSymbolTableRecord
100
AcDbBlockTableRecord
  2
36-1A-13-M4
340
0
102
{BLKREFS
331
51
102
}
  0
BLOCK_RECORD
  5
4B
330
1
100
AcDbSymbolTableRecord
100
AcDbBlockTableRecord
  2
R10A-13
340
0
102
{BLKREFS
331
6A
102
}
  0
BLOCK_RECORD
  5
54
330
1
100
AcDbSymbolTableRecord
100
AcDbBlockTableRecord
  2
Y22-0-13
340
0
102
{BLKREFS
331
6B
102
}
  0
BLOCK_RECORD
  5
57
330
1
100
AcDbSymbolTableRecord
100
AcDbBlockTableRecord
  2
_J__A4
340
0
102
{BLKREFS
331
6C
102
}
  0
BLOCK_RECORD
  5
5A
330
1
100
AcDbSymbolTableRecord
100
AcDbBlockTableRecord
  2
62-1A
340
0
102
{BLKREFS
331
64
102
}
  0
BLOCK_RECORD
  5
5D
330
1
100
AcDbSymbolTableRecord
100
AcDbBlockTableRecord
  2
32-1-16
340
0
102
{BLKREFS
331
65
102
}
  0
BLOCK_RECORD
  5
60
330
1
100
AcDbSymbolTableRecord
100
AcDbBlockTableRecord
  2
75-2
340
0
102
{BLKREFS
331
66
102
}
  0
BLOCK_RECORD
  5
63
330
1
100
AcDbSymbolTableRecord
100
AcDbBlockTableRecord
  2
Y12J-64X
340
0
102
{BLKREFS
331
6D
102
}
  0
BLOCK_RECORD
  5
2CD
330
1
100
AcDbSymbolTableRecord
100
AcDbBlockTableRecord
  2
*D015
340
0
  0
BLOCK_RECORD
  5
2D8
330
1
100
AcDbSymbolTableRecord
100
AcDbBlockTableRecord
  2
*D116
340
0
  0
BLOCK_RECORD
  5
2E5
330
1
100
AcDbSymbolTableRecord
100
AcDbBlockTableRecord
  2
*D217
340
0
  0
BLOCK_RECORD
  5
2F0
330
1
100
AcDbSymbolTableRecord
100
AcDbBlockTableRecord
  2
*D318
340
0
  0
BLOCK_RECORD
  5
2FB
330
1
100
AcDbSymbolTableRecord
100
AcDbBlockTableRecord
  2
*D419
340
0
  0
BLOCK_RECORD
  5
304
330
1
100
AcDbSymbolTableRecord
100
AcDbBlockTableRecord
  2
_None
340
0
  0
BLOCK_RECORD
  5
309
330
1
100
AcDbSymbolTableRecord
100
AcDbBlockTableRecord
  2
*D521
340
0
  0
BLOCK_RECORD
  5
314
330
1
100
AcDbSymbolTableRecord
100
AcDbBlockTableRecord
  2
*D622
340
0
  0
BLOCK_RECORD
  5
31F
330
1
100
AcDbSymbolTableRecord
100
AcDbBlockTableRecord
  2
*D723
340
0
  0
ENDTAB
  0
ENDSEC
  0
SECTION
  2
BLOCKS
  0
BLOCK
  5
20
330
1F
100
AcDbEntity
  8
0
100
AcDbBlockBegin
  2
*Model_Space
 70
     0
 71
     0
 10
0.0
 20
0.0
 30
0.0
  3
*Model_Space
  1

  0
ENDBLK
  5
21
330
1F
100
AcDbEntity
  8
0
100
AcDbBlockEnd
  0
BLOCK
  5
1C
330
1B
100
AcDbEntity
 67
     1
  8
0
100
AcDbBlockBegin
  2
*Paper_Space
 70
     0
 71
     0
 10
0.0
 20
0.0
 30
0.0
  3
*Paper_Space
  1

  0
ENDBLK
  5
1D
330
1B
100
AcDbEntity
 67
     1
  8
0
100
AcDbBlockEnd
  0
BLOCK
  5
24
330
23
100
AcDbEntity
  8
0
100
AcDbBlockBegin
  2
*Paper_Space0
 70
     0
 71
     0
 10
0.0
 20
0.0
 30
0.0
  3
*Paper_Space0
  1

  0
ENDBLK
  5
25
330
23
100
AcDbEntity
  8
0
100
AcDbBlockEnd
  0
BLOCK
  5
37
330
36
100
AcDbEntity
  8
0
100
AcDbBlockBegin
  2
P82A-15
 70
     0
 71
     0
 10
55.13298420913424
 20
89.86755516822866
 30
0.0
  3
P82A-15
  1

  0
LINE
  5
6E
330
36
100
AcDbEntity
  8
1
  6
PHANTOM
 62
     4
100
AcDbLine
 10
202.9316283859452
 20
135.8420514725465
 30
0.0
 11
202.9316283859452
 21
165.8420514725464
 31
0.0
  0
ENDBLK
  5
38
330
36
100
AcDbEntity
  8
0
100
AcDbBlockEnd
  0
BLOCK
  5
3A
330
39
100
AcDbEntity
  8
0
100
AcDbBlockBegin
  2
42-1
 70
     0
 71
     0
 10
172.9384230464025
 20
99.84498618925049
 30
0.0
  3
42-1
  1

  0
LINE
  5
6F
330
39
100
AcDbEntity
  8
1
  6
Continuous
 62
     7
100
AcDbLine
 10
65.91341326227934
 20
194.3441805959729
 30
0.0
 11
66.41341326227934
 21
194.3441805959729
 31
0.0
  0
LINE
  5
70
330
39
100
AcDbEntity
  8
1
  6
Continuous
 62
     7
100
AcDbLine
 10
65.41341326227934
 20
194.3441805959729
 30
0.0
 11
65.91341326227934
 21
194.3441805959729
 31
0.0
  0
LINE
  5
71
330
39
100
AcDbEntity
  8
1
  6
Continuous
 62
     7
100
AcDbLine
 10
64.91341326227934
 20
194.3441805959729
 30
0.0
 11
65.41341326227934
 21
194.3441805959729
 31
0.0
  0
LINE
  5
72
330
39
100
AcDbEntity
  8
1
  6
Continuous
 62
     7
100
AcDbLine
 10
64.41341326227934
 20
194.3441805959729
 30
0.0
 11
64.91341326227934
 21
194.3441805959729
 31
0.0
  0
LINE
  5
73
330
39
100
AcDbEntity
  8
1
  6
Continuous
 62
     7
100
AcDbLine
 10
76.41341326227934
 20
194.3441805959729
 30
0.0
 11
66.41341326227934
 21
194.3441805959729
 31
0.0
  0
LINE
  5
74
330
39
100
AcDbEntity
  8
1
  6
Continuous
 62
     7
100
AcDbLine
 10
76.41341326227934
 20
194.3441805959729
 30
0.0
 11
76.91341326227934
 21
194.3441805959729
 31
0.0
  0
LINE
  5
75
330
39
100
AcDbEntity
  8
1
  6
Continuous
 62
     7
100
AcDbLine
 10
76.91341326227934
 20
194.3441805959729
 30
0.0
 11
77.41341326227934
 21
194.3441805959729
 31
0.0
  0
LINE
  5
76
330
39
100
AcDbEntity
  8
1
  6
Continuous
 62
     7
100
AcDbLine
 10
77.41341326227934
 20
194.3441805959729
 30
0.0
 11
77.91341326227934
 21
194.3441805959729
 31
0.0
  0
LINE
  5
77
330
39
100
AcDbEntity
  8
1
  6
Continuous
 62
     7
100
AcDbLine
 10
77.91341326227934
 20
194.3441805959729
 30
0.0
 11
78.41341326227934
 21
194.3441805959729
 31
0.0
  0
LINE
  5
78
330
39
100
AcDbEntity
  8
1
  6
Continuous
 62
     7
100
AcDbLine
 10
78.41341326227934
 20
197.3441805959727
 30
0.0
 11
78.41341326227934
 21
194.3441805959729
 31
0.0
  0
LINE
  5
79
330
39
100
AcDbEntity
  8
1
  6
Continuous
 62
     2
100
AcDbLine
 10
77.41341326227934
 20
194.3441805959729
 30
0.0
 11
77.41341326227934
 21
197.3441805959727
 31
0.0
  0
LINE
  5
7A
330
39
100
AcDbEntity
  8
1
  6
Continuous
 62
     2
100
AcDbLine
 10
76.41341326227934
 20
194.3441805959729
 30
0.0
 11
76.41341326227934
 21
197.3441805959727
 31
0.0
  0
LINE
  5
7B
330
39
100
AcDbEntity
  8
1
  6
Continuous
 62
     2
100
AcDbLine
 10
75.41341326227934
 20
194.5102289084244
 30
0.0
 11
75.41341326227934
 21
197.1542541875207
 31
0.0
  0
LINE
  5
7C
330
39
100
AcDbEntity
  8
1
  6
Continuous
 62
     2
100
AcDbLine
 10
74.41341326227934
 20
194.7048810762107
 30
0.0
 11
74.41341326227934
 21
197.0407070896453
 31
0.0
  0
LINE
  5
7D
330
39
100
AcDbEntity
  8
1
  6
Continuous
 62
     7
100
AcDbLine
 10
76.41341326227934
 20
197.3441805959727
 30
0.0
 11
66.41341326227934
 21
197.3441805959727
 31
0.0
  0
LINE
  5
7E
330
39
100
AcDbEntity
  8
1
  6
Continuous
 62
     7
100
AcDbLine
 10
71.41341326227934
 20
197.6739463161765
 30
0.0
 11
77.16341326227934
 21
197.6739463161765
 31
0.0
  0
LINE
  5
7F
330
39
100
AcDbEntity
  8
1
  6
Continuous
 62
     7
100
AcDbLine
 10
76.91341326227934
 20
197.3441805959727
 30
0.0
 11
77.41341326227934
 21
197.3441805959727
 31
0.0
  0
LINE
  5
80
330
39
100
AcDbEntity
  8
1
  6
Continuous
 62
     7
100
AcDbLine
 10
77.91341326227934
 20
197.3441805959727
 30
0.0
 11
78.41341326227934
 21
197.3441805959727
 31
0.0
  0
LINE
  5
81
330
39
100
AcDbEntity
  8
1
  6
Continuous
 62
     7
100
AcDbLine
 10
77.41341326227953
 20
197.613502794996
 30
0.0
 11
78.41341326227934
 21
197.3441805959727
 31
0.0
  0
LINE
  5
82
330
39
100
AcDbEntity
  8
1
  6
Continuous
 62
     7
100
AcDbLine
 10
77.41341326227934
 20
197.3441805959727
 30
0.0
 11
77.91341326227934
 21
197.3441805959727
 31
0.0
  0
LINE
  5
83
330
39
100
AcDbEntity
  8
1
  6
Continuous
 62
     7
100
AcDbLine
 10
76.41341326227934
 20
197.3441805959727
 30
0.0
 11
76.91341326227934
 21
197.3441805959727
 31
0.0
  0
LINE
  5
84
330
39
100
AcDbEntity
  8
1
  6
Continuous
 62
     7
100
AcDbLine
 10
65.66341326227934
 20
197.6739463161765
 30
0.0
 11
71.41341326227934
 21
197.6739463161765
 31
0.0
  0
LINE
  5
85
330
39
100
AcDbEntity
  8
1
  6
Continuous
 62
     7
100
AcDbLine
 10
65.41341326227934
 20
197.3441805959727
 30
0.0
 11
65.91341326227934
 21
197.3441805959727
 31
0.0
  0
LINE
  5
86
330
39
100
AcDbEntity
  8
1
  6
Continuous
 62
     7
100
AcDbLine
 10
64.41341326227934
 20
197.3441805959727
 30
0.0
 11
64.91341326227934
 21
197.3441805959727
 31
0.0
  0
LINE
  5
87
330
39
100
AcDbEntity
  8
1
  6
Continuous
 62
     7
100
AcDbLine
 10
64.91341326227934
 20
197.3441805959727
 30
0.0
 11
65.41341326227934
 21
197.3441805959727
 31
0.0
  0
LINE
  5
88
330
39
100
AcDbEntity
  8
1
  6
Continuous
 62
     7
100
AcDbLine
 10
65.91341326227934
 20
197.3441805959727
 30
0.0
 11
66.41341326227934
 21
197.3441805959727
 31
0.0
  0
LINE
  5
89
330
39
100
AcDbEntity
  8
1
  6
Continuous
 62
     2
100
AcDbLine
 10
73.41341326227934
 20
195.0617433838187
 30
0.0
 11
73.41341326227934
 21
196.8298339078768
 31
0.0
  0
LINE
  5
8A
330
39
100
AcDbEntity
  8
1
  6
Continuous
 62
     2
100
AcDbLine
 10
72.41341326227934
 20
195.3212796075337
 30
0.0
 11
72.41341326227934
 21
196.5865186981442
 31
0.0
  0
LINE
  5
8B
330
39
100
AcDbEntity
  8
1
  6
Continuous
 62
     2
100
AcDbLine
 10
70.41341326227934
 20
196.5865186981442
 30
0.0
 11
70.41341326227934
 21
195.3212796075337
 31
0.0
  0
LINE
  5
8C
330
39
100
AcDbEntity
  8
1
  6
Continuous
 62
     2
100
AcDbLine
 10
69.41341326227934
 20
196.8298339078768
 30
0.0
 11
69.41341326227934
 21
195.0617433838187
 31
0.0
  0
LINE
  5
8D
330
39
100
AcDbEntity
  8
1
  6
Continuous
 62
     2
100
AcDbLine
 10
68.41341326227934
 20
197.0407070896453
 30
0.0
 11
68.41341326227934
 21
194.7048810762107
 31
0.0
  0
LINE
  5
8E
330
39
100
AcDbEntity
  8
1
  6
Continuous
 62
     2
100
AcDbLine
 10
67.41341326227934
 20
197.1542541875207
 30
0.0
 11
67.41341326227934
 21
194.5102289084244
 31
0.0
  0
LINE
  5
8F
330
39
100
AcDbEntity
  8
1
  6
Continuous
 62
     2
100
AcDbLine
 10
66.41341326227934
 20
197.3441805959727
 30
0.0
 11
66.41341326227934
 21
194.3441805959729
 31
0.0
  0
LINE
  5
90
330
39
100
AcDbEntity
  8
1
  6
Continuous
 62
     2
100
AcDbLine
 10
65.41341326227934
 20
197.3441805959727
 30
0.0
 11
65.41341326227934
 21
194.3441805959729
 31
0.0
  0
LINE
  5
91
330
39
100
AcDbEntity
  8
1
  6
Continuous
 62
     7
100
AcDbLine
 10
64.41341326227934
 20
194.3441805959729
 30
0.0
 11
64.41341326227934
 21
197.3441805959727
 31
0.0
  0
LINE
  5
92
330
39
100
AcDbEntity
  8
1
  6
Continuous
 62
     7
100
AcDbLine
 10
64.41341326227934
 20
197.3441805959727
 30
0.0
 11
65.41341326227934
 21
197.613502794996
 31
0.0
  0
LINE
  5
93
330
39
100
AcDbEntity
  8
1
  6
Continuous
 62
     7
100
AcDbLine
 10
67.41341326227934
 20
194.3441805959729
 30
0.0
 11
75.41341326227934
 21
194.3441805959729
 31
0.0
  0
LINE
  5
94
330
39
100
AcDbEntity
  8
1
  6
Continuous
 62
     7
100
AcDbLine
 10
202.9316283859452
 20
197.6718171927502
 30
0.0
 11
208.6816283859451
 21
197.6718171927502
 31
0.0
  0
LINE
  5
95
330
39
100
AcDbEntity
  8
1
  6
Continuous
 62
     2
100
AcDbLine
 10
208.9316283859451
 20
194.3420514725464
 30
0.0
 11
208.9316283859451
 21
197.3420514725464
 31
0.0
  0
LINE
  5
96
330
39
100
AcDbEntity
  8
1
  6
Continuous
 62
     7
100
AcDbLine
 10
208.9316283859452
 20
197.6113736715697
 30
0.0
 11
209.9316283859451
 21
197.3420514725464
 31
0.0
  0
LINE
  5
97
330
39
100
AcDbEntity
  8
1
  6
Continuous
 62
     7
100
AcDbLine
 10
209.9316283859451
 20
197.3420514725464
 30
0.0
 11
209.9316283859451
 21
194.3420514725464
 31
0.0
  0
LINE
  5
98
330
39
100
AcDbEntity
  8
1
  6
Continuous
 62
     7
100
AcDbLine
 10
208.9316283859451
 20
197.3420514725464
 30
0.0
 11
209.9316283859451
 21
197.3420514725464
 31
0.0
  0
LINE
  5
99
330
39
100
AcDbEntity
  8
1
  6
Continuous
 62
     7
100
AcDbLine
 10
207.9316283859451
 20
197.3420514725464
 30
0.0
 11
208.9316283859451
 21
197.3420514725464
 31
0.0
  0
LINE
  5
9A
330
39
100
AcDbEntity
  8
1
  6
Continuous
 62
     7
100
AcDbLine
 10
197.1816283859452
 20
197.6718171927502
 30
0.0
 11
202.9316283859452
 21
197.6718171927502
 31
0.0
  0
LINE
  5
9B
330
39
100
AcDbEntity
  8
1
  6
Continuous
 62
     2
100
AcDbLine
 10
201.9316283859452
 20
196.5843895747177
 30
0.0
 11
201.9316283859452
 21
195.3191504841072
 31
0.0
  0
LINE
  5
9C
330
39
100
AcDbEntity
  8
1
  6
Continuous
 62
     2
100
AcDbLine
 10
200.9316283859452
 20
196.8277047844505
 30
0.0
 11
200.9316283859452
 21
195.0596142603922
 31
0.0
  0
LINE
  5
9D
330
39
100
AcDbEntity
  8
1
  6
Continuous
 62
     7
100
AcDbLine
 10
195.9316283859452
 20
197.3420514725464
 30
0.0
 11
196.9316283859451
 21
197.6113736715697
 31
0.0
  0
LINE
  5
9E
330
39
100
AcDbEntity
  8
1
  6
Continuous
 62
     7
100
AcDbLine
 10
195.9316283859452
 20
197.3420514725464
 30
0.0
 11
196.9316283859452
 21
197.3420514725464
 31
0.0
  0
LINE
  5
9F
330
39
100
AcDbEntity
  8
1
  6
Continuous
 62
     7
100
AcDbLine
 10
196.9316283859452
 20
197.3420514725464
 30
0.0
 11
197.9316283859452
 21
197.3420514725464
 31
0.0
  0
LINE
  5
A0
330
39
100
AcDbEntity
  8
1
  6
Continuous
 62
     7
100
AcDbLine
 10
197.9316283859452
 20
197.3420514725464
 30
0.0
 11
207.9316283859451
 21
197.3420514725464
 31
0.0
  0
LINE
  5
A1
330
39
100
AcDbEntity
  8
1
  6
Continuous
 62
     2
100
AcDbLine
 10
203.9316283859451
 20
195.3191504841072
 30
0.0
 11
203.9316283859451
 21
196.5843895747177
 31
0.0
  0
LINE
  5
A2
330
39
100
AcDbEntity
  8
1
  6
Continuous
 62
     2
100
AcDbLine
 10
204.9316283859451
 20
195.0596142603922
 30
0.0
 11
204.9316283859451
 21
196.8277047844505
 31
0.0
  0
LINE
  5
A3
330
39
100
AcDbEntity
  8
1
  6
Continuous
 62
     2
100
AcDbLine
 10
205.9316283859451
 20
194.7027519527842
 30
0.0
 11
205.9316283859451
 21
197.0385779662188
 31
0.0
  0
LINE
  5
A4
330
39
100
AcDbEntity
  8
1
  6
Continuous
 62
     2
100
AcDbLine
 10
206.9316283859451
 20
194.5080997849979
 30
0.0
 11
206.9316283859451
 21
197.1521250640942
 31
0.0
  0
LINE
  5
A5
330
39
100
AcDbEntity
  8
1
  6
Continuous
 62
     2
100
AcDbLine
 10
207.9316283859451
 20
194.3420514725464
 30
0.0
 11
207.9316283859451
 21
197.3420514725464
 31
0.0
  0
LINE
  5
A6
330
39
100
AcDbEntity
  8
1
  6
Continuous
 62
     7
100
AcDbLine
 10
209.9316283859451
 20
194.3420514725464
 30
0.0
 11
195.9316283859452
 21
194.3420514725464
 31
0.0
  0
LINE
  5
A7
330
39
100
AcDbEntity
  8
1
  6
Continuous
 62
     2
100
AcDbLine
 10
199.9316283859452
 20
197.0385779662188
 30
0.0
 11
199.9316283859452
 21
194.7027519527842
 31
0.0
  0
LINE
  5
A8
330
39
100
AcDbEntity
  8
1
  6
Continuous
 62
     2
100
AcDbLine
 10
198.9316283859452
 20
197.1521250640942
 30
0.0
 11
198.9316283859452
 21
194.5080997849979
 31
0.0
  0
LINE
  5
A9
330
39
100
AcDbEntity
  8
1
  6
Continuous
 62
     2
100
AcDbLine
 10
197.9316283859452
 20
197.3420514725464
 30
0.0
 11
197.9316283859452
 21
194.3420514725464
 31
0.0
  0
LINE
  5
AA
330
39
100
AcDbEntity
  8
1
  6
Continuous
 62
     2
100
AcDbLine
 10
196.9316283859452
 20
197.3420514725464
 30
0.0
 11
196.9316283859452
 21
194.3420514725464
 31
0.0
  0
LINE
  5
AB
330
39
100
AcDbEntity
  8
1
  6
Continuous
 62
     7
100
AcDbLine
 10
195.9316283859452
 20
194.3420514725464
 30
0.0
 11
195.9316283859452
 21
197.3420514725464
 31
0.0
  0
ARC
  5
AC
330
39
100
AcDbEntity
  8
1
  6
Continuous
 62
     7
100
AcDbCircle
 10
71.41341326227934
 20
173.3441805959728
 30
0.0
 40
24.99999999999999
100
AcDbArc
 50
76.70292825279094
 51
90.0
  0
ARC
  5
AD
330
39
100
AcDbEntity
  8
1
  6
Continuous
 62
     7
100
AcDbCircle
 10
71.41341326227934
 20
173.3441805959728
 30
0.0
 40
24.99999999999989
100
AcDbArc
 50
90.0
 51
103.2970717472091
  0
ARC
  5
AE
330
39
100
AcDbEntity
  8
1
  6
Continuous
 62
     7
100
AcDbCircle
 10
71.41341326227934
 20
173.3441805959728
 30
0.0
 40
25.00000000000006
100
AcDbArc
 50
76.11345963737058
 51
76.70292825279094
  0
ARC
  5
AF
330
39
100
AcDbEntity
  8
1
  6
Continuous
 62
     7
100
AcDbCircle
 10
71.41341326227934
 20
173.3441805959728
 30
0.0
 40
24.99999999999999
100
AcDbArc
 50
103.2970717472091
 51
103.886540362629
  0
ARC
  5
B0
330
39
100
AcDbEntity
  8
1
  6
Continuous
 62
     7
100
AcDbCircle
 10
202.9316283859452
 20
173.3420514725464
 30
0.0
 40
25.00000000000008
100
AcDbArc
 50
76.70292825279125
 51
90.0
  0
ARC
  5
B1
330
39
100
AcDbEntity
  8
1
  6
Continuous
 62
     7
100
AcDbCircle
 10
202.9316283859452
 20
173.3420514725464
 30
0.0
 40
25.0
100
AcDbArc
 50
90.0
 51
103.297071747209
  0
ARC
  5
B2
330
39
100
AcDbEntity
  8
1
  6
Continuous
 62
     7
100
AcDbCircle
 10
202.9316283859452
 20
173.3420514725464
 30
0.0
 40
25.00000000000012
100
AcDbArc
 50
76.11345963737108
 51
76.70292825279125
  0
ARC
  5
B3
330
39
100
AcDbEntity
  8
1
  6
Continuous
 62
     7
100
AcDbCircle
 10
202.9316283859452
 20
173.3420514725464
 30
0.0
 40
25.0000000000001
100
AcDbArc
 50
103.297071747209
 51
103.8865403626292
  0
CIRCLE
  5
B4
330
39
100
AcDbEntity
  8
1
  6
Continuous
 62
     7
100
AcDbCircle
 10
71.41341326227928
 20
301.6138438710988
 30
0.0
 40
5.749999999999886
  0
CIRCLE
  5
B5
330
39
100
AcDbEntity
  8
1
  6
Continuous
 62
     7
100
AcDbCircle
 10
71.41341326227928
 20
301.6138438710988
 30
0.0
 40
6.999999999999886
  0
ENDBLK
  5
3B
330
39
100
AcDbEntity
  8
0
100
AcDbBlockEnd
  0
BLOCK
  5
3D
330
3C
100
AcDbEntity
  8
0
100
AcDbBlockBegin
  2
21-1A
 70
     0
 71
     0
 10
178.0754051292695
 20
83.80745944323735
 30
0.0
  3
21-1A
  1

  0
LINE
  5
B6
330
3C
100
AcDbEntity
  8
1
  6
Continuous
 62
     7
100
AcDbLine
 10
99.05918239126125
 20
183.9137671464529
 30
0.0
 11
98.60727429226886
 21
187.1292603513236
 31
0.0
  0
LINE
  5
B7
330
3C
100
AcDbEntity
  8
1
  6
Continuous
 62
     7
100
AcDbLine
 10
77.88388938984255
 20
187.1292603513236
 30
0.0
 11
77.88388938984255
 21
185.1990719672662
 31
0.0
  0
LINE
  5
B8
330
3C
100
AcDbEntity
  8
1
  6
Continuous
 62
     7
100
AcDbLine
 10
64.94293713471654
 20
185.3519111286117
 30
0.0
 11
64.94293713471654
 21
187.1292603513236
 31
0.0
  0
LINE
  5
B9
330
3C
100
AcDbEntity
  8
1
  6
Continuous
 62
     7
100
AcDbLine
 10
44.26277816766844
 20
183.3441805959728
 30
0.0
 11
98.56404835689047
 21
183.3441805959728
 31
0.0
  0
LINE
  5
BA
330
3C
100
AcDbEntity
  8
1
  6
Continuous
 62
     7
100
AcDbLine
 10
44.21955223229006
 20
187.1292603513236
 30
0.0
 11
43.76764413329775
 21
183.9137671464529
 31
0.0
  0
LINE
  5
BB
330
3C
100
AcDbEntity
  8
1
  6
Continuous
 62
     7
100
AcDbLine
 10
216.7239197894357
 20
183.3420514725464
 30
0.0
 11
220.8564026738709
 21
183.3420514725464
 31
0.0
  0
LINE
  5
BC
330
3C
100
AcDbEntity
  8
1
  6
Continuous
 62
     7
100
AcDbLine
 10
172.4635866541773
 20
187.1271312278971
 30
0.0
 11
172.0116785551849
 21
183.9116380230265
 31
0.0
  0
LINE
  5
BD
330
3C
100
AcDbEntity
  8
1
  6
Continuous
 62
     7
100
AcDbLine
 10
65.61785830454471
 20
275.0609296004835
 30
0.0
 11
61.96644909307432
 21
288.6881742969165
 31
0.0
  0
LINE
  5
BE
330
3C
100
AcDbEntity
  8
1
  6
Continuous
 62
     7
100
AcDbLine
 10
45.52013748054893
 20
309.8712031839795
 30
0.0
 11
55.49597296551133
 21
299.8953676990171
 31
0.0
  0
LINE
  5
BF
330
3C
100
AcDbEntity
  8
1
  6
Continuous
 62
     7
100
AcDbLine
 10
51.31569243828332
 20
319.9093988288331
 30
0.0
 11
64.94293713471612
 21
316.2579896173627
 31
0.0
  0
LINE
  5
C0
330
3C
100
AcDbEntity
  8
1
  6
Continuous
 62
     7
100
AcDbLine
 10
92.27163898889552
 20
320.1131755033301
 30
0.0
 11
77.88388938984221
 21
316.2579896173627
 31
0.0
  0
LINE
  5
C1
330
3C
100
AcDbEntity
  8
1
  6
Continuous
 62
     7
100
AcDbLine
 10
97.30668904400943
 20
309.8712031839795
 30
0.0
 11
87.33085355904711
 21
299.8953676990171
 31
0.0
  0
LINE
  5
C2
330
3C
100
AcDbEntity
  8
1
  6
Continuous
 62
     7
100
AcDbLine
 10
77.2089682200135
 20
275.0609296004835
 30
0.0
 11
80.86037743148401
 21
288.6881742969165
 31
0.0
  0
LINE
  5
C3
330
3C
100
AcDbEntity
  8
1
  6
Continuous
 62
     7
100
AcDbLine
 10
220.7343142402964
 20
188.3011280782901
 30
0.0
 11
221.351531734304
 21
183.911673405259
 31
0.0
  0
LINE
  5
C4
330
3C
100
AcDbEntity
  8
1
  6
Continuous
 62
     7
100
AcDbLine
 10
198.1816283859452
 20
183.3420514725464
 30
0.0
 11
197.1816283859452
 21
183.3420514725464
 31
0.0
  0
LINE
  5
C5
330
3C
100
AcDbEntity
  8
1
  6
Continuous
 62
     7
100
AcDbLine
 10
207.6816283859452
 20
183.3420514725464
 30
0.0
 11
216.7239197894357
 21
183.3420514725464
 31
0.0
  0
LINE
  5
C6
330
3C
100
AcDbEntity
  8
1
  6
Continuous
 62
     7
100
AcDbLine
 10
172.5068125895556
 20
183.3420514725464
 30
0.0
 11
207.6816283859452
 21
183.3420514725464
 31
0.0
  0
LINE
  5
C7
330
3C
100
AcDbEntity
  8
1
  6
Continuous
 62
     7
100
AcDbLine
 10
198.9316283859452
 20
194.3420514725464
 30
0.0
 11
206.9316283859452
 21
194.3420514725464
 31
0.0
  0
ARC
  5
C8
330
3C
100
AcDbEntity
  8
1
  6
Continuous
 62
     7
100
AcDbCircle
 10
69.77632291139025
 20
66.97402805564843
 30
0.0
 40
127.4948334081409
100
AcDbArc
 50
79.19050675364781
 51
87.46588310520271
  0
ARC
  5
C9
330
3C
100
AcDbEntity
  8
1
  6
Continuous
 62
     7
100
AcDbCircle
 10
73.05050361316864
 20
66.97402805564843
 30
0.0
 40
127.4948334081409
100
AcDbArc
 50
92.53411689479739
 51
100.8094932463522
  0
ARC
  5
CA
330
3C
100
AcDbEntity
  8
1
  6
Continuous
 62
     7
100
AcDbCircle
 10
202.9316283859452
 20
44.34205147254643
 30
0.0
 40
150.0533238552215
100
AcDbArc
 50
91.52752544221293
 51
99.80290179376779
  0
ARC
  5
CB
330
3C
100
AcDbEntity
  8
1
  6
Continuous
 62
     7
100
AcDbCircle
 10
71.41341326227911
 20
276.6138438710988
 30
0.0
 40
6.000000000000033
100
AcDbArc
 50
-164.9999999999983
 51
-90.0
  0
ARC
  5
CC
330
3C
100
AcDbEntity
  8
1
  6
Continuous
 62
     7
100
AcDbCircle
 10
49.76277816766822
 20
314.1138438710988
 30
0.0
 40
5.999999999999869
100
AcDbArc
 50
74.99999999999994
 51
-134.9999999999998
  0
ARC
  5
CD
330
3C
100
AcDbEntity
  8
1
  6
Continuous
 62
     7
100
AcDbCircle
 10
93.06404835689011
 20
314.1138438710988
 30
0.0
 40
6.000000000000049
100
AcDbArc
 50
-45.0
 51
97.52424107894147
  0
ARC
  5
CE
330
3C
100
AcDbEntity
  8
1
  6
Continuous
 62
     7
100
AcDbCircle
 10
71.41341326227911
 20
276.6138438710988
 30
0.0
 40
6.000000000000114
100
AcDbArc
 50
-90.0
 51
-15.00000000000169
  0
ARC
  5
CF
330
3C
100
AcDbEntity
  8
1
  6
Continuous
 62
     7
100
AcDbCircle
 10
203.2958240511919
 20
119.4302304638472
 30
0.0
 40
75.0000000000001
100
AcDbArc
 50
80.4085075173349
 51
87.22136103403736
  0
SPLINE
  5
D0
330
3C
100
AcDbEntity
  8
0
  6
Continuous
 62
     7
100
AcDbSpline
210
0.0
220
0.0
230
1.0
 70
     8
 71
     3
 72
    35
 73
    31
 74
    29
 42
0.0000000001
 43
0.0000000001
 44
0.00000001
 40
0.0
 40
0.0
 40
0.0
 40
0.0
 40
0.6095664701736101
 40
1.217631710174682
 40
1.818364858744334
 40
2.420251448870755
 40
3.01257458476866
 40
3.604379366438702
 40
4.187127320374394
 40
4.770042709358936
 40
5.344635662521408
 40
5.919155670249409
 40
6.487495311598099
 40
7.055844637159789
 40
7.620860568606104
 40
8.185865086527191
 40
8.750867887076909
 40
9.315885831846195
 40
9.884245147472058
 40
10.45257411423281
 40
11.02705120930335
 40
11.60168882067758
 40
12.26274694007688
 40
12.92355591635734
 40
13.43733587887802
 40
13.95144934917272
 40
14.55327005497651
 40
15.15406389004635
 40
15.76214773013154
 40
16.37169678613078
 40
16.37169678613078
 40
16.37169678613078
 40
16.37169678613078
 10
65.33315459223684
 20
189.554009409849
 30
0.0
 10
65.40611751653566
 20
189.7436433712701
 30
0.0
 10
65.55186367325592
 20
190.1224442667435
 30
0.0
 10
65.79925469492518
 20
190.6765890820806
 30
0.0
 10
66.10221836672767
 20
191.1998773296234
 30
0.0
 10
66.44848406035625
 20
191.6886382619559
 30
0.0
 10
66.83077857836949
 20
192.145857301072
 30
0.0
 10
67.24608081793535
 20
192.564554270658
 30
0.0
 10
67.6948992263811
 20
192.9422742280315
 30
0.0
 10
68.17113202182236
 20
193.2748804305365
 30
0.0
 10
68.6732317747325
 20
193.5614821174553
 30
0.0
 10
69.19514778372216
 20
193.7987517685988
 30
0.0
 10
69.73503967403678
 20
193.9853775389939
 30
0.0
 10
70.28702178987122
 20
194.1196988528903
 30
0.0
 10
70.84819435454136
 20
194.2006328806189
 30
0.0
 10
71.41341263442043
 20
194.227810846741
 30
0.0
 10
71.97863191678992
 20
194.200637214204
 30
0.0
 10
72.53980778611685
 20
194.1196999722779
 30
0.0
 10
73.09178769018291
 20
193.9853665482742
 30
0.0
 10
73.63166573088816
 20
193.7987517817597
 30
0.0
 10
74.15359636511435
 20
193.5615115231434
 30
0.0
 10
74.67832984807532
 20
193.2619718314731
 30
0.0
 10
75.19525181856086
 20
192.8961119679725
 30
0.0
 10
75.65714617585643
 20
192.4931616237608
 30
0.0
 10
76.04700585916837
 20
192.0863958518499
 30
0.0
 10
76.39337732744048
 20
191.66734084066
 30
0.0
 10
76.72453215013309
 20
191.1998518200818
 30
0.0
 10
77.02757629188905
 20
190.6766096468892
 30
0.0
 10
77.27499390647662
 20
190.1224501003443
 30
0.0
 10
77.42072080445539
 20
189.7436415840765
 30
0.0
 10
77.49367193232183
 20
189.554009409849
 30
0.0
 11
65.33315459223684
 21
189.554009409849
 31
0.0
 11
65.55703422394404
 21
190.1209743047645
 31
0.0
 11
65.80981656122884
 21
190.6740063346275
 31
0.0
 11
66.10970495017784
 21
191.1945322897575
 31
0.0
 11
66.45674098042554
 21
191.6862979464314
 31
0.0
 11
66.83711163580401
 21
192.1403517558493
 31
0.0
 11
67.25427137870916
 21
192.5601262768803
 31
0.0
 11
67.70018168718522
 21
192.9353051337087
 31
0.0
 11
68.17817519849774
 21
193.2689404943318
 31
0.0
 11
68.67727487535247
 21
193.5536448574657
 31
0.0
 11
69.20038008974484
 21
193.7912036374661
 31
0.0
 11
69.73755629332501
 21
193.976815259504
 31
0.0
 11
70.28982687409055
 21
194.1110470049569
 31
0.0
 11
70.84905672497297
 21
194.1917004405327
 31
0.0
 11
71.41341326227934
 21
194.2187523179316
 31
0.0
 11
71.97776823694326
 21
194.1917037098139
 31
0.0
 11
72.53699965046803
 21
194.1110470049569
 31
0.0
 11
73.08927810938776
 21
193.9768053740373
 31
0.0
 11
73.62644643481387
 21
193.7912036374661
 31
0.0
 11
74.14952123832759
 21
193.5536816749242
 31
0.0
 11
74.64865132606097
 21
193.2689404943318
 31
0.0
 11
75.18839688020623
 21
192.8872697278272
 31
0.0
 11
75.68642402401343
 21
192.4529455779529
 31
0.0
 11
76.04222202138845
 21
192.0823006873208
 31
0.0
 11
76.37008554413313
 21
191.6862979464314
 31
0.0
 11
76.71703971397423
 21
191.1945551620776
 31
0.0
 11
77.01700996332986
 21
190.6740063346277
 31
0.0
 11
77.26982006820171
 21
190.1209665463236
 31
0.0
 11
77.49367193232183
 21
189.554009409849
 31
0.0
  0
ARC
  5
D1
330
3C
100
AcDbEntity
  8
1
  6
Continuous
 62
     7
100
AcDbCircle
 10
98.56404835689047
 20
183.8441805959728
 30
0.0
 40
0.5
100
AcDbArc
 50
-90.0
 51
8.00000000000733
  0
ARC
  5
D2
330
3C
100
AcDbEntity
  8
1
  6
Continuous
 62
     7
100
AcDbCircle
 10
92.66566587981944
 20
186.2942217455631
 30
0.0
 40
6.000000000000005
100
AcDbArc
 50
8.00000000000105
 51
80.19709820623221
  0
ARC
  5
D3
330
3C
100
AcDbEntity
  8
1
  6
Continuous
 62
     7
100
AcDbCircle
 10
44.26277816766844
 20
183.8441805959728
 30
0.0
 40
0.4999999999999177
100
AcDbArc
 50
171.9999999999913
 51
-90.0
  0
ARC
  5
D4
330
3C
100
AcDbEntity
  8
1
  6
Continuous
 62
     7
100
AcDbCircle
 10
50.16116064473954
 20
186.2942217455631
 30
0.0
 40
6.000000000000033
100
AcDbArc
 50
99.8029017937686
 51
171.999999999999
  0
ARC
  5
D5
330
3C
100
AcDbEntity
  8
1
  6
Continuous
 62
     7
100
AcDbCircle
 10
178.4051950666267
 20
186.2920926221368
 30
0.0
 40
6.000000000000019
100
AcDbArc
 50
99.8029017937678
 51
172.0000000000008
  0
ARC
  5
D6
330
3C
100
AcDbEntity
  8
1
  6
Continuous
 62
     7
100
AcDbCircle
 10
37.81830343584761
 20
282.2176981693534
 30
0.0
 40
25.00000000000001
100
AcDbArc
 50
15.00000000000012
 51
44.99999999999991
  0
ARC
  5
D7
330
3C
100
AcDbEntity
  8
1
  6
Continuous
 62
     7
100
AcDbCircle
 10
71.41341326227911
 20
340.4061352745894
 30
0.0
 40
25.00000000000002
100
AcDbArc
 50
-104.9999999999999
 51
-74.99999999999984
  0
ARC
  5
D8
330
3C
100
AcDbEntity
  8
1
  6
Continuous
 62
     7
100
AcDbCircle
 10
105.0085230887107
 20
282.2176981693534
 30
0.0
 40
24.99999999999991
100
AcDbArc
 50
134.9999999999999
 51
164.9999999999999
  0
ARC
  5
D9
330
3C
100
AcDbEntity
  8
1
  6
Continuous
 62
     7
100
AcDbCircle
 10
214.7927655150992
 20
187.4656648857387
 30
0.0
 40
6.000000000000063
100
AcDbArc
 50
8.00409437170091
 51
80.4085075173346
  0
ARC
  5
DA
330
3C
100
AcDbEntity
  8
1
  6
Continuous
 62
     7
100
AcDbCircle
 10
172.5068125895556
 20
183.8420514725464
 30
0.0
 40
0.4999999999999498
100
AcDbArc
 50
171.9999999999886
 51
-90.0
  0
ARC
  5
DB
330
3C
100
AcDbEntity
  8
1
  6
Continuous
 62
     7
100
AcDbCircle
 10
220.8564026738709
 20
183.8420514725464
 30
0.0
 40
0.5
100
AcDbArc
 50
-90.0
 51
8.00409437169984
  0
ENDBLK
  5
3E
330
3C
100
AcDbEntity
  8
0
100
AcDbBlockEnd
  0
BLOCK
  5
40
330
3F
100
AcDbEntity
  8
0
100
AcDbBlockBegin
  2
R20F
 70
     0
 71
     0
 10
55.63298420913424
 20
136.3675551682287
 30
0.0
  3
R20F
  1

  0
LINE
  5
DC
330
3F
100
AcDbEntity
  8
1
  6
PHANTOM
 62
     4
100
AcDbLine
 10
202.9316283859452
 20
195.3420514725464
 30
0.0
 11
202.9316283859452
 21
201.3420174910083
 31
0.0
  0
ENDBLK
  5
41
330
3F
100
AcDbEntity
  8
0
100
AcDbBlockEnd
  0
BLOCK
  5
43
330
42
100
AcDbEntity
  8
0
100
AcDbBlockBegin
  2
P42A-1S-13
 70
     0
 71
     0
 10
51.53298420913424
 20
119.8675551682287
 30
0.0
  3
P42A-1S-13
  1

  0
LINE
  5
DD
330
42
100
AcDbEntity
  8
1
  6
PHANTOM
 62
     4
100
AcDbLine
 10
202.9316283859452
 20
165.8420514725464
 30
0.0
 11
202.9316283859452
 21
180.0163819200782
 31
0.0
  0
ENDBLK
  5
44
330
42
100
AcDbEntity
  8
0
100
AcDbBlockEnd
  0
BLOCK
  5
46
330
45
100
AcDbEntity
  8
0
100
AcDbBlockBegin
  2
37-1-13
 70
     0
 71
     0
 10
256.0014969545774
 20
92.95359606137842
 30
0.0
  3
37-1-13
  1

  0
LINE
  5
DE
330
45
100
AcDbEntity
  8
1
  6
Continuous
 62
     7
100
AcDbLine
 10
190.4323893826052
 20
173.7722552923917
 30
0.0
 11
215.4308673892853
 21
173.7722552923917
 31
0.0
  0
LINE
  5
DF
330
45
100
AcDbEntity
  8
1
  6
Continuous
 62
     7
100
AcDbLine
 10
60.9134132622795
 20
173.7722552923917
 30
0.0
 11
81.41341326227928
 21
173.7722552923917
 31
0.0
  0
LINE
  5
E0
330
45
100
AcDbEntity
  8
1
  6
Continuous
 62
     7
100
AcDbLine
 10
58.41341326227934
 20
166.2717427607315
 30
0.0
 11
58.41341326227934
 21
173.342456975003
 31
0.0
  0
LINE
  5
E1
330
45
100
AcDbEntity
  8
1
  6
Continuous
 62
     7
100
AcDbLine
 10
84.41341326227934
 20
173.342456975003
 30
0.0
 11
84.41341326227934
 21
166.2717427607315
 31
0.0
  0
LINE
  5
E2
330
45
100
AcDbEntity
  8
1
  6
Continuous
 62
     7
100
AcDbLine
 10
71.41341326227934
 20
166.2717427607315
 30
0.0
 11
58.41341326227934
 21
166.2717427607315
 31
0.0
  0
LINE
  5
E3
330
45
100
AcDbEntity
  8
1
  6
Continuous
 62
     7
100
AcDbLine
 10
71.41341326227934
 20
166.2717427607315
 30
0.0
 11
84.41341326227934
 21
166.2717427607315
 31
0.0
  0
LINE
  5
E4
330
45
100
AcDbEntity
  8
1
  6
Continuous
 62
     7
100
AcDbLine
 10
66.41341326227934
 20
180.2717427607315
 30
0.0
 11
65.41341326227934
 21
180.2717427607315
 31
0.0
  0
LINE
  5
E5
330
45
100
AcDbEntity
  8
1
  6
Continuous
 62
     7
100
AcDbLine
 10
71.41341326227934
 20
180.2717427607315
 30
0.0
 11
77.41341326227934
 21
180.2717427607315
 31
0.0
  0
LINE
  5
E6
330
45
100
AcDbEntity
  8
1
  6
Continuous
 62
     7
100
AcDbLine
 10
71.41341326227934
 20
180.2717427607315
 30
0.0
 11
66.41341326227934
 21
180.2717427607315
 31
0.0
  0
LINE
  5
E7
330
45
100
AcDbEntity
  8
1
  6
Continuous
 62
     7
100
AcDbLine
 10
60.38904409800063
 20
292.9676593768105
 30
0.0
 11
59.3512643969575
 21
293.5668217665674
 31
0.0
  0
LINE
  5
E8
330
45
100
AcDbEntity
  8
1
  6
Continuous
 62
     7
100
AcDbLine
 10
84.41341326227922
 20
296.3895523612798
 30
0.0
 11
84.41341326227922
 21
295.1912275817662
 31
0.0
  0
LINE
  5
E9
330
45
100
AcDbEntity
  8
1
  6
Continuous
 62
     7
100
AcDbLine
 10
69.43778242655782
 20
315.484319875206
 30
0.0
 11
70.47556212760091
 21
316.0834822649628
 31
0.0
  0
LINE
  5
EA
330
45
100
AcDbEntity
  8
1
  6
Continuous
 62
     7
100
AcDbLine
 10
83.47556212760091
 20
293.5668217665674
 30
0.0
 11
82.43778242655782
 21
292.9676593768105
 31
0.0
  0
LINE
  5
EB
330
45
100
AcDbEntity
  8
1
  6
Continuous
 62
     7
100
AcDbLine
 10
72.35126439695742
 20
316.0834822649628
 30
0.0
 11
73.38904409800063
 21
315.484319875206
 31
0.0
  0
LINE
  5
EC
330
45
100
AcDbEntity
  8
1
  6
Continuous
 62
     7
100
AcDbLine
 10
58.41341326227922
 20
295.1912275817662
 30
0.0
 11
58.41341326227922
 21
296.3895523612798
 31
0.0
  0
LINE
  5
ED
330
45
100
AcDbEntity
  8
1
  6
Continuous
 62
     7
100
AcDbLine
 10
196.9316283859452
 20
180.2717427607315
 30
0.0
 11
198.1816283859452
 21
180.2717427607315
 31
0.0
  0
LINE
  5
EE
330
45
100
AcDbEntity
  8
1
  6
Continuous
 62
     7
100
AcDbLine
 10
189.8609141716742
 20
166.2717427607315
 30
0.0
 11
190.9316283859452
 21
166.2717427607315
 31
0.0
  0
LINE
  5
EF
330
45
100
AcDbEntity
  8
1
  6
Continuous
 62
     7
100
AcDbLine
 10
214.9316283859452
 20
166.2717427607315
 30
0.0
 11
216.0023426002173
 21
166.2717427607315
 31
0.0
  0
LINE
  5
F0
330
45
100
AcDbEntity
  8
1
  6
Continuous
 62
     7
100
AcDbLine
 10
190.9316283859452
 20
166.2717427607315
 30
0.0
 11
214.9316283859452
 21
166.2717427607315
 31
0.0
  0
LINE
  5
F1
330
45
100
AcDbEntity
  8
1
  6
Continuous
 62
     7
100
AcDbLine
 10
198.1816283859452
 20
180.2717427607315
 30
0.0
 11
207.6816283859452
 21
180.2717427607315
 31
0.0
  0
LINE
  5
F2
330
45
100
AcDbEntity
  8
1
  6
Continuous
 62
     7
100
AcDbLine
 10
208.9316283859452
 20
180.2717427607315
 30
0.0
 11
207.6816283859452
 21
180.2717427607315
 31
0.0
  0
LINE
  5
F3
330
45
100
AcDbEntity
  8
1
  6
Continuous
 62
     7
100
AcDbLine
 10
190.4316283859452
 20
173.7717427607315
 30
0.0
 11
190.4323893826052
 21
173.7722552923917
 31
0.0
  0
ARC
  5
F4
330
45
100
AcDbEntity
  8
1
  6
Continuous
 62
     7
100
AcDbCircle
 10
228.8380835910602
 20
193.6781979658462
 30
0.0
 40
23.99999999999995
100
AcDbArc
 50
-146.0408074999031
 51
-123.9613828678805
  0
ARC
  5
F5
330
45
100
AcDbEntity
  8
1
  6
Continuous
 62
     7
100
AcDbCircle
 10
61.91341326227934
 20
169.7717427607315
 30
0.0
 40
4.999999999999885
100
AcDbArc
 50
126.8698976458423
 51
134.4270040008053
  0
ARC
  5
F6
330
45
100
AcDbEntity
  8
1
  6
Continuous
 62
     7
100
AcDbCircle
 10
45.50695805716464
 20
193.6781979658464
 30
0.0
 40
23.99999999999996
100
AcDbArc
 50
-56.04080749990252
 51
-33.95919250009774
  0
ARC
  5
F7
330
45
100
AcDbEntity
  8
1
  6
Continuous
 62
     7
100
AcDbCircle
 10
80.91341326227934
 20
169.7717427607315
 30
0.0
 40
5.000000000000036
100
AcDbArc
 50
45.57299599919471
 51
53.13010235415598
  0
ARC
  5
F8
330
45
100
AcDbEntity
  8
1
  6
Continuous
 62
     7
100
AcDbCircle
 10
97.31986846739434
 20
193.6781979658464
 30
0.0
 40
24.00000000000006
100
AcDbArc
 50
-146.0408074999027
 51
-123.9591925000977
  0
ARC
  5
F9
330
45
100
AcDbEntity
  8
1
  6
Continuous
 62
     7
100
AcDbCircle
 10
71.41341326227922
 20
301.6138438710988
 30
0.0
 40
14.5
100
AcDbArc
 50
86.29155527472959
 51
90.0
  0
ARC
  5
FA
330
45
100
AcDbEntity
  8
1
  6
Continuous
 62
     7
100
AcDbCircle
 10
71.41341326227922
 20
301.6138438710988
 30
0.0
 40
14.49999999999996
100
AcDbArc
 50
-33.70844472527082
 51
-26.29155527472953
  0
ARC
  5
FB
330
45
100
AcDbEntity
  8
1
  6
Continuous
 62
     7
100
AcDbCircle
 10
71.41341326227922
 20
301.6138438710988
 30
0.0
 40
14.5
100
AcDbArc
 50
90.0
 51
93.70844472527087
  0
ARC
  5
FC
330
45
100
AcDbEntity
  8
1
  6
Continuous
 62
     7
100
AcDbCircle
 10
71.41341326227922
 20
301.6138438710988
 30
0.0
 40
14.50000000000002
100
AcDbArc
 50
-153.7084447252705
 51
-146.2915552747293
  0
ARC
  5
FD
330
45
100
AcDbEntity
  8
1
  6
Continuous
 62
     7
100
AcDbCircle
 10
177.0251731808303
 20
193.6781979658462
 30
0.0
 40
23.99999999999985
100
AcDbArc
 50
-56.03861713211946
 51
-33.95919250009708
  0
ARC
  5
FE
330
45
100
AcDbEntity
  8
1
  6
Continuous
 62
     7
100
AcDbCircle
 10
193.4316283859452
 20
169.7717427607315
 30
0.0
 40
5.0
100
AcDbArc
 50
126.869897645844
 51
-135.5729959991909
  0
ARC
  5
FF
330
45
100
AcDbEntity
  8
1
  6
Continuous
 62
     7
100
AcDbCircle
 10
212.4316283859452
 20
169.7717427607315
 30
0.0
 40
5.000000000000483
100
AcDbArc
 50
-44.42700400080028
 51
53.13010235415598
  0
LINE
  5
100
330
45
100
AcDbEntity
  8
1
  6
Continuous
 62
     7
100
AcDbLine
 10
215.4308673892853
 20
173.7722552923917
 30
0.0
 11
215.4316283859452
 21
173.7717427607315
 31
0.0
  0
SPLINE
  5
101
330
45
100
AcDbEntity
  8
1
  6
Continuous
 62
     7
100
AcDbSpline
210
0.0
220
0.0
230
1.0
 70
     8
 71
     3
 72
    31
 73
    27
 74
    25
 42
0.0000000001
 43
0.0000000001
 44
0.00000001
 40
0.0
 40
0.0
 40
0.0
 40
0.0
 40
0.6136223264272003
 40
1.226312608412174
 40
1.823792581314483
 40
2.422492783730564
 40
3.386424977320285
 40
4.347717878856508
 40
4.885942170072043
 40
5.426447789917271
 40
6.277924448122062
 40
7.123147514895844
 40
7.597230775969723
 40
8.070308906826853
 40
8.677827074632555
 40
9.288219936560054
 40
9.899802266960748
 40
10.51167222711293
 40
11.03540180571742
 40
11.55846315196561
 40
12.234091483773
 40
12.91065508901175
 40
13.48715075108084
 40
14.06247289313674
 40
15.16486058800821
 40
16.27237005585701
 40
16.27237005585701
 40
16.27237005585701
 40
16.27237005585701
 10
202.9316283859452
 20
173.8220897276623
 30
0.0
 10
202.727194815164
 20
173.8154902256555
 30
0.0
 10
202.3186381922469
 20
173.8023012457706
 30
0.0
 10
201.7117918227082
 20
173.7606391529285
 30
0.0
 10
201.1142350348452
 20
173.6761509381629
 30
0.0
 10
200.4090182943815
 20
173.5290410051293
 30
0.0
 10
199.5996765181783
 20
173.2937723745472
 30
0.0
 10
198.841033931241
 20
172.9731121115358
 30
0.0
 10
198.2470537149775
 20
172.6402939108461
 30
0.0
 10
197.7178253260934
 20
172.2727628691815
 30
0.0
 10
197.1666635292736
 20
171.763622598776
 30
0.0
 10
196.7588268570406
 20
171.1532404131874
 30
0.0
 10
196.5592203715225
 20
170.5865552206711
 30
0.0
 10
196.485573992405
 20
170.0694951213222
 30
0.0
 10
196.5531275743374
 20
169.5025348276092
 30
0.0
 10
196.7719120890717
 20
168.9274756165461
 30
0.0
 10
197.1143832911786
 20
168.4157864937639
 30
0.0
 10
197.5217074056696
 20
167.9963026284063
 30
0.0
 10
197.9543011118174
 20
167.6504020741563
 30
0.0
 10
198.4375295036097
 20
167.3387990453598
 30
0.0
 10
198.9948842814341
 20
167.053275521743
 30
0.0
 10
199.5926763207831
 20
166.8147142619214
 30
0.0
 10
200.1736153370476
 20
166.6291343876462
 30
0.0
 10
200.904401618459
 20
166.4510766986376
 30
0.0
 10
201.8275371611729
 20
166.3327412632619
 30
0.0
 10
202.5630297723365
 20
166.2924484109541
 30
0.0
 10
202.9316283859452
 20
166.2722552923916
 30
0.0
 11
202.9316283859452
 21
173.8220897276623
 31
0.0
 11
202.3184566098321
 21
173.7985794646208
 31
0.0
 11
201.7074723395762
 21
173.7528891687292
 31
0.0
 11
201.1157948045679
 21
173.6698228543422
 31
0.0
 11
200.5295878289392
 21
173.5481539836426
 31
0.0
 11
199.6049635980572
 21
173.2756924166198
 31
0.0
 11
198.7210965276053
 21
172.8977201367966
 31
0.0
 11
198.2522781540619
 21
172.6333440405199
 31
0.0
 11
197.8089269782471
 21
172.3241740872774
 31
0.0
 11
197.1901145435893
 21
171.7392948944687
 31
0.0
 11
196.7305297873701
 21
171.0299403396392
 31
0.0
 11
196.574293510127
 21
170.5823410052969
 31
0.0
 11
196.5100274018413
 21
170.113648371238
 31
0.0
 11
196.5771465019686
 21
169.5098492733486
 31
0.0
 11
196.7922477531492
 21
168.9386129845568
 31
0.0
 11
197.1285093637004
 21
168.4277694898073
 31
0.0
 11
197.5513803005323
 21
167.9855421513042
 31
0.0
 11
197.9596487207959
 21
167.6575031772163
 31
0.0
 11
198.3985298702411
 21
167.3729394609757
 31
0.0
 11
198.9989043245393
 21
167.063061811948
 31
0.0
 11
199.6265365079892
 21
166.8104432175579
 31
0.0
 11
200.1758504273384
 21
166.6355104693554
 31
0.0
 11
200.7349642421413
 21
166.4999106565372
 31
0.0
 11
201.8265966614053
 21
166.3462965588251
 31
0.0
 11
202.9316283859452
 21
166.2722552923916
 31
0.0
  0
SPLINE
  5
102
330
45
100
AcDbEntity
  8
1
  6
Continuous
 62
     7
100
AcDbSpline
210
0.0
220
0.0
230
1.0
 70
    11
 71
     3
 72
    79
 73
    75
 74
    73
 42
0.0000000001
 43
0.0000000001
 44
0.00000001
 40
0.0
 40
0.0
 40
0.0
 40
0.0
 40
0.2806530289509366
 40
0.5613101127732078
 40
0.8450991138041741
 40
1.128898733080715
 40
1.418494781716766
 40
1.708104595595994
 40
2.005348633587425
 40
2.302606440053187
 40
2.608317751753643
 40
2.914040974288537
 40
3.227993296957501
 40
3.54195492029019
 40
3.86298089710662
 40
4.184013414771913
 40
4.51019142386936
 40
4.836373289023688
 40
5.165260522337213
 40
5.494149027339402
 40
5.823037532341534
 40
6.15192476565506
 40
6.47810663080936
 40
6.804284639906807
 40
7.125317157572127
 40
7.446343134388557
 40
7.760304757721284
 40
8.074257080390263
 40
8.379980302925072
 40
8.685691614625485
 40
8.982949421091268
 40
9.280193459082728
 40
9.56980327296206
 40
9.859399321598161
 40
10.14319894087463
 40
10.42698794190558
 40
10.70764502572783
 40
10.98829805467879
 40
11.26895108362975
 40
11.549608167452
 40
11.8333971684824
 40
12.11719678775835
 40
12.40679283639498
 40
12.69640265027466
 40
12.99364668826621
 40
13.29090449473206
 40
13.59661580643244
 40
13.90233902896714
 40
14.21629135163619
 40
14.53025297496892
 40
14.85127895178514
 40
15.17231146945024
 40
15.49848947854786
 40
15.82467134370226
 40
16.15355857701578
 40
16.48244708201791
 40
16.81133558702014
 40
17.14022282033362
 40
17.46640468548804
 40
17.79258269458566
 40
18.11361521225078
 40
18.43464118906696
 40
18.74860281239967
 40
19.06255513506868
 40
19.3682783576035
 40
19.6739896693039
 40
19.97124747576972
 40
20.26849151376124
 40
20.55810132764088
 40
20.8476973762774
 40
21.13149699555341
 40
21.41528599658383
 40
21.69594308040609
 40
21.97659610935705
 40
21.97659610935705
 40
21.97659610935705
 40
21.97659610935705
 10
191.6732981367472
 20
173.8220897276623
 30
0.0
 10
191.5797073077173
 20
173.8192942373257
 30
0.0
 10
191.3925242974582
 20
173.8137032162632
 30
0.0
 10
191.1136598486641
 20
173.7688859458883
 30
0.0
 10
190.8396350404748
 20
173.6976928821097
 30
0.0
 10
190.571328732543
 20
173.5979887286767
 30
0.0
 10
190.3124007890297
 20
173.4716275270551
 30
0.0
 10
190.0629523437082
 20
173.3187184195121
 30
0.0
 10
189.8269053684614
 20
173.1415621051667
 30
0.0
 10
189.6039668097779
 20
172.9401210729268
 30
0.0
 10
189.3978327934833
 20
172.7176480197021
 30
0.0
 10
189.2081733801447
 20
172.4739222924866
 30
0.0
 10
189.0380757450927
 20
172.2128760988206
 30
0.0
 10
188.8873986852875
 20
171.9343740424777
 30
0.0
 10
188.758404443193
 20
171.6426087167583
 30
0.0
 10
188.6511995924041
 20
171.3378522653536
 30
0.0
 10
188.5671795438563
 20
171.0241279633459
 30
0.0
 10
188.5066074042682
 20
170.7023925139681
 30
0.0
 10
188.4701163467644
 20
170.376136104522
 30
0.0
 10
188.4579268068842
 20
170.0471725100267
 30
0.0
 10
188.4701163467644
 20
169.718208915533
 30
0.0
 10
188.5066074042683
 20
169.3919525060815
 30
0.0
 10
188.5671795438563
 20
169.070217056724
 30
0.0
 10
188.6511995924041
 20
168.7564927546411
 30
0.0
 10
188.758404443193
 20
168.4517363035128
 30
0.0
 10
188.8873986852876
 20
168.1599709767727
 30
0.0
 10
189.0380757450925
 20
167.8814689241583
 30
0.0
 10
189.2081733801448
 20
167.6204227167639
 30
0.0
 10
189.3978327934832
 20
167.3766970394973
 30
0.0
 10
189.6039668097779
 20
167.1542238026187
 30
0.0
 10
189.8269053684615
 20
166.952783437649
 30
0.0
 10
190.0629523437082
 20
166.7756246690279
 30
0.0
 10
190.3124007890297
 20
166.6227244960492
 30
0.0
 10
190.5713287325429
 20
166.496330355449
 30
0.0
 10
190.8396350404748
 20
166.3967467823982
 30
0.0
 10
191.113659848664
 20
166.3251072795794
 30
0.0
 10
191.3925242974583
 20
166.2819386555762
 30
0.0
 10
191.6732981367472
 20
166.2674136457753
 30
0.0
 10
191.9540719760361
 20
166.2819386555762
 30
0.0
 10
192.2329364248303
 20
166.3251072795794
 30
0.0
 10
192.5069612330191
 20
166.3967467823982
 30
0.0
 10
192.7752675409507
 20
166.4963303554492
 30
0.0
 10
193.0341954844641
 20
166.6227244960492
 30
0.0
 10
193.283643929786
 20
166.7756246690278
 30
0.0
 10
193.5196909050329
 20
166.952783437649
 30
0.0
 10
193.7426294637167
 20
167.1542238026186
 30
0.0
 10
193.9487634800111
 20
167.3766970394975
 30
0.0
 10
194.1384228933496
 20
167.620422716764
 30
0.0
 10
194.3085205284019
 20
167.8814689241583
 30
0.0
 10
194.4591975882069
 20
168.1599709767726
 30
0.0
 10
194.5881918303007
 20
168.4517363035129
 30
0.0
 10
194.695396681089
 20
168.7564927546413
 30
0.0
 10
194.7794167296375
 20
169.070217056724
 30
0.0
 10
194.8399888692264
 20
169.3919525060814
 30
0.0
 10
194.8764799267301
 20
169.7182089155331
 30
0.0
 10
194.8886694666101
 20
170.0471725100266
 30
0.0
 10
194.8764799267302
 20
170.3761361045221
 30
0.0
 10
194.8399888692265
 20
170.7023925139682
 30
0.0
 10
194.7794167296374
 20
171.024127963346
 30
0.0
 10
194.6953966810891
 20
171.3378522653534
 30
0.0
 10
194.5881918303007
 20
171.6426087167582
 30
0.0
 10
194.459197588207
 20
171.9343740424779
 30
0.0
 10
194.3085205284018
 20
172.2128760988207
 30
0.0
 10
194.1384228933496
 20
172.4739222924865
 30
0.0
 10
193.9487634800111
 20
172.717648019702
 30
0.0
 10
193.7426294637167
 20
172.9401210729268
 30
0.0
 10
193.519690905033
 20
173.1415621051667
 30
0.0
 10
193.283643929786
 20
173.3187184195122
 30
0.0
 10
193.0341954844641
 20
173.4716275270551
 30
0.0
 10
192.7752675409507
 20
173.5979887286766
 30
0.0
 10
192.506961233019
 20
173.6976928821094
 30
0.0
 10
192.2329364248303
 20
173.7688859458883
 30
0.0
 10
191.9540719760362
 20
173.8137032162633
 30
0.0
 10
191.7668889657772
 20
173.8192942373257
 30
0.0
 10
191.6732981367472
 20
173.8220897276623
 30
0.0
 11
191.6732981367472
 21
173.8220897276623
 31
0.0
 11
191.3930163426706
 21
173.8076592540556
 31
0.0
 11
191.1156603294992
 21
173.7647402529336
 31
0.0
 11
190.8410630794834
 21
173.6930984537523
 31
0.0
 11
190.5749660648451
 21
173.5944343635164
 31
0.0
 11
190.3146373832061
 21
173.4675688879066
 31
0.0
 11
190.0676440644141
 21
173.3163467176825
 31
0.0
 11
189.8297828649441
 21
173.1380882875645
 31
0.0
 11
189.6091090504702
 21
172.9389268678307
 31
0.0
 11
189.401182263698
 21
172.7148156065247
 31
0.0
 11
189.2132933773831
 21
172.4736425251153
 31
0.0
 11
189.0417511834158
 21
172.210698925463
 31
0.0
 11
188.8922237040862
 21
171.9346311188447
 31
0.0
 11
188.7622907622908
 21
171.6410751473038
 31
0.0
 11
188.6556555701341
 21
171.3382702378452
 31
0.0
 11
188.571189718977
 21
171.023218474468
 31
0.0
 11
188.5107769785683
 21
170.7026800057129
 31
0.0
 11
188.4741833582607
 21
170.3758349060259
 31
0.0
 11
188.4619899920812
 21
170.0471725100269
 31
0.0
 11
188.4741833582607
 21
169.718510114028
 31
0.0
 11
188.5107769785683
 21
169.391665014341
 31
0.0
 11
188.571189718977
 21
169.0711265455859
 31
0.0
 11
188.6556555701341
 21
168.7560747822087
 31
0.0
 11
188.7622907622908
 21
168.4532698727501
 31
0.0
 11
188.8922237040862
 21
168.1597139012092
 31
0.0
 11
189.0417511834158
 21
167.8836460945909
 31
0.0
 11
189.2132933773831
 21
167.6207024949385
 31
0.0
 11
189.4011822636979
 21
167.3795294135292
 31
0.0
 11
189.6091090504702
 21
167.1554181522233
 31
0.0
 11
189.8297828649441
 21
166.9562567324895
 31
0.0
 11
190.0676440644141
 21
166.7779983023714
 31
0.0
 11
190.3146373832061
 21
166.6267761321471
 31
0.0
 11
190.5749660648451
 21
166.4999106565372
 31
0.0
 11
190.8410630794834
 21
166.4012465663015
 31
0.0
 11
191.1156603294992
 21
166.3296047671203
 31
0.0
 11
191.3930163426705
 21
166.2866857659982
 31
0.0
 11
191.6732981367472
 21
166.2722552923916
 31
0.0
 11
191.9535799308239
 21
166.2866857659982
 31
0.0
 11
192.2309359439952
 21
166.3296047671203
 31
0.0
 11
192.5055331940104
 21
166.4012465663015
 31
0.0
 11
192.7716302086482
 21
166.4999106565372
 31
0.0
 11
193.0319588902878
 21
166.6267761321471
 31
0.0
 11
193.2789522090802
 21
166.7779983023714
 31
0.0
 11
193.5168134085503
 21
166.9562567324895
 31
0.0
 11
193.7374872230243
 21
167.1554181522233
 31
0.0
 11
193.9454140097964
 21
167.3795294135293
 31
0.0
 11
194.1333028961112
 21
167.6207024949385
 31
0.0
 11
194.3048450900787
 21
167.8836460945908
 31
0.0
 11
194.4543725694082
 21
168.1597139012092
 31
0.0
 11
194.584305511203
 21
168.4532698727502
 31
0.0
 11
194.6909407033592
 21
168.7560747822087
 31
0.0
 11
194.7754065545169
 21
169.0711265455859
 31
0.0
 11
194.8358192949262
 21
169.391665014341
 31
0.0
 11
194.8724129152338
 21
169.718510114028
 31
0.0
 11
194.8846062814131
 21
170.0471725100269
 31
0.0
 11
194.8724129152338
 21
170.3758349060259
 31
0.0
 11
194.8358192949262
 21
170.7026800057129
 31
0.0
 11
194.7754065545168
 21
171.023218474468
 31
0.0
 11
194.6909407033592
 21
171.3382702378452
 31
0.0
 11
194.584305511203
 21
171.6410751473038
 31
0.0
 11
194.4543725694082
 21
171.9346311188447
 31
0.0
 11
194.3048450900786
 21
172.210698925463
 31
0.0
 11
194.1333028961112
 21
172.4736425251153
 31
0.0
 11
193.9454140097964
 21
172.7148156065246
 31
0.0
 11
193.7374872230243
 21
172.9389268678307
 31
0.0
 11
193.5168134085503
 21
173.1380882875645
 31
0.0
 11
193.2789522090802
 21
173.3163467176825
 31
0.0
 11
193.0319588902877
 21
173.4675688879066
 31
0.0
 11
192.7716302086482
 21
173.5944343635164
 31
0.0
 11
192.5055331940104
 21
173.6930984537522
 31
0.0
 11
192.2309359439952
 21
173.7647402529336
 31
0.0
 11
191.9535799308239
 21
173.8076592540557
 31
0.0
 11
191.6732981367472
 21
173.8220897276623
 31
0.0
  0
SPLINE
  5
103
330
45
100
AcDbEntity
  8
1
  6
Continuous
 62
     7
100
AcDbSpline
210
0.0
220
0.0
230
1.0
 70
     8
 71
     3
 72
    31
 73
    27
 74
    25
 42
0.0000000001
 43
0.0000000001
 44
0.00000001
 40
0.0
 40
0.0
 40
0.0
 40
0.0
 40
0.6136223264268027
 40
1.226312608411294
 40
1.823792581313491
 40
2.422492783729489
 40
3.386424977319318
 40
4.34771787885562
 40
4.885942170071155
 40
5.42644778991636
 40
6.277924448121045
 40
7.123147514894733
 40
7.597230775968604
 40
8.070308906825796
 40
8.677827074631418
 40
9.288219936558823
 40
9.899802266959712
 40
10.51167222711223
 40
11.03540180571681
 40
11.55846315196514
 40
12.2340914837725
 40
12.9106550890112
 40
13.4871507510802
 40
14.06247289313607
 40
15.16486058800706
 40
16.27237005585536
 40
16.27237005585536
 40
16.27237005585536
 40
16.27237005585536
 10
202.9316283859452
 20
173.8220897276623
 30
0.0
 10
203.1360619567262
 20
173.8154902256555
 30
0.0
 10
203.5446185796431
 20
173.8023012457706
 30
0.0
 10
204.1514649491814
 20
173.7606391529284
 30
0.0
 10
204.7490217370443
 20
173.6761509381629
 30
0.0
 10
205.4542384775079
 20
173.5290410051293
 30
0.0
 10
206.263580253711
 20
173.2937723745471
 30
0.0
 10
207.0222228406486
 20
172.973112111536
 30
0.0
 10
207.616203056912
 20
172.640293910846
 30
0.0
 10
208.1454314457962
 20
172.2727628691816
 30
0.0
 10
208.6965932426157
 20
171.7636225987759
 30
0.0
 10
209.1044299148485
 20
171.1532404131873
 30
0.0
 10
209.3040364003668
 20
170.5865552206711
 30
0.0
 10
209.3776827794845
 20
170.0694951213222
 30
0.0
 10
209.3101291975526
 20
169.5025348276093
 30
0.0
 10
209.0913446828187
 20
168.9274756165459
 30
0.0
 10
208.7488734807113
 20
168.4157864937638
 30
0.0
 10
208.3415493662199
 20
167.9963026284065
 30
0.0
 10
207.908955660072
 20
167.6504020741563
 30
0.0
 10
207.4257272682796
 20
167.3387990453599
 30
0.0
 10
206.8683724904552
 20
167.0532755217429
 30
0.0
 10
206.2705804511061
 20
166.8147142619214
 30
0.0
 10
205.6896414348418
 20
166.6291343876461
 30
0.0
 10
204.9588551534306
 20
166.4510766986377
 30
0.0
 10
204.035719610717
 20
166.3327412632619
 30
0.0
 10
203.3002269995538
 20
166.292448410954
 30
0.0
 10
202.9316283859452
 20
166.2722552923916
 30
0.0
 11
202.9316283859452
 21
173.8220897276623
 31
0.0
 11
203.5448001620579
 21
173.7985794646208
 31
0.0
 11
204.1557844323133
 21
173.7528891687292
 31
0.0
 11
204.7474619673215
 21
173.6698228543422
 31
0.0
 11
205.3336689429501
 21
173.5481539836426
 31
0.0
 11
206.2582931738322
 21
173.2756924166198
 31
0.0
 11
207.1421602442842
 21
172.8977201367966
 31
0.0
 11
207.6109786178277
 21
172.6333440405199
 31
0.0
 11
208.0543297936424
 21
172.3241740872774
 31
0.0
 11
208.6731422283
 21
171.7392948944687
 31
0.0
 11
209.1327269845191
 21
171.0299403396392
 31
0.0
 11
209.2889632617623
 21
170.582341005297
 31
0.0
 11
209.3532293700482
 21
170.113648371238
 31
0.0
 11
209.2861102699214
 21
169.5098492733486
 31
0.0
 11
209.0710090187411
 21
168.9386129845568
 31
0.0
 11
208.7347474081896
 21
168.4277694898073
 31
0.0
 11
208.3118764713572
 21
167.9855421513042
 31
0.0
 11
207.9036080510934
 21
167.6575031772163
 31
0.0
 11
207.4647269016481
 21
167.3729394609757
 31
0.0
 11
206.8643524473499
 21
167.063061811948
 31
0.0
 11
206.2367202639001
 21
166.8104432175579
 31
0.0
 11
205.687406344551
 21
166.6355104693554
 31
0.0
 11
205.1282925297481
 21
166.4999106565372
 31
0.0
 11
204.0366601104846
 21
166.3462965588251
 31
0.0
 11
202.9316283859452
 21
166.2722552923916
 31
0.0
  0
SPLINE
  5
104
330
45
100
AcDbEntity
  8
1
  6
Continuous
 62
     7
100
AcDbSpline
210
0.0
220
0.0
230
1.0
 70
    11
 71
     3
 72
    79
 73
    75
 74
    73
 42
0.0000000001
 43
0.0000000001
 44
0.00000001
 40
0.0
 40
0.0
 40
0.0
 40
0.0
 40
0.2806530289508485
 40
0.561310112773016
 40
0.8450991138039692
 40
1.128898733080543
 40
1.418494781717094
 40
1.708104595596705
 40
2.005348633587694
 40
2.302606440053101
 40
2.608317751754005
 40
2.914040974289115
 40
3.227993296957813
 40
3.54195492029036
 40
3.862980897106796
 40
4.184013414772007
 40
4.510191423869427
 40
4.836373289023819
 40
5.165260522337398
 40
5.494149027339598
 40
5.823037532341741
 40
6.151924765655323
 40
6.478106630809665
 40
6.804284639907105
 40
7.125317157572299
 40
7.446343134388775
 40
7.760304757721295
 40
8.074257080390071
 40
8.379980302925132
 40
8.685691614625954
 40
8.982949421091361
 40
9.280193459082399
 40
9.569803272962052
 40
9.859399321598716
 40
10.14319894087523
 40
10.42698794190616
 40
10.70764502572831
 40
10.98829805467916
 40
11.26895108363009
 40
11.54960816745237
 40
11.83339716848272
 40
12.11719678775872
 40
12.4067928363953
 40
12.69640265027503
 40
12.99364668826658
 40
13.29090449473243
 40
13.59661580643281
 40
13.90233902896751
 40
14.21629135163664
 40
14.53025297496939
 40
14.85127895178557
 40
15.17231146945064
 40
15.49848947854824
 40
15.82467134370264
 40
16.15355857701617
 40
16.48244708201829
 40
16.81133558702053
 40
17.140222820334
 40
17.46640468548841
 40
17.79258269458603
 40
18.11361521225113
 40
18.43464118906725
 40
18.74860281239999
 40
19.06255513506908
 40
19.3682783576039
 40
19.6739896693043
 40
19.97124747577018
 40
20.26849151376165
 40
20.55810132764129
 40
20.8476973762778
 40
21.13149699555381
 40
21.41528599658424
 40
21.69594308040652
 40
21.97659610935745
 40
21.97659610935745
 40
21.97659610935745
 40
21.97659610935745
 10
214.1899586351423
 20
173.8220897276623
 30
0.0
 10
214.2835494641723
 20
173.8192942373257
 30
0.0
 10
214.4707324744311
 20
173.8137032162633
 30
0.0
 10
214.7495969232253
 20
173.7688859458882
 30
0.0
 10
215.0236217314145
 20
173.6976928821097
 30
0.0
 10
215.2919280393465
 20
173.5979887286766
 30
0.0
 10
215.5508559828602
 20
173.4716275270552
 30
0.0
 10
215.800304428182
 20
173.3187184195124
 30
0.0
 10
216.0363514034282
 20
173.1415621051666
 30
0.0
 10
216.2592899621116
 20
172.9401210729264
 30
0.0
 10
216.4654239784066
 20
172.7176480197022
 30
0.0
 10
216.6550833917456
 20
172.4739222924867
 30
0.0
 10
216.8251810267975
 20
172.2128760988207
 30
0.0
 10
216.9758580866019
 20
171.9343740424776
 30
0.0
 10
217.1048523286964
 20
171.6426087167582
 30
0.0
 10
217.2120571794851
 20
171.3378522653535
 30
0.0
 10
217.296077228033
 20
171.024127963346
 30
0.0
 10
217.3566493676212
 20
170.7023925139681
 30
0.0
 10
217.3931404251256
 20
170.3761361045221
 30
0.0
 10
217.4053299650063
 20
170.0471725100266
 30
0.0
 10
217.3931404251256
 20
169.7182089155331
 30
0.0
 10
217.3566493676212
 20
169.3919525060815
 30
0.0
 10
217.296077228033
 20
169.070217056724
 30
0.0
 10
217.2120571794853
 20
168.7564927546411
 30
0.0
 10
217.1048523286964
 20
168.4517363035129
 30
0.0
 10
216.9758580866019
 20
168.1599709767729
 30
0.0
 10
216.8251810267976
 20
167.8814689241583
 30
0.0
 10
216.6550833917456
 20
167.6204227167637
 30
0.0
 10
216.4654239784066
 20
167.3766970394974
 30
0.0
 10
216.2592899621116
 20
167.154223802619
 30
0.0
 10
216.0363514034283
 20
166.9527834376492
 30
0.0
 10
215.8003044281819
 20
166.7756246690277
 30
0.0
 10
215.5508559828602
 20
166.6227244960492
 30
0.0
 10
215.2919280393466
 20
166.4963303554491
 30
0.0
 10
215.0236217314145
 20
166.3967467823982
 30
0.0
 10
214.7495969232254
 20
166.3251072795794
 30
0.0
 10
214.4707324744311
 20
166.2819386555763
 30
0.0
 10
214.1899586351423
 20
166.2674136457753
 30
0.0
 10
213.9091847958533
 20
166.2819386555762
 30
0.0
 10
213.6303203470593
 20
166.3251072795794
 30
0.0
 10
213.3562955388703
 20
166.3967467823981
 30
0.0
 10
213.0879892309389
 20
166.4963303554492
 30
0.0
 10
212.8290612874253
 20
166.6227244960492
 30
0.0
 10
212.5796128421035
 20
166.7756246690278
 30
0.0
 10
212.3435658668566
 20
166.952783437649
 30
0.0
 10
212.1206273081728
 20
167.1542238026186
 30
0.0
 10
211.9144932918783
 20
167.3766970394975
 30
0.0
 10
211.72483387854
 20
167.620422716764
 30
0.0
 10
211.5547362434874
 20
167.8814689241582
 30
0.0
 10
211.4040591836823
 20
168.1599709767726
 30
0.0
 10
211.2750649415886
 20
168.4517363035128
 30
0.0
 10
211.1678600908005
 20
168.7564927546413
 30
0.0
 10
211.0838400422521
 20
169.0702170567239
 30
0.0
 10
211.023267902663
 20
169.3919525060814
 30
0.0
 10
210.9867768451594
 20
169.7182089155331
 30
0.0
 10
210.9745873052795
 20
170.0471725100266
 30
0.0
 10
210.9867768451595
 20
170.3761361045221
 30
0.0
 10
211.023267902663
 20
170.7023925139681
 30
0.0
 10
211.0838400422522
 20
171.024127963346
 30
0.0
 10
211.1678600908005
 20
171.3378522653534
 30
0.0
 10
211.2750649415887
 20
171.6426087167582
 30
0.0
 10
211.4040591836824
 20
171.9343740424779
 30
0.0
 10
211.5547362434874
 20
172.2128760988207
 30
0.0
 10
211.72483387854
 20
172.4739222924864
 30
0.0
 10
211.9144932918784
 20
172.7176480197021
 30
0.0
 10
212.1206273081729
 20
172.9401210729268
 30
0.0
 10
212.3435658668565
 20
173.1415621051667
 30
0.0
 10
212.5796128421035
 20
173.3187184195123
 30
0.0
 10
212.8290612874254
 20
173.4716275270551
 30
0.0
 10
213.0879892309389
 20
173.5979887286766
 30
0.0
 10
213.3562955388704
 20
173.6976928821095
 30
0.0
 10
213.6303203470592
 20
173.7688859458883
 30
0.0
 10
213.9091847958534
 20
173.8137032162633
 30
0.0
 10
214.0963678061124
 20
173.8192942373257
 30
0.0
 10
214.1899586351423
 20
173.8220897276623
 30
0.0
 11
214.1899586351423
 21
173.8220897276623
 31
0.0
 11
214.4702404292189
 21
173.8076592540557
 31
0.0
 11
214.7475964423901
 21
173.7647402529336
 31
0.0
 11
215.0221936924058
 21
173.6930984537523
 31
0.0
 11
215.2882907070442
 21
173.5944343635164
 31
0.0
 11
215.5486193886839
 21
173.4675688879067
 31
0.0
 11
215.7956127074762
 21
173.3163467176825
 31
0.0
 11
216.0334739069456
 21
173.1380882875644
 31
0.0
 11
216.2541477214191
 21
172.9389268678307
 31
0.0
 11
216.4620745081919
 21
172.7148156065246
 31
0.0
 11
216.6499633945072
 21
172.4736425251153
 31
0.0
 11
216.8215055884742
 21
172.2106989254631
 31
0.0
 11
216.9710330678033
 21
171.9346311188447
 31
0.0
 11
217.1009660095986
 21
171.6410751473037
 31
0.0
 11
217.2076012017552
 21
171.3382702378452
 31
0.0
 11
217.2920670529123
 21
171.023218474468
 31
0.0
 11
217.3524797933212
 21
170.7026800057129
 31
0.0
 11
217.3890734136293
 21
170.3758349060259
 31
0.0
 11
217.4012667798091
 21
170.0471725100269
 31
0.0
 11
217.3890734136293
 21
169.718510114028
 31
0.0
 11
217.3524797933212
 21
169.391665014341
 31
0.0
 11
217.2920670529123
 21
169.0711265455859
 31
0.0
 11
217.2076012017552
 21
168.7560747822087
 31
0.0
 11
217.1009660095986
 21
168.4532698727502
 31
0.0
 11
216.9710330678033
 21
168.1597139012092
 31
0.0
 11
216.8215055884742
 21
167.8836460945908
 31
0.0
 11
216.6499633945072
 21
167.6207024949385
 31
0.0
 11
216.4620745081919
 21
167.3795294135293
 31
0.0
 11
216.2541477214191
 21
167.1554181522233
 31
0.0
 11
216.0334739069456
 21
166.9562567324896
 31
0.0
 11
215.7956127074762
 21
166.7779983023714
 31
0.0
 11
215.5486193886839
 21
166.626776132147
 31
0.0
 11
215.2882907070442
 21
166.4999106565372
 31
0.0
 11
215.0221936924058
 21
166.4012465663015
 31
0.0
 11
214.7475964423901
 21
166.3296047671203
 31
0.0
 11
214.4702404292189
 21
166.2866857659983
 31
0.0
 11
214.1899586351423
 21
166.2722552923916
 31
0.0
 11
213.9096768410657
 21
166.2866857659982
 31
0.0
 11
213.6323208278943
 21
166.3296047671203
 31
0.0
 11
213.3577235778791
 21
166.4012465663015
 31
0.0
 11
213.0916265632413
 21
166.4999106565372
 31
0.0
 11
212.8312978816018
 21
166.6267761321471
 31
0.0
 11
212.5843045628093
 21
166.7779983023714
 31
0.0
 11
212.3464433633392
 21
166.9562567324895
 31
0.0
 11
212.1257695488652
 21
167.1554181522233
 31
0.0
 11
211.9178427620931
 21
167.3795294135293
 31
0.0
 11
211.7299538757783
 21
167.6207024949385
 31
0.0
 11
211.5584116818107
 21
167.8836460945908
 31
0.0
 11
211.4088842024811
 21
168.1597139012092
 31
0.0
 11
211.2789512606864
 21
168.4532698727502
 31
0.0
 11
211.1723160685303
 21
168.7560747822087
 31
0.0
 11
211.0878502173727
 21
169.0711265455859
 31
0.0
 11
211.0274374769633
 21
169.391665014341
 31
0.0
 11
210.9908438566557
 21
169.718510114028
 31
0.0
 11
210.9786504904764
 21
170.0471725100269
 31
0.0
 11
210.9908438566557
 21
170.3758349060259
 31
0.0
 11
211.0274374769633
 21
170.7026800057129
 31
0.0
 11
211.0878502173727
 21
171.0232184744679
 31
0.0
 11
211.1723160685303
 21
171.3382702378452
 31
0.0
 11
211.2789512606865
 21
171.6410751473038
 31
0.0
 11
211.4088842024811
 21
171.9346311188447
 31
0.0
 11
211.5584116818107
 21
172.210698925463
 31
0.0
 11
211.7299538757783
 21
172.4736425251153
 31
0.0
 11
211.9178427620931
 21
172.7148156065246
 31
0.0
 11
212.1257695488652
 21
172.9389268678307
 31
0.0
 11
212.3464433633392
 21
173.1380882875646
 31
0.0
 11
212.5843045628093
 21
173.3163467176825
 31
0.0
 11
212.8312978816018
 21
173.4675688879066
 31
0.0
 11
213.0916265632413
 21
173.5944343635164
 31
0.0
 11
213.3577235778791
 21
173.6930984537522
 31
0.0
 11
213.6323208278943
 21
173.7647402529336
 31
0.0
 11
213.9096768410657
 21
173.8076592540557
 31
0.0
 11
214.1899586351423
 21
173.8220897276623
 31
0.0
  0
SPLINE
  5
105
330
45
100
AcDbEntity
  8
1
  6
Continuous
 62
     7
100
AcDbSpline
210
0.0
220
0.0
230
1.0
 70
    11
 71
     3
 72
    79
 73
    75
 74
    73
 42
0.0000000001
 43
0.0000000001
 44
0.00000001
 40
0.0
 40
0.0
 40
0.0
 40
0.0
 40
0.3102615659794651
 40
0.6205595479395978
 40
0.942216302741983
 40
1.263944877610432
 40
1.60603902545216
 40
1.948193473341363
 40
2.316051889495056
 40
2.683951052454313
 40
3.079084668228922
 40
3.474244784278609
 40
3.894897963282792
 40
4.315568211551538
 40
4.757452130783343
 40
5.199346678283762
 40
5.656354166028239
 40
6.113367482701133
 40
6.578223041780166
 40
7.043080459895599
 40
7.507937878010933
 40
7.97279343708988
 40
8.429806753762756
 40
8.886814241507253
 40
9.32870878900763
 40
9.770592708239368
 40
10.19126295650816
 40
10.61191613551238
 40
11.00707625156207
 40
11.40220986733666
 40
11.77010903029596
 40
12.13796744644969
 40
12.4801218943388
 40
12.82221604218044
 40
13.14394461704903
 40
13.46560137185136
 40
13.77589935381148
 40
14.08616091979094
 40
14.39642248577034
 40
14.7067204677304
 40
15.02837722253266
 40
15.35010579740114
 40
15.69219994524278
 40
16.03435439313195
 40
16.4022128092857
 40
16.77011197224507
 40
17.16524558801966
 40
17.56040570406935
 40
17.98105888307357
 40
18.40172913134235
 40
18.84361305057405
 40
19.28550759807438
 40
19.74251508581889
 40
20.19952840249177
 40
20.6643839615707
 40
21.12924137968605
 40
21.59409879780148
 40
22.05895435688051
 40
22.51596767355333
 40
22.97297516129782
 40
23.41486970879825
 40
23.85675362803003
 40
24.27742387629877
 40
24.69807705530296
 40
25.0932371713527
 40
25.48837078712725
 40
25.85626995008655
 40
26.22412836624028
 40
26.56628281412954
 40
26.90837696197128
 40
27.23010553683972
 40
27.55176229164192
 40
27.86206027360202
 40
28.1723218395814
 40
28.1723218395814
 40
28.1723218395814
 40
28.1723218395814
 10
72.35126439695773
 20
169.8070998678671
 30
0.0
 10
72.35529758877453
 20
169.9105900523758
 30
0.0
 10
72.36336444579143
 20
170.1175825682298
 30
0.0
 10
72.42734842374726
 20
170.4264314375219
 30
0.0
 10
72.52876922069632
 20
170.7283983501734
 30
0.0
 10
72.67119172086019
 20
171.0253080057249
 30
0.0
 10
72.85029429378028
 20
171.3096261136965
 30
0.0
 10
73.06826456172699
 20
171.5851271596796
 30
0.0
 10
73.31854671583432
 20
171.8437331800963
 30
0.0
 10
73.60500887765903
 20
172.0894910694982
 30
0.0
 10
73.91883962998647
 20
172.3151363295214
 30
0.0
 10
74.26475379504885
 20
172.5239079972662
 30
0.0
 10
74.63287258722286
 20
172.7101287654224
 30
0.0
 10
75.02756652215813
 20
172.8758132956738
 30
0.0
 10
75.43911972214428
 20
173.0171210684471
 30
0.0
 10
75.87054542175019
 20
173.134900556958
 30
0.0
 10
76.31331945047018
 20
173.2270188585441
 30
0.0
 10
76.7683774490722
 20
173.2935047858914
 30
0.0
 10
77.22914455116069
 20
173.3335623427608
 30
0.0
 10
77.69406672659855
 20
173.3469043000168
 30
0.0
 10
78.15898890203258
 20
173.3335623427608
 30
0.0
 10
78.61975600413253
 20
173.2935047858914
 30
0.0
 10
79.07481400269276
 20
173.2270188585441
 30
0.0
 10
79.51758803156623
 20
173.134900556958
 30
0.0
 10
79.94901373061738
 20
173.0171210684471
 30
0.0
 10
80.36056693262617
 20
172.8758132956737
 30
0.0
 10
80.75526086035937
 20
172.7101287654224
 30
0.0
 10
81.12337967859268
 20
172.5239079972663
 30
0.0
 10
81.46929375202738
 20
172.3151363295214
 30
0.0
 10
81.78312483397679
 20
172.0894910694981
 30
0.0
 10
82.06958584646094
 20
171.8437331800963
 30
0.0
 10
82.31987212554421
 20
171.5851271596796
 30
0.0
 10
82.53782802356037
 20
171.3096261136964
 30
0.0
 10
82.71698233730703
 20
171.0253080057248
 30
0.0
 10
82.85922268870068
 20
170.7283983501735
 30
0.0
 10
82.9613063407449
 20
170.4264314375219
 30
0.0
 10
83.02289958067513
 20
170.1175825682298
 30
0.0
 10
83.04385338413738
 20
169.8070998678671
 30
0.0
 10
83.02289958067507
 20
169.4966171675045
 30
0.0
 10
82.9613063407449
 20
169.1877682982124
 30
0.0
 10
82.85922268870064
 20
168.885801385561
 30
0.0
 10
82.71698233730703
 20
168.5888917300097
 30
0.0
 10
82.53782802356032
 20
168.3045736220381
 30
0.0
 10
82.31987212554424
 20
168.0290725760547
 30
0.0
 10
82.06958584646098
 20
167.7704665556381
 30
0.0
 10
81.78312483397677
 20
167.5247086662362
 30
0.0
 10
81.46929375202738
 20
167.2990634062129
 30
0.0
 10
81.12337967859267
 20
167.090291738468
 30
0.0
 10
80.75526086035937
 20
166.9040709703119
 30
0.0
 10
80.36056693262623
 20
166.7383864400605
 30
0.0
 10
79.94901373061734
 20
166.5970786672874
 30
0.0
 10
79.51758803156622
 20
166.4792991787766
 30
0.0
 10
79.07481400269276
 20
166.3871808771905
 30
0.0
 10
78.61975600413251
 20
166.320694949843
 30
0.0
 10
78.15898890203256
 20
166.2806373929737
 30
0.0
 10
77.69406672659856
 20
166.2672954357176
 30
0.0
 10
77.22914455116066
 20
166.2806373929737
 30
0.0
 10
76.76837744907223
 20
166.320694949843
 30
0.0
 10
76.3133194504702
 20
166.3871808771904
 30
0.0
 10
75.87054542175031
 20
166.4792991787766
 30
0.0
 10
75.43911972214434
 20
166.5970786672875
 30
0.0
 10
75.02756652215811
 20
166.7383864400605
 30
0.0
 10
74.63287258722282
 20
166.9040709703119
 30
0.0
 10
74.26475379504886
 20
167.0902917384681
 30
0.0
 10
73.91883962998647
 20
167.2990634062129
 30
0.0
 10
73.605008877659
 20
167.5247086662361
 30
0.0
 10
73.31854671583432
 20
167.7704665556381
 30
0.0
 10
73.06826456172696
 20
168.0290725760548
 30
0.0
 10
72.85029429378031
 20
168.3045736220381
 30
0.0
 10
72.67119172086017
 20
168.5888917300096
 30
0.0
 10
72.52876922069638
 20
168.8858013855611
 30
0.0
 10
72.42734842374725
 20
169.1877682982125
 30
0.0
 10
72.36336444579143
 20
169.4966171675045
 30
0.0
 10
72.35529758877453
 20
169.7036096833584
 30
0.0
 10
72.35126439695773
 20
169.8070998678671
 30
0.0
 11
72.35126439695773
 21
169.8070998678671
 31
0.0
 11
72.37188149015856
 21
170.1166756660038
 31
0.0
 11
72.43243356955665
 21
170.4210081869231
 31
0.0
 11
72.53490045818847
 21
170.7259075221866
 31
0.0
 11
72.67347480311724
 21
171.0162632123572
 31
0.0
 11
72.85526684747457
 21
171.3060563430486
 31
0.0
 11
73.06706418173084
 21
171.574778421435
 31
0.0
 11
73.32242069200468
 21
171.8395667652039
 31
0.0
 11
73.60124269129383
 21
172.0795836121512
 31
0.0
 11
73.92173461891882
 21
172.3107015444765
 31
0.0
 11
74.25977958810074
 21
172.5153405342297
 31
0.0
 11
74.63494331194494
 21
172.7056068668208
 31
0.0
 11
75.02266556177777
 21
172.8688089340965
 31
0.0
 11
75.44050188623905
 21
173.0125942046786
 31
0.0
 11
75.86672070805355
 21
173.1292488532857
 31
0.0
 11
76.31411067414351
 21
173.2225122549851
 31
0.0
 11
76.76629883842125
 21
173.2887469566413
 31
0.0
 11
77.22940205163364
 21
173.329071945408
 31
0.0
 11
77.69406672659795
 21
173.342456975003
 31
0.0
 11
78.15873140156216
 21
173.329071945408
 31
0.0
 11
78.62183461477447
 21
173.2887469566413
 31
0.0
 11
79.0740227790522
 21
173.2225122549851
 31
0.0
 11
79.52141274514217
 21
173.1292488532857
 31
0.0
 11
79.94763156695663
 21
173.0125942046786
 31
0.0
 11
80.36546789141784
 21
172.8688089340965
 31
0.0
 11
80.75319014125071
 21
172.7056068668208
 31
0.0
 11
81.12835386509495
 21
172.5153405342297
 31
0.0
 11
81.46639883427686
 21
172.3107015444765
 31
0.0
 11
81.78689076190184
 21
172.0795836121512
 31
0.0
 11
82.06571276119108
 21
171.8395667652039
 31
0.0
 11
82.32106927146495
 21
171.574778421435
 31
0.0
 11
82.53286660572104
 21
171.3060563430486
 31
0.0
 11
82.71465865007824
 21
171.0162632123572
 31
0.0
 11
82.85323299500715
 21
170.7259075221865
 31
0.0
 11
82.95569988363906
 21
170.4210081869231
 31
0.0
 11
83.01625196303708
 21
170.1166756660038
 31
0.0
 11
83.03686905623783
 21
169.8070998678671
 31
0.0
 11
83.01625196303706
 21
169.4975240697305
 31
0.0
 11
82.95569988363906
 21
169.1931915488112
 31
0.0
 11
82.85323299500713
 21
168.8882922135479
 31
0.0
 11
82.71465865007824
 21
168.5979365233773
 31
0.0
 11
82.53286660572103
 21
168.3081433926859
 31
0.0
 11
82.32106927146495
 21
168.0394213142994
 31
0.0
 11
82.06571276119111
 21
167.7746329705304
 31
0.0
 11
81.78689076190184
 21
167.5346161235831
 31
0.0
 11
81.46639883427686
 21
167.3034981912578
 31
0.0
 11
81.12835386509495
 21
167.0988592015046
 31
0.0
 11
80.75319014125071
 21
166.9085928689135
 31
0.0
 11
80.36546789141784
 21
166.7453908016378
 31
0.0
 11
79.94763156695662
 21
166.6016055310559
 31
0.0
 11
79.52141274514217
 21
166.4849508824489
 31
0.0
 11
79.07402277905219
 21
166.3916874807495
 31
0.0
 11
78.62183461477447
 21
166.3254527790932
 31
0.0
 11
78.15873140156218
 21
166.2851277903265
 31
0.0
 11
77.69406672659795
 21
166.2717427607315
 31
0.0
 11
77.22940205163364
 21
166.2851277903265
 31
0.0
 11
76.76629883842125
 21
166.3254527790932
 31
0.0
 11
76.31411067414359
 21
166.3916874807494
 31
0.0
 11
75.86672070805363
 21
166.4849508824489
 31
0.0
 11
75.44050188623909
 21
166.601605531056
 31
0.0
 11
75.02266556177777
 21
166.7453908016378
 31
0.0
 11
74.63494331194494
 21
166.9085928689134
 31
0.0
 11
74.25977958810074
 21
167.0988592015046
 31
0.0
 11
73.92173461891879
 21
167.3034981912578
 31
0.0
 11
73.60124269129383
 21
167.5346161235831
 31
0.0
 11
73.32242069200468
 21
167.7746329705305
 31
0.0
 11
73.06706418173084
 21
168.0394213142994
 31
0.0
 11
72.85526684747458
 21
168.3081433926859
 31
0.0
 11
72.67347480311724
 21
168.5979365233773
 31
0.0
 11
72.53490045818847
 21
168.8882922135479
 31
0.0
 11
72.43243356955665
 21
169.1931915488112
 31
0.0
 11
72.37188149015856
 21
169.4975240697305
 31
0.0
 11
72.35126439695773
 21
169.8070998678671
 31
0.0
  0
SPLINE
  5
106
330
45
100
AcDbEntity
  8
1
  6
Continuous
 62
     7
100
AcDbSpline
210
0.0
220
0.0
230
1.0
 70
    11
 71
     3
 72
    79
 73
    75
 74
    73
 42
0.0000000001
 43
0.0000000001
 44
0.00000001
 40
0.0
 40
0.0
 40
0.0
 40
0.0
 40
0.3102615659794651
 40
0.6205595479395978
 40
0.9422163027419921
 40
1.263944877610465
 40
1.606039025452171
 40
1.948193473341347
 40
2.31605188949507
 40
2.68395105245438
 40
3.079084668228927
 40
3.474244784278647
 40
3.894897963282792
 40
4.315568211551463
 40
4.757452130783376
 40
5.199346678283918
 40
5.656354166028311
 40
6.113367482701093
 40
6.578223041780111
 40
7.04308045989553
 40
7.507937878010921
 40
7.972793437089911
 40
8.429806753762721
 40
8.886814241507162
 40
9.3287087890076
 40
9.770592708239438
 40
10.19126295650813
 40
10.61191613551222
 40
11.00707625156197
 40
11.40220986733661
 40
11.77010903029594
 40
12.13796744644964
 40
12.48012189433879
 40
12.82221604218045
 40
13.14394461704903
 40
13.46560137185136
 40
13.77589935381149
 40
14.08616091979095
 40
14.39642248577036
 40
14.70672046773044
 40
15.02837722253269
 40
15.35010579740116
 40
15.69219994524283
 40
16.03435439313204
 40
16.40221280928579
 40
16.77011197224515
 40
17.16524558801975
 40
17.56040570406953
 40
17.98105888307367
 40
18.40172913134233
 40
18.84361305057411
 40
19.28550759807451
 40
19.74251508581896
 40
20.19952840249178
 40
20.66438396157077
 40
21.12924137968616
 40
21.59409879780158
 40
22.05895435688059
 40
22.51596767355335
 40
22.97297516129779
 40
23.41486970879829
 40
23.85675362803015
 40
24.27742387629885
 40
24.69807705530297
 40
25.09323717135269
 40
25.48837078712723
 40
25.85626995008658
 40
26.22412836624034
 40
26.56628281412958
 40
26.90837696197129
 40
27.23010553683977
 40
27.55176229164197
 40
27.86206027360202
 40
28.17232183958146
 40
28.17232183958146
 40
28.17232183958146
 40
28.17232183958146
 10
70.47556212760125
 20
169.8070998678671
 30
0.0
 10
70.47152893578443
 20
169.9105900523758
 30
0.0
 10
70.46346207876755
 20
170.1175825682298
 30
0.0
 10
70.39947810081173
 20
170.4264314375219
 30
0.0
 10
70.29805730386262
 20
170.7283983501734
 30
0.0
 10
70.15563480369869
 20
171.0253080057249
 30
0.0
 10
69.97653223077866
 20
171.3096261136964
 30
0.0
 10
69.75856196283198
 20
171.5851271596796
 30
0.0
 10
69.50827980872462
 20
171.8437331800962
 30
0.0
 10
69.22181764689987
 20
172.0894910694981
 30
0.0
 10
68.90798689457239
 20
172.3151363295214
 30
0.0
 10
68.56207272951005
 20
172.5239079972662
 30
0.0
 10
68.19395393733615
 20
172.7101287654225
 30
0.0
 10
67.79926000240081
 20
172.8758132956738
 30
0.0
 10
67.38770680241464
 20
173.0171210684471
 30
0.0
 10
66.95628110280863
 20
173.134900556958
 30
0.0
 10
66.51350707408872
 20
173.2270188585441
 30
0.0
 10
66.05844907548672
 20
173.2935047858915
 30
0.0
 10
65.59768197339835
 20
173.3335623427608
 30
0.0
 10
65.1327597979604
 20
173.3469043000168
 30
0.0
 10
64.66783762252642
 20
173.3335623427608
 30
0.0
 10
64.20707052042641
 20
173.2935047858914
 30
0.0
 10
63.75201252186623
 20
173.2270188585441
 30
0.0
 10
63.30923849299276
 20
173.134900556958
 30
0.0
 10
62.87781279394156
 20
173.0171210684471
 30
0.0
 10
62.46625959193274
 20
172.8758132956738
 30
0.0
 10
62.07156566419965
 20
172.7101287654223
 30
0.0
 10
61.70344684596636
 20
172.5239079972662
 30
0.0
 10
61.35753277253168
 20
172.3151363295214
 30
0.0
 10
61.04370169058222
 20
172.0894910694982
 30
0.0
 10
60.75724067809804
 20
171.8437331800962
 30
0.0
 10
60.50695439901476
 20
171.5851271596797
 30
0.0
 10
60.28899850099857
 20
171.3096261136964
 30
0.0
 10
60.10984418725182
 20
171.0253080057249
 30
0.0
 10
59.96760383585825
 20
170.7283983501733
 30
0.0
 10
59.865520183814
 20
170.4264314375219
 30
0.0
 10
59.80392694388374
 20
170.1175825682298
 30
0.0
 10
59.78297314042136
 20
169.8070998678671
 30
0.0
 10
59.80392694388373
 20
169.4966171675046
 30
0.0
 10
59.86552018381401
 20
169.1877682982124
 30
0.0
 10
59.96760383585827
 20
168.8858013855611
 30
0.0
 10
60.10984418725181
 20
168.5888917300096
 30
0.0
 10
60.28899850099861
 20
168.3045736220381
 30
0.0
 10
60.50695439901475
 20
168.0290725760548
 30
0.0
 10
60.75724067809806
 20
167.7704665556381
 30
0.0
 10
61.04370169058215
 20
167.5247086662362
 30
0.0
 10
61.35753277253171
 20
167.299063406213
 30
0.0
 10
61.70344684596637
 20
167.0902917384681
 30
0.0
 10
62.0715656641996
 20
166.9040709703118
 30
0.0
 10
62.46625959193272
 20
166.7383864400605
 30
0.0
 10
62.8778127939416
 20
166.5970786672874
 30
0.0
 10
63.3092384929928
 20
166.4792991787767
 30
0.0
 10
63.75201252186622
 20
166.3871808771905
 30
0.0
 10
64.20707052042641
 20
166.3206949498431
 30
0.0
 10
64.66783762252639
 20
166.2806373929737
 30
0.0
 10
65.13275979796042
 20
166.2672954357177
 30
0.0
 10
65.59768197339832
 20
166.2806373929737
 30
0.0
 10
66.05844907548674
 20
166.320694949843
 30
0.0
 10
66.51350707408869
 20
166.3871808771904
 30
0.0
 10
66.95628110280862
 20
166.4792991787767
 30
0.0
 10
67.38770680241461
 20
166.5970786672874
 30
0.0
 10
67.79926000240089
 20
166.7383864400605
 30
0.0
 10
68.19395393733612
 20
166.9040709703119
 30
0.0
 10
68.56207272951008
 20
167.0902917384681
 30
0.0
 10
68.90798689457236
 20
167.299063406213
 30
0.0
 10
69.22181764689987
 20
167.5247086662361
 30
0.0
 10
69.50827980872465
 20
167.7704665556382
 30
0.0
 10
69.75856196283198
 20
168.0290725760547
 30
0.0
 10
69.97653223077865
 20
168.3045736220381
 30
0.0
 10
70.15563480369872
 20
168.5888917300096
 30
0.0
 10
70.29805730386258
 20
168.8858013855611
 30
0.0
 10
70.39947810081175
 20
169.1877682982124
 30
0.0
 10
70.46346207876755
 20
169.4966171675046
 30
0.0
 10
70.47152893578443
 20
169.7036096833584
 30
0.0
 10
70.47556212760125
 20
169.8070998678671
 30
0.0
 11
70.47556212760125
 21
169.8070998678671
 31
0.0
 11
70.45494503440042
 21
170.1166756660038
 31
0.0
 11
70.39439295500233
 21
170.4210081869231
 31
0.0
 11
70.29192606637048
 21
170.7259075221866
 31
0.0
 11
70.15335172144165
 21
171.0162632123572
 31
0.0
 11
69.97155967708437
 21
171.3060563430486
 31
0.0
 11
69.75976234282814
 21
171.574778421435
 31
0.0
 11
69.50440583255426
 21
171.8395667652039
 31
0.0
 11
69.22558383326503
 21
172.0795836121512
 31
0.0
 11
68.90509190564006
 21
172.3107015444764
 31
0.0
 11
68.56704693645816
 21
172.5153405342297
 31
0.0
 11
68.19188321261403
 21
172.7056068668209
 31
0.0
 11
67.80416096278125
 21
172.8688089340965
 31
0.0
 11
67.38632463831986
 21
173.0125942046786
 31
0.0
 11
66.96010581650523
 21
173.1292488532857
 31
0.0
 11
66.51271585041536
 21
173.2225122549851
 31
0.0
 11
66.06052768613773
 21
173.2887469566413
 31
0.0
 11
65.59742447292535
 21
173.329071945408
 31
0.0
 11
65.13275979796106
 21
173.342456975003
 31
0.0
 11
64.66809512299679
 21
173.329071945408
 31
0.0
 11
64.20499190978444
 21
173.2887469566413
 31
0.0
 11
63.75280374550678
 21
173.2225122549851
 31
0.0
 11
63.30541377941686
 21
173.1292488532857
 31
0.0
 11
62.87919495760232
 21
173.0125942046786
 31
0.0
 11
62.46135863314103
 21
172.8688089340965
 31
0.0
 11
62.07363638330828
 21
172.7056068668208
 31
0.0
 11
61.69847265946416
 21
172.5153405342297
 31
0.0
 11
61.36042769028219
 21
172.3107015444765
 31
0.0
 11
61.03993576265714
 21
172.0795836121512
 31
0.0
 11
60.7611137633679
 21
171.8395667652039
 31
0.0
 11
60.50575725309403
 21
171.574778421435
 31
0.0
 11
60.29395991883789
 21
171.3060563430486
 31
0.0
 11
60.11216787448064
 21
171.0162632123572
 31
0.0
 11
59.97359352955176
 21
170.7259075221865
 31
0.0
 11
59.87112664091984
 21
170.4210081869231
 31
0.0
 11
59.81057456152175
 21
170.1166756660038
 31
0.0
 11
59.78995746832095
 21
169.8070998678671
 31
0.0
 11
59.81057456152175
 21
169.4975240697305
 31
0.0
 11
59.87112664091984
 21
169.1931915488112
 31
0.0
 11
59.97359352955176
 21
168.8882922135479
 31
0.0
 11
60.11216787448064
 21
168.5979365233773
 31
0.0
 11
60.29395991883789
 21
168.3081433926859
 31
0.0
 11
60.50575725309403
 21
168.0394213142994
 31
0.0
 11
60.7611137633679
 21
167.7746329705305
 31
0.0
 11
61.03993576265714
 21
167.5346161235831
 31
0.0
 11
61.36042769028218
 21
167.3034981912579
 31
0.0
 11
61.69847265946416
 21
167.0988592015046
 31
0.0
 11
62.07363638330827
 21
166.9085928689134
 31
0.0
 11
62.46135863314103
 21
166.7453908016378
 31
0.0
 11
62.87919495760234
 21
166.6016055310559
 31
0.0
 11
63.30541377941686
 21
166.4849508824489
 31
0.0
 11
63.75280374550679
 21
166.3916874807495
 31
0.0
 11
64.20499190978444
 21
166.3254527790932
 31
0.0
 11
64.66809512299679
 21
166.2851277903265
 31
0.0
 11
65.13275979796106
 21
166.2717427607315
 31
0.0
 11
65.59742447292535
 21
166.2851277903265
 31
0.0
 11
66.06052768613773
 21
166.3254527790932
 31
0.0
 11
66.51271585041533
 21
166.3916874807494
 31
0.0
 11
66.96010581650523
 21
166.4849508824489
 31
0.0
 11
67.38632463831986
 21
166.6016055310559
 31
0.0
 11
67.80416096278125
 21
166.7453908016378
 31
0.0
 11
68.19188321261404
 21
166.9085928689134
 31
0.0
 11
68.56704693645816
 21
167.0988592015046
 31
0.0
 11
68.90509190564006
 21
167.3034981912579
 31
0.0
 11
69.22558383326503
 21
167.5346161235831
 31
0.0
 11
69.50440583255426
 21
167.7746329705305
 31
0.0
 11
69.75976234282814
 21
168.0394213142994
 31
0.0
 11
69.97155967708436
 21
168.3081433926859
 31
0.0
 11
70.15335172144165
 21
168.5979365233773
 31
0.0
 11
70.29192606637048
 21
168.8882922135479
 31
0.0
 11
70.39439295500233
 21
169.1931915488112
 31
0.0
 11
70.45494503440042
 21
169.4975240697304
 31
0.0
 11
70.47556212760125
 21
169.8070998678671
 31
0.0
  0
ENDBLK
  5
47
330
45
100
AcDbEntity
  8
0
100
AcDbBlockEnd
  0
BLOCK
  5
49
330
48
100
AcDbEntity
  8
0
100
AcDbBlockBegin
  2
36-1A-13-M4
 70
     0
 71
     0
 10
-0.24543305705379
 20
44.44791488045885
 30
0.0
  3
36-1A-13-M4
  1

  0
LINE
  5
107
330
48
100
AcDbEntity
  8
1
  6
Continuous
 62
     7
100
AcDbLine
 10
76.16341326227934
 20
183.3441805959728
 30
0.0
 11
76.16341326227934
 21
180.2717427607315
 31
0.0
  0
LINE
  5
108
330
48
100
AcDbEntity
  8
1
  6
Continuous
 62
     7
100
AcDbLine
 10
66.66341326227934
 20
180.2717427607315
 30
0.0
 11
66.66341326227934
 21
183.3441805959728
 31
0.0
  0
LINE
  5
109
330
48
100
AcDbEntity
  8
1
  6
Continuous
 62
     7
100
AcDbLine
 10
198.1816283859451
 20
180.2717427607315
 30
0.0
 11
198.1816283859451
 21
183.3420514725464
 31
0.0
  0
LINE
  5
10A
330
48
100
AcDbEntity
  8
1
  6
Continuous
 62
     7
100
AcDbLine
 10
207.6816283859452
 20
183.3420514725464
 30
0.0
 11
207.6816283859452
 21
180.2717427607315
 31
0.0
  0
ENDBLK
  5
4A
330
48
100
AcDbEntity
  8
0
100
AcDbBlockEnd
  0
BLOCK
  5
52
330
4B
100
AcDbEntity
  8
0
100
AcDbBlockBegin
  2
R10A-13
 70
     0
 71
     0
 10
48.13298420913429
 20
102.8675551682287
 30
0.0
  3
R10A-13
  1

  0
INSERT
  5
4C
330
4B
100
AcDbEntity
  8
1
100
AcDbBlockReference
  2
42-1
 10
172.9384230464025
 20
99.84498618925049
 30
0.0
  0
INSERT
  5
4D
330
4B
100
AcDbEntity
  8
0
100
AcDbBlockReference
  2
21-1A
 10
178.0754051292695
 20
83.80745944323735
 30
0.0
  0
INSERT
  5
4E
330
4B
100
AcDbEntity
  8
1
100
AcDbBlockReference
  2
R20F
 10
55.63298420913424
 20
136.3675551682287
 30
0.0
  0
INSERT
  5
4F
330
4B
100
AcDbEntity
  8
1
100
AcDbBlockReference
  2
P42A-1S-13
 10
51.53298420913424
 20
119.8675551682287
 30
0.0
  0
INSERT
  5
50
330
4B
100
AcDbEntity
  8
1
100
AcDbBlockReference
  2
37-1-13
 10
256.0014969545774
 20
92.95359606137842
 30
0.0
  0
INSERT
  5
51
330
4B
100
AcDbEntity
  8
1
100
AcDbBlockReference
  2
36-1A-13-M4
 10
-0.24543305705379
 20
44.44791488045885
 30
0.0
  0
LINE
  5
10B
330
4B
100
AcDbEntity
  8
1
  6
PHANTOM
 62
     4
100
AcDbLine
 10
202.9316283859452
 20
180.0163819200782
 30
0.0
 11
202.9316283859452
 21
195.3420514725464
 31
0.0
  0
ENDBLK
  5
53
330
4B
100
AcDbEntity
  8
0
100
AcDbBlockEnd
  0
BLOCK
  5
55
330
54
100
AcDbEntity
  8
0
100
AcDbBlockBegin
  2
Y22-0-13
 70
     0
 71
     0
 10
118.7528904976666
 20
-110.5305268683516
 30
0.0
  3
Y22-0-13
  1

  0
LINE
  5
10C
330
54
100
AcDbEntity
  8
1
  6
Continuous
 62
     2
100
AcDbLine
 10
177.9316283859452
 20
128.6550514725464
 30
0.0
 11
179.8400099191715
 21
128.6550514725464
 31
0.0
  0
LINE
  5
10D
330
54
100
AcDbEntity
  8
1
  6
Continuous
 62
     2
100
AcDbLine
 10
179.8400099191715
 20
153.0290514725465
 30
0.0
 11
177.9316283859452
 21
153.0290514725465
 31
0.0
  0
LINE
  5
10E
330
54
100
AcDbEntity
  8
1
  6
Continuous
 62
     7
100
AcDbLine
 10
178.4316283859452
 20
153.8420514725464
 30
0.0
 11
178.4316283859452
 21
127.8420514725464
 31
0.0
  0
LINE
  5
10F
330
54
100
AcDbEntity
  8
1
  6
Continuous
 62
     7
100
AcDbLine
 10
190.9316283859452
 20
164.8441805959728
 30
0.0
 11
214.9316283859452
 21
164.8441805959728
 31
0.0
  0
LINE
  5
110
330
54
100
AcDbEntity
  8
1
  6
Continuous
 62
     2
100
AcDbLine
 10
191.9316283859452
 20
164.8441805959728
 30
0.0
 11
191.9316283859452
 21
166.2717427607315
 31
0.0
  0
LINE
  5
111
330
54
100
AcDbEntity
  8
1
  6
Continuous
 62
     2
100
AcDbLine
 10
213.9316283859452
 20
164.8441805959728
 30
0.0
 11
213.9316283859452
 21
166.2717427607315
 31
0.0
  0
LINE
  5
112
330
54
100
AcDbEntity
  8
1
  6
Continuous
 62
     2
100
AcDbLine
 10
213.9316283859452
 20
164.8441805959728
 30
0.0
 11
214.9316283859452
 21
163.1121297884039
 31
0.0
  0
LINE
  5
113
330
54
100
AcDbEntity
  8
1
  6
Continuous
 62
     2
100
AcDbLine
 10
190.9316283859452
 20
163.1121297884039
 30
0.0
 11
191.9316283859452
 21
164.8441805959728
 31
0.0
  0
LINE
  5
114
330
54
100
AcDbEntity
  8
1
  6
Continuous
 62
     7
100
AcDbLine
 10
177.9316283859452
 20
153.8420514725464
 30
0.0
 11
178.4316283859452
 21
153.8420514725464
 31
0.0
  0
LINE
  5
115
330
54
100
AcDbEntity
  8
1
  6
Continuous
 62
     7
100
AcDbLine
 10
178.4316283859452
 20
127.8420514725464
 30
0.0
 11
177.9316283859452
 21
127.8420514725464
 31
0.0
  0
LINE
  5
116
330
54
100
AcDbEntity
  8
1
  6
Continuous
 62
     7
100
AcDbLine
 10
59.41341326227934
 20
157.5446102094396
 30
0.0
 11
59.41341326227934
 21
166.2717427607315
 31
0.0
  0
LINE
  5
117
330
54
100
AcDbEntity
  8
1
  6
Continuous
 62
     7
100
AcDbLine
 10
59.41341326227934
 20
164.8441805959728
 30
0.0
 11
83.41341326227934
 21
164.8441805959728
 31
0.0
  0
LINE
  5
118
330
54
100
AcDbEntity
  8
1
  6
Continuous
 62
     2
100
AcDbLine
 10
60.41341326227934
 20
164.8441805959728
 30
0.0
 11
60.41341326227934
 21
166.2717427607315
 31
0.0
  0
LINE
  5
119
330
54
100
AcDbEntity
  8
1
  6
Continuous
 62
     2
100
AcDbLine
 10
82.41341326227934
 20
164.8441805959728
 30
0.0
 11
82.41341326227934
 21
166.2717427607315
 31
0.0
  0
LINE
  5
11A
330
54
100
AcDbEntity
  8
1
  6
Continuous
 62
     7
100
AcDbLine
 10
83.41341326227934
 20
166.2717427607315
 30
0.0
 11
83.41341326227934
 21
157.5446102094396
 31
0.0
  0
LINE
  5
11B
330
54
100
AcDbEntity
  8
1
  6
Continuous
 62
     2
100
AcDbLine
 10
82.41341326227934
 20
164.8441805959728
 30
0.0
 11
83.41341326227934
 21
163.1121297884039
 31
0.0
  0
LINE
  5
11C
330
54
100
AcDbEntity
  8
1
  6
Continuous
 62
     2
100
AcDbLine
 10
59.41341326227934
 20
163.1121297884039
 30
0.0
 11
60.41341326227934
 21
164.8441805959728
 31
0.0
  0
LINE
  5
11D
330
54
100
AcDbEntity
  8
1
  6
Continuous
 62
     7
100
AcDbLine
 10
65.06778158360316
 20
277.1138438710988
 30
0.0
 11
58.41341326227928
 21
277.1138438710988
 31
0.0
  0
LINE
  5
11E
330
54
100
AcDbEntity
  8
1
  6
Continuous
 62
     7
100
AcDbLine
 10
80.91341326227931
 20
389.6138438710988
 30
0.0
 11
60.91341326227931
 21
389.6138438710988
 31
0.0
  0
LINE
  5
11F
330
54
100
AcDbEntity
  8
1
  6
Continuous
 62
     7
100
AcDbLine
 10
81.91341326227928
 20
378.3458946786675
 30
0.0
 11
81.91341326227928
 21
376.6138438710988
 31
0.0
  0
LINE
  5
120
330
54
100
AcDbEntity
  8
1
  6
Continuous
 62
     7
100
AcDbLine
 10
80.91341326227931
 20
390.6138438710988
 30
0.0
 11
61.91341326227931
 21
390.6138438710988
 31
0.0
  0
LINE
  5
121
330
54
100
AcDbEntity
  8
1
  6
Continuous
 62
     7
100
AcDbLine
 10
81.91341326227931
 20
389.6138438710988
 30
0.0
 11
80.91341326227931
 21
390.6138438710988
 31
0.0
  0
LINE
  5
122
330
54
100
AcDbEntity
  8
1
  6
Continuous
 62
     7
100
AcDbLine
 10
81.91341326227928
 20
378.3458946786675
 30
0.0
 11
60.91341326227928
 21
378.3458946786675
 31
0.0
  0
LINE
  5
123
330
54
100
AcDbEntity
  8
1
  6
Continuous
 62
     7
100
AcDbLine
 10
81.91341326227931
 20
389.6138438710988
 30
0.0
 11
81.91341326227928
 21
378.3458946786675
 31
0.0
  0
LINE
  5
124
330
54
100
AcDbEntity
  8
1
  6
Continuous
 62
     7
100
AcDbLine
 10
80.91341326227931
 20
389.6138438710988
 30
0.0
 11
81.91341326227931
 21
389.6138438710988
 31
0.0
  0
LINE
  5
125
330
54
100
AcDbEntity
  8
1
  6
Continuous
 62
     7
100
AcDbLine
 10
60.91341326227928
 20
378.3458946786675
 30
0.0
 11
60.91341326227931
 21
389.6138438710988
 31
0.0
  0
LINE
  5
126
330
54
100
AcDbEntity
  8
1
  6
Continuous
 62
     7
100
AcDbLine
 10
61.91341326227931
 20
390.6138438710988
 30
0.0
 11
60.91341326227931
 21
389.6138438710988
 31
0.0
  0
LINE
  5
127
330
54
100
AcDbEntity
  8
1
  6
Continuous
 62
     7
100
AcDbLine
 10
60.91341326227928
 20
376.6138438710988
 30
0.0
 11
60.91341326227928
 21
378.3458946786675
 31
0.0
  0
LINE
  5
128
330
54
100
AcDbEntity
  8
1
  6
Continuous
 62
     7
100
AcDbLine
 10
62.66341326227928
 20
370.1261745361662
 30
0.0
 11
62.66341326227928
 21
325.6333671802737
 31
0.0
  0
LINE
  5
129
330
54
100
AcDbEntity
  8
1
  6
Continuous
 62
     2
100
AcDbLine
 10
61.91341326227928
 20
378.3458946786675
 30
0.0
 11
61.91341326227931
 21
390.6138438710988
 31
0.0
  0
LINE
  5
12A
330
54
100
AcDbEntity
  8
1
  6
Continuous
 62
     2
100
AcDbLine
 10
60.91341326227928
 20
376.6138438710988
 30
0.0
 11
61.91341326227928
 21
378.3458946786675
 31
0.0
  0
LINE
  5
12B
330
54
100
AcDbEntity
  8
1
  6
Continuous
 62
     7
100
AcDbLine
 10
48.41341326227928
 20
376.6138438710988
 30
0.0
 11
94.41341326227928
 21
376.6138438710988
 31
0.0
  0
LINE
  5
12C
330
54
100
AcDbEntity
  8
1
  6
Continuous
 62
     7
100
AcDbLine
 10
48.41341326227928
 20
376.6138438710988
 30
0.0
 11
48.41341326227928
 21
374.6123025379651
 31
0.0
  0
LINE
  5
12D
330
54
100
AcDbEntity
  8
1
  6
Continuous
 62
     7
100
AcDbLine
 10
80.16341326227928
 20
370.1261745361662
 30
0.0
 11
80.16341326227928
 21
325.6333671802737
 31
0.0
  0
LINE
  5
12E
330
54
100
AcDbEntity
  8
1
  6
Continuous
 62
     7
100
AcDbLine
 10
83.84957687936787
 20
374.1138438710988
 30
0.0
 11
84.87486957409209
 21
374.1138438710988
 31
0.0
  0
LINE
  5
12F
330
54
100
AcDbEntity
  8
1
  6
Continuous
 62
     7
100
AcDbLine
 10
94.41341326227928
 20
374.6123025379651
 30
0.0
 11
94.41341326227928
 21
376.6138438710988
 31
0.0
  0
LINE
  5
130
330
54
100
AcDbEntity
  8
1
  6
Continuous
 62
     2
100
AcDbLine
 10
80.91341326227928
 20
378.3458946786675
 30
0.0
 11
81.91341326227928
 21
376.6138438710988
 31
0.0
  0
LINE
  5
131
330
54
100
AcDbEntity
  8
1
  6
Continuous
 62
     2
100
AcDbLine
 10
80.91341326227928
 20
378.3458946786675
 30
0.0
 11
80.91341326227931
 21
390.6138438710988
 31
0.0
  0
LINE
  5
132
330
54
100
AcDbEntity
  8
1
  6
Continuous
 62
     7
100
AcDbLine
 10
275.4316283859452
 20
163.3812810204103
 30
0.0
 11
275.4316283859452
 21
128.4058878554578
 31
0.0
  0
LINE
  5
133
330
54
100
AcDbEntity
  8
1
  6
Continuous
 62
     7
100
AcDbLine
 10
277.9316283859452
 20
163.8420514725464
 30
0.0
 11
275.9300870528116
 21
163.8420514725464
 31
0.0
  0
LINE
  5
134
330
54
100
AcDbEntity
  8
1
  6
Continuous
 62
     7
100
AcDbLine
 10
277.9316283859452
 20
163.8420514725464
 30
0.0
 11
277.9316283859452
 21
130.3420514725464
 31
0.0
  0
LINE
  5
135
330
54
100
AcDbEntity
  8
1
  6
Continuous
 62
     7
100
AcDbLine
 10
277.9316283859452
 20
151.3420514725464
 30
0.0
 11
279.663679193514
 21
151.3420514725464
 31
0.0
  0
LINE
  5
136
330
54
100
AcDbEntity
  8
1
  6
Continuous
 62
     2
100
AcDbLine
 10
277.9316283859452
 20
151.3420514725464
 30
0.0
 11
279.663679193514
 21
150.3420514725464
 31
0.0
  0
LINE
  5
137
330
54
100
AcDbEntity
  8
1
  6
Continuous
 62
     2
100
AcDbLine
 10
279.663679193514
 20
150.3420514725464
 30
0.0
 11
290.9316283859452
 21
150.3420514725464
 31
0.0
  0
LINE
  5
138
330
54
100
AcDbEntity
  8
1
  6
Continuous
 62
     7
100
AcDbLine
 10
291.9316283859452
 20
150.3420514725464
 30
0.0
 11
290.9316283859452
 21
151.3420514725464
 31
0.0
  0
LINE
  5
139
330
54
100
AcDbEntity
  8
1
  6
Continuous
 62
     7
100
AcDbLine
 10
279.663679193514
 20
131.3420514725464
 30
0.0
 11
279.663679193514
 21
151.3420514725464
 31
0.0
  0
LINE
  5
13A
330
54
100
AcDbEntity
  8
1
  6
Continuous
 62
     7
100
AcDbLine
 10
279.663679193514
 20
151.3420514725464
 30
0.0
 11
290.9316283859452
 21
151.3420514725464
 31
0.0
  0
LINE
  5
13B
330
54
100
AcDbEntity
  8
1
  6
Continuous
 62
     2
100
AcDbLine
 10
291.9316283859452
 20
131.3420514725464
 30
0.0
 11
290.9316283859452
 21
131.3420514725464
 31
0.0
  0
LINE
  5
13C
330
54
100
AcDbEntity
  8
1
  6
Continuous
 62
     7
100
AcDbLine
 10
290.9316283859452
 20
130.3420514725464
 30
0.0
 11
279.663679193514
 21
130.3420514725464
 31
0.0
  0
LINE
  5
13D
330
54
100
AcDbEntity
  8
1
  6
Continuous
 62
     7
100
AcDbLine
 10
279.663679193514
 20
130.3420514725464
 30
0.0
 11
279.663679193514
 21
131.3420514725464
 31
0.0
  0
LINE
  5
13E
330
54
100
AcDbEntity
  8
1
  6
Continuous
 62
     7
100
AcDbLine
 10
290.9316283859452
 20
130.3420514725464
 30
0.0
 11
291.9316283859452
 21
131.3420514725464
 31
0.0
  0
LINE
  5
13F
330
54
100
AcDbEntity
  8
1
  6
Continuous
 62
     2
100
AcDbLine
 10
279.663679193514
 20
131.3420514725464
 30
0.0
 11
277.9316283859452
 21
130.3420514725464
 31
0.0
  0
LINE
  5
140
330
54
100
AcDbEntity
  8
1
  6
Continuous
 62
     7
100
AcDbLine
 10
279.663679193514
 20
130.3420514725464
 30
0.0
 11
277.9316283859452
 21
130.3420514725464
 31
0.0
  0
LINE
  5
141
330
54
100
AcDbEntity
  8
1
  6
Continuous
 62
     7
100
AcDbLine
 10
277.9316283859452
 20
130.3420514725464
 30
0.0
 11
277.9316283859452
 21
117.8420514725464
 31
0.0
  0
LINE
  5
142
330
54
100
AcDbEntity
  8
1
  6
Continuous
 62
     7
100
AcDbLine
 10
275.9300870528116
 20
117.8420514725464
 30
0.0
 11
277.9316283859452
 21
117.8420514725464
 31
0.0
  0
LINE
  5
143
330
54
100
AcDbEntity
  8
1
  6
Continuous
 62
     7
100
AcDbLine
 10
275.4316283859452
 20
128.4058878554578
 30
0.0
 11
275.4316283859452
 21
118.3028219246825
 31
0.0
  0
LINE
  5
144
330
54
100
AcDbEntity
  8
1
  6
Continuous
 62
     7
100
AcDbLine
 10
291.9316283859452
 20
150.3420514725464
 30
0.0
 11
291.9316283859452
 21
131.3420514725464
 31
0.0
  0
LINE
  5
145
330
54
100
AcDbEntity
  8
1
  6
Continuous
 62
     7
100
AcDbLine
 10
271.4439590510127
 20
149.5920514725464
 30
0.0
 11
226.9511516951201
 21
149.5920514725465
 31
0.0
  0
LINE
  5
146
330
54
100
AcDbEntity
  8
1
  6
Continuous
 62
     7
100
AcDbLine
 10
214.9316283859452
 20
156.1740724495799
 30
0.0
 11
214.9316283859452
 21
166.2717427607315
 31
0.0
  0
LINE
  5
147
330
54
100
AcDbEntity
  8
1
  6
Continuous
 62
     7
100
AcDbLine
 10
226.9511516951201
 20
132.0920514725464
 30
0.0
 11
271.4439590510127
 21
132.0920514725464
 31
0.0
  0
LINE
  5
148
330
54
100
AcDbEntity
  8
1
  6
Continuous
 62
     7
100
AcDbLine
 10
190.9316283859452
 20
156.419894189815
 30
0.0
 11
190.9316283859452
 21
166.2717427607315
 31
0.0
  0
LINE
  5
149
330
54
100
AcDbEntity
  8
1
  6
Continuous
 62
     7
100
AcDbLine
 10
84.41341326227928
 20
277.1138438710988
 30
0.0
 11
84.41341326227928
 21
276.6138438710988
 31
0.0
  0
LINE
  5
14A
330
54
100
AcDbEntity
  8
1
  6
Continuous
 62
     7
100
AcDbLine
 10
58.41341326227928
 20
276.6138438710988
 30
0.0
 11
58.41341326227928
 21
277.1138438710988
 31
0.0
  0
LINE
  5
14B
330
54
100
AcDbEntity
  8
1
  6
Continuous
 62
     2
100
AcDbLine
 10
59.22641326227927
 20
278.522225404325
 30
0.0
 11
59.22641326227927
 21
276.6138438710988
 31
0.0
  0
LINE
  5
14C
330
54
100
AcDbEntity
  8
1
  6
Continuous
 62
     7
100
AcDbLine
 10
84.41341326227928
 20
277.1138438710988
 30
0.0
 11
77.75904494095536
 21
277.1138438710988
 31
0.0
  0
LINE
  5
14D
330
54
100
AcDbEntity
  8
1
  6
Continuous
 62
     2
100
AcDbLine
 10
83.60041326227926
 20
278.522225404325
 30
0.0
 11
83.60041326227926
 21
276.6138438710988
 31
0.0
  0
LINE
  5
14E
330
54
100
AcDbEntity
  8
1
  6
Continuous
 62
     7
100
AcDbLine
 10
93.95264281014318
 20
374.1138438710988
 30
0.0
 11
48.87418371441538
 21
374.1138438710988
 31
0.0
  0
LINE
  5
14F
330
54
100
AcDbEntity
  8
1
  6
Continuous
 62
     7
100
AcDbLine
 10
290.9316283859452
 20
151.3420514725464
 30
0.0
 11
290.9316283859452
 21
131.3420514725464
 31
0.0
  0
LINE
  5
150
330
54
100
AcDbEntity
  8
1
  6
Continuous
 62
     2
100
AcDbLine
 10
290.9316283859452
 20
150.3420514725464
 30
0.0
 11
291.9316283859452
 21
150.3420514725464
 31
0.0
  0
LINE
  5
151
330
54
100
AcDbEntity
  8
1
  6
Continuous
 62
     7
100
AcDbLine
 10
290.9316283859452
 20
130.3420514725464
 30
0.0
 11
290.9316283859452
 21
131.3420514725464
 31
0.0
  0
LINE
  5
152
330
54
100
AcDbEntity
  8
1
  6
Continuous
 62
     2
100
AcDbLine
 10
290.9316283859452
 20
131.3420514725464
 30
0.0
 11
279.663679193514
 21
131.3420514725464
 31
0.0
  0
ARC
  5
153
330
54
100
AcDbEntity
  8
0
  6
Continuous
 62
     7
100
AcDbCircle
 10
12.41750186905145
 20
154.7608504199573
 30
0.0
 40
47.07828593147448
100
AcDbArc
 50
-6.87364265963419
 51
3.38990206119939
  0
ARC
  5
154
330
54
100
AcDbEntity
  8
0
  6
Continuous
 62
     7
100
AcDbCircle
 10
104.9093246555075
 20
140.8420514725464
 30
0.0
 40
46.49591139322813
100
AcDbArc
 50
169.7364552791666
 51
172.3329676727369
  0
ARC
  5
155
330
54
100
AcDbEntity
  8
0
  6
Continuous
 62
     7
100
AcDbCircle
 10
37.91750186905125
 20
140.8420514725464
 30
0.0
 40
46.49591139322805
100
AcDbArc
 50
7.66703232726316
 51
10.26354472083343
  0
ARC
  5
156
330
54
100
AcDbEntity
  8
0
  6
Continuous
 62
     7
100
AcDbCircle
 10
130.4093246555071
 20
154.7608504199573
 30
0.0
 40
47.07828593147434
100
AcDbArc
 50
176.6100979388006
 51
-173.1263573403658
  0
ARC
  5
157
330
54
100
AcDbEntity
  8
1
  6
Continuous
 62
     7
100
AcDbCircle
 10
44.41341326227928
 20
301.6138438710988
 30
0.0
 40
40.00000000000007
100
AcDbArc
 50
-17.14772915687023
 51
-8.44840117492256
  0
ARC
  5
158
330
54
100
AcDbEntity
  8
1
  6
Continuous
 62
     7
100
AcDbCircle
 10
202.9316283859452
 20
167.8420514725464
 30
0.0
 40
39.99999999999996
100
AcDbArc
 50
-107.1477291568701
 51
-69.93194537918086
  0
ARC
  5
159
330
54
100
AcDbEntity
  8
1
  6
Continuous
 62
     7
100
AcDbCircle
 10
186.6816283859452
 20
115.1767453500975
 30
0.0
 40
15.11530612244893
100
AcDbArc
 50
72.85227084313006
 51
123.079648002458
  0
ARC
  5
15A
330
54
100
AcDbEntity
  8
1
  6
Continuous
 62
     7
100
AcDbCircle
 10
185.9316283859452
 20
156.419894189815
 30
0.0
 40
4.999999999999972
100
AcDbArc
 50
-94.2521011930786
 51
0.0
  0
ARC
  5
15B
330
54
100
AcDbEntity
  8
1
  6
Continuous
 62
     7
100
AcDbCircle
 10
186.6816283859452
 20
166.5073575949954
 30
0.0
 40
15.115306122449
100
AcDbArc
 50
-123.0796480024578
 51
-94.2521011930781
  0
ARC
  5
15C
330
54
100
AcDbEntity
  8
1
  6
Continuous
 62
     7
100
AcDbCircle
 10
97.07871938472817
 20
285.3638438710988
 30
0.0
 40
15.11530612244883
100
AcDbArc
 50
162.8522708431304
 51
-153.0875481918073
  0
ARC
  5
15D
330
54
100
AcDbEntity
  8
1
  6
Continuous
 62
     7
100
AcDbCircle
 10
97.07871938472817
 20
285.3638438710988
 30
0.0
 40
15.115306122449
100
AcDbArc
 50
-153.0875481918073
 51
-146.920351997542
  0
ARC
  5
15E
330
54
100
AcDbEntity
  8
1
  6
Continuous
 62
     7
100
AcDbCircle
 10
45.74810713983038
 20
285.3638438710988
 30
0.0
 40
15.11530612244891
100
AcDbArc
 50
-33.07964800245803
 51
-26.91245180819274
  0
ARC
  5
15F
330
54
100
AcDbEntity
  8
1
  6
Continuous
 62
     7
100
AcDbCircle
 10
45.74810713983038
 20
285.3638438710988
 30
0.0
 40
15.11530612244898
100
AcDbArc
 50
-26.91245180819274
 51
17.14772915686951
  0
ARC
  5
160
330
54
100
AcDbEntity
  8
1
  6
Continuous
 62
     7
100
AcDbCircle
 10
98.41341326227928
 20
301.6138438710988
 30
0.0
 40
40.00000000000001
100
AcDbArc
 50
-171.5515988250774
 51
-162.8522708431298
  0
ARC
  5
161
330
54
100
AcDbEntity
  8
1
  6
Continuous
 62
     7
100
AcDbCircle
 10
71.41341326227934
 20
140.8420514725464
 30
0.0
 40
23.0
100
AcDbArc
 50
0.0
 51
58.55101861062062
  0
ARC
  5
162
330
54
100
AcDbEntity
  8
1
  6
Continuous
 62
     7
100
AcDbCircle
 10
71.41341326227934
 20
140.8420514725464
 30
0.0
 40
22.99999999999995
100
AcDbArc
 50
-70.7248487849286
 51
0.0
  0
ARC
  5
163
330
54
100
AcDbEntity
  8
1
  6
Continuous
 62
     7
100
AcDbCircle
 10
71.41341326227934
 20
140.8420514725464
 30
0.0
 40
23.00000000000012
100
AcDbArc
 50
121.4489813893794
 51
-109.2751512150713
  0
ARC
  5
164
330
54
100
AcDbEntity
  8
1
  6
Continuous
 62
     7
100
AcDbCircle
 10
110.1634132622793
 20
325.6333671802737
 30
0.0
 40
30.00000000000003
100
AcDbArc
 50
180.0
 51
-163.6603718092953
  0
ARC
  5
165
330
54
100
AcDbEntity
  8
1
  6
Continuous
 62
     7
100
AcDbCircle
 10
220.9316283859452
 20
156.1740724495799
 30
0.0
 40
6.0
100
AcDbArc
 50
180.0
 51
-120.0881938159433
  0
ARC
  5
166
330
54
100
AcDbEntity
  8
1
  6
Continuous
 62
     7
100
AcDbCircle
 10
226.9511516951201
 20
179.5920514725464
 30
0.0
 40
29.9999999999999
100
AcDbArc
 50
-107.5127047003517
 51
-90.0
  0
ARC
  5
167
330
54
100
AcDbEntity
  8
1
  6
Continuous
 62
     7
100
AcDbCircle
 10
226.9511516951201
 20
102.0920514725464
 30
0.0
 40
29.99999999999999
100
AcDbArc
 50
90.0
 51
110.0680546208191
  0
ARC
  5
168
330
54
100
AcDbEntity
  8
1
  6
Continuous
 62
     7
100
AcDbCircle
 10
32.66341326227928
 20
325.6333671802737
 30
0.0
 40
30.00000000000001
100
AcDbArc
 50
-16.33962819070468
 51
0.0
  0
ARC
  5
169
330
54
100
AcDbEntity
  8
1
  6
Continuous
 62
     7
100
AcDbCircle
 10
48.91341326227928
 20
374.6123025379651
 30
0.0
 40
0.5
100
AcDbArc
 50
180.0
 51
-94.49999999999974
  0
ARC
  5
16A
330
54
100
AcDbEntity
  8
1
  6
Continuous
 62
     7
100
AcDbCircle
 10
58.66341326227928
 20
370.1261745361662
 30
0.0
 40
4.0
100
AcDbArc
 50
0.0
 51
85.49999999999976
  0
ARC
  5
16B
330
54
100
AcDbEntity
  8
1
  6
Continuous
 62
     7
100
AcDbCircle
 10
84.16341326227928
 20
370.1261745361662
 30
0.0
 40
4.000000000000094
100
AcDbArc
 50
94.50000000000024
 51
180.0
  0
ARC
  5
16C
330
54
100
AcDbEntity
  8
1
  6
Continuous
 62
     7
100
AcDbCircle
 10
93.91341326227928
 20
374.6123025379651
 30
0.0
 40
0.499999999999705
100
AcDbArc
 50
-85.50000000000026
 51
0.0
  0
ARC
  5
16D
330
54
100
AcDbEntity
  8
1
  6
Continuous
 62
     7
100
AcDbCircle
 10
275.9300870528116
 20
163.3420514725464
 30
0.0
 40
0.5
100
AcDbArc
 50
90.0
 51
175.499999999998
  0
ARC
  5
16E
330
54
100
AcDbEntity
  8
1
  6
Continuous
 62
     7
100
AcDbCircle
 10
271.4439590510127
 20
153.5920514725464
 30
0.0
 40
4.0
100
AcDbArc
 50
-90.0
 51
-4.49999999999875
  0
ARC
  5
16F
330
54
100
AcDbEntity
  8
1
  6
Continuous
 62
     7
100
AcDbCircle
 10
271.4439590510127
 20
128.0920514725464
 30
0.0
 40
3.999999999999981
100
AcDbArc
 50
4.50000000000037
 51
90.0
  0
ARC
  5
170
330
54
100
AcDbEntity
  8
1
  6
Continuous
 62
     7
100
AcDbCircle
 10
275.9300870528116
 20
118.3420514725464
 30
0.0
 40
0.4999999999998183
100
AcDbArc
 50
-175.5000000000013
 51
-90.0
  0
ENDBLK
  5
56
330
54
100
AcDbEntity
  8
0
100
AcDbBlockEnd
  0
BLOCK
  5
58
330
57
100
AcDbEntity
  8
0
100
AcDbBlockBegin
  2
_J__A4
 70
     0
 71
     0
 10
0.0
 20
0.0
 30
0.0
  3
_J__A4
  1

  0
POINT
  5
171
330
57
100
AcDbEntity
  8
1
 62
     4
100
AcDbPoint
 10
34.0
 20
34.00000000000001
 30
0.0
  0
POINT
  5
172
330
57
100
AcDbEntity
  8
1
 62
     4
100
AcDbPoint
 10
57.0
 20
12.25
 30
0.0
  0
POINT
  5
173
330
57
100
AcDbEntity
  8
1
 62
     4
100
AcDbPoint
 10
57.0
 20
20.75000000000001
 30
0.0
  0
POINT
  5
174
330
57
100
AcDbEntity
  8
1
 62
     4
100
AcDbPoint
 10
57.0
 20
24.75000000000001
 30
0.0
  0
POINT
  5
175
330
57
100
AcDbEntity
  8
1
 62
     4
100
AcDbPoint
 10
57.0
 20
16.25
 30
0.0
  0
POINT
  5
176
330
57
100
AcDbEntity
  8
1
 62
     4
100
AcDbPoint
 10
157.5
 20
19.00000000000001
 30
0.0
  0
POINT
  5
177
330
57
100
AcDbEntity
  8
1
 62
     4
100
AcDbPoint
 10
47.5
 20
282.0000000000003
 30
0.0
  0
POINT
  5
178
330
57
100
AcDbEntity
  8
1
 62
     4
100
AcDbPoint
 10
57.0
 20
22.75000000000001
 30
0.0
  0
POINT
  5
179
330
57
100
AcDbEntity
  8
1
 62
     4
100
AcDbPoint
 10
57.0
 20
14.25
 30
0.0
  0
POINT
  5
17A
330
57
100
AcDbEntity
  8
1
 62
     4
100
AcDbPoint
 10
157.5
 20
12.5
 30
0.0
  0
POINT
  5
17B
330
57
100
AcDbEntity
  8
1
 62
     4
100
AcDbPoint
 10
163.25
 20
12.5
 30
0.0
  0
POINT
  5
17C
330
57
100
AcDbEntity
  8
1
 62
     4
100
AcDbPoint
 10
151.75
 20
12.5
 30
0.0
  0
POINT
  5
17D
330
57
100
AcDbEntity
  8
1
 62
     4
100
AcDbPoint
 10
134.75
 20
12.5
 30
0.0
  0
POINT
  5
17E
330
57
100
AcDbEntity
  8
1
 62
     4
100
AcDbPoint
 10
146.25
 20
12.5
 30
0.0
  0
POINT
  5
17F
330
57
100
AcDbEntity
  8
1
 62
     4
100
AcDbPoint
 10
140.5
 20
12.5
 30
0.0
  0
POINT
  5
180
330
57
100
AcDbEntity
  8
1
 62
     4
100
AcDbPoint
 10
140.5
 20
19.00000000000001
 30
0.0
  0
POINT
  5
181
330
57
100
AcDbEntity
  8
1
 62
     4
100
AcDbPoint
 10
117.75
 20
12.5
 30
0.0
  0
POINT
  5
182
330
57
100
AcDbEntity
  8
1
 62
     4
100
AcDbPoint
 10
129.25
 20
12.5
 30
0.0
  0
POINT
  5
183
330
57
100
AcDbEntity
  8
1
 62
     4
100
AcDbPoint
 10
123.5
 20
12.5
 30
0.0
  0
POINT
  5
184
330
57
100
AcDbEntity
  8
1
 62
     4
100
AcDbPoint
 10
123.5
 20
19.00000000000001
 30
0.0
  0
POINT
  5
185
330
57
100
AcDbEntity
  8
1
 62
     4
100
AcDbPoint
 10
100.75
 20
12.5
 30
0.0
  0
POINT
  5
186
330
57
100
AcDbEntity
  8
1
 62
     4
100
AcDbPoint
 10
112.25
 20
12.5
 30
0.0
  0
POINT
  5
187
330
57
100
AcDbEntity
  8
1
 62
     4
100
AcDbPoint
 10
106.5
 20
12.5
 30
0.0
  0
POINT
  5
188
330
57
100
AcDbEntity
  8
1
 62
     4
100
AcDbPoint
 10
106.5
 20
19.00000000000001
 30
0.0
  0
POINT
  5
189
330
57
100
AcDbEntity
  8
1
 62
     4
100
AcDbPoint
 10
85.25
 20
17.0
 30
0.0
  0
POINT
  5
18A
330
57
100
AcDbEntity
  8
1
 62
     4
100
AcDbPoint
 10
93.75
 20
17.0
 30
0.0
  0
LINE
  5
18B
330
57
100
AcDbEntity
  8
1
  6
Continuous
 62
     2
100
AcDbLine
 10
81.0
 20
27.00000000000001
 30
0.0
 11
81.0
 21
10.0
 31
0.0
  0
LINE
  5
18C
330
57
100
AcDbEntity
  8
1
  6
DOT_CENTER
 62
     2
100
AcDbLine
 10
187.0
 20
26.50000000000001
 30
0.0
 11
187.0
 21
20.50000000000001
 31
0.0
  0
LINE
  5
18D
330
57
100
AcDbEntity
  8
1
  6
DOT_CENTER
 62
     2
100
AcDbLine
 10
184.0
 20
23.50000000000001
 30
0.0
 11
197.0
 21
23.50000000000001
 31
0.0
  0
LINE
  5
18E
330
57
100
AcDbEntity
  8
1
  6
Continuous
 62
     7
100
AcDbLine
 10
196.0
 20
21.50000000000001
 30
0.0
 11
191.0
 21
22.30000000000001
 31
0.0
  0
LINE
  5
18F
330
57
100
AcDbEntity
  8
1
  6
Continuous
 62
     7
100
AcDbLine
 10
196.0
 20
25.50000000000001
 30
0.0
 11
196.0
 21
21.50000000000001
 31
0.0
  0
LINE
  5
190
330
57
100
AcDbEntity
  8
1
  6
Continuous
 62
     7
100
AcDbLine
 10
191.0
 20
24.70000000000001
 30
0.0
 11
196.0
 21
25.50000000000001
 31
0.0
  0
LINE
  5
191
330
57
100
AcDbEntity
  8
1
  6
Continuous
 62
     7
100
AcDbLine
 10
191.0
 20
24.70000000000001
 30
0.0
 11
191.0
 21
22.30000000000001
 31
0.0
  0
LINE
  5
192
330
57
100
AcDbEntity
  8
1
  6
Continuous
 62
     2
100
AcDbLine
 10
33.0
 20
27.0
 30
0.0
 11
33.0
 21
10.0
 31
0.0
  0
LINE
  5
193
330
57
100
AcDbEntity
  8
1
  6
Continuous
 62
     2
100
AcDbLine
 10
25.0
 20
18.50000000000001
 30
0.0
 11
81.0
 21
18.50000000000001
 31
0.0
  0
LINE
  5
194
330
57
100
AcDbEntity
  8
1
  6
Continuous
 62
     7
100
AcDbLine
 10
200.0
 20
287.0000000000003
 30
0.0
 11
105.0
 21
287.0000000000003
 31
0.0
  0
LINE
  5
195
330
57
100
AcDbEntity
  8
1
  6
Continuous
 62
     7
100
AcDbLine
 10
200.0
 20
10.0
 30
0.0
 11
200.0
 21
148.5
 31
0.0
  0
LINE
  5
196
330
57
100
AcDbEntity
  8
1
  6
Continuous
 62
     7
100
AcDbLine
 10
25.0
 20
10.0
 30
0.0
 11
105.0
 21
10.0
 31
0.0
  0
LINE
  5
197
330
57
100
AcDbEntity
  8
1
  6
PHANTOM
 62
     4
100
AcDbLine
 10
0.0
 20
297.0
 30
0.0
 11
0.0
 21
0.0
 31
0.0
  0
LINE
  5
198
330
57
100
AcDbEntity
  8
1
  6
PHANTOM
 62
     4
100
AcDbLine
 10
210.0
 20
297.0
 30
0.0
 11
0.0
 21
297.0
 31
0.0
  0
LINE
  5
199
330
57
100
AcDbEntity
  8
1
  6
PHANTOM
 62
     4
100
AcDbLine
 10
210.0
 20
0.0
 30
0.0
 11
210.0
 21
297.0
 31
0.0
  0
LINE
  5
19A
330
57
100
AcDbEntity
  8
1
  6
PHANTOM
 62
     4
100
AcDbLine
 10
0.0
 20
0.0
 30
0.0
 11
210.0
 21
0.0
 31
0.0
  0
LINE
  5
19B
330
57
100
AcDbEntity
  8
1
  6
Continuous
 62
     7
100
AcDbLine
 10
25.0
 20
41.0
 30
0.0
 11
200.0
 21
41.0
 31
0.0
  0
LINE
  5
19C
330
57
100
AcDbEntity
  8
1
  6
Continuous
 62
     7
100
AcDbLine
 10
200.0
 20
27.00000000000001
 30
0.0
 11
25.0
 21
27.00000000000001
 31
0.0
  0
LINE
  5
19D
330
57
100
AcDbEntity
  8
1
  6
Continuous
 62
     2
100
AcDbLine
 10
33.0
 20
41.00000000000001
 30
0.0
 11
33.0
 21
27.0
 31
0.0
  0
LINE
  5
19E
330
57
100
AcDbEntity
  8
1
  6
Continuous
 62
     2
100
AcDbLine
 10
55.0
 20
287.0000000000003
 30
0.0
 11
55.0
 21
277.0000000000003
 31
0.0
  0
LINE
  5
19F
330
57
100
AcDbEntity
  8
1
  6
Continuous
 62
     2
100
AcDbLine
 10
40.0
 20
287.0000000000003
 30
0.0
 11
40.0
 21
277.0000000000003
 31
0.0
  0
LINE
  5
1A0
330
57
100
AcDbEntity
  8
1
  6
Continuous
 62
     7
100
AcDbLine
 10
25.0
 20
10.0
 30
0.0
 11
25.0
 21
148.5
 31
0.0
  0
LINE
  5
1A1
330
57
100
AcDbEntity
  8
1
  6
Continuous
 62
     2
100
AcDbLine
 10
55.0
 20
277.0000000000003
 30
0.0
 11
25.0
 21
277.0000000000003
 31
0.0
  0
LINE
  5
1A2
330
57
100
AcDbEntity
  8
1
  6
Continuous
 62
     2
100
AcDbLine
 10
166.0
 20
27.00000000000001
 30
0.0
 11
166.0
 21
10.0
 31
0.0
  0
LINE
  5
1A3
330
57
100
AcDbEntity
  8
1
  6
Continuous
 62
     2
100
AcDbLine
 10
132.0
 20
27.00000000000001
 30
0.0
 11
132.0
 21
9.99999999999999
 31
0.0
  0
LINE
  5
1A4
330
57
100
AcDbEntity
  8
1
  6
Continuous
 62
     2
100
AcDbLine
 10
149.0
 20
27.00000000000001
 30
0.0
 11
149.0
 21
10.0
 31
0.0
  0
LINE
  5
1A5
330
57
100
AcDbEntity
  8
1
  6
Continuous
 62
     2
100
AcDbLine
 10
115.0
 20
27.00000000000001
 30
0.0
 11
115.0
 21
9.99999999999999
 31
0.0
  0
LINE
  5
1A6
330
57
100
AcDbEntity
  8
1
  6
Continuous
 62
     2
100
AcDbLine
 10
98.0
 20
27.00000000000001
 30
0.0
 11
98.0
 21
9.99999999999999
 31
0.0
  0
LINE
  5
1A7
330
57
100
AcDbEntity
  8
1
  6
Continuous
 62
     2
100
AcDbLine
 10
166.0
 20
20.00000000000001
 30
0.0
 11
200.0
 21
20.00000000000001
 31
0.0
  0
LINE
  5
1A8
330
57
100
AcDbEntity
  8
1
  6
Continuous
 62
     2
100
AcDbLine
 10
105.0
 20
287.0000000000003
 30
0.0
 11
105.0
 21
292.0000000000003
 31
0.0
  0
LINE
  5
1A9
330
57
100
AcDbEntity
  8
1
  6
Continuous
 62
     7
100
AcDbLine
 10
105.0
 20
287.0000000000003
 30
0.0
 11
25.0
 21
287.0000000000003
 31
0.0
  0
LINE
  5
1AA
330
57
100
AcDbEntity
  8
1
  6
Continuous
 62
     2
100
AcDbLine
 10
25.0
 20
148.5
 30
0.0
 11
20.0
 21
148.5
 31
0.0
  0
LINE
  5
1AB
330
57
100
AcDbEntity
  8
1
  6
Continuous
 62
     7
100
AcDbLine
 10
25.0
 20
148.5
 30
0.0
 11
25.0
 21
287.0000000000003
 31
0.0
  0
LINE
  5
1AC
330
57
100
AcDbEntity
  8
1
  6
Continuous
 62
     2
100
AcDbLine
 10
200.0
 20
148.5
 30
0.0
 11
205.0
 21
148.5
 31
0.0
  0
LINE
  5
1AD
330
57
100
AcDbEntity
  8
1
  6
Continuous
 62
     7
100
AcDbLine
 10
200.0
 20
148.5
 30
0.0
 11
200.0
 21
287.0000000000003
 31
0.0
  0
LINE
  5
1AE
330
57
100
AcDbEntity
  8
1
  6
Continuous
 62
     2
100
AcDbLine
 10
105.0
 20
10.0
 30
0.0
 11
105.0
 21
5.0
 31
0.0
  0
LINE
  5
1AF
330
57
100
AcDbEntity
  8
1
  6
Continuous
 62
     7
100
AcDbLine
 10
105.0
 20
10.0
 30
0.0
 11
200.0
 21
10.0
 31
0.0
  0
CIRCLE
  5
1B0
330
57
100
AcDbEntity
  8
1
  6
DOT_CENTER
 62
     7
100
AcDbCircle
 10
89.5
 20
18.0
 30
0.0
 40
0.1000000000000227
  0
CIRCLE
  5
1B1
330
57
100
AcDbEntity
  8
1
  6
DOT_CENTER
 62
     7
100
AcDbCircle
 10
89.5
 20
16.0
 30
0.0
 40
0.1000000000000227
  0
CIRCLE
  5
1B2
330
57
100
AcDbEntity
  8
1
  6
Continuous
 62
     7
100
AcDbCircle
 10
187.0
 20
23.50000000000001
 30
0.0
 40
2.0
  0
CIRCLE
  5
1B3
330
57
100
AcDbEntity
  8
1
  6
Continuous
 62
     7
100
AcDbCircle
 10
187.0
 20
23.50000000000001
 30
0.0
 40
1.200000000000102
  0
CIRCLE
  5
1B4
330
57
100
AcDbEntity
  8
1
  6
Continuous
 62
     7
100
AcDbCircle
 10
154.5
 20
12.5
 30
0.0
 40
0.3000000000000114
  0
CIRCLE
  5
1B5
330
57
100
AcDbEntity
  8
1
  6
Continuous
 62
     7
100
AcDbCircle
 10
160.5
 20
12.5
 30
0.0
 40
0.3000000000000114
  0
CIRCLE
  5
1B6
330
57
100
AcDbEntity
  8
1
  6
Continuous
 62
     7
100
AcDbCircle
 10
143.5
 20
12.5
 30
0.0
 40
0.3000000000000114
  0
CIRCLE
  5
1B7
330
57
100
AcDbEntity
  8
1
  6
Continuous
 62
     7
100
AcDbCircle
 10
137.5
 20
12.5
 30
0.0
 40
0.3000000000000114
  0
CIRCLE
  5
1B8
330
57
100
AcDbEntity
  8
1
  6
Continuous
 62
     7
100
AcDbCircle
 10
126.5
 20
12.5
 30
0.0
 40
0.2999999999999972
  0
CIRCLE
  5
1B9
330
57
100
AcDbEntity
  8
1
  6
Continuous
 62
     7
100
AcDbCircle
 10
120.5
 20
12.5
 30
0.0
 40
0.2999999999999972
  0
CIRCLE
  5
1BA
330
57
100
AcDbEntity
  8
1
  6
Continuous
 62
     7
100
AcDbCircle
 10
109.5
 20
12.5
 30
0.0
 40
0.2999999999999972
  0
CIRCLE
  5
1BB
330
57
100
AcDbEntity
  8
1
  6
Continuous
 62
     7
100
AcDbCircle
 10
103.5
 20
12.5
 30
0.0
 40
0.2999999999999972
  0
MTEXT
  5
1BD
330
57
100
AcDbEntity
  8
1
 62
   250
100
AcDbMText
 10
25.0
 20
5.0
 30
0.0
 40
3.5
 41
0.0
 71
     4
 72
     1
  1
備考欄の文字列 原点位置=4
  7
CONVERTER_1
 73
     1
 44
0.7202881152461
  0
MTEXT
  5
1BE
330
57
100
AcDbEntity
  8
1
 62
     2
100
AcDbMText
 10
89.5
 20
24.00000000000001
 30
0.0
 40
3.5
 41
0.0
 71
     5
 72
     1
  1
尺度
  7
CONVERTER_1
 73
     1
 44
0.7202881152461
  0
MTEXT
  5
1BF
330
57
100
AcDbEntity
  8
1
 62
     2
100
AcDbMText
 10
135.5
 20
25.00000000000001
 30
0.0
 40
3.0
 41
0.0
 71
     5
 72
     1
  1
製図
  7
CONVERTER_1
 73
     1
 44
0.78031212484994
  0
MTEXT
  5
1C0
330
57
100
AcDbEntity
  8
1
 62
     2
100
AcDbMText
 10
152.5
 20
25.00000000000001
 30
0.0
 40
3.0
 41
0.0
 71
     5
 72
     1
  1
設計
  7
CONVERTER_1
 73
     1
 44
0.78031212484994
  0
MTEXT
  5
1C1
330
57
100
AcDbEntity
  8
1
 62
     2
100
AcDbMText
 10
118.5
 20
25.00000000000001
 30
0.0
 40
3.0
 41
0.0
 71
     5
 72
     1
  1
検図
  7
CONVERTER_1
 73
     1
 44
0.78031212484994
  0
MTEXT
  5
1C2
330
57
100
AcDbEntity
  8
1
 62
     2
100
AcDbMText
 10
175.0
 20
23.50000000000001
 30
0.0
 40
3.5
 41
0.0
 71
     5
 72
     1
  1
第三角法
  7
CONVERTER_1
 73
     1
 44
0.7202881152461
  0
MTEXT
  5
1C3
330
57
100
AcDbEntity
  8
1
 62
     2
100
AcDbMText
 10
101.5
 20
25.00000000000001
 30
0.0
 40
3.0
 41
0.0
 71
     5
 72
     1
  1
承認
  7
CONVERTER_1
 73
     1
 44
0.78031212484994
  0
MTEXT
  5
1C4
330
57
100
AcDbEntity
  8
1
 62
     2
100
AcDbMText
 10
29.0
 20
14.25
 30
0.0
 40
3.5
 41
0.0
 71
     5
 72
     1
  1
品番
  7
CONVERTER_1
 73
     1
 44
0.96038415366146
  0
MTEXT
  5
1C5
330
57
100
AcDbEntity
  8
1
 62
     2
100
AcDbMText
 10
29.0
 20
22.75
 30
0.0
 40
3.5
 41
0.0
 71
     5
 72
     1
  1
品名
  7
CONVERTER_1
 73
     1
 44
0.96038415366146
  0
MTEXT
  5
1C6
330
57
100
AcDbEntity
  8
1
 62
     2
100
AcDbMText
 10
29.0
 20
34.00000000000001
 30
0.0
 40
3.5
 41
0.0
 71
     5
 72
     1
  1
備考
  7
CONVERTER_1
 73
     1
 44
0.60024009603842
  0
MTEXT
  5
1C7
330
57
100
AcDbEntity
  8
1
 62
     2
100
AcDbMText
 10
32.5
 20
282.0000000000003
 30
0.0
 40
5.0
 41
0.0
 71
     5
 72
     1
  1
図番
  7
CONVERTER_1
 73
     1
 44
0.60024009603842
  0
MTEXT
  5
1C8
330
57
100
AcDbEntity
  8
1
 62
     7
100
AcDbMText
 10
171.5
 20
15.0
 30
0.0
 40
2.5
 41
0.0
 71
     5
 72
     1
  1
株式会社
  7
CONVERTER_1
 73
     1
 44
1.32052821128451
  0
MTEXT
  5
1C9
330
57
100
AcDbEntity
  8
1
 62
     7
100
AcDbMText
 10
188.5
 20
15.0
 30
0.0
 40
3.0
 41
0.0
 71
     5
 72
     1
  1
三栄水栓製作所
  7
CONVERTER_1
 73
     1
 44
1.32052821128451
  0
ENDBLK
  5
59
330
57
100
AcDbEntity
  8
0
100
AcDbBlockEnd
  0
BLOCK
  5
5B
330
5A
100
AcDbEntity
  8
0
100
AcDbBlockBegin
  2
62-1A
 70
     0
 71
     0
 10
24.83752120224865
 20
-325.1235230708886
 30
0.0
  3
62-1A
  1

  0
LINE
  5
1CA
330
5A
100
AcDbEntity
  8
1
  6
Continuous
 62
     7
100
AcDbLine
 10
63.82099730384721
 20
229.6594784986312
 30
0.0
 11
63.82099730384721
 21
266.6138438710987
 31
0.0
  0
LINE
  5
1CB
330
5A
100
AcDbEntity
  8
1
  6
Continuous
 62
     7
100
AcDbLine
 10
79.00582922071121
 20
229.6594784986312
 30
0.0
 11
79.00582922071121
 21
266.6138438710987
 31
0.0
  0
LINE
  5
1CC
330
5A
100
AcDbEntity
  8
1
  6
Continuous
 62
     7
100
AcDbLine
 10
63.82099730384735
 20
105.9567349342347
 30
0.0
 11
63.82099730384735
 21
140.8420514725464
 31
0.0
  0
LINE
  5
1CD
330
5A
100
AcDbEntity
  8
1
  6
Continuous
 62
     7
100
AcDbLine
 10
79.00582922071136
 20
105.9567349342347
 30
0.0
 11
79.00582922071136
 21
140.8420514725464
 31
0.0
  0
LINE
  5
1CE
330
5A
100
AcDbEntity
  8
1
  6
Continuous
 62
     7
100
AcDbLine
 10
126.931628385945
 20
100.8420514725464
 30
0.0
 11
133.8126940914932
 21
97.63335783778155
 31
0.0
  0
LINE
  5
1CF
330
5A
100
AcDbEntity
  8
1
  6
PHANTOM
 62
     4
100
AcDbLine
 10
137.5068089252702
 20
123.5205993247674
 30
0.0
 11
126.0863918624636
 21
99.02943589847314
 31
0.0
  0
LINE
  5
1D0
330
5A
100
AcDbEntity
  8
1
  6
PHANTOM
 62
     4
100
AcDbLine
 10
186.4316283859449
 20
140.8420514725464
 30
0.0
 11
164.6960425363697
 21
140.8420514725464
 31
0.0
  0
LINE
  5
1D1
330
5A
100
AcDbEntity
  8
1
  6
Continuous
 62
     7
100
AcDbLine
 10
121.8848881770589
 20
108.7122746754812
 30
0.0
 11
130.3469774076807
 21
126.8592835925189
 31
0.0
  0
LINE
  5
1D2
330
5A
100
AcDbEntity
  8
1
  6
Continuous
 62
     7
100
AcDbLine
 10
120.0505626803968
 20
104.0507451073114
 30
0.0
 11
126.931628385945
 21
100.8420514725464
 31
0.0
  0
LINE
  5
1D3
330
5A
100
AcDbEntity
  8
1
  6
Continuous
 62
     7
100
AcDbLine
 10
136.204551212238
 20
102.0349061399783
 30
0.0
 11
144.6666404428597
 21
120.1819150570159
 31
0.0
  0
LINE
  5
1D4
330
5A
100
AcDbEntity
  8
1
  6
Continuous
 62
     7
100
AcDbLine
 10
167.9316283859452
 20
132.8420514725464
 30
0.0
 11
162.5960425363693
 21
132.8420514725464
 31
0.0
  0
LINE
  5
1D5
330
5A
100
AcDbEntity
  8
1
  6
Continuous
 62
     7
100
AcDbLine
 10
167.9316283859452
 20
148.7420514725465
 30
0.0
 11
164.6960425363697
 21
148.7420514725465
 31
0.0
  0
LINE
  5
1D6
330
5A
100
AcDbEntity
  8
1
  6
Continuous
 62
     7
100
AcDbLine
 10
121.8848881770589
 20
108.7122746754812
 30
0.0
 11
136.204551212238
 21
102.0349061399783
 31
0.0
  0
ARC
  5
1D7
330
5A
100
AcDbEntity
  8
1
  6
Continuous
 62
     7
100
AcDbCircle
 10
71.41341326227934
 20
140.8420514725464
 30
0.0
 40
7.592415958432028
100
AcDbArc
 50
0.0
 51
180.0
  0
ARC
  5
1D8
330
5A
100
AcDbEntity
  8
1
  6
Continuous
 62
     7
100
AcDbCircle
 10
70.96013946453792
 20
227.6373085039321
 30
0.0
 40
7.746784951759217
100
AcDbArc
 50
157.1555055611239
 51
-114.5097826324227
  0
ARC
  5
1D9
330
5A
100
AcDbEntity
  8
1
  6
Continuous
 62
     7
100
AcDbCircle
 10
71.86668706002041
 20
227.6373085039321
 30
0.0
 40
7.746784951759315
100
AcDbArc
 50
-65.4902173675773
 51
22.84449443887585
  0
ARC
  5
1DA
330
5A
100
AcDbEntity
  8
1
  6
Continuous
 62
     7
100
AcDbCircle
 10
70.28801583160004
 20
103.3993932033906
 30
0.0
 40
7.074602569320656
100
AcDbArc
 50
156.0807198663528
 51
-151.6276735836262
  0
ARC
  5
1DB
330
5A
100
AcDbEntity
  8
1
  6
Continuous
 62
     7
100
AcDbCircle
 10
72.53881069295863
 20
103.3993932033906
 30
0.0
 40
7.074602569320717
100
AcDbArc
 50
-28.37232641637367
 51
23.91928013364709
  0
ARC
  5
1DC
330
5A
100
AcDbEntity
  8
1
  6
Continuous
 62
     7
100
AcDbCircle
 10
164.6960425363697
 20
110.8420514725464
 30
0.0
 40
37.90000000000011
100
AcDbArc
 50
90.0
 51
155.0
  0
ARC
  5
1DD
330
5A
100
AcDbEntity
  8
1
  6
Continuous
 62
     7
100
AcDbCircle
 10
128.8600992390052
 20
103.4937626299345
 30
0.0
 40
8.82712659122795
100
AcDbArc
 50
155.0000000000004
 51
176.3822927462786
  0
ARC
  5
1DE
330
5A
100
AcDbEntity
  8
1
  6
Continuous
 62
     7
100
AcDbCircle
 10
129.3409940152592
 20
102.9936732332598
 30
0.0
 40
6.930198535060723
100
AcDbArc
 50
-22.93266335274994
 51
-7.95216310221148
  0
ARC
  5
1DF
330
5A
100
AcDbEntity
  8
1
  6
Continuous
 62
     7
100
AcDbCircle
 10
127.7233598128299
 20
104.0238329296867
 30
0.0
 40
8.827126591227984
100
AcDbArc
 50
-46.382292746279
 51
-24.99999999999987
  0
ARC
  5
1E0
330
5A
100
AcDbEntity
  8
1
  6
Continuous
 62
     7
100
AcDbCircle
 10
127.0311559057055
 20
104.070768432843
 30
0.0
 40
6.930198535060802
100
AcDbArc
 50
137.9521631022132
 51
152.9326633527505
  0
ARC
  5
1E1
330
5A
100
AcDbEntity
  8
1
  6
Continuous
 62
     7
100
AcDbCircle
 10
164.6960425363697
 20
110.8420514725464
 30
0.0
 40
22.10000000000002
100
AcDbArc
 50
95.45262198781356
 51
155.0
  0
SPLINE
  5
1E2
330
5A
100
AcDbEntity
  8
1
  6
Continuous
 62
     7
100
AcDbSpline
210
0.0
220
0.0
230
1.0
 70
     8
 71
     3
 72
    33
 73
    29
 74
    27
 42
0.0000000001
 43
0.0000000001
 44
0.00000001
 40
0.0
 40
0.0
 40
0.0
 40
0.0
 40
0.2870784948991463
 40
0.569926116875386
 40
0.8888087493958448
 40
1.212179214707558
 40
1.591137267537726
 40
1.968155545421702
 40
2.411410443022623
 40
2.855565248948317
 40
3.927988818560225
 40
5.002236410172309
 40
6.257314809218131
 40
7.511290364001012
 40
8.171063153734883
 40
8.830825261486943
 40
10.13328148371818
 40
11.43667448472446
 40
12.61401951142939
 40
13.78983873361418
 40
14.298149457885
 40
14.80630125271847
 40
15.48777325041789
 40
16.17206481563295
 40
16.49538737868973
 40
16.81337675368976
 40
17.22934562109179
 40
17.65606986712113
 40
17.65606986712113
 40
17.65606986712113
 40
17.65606986712113
 10
63.82099730384735
 20
105.9567349342347
 30
0.0
 10
63.83325056683183
 20
106.0516231242965
 30
0.0
 10
63.85757650804958
 20
106.2400010720012
 30
0.0
 10
63.92884203363963
 20
106.5294644174318
 30
0.0
 10
64.07531446357234
 20
106.8042374134182
 30
0.0
 10
64.28598539018039
 20
107.0726324896882
 30
0.0
 10
64.5402427263225
 20
107.3283956191103
 30
0.0
 10
64.8521171728614
 20
107.5794863366228
 30
0.0
 10
65.20500133352002
 20
107.8111283254293
 30
0.0
 10
65.77930243943827
 20
108.1234915019835
 30
0.0
 10
66.580093470332
 20
108.4545034194612
 30
0.0
 10
67.67194987056891
 20
108.7659138083334
 30
0.0
 10
68.84592174514306
 20
108.9940258881417
 30
0.0
 10
69.89692597408978
 20
109.109851745729
 30
0.0
 10
70.75361057861588
 20
109.1572826125379
 30
0.0
 10
71.62762505507807
 20
109.1733560235917
 30
0.0
 10
72.71653501734494
 20
109.1346736751402
 30
0.0
 10
73.97099877129693
 20
108.9939859394395
 30
0.0
 10
75.16946891733234
 20
108.7652180375219
 30
0.0
 10
76.08731311682408
 20
108.4984656602318
 30
0.0
 10
76.76994901834131
 20
108.2366750602528
 30
0.0
 10
77.28493383492132
 20
108.0009497573969
 30
0.0
 10
77.82891037330654
 20
107.6909925309847
 30
0.0
 10
78.27557765467127
 20
107.3437505650991
 30
0.0
 10
78.58645608283703
 20
107.0289332245836
 30
0.0
 10
78.79434778263622
 20
106.7407380565681
 30
0.0
 10
78.9258294215564
 20
106.3720719592431
 30
0.0
 10
78.97893668318423
 20
106.0963536163993
 30
0.0
 10
79.00582922071136
 20
105.9567349342347
 30
0.0
 11
63.82099730384735
 21
105.9567349342347
 31
0.0
 11
63.86317953093337
 21
106.2406974704109
 31
0.0
 11
63.93634316232184
 21
106.5139187366031
 31
0.0
 11
64.08219787876591
 21
106.7974897771101
 31
0.0
 11
64.27887601220365
 21
107.0541727910852
 31
0.0
 11
64.54535306766107
 21
107.3236151498924
 31
0.0
 11
64.83818816617884
 21
107.5610817516171
 31
0.0
 11
65.20783867962052
 21
107.8056904230895
 31
0.0
 11
65.59728520747464
 21
108.0192434459416
 31
0.0
 11
66.58589549822901
 21
108.4348658775712
 31
0.0
 11
67.61720528306336
 21
108.7355451349025
 31
0.0
 11
68.84882374563834
 21
108.9770772246874
 31
0.0
 11
70.09500406700823
 21
109.1166813027921
 31
0.0
 11
70.75376402633046
 21
109.153225113034
 31
0.0
 11
71.41341326227934
 21
109.1654285689996
 31
0.0
 11
72.71501245552929
 21
109.1181871575058
 31
0.0
 11
74.01017245657033
 21
108.971920665186
 31
0.0
 11
75.16584560962565
 21
108.7470632098637
 31
0.0
 11
76.29372416794575
 21
108.4147368628176
 31
0.0
 11
76.7679444283437
 21
108.2317206421244
 31
0.0
 11
77.22954131708406
 21
108.0192434459416
 31
0.0
 11
77.81930354568009
 21
107.6777985786938
 31
0.0
 11
78.35712691240347
 21
107.2547135134518
 31
0.0
 11
78.58153056813515
 21
107.0219465074654
 31
0.0
 11
78.76359922804066
 21
106.7612393044711
 31
0.0
 11
78.91429143996741
 21
106.3735255493471
 31
0.0
 11
79.00582922071136
 21
105.9567349342347
 31
0.0
  0
SPLINE
  5
1E3
330
5A
100
AcDbEntity
  8
1
  6
Continuous
 62
     7
100
AcDbSpline
210
0.0
220
0.0
230
1.0
 70
     8
 71
     3
 72
    43
 73
    39
 74
    37
 42
0.0000000001
 43
0.0000000001
 44
0.00000001
 40
0.0
 40
0.0
 40
0.0
 40
0.0
 40
0.6015183898940997
 40
1.200991408181795
 40
1.805061050779268
 40
2.410777400894479
 40
3.023012726207449
 40
3.634542897815871
 40
4.255841361967272
 40
4.87742065686265
 40
5.509535113620714
 40
6.141577296127725
 40
6.784111052732418
 40
7.42668546850112
 40
8.078310600156044
 40
8.729937222926967
 40
9.388212360808893
 40
10.04649582188142
 40
10.70828760339148
 40
11.37008054321582
 40
12.0318734830401
 40
12.69366526455011
 40
13.35194872562264
 40
14.01022386350456
 40
14.66185048627555
 40
15.31347561793051
 40
15.95605003369917
 40
16.59858379030381
 40
17.23062597281083
 40
17.86274042956897
 40
18.48431972446436
 40
19.10561818861575
 40
19.71714836022418
 40
20.3293836855371
 40
20.93510003565228
 40
21.53916967824978
 40
22.13864269653751
 40
22.74016108643158
 40
22.74016108643158
 40
22.74016108643158
 40
22.74016108643158
 10
63.82099730384721
 20
228.6594784986312
 30
0.0
 10
63.83218608581463
 20
228.4592889405654
 30
0.0
 10
63.85452560400169
 20
228.0595905385149
 30
0.0
 10
63.92451388062959
 20
227.4609989790631
 30
0.0
 10
64.06742210418989
 20
226.873562147443
 30
0.0
 10
64.27145627275846
 20
226.3006481335318
 30
0.0
 10
64.5258211728665
 20
225.7455359803569
 30
0.0
 10
64.83184125006753
 20
225.211048995543
 30
0.0
 10
65.18811582374772
 20
224.7048305845128
 30
0.0
 10
65.59291576870601
 20
224.2275728683035
 30
0.0
 10
66.04068924945076
 20
223.7852749221444
 30
0.0
 10
66.53038384784141
 20
223.3789166432053
 30
0.0
 10
67.05587587201556
 20
223.0139040361514
 30
0.0
 10
67.61573971937199
 20
222.6909834547878
 30
0.0
 10
68.2031276679009
 20
222.4141693909221
 30
0.0
 10
68.81599791420192
 20
222.1843189321101
 30
0.0
 10
69.44754510422497
 20
222.0040455321173
 30
0.0
 10
70.09477978350718
 20
221.8741279010365
 30
0.0
 10
70.75144897994413
 20
221.7958604723565
 30
0.0
 10
71.41341326227919
 20
221.7696889458119
 30
0.0
 10
72.07537754461428
 20
221.7958604723565
 30
0.0
 10
72.73204674105116
 20
221.8741279010365
 30
0.0
 10
73.37928142033336
 20
222.0040455321172
 30
0.0
 10
74.01082861035644
 20
222.1843189321101
 30
0.0
 10
74.62369885665748
 20
222.4141693909221
 30
0.0
 10
75.21108680518645
 20
222.6909834547879
 30
0.0
 10
75.77095065254277
 20
223.0139040361514
 30
0.0
 10
76.29644267671696
 20
223.3789166432053
 30
0.0
 10
76.78613727510762
 20
223.7852749221443
 30
0.0
 10
77.23391075585244
 20
224.2275728683035
 30
0.0
 10
77.63871070081072
 20
224.7048305845129
 30
0.0
 10
77.99498527449094
 20
225.211048995543
 30
0.0
 10
78.3010053516919
 20
225.745535980357
 30
0.0
 10
78.55537025179989
 20
226.3006481335318
 30
0.0
 10
78.75940442036847
 20
226.8735621474429
 30
0.0
 10
78.90231264392872
 20
227.4609989790632
 30
0.0
 10
78.97230092055668
 20
228.0595905385148
 30
0.0
 10
78.99464043874379
 20
228.4592889405654
 30
0.0
 10
79.00582922071121
 20
228.6594784986312
 30
0.0
 11
63.82099730384721
 21
228.6594784986312
 31
0.0
 11
63.8606410350302
 21
228.0592679122878
 31
0.0
 11
63.93634316232172
 21
227.4645939784564
 31
0.0
 11
64.07724415813702
 21
226.8771869283744
 31
0.0
 11
64.27887601220343
 21
226.3060154197864
 31
0.0
 11
64.53413469846394
 21
225.7495308318151
 31
0.0
 11
64.83818816617873
 21
225.2189456458571
 31
0.0
 11
65.19544467964737
 21
224.7106351451382
 31
0.0
 11
65.59728520747453
 21
224.2364147216659
 31
0.0
 11
66.04683091602652
 21
223.7920304933623
 31
0.0
 11
66.53310235661272
 21
223.3882763521594
 31
0.0
 11
67.06067580275568
 21
223.021512276354
 31
0.0
 11
67.61720528306321
 21
222.7003007925165
 31
0.0
 11
68.20657260906287
 21
222.4223413220027
 31
0.0
 11
68.81665406798811
 21
222.1933918319847
 31
0.0
 11
69.44960968283465
 21
222.0125788158943
 31
0.0
 11
70.09500406700812
 21
221.882951642821
 31
0.0
 11
70.75213730483262
 21
221.8045662499181
 31
0.0
 11
71.41341326227922
 21
221.7784127930831
 31
0.0
 11
72.07468921972577
 21
221.804566249918
 31
0.0
 11
72.73182245755021
 21
221.882951642821
 31
0.0
 11
73.37721684172368
 21
222.0125788158943
 31
0.0
 11
74.01017245657022
 21
222.1933918319847
 31
0.0
 11
74.62025391549553
 21
222.4223413220027
 31
0.0
 11
75.20962124149523
 21
222.7003007925165
 31
0.0
 11
75.76615072180269
 21
223.0215122763541
 31
0.0
 11
76.29372416794561
 21
223.3882763521594
 31
0.0
 11
76.77999560853185
 21
223.7920304933622
 31
0.0
 11
77.22954131708391
 21
224.2364147216659
 31
0.0
 11
77.63138184491109
 21
224.7106351451382
 31
0.0
 11
77.98863835837972
 21
225.2189456458571
 31
0.0
 11
78.29269182609446
 21
225.7495308318151
 31
0.0
 11
78.54795051235493
 21
226.3060154197864
 31
0.0
 11
78.74958236642132
 21
226.8771869283743
 31
0.0
 11
78.89048336223661
 21
227.4645939784564
 31
0.0
 11
78.96618548952817
 21
228.0592679122878
 31
0.0
 11
79.00582922071121
 21
228.6594784986312
 31
0.0
  0
SPLINE
  5
1E4
330
5A
100
AcDbEntity
  8
1
  6
Continuous
 62
     7
100
AcDbSpline
210
0.0
220
0.0
230
1.0
 70
     8
 71
     3
 72
    19
 73
    15
 74
    13
 42
0.0000000001
 43
0.0000000001
 44
0.00000001
 40
0.0
 40
0.0
 40
0.0
 40
0.0
 40
0.5794429203715465
 40
1.157780543346762
 40
1.815537313295105
 40
2.474543508436118
 40
3.136675593493922
 40
3.798090704213912
 40
4.459505814933957
 40
5.12163789999182
 40
5.780644095132848
 40
6.438400865081177
 40
7.016738488056372
 40
7.596181408427942
 40
7.596181408427942
 40
7.596181408427942
 40
7.596181408427942
 10
75.0804299720599
 20
220.5885828329955
 30
0.0
 10
74.90412302899821
 20
220.5097074078462
 30
0.0
 10
74.55184545141927
 20
220.3521070137859
 30
0.0
 10
73.98839561718893
 20
220.1298262763226
 30
0.0
 10
73.38014751042647
 20
219.9552860283781
 30
0.0
 10
72.73204354936982
 20
219.8291464945571
 30
0.0
 10
72.07523370380558
 20
219.7508490288895
 30
0.0
 10
71.41341326227921
 20
219.7237476284346
 30
0.0
 10
70.75159282075281
 20
219.7508490288895
 30
0.0
 10
70.09478297518851
 20
219.8291464945569
 30
0.0
 10
69.44667901413186
 20
219.9552860283783
 30
0.0
 10
68.83843090736943
 20
220.1298262763225
 30
0.0
 10
68.27498107313903
 20
220.3521070137858
 30
0.0
 10
67.92270349556009
 20
220.5097074078462
 30
0.0
 10
67.74639655249843
 20
220.5885828329955
 30
0.0
 11
75.0804299720599
 21
220.5885828329955
 31
0.0
 11
74.54974622427613
 21
220.3559267395725
 31
0.0
 11
74.01017245657022
 21
220.147757204452
 31
0.0
 11
73.37839648558762
 21
219.9647187087691
 31
0.0
 11
72.73182245755021
 21
219.8373170152885
 31
0.0
 11
72.07429319698065
 21
219.7593800564189
 31
0.0
 11
71.41341326227922
 21
219.7327781655505
 31
0.0
 11
70.75253332757774
 21
219.7593800564189
 31
0.0
 11
70.09500406700812
 21
219.8373170152885
 31
0.0
 11
69.4484300389707
 21
219.9647187087691
 31
0.0
 11
68.81665406798811
 21
220.147757204452
 31
0.0
 11
68.27708030028219
 21
220.3559267395724
 31
0.0
 11
67.74639655249843
 21
220.5885828329955
 31
0.0
  0
SPLINE
  5
1E5
330
5A
100
AcDbEntity
  8
1
  6
Continuous
 62
     7
100
AcDbSpline
210
0.0
220
0.0
230
1.0
 70
    11
 71
     3
 72
    79
 73
    75
 74
    73
 42
0.0000000001
 43
0.0000000001
 44
0.00000001
 40
0.0
 40
0.0
 40
0.0
 40
0.0
 40
0.2855726131799169
 40
0.5717260118123583
 40
0.8923749907058265
 40
1.213437201458344
 40
1.591463199664124
 40
1.969508219403899
 40
2.413184302830426
 40
2.856910862097335
 40
3.365133720165039
 40
3.873369851311525
 40
4.438831338801077
 40
5.004307078501421
 40
5.61570613390152
 40
6.227112310987405
 40
6.870493294607634
 40
7.513878599484266
 40
8.173647025697141
 40
8.833416720880916
 40
9.493186416064646
 40
10.15295484227748
 40
10.79634014715415
 40
11.43972113077444
 40
12.05112730786034
 40
12.66252636326044
 40
13.22800210296078
 40
13.79346359045033
 40
14.30169972159683
 40
14.80992257966452
 40
15.25364913893142
 40
15.69732522235796
 40
16.07537024209776
 40
16.45339624030352
 40
16.77445845105598
 40
17.09510742994944
 40
17.38126082858191
 40
17.66683344176183
 40
17.95240605494178
 40
18.23855945357422
 40
18.55920843246774
 40
18.88027064322023
 40
19.25829664142601
 40
19.63634166116579
 40
20.08001774459231
 40
20.52374430385921
 40
21.03196716192689
 40
21.5402032930734
 40
22.10566478056295
 40
22.67114052026331
 40
23.28253957566341
 40
23.8939457527493
 40
24.53732673636958
 40
25.18071204124626
 40
25.84048046745907
 40
26.50025016264282
 40
27.16001985782659
 40
27.81978828403947
 40
28.4631735889161
 40
29.10655457253633
 40
29.71796074962219
 40
30.3293598050223
 40
30.89483554472264
 40
31.46029703221221
 40
31.9685331633587
 40
32.4767560214264
 40
32.9204825806933
 40
33.36415866411982
 40
33.7422036838596
 40
34.12022968206538
 40
34.44129189281791
 40
34.76194087171145
 40
35.04809427034387
 40
35.33366688352381
 40
35.33366688352381
 40
35.33366688352381
 40
35.33366688352381
 10
63.82099730384735
 20
100.8420514725464
 30
0.0
 10
63.82714332034215
 20
100.7467309588884
 30
0.0
 10
63.83944785283907
 20
100.5558960727599
 30
0.0
 10
63.93285946977507
 20
100.2705502820126
 30
0.0
 10
64.07876835070664
 20
99.99645822624825
 30
0.0
 10
64.28561379607348
 20
99.72520240802153
 30
0.0
 10
64.53928895284578
 20
99.46978761203692
 30
0.0
 10
64.85213615602493
 20
99.21963803307001
 30
0.0
 10
65.20515093973262
 20
98.98767542636873
 30
0.0
 10
65.61404628955067
 20
98.76497348159937
 30
0.0
 10
66.05693123555665
 20
98.56216930535378
 30
0.0
 10
66.54946290473662
 20
98.37307325590784
 30
0.0
 10
67.06974490764578
 20
98.20531315655332
 30
0.0
 10
67.63102364010852
 20
98.05526610034613
 30
0.0
 10
68.21352315638534
 20
97.92772299085056
 30
0.0
 10
68.82655216227732
 20
97.82108343538124
 30
0.0
 10
69.45394579662028
 20
97.73781670019552
 30
0.0
 10
70.10014976393055
 20
97.67764739205798
 30
0.0
 10
70.75360572391089
 20
97.64138870188961
 30
0.0
 10
71.41341326228118
 20
97.62934240186594
 30
0.0
 10
72.07322080064027
 20
97.64138870188964
 30
0.0
 10
72.72667676065395
 20
97.67764739205796
 30
0.0
 10
73.37288072784482
 20
97.73781670019552
 30
0.0
 10
74.00027436262326
 20
97.82108343538127
 30
0.0
 10
74.61330336696764
 20
97.92772299085051
 30
0.0
 10
75.19580288881458
 20
98.0552661003461
 30
0.0
 10
75.75708160197881
 20
98.20531315655335
 30
0.0
 10
76.27736367331241
 20
98.37307325590788
 30
0.0
 10
76.76989511169545
 20
98.56216930535375
 30
0.0
 10
77.21278086348298
 20
98.76497348159938
 30
0.0
 10
77.62167356770826
 20
98.98767542636873
 30
0.0
 10
77.97469745757402
 20
99.21963803307001
 30
0.0
 10
78.28751542548221
 20
99.46978761203687
 30
0.0
 10
78.54129053323106
 20
99.72520240802153
 30
0.0
 10
78.74781609945217
 20
99.99645822624828
 30
0.0
 10
78.89483295106591
 20
100.2705502820126
 30
0.0
 10
78.98453284131651
 20
100.5558960727599
 30
0.0
 10
79.01646659349029
 20
100.8420514725464
 30
0.0
 10
78.98453284131649
 20
101.1282068723329
 30
0.0
 10
78.89483295106591
 20
101.4135526630802
 30
0.0
 10
78.74781609945219
 20
101.6876447188446
 30
0.0
 10
78.54129053323106
 20
101.9589005370713
 30
0.0
 10
78.28751542548221
 20
102.214315333056
 30
0.0
 10
77.97469745757398
 20
102.4644649120229
 30
0.0
 10
77.62167356770831
 20
102.6964275187242
 30
0.0
 10
77.21278086348298
 20
102.9191294634935
 30
0.0
 10
76.76989511169549
 20
103.1219336397391
 30
0.0
 10
76.27736367331238
 20
103.311029689185
 30
0.0
 10
75.75708160197883
 20
103.4787897885396
 30
0.0
 10
75.1958028888146
 20
103.6288368447468
 30
0.0
 10
74.61330336696764
 20
103.7563799542424
 30
0.0
 10
74.00027436262326
 20
103.8630195097116
 30
0.0
 10
73.3728807278448
 20
103.9462862448973
 30
0.0
 10
72.72667676065396
 20
104.0064555530349
 30
0.0
 10
72.07322080064024
 20
104.0427142432032
 30
0.0
 10
71.4134132622812
 20
104.0547605432269
 30
0.0
 10
70.75360572391091
 20
104.0427142432033
 30
0.0
 10
70.10014976393057
 20
104.0064555530349
 30
0.0
 10
69.45394579662028
 20
103.9462862448973
 30
0.0
 10
68.82655216227735
 20
103.8630195097116
 30
0.0
 10
68.21352315638534
 20
103.7563799542424
 30
0.0
 10
67.63102364010852
 20
103.6288368447468
 30
0.0
 10
67.06974490764578
 20
103.4787897885396
 30
0.0
 10
66.54946290473664
 20
103.311029689185
 30
0.0
 10
66.05693123555666
 20
103.1219336397391
 30
0.0
 10
65.61404628955066
 20
102.9191294634935
 30
0.0
 10
65.20515093973262
 20
102.6964275187243
 30
0.0
 10
64.8521361560249
 20
102.4644649120229
 30
0.0
 10
64.53928895284577
 20
102.214315333056
 30
0.0
 10
64.28561379607346
 20
101.9589005370714
 30
0.0
 10
64.07876835070663
 20
101.6876447188446
 30
0.0
 10
63.9328594697751
 20
101.4135526630803
 30
0.0
 10
63.83944785283905
 20
101.1282068723329
 30
0.0
 10
63.82714332034215
 20
100.9373719862044
 30
0.0
 10
63.82099730384735
 20
100.8420514725464
 30
0.0
 11
63.82099730384735
 21
100.8420514725464
 31
0.0
 11
63.85129680245235
 21
100.5580908101604
 31
0.0
 11
63.93634316232184
 21
100.284867670178
 31
0.0
 11
64.08600778729254
 21
100.0012900481804
 31
0.0
 11
64.27887601220365
 21
99.744613615696
 31
0.0
 11
64.54405719823508
 21
99.47520204598445
 31
0.0
 11
64.83818816617884
 21
99.23770465516401
 31
0.0
 11
65.20824667965083
 21
98.99294934140841
 31
0.0
 11
65.59728520747464
 21
98.77954296083948
 31
0.0
 11
66.05897104039509
 21
98.5670890478535
 31
0.0
 11
66.53310235661294
 21
98.38404954396356
 31
0.0
 11
67.07107947484514
 21
98.20990215210114
 31
0.0
 11
67.61720528306336
 21
98.06324127187861
 31
0.0
 11
68.21436499167574
 21
97.93205786075468
 31
0.0
 11
68.81665406798835
 21
97.82686574159516
 31
0.0
 11
69.45441130065723
 21
97.74198463496552
 31
0.0
 11
70.09500406700823
 21
97.68210510398905
 31
0.0
 11
70.75375483868223
 21
97.64547455599515
 31
0.0
 11
71.41341326227934
 21
97.63335783778155
 31
0.0
 11
72.0730716858764
 21
97.64547455599515
 31
0.0
 11
72.73182245755035
 21
97.68210510398905
 31
0.0
 11
73.3724152239014
 21
97.74198463496552
 31
0.0
 11
74.01017245657033
 21
97.82686574159516
 31
0.0
 11
74.61246153288296
 21
97.93205786075468
 31
0.0
 11
75.20962124149534
 21
98.06324127187861
 31
0.0
 11
75.75574704971356
 21
98.20990215210114
 31
0.0
 11
76.29372416794575
 21
98.38404954396356
 31
0.0
 11
76.76785548416362
 21
98.5670890478535
 31
0.0
 11
77.22954131708406
 21
98.77954296083948
 31
0.0
 11
77.61857984490786
 21
98.99294934140841
 31
0.0
 11
77.98863835837986
 21
99.23770465516401
 31
0.0
 11
78.28276932632366
 21
99.47520204598443
 31
0.0
 11
78.54795051235504
 21
99.744613615696
 31
0.0
 11
78.74081873726608
 21
100.0012900481804
 31
0.0
 11
78.89048336223675
 21
100.284867670178
 31
0.0
 11
78.97552972210633
 21
100.5580908101604
 31
0.0
 11
79.00582922071136
 21
100.8420514725464
 31
0.0
 11
78.97552972210632
 21
101.1260121349324
 31
0.0
 11
78.89048336223675
 21
101.3992352749148
 31
0.0
 11
78.7408187372661
 21
101.6828128969125
 31
0.0
 11
78.54795051235504
 21
101.9394893293969
 31
0.0
 11
78.28276932632363
 21
102.2089008991085
 31
0.0
 11
77.98863835837986
 21
102.4463982899289
 31
0.0
 11
77.61857984490789
 21
102.6911536036845
 31
0.0
 11
77.22954131708406
 21
102.9045599842534
 31
0.0
 11
76.76785548416362
 21
103.1170138972394
 31
0.0
 11
76.29372416794575
 21
103.3000534011293
 31
0.0
 11
75.75574704971356
 21
103.4742007929917
 31
0.0
 11
75.20962124149534
 21
103.6208616732143
 31
0.0
 11
74.61246153288296
 21
103.7520450843382
 31
0.0
 11
74.01017245657033
 21
103.8572372034977
 31
0.0
 11
73.3724152239014
 21
103.9421183101273
 31
0.0
 11
72.73182245755035
 21
104.0019978411038
 31
0.0
 11
72.07307168587641
 21
104.0386283890977
 31
0.0
 11
71.41341326227934
 21
104.0507451073113
 31
0.0
 11
70.75375483868223
 21
104.0386283890977
 31
0.0
 11
70.09500406700823
 21
104.0019978411038
 31
0.0
 11
69.45441130065723
 21
103.9421183101273
 31
0.0
 11
68.81665406798835
 21
103.8572372034977
 31
0.0
 11
68.21436499167575
 21
103.7520450843382
 31
0.0
 11
67.61720528306336
 21
103.6208616732143
 31
0.0
 11
67.07107947484515
 21
103.4742007929918
 31
0.0
 11
66.53310235661294
 21
103.3000534011293
 31
0.0
 11
66.05897104039509
 21
103.1170138972394
 31
0.0
 11
65.59728520747464
 21
102.9045599842534
 31
0.0
 11
65.20824667965081
 21
102.6911536036845
 31
0.0
 11
64.83818816617884
 21
102.4463982899289
 31
0.0
 11
64.54405719823507
 21
102.2089008991085
 31
0.0
 11
64.27887601220365
 21
101.9394893293969
 31
0.0
 11
64.08600778729254
 21
101.6828128969125
 31
0.0
 11
63.93634316232184
 21
101.3992352749148
 31
0.0
 11
63.85129680245234
 21
101.1260121349324
 31
0.0
 11
63.82099730384735
 21
100.8420514725464
 31
0.0
  0
SPLINE
  5
1E6
330
5A
100
AcDbEntity
  8
1
  6
Continuous
 62
     7
100
AcDbSpline
210
0.0
220
0.0
230
1.0
 70
     8
 71
     3
 72
    41
 73
    37
 74
    35
 42
0.0000000001
 43
0.0000000001
 44
0.00000001
 40
0.0
 40
0.0
 40
0.0
 40
0.0
 40
0.1003162097929007
 40
0.200665792829528
 40
0.467838388680859
 40
0.7355150092585184
 40
1.002789116821369
 40
1.270122582998178
 40
1.569879288202414
 40
1.870218957558253
 40
2.223772350067982
 40
2.577257310292329
 40
2.99212683041193
 40
3.407093623820738
 40
4.409622130927845
 40
5.414554543991285
 40
6.588375494643075
 40
7.76087890945076
 40
8.377795116895058
 40
8.994833520094533
 40
10.21331107897282
 40
11.43168443741319
 40
12.53102574201554
 40
13.63217353770715
 40
14.52401183544821
 40
15.41165469332274
 40
15.76513732679977
 40
16.1186636827244
 40
16.41899054875735
 40
16.71876826847945
 40
16.98610849076482
 40
17.25337398640991
 40
17.52104813026327
 40
17.78822348338634
 40
17.88857329977659
 40
17.98888927411295
 40
17.98888927411295
 40
17.98888927411295
 40
17.98888927411295
 10
64.50969141129824
 20
102.1776120894782
 30
0.0
 10
64.49419999642041
 20
102.1479766545764
 30
0.0
 10
64.4632120129736
 20
102.0886959256426
 30
0.0
 10
64.39624964440969
 20
101.9477904322423
 30
0.0
 10
64.33201494642792
 20
101.7443999288757
 30
0.0
 10
64.30371755888504
 20
101.4765734930381
 30
0.0
 10
64.3335760555679
 20
101.2088600321684
 30
0.0
 10
64.4171828492474
 20
100.9419630195092
 30
0.0
 10
64.55465408143562
 20
100.6857259506213
 30
0.0
 10
64.74782091494959
 20
100.4320759446355
 30
0.0
 10
64.98512252335181
 20
100.1931643411134
 30
0.0
 10
65.27765559341589
 20
99.95924981490602
 30
0.0
 10
65.60790837743653
 20
99.74253743102068
 30
0.0
 10
66.14463816959871
 20
99.45007620963402
 30
0.0
 10
66.89341170356686
 20
99.1405862898765
 30
0.0
 10
67.91454598442603
 20
98.84953013553283
 30
0.0
 10
69.01248939641525
 20
98.63617823724644
 30
0.0
 10
69.99530528576304
 20
98.52784444323365
 30
0.0
 10
70.79638126370448
 20
98.48350015210147
 30
0.0
 10
71.61387402720946
 20
98.46846988165409
 30
0.0
 10
72.63219083489845
 20
98.5045414417792
 30
0.0
 10
73.80475120032384
 20
98.63599101936494
 30
0.0
 10
74.92525043217718
 20
98.85072533165017
 30
0.0
 10
75.91677447189903
 20
99.13903773469471
 30
0.0
 10
76.80878076591918
 20
99.49913227231414
 30
0.0
 10
77.42587687247986
 20
99.86084792689461
 30
0.0
 10
77.84145662758627
 20
100.1934178942611
 30
0.0
 10
78.07904488336308
 20
100.4320416121122
 30
0.0
 10
78.27222842117072
 20
100.6856874144736
 30
0.0
 10
78.40963267880076
 20
100.941964177768
 30
0.0
 10
78.49323878307013
 20
101.2088641620309
 30
0.0
 10
78.52311130338569
 20
101.47657528625
 30
0.0
 10
78.49481322208065
 20
101.744399580062
 30
0.0
 10
78.43057718161703
 20
101.9477896446285
 30
0.0
 10
78.36361441895272
 20
102.0886959668959
 30
0.0
 10
78.33262647313073
 20
102.1479767144941
 30
0.0
 10
78.31713511326035
 20
102.1776120894783
 30
0.0
 11
64.50969141129824
 21
102.1776120894782
 31
0.0
 11
64.46378357957323
 21
102.0884167256215
 31
0.0
 11
64.42127821589264
 21
101.9975138495724
 31
0.0
 11
64.34085391638297
 21
101.7427333008205
 31
0.0
 11
64.31341326227934
 21
101.4764669234721
 31
0.0
 11
64.34199035284695
 21
101.2107249462306
 31
0.0
 11
64.42127821589264
 21
100.9554199973719
 31
0.0
 11
64.56116104744885
 21
100.6903032763777
 31
0.0
 11
64.74159565469935
 21
100.4502048184586
 31
0.0
 11
64.98959074580586
 21
100.1982158581008
 31
0.0
 11
65.26463289540973
 21
99.97617209429264
 31
0.0
 11
65.61074904029734
 21
99.74743571115167
 31
0.0
 11
65.97449771613455
 21
99.5477250693254
 31
0.0
 11
66.89861732163173
 21
99.15905250495001
 31
0.0
 11
67.86341326227935
 21
98.87788005300035
 31
0.0
 11
69.01529813542335
 21
98.65201092449647
 31
0.0
 11
70.18051120084415
 21
98.52146296431194
 31
0.0
 11
70.79648051653871
 21
98.4872955949336
 31
0.0
 11
71.41341326227934
 21
98.47587726511313
 31
0.0
 11
72.63109189666494
 21
98.51999421027935
 31
0.0
 11
73.84175627989166
 21
98.65683496350567
 31
0.0
 11
74.92075874610958
 21
98.86732244983307
 31
0.0
 11
75.97720529105374
 21
99.17788188960596
 31
0.0
 11
76.80098725128906
 21
99.51958180372435
 31
0.0
 11
77.56219362914885
 21
99.97617209429264
 31
0.0
 11
77.83707108180181
 21
100.1984160102788
 31
0.0
 11
78.08523086985935
 21
100.4502048184586
 31
0.0
 11
78.26570002314554
 21
100.6902612934251
 31
0.0
 11
78.40554830866606
 21
100.9554199973719
 31
0.0
 11
78.48482835243452
 21
101.2107344488071
 31
0.0
 11
78.51341326227937
 21
101.4764669234721
 31
0.0
 11
78.48597449680904
 21
101.7427310056107
 31
0.0
 11
78.40554830866606
 21
101.9975138495724
 31
0.0
 11
78.36304279191094
 21
102.0884169116492
 31
0.0
 11
78.31713511326035
 21
102.1776120894783
 31
0.0
  0
ARC
  5
1E7
330
5A
100
AcDbEntity
  8
1
  6
PHANTOM
 62
     4
100
AcDbCircle
 10
164.6960425363697
 20
110.8420514725464
 30
0.0
 40
29.99999999999999
100
AcDbArc
 50
90.0
 51
155.0
  0
ENDBLK
  5
5C
330
5A
100
AcDbEntity
  8
0
100
AcDbBlockEnd
  0
BLOCK
  5
5E
330
5D
100
AcDbEntity
  8
0
100
AcDbBlockBegin
  2
32-1-16
 70
     0
 71
     0
 10
64.14909989121777
 20
-182.8968728765194
 30
0.0
  3
32-1-16
  1

  0
LINE
  5
1E8
330
5D
100
AcDbEntity
  8
1
  6
Continuous
 62
     7
100
AcDbLine
 10
177.9316283859452
 20
153.8420514725464
 30
0.0
 11
177.9316283859452
 21
127.5420514725464
 31
0.0
  0
LINE
  5
1E9
330
5D
100
AcDbEntity
  8
1
  6
Continuous
 62
     7
100
AcDbLine
 10
167.9316283859452
 20
148.7420514725465
 30
0.0
 11
167.9316283859452
 21
132.9420514725464
 31
0.0
  0
LINE
  5
1EA
330
5D
100
AcDbEntity
  8
0
  6
Continuous
 62
     7
100
AcDbLine
 10
170.218451136232
 20
126.8420514725464
 30
0.0
 11
177.3598795647752
 21
126.8420514725464
 31
0.0
  0
LINE
  5
1EB
330
5D
100
AcDbEntity
  8
0
  6
Continuous
 62
     7
100
AcDbLine
 10
170.2184511362322
 20
154.8420514725464
 30
0.0
 11
177.3598795647749
 21
154.8420514725464
 31
0.0
  0
LINE
  5
1EC
330
5D
100
AcDbEntity
  8
1
  6
Continuous
 62
     7
100
AcDbLine
 10
168.9316283859452
 20
152.3420514725464
 30
0.0
 11
168.9316283859452
 21
152.4000725342771
 31
0.0
  0
LINE
  5
1ED
330
5D
100
AcDbEntity
  8
1
  6
Continuous
 62
     7
100
AcDbLine
 10
177.9316283859452
 20
154.1420514725465
 30
0.0
 11
177.9316283859452
 21
154.0290514725465
 31
0.0
  0
LINE
  5
1EE
330
5D
100
AcDbEntity
  8
1
  6
Continuous
 62
     7
100
AcDbLine
 10
167.9316283859452
 20
150.6100006649776
 30
0.0
 11
167.9316283859452
 21
148.7420514725465
 31
0.0
  0
LINE
  5
1EF
330
5D
100
AcDbEntity
  8
1
  6
Continuous
 62
     7
100
AcDbLine
 10
168.9316283859452
 20
129.2840304108158
 30
0.0
 11
168.9316283859452
 21
129.3420514725464
 31
0.0
  0
LINE
  5
1F0
330
5D
100
AcDbEntity
  8
1
  6
Continuous
 62
     7
100
AcDbLine
 10
167.9316283859452
 20
132.9420514725464
 30
0.0
 11
167.9316283859452
 21
131.0741022801153
 31
0.0
  0
LINE
  5
1F1
330
5D
100
AcDbEntity
  8
1
  6
Continuous
 62
     7
100
AcDbLine
 10
177.9316283859452
 20
154.0290514725465
 30
0.0
 11
177.9316283859452
 21
153.8420514725464
 31
0.0
  0
LINE
  5
1F2
330
5D
100
AcDbEntity
  8
1
  6
Continuous
 62
     7
100
AcDbLine
 10
168.9316283859452
 20
132.0437294934768
 30
0.0
 11
168.9316283859452
 21
140.8420514725464
 31
0.0
  0
LINE
  5
1F3
330
5D
100
AcDbEntity
  8
1
  6
Continuous
 62
     7
100
AcDbLine
 10
168.9316283859452
 20
140.8420514725464
 30
0.0
 11
168.9316283859452
 21
149.640373451616
 31
0.0
  0
LINE
  5
1F4
330
5D
100
AcDbEntity
  8
1
  6
Continuous
 62
     7
100
AcDbLine
 10
79.61341326227927
 20
266.6138438710987
 30
0.0
 11
81.18136245471038
 21
266.6138438710987
 31
0.0
  0
LINE
  5
1F5
330
5D
100
AcDbEntity
  8
1
  6
Continuous
 62
     7
100
AcDbLine
 10
84.71341326227926
 20
276.6138438710988
 30
0.0
 11
77.62507034473978
 21
276.6138438710988
 31
0.0
  0
LINE
  5
1F6
330
5D
100
AcDbEntity
  8
1
  6
Continuous
 62
     7
100
AcDbLine
 10
84.60041326227926
 20
276.6138438710988
 30
0.0
 11
84.71341326227926
 21
276.6138438710988
 31
0.0
  0
LINE
  5
1F7
330
5D
100
AcDbEntity
  8
1
  6
Continuous
 62
     7
100
AcDbLine
 10
82.97143432400986
 20
267.6138438710987
 30
0.0
 11
82.91341326227928
 21
267.6138438710987
 31
0.0
  0
LINE
  5
1F8
330
5D
100
AcDbEntity
  8
1
  6
Continuous
 62
     7
100
AcDbLine
 10
71.41341326227928
 20
266.6138438710987
 30
0.0
 11
79.61341326227927
 21
266.6138438710987
 31
0.0
  0
LINE
  5
1F9
330
5D
100
AcDbEntity
  8
1
  6
Continuous
 62
     7
100
AcDbLine
 10
80.21173524134886
 20
267.6138438710987
 30
0.0
 11
71.41341326227928
 21
267.6138438710987
 31
0.0
  0
LINE
  5
1FA
330
5D
100
AcDbEntity
  8
1
  6
Continuous
 62
     7
100
AcDbLine
 10
61.64546406984817
 20
266.6138438710987
 30
0.0
 11
63.21341326227926
 21
266.6138438710987
 31
0.0
  0
LINE
  5
1FB
330
5D
100
AcDbEntity
  8
1
  6
Continuous
 62
     7
100
AcDbLine
 10
58.11341326227927
 20
276.6138438710988
 30
0.0
 11
58.22641326227927
 21
276.6138438710988
 31
0.0
  0
LINE
  5
1FC
330
5D
100
AcDbEntity
  8
1
  6
Continuous
 62
     7
100
AcDbLine
 10
59.91341326227928
 20
267.6138438710987
 30
0.0
 11
59.85539220054866
 21
267.6138438710987
 31
0.0
  0
LINE
  5
1FD
330
5D
100
AcDbEntity
  8
1
  6
Continuous
 62
     7
100
AcDbLine
 10
63.21341326227926
 20
266.6138438710987
 30
0.0
 11
71.41341326227928
 21
266.6138438710987
 31
0.0
  0
LINE
  5
1FE
330
5D
100
AcDbEntity
  8
1
  6
Continuous
 62
     7
100
AcDbLine
 10
71.41341326227928
 20
267.6138438710987
 30
0.0
 11
62.61509128320967
 21
267.6138438710987
 31
0.0
  0
LINE
  5
1FF
330
5D
100
AcDbEntity
  8
1
  6
Continuous
 62
     7
100
AcDbLine
 10
65.20175617981877
 20
276.6138438710988
 30
0.0
 11
58.11341326227927
 21
276.6138438710988
 31
0.0
  0
LINE
  5
200
330
5D
100
AcDbEntity
  8
1
  6
Continuous
 62
     7
100
AcDbLine
 10
64.76134591445435
 20
154.8420514725464
 30
0.0
 11
78.06548061010435
 21
154.8420514725464
 31
0.0
  0
LINE
  5
201
330
5D
100
AcDbEntity
  8
1
  6
Continuous
 62
     7
100
AcDbLine
 10
80.21173524134896
 20
153.6029107834479
 30
0.0
 11
86.86380258917396
 21
142.081192161645
 31
0.0
  0
LINE
  5
202
330
5D
100
AcDbEntity
  8
1
  6
Continuous
 62
     7
100
AcDbLine
 10
80.21173524134896
 20
128.081192161645
 30
0.0
 11
86.86380258917396
 21
139.6029107834479
 31
0.0
  0
LINE
  5
203
330
5D
100
AcDbEntity
  8
1
  6
Continuous
 62
     7
100
AcDbLine
 10
55.96302393538466
 20
139.6029107834479
 30
0.0
 11
62.61509128320975
 21
128.081192161645
 31
0.0
  0
LINE
  5
204
330
5D
100
AcDbEntity
  8
1
  6
Continuous
 62
     7
100
AcDbLine
 10
62.61509128320975
 20
153.6029107834479
 30
0.0
 11
55.96302393538466
 21
142.081192161645
 31
0.0
  0
ARC
  5
205
330
5D
100
AcDbEntity
  8
1
  6
Continuous
 62
     7
100
AcDbCircle
 10
173.7891653505043
 20
130.3420514725464
 30
0.0
 40
5.000000000000775
100
AcDbArc
 50
-164.6624423304474
 51
-135.5729959992014
  0
ARC
  5
206
330
5D
100
AcDbEntity
  8
1
  6
Continuous
 62
     7
100
AcDbCircle
 10
173.7891653505043
 20
151.3420514725464
 30
0.0
 40
4.999999999999492
100
AcDbArc
 50
34.05579774257357
 51
44.42700400081237
  0
ARC
  5
207
330
5D
100
AcDbEntity
  8
1
  6
Continuous
 62
     7
100
AcDbCircle
 10
173.7891653505043
 20
151.3420514725464
 30
0.0
 40
5.000000000000483
100
AcDbArc
 50
135.5729959991997
 51
164.662442330445
  0
ARC
  5
208
330
5D
100
AcDbEntity
  8
1
  6
Continuous
 62
     7
100
AcDbCircle
 10
173.7891653505043
 20
130.3420514725464
 30
0.0
 40
4.999999999999621
100
AcDbArc
 50
-44.42700400080974
 51
-34.05579774257222
  0
ARC
  5
209
330
5D
100
AcDbEntity
  8
1
  6
Continuous
 62
     7
100
AcDbCircle
 10
81.91341326227928
 20
272.471380835657
 30
0.0
 40
4.999999999999985
100
AcDbArc
 50
-74.66244233044588
 51
55.94420225743379
  0
ARC
  5
20A
330
5D
100
AcDbEntity
  8
1
  6
Continuous
 62
     7
100
AcDbCircle
 10
76.18024184212538
 20
272.4712115933301
 30
0.0
 40
1.885238775575546
100
AcDbArc
 50
0.00514357713391
 51
3.83791798966738
  0
ARC
  5
20B
330
5D
100
AcDbEntity
  8
1
  6
Continuous
 62
     7
100
AcDbCircle
 10
76.10642486194547
 20
272.4662596056207
 30
0.0
 40
1.959221670525301
100
AcDbArc
 50
3.83791798967063
 51
9.37260108640118
  0
ARC
  5
20C
330
5D
100
AcDbEntity
  8
1
  6
Continuous
 62
     7
100
AcDbCircle
 10
76.02219142453197
 20
272.4523562316929
 30
0.0
 40
2.04459482664056
100
AcDbArc
 50
9.37260108639669
 51
14.67807157128463
  0
ARC
  5
20D
330
5D
100
AcDbEntity
  8
1
  6
Continuous
 62
     7
100
AcDbCircle
 10
75.97948531672608
 20
272.4411699618306
 30
0.0
 40
2.088741675648811
100
AcDbArc
 50
14.67807157128624
 51
19.98794307345857
  0
ARC
  5
20E
330
5D
100
AcDbEntity
  8
1
  6
Continuous
 62
     7
100
AcDbCircle
 10
75.84519254081337
 20
272.3923233895885
 30
0.0
 40
2.231642121002063
100
AcDbArc
 50
19.98794307345647
 51
23.44839996530657
  0
ARC
  5
20F
330
5D
100
AcDbEntity
  8
1
  6
Continuous
 62
     7
100
AcDbCircle
 10
75.74725590308248
 20
272.3498441627257
 30
0.0
 40
2.338394496736298
100
AcDbArc
 50
23.44839996531115
 51
26.75137744777829
  0
ARC
  5
210
330
5D
100
AcDbEntity
  8
1
  6
Continuous
 62
     7
100
AcDbCircle
 10
75.58679642986218
 20
272.2689610923457
 30
0.0
 40
2.518086771529185
100
AcDbArc
 50
26.75137744777394
 51
29.81983142576663
  0
ARC
  5
211
330
5D
100
AcDbEntity
  8
1
  6
Continuous
 62
     7
100
AcDbCircle
 10
75.48479477920367
 20
272.2104973019266
 30
0.0
 40
2.635655268700877
100
AcDbArc
 50
29.81983142576922
 51
32.75164132976806
  0
ARC
  5
212
330
5D
100
AcDbEntity
  8
1
  6
Continuous
 62
     7
100
AcDbCircle
 10
75.31725829393298
 20
272.1027274283321
 30
0.0
 40
2.834860739387412
100
AcDbArc
 50
32.75164132976566
 51
35.62806700316914
  0
ARC
  5
213
330
5D
100
AcDbEntity
  8
1
  6
Continuous
 62
     7
100
AcDbCircle
 10
75.20835135343287
 20
272.0246769948076
 30
0.0
 40
2.96884802185272
100
AcDbArc
 50
35.62806700316988
 51
38.51810528404838
  0
ARC
  5
214
330
5D
100
AcDbEntity
  8
1
  6
Continuous
 62
     7
100
AcDbCircle
 10
75.00489406335367
 20
271.8627347618854
 30
0.0
 40
3.228886779906601
100
AcDbArc
 50
38.51810528404756
 51
41.17514053461989
  0
ARC
  5
215
330
5D
100
AcDbEntity
  8
1
  6
Continuous
 62
     7
100
AcDbCircle
 10
74.87160487550426
 20
271.7461510124003
 30
0.0
 40
3.405968055714071
100
AcDbArc
 50
41.17514053462212
 51
43.69457626015145
  0
ARC
  5
216
330
5D
100
AcDbEntity
  8
1
  6
Continuous
 62
     7
100
AcDbCircle
 10
74.63152007409198
 20
271.516764470283
 30
0.0
 40
3.738020608141545
100
AcDbArc
 50
43.69457626014911
 51
45.99039746615465
  0
ARC
  5
217
330
5D
100
AcDbEntity
  8
1
  6
Continuous
 62
     7
100
AcDbCircle
 10
74.48365094508787
 20
271.3636928526412
 30
0.0
 40
3.950849646197854
100
AcDbArc
 50
45.99039746615623
 51
48.29355234314141
  0
ARC
  5
218
330
5D
100
AcDbEntity
  8
1
  6
Continuous
 62
     7
100
AcDbCircle
 10
74.26564402663618
 20
271.1190626820909
 30
0.0
 40
4.2785246938231
100
AcDbArc
 50
48.2935523431407
 51
50.54097616601218
  0
ARC
  5
219
330
5D
100
AcDbEntity
  8
1
  6
Continuous
 62
     7
100
AcDbCircle
 10
71.42268560577378
 20
281.0177435227873
 30
0.0
 40
12.11718326374996
100
AcDbArc
 50
-90.04384403443567
 51
-83.50322681730788
  0
ARC
  5
21A
330
5D
100
AcDbEntity
  8
1
  6
Continuous
 62
     7
100
AcDbCircle
 10
71.46787471930418
 20
280.6209250704765
 30
0.0
 40
11.71780006420845
100
AcDbArc
 50
-83.50322681730788
 51
-81.28919856903039
  0
ARC
  5
21B
330
5D
100
AcDbEntity
  8
1
  6
Continuous
 62
     7
100
AcDbCircle
 10
71.56818256370858
 20
279.9662358507301
 30
0.0
 40
11.05547111413814
100
AcDbArc
 50
-81.2891985690304
 51
-78.94250833563285
  0
ARC
  5
21C
330
5D
100
AcDbEntity
  8
1
  6
Continuous
 62
     7
100
AcDbCircle
 10
71.59922073539536
 20
279.807409329621
 30
0.0
 40
10.89364023973747
100
AcDbArc
 50
-78.94250833563275
 51
-77.80241211342714
  0
ARC
  5
21D
330
5D
100
AcDbEntity
  8
1
  6
Continuous
 62
     7
100
AcDbCircle
 10
71.72491225650938
 20
279.2259445075189
 30
0.0
 40
10.29874554500375
100
AcDbArc
 50
-77.80241211342704
 51
-76.59644657029098
  0
ARC
  5
21E
330
5D
100
AcDbEntity
  8
1
  6
Continuous
 62
     7
100
AcDbCircle
 10
71.74987381240658
 20
279.1211956801807
 30
0.0
 40
10.1910636240443
100
AcDbArc
 50
-76.59644657029114
 51
-75.37776435552199
  0
ARC
  5
21F
330
5D
100
AcDbEntity
  8
1
  6
Continuous
 62
     7
100
AcDbCircle
 10
71.88399794854067
 20
278.607103179987
 30
0.0
 40
9.659762972200975
100
AcDbArc
 50
-75.37776435552203
 51
-74.09206087472153
  0
ARC
  5
220
330
5D
100
AcDbEntity
  8
1
  6
Continuous
 62
     7
100
AcDbCircle
 10
71.92954148157708
 20
278.4473054065296
 30
0.0
 40
9.49360177997076
100
AcDbArc
 50
-74.09206087472163
 51
-72.1710236241592
  0
ARC
  5
221
330
5D
100
AcDbEntity
  8
1
  6
Continuous
 62
     7
100
AcDbCircle
 10
72.17963221303467
 20
277.6697153014507
 30
0.0
 40
8.676783718541193
100
AcDbArc
 50
-72.17102362415911
 51
-70.83006879394735
  0
ARC
  5
222
330
5D
100
AcDbEntity
  8
1
  6
Continuous
 62
     7
100
AcDbCircle
 10
72.18292640984777
 20
277.6602396479772
 30
0.0
 40
8.666751782467191
100
AcDbArc
 50
-70.83006879394787
 51
-69.48758802997453
  0
ARC
  5
223
330
5D
100
AcDbEntity
  8
1
  6
Continuous
 62
     7
100
AcDbCircle
 10
72.44137616465969
 20
276.9694406173006
 30
0.0
 40
7.929188512946488
100
AcDbArc
 50
-69.48758802997341
 51
-68.02027924333181
  0
ARC
  5
224
330
5D
100
AcDbEntity
  8
1
  6
Continuous
 62
     7
100
AcDbCircle
 10
72.44740862528306
 20
276.9544945249481
 30
0.0
 40
7.913070936894786
100
AcDbArc
 50
-68.02027924333173
 51
-66.54994188858723
  0
ARC
  5
225
330
5D
100
AcDbEntity
  8
1
  6
Continuous
 62
     7
100
AcDbCircle
 10
72.69955042962516
 20
276.373223044629
 30
0.0
 40
7.279468519499316
100
AcDbArc
 50
-66.54994188858848
 51
-65.01763939763103
  0
ARC
  5
226
330
5D
100
AcDbEntity
  8
1
  6
Continuous
 62
     7
100
AcDbCircle
 10
72.76406789466196
 20
276.2347536113874
 30
0.0
 40
7.126706327720652
100
AcDbArc
 50
-65.01763939763053
 51
-63.51999786437653
  0
ARC
  5
227
330
5D
100
AcDbEntity
  8
1
  6
Continuous
 62
     7
100
AcDbCircle
 10
73.06377737046637
 20
275.6331036122209
 30
0.0
 40
6.454539316194668
100
AcDbArc
 50
-63.51999786437722
 51
-61.86644107653837
  0
ARC
  5
228
330
5D
100
AcDbEntity
  8
1
  6
Continuous
 62
     7
100
AcDbCircle
 10
73.12661838171627
 20
275.5155785816517
 30
0.0
 40
6.321268443513326
100
AcDbArc
 50
-61.8664410765381
 51
-60.1781317899691
  0
ARC
  5
229
330
5D
100
AcDbEntity
  8
1
  6
Continuous
 62
     7
100
AcDbCircle
 10
73.39604333332778
 20
275.0455521717
 30
0.0
 40
5.779498537923514
100
AcDbArc
 50
-60.17813178996925
 51
-58.33145732953913
  0
ARC
  5
22A
330
5D
100
AcDbEntity
  8
1
  6
Continuous
 62
     7
100
AcDbCircle
 10
73.45284604606897
 20
274.953467695735
 30
0.0
 40
5.671303811210395
100
AcDbArc
 50
-58.33145732953907
 51
-56.54261129493004
  0
ARC
  5
22B
330
5D
100
AcDbEntity
  8
1
  6
Continuous
 62
     7
100
AcDbCircle
 10
73.81196124325396
 20
274.4100261190289
 30
0.0
 40
5.019926445820734
100
AcDbArc
 50
-56.54261129492969
 51
-55.58479018327501
  0
ARC
  5
22C
330
5D
100
AcDbEntity
  8
1
  6
Continuous
 62
     7
100
AcDbCircle
 10
73.72509857797786
 20
274.536813628363
 30
0.0
 40
5.173615076311104
100
AcDbArc
 50
-55.58479018327505
 51
-53.72604720347698
  0
ARC
  5
22D
330
5D
100
AcDbEntity
  8
1
  6
Continuous
 62
     7
100
AcDbCircle
 10
74.10709748252648
 20
274.016289335542
 30
0.0
 40
4.52796137463103
100
AcDbArc
 50
-53.72604720347839
 51
-51.60249499566824
  0
ARC
  5
22E
330
5D
100
AcDbEntity
  8
1
  6
Continuous
 62
     7
100
AcDbCircle
 10
74.12334281918598
 20
273.9957909881167
 30
0.0
 40
4.5018061990371
100
AcDbArc
 50
-51.60249499566671
 51
-49.46672482297309
  0
ARC
  5
22F
330
5D
100
AcDbEntity
  8
1
  6
Continuous
 62
     7
100
AcDbCircle
 10
74.44889100969388
 20
273.6150709799865
 30
0.0
 40
4.000877712191368
100
AcDbArc
 50
-49.4667248229728
 51
-47.0628329239736
  0
ARC
  5
230
330
5D
100
AcDbEntity
  8
1
  6
Continuous
 62
     7
100
AcDbCircle
 10
74.47380426224626
 20
273.5882959790505
 30
0.0
 40
3.964304896769704
100
AcDbArc
 50
-47.06283292397439
 51
-44.89834186822163
  0
ARC
  5
231
330
5D
100
AcDbEntity
  8
1
  6
Continuous
 62
     7
100
AcDbCircle
 10
74.82572107473808
 20
273.2376257463588
 30
0.0
 40
3.467500050768292
100
AcDbArc
 50
-44.89834186822169
 51
-42.42339965240939
  0
ARC
  5
232
330
5D
100
AcDbEntity
  8
1
  6
Continuous
 62
     7
100
AcDbCircle
 10
74.87148500823707
 20
273.1958032460624
 30
0.0
 40
3.405504412693186
100
AcDbArc
 50
-42.42339965240811
 51
-39.90392927687709
  0
ARC
  5
233
330
5D
100
AcDbEntity
  8
1
  6
Continuous
 62
     7
100
AcDbCircle
 10
75.16774920248926
 20
272.9480534061236
 30
0.0
 40
3.019301802674004
100
AcDbArc
 50
-39.90392927687949
 51
-37.06249637679054
  0
ARC
  5
234
330
5D
100
AcDbEntity
  8
1
  6
Continuous
 62
     7
100
AcDbCircle
 10
75.20956100126676
 20
272.9164743923882
 30
0.0
 40
2.966904659378634
100
AcDbArc
 50
-37.06249637679001
 51
-34.1696971019387
  0
ARC
  5
235
330
5D
100
AcDbEntity
  8
1
  6
Continuous
 62
     7
100
AcDbCircle
 10
75.45932876890876
 20
272.7469254323104
 30
0.0
 40
2.665025896269494
100
AcDbArc
 50
-34.16969710193752
 51
-31.27086980468618
  0
ARC
  5
236
330
5D
100
AcDbEntity
  8
1
  6
Continuous
 62
     7
100
AcDbCircle
 10
75.47955758121029
 20
272.7346402039815
 30
0.0
 40
2.641358795005954
100
AcDbArc
 50
-31.27086980468477
 51
-28.34531312311091
  0
ARC
  5
237
330
5D
100
AcDbEntity
  8
1
  6
Continuous
 62
     7
100
AcDbCircle
 10
75.71689384010477
 20
272.6066055728447
 30
0.0
 40
2.37168980057696
100
AcDbArc
 50
-28.34531312311277
 51
-25.08804044719413
  0
ARC
  5
238
330
5D
100
AcDbEntity
  8
1
  6
Continuous
 62
     7
100
AcDbCircle
 10
75.75058312501517
 20
272.5908329329221
 30
0.0
 40
2.334491089740273
100
AcDbArc
 50
-25.08804044719317
 51
-21.78003181772502
  0
ARC
  5
239
330
5D
100
AcDbEntity
  8
1
  6
Continuous
 62
     7
100
AcDbCircle
 10
75.95691942605427
 20
272.5083877032722
 30
0.0
 40
2.112293238673964
100
AcDbArc
 50
-21.78003181772451
 51
-18.12326386993699
  0
ARC
  5
23A
330
5D
100
AcDbEntity
  8
1
  6
Continuous
 62
     7
100
AcDbCircle
 10
75.97877802709098
 20
272.5012333864488
 30
0.0
 40
2.08929361501413
100
AcDbArc
 50
-18.12326386993635
 51
-11.20237824740885
  0
ARC
  5
23B
330
5D
100
AcDbEntity
  8
1
  6
Continuous
 62
     7
100
AcDbCircle
 10
76.10620102939407
 20
272.4759974560564
 30
0.0
 40
1.959395679315751
100
AcDbArc
 50
-11.20237824741107
 51
-5.66707811642392
  0
ARC
  5
23C
330
5D
100
AcDbEntity
  8
1
  6
Continuous
 62
     7
100
AcDbCircle
 10
76.11119625887187
 20
272.475501764535
 30
0.0
 40
1.954375915614177
100
AcDbArc
 50
-5.66707811642419
 51
-1.96932947907676
  0
ARC
  5
23D
330
5D
100
AcDbEntity
  8
1
  6
Continuous
 62
     7
100
AcDbCircle
 10
76.26547312086848
 20
272.4701969816173
 30
0.0
 40
1.800007878542564
100
AcDbArc
 50
-1.96932947907772
 51
0.03768308224288
  0
ARC
  5
23E
330
5D
100
AcDbEntity
  8
1
  6
Continuous
 62
     7
100
AcDbCircle
 10
60.91341326227928
 20
272.471380835657
 30
0.0
 40
5.000000000000201
100
AcDbArc
 50
124.0557977425664
 51
-105.3375576695553
  0
ARC
  5
23F
330
5D
100
AcDbEntity
  8
1
  6
Continuous
 62
     7
100
AcDbCircle
 10
66.64658468243309
 20
272.4712115933301
 30
0.0
 40
1.885238775575509
100
AcDbArc
 50
176.1620820103327
 51
179.9948564228661
  0
ARC
  5
240
330
5D
100
AcDbEntity
  8
1
  6
Continuous
 62
     7
100
AcDbCircle
 10
66.72040166261297
 20
272.4662596056207
 30
0.0
 40
1.959221670525329
100
AcDbArc
 50
170.6273989135987
 51
176.1620820103294
  0
ARC
  5
241
330
5D
100
AcDbEntity
  8
1
  6
Continuous
 62
     7
100
AcDbCircle
 10
66.80463510002647
 20
272.4523562316929
 30
0.0
 40
2.044594826640511
100
AcDbArc
 50
165.3219284287152
 51
170.6273989136032
  0
ARC
  5
242
330
5D
100
AcDbEntity
  8
1
  6
Continuous
 62
     7
100
AcDbCircle
 10
66.84734120783247
 20
272.4411699618306
 30
0.0
 40
2.088741675648858
100
AcDbArc
 50
160.0120569265415
 51
165.3219284287144
  0
ARC
  5
243
330
5D
100
AcDbEntity
  8
1
  6
Continuous
 62
     7
100
AcDbCircle
 10
66.98163398374518
 20
272.3923233895885
 30
0.0
 40
2.23164212100217
100
AcDbArc
 50
156.5516000346943
 51
160.0120569265435
  0
ARC
  5
244
330
5D
100
AcDbEntity
  8
1
  6
Continuous
 62
     7
100
AcDbCircle
 10
67.07957062147608
 20
272.3498441627257
 30
0.0
 40
2.338394496736417
100
AcDbArc
 50
153.2486225522227
 51
156.5516000346897
  0
ARC
  5
245
330
5D
100
AcDbEntity
  8
1
  6
Continuous
 62
     7
100
AcDbCircle
 10
67.24003009469638
 20
272.2689610923457
 30
0.0
 40
2.518086771529192
100
AcDbArc
 50
150.1801685742347
 51
153.248622552227
  0
ARC
  5
246
330
5D
100
AcDbEntity
  8
1
  6
Continuous
 62
     7
100
AcDbCircle
 10
67.34203174535477
 20
272.2104973019266
 30
0.0
 40
2.635655268700837
100
AcDbArc
 50
147.2483586702306
 51
150.1801685742308
  0
ARC
  5
247
330
5D
100
AcDbEntity
  8
1
  6
Continuous
 62
     7
100
AcDbCircle
 10
67.50956823062558
 20
272.1027274283321
 30
0.0
 40
2.834860739387416
100
AcDbArc
 50
144.3719329968322
 51
147.2483586702344
  0
ARC
  5
248
330
5D
100
AcDbEntity
  8
1
  6
Continuous
 62
     7
100
AcDbCircle
 10
67.61847517112557
 20
272.0246769948076
 30
0.0
 40
2.968848021852747
100
AcDbArc
 50
141.4818947159516
 51
144.3719329968301
  0
ARC
  5
249
330
5D
100
AcDbEntity
  8
1
  6
Continuous
 62
     7
100
AcDbCircle
 10
67.82193246120488
 20
271.8627347618854
 30
0.0
 40
3.228886779906781
100
AcDbArc
 50
138.8248594653815
 51
141.4818947159537
  0
ARC
  5
24A
330
5D
100
AcDbEntity
  8
1
  6
Continuous
 62
     7
100
AcDbCircle
 10
67.95522164905427
 20
271.7461510124003
 30
0.0
 40
3.405968055713986
100
AcDbArc
 50
136.3054237398492
 51
138.8248594653788
  0
ARC
  5
24B
330
5D
100
AcDbEntity
  8
1
  6
Continuous
 62
     7
100
AcDbCircle
 10
68.19530645046646
 20
271.516764470283
 30
0.0
 40
3.738020608141663
100
AcDbArc
 50
134.0096025338454
 51
136.3054237398506
  0
ARC
  5
24C
330
5D
100
AcDbEntity
  8
1
  6
Continuous
 62
     7
100
AcDbCircle
 10
68.34317557947068
 20
271.3636928526412
 30
0.0
 40
3.950849646197836
100
AcDbArc
 50
131.7064476568598
 51
134.009602533845
  0
ARC
  5
24D
330
5D
100
AcDbEntity
  8
1
  6
Continuous
 62
     7
100
AcDbCircle
 10
68.56118249792237
 20
271.1190626820909
 30
0.0
 40
4.278524693823201
100
AcDbArc
 50
129.459023833989
 51
131.7064476568604
  0
ARC
  5
24E
330
5D
100
AcDbEntity
  8
1
  6
Continuous
 62
     7
100
AcDbCircle
 10
71.40414091878466
 20
281.0177435227873
 30
0.0
 40
12.11718326374995
100
AcDbArc
 50
-96.49677318269173
 51
-89.95615596556381
  0
ARC
  5
24F
330
5D
100
AcDbEntity
  8
1
  6
Continuous
 62
     7
100
AcDbCircle
 10
71.35895180525426
 20
280.6209250704765
 30
0.0
 40
11.71780006420847
100
AcDbArc
 50
-98.71080143096961
 51
-96.49677318269171
  0
ARC
  5
250
330
5D
100
AcDbEntity
  8
1
  6
Continuous
 62
     7
100
AcDbCircle
 10
71.25864396084987
 20
279.9662358507301
 30
0.0
 40
11.05547111413806
100
AcDbArc
 50
-101.0574916643666
 51
-98.71080143096961
  0
ARC
  5
251
330
5D
100
AcDbEntity
  8
1
  6
Continuous
 62
     7
100
AcDbCircle
 10
71.22760578916308
 20
279.807409329621
 30
0.0
 40
10.89364023973738
100
AcDbArc
 50
-102.1975878865729
 51
-101.0574916643667
  0
ARC
  5
252
330
5D
100
AcDbEntity
  8
1
  6
Continuous
 62
     7
100
AcDbCircle
 10
71.10191426804909
 20
279.2259445075189
 30
0.0
 40
10.29874554500384
100
AcDbArc
 50
-103.403553429709
 51
-102.1975878865731
  0
ARC
  5
253
330
5D
100
AcDbEntity
  8
1
  6
Continuous
 62
     7
100
AcDbCircle
 10
71.07695271215187
 20
279.1211956801807
 30
0.0
 40
10.19106362404425
100
AcDbArc
 50
-104.622235644478
 51
-103.4035534297087
  0
ARC
  5
254
330
5D
100
AcDbEntity
  8
1
  6
Continuous
 62
     7
100
AcDbCircle
 10
70.94282857601777
 20
278.607103179987
 30
0.0
 40
9.659762972201008
100
AcDbArc
 50
-105.9079391252783
 51
-104.622235644478
  0
ARC
  5
255
330
5D
100
AcDbEntity
  8
1
  6
Continuous
 62
     7
100
AcDbCircle
 10
70.89728504298137
 20
278.4473054065296
 30
0.0
 40
9.493601779970756
100
AcDbArc
 50
-107.8289763758401
 51
-105.9079391252782
  0
ARC
  5
256
330
5D
100
AcDbEntity
  8
1
  6
Continuous
 62
     7
100
AcDbCircle
 10
70.64719431152378
 20
277.6697153014507
 30
0.0
 40
8.676783718541193
100
AcDbArc
 50
-109.1699312060525
 51
-107.8289763758402
  0
ARC
  5
257
330
5D
100
AcDbEntity
  8
1
  6
Continuous
 62
     7
100
AcDbCircle
 10
70.64390011471076
 20
277.6602396479772
 30
0.0
 40
8.666751782467223
100
AcDbArc
 50
-110.512411970026
 51
-109.1699312060525
  0
ARC
  5
258
330
5D
100
AcDbEntity
  8
1
  6
Continuous
 62
     7
100
AcDbCircle
 10
70.38545035989878
 20
276.9694406173006
 30
0.0
 40
7.92918851294653
100
AcDbArc
 50
-111.9797207566684
 51
-110.5124119700268
  0
ARC
  5
259
330
5D
100
AcDbEntity
  8
1
  6
Continuous
 62
     7
100
AcDbCircle
 10
70.37941789927538
 20
276.9544945249481
 30
0.0
 40
7.913070936894643
100
AcDbArc
 50
-113.4500581114128
 51
-111.9797207566683
  0
ARC
  5
25A
330
5D
100
AcDbEntity
  8
1
  6
Continuous
 62
     7
100
AcDbCircle
 10
70.12727609493336
 20
276.373223044629
 30
0.0
 40
7.27946851949936
100
AcDbArc
 50
-114.9823606023696
 51
-113.4500581114121
  0
ARC
  5
25B
330
5D
100
AcDbEntity
  8
1
  6
Continuous
 62
     7
100
AcDbCircle
 10
70.06275862989656
 20
276.2347536113874
 30
0.0
 40
7.12670632772087
100
AcDbArc
 50
-116.4800021356241
 51
-114.9823606023701
  0
ARC
  5
25C
330
5D
100
AcDbEntity
  8
1
  6
Continuous
 62
     7
100
AcDbCircle
 10
69.76304915409219
 20
275.6331036122209
 30
0.0
 40
6.454539316194552
100
AcDbArc
 50
-118.1335589234625
 51
-116.4800021356237
  0
ARC
  5
25D
330
5D
100
AcDbEntity
  8
1
  6
Continuous
 62
     7
100
AcDbCircle
 10
69.70020814284217
 20
275.5155785816517
 30
0.0
 40
6.321268443513457
100
AcDbArc
 50
-119.8218682100309
 51
-118.1335589234619
  0
ARC
  5
25E
330
5D
100
AcDbEntity
  8
1
  6
Continuous
 62
     7
100
AcDbCircle
 10
69.43078319123077
 20
275.0455521717
 30
0.0
 40
5.779498537923489
100
AcDbArc
 50
-121.6685426704618
 51
-119.8218682100317
  0
ARC
  5
25F
330
5D
100
AcDbEntity
  8
1
  6
Continuous
 62
     7
100
AcDbCircle
 10
69.37398047848959
 20
274.953467695735
 30
0.0
 40
5.671303811210522
100
AcDbArc
 50
-123.4573887050709
 51
-121.6685426704619
  0
ARC
  5
260
330
5D
100
AcDbEntity
  8
1
  6
Continuous
 62
     7
100
AcDbCircle
 10
69.01486528130448
 20
274.4100261190289
 30
0.0
 40
5.019926445820628
100
AcDbArc
 50
-124.4152098167239
 51
-123.4573887050703
  0
ARC
  5
261
330
5D
100
AcDbEntity
  8
1
  6
Continuous
 62
     7
100
AcDbCircle
 10
69.10172794658067
 20
274.536813628363
 30
0.0
 40
5.173615076311125
100
AcDbArc
 50
-126.2739527965238
 51
-124.4152098167247
  0
ARC
  5
262
330
5D
100
AcDbEntity
  8
1
  6
Continuous
 62
     7
100
AcDbCircle
 10
68.71972904203207
 20
274.016289335542
 30
0.0
 40
4.527961374631089
100
AcDbArc
 50
-128.3975050043329
 51
-126.2739527965228
  0
ARC
  5
263
330
5D
100
AcDbEntity
  8
1
  6
Continuous
 62
     7
100
AcDbCircle
 10
68.70348370537246
 20
273.9957909881167
 30
0.0
 40
4.501806199037098
100
AcDbArc
 50
-130.5332751770258
 51
-128.3975050043333
  0
ARC
  5
264
330
5D
100
AcDbEntity
  8
1
  6
Continuous
 62
     7
100
AcDbCircle
 10
68.37793551486467
 20
273.6150709799865
 30
0.0
 40
4.000877712191388
100
AcDbArc
 50
-132.9371670760276
 51
-130.5332751770272
  0
ARC
  5
265
330
5D
100
AcDbEntity
  8
1
  6
Continuous
 62
     7
100
AcDbCircle
 10
68.35302226231218
 20
273.5882959790505
 30
0.0
 40
3.964304896769671
100
AcDbArc
 50
-135.1016581317784
 51
-132.9371670760256
  0
ARC
  5
266
330
5D
100
AcDbEntity
  8
1
  6
Continuous
 62
     7
100
AcDbCircle
 10
68.00110544982039
 20
273.2376257463588
 30
0.0
 40
3.467500050768317
100
AcDbArc
 50
-137.5766003475906
 51
-135.1016581317787
  0
ARC
  5
267
330
5D
100
AcDbEntity
  8
1
  6
Continuous
 62
     7
100
AcDbCircle
 10
67.95534151632137
 20
273.1958032460624
 30
0.0
 40
3.405504412693125
100
AcDbArc
 50
-140.0960707231229
 51
-137.5766003475916
  0
ARC
  5
268
330
5D
100
AcDbEntity
  8
1
  6
Continuous
 62
     7
100
AcDbCircle
 10
67.65907732206927
 20
272.9480534061236
 30
0.0
 40
3.019301802674051
100
AcDbArc
 50
-142.9375036232104
 51
-140.0960707231216
  0
ARC
  5
269
330
5D
100
AcDbEntity
  8
1
  6
Continuous
 62
     7
100
AcDbCircle
 10
67.61726552329176
 20
272.9164743923882
 30
0.0
 40
2.966904659378727
100
AcDbArc
 50
-145.8303028980619
 51
-142.937503623211
  0
ARC
  5
26A
330
5D
100
AcDbEntity
  8
1
  6
Continuous
 62
     7
100
AcDbCircle
 10
67.36749775564977
 20
272.7469254323104
 30
0.0
 40
2.665025896269569
100
AcDbArc
 50
-148.7291301953135
 51
-145.8303028980632
  0
ARC
  5
26B
330
5D
100
AcDbEntity
  8
1
  6
Continuous
 62
     7
100
AcDbCircle
 10
67.34726894334818
 20
272.7346402039815
 30
0.0
 40
2.641358795006001
100
AcDbArc
 50
-151.6546868768894
 51
-148.7291301953143
  0
ARC
  5
26C
330
5D
100
AcDbEntity
  8
1
  6
Continuous
 62
     7
100
AcDbCircle
 10
67.10993268445367
 20
272.6066055728447
 30
0.0
 40
2.37168980057683
100
AcDbArc
 50
-154.9119595528059
 51
-151.6546868768872
  0
ARC
  5
26D
330
5D
100
AcDbEntity
  8
1
  6
Continuous
 62
     7
100
AcDbCircle
 10
67.07624339954327
 20
272.5908329329221
 30
0.0
 40
2.33449108974026
100
AcDbArc
 50
-158.219968182274
 51
-154.9119595528068
  0
ARC
  5
26E
330
5D
100
AcDbEntity
  8
1
  6
Continuous
 62
     7
100
AcDbCircle
 10
66.86990709850417
 20
272.5083877032722
 30
0.0
 40
2.112293238673916
100
AcDbArc
 50
-161.876736130063
 51
-158.2199681822744
  0
ARC
  5
26F
330
5D
100
AcDbEntity
  8
1
  6
Continuous
 62
     7
100
AcDbCircle
 10
66.84804849746757
 20
272.5012333864488
 30
0.0
 40
2.089293615014253
100
AcDbArc
 50
-168.7976217525918
 51
-161.8767361300646
  0
ARC
  5
270
330
5D
100
AcDbEntity
  8
1
  6
Continuous
 62
     7
100
AcDbCircle
 10
66.72062549516437
 20
272.4759974560564
 30
0.0
 40
1.959395679315699
100
AcDbArc
 50
-174.3329218835758
 51
-168.797621752589
  0
ARC
  5
271
330
5D
100
AcDbEntity
  8
1
  6
Continuous
 62
     7
100
AcDbCircle
 10
66.71563026568657
 20
272.475501764535
 30
0.0
 40
1.954375915614117
100
AcDbArc
 50
-178.0306705209233
 51
-174.3329218835755
  0
ARC
  5
272
330
5D
100
AcDbEntity
  8
1
  6
Continuous
 62
     7
100
AcDbCircle
 10
66.56135340368996
 20
272.4701969816173
 30
0.0
 40
1.800007878542561
100
AcDbArc
 50
179.9623169177571
 51
-178.0306705209223
  0
ARC
  5
273
330
5D
100
AcDbEntity
  8
1
  6
Continuous
 62
     7
100
AcDbCircle
 10
71.41341326227934
 20
140.8420514725464
 30
0.0
 40
15.49999999999993
100
AcDbArc
 50
-124.585379084839
 51
-119.3296246454839
  0
ARC
  5
274
330
5D
100
AcDbEntity
  8
1
  6
Continuous
 62
     7
100
AcDbCircle
 10
71.41341326227934
 20
140.8420514725464
 30
0.0
 40
10.50000000000001
100
AcDbArc
 50
-43.69004002076458
 51
0.0
  0
ARC
  5
275
330
5D
100
AcDbEntity
  8
1
  6
Continuous
 62
     7
100
AcDbCircle
 10
71.41341326227934
 20
140.8420514725464
 30
0.0
 40
10.5
100
AcDbArc
 50
0.0
 51
-136.3099599792353
  0
ARC
  5
276
330
5D
100
AcDbEntity
  8
1
  6
Continuous
 62
     7
100
AcDbCircle
 10
71.41341326227934
 20
140.8420514725464
 30
0.0
 40
8.19999999999998
100
AcDbArc
 50
-22.19487395057178
 51
0.0
  0
ARC
  5
277
330
5D
100
AcDbEntity
  8
1
  6
Continuous
 62
     7
100
AcDbCircle
 10
71.41341326227934
 20
140.8420514725464
 30
0.0
 40
8.200000000000017
100
AcDbArc
 50
0.0
 51
-157.8051260494274
  0
ARC
  5
278
330
5D
100
AcDbEntity
  8
1
  6
Continuous
 62
     7
100
AcDbCircle
 10
71.41341326227934
 20
140.8420514725464
 30
0.0
 40
15.50000000000004
100
AcDbArc
 50
55.41462091516108
 51
64.5853790848391
  0
ARC
  5
279
330
5D
100
AcDbEntity
  8
1
  6
Continuous
 62
     7
100
AcDbCircle
 10
71.41341326227934
 20
140.8420514725464
 30
0.0
 40
15.5
100
AcDbArc
 50
0.0
 51
4.58537908483926
  0
ARC
  5
27A
330
5D
100
AcDbEntity
  8
1
  6
Continuous
 62
     7
100
AcDbCircle
 10
71.41341326227934
 20
140.8420514725464
 30
0.0
 40
15.49999999999996
100
AcDbArc
 50
-60.670375354516
 51
-55.41462091516084
  0
ARC
  5
27B
330
5D
100
AcDbEntity
  8
1
  6
Continuous
 62
     7
100
AcDbCircle
 10
71.41341326227934
 20
140.8420514725464
 30
0.0
 40
15.49999999999999
100
AcDbArc
 50
180.0
 51
-175.4146209151612
  0
ARC
  5
27C
330
5D
100
AcDbEntity
  8
1
  6
Continuous
 62
     7
100
AcDbCircle
 10
71.41341326227934
 20
140.8420514725464
 30
0.0
 40
15.49999999999998
100
AcDbArc
 50
115.4146209151608
 51
124.5853790848388
  0
ARC
  5
27D
330
5D
100
AcDbEntity
  8
1
  6
Continuous
 62
     7
100
AcDbCircle
 10
71.41341326227934
 20
140.8420514725464
 30
0.0
 40
15.50000000000002
100
AcDbArc
 50
175.4146209151608
 51
180.0
  0
ARC
  5
27E
330
5D
100
AcDbEntity
  8
1
  6
Continuous
 62
     7
100
AcDbCircle
 10
71.41341326227934
 20
140.8420514725464
 30
0.0
 40
15.49999999999996
100
AcDbArc
 50
-4.58537908483884
 51
0.0
  0
SPLINE
  5
27F
330
5D
100
AcDbEntity
  8
1
  6
Continuous
 62
     7
100
AcDbSpline
210
0.0
220
0.0
230
1.0
 70
    11
 71
     3
 72
    79
 73
    75
 74
    73
 42
0.0000000001
 43
0.0000000001
 44
0.00000001
 40
0.0
 40
0.0
 40
0.0
 40
0.0
 40
0.2903672562529017
 40
0.5807357597934013
 40
0.8724071051836768
 40
1.16408191821747
 40
1.458189931540026
 40
1.752302927360516
 40
2.049663207833689
 40
2.34702911312623
 40
2.648045792769511
 40
2.949067942939126
 40
3.253697753141623
 40
3.55833228190915
 40
3.866104864362574
 40
4.173881026138579
 40
4.483966067735027
 40
4.794053328113924
 40
5.105362224075975
 40
5.416671870214149
 40
5.727981516352378
 40
6.0392904123146
 40
6.349377672693548
 40
6.659462714290056
 40
6.967238876066013
 40
7.275011458519379
 40
7.57964598728705
 40
7.884275797489596
 40
8.185297947659164
 40
8.486314627302331
 40
8.783680532594767
 40
9.081040813067904
 40
9.375153808888404
 40
9.669261822211022
 40
9.960936635244853
 40
10.25260798063516
 40
10.54297648417566
 40
10.83334374042856
 40
11.12371099668153
 40
11.41407950022208
 40
11.70575084561239
 40
11.99742565864622
 40
12.2915336719688
 40
12.58564666778926
 40
12.88300694826238
 40
13.18037285355491
 40
13.48138953319806
 40
13.78241168336758
 40
14.08704149357017
 40
14.3916760223378
 40
14.69944860479125
 40
15.00722476656717
 40
15.31730980816366
 40
15.6273970685426
 40
15.93870596450482
 40
16.25001561064305
 40
16.56132525678116
 40
16.87263415274327
 40
17.18272141312221
 40
17.49280645471859
 40
17.80058261649458
 40
18.10835519894802
 40
18.41298972771559
 40
18.71761953791811
 40
19.01864168808771
 40
19.31965836773094
 40
19.61702427302347
 40
19.91438455349666
 40
20.20849754931712
 40
20.50260556263971
 40
20.7942803756735
 40
21.08595172106378
 40
21.37632022460432
 40
21.66668748085729
 40
21.66668748085729
 40
21.66668748085729
 40
21.66668748085729
 10
59.28905760929706
 20
268.9006666213857
 30
0.0
 10
59.19223379956306
 20
268.9032982187885
 30
0.0
 10
58.99858576418337
 20
268.9085614248982
 30
0.0
 10
58.7102248857951
 20
268.9508564985921
 30
0.0
 10
58.42651274254888
 20
269.0180673916341
 30
0.0
 10
58.14908768018868
 20
269.112122557186
 30
0.0
 10
57.88076676911276
 20
269.2315540151017
 30
0.0
 10
57.62276700600239
 20
269.3758295107714
 30
0.0
 10
57.37796500298013
 20
269.5434335861344
 30
0.0
 10
57.14726877813631
 20
269.7335961404357
 30
0.0
 10
56.93337307106741
 20
269.9442188608754
 30
0.0
 10
56.73699952868829
 20
270.1744404768243
 30
0.0
 10
56.56045018371936
 20
270.4216769003304
 30
0.0
 10
56.40434738723951
 20
270.6849110746778
 30
0.0
 10
56.27045837281703
 20
270.9612746293533
 30
0.0
 10
56.15933035599856
 20
271.2494880733027
 30
0.0
 10
56.07213959619916
 20
271.5466265165383
 30
0.0
 10
56.00931398974038
 20
271.8510496706477
 30
0.0
 10
55.97146543996607
 20
272.1599862830134
 30
0.0
 10
55.95880317800835
 20
272.4713808356572
 30
0.0
 10
55.97146543996608
 20
272.7827753882997
 30
0.0
 10
56.00931398974037
 20
273.09171200067
 30
0.0
 10
56.07213959619914
 20
273.3961351547628
 30
0.0
 10
56.15933035599853
 20
273.6932735980608
 30
0.0
 10
56.27045837281708
 20
273.9814870417786
 30
0.0
 10
56.40434738723956
 20
274.2578505973147
 30
0.0
 10
56.56045018371933
 20
274.5210847684812
 30
0.0
 10
56.73699952868827
 20
274.7683212037865
 30
0.0
 10
56.93337307106736
 20
274.9985427762005
 30
0.0
 10
57.14726877813634
 20
275.2091656580514
 30
0.0
 10
57.37796500298009
 20
275.3993276169583
 30
0.0
 10
57.62276700600231
 20
275.5669339005783
 30
0.0
 10
57.88076676911274
 20
275.7112012410621
 30
0.0
 10
58.14908768018868
 20
275.8306629804192
 30
0.0
 10
58.42651274254887
 20
275.9246060274878
 30
0.0
 10
58.71022488579511
 20
275.9922339999355
 30
0.0
 10
58.99858576418335
 20
276.0329791247842
 30
0.0
 10
59.2890576092971
 20
276.0466530027114
 30
0.0
 10
59.5795294544108
 20
276.0329791247842
 30
0.0
 10
59.86789033279913
 20
275.9922339999356
 30
0.0
 10
60.15160247604535
 20
275.9246060274878
 30
0.0
 10
60.42902753840556
 20
275.8306629804193
 30
0.0
 10
60.69734844948145
 20
275.7112012410622
 30
0.0
 10
60.95534821259181
 20
275.5669339005781
 30
0.0
 10
61.20015021561417
 20
275.3993276169586
 30
0.0
 10
61.43084644045788
 20
275.2091656580513
 30
0.0
 10
61.64474214752684
 20
274.9985427762005
 30
0.0
 10
61.8411156899059
 20
274.7683212037865
 30
0.0
 10
62.01766503487475
 20
274.5210847684812
 30
0.0
 10
62.17376783135461
 20
274.2578505973146
 30
0.0
 10
62.30765684577711
 20
273.9814870417785
 30
0.0
 10
62.41878486259579
 20
273.6932735980609
 30
0.0
 10
62.50597562239506
 20
273.3961351547627
 30
0.0
 10
62.56880122885379
 20
273.0917120006701
 30
0.0
 10
62.60664977862805
 20
272.7827753882996
 30
0.0
 10
62.61931204058581
 20
272.4713808356573
 30
0.0
 10
62.60664977862807
 20
272.1599862830134
 30
0.0
 10
62.56880122885376
 20
271.8510496706477
 30
0.0
 10
62.50597562239508
 20
271.5466265165383
 30
0.0
 10
62.41878486259571
 20
271.2494880733027
 30
0.0
 10
62.30765684577725
 20
270.9612746293532
 30
0.0
 10
62.17376783135478
 20
270.6849110746778
 30
0.0
 10
62.0176650348748
 20
270.4216769003305
 30
0.0
 10
61.84111568990586
 20
270.1744404768243
 30
0.0
 10
61.64474214752678
 20
269.9442188608755
 30
0.0
 10
61.43084644045792
 20
269.7335961404356
 30
0.0
 10
61.20015021561414
 20
269.5434335861345
 30
0.0
 10
60.95534821259187
 20
269.3758295107714
 30
0.0
 10
60.69734844948145
 20
269.2315540151018
 30
0.0
 10
60.42902753840557
 20
269.1121225571858
 30
0.0
 10
60.15160247604536
 20
269.0180673916342
 30
0.0
 10
59.86789033279912
 20
268.950856498592
 30
0.0
 10
59.5795294544108
 20
268.9085614248983
 30
0.0
 10
59.38588141903109
 20
268.9032982187886
 30
0.0
 10
59.28905760929706
 20
268.9006666213857
 30
0.0
 11
59.28905760929706
 21
268.9006666213857
 31
0.0
 11
58.99900984749905
 21
268.9142842342382
 31
0.0
 11
58.71149792296336
 21
268.9549137936517
 31
0.0
 11
58.42776061309478
 21
269.0224808914902
 31
0.0
 11
58.15148709543956
 21
269.1160070375709
 31
0.0
 11
57.88277003334082
 21
269.2355506030086
 31
0.0
 11
57.62604077234087
 21
269.3790516164438
 31
0.0
 11
57.38062348255871
 21
269.5469607891506
 31
0.0
 11
57.15112437430597
 21
269.7360550538485
 31
0.0
 11
56.93656981526911
 21
269.9471886196782
 31
0.0
 11
56.74116799576979
 21
270.1761699809919
 31
0.0
 11
56.56406459062956
 21
270.4240282169893
 31
0.0
 11
56.40862795384638
 21
270.6860237285214
 31
0.0
 11
56.27437472522327
 21
270.9629714367883
 31
0.0
 11
56.16360830943609
 21
271.250124648317
 31
0.0
 11
56.07625055396311
 21
271.5476500347643
 31
0.0
 11
56.01355386044838
 21
271.8513328193794
 31
0.0
 11
55.97567144047923
 21
272.1603282092518
 31
0.0
 11
55.96302393538457
 21
272.471380835657
 31
0.0
 11
55.97567144047923
 21
272.7824334620622
 31
0.0
 11
56.01355386044838
 21
273.0914288519348
 31
0.0
 11
56.07625055396309
 21
273.39511163655
 31
0.0
 11
56.16360830943609
 21
273.6926370229973
 31
0.0
 11
56.27437472522328
 21
273.9797902345259
 31
0.0
 11
56.40862795384638
 21
274.2567379427928
 31
0.0
 11
56.56406459062955
 21
274.5187334543251
 31
0.0
 11
56.74116799576979
 21
274.7665916903225
 31
0.0
 11
56.9365698152691
 21
274.9955730516362
 31
0.0
 11
57.15112437430597
 21
275.2067066174657
 31
0.0
 11
57.38062348255867
 21
275.3958008821635
 31
0.0
 11
57.62604077234079
 21
275.5637100548703
 31
0.0
 11
57.88277003334078
 21
275.7072110683054
 31
0.0
 11
58.15148709543956
 21
275.8267546337432
 31
0.0
 11
58.42776061309478
 21
275.920280779824
 31
0.0
 11
58.71149792296336
 21
275.9878478776626
 31
0.0
 11
58.99900984749904
 21
276.0284774370762
 31
0.0
 11
59.28905760929706
 21
276.0420950499286
 31
0.0
 11
59.57910537109515
 21
276.0284774370762
 31
0.0
 11
59.86661729563087
 21
275.9878478776626
 31
0.0
 11
60.15035460549945
 21
275.920280779824
 31
0.0
 11
60.42662812315467
 21
275.8267546337432
 31
0.0
 11
60.69534518525342
 21
275.7072110683054
 31
0.0
 11
60.95207444625337
 21
275.5637100548703
 31
0.0
 11
61.19749173603555
 21
275.3958008821637
 31
0.0
 11
61.42699084428827
 21
275.2067066174657
 31
0.0
 11
61.6415454033251
 21
274.9955730516362
 31
0.0
 11
61.83694722282436
 21
274.7665916903225
 31
0.0
 11
62.01405062796458
 21
274.518733454325
 31
0.0
 11
62.16948726474777
 21
274.2567379427928
 31
0.0
 11
62.30374049337094
 21
273.9797902345259
 31
0.0
 11
62.41450690915818
 21
273.6926370229973
 31
0.0
 11
62.50186466463113
 21
273.39511163655
 31
0.0
 11
62.56456135814577
 21
273.0914288519348
 31
0.0
 11
62.60244377811492
 21
272.7824334620622
 31
0.0
 11
62.61509128320958
 21
272.471380835657
 31
0.0
 11
62.60244377811492
 21
272.1603282092519
 31
0.0
 11
62.56456135814577
 21
271.8513328193794
 31
0.0
 11
62.5018646646311
 21
271.5476500347642
 31
0.0
 11
62.41450690915818
 21
271.250124648317
 31
0.0
 11
62.30374049337102
 21
270.9629714367883
 31
0.0
 11
62.16948726474789
 21
270.6860237285214
 31
0.0
 11
62.01405062796464
 21
270.4240282169893
 31
0.0
 11
61.83694722282436
 21
270.1761699809919
 31
0.0
 11
61.64154540332507
 21
269.9471886196782
 31
0.0
 11
61.42699084428827
 21
269.7360550538485
 31
0.0
 11
61.19749173603555
 21
269.5469607891506
 31
0.0
 11
60.95207444625337
 21
269.3790516164438
 31
0.0
 11
60.69534518525342
 21
269.2355506030087
 31
0.0
 11
60.42662812315467
 21
269.1160070375709
 31
0.0
 11
60.15035460549945
 21
269.0224808914902
 31
0.0
 11
59.86661729563087
 21
268.9549137936517
 31
0.0
 11
59.57910537109514
 21
268.9142842342382
 31
0.0
 11
59.28905760929706
 21
268.9006666213857
 31
0.0
  0
SPLINE
  5
280
330
5D
100
AcDbEntity
  8
1
  6
Continuous
 62
     7
100
AcDbSpline
210
0.0
220
0.0
230
1.0
 70
    11
 71
     3
 72
    79
 73
    75
 74
    73
 42
0.0000000001
 43
0.0000000001
 44
0.00000001
 40
0.0
 40
0.0
 40
0.0
 40
0.0
 40
0.2903672562529513
 40
0.5807357597934861
 40
0.8724071051837685
 40
1.164081918217556
 40
1.458189931540072
 40
1.752302927360525
 40
2.049663207833707
 40
2.347029113126317
 40
2.648045792769583
 40
2.949067942939175
 40
3.253697753141651
 40
3.558332281909178
 40
3.866104864362627
 40
4.173881026138655
 40
4.483966067735113
 40
4.794053328114002
 40
5.105362224076046
 40
5.416671870214217
 40
5.727981516352445
 40
6.039290412314659
 40
6.349377672693603
 40
6.659462714290115
 40
6.967238876066094
 40
7.275011458519486
 40
7.579645987287104
 40
7.88427579748968
 40
8.185297947659176
 40
8.486314627302374
 40
8.783680532594879
 40
9.081040813068002
 40
9.375153808888477
 40
9.669261822211068
 40
9.960936635244904
 40
10.2526079806352
 40
10.54297648417573
 40
10.83334374042869
 40
11.12371099668161
 40
11.4140795002221
 40
11.70575084561239
 40
11.99742565864623
 40
12.29153367196882
 40
12.5856466677893
 40
12.88300694826245
 40
13.18037285355502
 40
13.48138953319821
 40
13.78241168336763
 40
14.08704149357023
 40
14.39167602233789
 40
14.69944860479131
 40
15.00722476656721
 40
15.31730980816366
 40
15.62739706854267
 40
15.93870596450489
 40
16.25001561064312
 40
16.56132525678124
 40
16.87263415274334
 40
17.1827214131223
 40
17.49280645471869
 40
17.80058261649463
 40
18.10835519894811
 40
18.4129897277156
 40
18.71761953791813
 40
19.01864168808772
 40
19.31965836773097
 40
19.61702427302357
 40
19.91438455349677
 40
20.20849754931723
 40
20.50260556263983
 40
20.79428037567363
 40
21.0859517210639
 40
21.37632022460439
 40
21.6666874808573
 40
21.6666874808573
 40
21.6666874808573
 40
21.6666874808573
 10
83.53776891526138
 20
268.9006666213857
 30
0.0
 10
83.6345927249954
 20
268.9032982187886
 30
0.0
 10
83.82824076037514
 20
268.9085614248983
 30
0.0
 10
84.11660163876341
 20
268.950856498592
 30
0.0
 10
84.40031378200966
 20
269.0180673916341
 30
0.0
 10
84.67773884436984
 20
269.112122557186
 30
0.0
 10
84.94605975544575
 20
269.2315540151018
 30
0.0
 10
85.20405951855602
 20
269.3758295107715
 30
0.0
 10
85.44886152157842
 20
269.5434335861343
 30
0.0
 10
85.67955774642218
 20
269.7335961404356
 30
0.0
 10
85.89345345349112
 20
269.9442188608754
 30
0.0
 10
86.08982699587018
 20
270.1744404768243
 30
0.0
 10
86.26637634083906
 20
270.4216769003304
 30
0.0
 10
86.42247913731892
 20
270.6849110746778
 30
0.0
 10
86.55636815174147
 20
270.9612746293533
 30
0.0
 10
86.66749616856005
 20
271.2494880733028
 30
0.0
 10
86.75468692835943
 20
271.5466265165383
 30
0.0
 10
86.81751253481818
 20
271.8510496706476
 30
0.0
 10
86.85536108459245
 20
272.1599862830135
 30
0.0
 10
86.86802334655006
 20
272.4713808356572
 30
0.0
 10
86.85536108459243
 20
272.7827753882996
 30
0.0
 10
86.81751253481819
 20
273.09171200067
 30
0.0
 10
86.75468692835943
 20
273.3961351547628
 30
0.0
 10
86.66749616856004
 20
273.6932735980608
 30
0.0
 10
86.55636815174145
 20
273.9814870417786
 30
0.0
 10
86.4224791373189
 20
274.2578505973148
 30
0.0
 10
86.26637634083907
 20
274.5210847684812
 30
0.0
 10
86.08982699587025
 20
274.7683212037865
 30
0.0
 10
85.89345345349111
 20
274.9985427762005
 30
0.0
 10
85.67955774642221
 20
275.2091656580512
 30
0.0
 10
85.44886152157841
 20
275.3993276169584
 30
0.0
 10
85.20405951855614
 20
275.5669339005783
 30
0.0
 10
84.94605975544576
 20
275.7112012410621
 30
0.0
 10
84.67773884436986
 20
275.8306629804193
 30
0.0
 10
84.40031378200968
 20
275.9246060274879
 30
0.0
 10
84.11660163876339
 20
275.9922339999354
 30
0.0
 10
83.82824076037517
 20
276.0329791247844
 30
0.0
 10
83.53776891526135
 20
276.0466530027112
 30
0.0
 10
83.24729707014771
 20
276.0329791247843
 30
0.0
 10
82.95893619175942
 20
275.9922339999355
 30
0.0
 10
82.6752240485132
 20
275.9246060274878
 30
0.0
 10
82.39779898615302
 20
275.8306629804193
 30
0.0
 10
82.12947807507709
 20
275.7112012410621
 30
0.0
 10
81.87147831196671
 20
275.5669339005782
 30
0.0
 10
81.62667630894428
 20
275.3993276169585
 30
0.0
 10
81.39598008410057
 20
275.2091656580513
 30
0.0
 10
81.18208437703171
 20
274.9985427762003
 30
0.0
 10
80.98571083465255
 20
274.7683212037865
 30
0.0
 10
80.80916148968375
 20
274.5210847684812
 30
0.0
 10
80.65305869320379
 20
274.2578505973147
 30
0.0
 10
80.51916967878135
 20
273.9814870417784
 30
0.0
 10
80.40804166196284
 20
273.6932735980609
 30
0.0
 10
80.3208509021634
 20
273.3961351547627
 30
0.0
 10
80.25802529570466
 20
273.09171200067
 30
0.0
 10
80.22017674593036
 20
272.7827753882996
 30
0.0
 10
80.20751448397265
 20
272.4713808356572
 30
0.0
 10
80.22017674593037
 20
272.1599862830135
 30
0.0
 10
80.25802529570466
 20
271.8510496706477
 30
0.0
 10
80.32085090216344
 20
271.5466265165382
 30
0.0
 10
80.40804166196284
 20
271.2494880733028
 30
0.0
 10
80.51916967878137
 20
270.9612746293533
 30
0.0
 10
80.65305869320375
 20
270.6849110746778
 30
0.0
 10
80.80916148968373
 20
270.4216769003305
 30
0.0
 10
80.98571083465255
 20
270.1744404768244
 30
0.0
 10
81.18208437703163
 20
269.9442188608754
 30
0.0
 10
81.39598008410056
 20
269.7335961404357
 30
0.0
 10
81.6266763089443
 20
269.5434335861343
 30
0.0
 10
81.87147831196668
 20
269.3758295107715
 30
0.0
 10
82.12947807507707
 20
269.2315540151018
 30
0.0
 10
82.39779898615298
 20
269.1121225571859
 30
0.0
 10
82.6752240485132
 20
269.0180673916342
 30
0.0
 10
82.95893619175942
 20
268.950856498592
 30
0.0
 10
83.24729707014771
 20
268.9085614248984
 30
0.0
 10
83.44094510552739
 20
268.9032982187886
 30
0.0
 10
83.53776891526138
 20
268.9006666213857
 30
0.0
 11
83.53776891526138
 21
268.9006666213857
 31
0.0
 11
83.82781667705945
 21
268.9142842342382
 31
0.0
 11
84.11532860159517
 21
268.9549137936517
 31
0.0
 11
84.39906591146375
 21
269.0224808914902
 31
0.0
 11
84.67533942911896
 21
269.1160070375709
 31
0.0
 11
84.94405649121767
 21
269.2355506030086
 31
0.0
 11
85.20078575221757
 21
269.3790516164438
 31
0.0
 11
85.44620304199978
 21
269.5469607891505
 31
0.0
 11
85.67570215025256
 21
269.7360550538485
 31
0.0
 11
85.8902567092894
 21
269.9471886196782
 31
0.0
 11
86.08565852878868
 21
270.1761699809919
 31
0.0
 11
86.26276193392889
 21
270.4240282169893
 31
0.0
 11
86.41819857071207
 21
270.6860237285214
 31
0.0
 11
86.55245179933523
 21
270.9629714367883
 31
0.0
 11
86.66321821512247
 21
271.250124648317
 31
0.0
 11
86.75057597059549
 21
271.5476500347643
 31
0.0
 11
86.81327266411017
 21
271.8513328193794
 31
0.0
 11
86.85115508407927
 21
272.1603282092518
 31
0.0
 11
86.86380258917387
 21
272.471380835657
 31
0.0
 11
86.85115508407927
 21
272.7824334620622
 31
0.0
 11
86.81327266411017
 21
273.0914288519348
 31
0.0
 11
86.75057597059549
 21
273.39511163655
 31
0.0
 11
86.66321821512247
 21
273.6926370229973
 31
0.0
 11
86.55245179933522
 21
273.9797902345259
 31
0.0
 11
86.41819857071207
 21
274.2567379427928
 31
0.0
 11
86.2627619339289
 21
274.518733454325
 31
0.0
 11
86.08565852878868
 21
274.7665916903225
 31
0.0
 11
85.89025670928942
 21
274.9955730516361
 31
0.0
 11
85.67570215025256
 21
275.2067066174657
 31
0.0
 11
85.44620304199982
 21
275.3958008821636
 31
0.0
 11
85.20078575221768
 21
275.5637100548703
 31
0.0
 11
84.94405649121772
 21
275.7072110683054
 31
0.0
 11
84.67533942911896
 21
275.8267546337432
 31
0.0
 11
84.39906591146374
 21
275.920280779824
 31
0.0
 11
84.11532860159517
 21
275.9878478776626
 31
0.0
 11
83.82781667705946
 21
276.0284774370762
 31
0.0
 11
83.53776891526138
 21
276.0420950499286
 31
0.0
 11
83.24772115346335
 21
276.0284774370762
 31
0.0
 11
82.96020922892768
 21
275.9878478776626
 31
0.0
 11
82.67647191905911
 21
275.920280779824
 31
0.0
 11
82.40019840140388
 21
275.8267546337432
 31
0.0
 11
82.13148133930513
 21
275.7072110683054
 31
0.0
 11
81.87475207830516
 21
275.5637100548703
 31
0.0
 11
81.62933478852295
 21
275.3958008821637
 31
0.0
 11
81.39983568027017
 21
275.2067066174657
 31
0.0
 11
81.18528112123339
 21
274.9955730516361
 31
0.0
 11
80.98987930173416
 21
274.7665916903225
 31
0.0
 11
80.81277589659391
 21
274.518733454325
 31
0.0
 11
80.65733925981067
 21
274.2567379427928
 31
0.0
 11
80.52308603118756
 21
273.9797902345259
 31
0.0
 11
80.41231961540038
 21
273.6926370229973
 31
0.0
 11
80.32496185992738
 21
273.39511163655
 31
0.0
 11
80.26226516641268
 21
273.0914288519348
 31
0.0
 11
80.22438274644352
 21
272.7824334620622
 31
0.0
 11
80.21173524134886
 21
272.471380835657
 31
0.0
 11
80.22438274644354
 21
272.1603282092519
 31
0.0
 11
80.26226516641268
 21
271.8513328193794
 31
0.0
 11
80.3249618599274
 21
271.5476500347642
 31
0.0
 11
80.41231961540038
 21
271.250124648317
 31
0.0
 11
80.52308603118755
 21
270.9629714367884
 31
0.0
 11
80.65733925981067
 21
270.6860237285214
 31
0.0
 11
80.81277589659386
 21
270.4240282169894
 31
0.0
 11
80.98987930173408
 21
270.1761699809919
 31
0.0
 11
81.18528112123335
 21
269.9471886196782
 31
0.0
 11
81.39983568027017
 21
269.7360550538485
 31
0.0
 11
81.62933478852294
 21
269.5469607891505
 31
0.0
 11
81.87475207830516
 21
269.3790516164438
 31
0.0
 11
82.13148133930511
 21
269.2355506030087
 31
0.0
 11
82.40019840140388
 21
269.1160070375709
 31
0.0
 11
82.67647191905911
 21
269.0224808914902
 31
0.0
 11
82.96020922892768
 21
268.9549137936517
 31
0.0
 11
83.24772115346336
 21
268.9142842342383
 31
0.0
 11
83.53776891526138
 21
268.9006666213857
 31
0.0
  0
SPLINE
  5
281
330
5D
100
AcDbEntity
  8
1
  6
Continuous
 62
     7
100
AcDbSpline
210
0.0
220
0.0
230
1.0
 70
    11
 71
     3
 72
    79
 73
    75
 74
    73
 42
0.0000000001
 43
0.0000000001
 44
0.00000001
 40
0.0
 40
0.0
 40
0.0
 40
0.0
 40
0.3102615659795272
 40
0.6205595479397524
 40
0.9422163027422248
 40
1.263944877610936
 40
1.606039025452251
 40
1.948193473341074
 40
2.316051889494959
 40
2.683951052454417
 40
3.079084668228711
 40
3.474244784278226
 40
3.894897963282776
 40
4.315568211551874
 40
4.757452130783657
 40
5.19934667828412
 40
5.656354166028315
 40
6.113367482700848
 40
6.57822304178013
 40
7.043080459895811
 40
7.507937878011246
 40
7.972793437090349
 40
8.429806753762849
 40
8.886814241506961
 40
9.328708789007365
 40
9.770592708239123
 40
10.19126295650814
 40
10.61191613551259
 40
11.00707625156207
 40
11.40220986733646
 40
11.77010903029571
 40
12.13796744644943
 40
12.48012189433883
 40
12.8222160421807
 40
13.14394461704911
 40
13.46560137185135
 40
13.77589935381135
 40
14.08616091979065
 40
14.39642248577004
 40
14.70672046773021
 40
15.02837722253248
 40
15.35010579740088
 40
15.69219994524299
 40
16.0343543931327
 40
16.40221280928618
 40
16.7701119722452
 40
17.16524558801989
 40
17.56040570406965
 40
17.98105888307378
 40
18.40172913134255
 40
18.84361305057437
 40
19.28550759807482
 40
19.74251508581905
 40
20.19952840249168
 40
20.66438396157076
 40
21.12924137968625
 40
21.59409879780191
 40
22.05895435688116
 40
22.51596767355375
 40
22.9729751612981
 40
23.41486970879841
 40
23.85675362803015
 40
24.27742387629913
 40
24.69807705530358
 40
25.09323717135328
 40
25.48837078712789
 40
25.85626995008688
 40
26.22412836624034
 40
26.56628281412964
 40
26.9083769619714
 40
27.2301055368399
 40
27.55176229164214
 40
27.86206027360208
 40
28.17232183958134
 40
28.17232183958134
 40
28.17232183958134
 40
28.17232183958134
 10
173.2200179756622
 20
142.371891801736
 30
0.0
 10
173.1166093613711
 20
142.3776488336335
 30
0.0
 10
172.9097799955263
 20
142.3891635731421
 30
0.0
 10
172.6020401330022
 20
142.4582848470872
 30
0.0
 10
172.3018050608249
 20
142.5647230724804
 30
0.0
 10
172.0073097324782
 20
142.712073042601
 30
0.0
 10
171.726015383519
 20
142.8958881872182
 30
0.0
 10
171.4541845035072
 20
143.1184187170753
 30
0.0
 10
171.1997846987349
 20
143.3729751347751
 30
0.0
 10
170.9588340888554
 20
143.6634924560475
 30
0.0
 10
170.7384493439187
 20
143.9810394426124
 30
0.0
 10
170.5354704369822
 20
144.3303842324441
 30
0.0
 10
170.3554092824157
 20
144.701554813526
 30
0.0
 10
170.1963243217253
 20
145.0989546639558
 30
0.0
 10
170.0618936509883
 20
145.5128052623972
 30
0.0
 10
169.9513191226501
 20
145.946133562739
 30
0.0
 10
169.8665913097021
 20
146.3903810384874
 30
0.0
 10
169.8076969935265
 20
146.8464836806076
 30
0.0
 10
169.7753225064748
 20
147.3078542722338
 30
0.0
 10
169.7697291438577
 20
147.7729342130313
 30
0.0
 10
169.7908159912716
 20
148.2375695344394
 30
0.0
 10
169.8385454957178
 20
148.6976052120179
 30
0.0
 10
169.9126045739859
 20
149.151492217246
 30
0.0
 10
170.012087786967
 20
149.5926698600007
 30
0.0
 10
170.1370395333997
 20
150.0220731701638
 30
0.0
 10
170.2851851732204
 20
150.4312147032939
 30
0.0
 10
170.4574232695259
 20
150.8230931261947
 30
0.0
 10
170.6497519462988
 20
151.188057944939
 30
0.0
 10
170.8642584065132
 20
151.5304453482987
 30
0.0
 10
171.0951015352402
 20
151.8404730588148
 30
0.0
 10
171.3455984487368
 20
152.1227993739278
 30
0.0
 10
171.6083389498863
 20
152.3687418963775
 30
0.0
 10
171.8874334277445
 20
152.5820770136155
 30
0.0
 10
172.1746972140849
 20
152.7564690194877
 30
0.0
 10
172.4739357228991
 20
152.8937423816777
 30
0.0
 10
172.7775616777368
 20
152.9907803531101
 30
0.0
 10
173.0873939643467
 20
153.0472188633856
 30
0.0
 10
173.3981827026362
 20
153.0629963554673
 30
0.0
 10
173.7082731575301
 20
153.0368720585835
 30
0.0
 10
174.0160528556064
 20
152.970141190762
 30
0.0
 10
174.3162768829939
 20
152.8630402022974
 30
0.0
 10
174.6107752463858
 20
152.7158723556602
 30
0.0
 10
174.8920687332163
 20
152.532005477399
 30
0.0
 10
175.1638998526665
 20
152.3094893154769
 30
0.0
 10
175.4182995887061
 20
152.0549287733732
 30
0.0
 10
175.6592502177362
 20
151.764412601282
 30
0.0
 10
175.8796349571813
 20
151.4468652851413
 30
0.0
 10
176.0826138656451
 20
151.0975205869247
 30
0.0
 10
176.2626750197768
 20
150.7263499797871
 30
0.0
 10
176.4217599805864
 20
150.3289501365583
 30
0.0
 10
176.5561906512896
 20
149.9150995360945
 30
0.0
 10
176.6667651796375
 20
149.4817712363076
 30
0.0
 10
176.7514929925827
 20
149.0375237604055
 30
0.0
 10
176.8103873087589
 20
148.5814211183271
 30
0.0
 10
176.8427617958103
 20
148.1200505266894
 30
0.0
 10
176.8483551584278
 20
147.6549705858959
 30
0.0
 10
176.8272683110146
 20
147.1903352644839
 30
0.0
 10
176.779538806569
 20
146.7302995869166
 30
0.0
 10
176.7054797282994
 20
146.2764125816468
 30
0.0
 10
176.60599651532
 20
145.8352349390457
 30
0.0
 10
176.4810447688782
 20
145.4058316283279
 30
0.0
 10
176.3328991290913
 20
144.9966900972202
 30
0.0
 10
176.1606610326659
 20
144.6048116671183
 30
0.0
 10
175.9683323563272
 20
144.2398468744296
 30
0.0
 10
175.7538258945859
 20
143.8974593794548
 30
0.0
 10
175.5229827713513
 20
143.5874319985148
 30
0.0
 10
175.2724858387039
 20
143.3051045342207
 30
0.0
 10
175.0097454062868
 20
143.0591661361746
 30
0.0
 10
174.73065068899
 20
142.8458166510015
 30
0.0
 10
174.4433877647786
 20
142.6714763787734
 30
0.0
 10
174.1441462209197
 20
142.5340208931
 30
0.0
 10
173.840531310872
 20
142.437645684739
 30
0.0
 10
173.5306591887098
 20
142.37881676834
 30
0.0
 10
173.3235609956653
 20
142.3742000336302
 30
0.0
 10
173.2200179756622
 20
142.371891801736
 30
0.0
 11
173.2200179756622
 21
142.371891801736
 31
0.0
 11
172.9108286866726
 21
142.3976643238901
 31
0.0
 11
172.6075473616872
 21
142.4632789222939
 31
0.0
 11
172.3043977044512
 21
142.5708119554872
 31
0.0
 11
172.0163913119162
 21
142.7142050994866
 31
0.0
 11
171.729667513508
 21
142.9008005694574
 31
0.0
 11
171.4645118037832
 21
143.1170460683943
 31
0.0
 11
171.2040150851446
 21
143.3767791504492
 31
0.0
 11
170.9686774168762
 21
143.6595617100251
 31
0.0
 11
170.7429317508978
 21
143.9838601352553
 31
0.0
 11
170.5439538281393
 21
144.3252679611337
 31
0.0
 11
170.3599650565966
 21
144.7035499048646
 31
0.0
 11
170.2032460488932
 21
145.0939376741444
 31
0.0
 11
170.0664429165401
 21
145.5141118059684
 31
0.0
 11
169.9569063126062
 21
145.9422152087921
 31
0.0
 11
169.8711104713419
 21
146.3910970612611
 31
0.0
 11
169.81241952751
 21
146.8443260814354
 31
0.0
 11
169.7798165710223
 21
147.3080369159381
 31
0.0
 11
169.7741758514572
 21
147.772860109701
 31
0.0
 11
169.7953014746416
 21
148.2372372486969
 31
0.0
 11
169.8433372991922
 21
148.6996042569993
 31
0.0
 11
169.9170973681768
 21
149.1506260123941
 31
0.0
 11
170.017802435121
 21
149.5963998713696
 31
0.0
 11
170.141542738479
 21
150.0206157697462
 31
0.0
 11
170.2922702243741
 21
150.4359982718709
 31
0.0
 11
170.461910037107
 21
150.820947348652
 31
0.0
 11
170.6584011020622
 21
151.1928886859612
 31
0.0
 11
170.8686443394629
 21
151.5274769380615
 31
0.0
 11
171.105070366737
 21
151.8440733814122
 31
0.0
 11
171.3496997501243
 21
152.1188574036727
 31
0.0
 11
171.6187061988173
 21
152.3697664407692
 31
0.0
 11
171.8909200334318
 21
152.5770568034371
 31
0.0
 11
172.1837020334581
 21
152.753994946437
 31
0.0
 11
172.4763264021183
 21
152.8877120162266
 31
0.0
 11
172.7828907581252
 21
152.9850843096983
 31
0.0
 11
173.088189975074
 21
153.040557057412
 31
0.0
 11
173.3980663266233
 21
153.0560129971896
 31
0.0
 11
173.7072556156128
 21
153.0302404750354
 31
0.0
 11
174.0105369405981
 21
152.9646258766316
 31
0.0
 11
174.3136865978341
 21
152.8570928434388
 31
0.0
 11
174.601692990369
 21
152.71369969944
 31
0.0
 11
174.8884167887779
 21
152.5271042294688
 31
0.0
 11
175.1535724985031
 21
152.310858730531
 31
0.0
 11
175.4140692171411
 21
152.051125648476
 31
0.0
 11
175.6494068854091
 21
151.7683430889004
 31
0.0
 11
175.8751525513882
 21
151.4440446636702
 31
0.0
 11
176.0741304741472
 21
151.1026368377918
 31
0.0
 11
176.2581192456894
 21
150.7243548940611
 31
0.0
 11
176.4148382533921
 21
150.3339671247814
 31
0.0
 11
176.5516413857452
 21
149.9137929929574
 31
0.0
 11
176.6611779896792
 21
149.4856895901337
 31
0.0
 11
176.7469738309434
 21
149.0368077376646
 31
0.0
 11
176.8056647747752
 21
148.5835787174902
 31
0.0
 11
176.8382677312629
 21
148.1198678829877
 31
0.0
 11
176.8439084508283
 21
147.655044689225
 31
0.0
 11
176.8227828276445
 21
147.1906675502289
 31
0.0
 11
176.7747470030942
 21
146.7283005419263
 31
0.0
 11
176.700986934109
 21
146.2772787865315
 31
0.0
 11
176.6002818671641
 21
145.8315049275559
 31
0.0
 11
176.4765415638061
 21
145.4072890291794
 31
0.0
 11
176.3258140779111
 21
144.9919065270547
 31
0.0
 11
176.1561742651783
 21
144.6069574502736
 31
0.0
 11
175.9596832002231
 21
144.2350161129644
 31
0.0
 11
175.7494399628222
 21
143.900427860864
 31
0.0
 11
175.5130139355481
 21
143.583831417513
 31
0.0
 11
175.268384552161
 21
143.3090473952526
 31
0.0
 11
174.9993781034681
 21
143.0581383581564
 31
0.0
 11
174.7271642688534
 21
142.850847995489
 31
0.0
 11
174.4343822688271
 21
142.6739098524893
 31
0.0
 11
174.141757900167
 21
142.5401927826994
 31
0.0
 11
173.8351935441602
 21
142.4428204892272
 31
0.0
 11
173.5298943272115
 21
142.3873477415135
 31
0.0
 11
173.2200179756622
 21
142.371891801736
 31
0.0
  0
SPLINE
  5
282
330
5D
100
AcDbEntity
  8
1
  6
Continuous
 62
     7
100
AcDbSpline
210
0.0
220
0.0
230
1.0
 70
    11
 71
     3
 72
    79
 73
    75
 74
    73
 42
0.0000000001
 43
0.0000000001
 44
0.00000001
 40
0.0
 40
0.0
 40
0.0
 40
0.0
 40
0.3102615659795067
 40
0.6205595479397219
 40
0.94221630274238
 40
1.263944877611252
 40
1.606039025453009
 40
1.948193473342359
 40
2.316051889496062
 40
2.6839510524553
 40
3.079084668230022
 40
3.474244784279927
 40
3.894897963283678
 40
4.315568211551908
 40
4.757452130784198
 40
5.19934667828509
 40
5.656354166029318
 40
6.113367482701912
 40
6.578223041781155
 40
7.043080459896697
 40
7.507937878011725
 40
7.972793437090392
 40
8.429806753763344
 40
8.886814241507883
 40
9.328708789008607
 40
9.770592708240786
 40
10.19126295650896
 40
10.61191613551262
 40
11.00707625156252
 40
11.40220986733731
 40
11.77010903029696
 40
12.13796744645107
 40
12.48012189434005
 40
12.82221604218151
 40
13.14394461704987
 40
13.46560137185204
 40
13.77589935381211
 40
14.08616091979156
 40
14.39642248577107
 40
14.70672046773124
 40
15.02837722253332
 40
15.35010579740171
 40
15.69219994524353
 40
16.03435439313276
 40
16.40221280928643
 40
16.77011197224576
 40
17.16524558802056
 40
17.56040570407047
 40
17.98105888307434
 40
18.40172913134276
 40
18.84361305057468
 40
19.28550759807531
 40
19.74251508581996
 40
20.19952840249296
 40
20.66438396157147
 40
21.12924137968645
 40
21.59409879780214
 40
22.0589543568814
 40
22.51596767355402
 40
22.97297516129826
 40
23.41486970879908
 40
23.8567536280312
 40
24.27742387629941
 40
24.6980770553031
 40
25.09323717135304
 40
25.4883707871279
 40
25.8562699500871
 40
26.2241283662407
 40
26.56628281413006
 40
26.90837696197191
 40
27.23010553684035
 40
27.55176229164259
 40
27.86206027360256
 40
28.17232183958189
 40
28.17232183958189
 40
28.17232183958189
 40
28.17232183958189
 10
173.2967554689832
 20
139.5391343775523
 30
0.0
 10
173.1932444790074
 20
139.5356760715961
 30
0.0
 10
172.986210349777
 20
139.5287590537758
 30
0.0
 10
172.6770108534628
 20
139.4664915263058
 30
0.0
 10
172.3744852693713
 20
139.3667495323398
 30
0.0
 10
172.0767891253933
 20
139.2259783777183
 30
0.0
 10
171.7914805997586
 20
139.048457777935
 30
0.0
 10
171.5147731142175
 20
138.8320211093872
 30
0.0
 10
171.2547809211823
 20
138.583179211747
 30
0.0
 10
171.0074357035173
 20
138.2980865011091
 30
0.0
 10
170.7800507894722
 20
137.9855139089931
 30
0.0
 10
170.5693610040042
 20
137.640764676734
 30
0.0
 10
170.3810984373606
 20
137.2736859036555
 30
0.0
 10
170.2132241834373
 20
136.8799183317189
 30
0.0
 10
170.0696326682262
 20
136.4691563570613
 30
0.0
 10
169.9494586949552
 20
136.0383915043368
 30
0.0
 10
169.8548824798536
 20
135.5961359656117
 30
0.0
 10
169.7858700137766
 20
135.1414542745873
 30
0.0
 10
169.7432537999811
 20
134.6809167749729
 30
0.0
 10
169.7273296948432
 20
134.2160758775543
 30
0.0
 10
169.7380890926003
 20
133.7510867675813
 30
0.0
 10
169.775586756714
 20
133.2901042782981
 30
0.0
 10
169.8395440941509
 20
132.8346840113174
 30
0.0
 10
169.9292016402457
 20
132.3914051526287
 30
0.0
 10
170.0445830103425
 20
131.9593319167641
 30
0.0
 10
170.1836026811304
 20
131.5470001864013
 30
0.0
 10
170.3470923761576
 20
131.1513920725136
 30
0.0
 10
170.5312656005179
 20
130.7822445921503
 30
0.0
 10
170.7381127101585
 20
130.435176257832
 30
0.0
 10
170.9620113528661
 20
130.1200966977803
 30
0.0
 10
171.2061743384248
 20
129.8322750718381
 30
0.0
 10
171.4633861849651
 20
129.5805562578958
 30
0.0
 10
171.737672371625
 20
129.3610734849375
 30
0.0
 10
172.0209910029454
 20
129.1803427244091
 30
0.0
 10
172.3171060217279
 20
129.036455418591
 30
0.0
 10
172.6185012651023
 20
128.9326961027581
 30
0.0
 10
172.9270032580293
 20
128.8693883494556
 30
0.0
 10
173.2373647836321
 20
128.8467103308142
 30
0.0
 10
173.5479590799419
 20
128.8659392726443
 30
0.0
 10
173.8571452971922
 20
128.9258160989677
 30
0.0
 10
174.1596745630312
 20
129.0262209378042
 30
0.0
 10
174.4573696952855
 20
129.166809946465
 30
0.0
 10
174.7426785083089
 20
129.3443822862757
 30
0.0
 10
175.0193859140348
 20
129.5608045851137
 30
0.0
 10
175.2793781299812
 20
129.8096506076667
 30
0.0
 10
175.5267233412616
 20
130.0947421689824
 30
0.0
 10
175.7541082571374
 20
130.4073150907154
 30
0.0
 10
175.9647980420966
 20
130.7520642313482
 30
0.0
 10
176.1530606088855
 20
131.1191430304855
 30
0.0
 10
176.3209348627693
 20
131.5129105952199
 30
0.0
 10
176.4645263779913
 20
131.9236725719
 30
0.0
 10
176.5847003512587
 20
132.3544374240699
 30
0.0
 10
176.6792765663611
 20
132.7966929629487
 30
0.0
 10
176.7482890324376
 20
133.2513746539315
 30
0.0
 10
176.7909052462328
 20
133.7119121535571
 30
0.0
 10
176.8068293513709
 20
134.1767530509716
 30
0.0
 10
176.7960699536148
 20
134.6417421609487
 30
0.0
 10
176.7585722895015
 20
135.1027246502208
 30
0.0
 10
176.6946149520642
 20
135.5581449172432
 30
0.0
 10
176.6049574059678
 20
136.001423775778
 30
0.0
 10
176.4895760358745
 20
136.4334970121973
 30
0.0
 10
176.350556365076
 20
136.8458287405377
 30
0.0
 10
176.1870666700894
 20
137.2414368616276
 30
0.0
 10
176.002893445584
 20
137.610584315932
 30
0.0
 10
175.7960463364517
 20
137.9576527418761
 30
0.0
 10
175.5721476919128
 20
138.2727319723105
 30
0.0
 10
175.3279847127382
 20
138.5605547475754
 30
0.0
 10
175.0707728432867
 20
138.8122694366057
 30
0.0
 10
174.7964867364432
 20
139.0317665792733
 30
0.0
 10
174.5131678177346
 20
139.2124455997737
 30
0.0
 10
174.2170538106752
 20
139.3565150515525
 30
0.0
 10
173.9156548855526
 20
139.4596115225152
 30
0.0
 10
173.6071661716894
 20
139.5253099769644
 30
0.0
 10
173.4002216552121
 20
139.5345264243044
 30
0.0
 10
173.2967554689832
 20
139.5391343775523
 30
0.0
 11
173.2967554689832
 21
139.5391343775523
 31
0.0
 11
172.987069931126
 21
139.5202371035117
 31
0.0
 11
172.6824057755802
 21
139.4613763361523
 31
0.0
 11
172.3769420037223
 21
139.3606045544249
 31
0.0
 11
172.0858210981361
 21
139.2236450924742
 31
0.0
 11
171.7950226958955
 21
139.0434654730888
 31
0.0
 11
171.5251283601903
 21
138.8331639900585
 31
0.0
 11
171.2589257542753
 21
138.5792821534904
 31
0.0
 11
171.0173639268593
 21
138.3017975996112
 31
0.0
 11
170.7844694262435
 21
137.9825943322437
 31
0.0
 11
170.5779559635093
 21
137.6456912200198
 31
0.0
 11
170.3856087646201
 21
137.2715900945398
 31
0.0
 11
170.2202556587561
 21
136.8847803116242
 31
0.0
 11
170.0741517851024
 21
136.4677490703731
 31
0.0
 11
169.9551315553532
 21
136.0421847673336
 31
0.0
 11
169.8593846191394
 21
135.595319722762
 31
0.0
 11
169.7906393150242
 21
135.1435064263904
 31
0.0
 11
169.7477426978114
 21
134.6806343371059
 31
0.0
 11
169.7317769512541
 21
134.2160511754288
 31
0.0
 11
169.7425808509407
 21
133.7513193227136
 31
0.0
 11
169.7803329671812
 21
133.2879992729362
 31
0.0
 11
169.844055022948
 21
132.8354501913713
 31
0.0
 11
169.9348320128302
 21
132.3875491063508
 31
0.0
 11
170.0491174813411
 21
131.9606889151897
 31
0.0
 11
170.1905797128812
 21
131.5420603983353
 31
0.0
 11
170.3516257065632
 21
131.1534376433441
 31
0.0
 11
170.5398053028812
 21
130.7772228954467
 31
0.0
 11
170.7425635062624
 21
130.4380464984522
 31
0.0
 11
170.9718977399951
 21
130.1162757981802
 31
0.0
 11
171.2103622016285
 21
129.8361249555181
 31
0.0
 11
171.4737281141721
 21
129.5793016496335
 31
0.0
 11
171.7412696447988
 21
129.3660149983865
 31
0.0
 11
172.0300485634292
 21
129.1826161375885
 31
0.0
 11
172.3196300803174
 21
129.0424311848882
 31
0.0
 11
172.6239555724281
 21
128.9382723505945
 31
0.0
 11
172.9279470696495
 21
128.8760308272715
 31
0.0
 11
173.2374035772322
 21
128.8536945509758
 31
0.0
 11
173.5470891150894
 21
128.8725918250165
 31
0.0
 11
173.8517532706351
 21
128.9314525923761
 31
0.0
 11
174.1572170424923
 21
129.0322243741037
 31
0.0
 11
174.4483379480781
 21
129.1691838360542
 31
0.0
 11
174.7391363503193
 21
129.3493634554388
 31
0.0
 11
175.009030686025
 21
129.5596649384682
 31
0.0
 11
175.2752332919397
 21
129.8135467750365
 31
0.0
 11
175.5167951193552
 21
130.0910313289163
 31
0.0
 11
175.7496896199708
 21
130.4102345962841
 31
0.0
 11
175.9562030827051
 21
130.7471377085079
 31
0.0
 11
176.1485502815948
 21
131.1212388339878
 31
0.0
 11
176.3139033874592
 21
131.5080486169034
 31
0.0
 11
176.4600072611126
 21
131.9250798581543
 31
0.0
 11
176.5790274908613
 21
132.3506441611936
 31
0.0
 11
176.674774427075
 21
132.7975092057656
 31
0.0
 11
176.7435197311901
 21
133.2493225021377
 31
0.0
 11
176.7864163484026
 21
133.7121945914215
 31
0.0
 11
176.8023820949601
 21
134.176777753098
 31
0.0
 11
176.7915781952743
 21
134.6415096058139
 31
0.0
 11
176.7538260790341
 21
135.1048296555919
 31
0.0
 11
176.6901040232669
 21
135.5573787371565
 31
0.0
 11
176.5993270333842
 21
136.0052798221765
 31
0.0
 11
176.4850415648736
 21
136.4321400133378
 31
0.0
 11
176.3435793333341
 21
136.8507685301923
 31
0.0
 11
176.1825333396524
 21
137.2393912851837
 31
0.0
 11
175.9943537433342
 21
137.615606033081
 31
0.0
 11
175.7915955399524
 21
137.9547824300752
 31
0.0
 11
175.5622613062192
 21
138.2765531303469
 31
0.0
 11
175.323796844586
 21
138.5567039730087
 31
0.0
 11
175.0604309320432
 21
138.8135272788933
 31
0.0
 11
174.7928894014166
 21
139.026813930141
 31
0.0
 11
174.5041104827861
 21
139.2102127909396
 31
0.0
 11
174.2145289658979
 21
139.35039774364
 31
0.0
 11
173.9102034737871
 21
139.4545565779337
 31
0.0
 11
173.6062119765658
 21
139.5167981012566
 31
0.0
 11
173.2967554689832
 21
139.5391343775523
 31
0.0
  0
ARC
  5
283
330
5D
100
AcDbEntity
  8
1
  6
Continuous
 62
     7
100
AcDbCircle
 10
168.9316283859452
 20
150.6100006649776
 30
0.0
 40
0.9999999999999589
100
AcDbArc
 50
120.0000000000014
 51
132.9414028648751
  0
ARC
  5
284
330
5D
100
AcDbEntity
  8
1
  6
Continuous
 62
     7
100
AcDbCircle
 10
167.9316283859452
 20
152.3420514725464
 30
0.0
 40
0.9999999999999589
100
AcDbArc
 50
-59.99999999999865
 51
0.0
  0
ARC
  5
285
330
5D
100
AcDbEntity
  8
1
  6
Continuous
 62
     7
100
AcDbCircle
 10
168.9316283859452
 20
150.6100006649776
 30
0.0
 40
0.9999999999997922
100
AcDbArc
 50
132.9414028648751
 51
180.0
  0
ARC
  5
286
330
5D
100
AcDbEntity
  8
1
  6
Continuous
 62
     7
100
AcDbCircle
 10
169.9316283859452
 20
152.400072534277
 30
0.0
 40
0.9999999999994458
100
AcDbArc
 50
164.6624423304342
 51
179.9999999999951
  0
ARC
  5
287
330
5D
100
AcDbEntity
  8
1
  6
Continuous
 62
     7
100
AcDbCircle
 10
168.9316283859452
 20
131.0741022801153
 30
0.0
 40
0.9999999999998963
100
AcDbArc
 50
-132.9414028648695
 51
-119.9999999999981
  0
ARC
  5
288
330
5D
100
AcDbEntity
  8
1
  6
Continuous
 62
     7
100
AcDbCircle
 10
167.9316283859452
 20
129.3420514725464
 30
0.0
 40
1.0
100
AcDbArc
 50
0.0
 51
59.99999999999946
  0
ARC
  5
289
330
5D
100
AcDbEntity
  8
1
  6
Continuous
 62
     7
100
AcDbCircle
 10
168.9316283859452
 20
131.0741022801153
 30
0.0
 40
1.0
100
AcDbArc
 50
180.0
 51
-132.9414028648695
  0
ARC
  5
28A
330
5D
100
AcDbEntity
  8
1
  6
Continuous
 62
     7
100
AcDbCircle
 10
169.9316283859452
 20
129.2840304108158
 30
0.0
 40
1.0
100
AcDbArc
 50
180.0
 51
-164.6624423304446
  0
ARC
  5
28B
330
5D
100
AcDbEntity
  8
1
  6
Continuous
 62
     7
100
AcDbCircle
 10
81.18136245471038
 20
267.6138438710987
 30
0.0
 40
1.0
100
AcDbArc
 50
-90.0
 51
-42.94140286488376
  0
ARC
  5
28C
330
5D
100
AcDbEntity
  8
1
  6
Continuous
 62
     7
100
AcDbCircle
 10
82.97143432400986
 20
268.6138438710987
 30
0.0
 40
1.0
100
AcDbArc
 50
-90.0
 51
-74.66244233044966
  0
ARC
  5
28D
330
5D
100
AcDbEntity
  8
1
  6
Continuous
 62
     7
100
AcDbCircle
 10
81.18136245471038
 20
267.6138438710987
 30
0.0
 40
1.000000000000088
100
AcDbArc
 50
-42.94140286488376
 51
-30.00000000000136
  0
ARC
  5
28E
330
5D
100
AcDbEntity
  8
1
  6
Continuous
 62
     7
100
AcDbCircle
 10
82.91341326227928
 20
266.6138438710987
 30
0.0
 40
1.0
100
AcDbArc
 50
90.0
 51
150.0000000000019
  0
ARC
  5
28F
330
5D
100
AcDbEntity
  8
1
  6
Continuous
 62
     7
100
AcDbCircle
 10
61.64546406984817
 20
267.6138438710987
 30
0.0
 40
1.000000000000083
100
AcDbArc
 50
-137.058597135116
 51
-90.0
  0
ARC
  5
290
330
5D
100
AcDbEntity
  8
1
  6
Continuous
 62
     7
100
AcDbCircle
 10
59.85539220054866
 20
268.6138438710987
 30
0.0
 40
1.000000000000127
100
AcDbArc
 50
-105.3375576695543
 51
-90.0
  0
ARC
  5
291
330
5D
100
AcDbEntity
  8
1
  6
Continuous
 62
     7
100
AcDbCircle
 10
61.64546406984817
 20
267.6138438710987
 30
0.0
 40
1.000000000000051
100
AcDbArc
 50
-150.0000000000017
 51
-137.058597135116
  0
ARC
  5
292
330
5D
100
AcDbEntity
  8
1
  6
Continuous
 62
     7
100
AcDbCircle
 10
59.91341326227928
 20
266.6138438710987
 30
0.0
 40
0.9999999999999589
100
AcDbArc
 50
30.00000000000136
 51
90.0
  0
ENDBLK
  5
5F
330
5D
100
AcDbEntity
  8
0
100
AcDbBlockEnd
  0
BLOCK
  5
61
330
60
100
AcDbEntity
  8
0
100
AcDbBlockBegin
  2
75-2
 70
     0
 71
     0
 10
35.6902382145207
 20
5.62522389759565
 30
0.0
  3
75-2
  1

  0
LINE
  5
293
330
60
100
AcDbEntity
  8
1
  6
Continuous
 62
     7
100
AcDbLine
 10
72.94577216885507
 20
103.9847212601494
 30
0.0
 11
72.31356575460265
 21
103.3525148458971
 31
0.0
  0
LINE
  5
294
330
60
100
AcDbEntity
  8
1
  6
Continuous
 62
     7
100
AcDbLine
 10
72.31356575460265
 20
104.0281264645566
 30
0.0
 11
72.31356575460265
 21
103.3525148458971
 31
0.0
  0
LINE
  5
295
330
60
100
AcDbEntity
  8
1
  6
Continuous
 62
     7
100
AcDbLine
 10
70.51356572336096
 20
104.0281418609195
 30
0.0
 11
70.51356572336096
 21
103.3522098924922
 31
0.0
  0
LINE
  5
296
330
60
100
AcDbEntity
  8
1
  6
Continuous
 62
     7
100
AcDbLine
 10
68.50482982144605
 20
102.2485008084754
 30
0.0
 11
68.50482982144605
 21
99.92346636319047
 31
0.0
  0
LINE
  5
297
330
60
100
AcDbEntity
  8
1
  6
Continuous
 62
     7
100
AcDbLine
 10
74.32199670311263
 20
102.2916169821933
 30
0.0
 11
74.32199670311263
 21
99.92346636319047
 31
0.0
  0
LINE
  5
298
330
60
100
AcDbEntity
  8
1
  6
Continuous
 62
     7
100
AcDbLine
 10
72.31356575460265
 20
98.85230528560263
 30
0.0
 11
72.31356575460265
 21
103.1323823696937
 31
0.0
  0
LINE
  5
299
330
60
100
AcDbEntity
  8
1
  6
Continuous
 62
     7
100
AcDbLine
 10
74.59047627405725
 20
103.6776345051483
 30
0.0
 11
74.65622204140675
 21
103.7433802724979
 31
0.0
  0
LINE
  5
29A
330
60
100
AcDbEntity
  8
1
  6
Continuous
 62
     7
100
AcDbLine
 10
66.91587547063193
 20
101.0960569192373
 30
0.0
 11
65.20356514396414
 21
101.0960569192373
 31
0.0
  0
LINE
  5
29B
330
60
100
AcDbEntity
  8
1
  6
Continuous
 62
     7
100
AcDbLine
 10
74.59047627405725
 20
99.27529934179592
 30
0.0
 11
74.72061883707684
 21
99.14515677877625
 31
0.0
  0
LINE
  5
29C
330
60
100
AcDbEntity
  8
1
  6
Continuous
 62
     7
100
AcDbLine
 10
77.62395707011103
 20
101.0960569192373
 30
0.0
 11
75.91095105392675
 21
101.0960569192373
 31
0.0
  0
LINE
  5
29D
330
60
100
AcDbEntity
  8
1
  6
Continuous
 62
     7
100
AcDbLine
 10
75.91095105392675
 20
101.856876927707
 30
0.0
 11
77.62395707011103
 21
101.856876927707
 31
0.0
  0
LINE
  5
29E
330
60
100
AcDbEntity
  8
1
  6
Continuous
 62
     7
100
AcDbLine
 10
68.23635025050155
 20
103.6776345051483
 30
0.0
 11
68.17060448315486
 21
103.743380272495
 31
0.0
  0
LINE
  5
29F
330
60
100
AcDbEntity
  8
1
  6
Continuous
 62
     7
100
AcDbLine
 10
70.51356572336096
 20
103.3522098924922
 30
0.0
 11
69.88105435570364
 21
103.9847212601495
 31
0.0
  0
LINE
  5
2A0
330
60
100
AcDbEntity
  8
1
  6
Continuous
 62
     7
100
AcDbLine
 10
65.20286945444764
 20
101.856876927707
 30
0.0
 11
66.91587547063193
 21
101.856876927707
 31
0.0
  0
LINE
  5
2A1
330
60
100
AcDbEntity
  8
1
  6
Continuous
 62
     7
100
AcDbLine
 10
72.31356575460265
 20
99.60041900104709
 30
0.0
 11
73.02919764895896
 21
98.88478710669084
 31
0.0
  0
LINE
  5
2A2
330
60
100
AcDbEntity
  8
1
  6
Continuous
 62
     7
100
AcDbLine
 10
70.51356572336096
 20
98.85230528560263
 30
0.0
 11
70.51356572336096
 21
103.1323823696937
 31
0.0
  0
LINE
  5
2A3
330
60
100
AcDbEntity
  8
1
  6
Continuous
 62
     7
100
AcDbLine
 10
69.79762887559974
 20
98.88478710669084
 30
0.0
 11
70.51356572336096
 21
99.60072395445198
 31
0.0
  0
LINE
  5
2A4
330
60
100
AcDbEntity
  8
1
  6
Continuous
 62
     7
100
AcDbLine
 10
68.10620768748186
 20
99.14515677877625
 30
0.0
 11
68.23635025050155
 21
99.27529934179592
 31
0.0
  0
ARC
  5
2A5
330
60
100
AcDbEntity
  8
1
  6
Continuous
 62
     7
100
AcDbCircle
 10
75.91095105392675
 20
99.17706229454481
 30
0.0
 40
1.918994624692488
100
AcDbArc
 50
90.0
 51
134.6296991517853
  0
ARC
  5
2A6
330
60
100
AcDbEntity
  8
1
  6
Continuous
 62
     7
100
AcDbCircle
 10
75.23864329545175
 20
99.92346636319047
 30
0.0
 40
0.9166465923392074
100
AcDbArc
 50
137.5005082888373
 51
-134.9999999999975
  0
ARC
  5
2A7
330
60
100
AcDbEntity
  8
1
  6
Continuous
 62
     7
100
AcDbCircle
 10
67.58818322910693
 20
99.92346636319047
 30
0.0
 40
0.9166465923391938
100
AcDbArc
 50
-44.99999999999749
 51
42.49949171116274
  0
ARC
  5
2A8
330
60
100
AcDbEntity
  8
1
  6
Continuous
 62
     7
100
AcDbCircle
 10
66.91587547063193
 20
99.17706229454481
 30
0.0
 40
1.918994624692476
100
AcDbArc
 50
45.37030084821475
 51
90.0
  0
ARC
  5
2A9
330
60
100
AcDbEntity
  8
1
  6
Continuous
 62
     7
100
AcDbCircle
 10
75.91095105392675
 20
103.7758715523994
 30
0.0
 40
1.918994624692476
100
AcDbArc
 50
-134.6296991517853
 51
-90.0
  0
ARC
  5
2AA
330
60
100
AcDbEntity
  8
1
  6
Continuous
 62
     7
100
AcDbCircle
 10
75.23864329545175
 20
103.0294674837538
 30
0.0
 40
0.9166465923390732
100
AcDbArc
 50
135.0
 51
-137.500508288834
  0
ARC
  5
2AB
330
60
100
AcDbEntity
  8
1
  6
Continuous
 62
     7
100
AcDbCircle
 10
66.91587547063193
 20
103.7758715523994
 30
0.0
 40
1.918994624692388
100
AcDbArc
 50
-90.0
 51
-45.37030084821475
  0
ARC
  5
2AC
330
60
100
AcDbEntity
  8
1
  6
Continuous
 62
     7
100
AcDbCircle
 10
67.58818322910693
 20
103.0294674837538
 30
0.0
 40
0.9166465923392554
100
AcDbArc
 50
-42.49949171116601
 51
44.99999999999498
  0
SPLINE
  5
2AD
330
60
100
AcDbEntity
  8
1
  6
Continuous
 62
     7
100
AcDbSpline
210
0.0
220
0.0
230
1.0
 70
     8
 71
     3
 72
    41
 73
    37
 74
    35
 42
0.0000000001
 43
0.0000000001
 44
0.00000001
 40
0.0
 40
0.0
 40
0.0
 40
0.0
 40
0.0729288109103043
 40
0.1458278712019273
 40
0.2220831453895715
 40
0.298365467225701
 40
0.3708466343862322
 40
0.4433152334432203
 40
0.5103450017006636
 40
0.5773771625313725
 40
0.6376245902394135
 40
0.6978691714589969
 40
0.7504693758224438
 40
0.8030639671050566
 40
0.847879128882442
 40
0.8926919168914378
 40
0.9307529194663528
 40
0.9687650101172638
 40
1.002688520359969
 40
1.036543079623447
 40
1.07039748376758
 40
1.104321128346599
 40
1.142333952048638
 40
1.180394338960638
 40
1.222230631614738
 40
1.26405554111383
 40
1.310191726646571
 40
1.356333469914607
 40
1.426004539941223
 40
1.495712742741161
 40
1.625131700200867
 40
1.754651211584941
 40
1.840966302789326
 40
1.927202338673557
 40
2.000131722952079
 40
2.073101535705065
 40
2.073101535705065
 40
2.073101535705065
 40
2.073101535705065
 10
77.62395707011103
 20
101.0960569192373
 30
0.0
 10
77.6482588384897
 20
101.0966730670589
 30
0.0
 10
77.69685246157049
 20
101.0979051113506
 30
0.0
 10
77.77081271276929
 20
101.1014027929191
 30
0.0
 10
77.84566719308207
 20
101.1083166693458
 30
0.0
 10
77.92001590020627
 20
101.1183696236161
 30
0.0
 10
77.99268602706755
 20
101.1310169268247
 30
0.0
 10
78.06174568741626
 20
101.1460852547747
 30
0.0
 10
78.12828034424624
 20
101.1638639177779
 30
0.0
 10
78.18995323203384
 20
101.1837560659417
 30
0.0
 10
78.24834009126786
 20
101.2061684740336
 30
0.0
 10
78.30084279576352
 20
101.2302037851013
 30
0.0
 10
78.34931513393586
 20
101.2566002876259
 30
0.0
 10
78.39116490261642
 20
101.2840959133732
 30
0.0
 10
78.42824903289436
 20
101.313747687093
 30
0.0
 10
78.45833444285302
 20
101.3440242969617
 30
0.0
 10
78.48281888842729
 20
101.3761793705592
 30
0.0
 10
78.50024931430892
 20
101.4086714428095
 30
0.0
 10
78.51088552941224
 20
101.4424981219558
 30
0.0
 10
78.51467420364665
 20
101.4764213770052
 30
0.0
 10
78.51089209677926
 20
101.5103454113047
 30
0.0
 10
78.50026237126296
 20
101.5441743686647
 30
0.0
 10
78.4828394776878
 20
101.5766703379863
 30
0.0
 10
78.45896290146229
 20
101.6080387779905
 30
0.0
 10
78.43043318071716
 20
101.6370270540139
 30
0.0
 10
78.3968857165182
 20
101.6644483572111
 30
0.0
 10
78.35989938755904
 20
101.689645052866
 30
0.0
 10
78.31306937118148
 20
101.7165766487666
 30
0.0
 10
78.25719477571076
 20
101.7432589460738
 30
0.0
 10
78.17361410933722
 20
101.775704088754
 30
0.0
 10
78.0683269996623
 20
101.8066684899909
 30
0.0
 10
77.9553922382473
 20
101.8293586535668
 30
0.0
 10
77.85569949094429
 20
101.8436927361746
 30
0.0
 10
77.77419940027572
 20
101.8514317016697
 30
0.0
 10
77.69689073009619
 20
101.8550559732246
 30
0.0
 10
77.64827278076255
 20
101.8562698307601
 30
0.0
 10
77.62395707011103
 20
101.856876927707
 30
0.0
 11
77.62395707011103
 21
101.0960569192373
 31
0.0
 11
77.69685521433834
 21
101.0981716364773
 31
0.0
 11
77.76965981502914
 21
101.1018815030052
 31
0.0
 11
77.84559603537363
 21
101.1088498084826
 31
0.0
 11
77.92119627244534
 21
101.1190280587945
 31
0.0
 11
77.99259249383914
 21
101.1315220238833
 31
0.0
 11
78.06338089844056
 21
101.1470365210801
 31
0.0
 11
78.12812008754855
 21
101.1644096965609
 31
0.0
 11
78.19189348510285
 21
101.1850558669083
 31
0.0
 11
78.24809894934215
 21
101.2067514502164
 31
0.0
 11
78.30282924251694
 21
101.231930897695
 31
0.0
 11
78.34894825224552
 21
101.2572255303417
 31
0.0
 11
78.39281744383004
 21
101.2862373393495
 31
0.0
 11
78.42768648102634
 21
101.3143895856211
 31
0.0
 11
78.45912384308144
 21
101.3463251181226
 31
0.0
 11
78.48198941978897
 21
101.3767521672539
 31
0.0
 11
78.49973375388265
 21
101.4103684972622
 31
0.0
 11
78.50981832716907
 21
101.4427584019984
 31
0.0
 11
78.51341326464346
 21
101.4764215511006
 31
0.0
 11
78.50982486555488
 21
101.5100852418064
 31
0.0
 11
78.49974673035156
 21
101.5424772910214
 31
0.0
 11
78.48200926350779
 21
101.5760980738167
 31
0.0
 11
78.45914940173587
 21
101.6065286467929
 31
0.0
 11
78.42992683577086
 21
101.6364672008906
 31
0.0
 11
78.39765505253605
 21
101.6630727465804
 31
0.0
 11
78.35959276084624
 21
101.6891459045562
 31
0.0
 11
78.31965242026305
 21
101.7122506587404
 31
0.0
 11
78.25686586725892
 21
101.7424484527081
 31
0.0
 11
78.19195073045985
 21
101.7678503926331
 31
0.0
 11
78.06792317261751
 21
101.8048156661425
 31
0.0
 11
77.94103247992905
 21
101.8307782534213
 31
0.0
 11
77.85558829577482
 21
101.8430088038521
 31
0.0
 11
77.76973340824154
 21
101.8511077032633
 31
0.0
 11
77.69689701898483
 21
101.8547894815415
 31
0.0
 11
77.62395707011103
 21
101.856876927707
 31
0.0
  0
SPLINE
  5
2AE
330
60
100
AcDbEntity
  8
1
  6
Continuous
 62
     7
100
AcDbSpline
210
0.0
220
0.0
230
1.0
 70
     8
 71
     3
 72
    41
 73
    37
 74
    35
 42
0.0000000001
 43
0.0000000001
 44
0.00000001
 40
0.0
 40
0.0
 40
0.0
 40
0.0
 40
0.0729288109103043
 40
0.1458278712018989
 40
0.2220831453895573
 40
0.2983654672256727
 40
0.3708466343862039
 40
0.443315233443192
 40
0.5103450017006352
 40
0.5773771625313577
 40
0.6376245902393988
 40
0.6978691714589951
 40
0.7504693758224557
 40
0.803063967105029
 40
0.8478791288824145
 40
0.8926919168914103
 40
0.9307529194663338
 40
0.9687650101172382
 40
1.002688520359939
 40
1.036543079623417
 40
1.070397483767546
 40
1.104321128346544
 40
1.142333952048589
 40
1.180394338960598
 40
1.222230631614728
 40
1.264055541113831
 40
1.310191726646548
 40
1.356333469914547
 40
1.426004539941202
 40
1.495712742741166
 40
1.625131700200831
 40
1.754651211584849
 40
1.840966302789291
 40
1.92720233867355
 40
2.000131722952086
 40
2.073101535705058
 40
2.073101535705058
 40
2.073101535705058
 40
2.073101535705058
 10
65.20286945444764
 20
101.0960569192373
 30
0.0
 10
65.17856768606896
 20
101.096673067059
 30
0.0
 10
65.12997406298818
 20
101.0979051113506
 30
0.0
 10
65.05601381178943
 20
101.1014027929191
 30
0.0
 10
64.98115933147662
 20
101.1083166693458
 30
0.0
 10
64.90681062435243
 20
101.1183696236161
 30
0.0
 10
64.83414049749112
 20
101.1310169268247
 30
0.0
 10
64.76508083714245
 20
101.1460852547747
 30
0.0
 10
64.69854618031249
 20
101.1638639177779
 30
0.0
 10
64.63687329252484
 20
101.1837560659417
 30
0.0
 10
64.57848643329083
 20
101.2061684740337
 30
0.0
 10
64.52598372879511
 20
101.2302037851013
 30
0.0
 10
64.47751139062285
 20
101.2566002876259
 30
0.0
 10
64.43566162194225
 20
101.2840959133732
 30
0.0
 10
64.39857749166434
 20
101.3137476870929
 30
0.0
 10
64.36849208170568
 20
101.3440242969617
 30
0.0
 10
64.34400763613141
 20
101.3761793705593
 30
0.0
 10
64.32657721024975
 20
101.4086714428095
 30
0.0
 10
64.31594099514645
 20
101.4424981219557
 30
0.0
 10
64.31215232091208
 20
101.4764213770053
 30
0.0
 10
64.31593442777944
 20
101.5103454113047
 30
0.0
 10
64.32656415329558
 20
101.5441743686647
 30
0.0
 10
64.34398704687084
 20
101.5766703379863
 30
0.0
 10
64.36786362309633
 20
101.6080387779905
 30
0.0
 10
64.39639334384152
 20
101.6370270540139
 30
0.0
 10
64.42994080804047
 20
101.6644483572111
 30
0.0
 10
64.46692713699962
 20
101.689645052866
 30
0.0
 10
64.51375715337714
 20
101.7165766487666
 30
0.0
 10
64.56963174884788
 20
101.7432589460738
 30
0.0
 10
64.65321241522145
 20
101.7757040887539
 30
0.0
 10
64.75849952489635
 20
101.8066684899909
 30
0.0
 10
64.87143428631131
 20
101.8293586535667
 30
0.0
 10
64.97112703361437
 20
101.8436927361746
 30
0.0
 10
65.05262712428294
 20
101.8514317016697
 30
0.0
 10
65.12993579446251
 20
101.8550559732246
 30
0.0
 10
65.1785537437961
 20
101.8562698307601
 30
0.0
 10
65.20286945444764
 20
101.856876927707
 30
0.0
 11
65.20286945444764
 21
101.0960569192373
 31
0.0
 11
65.12997131022033
 21
101.0981716364773
 31
0.0
 11
65.05716670952955
 21
101.1018815030052
 31
0.0
 11
64.98123048918505
 21
101.1088498084826
 31
0.0
 11
64.90563025211336
 21
101.1190280587945
 31
0.0
 11
64.83423403071956
 21
101.1315220238833
 31
0.0
 11
64.76344562611814
 21
101.1470365210801
 31
0.0
 11
64.69870643701015
 21
101.1644096965609
 31
0.0
 11
64.63493303945583
 21
101.1850558669083
 31
0.0
 11
64.57872757521653
 21
101.2067514502164
 31
0.0
 11
64.52399728204173
 21
101.231930897695
 31
0.0
 11
64.47787827231315
 21
101.2572255303417
 31
0.0
 11
64.43400908072866
 21
101.2862373393495
 31
0.0
 11
64.39914004353236
 21
101.3143895856211
 31
0.0
 11
64.36770268147726
 21
101.3463251181226
 31
0.0
 11
64.34483710476971
 21
101.3767521672539
 31
0.0
 11
64.32709277067605
 21
101.4103684972622
 31
0.0
 11
64.31700819738964
 21
101.4427584019984
 31
0.0
 11
64.31341325991525
 21
101.4764215511006
 31
0.0
 11
64.31700165900379
 21
101.5100852418064
 31
0.0
 11
64.32707979420704
 21
101.5424772910214
 31
0.0
 11
64.34481726105082
 21
101.5760980738167
 31
0.0
 11
64.36767712282276
 21
101.6065286467929
 31
0.0
 11
64.39689968878781
 21
101.6364672008906
 31
0.0
 11
64.42917147202263
 21
101.6630727465804
 31
0.0
 11
64.46723376371241
 21
101.6891459045562
 31
0.0
 11
64.50717410429556
 21
101.7122506587404
 31
0.0
 11
64.56996065729973
 21
101.7424484527081
 31
0.0
 11
64.63487579409883
 21
101.7678503926331
 31
0.0
 11
64.75890335194113
 21
101.8048156661425
 31
0.0
 11
64.88579404462953
 21
101.8307782534213
 31
0.0
 11
64.97123822878382
 21
101.8430088038521
 31
0.0
 11
65.05709311631713
 21
101.8511077032633
 31
0.0
 11
65.12992950557386
 21
101.8547894815415
 31
0.0
 11
65.20286945444764
 21
101.856876927707
 31
0.0
  0
SPLINE
  5
2AF
330
60
100
AcDbEntity
  8
1
  6
Continuous
 62
     7
100
AcDbSpline
210
0.0
220
0.0
230
1.0
 70
     8
 71
     3
 72
    43
 73
    39
 74
    37
 42
0.0000000001
 43
0.0000000001
 44
0.00000001
 40
0.0
 40
0.0
 40
0.0
 40
0.0
 40
0.0448557869080753
 40
0.0895229396163251
 40
0.1420251006261494
 40
0.1947532320077082
 40
0.2550487073987075
 40
0.3152378983883736
 40
0.3822477256752398
 40
0.449301327170906
 40
0.5217834982860297
 40
0.5942519329266098
 40
0.6705157073703699
 40
0.7467846613848526
 40
0.8249938830368041
 40
0.9032018446844213
 40
0.9814103141242794
 40
1.059619064834742
 40
1.135885754506544
 40
1.212151672380331
 40
1.284627284801132
 40
1.357102761000298
 40
1.424135747607922
 40
1.491164181407466
 40
1.551405666528233
 40
1.611656875146488
 40
1.6642773975153
 40
1.71684951670943
 40
1.761592178230503
 40
1.806484754077331
 40
1.857965120989747
 40
1.908967469425663
 40
1.92957630798287
 40
1.950229029426262
 40
1.972260123599917
 40
1.994167356826074
 40
2.043389217812815
 40
2.093764127122939
 40
2.093764127122939
 40
2.093764127122939
 40
2.093764127122939
 10
73.02919764895185
 20
98.8847871066979
 30
0.0
 10
73.03986504588903
 20
98.87431088175944
 30
0.0
 10
73.06115497964554
 20
98.85340248805548
 30
0.0
 10
73.09692261401602
 20
98.82226661403897
 30
0.0
 10
73.13872165773378
 20
98.79462513494623
 30
0.0
 10
73.18751092896758
 20
98.76878007908384
 30
0.0
 10
73.24005750841941
 20
98.7447714065745
 30
0.0
 10
73.29836632387215
 20
98.72218064260548
 30
0.0
 10
73.36002382465611
 20
98.70229094588896
 30
0.0
 10
73.42657633862321
 20
98.6845638152478
 30
0.0
 10
73.49563402699125
 20
98.66945246558404
 30
0.0
 10
73.56829977932257
 20
98.65680181244279
 30
0.0
 10
73.64266922427514
 20
98.64693713655893
 30
0.0
 10
73.71927116728364
 20
98.63981581075475
 30
0.0
 10
73.79673260638074
 20
98.63552517013378
 30
0.0
 10
73.87494581825443
 20
98.63410364829568
 30
0.0
 10
73.95315862283817
 20
98.63553923639641
 30
0.0
 10
74.03061849367718
 20
98.63984563758442
 30
0.0
 10
74.10721842013442
 20
98.64698673767082
 30
0.0
 10
74.18158820222814
 20
98.65686515292818
 30
0.0
 10
74.25425525067135
 20
98.66951291649502
 30
0.0
 10
74.32330334519726
 20
98.68464056399468
 30
0.0
 10
74.38983399207368
 20
98.70244018142013
 30
0.0
 10
74.45150442466563
 20
98.72233224696376
 30
0.0
 10
74.5098918037542
 20
98.74474076241243
 30
0.0
 10
74.56239401888789
 20
98.76879611626212
 30
0.0
 10
74.61084184329324
 20
98.79524188839355
 30
0.0
 10
74.65266950248871
 20
98.82271701228186
 30
0.0
 10
74.68981821159201
 20
98.85228458775033
 30
0.0
 10
74.72301808964437
 20
98.88579600060061
 30
0.0
 10
74.75188497658716
 20
98.92587995251145
 30
0.0
 10
74.76813299512745
 20
98.96414242662553
 30
0.0
 10
74.77397088868058
 20
98.99441113736538
 30
0.0
 10
74.77538013709486
 20
99.01551882079525
 30
0.0
 10
74.77396658828209
 20
99.03706728767735
 30
0.0
 10
74.76765035351569
 20
99.06759828546882
 30
0.0
 10
74.74968287322976
 20
99.10450425190052
 30
0.0
 10
74.73038133482655
 20
99.13150175164543
 30
0.0
 10
74.72061883706974
 20
99.14515677878333
 30
0.0
 11
73.02919764895185
 21
98.8847871066979
 31
0.0
 11
73.06151504998233
 21
98.85368039986838
 31
0.0
 11
73.09550404820325
 21
98.82469932792478
 31
0.0
 11
73.1390752041182
 21
98.79540715690696
 31
0.0
 11
73.18549224951644
 21
98.77039288627022
 31
0.0
 11
73.24031983603231
 21
98.7453034440789
 31
0.0
 11
73.29642800693054
 21
98.72351785548355
 31
0.0
 11
73.36017097604871
 21
98.70285022763186
 31
0.0
 11
73.42494059359275
 21
98.6854985096553
 31
0.0
 11
73.49573811280703
 21
98.66996221657537
 31
0.0
 11
73.56712521958804
 21
98.65749004736975
 31
0.0
 11
73.6427228718228
 21
98.64743230065388
 31
0.0
 11
73.71866167700424
 21
98.64034349158048
 31
0.0
 11
73.79675071050225
 21
98.63600930206574
 31
0.0
 11
73.87494560726395
 21
98.63457983170856
 31
0.0
 11
73.95314074753537
 21
98.63602369114022
 31
0.0
 11
74.03122840222974
 21
98.64037419364267
 31
0.0
 11
74.1071632751555
 21
98.64748074183741
 31
0.0
 11
74.18276148825957
 21
98.65755051862752
 31
0.0
 11
74.25415511243813
 21
98.67002708956754
 31
0.0
 11
74.32494060921366
 21
98.68558691272006
 31
0.0
 11
74.38967687019157
 21
98.7029834011053
 31
0.0
 11
74.45344572444817
 21
98.72363150427289
 31
0.0
 11
74.50964536799191
 21
98.74532566466486
 31
0.0
 11
74.56437227106315
 21
98.7705283276232
 31
0.0
 11
74.61049108243604
 21
98.79586554554305
 31
0.0
 11
74.65434980207145
 21
98.82485244652443
 31
0.0
 11
74.68919921805195
 21
98.85291352215968
 31
0.0
 11
74.72064439572415
 21
98.88495325011307
 31
0.0
 11
74.75032681403935
 21
98.9270148979695
 31
0.0
 11
74.76964849991337
 21
98.97421566068542
 31
0.0
 11
74.77354599507353
 21
98.99445260112002
 31
0.0
 11
74.77490825863166
 21
99.01506034580537
 31
0.0
 11
74.77345667160171
 21
99.03704356680646
 31
0.0
 11
74.76896198429483
 21
99.05848475738998
 31
0.0
 11
74.74873630143118
 21
99.10335917495385
 31
0.0
 11
74.72061883706974
 21
99.14515677878333
 31
0.0
  0
SPLINE
  5
2B0
330
60
100
AcDbEntity
  8
1
  6
Continuous
 62
     7
100
AcDbSpline
210
0.0
220
0.0
230
1.0
 70
     8
 71
     3
 72
    27
 73
    23
 74
    21
 42
0.0000000001
 43
0.0000000001
 44
0.00000001
 40
0.0
 40
0.0
 40
0.0
 40
0.0
 40
0.0340794457132936
 40
0.067540262869173
 40
0.1486179216790082
 40
0.2331829827765407
 40
0.3468645513481018
 40
0.4587323382445611
 40
0.5978897935786973
 40
0.7376658393380691
 40
0.8922263792117304
 40
1.046563323096313
 40
1.200901771918642
 40
1.35546085278464
 40
1.495230658234091
 40
1.634394093176155
 40
1.746277721701599
 40
1.859945104044297
 40
1.944482068130094
 40
2.025576281637001
 40
2.058971108006626
 40
2.092973109329042
 40
2.092973109329042
 40
2.092973109329042
 40
2.092973109329042
 10
70.51341324665845
 20
98.85212847947318
 30
0.0
 10
70.51497359347768
 20
98.84087965122865
 30
0.0
 10
70.51806596285557
 20
98.81858618956272
 30
0.0
 10
70.52968864410798
 20
98.77015372621929
 30
0.0
 10
70.56823500649402
 20
98.71349856104889
 30
0.0
 10
70.64046644513516
 20
98.65427275878811
 30
0.0
 10
70.72987563735998
 20
98.60139557016831
 30
0.0
 10
70.84284126005787
 20
98.55574192367548
 30
0.0
 10
70.96815837556059
 20
98.51940172062983
 30
0.0
 10
71.11021604938517
 20
98.49208580576038
 30
0.0
 10
71.25899963659472
 20
98.47542308882521
 30
0.0
 10
71.41345130305695
 20
98.4700194919856
 30
0.0
 10
71.56790143404888
 20
98.4754527686209
 30
0.0
 10
71.71667976807342
 20
98.49214444214906
 30
0.0
 10
71.85873085612187
 20
98.51949207974216
 30
0.0
 10
71.98404534237297
 20
98.55585825926093
 30
0.0
 10
72.09701028604403
 20
98.60151930123658
 30
0.0
 10
72.18640383883691
 20
98.65441034405384
 30
0.0
 10
72.25857974486688
 20
98.71369665162212
 30
0.0
 10
72.29709613171738
 20
98.77031397717768
 30
0.0
 10
72.30882154458807
 20
98.81867307465787
 30
0.0
 10
72.31197488184053
 20
98.84090990101591
 30
0.0
 10
72.31356575460265
 20
98.85212847947315
 30
0.0
 11
70.51341324665845
 21
98.85212847947318
 31
0.0
 11
70.51865176698412
 21
98.8184540600287
 31
0.0
 11
70.52709275741924
 21
98.78607542563481
 31
0.0
 11
70.570139151109
 21
98.71736884117313
 31
0.0
 11
70.63400906747185
 21
98.66194426772206
 31
0.0
 11
70.73162665324909
 21
98.60368359505247
 31
0.0
 11
70.83493302619905
 21
98.56076279528085
 31
0.0
 11
70.96844853753096
 21
98.52154028122513
 31
0.0
 11
71.10563023885656
 21
98.49473498716706
 31
0.0
 11
71.25921386437935
 21
98.47738475785116
 31
0.0
 11
71.41345062653245
 21
98.47182477150588
 31
0.0
 11
71.56768781708594
 21
98.47741456891274
 31
0.0
 11
71.72126650752804
 21
98.4947954584248
 31
0.0
 11
71.85843633119087
 21
98.52162898207872
 31
0.0
 11
71.99195074371664
 21
98.5608764440702
 31
0.0
 11
72.09526728637201
 21
98.6038140539916
 31
0.0
 11
72.19285482134004
 21
98.66209738632173
 31
0.0
 11
72.25666942671775
 21
98.71754280486402
 31
0.0
 11
72.29974674360835
 21
98.78624954568187
 31
0.0
 11
72.30824118140095
 21
98.81854596893345
 31
0.0
 11
72.31356575460265
 21
98.85212847947315
 31
0.0
  0
SPLINE
  5
2B1
330
60
100
AcDbEntity
  8
1
  6
Continuous
 62
     7
100
AcDbSpline
210
0.0
220
0.0
230
1.0
 70
     8
 71
     3
 72
    43
 73
    39
 74
    37
 42
0.0000000001
 43
0.0000000001
 44
0.00000001
 40
0.0
 40
0.0
 40
0.0
 40
0.0
 40
0.0448557869080753
 40
0.0895229396163251
 40
0.1420251006261022
 40
0.194753232007611
 40
0.2550487073985903
 40
0.3152378983882645
 40
0.3822477256751848
 40
0.4493013271708922
 40
0.5217834982860128
 40
0.5942519329265394
 40
0.6705157073702995
 40
0.7467846613847822
 40
0.8249938830367195
 40
0.9032018446843225
 40
0.9814103141241806
 40
1.059619064834643
 40
1.135885754506459
 40
1.212151672380218
 40
1.284627284801078
 40
1.357102761000268
 40
1.424135747607838
 40
1.491164181407341
 40
1.55140566652814
 40
1.611656875146376
 40
1.664277397515207
 40
1.716849516709341
 40
1.76159217823047
 40
1.806484754077318
 40
1.857965120989668
 40
1.908967469425573
 40
1.929576307982805
 40
1.950229029426186
 40
1.972260123599838
 40
1.994167356825992
 40
2.043389217812746
 40
2.093764127122901
 40
2.093764127122901
 40
2.093764127122901
 40
2.093764127122901
 10
69.79762887560673
 20
98.8847871066979
 30
0.0
 10
69.78696147866958
 20
98.87431088175944
 30
0.0
 10
69.76567154491306
 20
98.85340248805548
 30
0.0
 10
69.72990391054255
 20
98.82226661403898
 30
0.0
 10
69.68810486682486
 20
98.79462513494624
 30
0.0
 10
69.63931559559109
 20
98.76878007908381
 30
0.0
 10
69.58676901613929
 20
98.74477140657453
 30
0.0
 10
69.52846020068657
 20
98.72218064260544
 30
0.0
 10
69.46680269990253
 20
98.70229094588899
 30
0.0
 10
69.40025018593545
 20
98.68456381524783
 30
0.0
 10
69.33119249756739
 20
98.66945246558404
 30
0.0
 10
69.25852674523608
 20
98.65680181244278
 30
0.0
 10
69.18415730028355
 20
98.64693713655893
 30
0.0
 10
69.10755535727503
 20
98.63981581075477
 30
0.0
 10
69.03009391817798
 20
98.63552517013372
 30
0.0
 10
68.95188070630425
 20
98.63410364829572
 30
0.0
 10
68.87366790172054
 20
98.63553923639637
 30
0.0
 10
68.79620803088152
 20
98.63984563758443
 30
0.0
 10
68.71960810442427
 20
98.64698673767077
 30
0.0
 10
68.64523832233051
 20
98.65686515292821
 30
0.0
 10
68.57257127388732
 20
98.66951291649504
 30
0.0
 10
68.5035231793614
 20
98.68464056399466
 30
0.0
 10
68.43699253248499
 20
98.70244018142014
 30
0.0
 10
68.37532209989308
 20
98.72233224696379
 30
0.0
 10
68.31693472080451
 20
98.74474076241245
 30
0.0
 10
68.26443250567081
 20
98.76879611626214
 30
0.0
 10
68.21598468126547
 20
98.79524188839355
 30
0.0
 10
68.17415702206998
 20
98.82271701228187
 30
0.0
 10
68.1370083129666
 20
98.85228458775036
 30
0.0
 10
68.10380843491421
 20
98.88579600060055
 30
0.0
 10
68.07494154797155
 20
98.92587995251154
 30
0.0
 10
68.05869352943131
 20
98.96414242662551
 30
0.0
 10
68.05285563587808
 20
98.9944111373654
 30
0.0
 10
68.05144638746374
 20
99.01551882079528
 30
0.0
 10
68.05285993627652
 20
99.03706728767735
 30
0.0
 10
68.05917617104291
 20
99.06759828546886
 30
0.0
 10
68.07714365132884
 20
99.10450425190051
 30
0.0
 10
68.09644518973211
 20
99.13150175164543
 30
0.0
 10
68.10620768748893
 20
99.14515677878333
 30
0.0
 11
69.79762887560673
 21
98.8847871066979
 31
0.0
 11
69.76531147457625
 21
98.85368039986838
 31
0.0
 11
69.73132247635533
 21
98.82469932792478
 31
0.0
 11
69.68775132044044
 21
98.79540715690696
 31
0.0
 11
69.64133427504225
 21
98.77039288627022
 31
0.0
 11
69.58650668852641
 21
98.74530344407889
 31
0.0
 11
69.53039851762817
 21
98.72351785548355
 31
0.0
 11
69.46665554850995
 21
98.70285022763186
 31
0.0
 11
69.40188593096586
 21
98.6854985096553
 31
0.0
 11
69.33108841175158
 21
98.66996221657539
 31
0.0
 11
69.25970130497063
 21
98.65749004736975
 31
0.0
 11
69.18410365273587
 21
98.64743230065388
 31
0.0
 11
69.10816484755443
 21
98.64034349158048
 31
0.0
 11
69.03007581405643
 21
98.63600930206574
 31
0.0
 11
68.95188091729474
 21
98.63457983170856
 31
0.0
 11
68.87368577702333
 21
98.63602369114022
 31
0.0
 11
68.79559812232895
 21
98.64037419364267
 31
0.0
 11
68.71966324940318
 21
98.64748074183741
 31
0.0
 11
68.64406503629914
 21
98.65755051862752
 31
0.0
 11
68.57267141212053
 21
98.67002708956755
 31
0.0
 11
68.50188591534497
 21
98.68558691272006
 31
0.0
 11
68.43714965436712
 21
98.7029834011053
 31
0.0
 11
68.37338080011055
 21
98.72363150427289
 31
0.0
 11
68.31718115656679
 21
98.74532566466488
 31
0.0
 11
68.26245425349556
 21
98.7705283276232
 31
0.0
 11
68.21633544212266
 21
98.79586554554307
 31
0.0
 11
68.17247672248723
 21
98.82485244652443
 31
0.0
 11
68.13762730650666
 21
98.85291352215968
 31
0.0
 11
68.10618212883443
 21
98.88495325011307
 31
0.0
 11
68.07649971051934
 21
98.9270148979695
 31
0.0
 11
68.05717802464535
 21
98.97421566068542
 31
0.0
 11
68.05328052948514
 21
98.99445260112003
 31
0.0
 11
68.05191826592697
 21
99.01506034580537
 31
0.0
 11
68.05336985295689
 21
99.03704356680646
 31
0.0
 11
68.05786454026375
 21
99.05848475738998
 31
0.0
 11
68.07809022312743
 21
99.10335917495385
 31
0.0
 11
68.10620768748893
 21
99.14515677878333
 31
0.0
  0
ENDBLK
  5
62
330
60
100
AcDbEntity
  8
0
100
AcDbBlockEnd
  0
BLOCK
  5
67
330
63
100
AcDbEntity
  8
0
100
AcDbBlockBegin
  2
Y12J-64X
 70
     0
 71
     0
 10
-16.85636751330465
 20
68.31676693591423
 30
0.0
  3
Y12J-64X
  1

  0
INSERT
  5
64
330
63
100
AcDbEntity
  8
0
100
AcDbBlockReference
  2
62-1A
 10
24.83752120224865
 20
-325.1235230708886
 30
0.0
  0
INSERT
  5
65
330
63
100
AcDbEntity
  8
0
100
AcDbBlockReference
  2
32-1-16
 10
64.14909989121777
 20
-182.8968728765194
 30
0.0
  0
INSERT
  5
66
330
63
100
AcDbEntity
  8
0
100
AcDbBlockReference
  2
75-2
 10
35.6902382145207
 20
5.62522389759565
 30
0.0
  0
LINE
  5
2B2
330
63
100
AcDbEntity
  8
1
  6
PHANTOM
 62
     4
100
AcDbLine
 10
137.5068089252702
 20
123.5205993247674
 30
0.0
 11
126.0863918624635
 21
99.02943589847311
 31
0.0
  0
ARC
  5
2B3
330
63
100
AcDbEntity
  8
1
  6
PHANTOM
 62
     4
100
AcDbCircle
 10
164.6960425363697
 20
110.8420514725464
 30
0.0
 40
30.0000062030032
100
AcDbArc
 50
89.9631550502442
 51
155.0
  0
ARC
  5
2B4
330
63
100
AcDbEntity
  8
1
  6
PHANTOM
 62
     4
100
AcDbCircle
 10
165.080688522984
 20
111.040239476391
 30
0.0
 40
29.80405143280505
100
AcDbArc
 50
89.29762007837174
 51
90.70237992160921
  0
ENDBLK
  5
68
330
63
100
AcDbEntity
  8
0
100
AcDbBlockEnd
  0
BLOCK
  5
2D4
330
2CD
100
AcDbEntity
  8
0
100
AcDbBlockBegin
  2
*D015
 70
     1
 71
     0
 10
0.0
 20
0.0
 30
0.0
  3
*D015
  1

  0
LINE
  5
2CE
330
2CD
100
AcDbEntity
  8
1
  6
Continuous
 62
     2
100
AcDbLine
 10
113.502466850042
 20
140.8420514725464
 30
0.0
 11
113.502466850042
 21
100.8420514725464
 31
0.0
  0
LINE
  5
2CF
330
2CD
100
AcDbEntity
  8
1
  6
Continuous
 62
     2
100
AcDbLine
 10
164.7153345096081
 20
140.8420514725464
 30
0.0
 11
112.002466850042
 21
140.8420514725464
 31
0.0
  0
LINE
  5
2D0
330
2CD
100
AcDbEntity
  8
1
  6
Continuous
 62
     2
100
AcDbLine
 10
126.931628385945
 20
100.8420514725464
 30
0.0
 11
112.002466850042
 21
100.8420514725464
 31
0.0
  0
SOLID
  5
2D1
330
2CD
100
AcDbEntity
  8
1
 62
     2
100
AcDbTrace
 10
114.1936424623758
 20
135.5920514725464
 30
0.0
 11
112.8112912377082
 21
135.5920514725464
 31
0.0
 12
113.502466850042
 22
140.8420514725464
 32
0.0
 13
113.502466850042
 23
140.8420514725464
 33
0.0
  0
SOLID
  5
2D2
330
2CD
100
AcDbEntity
  8
1
 62
     2
100
AcDbTrace
 10
112.8112912377082
 20
106.0920514725464
 30
0.0
 11
114.1936424623758
 21
106.0920514725464
 31
0.0
 12
113.502466850042
 22
100.8420514725464
 32
0.0
 13
113.502466850042
 23
100.8420514725464
 33
0.0
  0
MTEXT
  5
2D3
330
2CD
100
AcDbEntity
  8
1
 62
     7
100
AcDbMText
 10
112.002466850042
 20
118.150252282231
 30
0.0
 40
5.25
 41
0.0
 71
     7
 72
     1
  1
40
  7
CONVERTER_2
 11
0.0
 21
1.0
 31
0.0
 73
     1
 44
0.60024009603842
  0
ENDBLK
  5
2D5
330
2CD
100
AcDbEntity
  8
0
100
AcDbBlockEnd
  0
BLOCK
  5
2E1
330
2D8
100
AcDbEntity
  8
0
100
AcDbBlockBegin
  2
*D116
 70
     1
 71
     0
 10
0.0
 20
0.0
 30
0.0
  3
*D116
  1

  0
LINE
  5
2D9
330
2D8
100
AcDbEntity
  8
1
  6
Continuous
 62
     2
100
AcDbLine
 10
105.9820966096447
 20
75.31848857868604
 30
0.0
 11
120.8455443170458
 21
68.38754908613863
 31
0.0
  0
LINE
  5
2DA
330
2D8
100
AcDbEntity
  8
1
  6
Continuous
 62
     2
100
AcDbLine
 10
87.97560330930352
 20
83.71505430115178
 30
0.0
 11
105.9820966096447
 21
75.31848857868604
 31
0.0
  0
LINE
  5
2DB
330
2D8
100
AcDbEntity
  8
1
  6
Continuous
 62
     2
100
AcDbLine
 10
111.3013609190134
 20
86.72568770214662
 30
0.0
 11
105.3481692170337
 21
73.95902689813107
 31
0.0
  0
LINE
  5
2DC
330
2D8
100
AcDbEntity
  8
1
  6
Continuous
 62
     2
100
AcDbLine
 10
120.860005672217
 20
107.2242675260843
 30
0.0
 11
117.5641816089597
 21
100.1563500136471
 31
0.0
  0
LINE
  5
2DD
330
2D8
100
AcDbEntity
  8
1
  6
Continuous
 62
     2
100
AcDbLine
 10
135.723453379618
 20
100.2933280335369
 30
0.0
 11
120.2116169244347
 21
67.02808740558365
 31
0.0
  0
SOLID
  5
2DE
330
2D8
100
AcDbEntity
  8
1
 62
     2
100
AcDbTrace
 10
111.0323159274293
 20
73.72616054421536
 30
0.0
 11
110.4481090557451
 21
72.47332486487942
 31
0.0
 12
105.9820966096447
 22
75.31848857868604
 32
0.0
 13
105.9820966096447
 23
75.31848857868604
 33
0.0
  0
SOLID
  5
2DF
330
2D8
100
AcDbEntity
  8
1
 62
     2
100
AcDbTrace
 10
115.7953249992613
 20
69.9798771206093
 30
0.0
 11
116.3795318709454
 21
71.23271279994526
 31
0.0
 12
120.8455443170458
 22
68.38754908613863
 32
0.0
 13
120.8455443170458
 23
68.38754908613863
 33
0.0
  0
MTEXT
  5
2E0
330
2D8
100
AcDbEntity
  8
1
 62
     7
100
AcDbMText
 10
88.83140528932842
 20
85.55032756990102
 30
0.0
 40
5.25
 41
0.0
 71
     7
 72
     1
  1
{\Fgdt;n}16,4
  7
CONVERTER_2
 11
0.9063077870366511
 21
-0.4226182617406972
 31
0.0
 73
     1
 44
0.60024009603842
  0
ENDBLK
  5
2E2
330
2D8
100
AcDbEntity
  8
0
100
AcDbBlockEnd
  0
BLOCK
  5
2EC
330
2E5
100
AcDbEntity
  8
0
100
AcDbBlockBegin
  2
*D217
 70
     1
 71
     0
 10
0.0
 20
0.0
 30
0.0
  3
*D217
  1

  0
LINE
  5
2E6
330
2E5
100
AcDbEntity
  8
1
  6
Continuous
 62
     2
100
AcDbLine
 10
202.9316283859452
 20
82.63335783778153
 30
0.0
 11
277.9316283859452
 21
82.63335783778153
 31
0.0
  0
LINE
  5
2E7
330
2E5
100
AcDbEntity
  8
1
  6
Continuous
 62
     2
100
AcDbLine
 10
202.9316283859452
 20
123.3420514725465
 30
0.0
 11
202.9316283859452
 21
81.13335783778153
 31
0.0
  0
LINE
  5
2E8
330
2E5
100
AcDbEntity
  8
1
  6
Continuous
 62
     2
100
AcDbLine
 10
277.9316283859452
 20
117.8420514725464
 30
0.0
 11
277.9316283859452
 21
81.13335783778153
 31
0.0
  0
SOLID
  5
2E9
330
2E5
100
AcDbEntity
  8
1
 62
     2
100
AcDbTrace
 10
208.1816283859452
 20
83.32453345011535
 30
0.0
 11
208.1816283859452
 21
81.94218222544771
 31
0.0
 12
202.9316283859452
 22
82.63335783778153
 32
0.0
 13
202.9316283859452
 23
82.63335783778153
 33
0.0
  0
SOLID
  5
2EA
330
2E5
100
AcDbEntity
  8
1
 62
     2
100
AcDbTrace
 10
272.6816283859452
 20
81.94218222544771
 30
0.0
 11
272.6816283859452
 21
83.32453345011535
 31
0.0
 12
277.9316283859452
 22
82.63335783778153
 32
0.0
 13
277.9316283859452
 23
82.63335783778153
 33
0.0
  0
MTEXT
  5
2EB
330
2E5
100
AcDbEntity
  8
1
 62
     7
100
AcDbMText
 10
236.4941283859452
 20
84.13335783778153
 30
0.0
 40
5.25
 41
0.0
 71
     7
 72
     1
  1
75
  7
CONVERTER_2
 11
0.9999999999970621
 21
2.424068405545307E-6
 31
0.0
 73
     1
 44
0.60024009603842
  0
ENDBLK
  5
2ED
330
2E5
100
AcDbEntity
  8
0
100
AcDbBlockEnd
  0
BLOCK
  5
2F7
330
2F0
100
AcDbEntity
  8
0
100
AcDbBlockBegin
  2
*D318
 70
     1
 71
     0
 10
0.0
 20
0.0
 30
0.0
  3
*D318
  1

  0
LINE
  5
2F1
330
2F0
100
AcDbEntity
  8
1
  6
Continuous
 62
     2
100
AcDbLine
 10
48.41341326227928
 20
405.6138438710987
 30
0.0
 11
94.41341326227928
 21
405.6138438710987
 31
0.0
  0
LINE
  5
2F2
330
2F0
100
AcDbEntity
  8
1
  6
Continuous
 62
     2
100
AcDbLine
 10
48.41341326227928
 20
376.6138438710988
 30
0.0
 11
48.41341326227928
 21
407.1138438710987
 31
0.0
  0
LINE
  5
2F3
330
2F0
100
AcDbEntity
  8
1
  6
Continuous
 62
     2
100
AcDbLine
 10
94.41341326227928
 20
376.6138438710988
 30
0.0
 11
94.41341326227928
 21
407.1138438710987
 31
0.0
  0
SOLID
  5
2F4
330
2F0
100
AcDbEntity
  8
1
 62
     2
100
AcDbTrace
 10
53.66341326227928
 20
406.3050194834326
 30
0.0
 11
53.66341326227928
 21
404.9226682587649
 31
0.0
 12
48.41341326227928
 22
405.6138438710987
 32
0.0
 13
48.41341326227928
 23
405.6138438710987
 33
0.0
  0
SOLID
  5
2F5
330
2F0
100
AcDbEntity
  8
1
 62
     2
100
AcDbTrace
 10
89.16341326227928
 20
404.9226682587649
 30
0.0
 11
89.16341326227928
 21
406.3050194834326
 31
0.0
 12
94.41341326227928
 22
405.6138438710987
 32
0.0
 13
94.41341326227928
 23
405.6138438710987
 33
0.0
  0
MTEXT
  5
2F6
330
2F0
100
AcDbEntity
  8
1
 62
     7
100
AcDbMText
 10
62.01591326230461
 20
407.1138229998697
 30
0.0
 40
5.25
 41
0.0
 71
     7
 72
     1
  1
\C7;{\Fgdt;n}\C7;46
  7
CONVERTER_2
 11
0.9999999999970621
 21
2.424068405545307E-6
 31
0.0
 73
     1
 44
0.60024009603842
  0
ENDBLK
  5
2F8
330
2F0
100
AcDbEntity
  8
0
100
AcDbBlockEnd
  0
BLOCK
  5
302
330
2FB
100
AcDbEntity
  8
0
100
AcDbBlockBegin
  2
*D419
 70
     1
 71
     0
 10
0.0
 20
0.0
 30
0.0
  3
*D419
  1

  0
LINE
  5
2FC
330
2FB
100
AcDbEntity
  8
1
  6
Continuous
 62
     2
100
AcDbLine
 10
291.9316283859452
 20
82.63335783778153
 30
0.0
 11
300.9316283859452
 21
82.63335783778153
 31
0.0
  0
LINE
  5
2FD
330
2FB
100
AcDbEntity
  8
1
  6
Continuous
 62
     2
100
AcDbLine
 10
277.9316283859452
 20
82.63335783778153
 30
0.0
 11
291.9316283859452
 21
82.63335783778153
 31
0.0
  0
LINE
  5
2FE
330
2FB
100
AcDbEntity
  8
1
  6
Continuous
 62
     2
100
AcDbLine
 10
277.9316283859452
 20
117.8420514725464
 30
0.0
 11
277.9316283859452
 21
81.13335783778153
 31
0.0
  0
LINE
  5
2FF
330
2FB
100
AcDbEntity
  8
1
  6
Continuous
 62
     2
100
AcDbLine
 10
291.9316283859452
 20
131.3420514725464
 30
0.0
 11
291.9316283859452
 21
81.13335783778153
 31
0.0
  0
SOLID
  5
300
330
2FB
100
AcDbEntity
  8
1
 62
     2
100
AcDbTrace
 10
296.4316283859452
 20
83.22579407692481
 30
0.0
 11
296.4316283859452
 21
82.04092159863825
 31
0.0
 12
291.9316283859452
 22
82.63335783778153
 32
0.0
 13
291.9316283859452
 23
82.63335783778153
 33
0.0
  0
MTEXT
  5
301
330
2FB
100
AcDbEntity
  8
1
 62
     7
100
AcDbMText
 10
281.7816283859452
 20
84.13335783778153
 30
0.0
 40
5.25
 41
0.0
 71
     7
 72
     1
  1
14
  7
CONVERTER_2
 11
0.9999999999970621
 21
2.424068405545307E-6
 31
0.0
 73
     1
 44
0.60024009603842
  0
ENDBLK
  5
303
330
2FB
100
AcDbEntity
  8
0
100
AcDbBlockEnd
  0
BLOCK
  5
305
330
304
100
AcDbEntity
  8
0
100
AcDbBlockBegin
  2
_None
 70
     0
 71
     0
 10
0.0
 20
0.0
 30
0.0
  3
_None
  1

  0
ENDBLK
  5
306
330
304
100
AcDbEntity
  8
0
100
AcDbBlockEnd
  0
BLOCK
  5
310
330
309
100
AcDbEntity
  8
0
100
AcDbBlockBegin
  2
*D521
 70
     1
 71
     0
 10
0.0
 20
0.0
 30
0.0
  3
*D521
  1

  0
LINE
  5
30A
330
309
100
AcDbEntity
  8
1
  6
Continuous
 62
     2
100
AcDbLine
 10
126.931628385945
 20
82.6362860414315
 30
0.0
 11
202.9316283859452
 21
82.6362860414315
 31
0.0
  0
LINE
  5
30B
330
309
100
AcDbEntity
  8
1
  6
Continuous
 62
     2
100
AcDbLine
 10
202.9316283859452
 20
123.3420514725465
 30
0.0
 11
202.9316283859452
 21
81.1362860414315
 31
0.0
  0
LINE
  5
30C
330
309
100
AcDbEntity
  8
1
  6
Continuous
 62
     2
100
AcDbLine
 10
126.931628385945
 20
100.8420514725464
 30
0.0
 11
126.931628385945
 21
81.1362860414315
 31
0.0
  0
SOLID
  5
30D
330
309
100
AcDbEntity
  8
1
 62
     2
100
AcDbTrace
 10
132.181628385945
 20
83.32746165376533
 30
0.0
 11
132.181628385945
 21
81.94511042909768
 31
0.0
 12
126.931628385945
 22
82.6362860414315
 32
0.0
 13
126.931628385945
 23
82.6362860414315
 33
0.0
  0
SOLID
  5
30E
330
309
100
AcDbEntity
  8
1
 62
     2
100
AcDbTrace
 10
197.6816283859452
 20
81.94511042909768
 30
0.0
 11
197.6816283859452
 21
83.32746165376533
 31
0.0
 12
202.9316283859452
 22
82.6362860414315
 32
0.0
 13
202.9316283859452
 23
82.6362860414315
 33
0.0
  0
MTEXT
  5
30F
330
309
100
AcDbEntity
  8
1
 62
     7
100
AcDbMText
 10
161.237160625191
 20
84.1362860414315
 30
0.0
 40
5.25
 41
0.0
 71
     7
 72
     1
  1
76
  7
CONVERTER_2
 11
0.9999999999970621
 21
2.424068405545307E-6
 31
0.0
 73
     1
 44
0.60024009603842
  0
ENDBLK
  5
311
330
309
100
AcDbEntity
  8
0
100
AcDbBlockEnd
  0
BLOCK
  5
31B
330
314
100
AcDbEntity
  8
0
100
AcDbBlockBegin
  2
*D622
 70
     1
 71
     0
 10
0.0
 20
0.0
 30
0.0
  3
*D622
  1

  0
LINE
  5
315
330
314
100
AcDbEntity
  8
1
  6
Continuous
 62
     2
100
AcDbLine
 10
113.4316283859451
 20
198.3420514725464
 30
0.0
 11
113.4316283859451
 21
140.8420514725464
 31
0.0
  0
LINE
  5
316
330
314
100
AcDbEntity
  8
1
  6
Continuous
 62
     2
100
AcDbLine
 10
202.9316283859452
 20
198.3420514725464
 30
0.0
 11
111.9316283859451
 21
198.3420514725464
 31
0.0
  0
LINE
  5
317
330
314
100
AcDbEntity
  8
1
  6
Continuous
 62
     2
100
AcDbLine
 10
164.7153345096081
 20
140.8420514725464
 30
0.0
 11
111.9316283859451
 21
140.8420514725464
 31
0.0
  0
SOLID
  5
318
330
314
100
AcDbEntity
  8
1
 62
     2
100
AcDbTrace
 10
114.1228039982789
 20
193.0920514725464
 30
0.0
 11
112.7404527736113
 21
193.0920514725464
 31
0.0
 12
113.4316283859451
 22
198.3420514725464
 32
0.0
 13
113.4316283859451
 23
198.3420514725464
 33
0.0
  0
SOLID
  5
319
330
314
100
AcDbEntity
  8
1
 62
     2
100
AcDbTrace
 10
112.7404527736113
 20
146.0920514725464
 30
0.0
 11
114.1228039982789
 21
146.0920514725464
 31
0.0
 12
113.4316283859451
 22
140.8420514725464
 32
0.0
 13
113.4316283859451
 23
140.8420514725464
 33
0.0
  0
MTEXT
  5
31A
330
314
100
AcDbEntity
  8
1
 62
     7
100
AcDbMText
 10
111.9316283859451
 20
155.4170514725464
 30
0.0
 40
5.25
 41
0.0
 71
     7
 72
     1
  1
58リフト5
  7
CONVERTER_1
 11
0.0
 21
1.0
 31
0.0
 73
     1
 44
0.60024009603842
  0
ENDBLK
  5
31C
330
314
100
AcDbEntity
  8
0
100
AcDbBlockEnd
  0
BLOCK
  5
327
330
31F
100
AcDbEntity
  8
0
100
AcDbBlockBegin
  2
*D723
 70
     1
 71
     0
 10
0.0
 20
0.0
 30
0.0
  3
*D723
  1

  0
LINE
  5
320
330
31F
100
AcDbEntity
  8
1
  6
Continuous
 62
     2
100
AcDbLine
 10
126.931628385945
 20
98.84205147254635
 30
0.0
 11
126.931628385945
 21
82.5916360414398
 31
0.0
  0
LINE
  5
321
330
31F
100
AcDbEntity
  8
1
  6
Continuous
 62
     2
100
AcDbLine
 10
125.8750827315931
 20
98.57628200495469
 30
0.0
 11
119.2186695404041
 21
84.30155785068111
 31
0.0
  0
LINE
  5
322
330
31F
100
AcDbEntity
  8
1
  6
Continuous
 62
     2
100
AcDbLine
 10
126.931628385945
 20
82.5916360414398
 30
0.0
 11
126.931628385945
 21
81.0916360414398
 31
0.0
  0
LINE
  5
323
330
31F
100
AcDbEntity
  8
1
  6
Continuous
 62
     2
100
AcDbLine
 10
119.2186695404041
 20
84.30155785068111
 30
0.0
 11
118.584742147793
 21
82.94209617012616
 31
0.0
  0
ARC
  5
324
330
31F
100
AcDbEntity
  8
1
  6
Continuous
 62
     2
100
AcDbCircle
 10
126.931628385945
 20
100.8420514725463
 30
0.0
 40
18.2504154311065
100
AcDbArc
 50
-172.4781940850504
 51
-90.0
  0
SOLID
  5
325
330
31F
100
AcDbEntity
  8
1
 62
     2
100
AcDbTrace
 10
114.4488384527467
 20
86.6013263438783
 30
0.0
 11
115.2065903911655
 21
87.75748676015397
 31
0.0
 12
119.2186695404041
 22
84.30155785068111
 32
0.0
 13
119.2186695404041
 23
84.30155785068111
 33
0.0
  0
MTEXT
  5
326
330
31F
100
AcDbEntity
  8
1
 62
     7
100
AcDbMText
 10
109.830487166313
 20
96.20761395534368
 30
0.0
 40
5.25
 41
0.0
 71
     7
 72
     1
  1
25{\Fgdt;~}
  7
CONVERTER_2
 11
0.7519652624332639
 21
-0.6592027336818869
 31
0.0
 73
     1
 44
0.60024009603842
  0
ENDBLK
  5
328
330
31F
100
AcDbEntity
  8
0
100
AcDbBlockEnd
  0
ENDSEC
  0
SECTION
  2
ENTITIES
  0
INSERT
  5
69
330
1F
100
AcDbEntity
  8
1
100
AcDbBlockReference
  2
P82A-15
 10
55.13298420913424
 20
89.86755516822866
 30
0.0
  0
INSERT
  5
6A
330
1F
100
AcDbEntity
  8
1
100
AcDbBlockReference
  2
R10A-13
 10
48.13298420913429
 20
102.8675551682287
 30
0.0
  0
INSERT
  5
6B
330
1F
100
AcDbEntity
  8
0
100
AcDbBlockReference
  2
Y22-0-13
 10
118.7528904976666
 20
-110.5305268683516
 30
0.0
  0
INSERT
  5
6C
330
1F
100
AcDbEntity
  8
1
100
AcDbBlockReference
  2
_J__A4
 10
0.0
 20
0.0
 30
0.0
 41
1.5
 42
1.5
 43
1.5
  0
INSERT
  5
6D
330
1F
100
AcDbEntity
  8
1
100
AcDbBlockReference
  2
Y12J-64X
 10
-16.85636751330465
 20
68.31676693591423
 30
0.0
  0
LINE
  5
2B5
330
1F
100
AcDbEntity
  8
1
  6
DASH_CENTER
 62
     2
100
AcDbLine
 10
71.41341326227934
 20
202.8441805959728
 30
0.0
 11
71.41341326227934
 21
93.13335783778153
 31
0.0
  0
LINE
  5
2B6
330
1F
100
AcDbEntity
  8
1
  6
DASH_CENTER
 62
     2
100
AcDbLine
 10
43.91341326227939
 20
140.8420514725464
 30
0.0
 11
98.91341326227932
 21
140.8420514725464
 31
0.0
  0
LINE
  5
2B7
330
1F
100
AcDbEntity
  8
1
  6
DASH_CENTER
 62
     2
100
AcDbLine
 10
54.95893059037496
 20
292.1138438710987
 30
0.0
 11
102.1573150966267
 21
319.3638438710987
 31
0.0
  0
LINE
  5
2B8
330
1F
100
AcDbEntity
  8
1
  6
DASH_CENTER
 62
     2
100
AcDbLine
 10
40.66951142793161
 20
319.3638438710989
 30
0.0
 11
87.86789593418354
 21
292.1138438710988
 31
0.0
  0
LINE
  5
2B9
330
1F
100
AcDbEntity
  8
1
  6
DASH_CENTER
 62
     2
100
AcDbLine
 10
58.7812595179478
 20
226.6138438710987
 30
0.0
 11
84.0455670066105
 21
226.6138438710987
 31
0.0
  0
LINE
  5
2BA
330
1F
100
AcDbEntity
  8
1
  6
DASH_CENTER
 62
     2
100
AcDbLine
 10
71.41341326227922
 20
395.1138438710987
 30
0.0
 11
71.41341326227922
 21
215.2327781655505
 31
0.0
  0
LINE
  5
2BB
330
1F
100
AcDbEntity
  8
1
  6
DASH_CENTER
 62
     2
100
AcDbLine
 10
49.27749679342958
 20
301.6138438710988
 30
0.0
 11
93.54932973112884
 21
301.6138438710988
 31
0.0
  0
LINE
  5
2BC
330
1F
100
AcDbEntity
  8
1
  6
DASH_CENTER
 62
     2
100
AcDbLine
 10
165.4460425363698
 20
140.8420514725464
 30
0.0
 11
296.4316283859452
 21
140.8420514725464
 31
0.0
  0
LINE
  5
2BD
330
1F
100
AcDbEntity
  8
1
  6
DASH_CENTER
 62
     2
100
AcDbLine
 10
202.9316283859452
 20
202.8420514725465
 30
0.0
 11
202.9316283859452
 21
123.3420514725465
 31
0.0
  0
LINE
  5
2BE
330
1F
100
AcDbEntity
  8
1
  6
DASH_CENTER
 62
     2
100
AcDbLine
 10
164.3580352571379
 20
140.8420514725464
 30
0.0
 11
164.7153345096081
 21
140.8420514725464
 31
0.0
  0
LINE
  5
2BF
330
1F
100
AcDbEntity
  8
1
  6
DASH_CENTER
 62
     2
100
AcDbLine
 10
164.7153345096081
 20
140.8420514725464
 30
0.0
 11
165.4460425363698
 21
140.8420514725464
 31
0.0
  0
LINE
  5
2C0
330
1F
100
AcDbEntity
  8
1
  6
DASH_CENTER
 62
     2
100
AcDbLine
 10
137.5068089252702
 20
123.5205993247674
 30
0.0
 11
126.931628385945
 21
100.8420514725463
 31
0.0
  0
LINE
  5
2C1
330
1F
100
AcDbEntity
  8
1
  6
Continuous
 62
     2
100
AcDbLine
 10
126.931628385945
 20
100.8420514725463
 30
0.0
 11
126.931628385945
 21
98.84205147254635
 31
0.0
  0
LINE
  5
2C2
330
1F
100
AcDbEntity
  8
1
  6
DASH_CENTER
 62
     2
100
AcDbLine
 10
126.931628385945
 20
100.8420514725463
 30
0.0
 11
125.8750827315931
 21
98.57628200495469
 31
0.0
  0
ARC
  5
2C3
330
1F
100
AcDbEntity
  8
1
  6
DASH_CENTER
 62
     2
100
AcDbCircle
 10
164.6960425363697
 20
110.8420514725464
 30
0.0
 40
30.0000062030032
100
AcDbArc
 50
89.9631550502442
 51
155.0
  0
SOLID
  5
2C4
330
1F
100
AcDbEntity
  8
1
 62
     2
100
AcDbTrace
 10
83.93983762352198
 20
388.006065047134
 30
0.0
 11
85.13698890103669
 21
387.3148894348002
 31
0.0
 12
81.91341326227929
 22
383.1138438710988
 32
0.0
 13
81.91341326227929
 23
383.1138438710988
 33
0.0
  0
LEADER
  5
2C5
330
1F
100
AcDbEntity
  8
1
  6
Continuous
 62
     2
100
AcDbLeader
  3
Standard
 71
     0
 76
     3
 10
81.91341326227929
 20
383.1138438710988
 30
0.0
 10
90.4564869669523
 20
397.910881580398
 30
0.0
 10
118.149674249346
 20
397.910881580398
 30
0.0
  0
MTEXT
  5
2C7
330
1F
100
AcDbEntity
  8
1
 62
     7
100
AcDbMText
 10
106.8993169158735
 20
402.410881580398
 30
0.0
 40
5.25
 41
0.0
 71
     5
 72
     1
  1
PJ1/2
  7
CONVERTER_2
 73
     1
 44
1.32052821128451
  0
MTEXT
  5
2C8
330
1F
100
AcDbEntity
  8
1
 62
     7
100
AcDbMText
 10
51.0
 20
51.00000000000001
 30
0.0
 40
5.25
 41
0.0
 71
     4
 72
     1
  1
JIS
  7
CONVERTER_2
 73
     1
 44
0.7202881152461
  0
MTEXT
  5
2C9
330
1F
100
AcDbEntity
  8
1
 62
     7
100
AcDbMText
 10
85.5
 20
34.12500000000001
 30
0.0
 40
5.25
 41
0.0
 71
     5
 72
     1
  1
万能ホーム胴長水栓
  7
CONVERTER_1
 73
     1
 44
1.32052821128451
  0
MTEXT
  5
2CA
330
1F
100
AcDbEntity
  8
1
 62
     7
100
AcDbMText
 10
85.5
 20
21.375
 30
0.0
 40
5.25
 41
0.0
 71
     5
 72
     1
  1
Y22J-13
  7
CONVERTER_2
 73
     1
 44
0.90036014405762
  0
MTEXT
  5
2CB
330
1F
100
AcDbEntity
  8
1
 62
     7
100
AcDbMText
 10
127.875
 20
25.5
 30
0.0
 40
5.25
 41
0.0
 71
     5
 72
     1
  1
1
  7
CONVERTER_2
 73
     1
 44
1.32052821128451
  0
MTEXT
  5
2CC
330
1F
100
AcDbEntity
  8
1
 62
     7
100
AcDbMText
 10
140.625
 20
25.5
 30
0.0
 40
5.25
 41
0.0
 71
     5
 72
     1
  1
1,5
  7
CONVERTER_2
 73
     1
 44
1.32052821128451
  0
DIMENSION
  5
2D7
330
1F
100
AcDbEntity
  8
1
100
AcDbDimension
  2
*D015
 10
113.502466850042
 20
140.8420514725464
 30
0.0
 11
109.377466850042
 21
122.087752282231
 31
0.0
  1
<>
 71
     5
 42
0.0
 53
90.0
  3
ME10_DIM_0
100
AcDbAlignedDimension
 13
126.931628385945
 23
100.8420514725464
 33
0.0
 14
164.7153345096081
 24
140.8420514725464
 34
0.0
 50
90.0
100
AcDbRotatedDimension
  0
DIMENSION
  5
2E4
330
1F
100
AcDbEntity
  8
1
100
AcDbDimension
  2
*D116
 10
105.9820966096447
 20
75.31848857868604
 30
0.0
 11
98.03759082904149
 21
83.86414308388591
 31
0.0
 70
     1
  1
^N1^O16,4
 71
     5
 42
0.0
 53
-24.99999999999991
  3
ME10_DIM_1
100
AcDbAlignedDimension
 13
135.723453379618
 23
100.2933280335369
 33
0.0
 14
120.860005672217
 24
107.2242675260843
 34
0.0
  0
DIMENSION
  5
2EF
330
1F
100
AcDbEntity
  8
1
100
AcDbDimension
  2
*D217
 10
202.9316283859452
 20
82.63335783778153
 30
0.0
 11
240.4316283859452
 21
86.75835783778153
 31
0.0
  1
<>
 71
     5
 42
0.0
 53
0.00013888888889
  3
ME10_DIM_2
100
AcDbAlignedDimension
 13
277.9316283859452
 23
117.8420514725464
 33
0.0
 14
202.9316283859452
 24
123.3420514725465
 34
0.0
100
AcDbRotatedDimension
  0
DIMENSION
  5
2FA
330
1F
100
AcDbEntity
  8
1
100
AcDbDimension
  2
*D318
 10
48.41341326227928
 20
405.6138438710987
 30
0.0
 11
71.41341326227931
 21
409.7388438710987
 31
0.0
  1
<>
 71
     5
 42
0.0
 53
0.00013888888889
  3
ME10_DIM_3
100
AcDbAlignedDimension
 13
94.41341326227928
 23
376.6138438710988
 33
0.0
 14
48.41341326227927
 24
376.6138438710988
 34
0.0
100
AcDbRotatedDimension
  0
DIMENSION
  5
308
330
1F
100
AcDbEntity
  8
1
100
AcDbDimension
  2
*D419
 10
277.9316283859452
 20
82.63335783778153
 30
0.0
 11
284.9316283859452
 21
86.75835783778153
 31
0.0
  1
<>
 71
     5
 42
0.0
 53
0.00013888888889
  3
ME10_DIM_4
100
AcDbAlignedDimension
 13
291.9316283859452
 23
131.3420514725464
 33
0.0
 14
277.9316283859452
 24
117.8420514725464
 34
0.0
100
AcDbRotatedDimension
  0
DIMENSION
  5
313
330
1F
100
AcDbEntity
  8
1
100
AcDbDimension
  2
*D521
 10
126.931628385945
 20
82.6362860414315
 30
0.0
 11
165.174660625191
 21
86.7612860414315
 31
0.0
  1
<>
 71
     5
 42
0.0
 53
0.00013888888889
  3
ME10_DIM_5
100
AcDbAlignedDimension
 13
202.9316283859452
 23
123.3420514725465
 33
0.0
 14
126.931628385945
 24
100.8420514725464
 34
0.0
100
AcDbRotatedDimension
  0
DIMENSION
  5
31E
330
1F
100
AcDbEntity
  8
1
100
AcDbDimension
  2
*D622
 10
113.4316283859451
 20
198.3420514725464
 30
0.0
 11
109.3066283859451
 21
169.5920514725464
 31
0.0
  1
58リフト5
 71
     5
 42
0.0
 53
90.0
  3
ME10_DIM_6
100
AcDbAlignedDimension
 13
164.7153345096081
 23
140.8420514725464
 33
0.0
 14
202.9316283859452
 24
198.3420514725464
 34
0.0
 50
90.0
100
AcDbRotatedDimension
  0
DIMENSION
  5
32A
330
1F
100
AcDbEntity
  8
1
100
AcDbDimension
  2
*D723
 10
122.9815155158261
 20
83.02424375887705
 30
0.0
 11
115.2467745455043
 21
92.90532974195244
 31
0.0
 70
     5
  1
<>
 71
     5
 42
0.0
  3
ME10_DIM_7
100
AcDb3PointAngularDimension
 13
125.8750827315931
 23
98.57628200495469
 33
0.0
 14
126.931628385945
 24
98.84205147254635
 34
0.0
 15
126.931628385945
 25
100.8420514725463
 35
0.0
  0
ENDSEC
  0
SECTION
  2
OBJECTS
  0
DICTIONARY
  5
C
330
0
100
AcDbDictionary
281
     1
  3
ACAD_GROUP
350
D
  3
ACAD_LAYOUT
350
1A
  3
ACAD_MLINESTYLE
350
17
  3
ACAD_PLOTSETTINGS
350
19
  3
ACAD_PLOTSTYLENAME
350
E
  3
ACAD_TABLESTYLE
350
2A
  3
AcDbVariableDictionary
350
2C
  0
DICTIONARY
  5
D
102
{ACAD_REACTORS
330
C
102
}
330
C
100
AcDbDictionary
281
     1
  0
DICTIONARY
  5
1A
102
{ACAD_REACTORS
330
C
102
}
330
C
100
AcDbDictionary
281
     1
  3
Layout1
350
1E
  3
Layout2
350
26
  3
Model
350
22
  0
DICTIONARY
  5
17
102
{ACAD_REACTORS
330
C
102
}
330
C
100
AcDbDictionary
281
     1
  3
Standard
350
18
  0
DICTIONARY
  5
19
102
{ACAD_REACTORS
330
C
102
}
330
C
100
AcDbDictionary
281
     1
  0
ACDBDICTIONARYWDFLT
  5
E
102
{ACAD_REACTORS
330
C
102
}
330
C
100
AcDbDictionary
281
     1
  3
Normal
350
F
100
AcDbDictionaryWithDefault
340
F
  0
DICTIONARY
  5
2A
102
{ACAD_REACTORS
330
C
102
}
330
C
100
AcDbDictionary
281
     1
  3
Standard
350
2B
  0
DICTIONARY
  5
2C
102
{ACAD_REACTORS
330
C
102
}
330
C
100
AcDbDictionary
281
     1
  3
CTABLESTYLE
350
2D
  0
LAYOUT
  5
1E
102
{ACAD_REACTORS
330
1A
102
}
330
1A
100
AcDbPlotSettings
  1

  2

  4

  6

 40
0.0
 41
0.0
 42
0.0
 43
0.0
 44
0.0
 45
0.0
 46
0.0
 47
0.0
 48
0.0
 49
0.0
140
0.0
141
0.0
142
1.0
143
1.0
 70
   688
 72
     0
 73
     0
 74
     5
  7

 75
    16
147
1.0
148
0.0
149
0.0
100
AcDbLayout
  1
Layout1
 70
     1
 71
     1
 10
0.0
 20
0.0
 11
12.0
 21
9.0
 12
0.0
 22
0.0
 32
0.0
 14
1.00000000000000E+20
 24
1.00000000000000E+20
 34
1.00000000000000E+20
 15
-1.00000000000000E+20
 25
-1.00000000000000E+20
 35
-1.00000000000000E+20
146
0.0
 13
0.0
 23
0.0
 33
0.0
 16
1.0
 26
0.0
 36
0.0
 17
0.0
 27
1.0
 37
0.0
 76
     0
330
1B
  0
LAYOUT
  5
26
102
{ACAD_REACTORS
330
1A
102
}
330
1A
100
AcDbPlotSettings
  1

  2

  4

  6

 40
0.0
 41
0.0
 42
0.0
 43
0.0
 44
0.0
 45
0.0
 46
0.0
 47
0.0
 48
0.0
 49
0.0
140
0.0
141
0.0
142
1.0
143
1.0
 70
   688
 72
     0
 73
     0
 74
     5
  7

 75
    16
147
1.0
148
0.0
149
0.0
100
AcDbLayout
  1
Layout2
 70
     1
 71
     2
 10
0.0
 20
0.0
 11
0.0
 21
0.0
 12
0.0
 22
0.0
 32
0.0
 14
0.0
 24
0.0
 34
0.0
 15
0.0
 25
0.0
 35
0.0
146
0.0
 13
0.0
 23
0.0
 33
0.0
 16
1.0
 26
0.0
 36
0.0
 17
0.0
 27
1.0
 37
0.0
 76
     0
330
23
  0
LAYOUT
  5
22
102
{ACAD_REACTORS
330
1A
102
}
330
1A
100
AcDbPlotSettings
  1

  2

  4

  6

 40
0.0
 41
0.0
 42
0.0
 43
0.0
 44
0.0
 45
0.0
 46
0.0
 47
0.0
 48
0.0
 49
0.0
140
0.0
141
0.0
142
1.0
143
1.0
 70
  1712
 72
     0
 73
     0
 74
     0
  7

 75
     0
147
1.0
148
0.0
149
0.0
100
AcDbLayout
  1
Model
 70
     1
 71
     0
 10
0.0
 20
0.0
 11
0.0
 21
0.0
 12
0.0
 22
0.0
 32
0.0
 14
0.0
 24
0.0
 34
0.0
 15
315.0
 25
445.5
 35
0.0
146
0.0
 13
0.0
 23
0.0
 33
0.0
 16
1.0
 26
0.0
 36
0.0
 17
0.0
 27
1.0
 37
0.0
 76
     0
330
1F
  0
MLINESTYLE
  5
18
102
{ACAD_REACTORS
330
17
102
}
330
17
100
AcDbMlineStyle
  2
Standard
 70
     0
  3

 62
   256
 51
90.0
 52
90.0
 71
     2
 49
0.5
 62
   256
  6
BYLAYER
 49
-0.5
 62
   256
  6
BYLAYER
  0
ACDBPLACEHOLDER
  5
F
102
{ACAD_REACTORS
330
E
102
}
330
E
  0
TABLESTYLE
  5
2B
102
{ACAD_REACTORS
330
2A
102
}
330
2A
100
AcDbTableStyle
  3
Standard
 70
     0
 71
     0
 40
0.06
 41
0.06
280
     0
281
     0
  7
Standard
140
0.18
170
     2
 62
     0
 63
     7
283
     0
274
    -2
284
     1
 64
     0
275
    -2
285
     1
 65
     0
276
    -2
286
     1
 66
     0
277
    -2
287
     1
 67
     0
278
    -2
288
     1
 68
     0
279
    -2
289
     1
 69
     0
  7
Standard
140
0.25
170
     5
 62
     0
 63
     7
283
     0
274
    -2
284
     1
 64
     0
275
    -2
285
     1
 65
     0
276
    -2
286
     1
 66
     0
277
    -2
287
     1
 67
     0
278
    -2
288
     1
 68
     0
279
    -2
289
     1
 69
     0
  7
Standard
140
0.18
170
     5
 62
     0
 63
     7
283
     0
274
    -2
284
     1
 64
     0
275
    -2
285
     1
 65
     0
276
    -2
286
     1
 66
     0
277
    -2
287
     1
 67
     0
278
    -2
288
     1
 68
     0
279
    -2
289
     1
 69
     0
  0
DICTIONARYVAR
  5
2D
102
{ACAD_REACTORS
330
2C
102
}
330
2C
100
DictionaryVariables
280
     0
  1
Standard
  0
ENDSEC
  0
EOF
