  0
SECTION
  2
HEADER
  9
$ACADVER
  1
AC1015
  9
$ACADMAINTVER
 70
     6
  9
$DWGCODEPAGE
  3
ANSI_932
  9
$INSBASE
 10
0.0
 20
0.0
 30
0.0
  9
$EXTMIN
 10
0.0
 20
0.0
 30
0.0
  9
$EXTMAX
 10
420.0
 20
594.0
 30
0.0
  9
$LIMMIN
 10
0.0
 20
0.0
  9
$LIMMAX
 10
12.0
 20
9.0
  9
$ORTHOMODE
 70
     0
  9
$REGENMODE
 70
     1
  9
$FILLMODE
 70
     1
  9
$QTEXTMODE
 70
     0
  9
$MIRRTEXT
 70
     1
  9
$LTSCALE
 40
1.0
  9
$ATTMODE
 70
     1
  9
$TEXTSIZE
 40
0.2
  9
$TRACEWID
 40
0.05
  9
$TEXTSTYLE
  7
Standard
  9
$CLAYER
  8
0
  9
$CELTYPE
  6
ByLayer
  9
$CECOLOR
 62
   256
  9
$CELTSCALE
 40
1.0
  9
$DISPSILH
 70
     0
  9
$DIMSCALE
 40
1.0
  9
$DIMASZ
 40
0.18
  9
$DIMEXO
 40
0.0625
  9
$DIMDLI
 40
0.38
  9
$DIMRND
 40
0.0
  9
$DIMDLE
 40
0.0
  9
$DIMEXE
 40
0.18
  9
$DIMTP
 40
0.0
  9
$DIMTM
 40
0.0
  9
$DIMTXT
 40
0.18
  9
$DIMCEN
 40
0.09
  9
$DIMTSZ
 40
0.0
  9
$DIMTOL
 70
     0
  9
$DIMLIM
 70
     0
  9
$DIMTIH
 70
     1
  9
$DIMTOH
 70
     1
  9
$DIMSE1
 70
     0
  9
$DIMSE2
 70
     0
  9
$DIMTAD
 70
     0
  9
$DIMZIN
 70
     0
  9
$DIMBLK
  1

  9
$DIMASO
 70
     1
  9
$DIMSHO
 70
     1
  9
$DIMPOST
  1

  9
$DIMAPOST
  1

  9
$DIMALT
 70
     0
  9
$DIMALTD
 70
     2
  9
$DIMALTF
 40
25.4
  9
$DIMLFAC
 40
1.0
  9
$DIMTOFL
 70
     0
  9
$DIMTVP
 40
0.0
  9
$DIMTIX
 70
     0
  9
$DIMSOXD
 70
     0
  9
$DIMSAH
 70
     0
  9
$DIMBLK1
  1

  9
$DIMBLK2
  1

  9
$DIMSTYLE
  2
Standard
  9
$DIMCLRD
 70
     0
  9
$DIMCLRE
 70
     0
  9
$DIMCLRT
 70
     0
  9
$DIMTFAC
 40
1.0
  9
$DIMGAP
 40
0.09
  9
$DIMJUST
 70
     0
  9
$DIMSD1
 70
     0
  9
$DIMSD2
 70
     0
  9
$DIMTOLJ
 70
     1
  9
$DIMTZIN
 70
     0
  9
$DIMALTZ
 70
     0
  9
$DIMALTTZ
 70
     0
  9
$DIMUPT
 70
     0
  9
$DIMDEC
 70
     4
  9
$DIMTDEC
 70
     4
  9
$DIMALTU
 70
     2
  9
$DIMALTTD
 70
     2
  9
$DIMTXSTY
  7
Standard
  9
$DIMAUNIT
 70
     0
  9
$DIMADEC
 70
     0
  9
$DIMALTRND
 40
0.0
  9
$DIMAZIN
 70
     0
  9
$DIMDSEP
 70
    46
  9
$DIMATFIT
 70
     3
  9
$DIMFRAC
 70
     0
  9
$DIMLDRBLK
  1

  9
$DIMLUNIT
 70
     2
  9
$DIMLWD
 70
    -2
  9
$DIMLWE
 70
    -2
  9
$DIMTMOVE
 70
     0
  9
$LUNITS
 70
     2
  9
$LUPREC
 70
     4
  9
$SKETCHINC
 40
0.1
  9
$FILLETRAD
 40
0.5
  9
$AUNITS
 70
     0
  9
$AUPREC
 70
     0
  9
$MENU
  1
.
  9
$ELEVATION
 40
0.0
  9
$PELEVATION
 40
0.0
  9
$THICKNESS
 40
0.0
  9
$LIMCHECK
 70
     0
  9
$CHAMFERA
 40
0.5
  9
$CHAMFERB
 40
0.5
  9
$CHAMFERC
 40
1.0
  9
$CHAMFERD
 40
0.0
  9
$SKPOLY
 70
     0
  9
$TDCREATE
 40
2457186.582325695
  9
$TDUCREATE
 40
2457186.207325695
  9
$TDUPDATE
 40
2457186.582326771
  9
$TDUUPDATE
 40
2457186.207326771
  9
$TDINDWG
 40
0.0000000116
  9
$TDUSRTIMER
 40
0.0000000116
  9
$USRTIMER
 70
     1
  9
$ANGBASE
 50
0.0
  9
$ANGDIR
 70
     0
  9
$PDMODE
 70
     0
  9
$PDSIZE
 40
0.0
  9
$PLINEWID
 40
0.0
  9
$SPLFRAME
 70
     0
  9
$SPLINETYPE
 70
     6
  9
$SPLINESEGS
 70
     8
  9
$HANDSEED
  5
230
  9
$SURFTAB1
 70
     6
  9
$SURFTAB2
 70
     6
  9
$SURFTYPE
 70
     6
  9
$SURFU
 70
     6
  9
$SURFV
 70
     6
  9
$UCSBASE
  2

  9
$UCSNAME
  2

  9
$UCSORG
 10
0.0
 20
0.0
 30
0.0
  9
$UCSXDIR
 10
1.0
 20
0.0
 30
0.0
  9
$UCSYDIR
 10
0.0
 20
1.0
 30
0.0
  9
$UCSORTHOREF
  2

  9
$UCSORTHOVIEW
 70
     0
  9
$UCSORGTOP
 10
0.0
 20
0.0
 30
0.0
  9
$UCSORGBOTTOM
 10
0.0
 20
0.0
 30
0.0
  9
$UCSORGLEFT
 10
0.0
 20
0.0
 30
0.0
  9
$UCSORGRIGHT
 10
0.0
 20
0.0
 30
0.0
  9
$UCSORGFRONT
 10
0.0
 20
0.0
 30
0.0
  9
$UCSORGBACK
 10
0.0
 20
0.0
 30
0.0
  9
$PUCSBASE
  2

  9
$PUCSNAME
  2

  9
$PUCSORG
 10
0.0
 20
0.0
 30
0.0
  9
$PUCSXDIR
 10
1.0
 20
0.0
 30
0.0
  9
$PUCSYDIR
 10
0.0
 20
1.0
 30
0.0
  9
$PUCSORTHOREF
  2

  9
$PUCSORTHOVIEW
 70
     0
  9
$PUCSORGTOP
 10
0.0
 20
0.0
 30
0.0
  9
$PUCSORGBOTTOM
 10
0.0
 20
0.0
 30
0.0
  9
$PUCSORGLEFT
 10
0.0
 20
0.0
 30
0.0
  9
$PUCSORGRIGHT
 10
0.0
 20
0.0
 30
0.0
  9
$PUCSORGFRONT
 10
0.0
 20
0.0
 30
0.0
  9
$PUCSORGBACK
 10
0.0
 20
0.0
 30
0.0
  9
$USERI1
 70
     0
  9
$USERI2
 70
     0
  9
$USERI3
 70
     0
  9
$USERI4
 70
     0
  9
$USERI5
 70
     0
  9
$USERR1
 40
18.1
  9
$USERR2
 40
0.0
  9
$USERR3
 40
0.0
  9
$USERR4
 40
0.0
  9
$USERR5
 40
0.0
  9
$WORLDVIEW
 70
     1
  9
$SHADEDGE
 70
     3
  9
$SHADEDIF
 70
    70
  9
$TILEMODE
 70
     1
  9
$MAXACTVP
 70
    64
  9
$PINSBASE
 10
0.0
 20
0.0
 30
0.0
  9
$PLIMCHECK
 70
     0
  9
$PEXTMIN
 10
1.00000000000000E+20
 20
1.00000000000000E+20
 30
1.00000000000000E+20
  9
$PEXTMAX
 10
-1.00000000000000E+20
 20
-1.00000000000000E+20
 30
-1.00000000000000E+20
  9
$PLIMMIN
 10
0.0
 20
0.0
  9
$PLIMMAX
 10
12.0
 20
9.0
  9
$UNITMODE
 70
     0
  9
$VISRETAIN
 70
     1
  9
$PLINEGEN
 70
     0
  9
$PSLTSCALE
 70
     1
  9
$TREEDEPTH
 70
  3020
  9
$CMLSTYLE
  2
Standard
  9
$CMLJUST
 70
     0
  9
$CMLSCALE
 40
1.0
  9
$PROXYGRAPHICS
 70
     1
  9
$MEASUREMENT
 70
     1
  9
$CELWEIGHT
370
    -1
  9
$ENDCAPS
280
     0
  9
$JOINSTYLE
280
     0
  9
$LWDISPLAY
290
     0
  9
$INSUNITS
 70
     4
  9
$HYPERLINKBASE
  1

  9
$STYLESHEET
  1

  9
$XEDIT
290
     1
  9
$CEPSNTYPE
380
     0
  9
$PSTYLEMODE
290
     1
  9
$FINGERPRINTGUID
  2
{E270B637-86F1-42CF-9AF0-FD605D09E5F9}
  9
$VERSIONGUID
  2
{FAEB1C32-E019-11D5-929B-00C0DF256EC4}
  9
$EXTNAMES
290
     1
  9
$PSVPSCALE
 40
0.0
  9
$OLESTARTUP
290
     0
  0
ENDSEC
  0
SECTION
  2
CLASSES
  0
CLASS
  1
ACDBDICTIONARYWDFLT
  2
AcDbDictionaryWithDefault
  3
ObjectDBX Classes
 90
        0
280
     0
281
     0
  0
CLASS
  1
VISUALSTYLE
  2
AcDbVisualStyle
  3
ObjectDBX Classes
 90
     4095
280
     0
281
     0
  0
CLASS
  1
MATERIAL
  2
AcDbMaterial
  3
ObjectDBX Classes
 90
     1153
280
     0
281
     0
  0
CLASS
  1
DICTIONARYVAR
  2
AcDbDictionaryVar
  3
ObjectDBX Classes
 90
        0
280
     0
281
     0
  0
CLASS
  1
ACDBPLACEHOLDER
  2
AcDbPlaceHolder
  3
ObjectDBX Classes
 90
        0
280
     0
281
     0
  0
CLASS
  1
LAYOUT
  2
AcDbLayout
  3
ObjectDBX Classes
 90
        0
280
     0
281
     0
  0
ENDSEC
  0
SECTION
  2
TABLES
  0
TABLE
  2
VPORT
  5
8
330
0
100
AcDbSymbolTable
 70
     1
  0
VPORT
  5
29
330
8
100
AcDbSymbolTableRecord
100
AcDbViewportTableRecord
  2
*Active
 70
     0
 10
0.0
 20
0.0
 11
1.0
 21
1.0
 12
210.0
 22
297.0
 13
0.0
 23
0.0
 14
0.5
 24
0.5
 15
0.5
 25
0.5
 16
0.0
 26
0.0
 36
1.0
 17
0.0
 27
0.0
 37
0.0
 40
653.4000000000001
 41
1.60267857142857
 42
50.0
 43
0.0
 44
0.0
 50
0.0
 51
0.0
 71
     0
 72
   100
 73
     1
 74
     3
 75
     0
 76
     0
 77
     0
 78
     0
281
     0
 65
     1
110
0.0
120
0.0
130
0.0
111
1.0
121
0.0
131
0.0
112
0.0
122
1.0
132
0.0
 79
     0
146
0.0
  0
ENDTAB
  0
TABLE
  2
LTYPE
  5
5
330
0
100
AcDbSymbolTable
 70
     8
  0
LTYPE
  5
14
330
5
100
AcDbSymbolTableRecord
100
AcDbLinetypeTableRecord
  2
ByBlock
 70
     0
  3

 72
    65
 73
     0
 40
0.0
  0
LTYPE
  5
15
330
5
100
AcDbSymbolTableRecord
100
AcDbLinetypeTableRecord
  2
ByLayer
 70
     0
  3

 72
    65
 73
     0
 40
0.0
  0
LTYPE
  5
16
330
5
100
AcDbSymbolTableRecord
100
AcDbLinetypeTableRecord
  2
Continuous
 70
     0
  3
Solid line
 72
    65
 73
     0
 40
0.0
  0
LTYPE
  5
3F
330
5
100
AcDbSymbolTableRecord
100
AcDbLinetypeTableRecord
  2
DASHED
 70
     0
  3
Dashed
 72
    65
 73
     2
 40
15.0
 49
7.0
 74
     0
 49
-8.0
 74
     0
  0
LTYPE
  5
40
330
5
100
AcDbSymbolTableRecord
100
AcDbLinetypeTableRecord
  2
DOTTED
 70
     0
  3
Dotted
 72
    65
 73
     2
 40
1.0
 49
0.0
 74
     0
 49
-1.0
 74
     0
  0
LTYPE
  5
41
330
5
100
AcDbSymbolTableRecord
100
AcDbLinetypeTableRecord
  2
DOT_CENTER
 70
     0
  3
Dot_Center
 72
    65
 73
     4
 40
14.0
 49
12.0
 74
     0
 49
-1.0
 74
     0
 49
0.0
 74
     0
 49
-1.0
 74
     0
  0
LTYPE
  5
42
330
5
100
AcDbSymbolTableRecord
100
AcDbLinetypeTableRecord
  2
LONG_DASHED
 70
     0
  3
Long_Dashed
 72
    65
 73
     2
 40
15.0
 49
10.0
 74
     0
 49
-5.0
 74
     0
  0
LTYPE
  5
43
330
5
100
AcDbSymbolTableRecord
100
AcDbLinetypeTableRecord
  2
DASH_CENTER
 70
     0
  3
Dash_Center
 72
    65
 73
     4
 40
14.0
 49
11.0
 74
     0
 49
-1.0
 74
     0
 49
1.0
 74
     0
 49
-1.0
 74
     0
  0
LTYPE
  5
44
330
5
100
AcDbSymbolTableRecord
100
AcDbLinetypeTableRecord
  2
PHANTOM
 70
     0
  3
Phantom
 72
    65
 73
     6
 40
13.0
 49
10.0
 74
     0
 49
-1.0
 74
     0
 49
0.0
 74
     0
 49
-1.0
 74
     0
 49
0.0
 74
     0
 49
-1.0
 74
     0
  0
LTYPE
  5
45
330
5
100
AcDbSymbolTableRecord
100
AcDbLinetypeTableRecord
  2
CENTER_DASH_DASH
 70
     0
  3
Center_Dash_Dash
 72
    65
 73
     6
 40
14.0
 49
9.0
 74
     0
 49
-1.0
 74
     0
 49
1.0
 74
     0
 49
-1.0
 74
     0
 49
1.0
 74
     0
 49
-1.0
 74
     0
  0
ENDTAB
  0
TABLE
  2
LAYER
  5
2
330
0
100
AcDbSymbolTable
 70
     2
  0
LAYER
  5
10
330
2
100
AcDbSymbolTableRecord
100
AcDbLayerTableRecord
  2
0
 70
     0
 62
     7
  6
Continuous
370
    -3
390
F
  0
LAYER
  5
46
330
2
100
AcDbSymbolTableRecord
100
AcDbLayerTableRecord
  2
1
 70
     0
 62
     7
  6
Continuous
370
    -3
390
F
  0
ENDTAB
  0
TABLE
  2
STYLE
  5
3
330
0
100
AcDbSymbolTable
 70
     3
  0
STYLE
  5
11
330
3
100
AcDbSymbolTableRecord
100
AcDbTextStyleTableRecord
  2
Standard
 70
     0
 40
0.0
 41
1.0
 50
0.0
 71
     0
 42
0.2
  3
txt
  4

  0
STYLE
  5
F7
330
3
100
AcDbSymbolTableRecord
100
AcDbTextStyleTableRecord
  2
CONVERTER_11
 70
     0
 40
0.0
 41
0.89
 50
0.0
 71
     0
 42
0.2
  3
MS Mincho.ttf
  4

1001
ACAD
1000
MS Mincho
1071
    32785
  0
STYLE
  5
182
330
3
100
AcDbSymbolTableRecord
100
AcDbTextStyleTableRecord
  2
CONVERTER_12
 70
     0
 40
0.0
 41
0.9
 50
0.0
 71
     0
 42
0.2
  3
txt.shx
  4

  0
ENDTAB
  0
TABLE
  2
VIEW
  5
6
330
0
100
AcDbSymbolTable
 70
     0
  0
ENDTAB
  0
TABLE
  2
UCS
  5
7
330
0
100
AcDbSymbolTable
 70
     0
  0
ENDTAB
  0
TABLE
  2
APPID
  5
9
330
0
100
AcDbSymbolTable
 70
     1
  0
APPID
  5
12
330
9
100
AcDbSymbolTableRecord
100
AcDbRegAppTableRecord
  2
ACAD
 70
     0
  0
ENDTAB
  0
TABLE
  2
DIMSTYLE
  5
A
330
0
100
AcDbSymbolTable
 70
    11
100
AcDbDimStyleTable
  0
DIMSTYLE
105
27
330
A
100
AcDbSymbolTableRecord
100
AcDbDimStyleTableRecord
  2
Standard
 70
     0
178
     0
340
11
  0
DIMSTYLE
105
194
102
{ACAD_REACTORS
330
195
102
}
330
A
100
AcDbSymbolTableRecord
100
AcDbDimStyleTableRecord
  2
ME10_DIM_10
 70
     0
 41
7.0
 42
0.0
 44
2.0
 73
     0
 74
     0
 77
     1
 78
     8
140
7.0
147
2.0
172
     1
173
     1
174
     1
175
     1
176
     2
177
     2
271
     2
178
     7
271
     2
340
182
  0
DIMSTYLE
105
19F
102
{ACAD_REACTORS
330
1A0
102
}
330
A
100
AcDbSymbolTableRecord
100
AcDbDimStyleTableRecord
  2
ME10_DIM_11
 70
     0
 41
7.0
 42
0.0
 44
2.0
 73
     0
 74
     0
 77
     1
 78
     8
140
7.0
147
2.0
172
     1
173
     1
174
     1
175
     1
176
     2
177
     2
271
     2
178
     7
271
     2
340
182
  0
DIMSTYLE
105
1AA
102
{ACAD_REACTORS
330
1AB
102
}
330
A
100
AcDbSymbolTableRecord
100
AcDbDimStyleTableRecord
  2
ME10_DIM_12
 70
     0
 41
7.0
 42
0.0
 44
2.0
 73
     0
 74
     0
 77
     1
 78
     8
140
7.0
147
2.0
172
     1
173
     1
174
     1
175
     1
176
     2
177
     2
271
     2
178
     7
271
     2
340
182
  0
DIMSTYLE
105
1B5
102
{ACAD_REACTORS
330
1B6
102
}
330
A
100
AcDbSymbolTableRecord
100
AcDbDimStyleTableRecord
  2
ME10_DIM_13
 70
     0
  3
{\Fgdt;n}<>
 41
7.0
 42
0.0
 44
2.0
 73
     0
 74
     0
 77
     1
 78
     8
140
7.0
147
2.0
172
     1
173
     1
174
     1
175
     1
176
     2
177
     2
271
     2
178
     7
271
     2
340
182
  0
DIMSTYLE
105
1C0
102
{ACAD_REACTORS
330
1C1
102
}
330
A
100
AcDbSymbolTableRecord
100
AcDbDimStyleTableRecord
  2
ME10_DIM_14
 70
     0
 41
7.0
 42
0.0
 44
2.0
 73
     0
 74
     0
 77
     1
 78
     8
140
7.0
147
2.0
172
     1
173
     1
174
     1
175
     1
176
     2
177
     2
271
     2
178
     7
271
     2
340
182
  0
DIMSTYLE
105
1CB
102
{ACAD_REACTORS
330
1CC
102
}
330
A
100
AcDbSymbolTableRecord
100
AcDbDimStyleTableRecord
  2
ME10_DIM_15
 70
     0
 41
7.0
 42
0.0
 44
2.0
 73
     0
 74
     0
 77
     1
 78
     8
140
7.0
147
2.0
172
     1
173
     1
174
     1
175
     1
176
     2
177
     2
271
     2
178
     7
271
     2
340
182
  0
DIMSTYLE
105
1D8
102
{ACAD_REACTORS
330
1D9
102
}
330
A
100
AcDbSymbolTableRecord
100
AcDbDimStyleTableRecord
  2
ME10_DIM_16
 70
     0
  3
{\Fgdt;n}<>
 41
7.0
 42
0.0
 44
2.0
 73
     0
 74
     0
 77
     1
 78
     8
140
7.0
147
2.0
172
     1
173
     1
174
     1
175
     1
176
     2
177
     2
271
     2
178
     7
271
     2
340
182
  0
DIMSTYLE
105
1E3
102
{ACAD_REACTORS
330
1E4
102
}
330
A
100
AcDbSymbolTableRecord
100
AcDbDimStyleTableRecord
  2
ME10_DIM_17
 70
     0
 41
6.0
 42
0.0
 44
2.0
 73
     0
 74
     0
 77
     1
 78
     8
140
7.0
147
2.0
172
     1
173
     1
174
     1
175
     1
176
     2
177
     2
271
     2
178
     7
271
     2
340
182
  0
DIMSTYLE
105
1EE
102
{ACAD_REACTORS
330
1EF
102
}
330
A
100
AcDbSymbolTableRecord
100
AcDbDimStyleTableRecord
  2
ME10_DIM_18
 70
     0
 41
7.0
 42
0.0
 44
2.0
 73
     0
 74
     0
 77
     1
 78
     8
140
7.0
147
2.0
172
     1
173
     1
174
     1
175
     1
176
     2
177
     2
271
     2
178
     7
271
     2
340
182
  0
DIMSTYLE
105
203
102
{ACAD_REACTORS
330
204
102
}
330
A
100
AcDbSymbolTableRecord
100
AcDbDimStyleTableRecord
  2
ME10_DIM_19
 70
     0
 41
7.0
 42
0.0
 44
2.0
 73
     0
 74
     0
 77
     1
 78
     8
140
7.0
147
2.0
172
     1
173
     1
174
     1
175
     1
176
     2
177
     2
271
     2
178
     7
271
     2
340
182
  0
ENDTAB
  0
TABLE
  2
BLOCK_RECORD
  5
1
330
0
100
AcDbSymbolTable
 70
    16
  0
BLOCK_RECORD
  5
1F
330
1
100
AcDbSymbolTableRecord
100
AcDbBlockTableRecord
  2
*Model_Space
340
22
  0
BLOCK_RECORD
  5
1B
330
1
100
AcDbSymbolTableRecord
100
AcDbBlockTableRecord
  2
*Paper_Space
340
1E
  0
BLOCK_RECORD
  5
23
330
1
100
AcDbSymbolTableRecord
100
AcDbBlockTableRecord
  2
*Paper_Space0
340
26
  0
BLOCK_RECORD
  5
47
330
1
100
AcDbSymbolTableRecord
100
AcDbBlockTableRecord
  2
84-55
340
0
102
{BLKREFS
331
53
102
}
  0
BLOCK_RECORD
  5
4A
330
1
100
AcDbSymbolTableRecord
100
AcDbBlockTableRecord
  2
21-4A
340
0
102
{BLKREFS
331
54
102
}
  0
BLOCK_RECORD
  5
4D
330
1
100
AcDbSymbolTableRecord
100
AcDbBlockTableRecord
  2
開示A4
340
0
102
{BLKREFS
331
55
102
}
  0
BLOCK_RECORD
  5
50
330
1
100
AcDbSymbolTableRecord
100
AcDbBlockTableRecord
  2
Y231-0-13
340
0
102
{BLKREFS
331
56
102
}
  0
BLOCK_RECORD
  5
189
330
1
100
AcDbSymbolTableRecord
100
AcDbBlockTableRecord
  2
*D5
340
0
  0
BLOCK_RECORD
  5
196
330
1
100
AcDbSymbolTableRecord
100
AcDbBlockTableRecord
  2
*D6
340
0
  0
BLOCK_RECORD
  5
1A1
330
1
100
AcDbSymbolTableRecord
100
AcDbBlockTableRecord
  2
*D7
340
0
  0
BLOCK_RECORD
  5
1AC
330
1
100
AcDbSymbolTableRecord
100
AcDbBlockTableRecord
  2
*D8
340
0
  0
BLOCK_RECORD
  5
1B7
330
1
100
AcDbSymbolTableRecord
100
AcDbBlockTableRecord
  2
*D9
340
0
  0
BLOCK_RECORD
  5
1C2
330
1
100
AcDbSymbolTableRecord
100
AcDbBlockTableRecord
  2
*D10
340
0
  0
BLOCK_RECORD
  5
1CD
330
1
100
AcDbSymbolTableRecord
100
AcDbBlockTableRecord
  2
*D11
340
0
  0
BLOCK_RECORD
  5
1DA
330
1
100
AcDbSymbolTableRecord
100
AcDbBlockTableRecord
  2
*D12
340
0
  0
BLOCK_RECORD
  5
1E5
330
1
100
AcDbSymbolTableRecord
100
AcDbBlockTableRecord
  2
*D13
340
0
  0
BLOCK_RECORD
  5
1F0
330
1
100
AcDbSymbolTableRecord
100
AcDbBlockTableRecord
  2
*D14
340
0
102
{BLKREFS
331
1F7
102
}
  0
BLOCK_RECORD
  5
1F8
330
1
100
AcDbSymbolTableRecord
100
AcDbBlockTableRecord
  2
*D15
340
0
  0
ENDTAB
  0
ENDSEC
  0
SECTION
  2
BLOCKS
  0
BLOCK
  5
20
330
1F
100
AcDbEntity
  8
0
100
AcDbBlockBegin
  2
*Model_Space
 70
     0
 10
0.0
 20
0.0
 30
0.0
  3
*Model_Space
  1

  0
ENDBLK
  5
21
330
1F
100
AcDbEntity
  8
0
100
AcDbBlockEnd
  0
BLOCK
  5
1C
330
1B
100
AcDbEntity
 67
     1
  8
0
100
AcDbBlockBegin
  2
*Paper_Space
 70
     0
 10
0.0
 20
0.0
 30
0.0
  3
*Paper_Space
  1

  0
ENDBLK
  5
1D
330
1B
100
AcDbEntity
 67
     1
  8
0
100
AcDbBlockEnd
  0
BLOCK
  5
24
330
23
100
AcDbEntity
  8
0
100
AcDbBlockBegin
  2
*Paper_Space0
 70
     0
 10
0.0
 20
0.0
 30
0.0
  3
*Paper_Space0
  1

  0
ENDBLK
  5
25
330
23
100
AcDbEntity
  8
0
100
AcDbBlockEnd
  0
BLOCK
  5
48
330
47
100
AcDbEntity
  8
0
100
AcDbBlockBegin
  2
84-55
 70
     0
 10
34.41028049672684
 20
-71.97415954852704
 30
0.0
  3
84-55
  1

  0
CIRCLE
  5
57
330
47
100
AcDbEntity
  8
1
  6
Continuous
 62
     7
100
AcDbCircle
 10
122.329647655007
 20
420.884614013011
 30
0.0
 40
10.0
  0
ENDBLK
  5
49
330
47
100
AcDbEntity
  8
0
100
AcDbBlockEnd
  0
BLOCK
  5
4B
330
4A
100
AcDbEntity
  8
0
100
AcDbBlockBegin
  2
21-4A
 70
     0
 10
133.3927075073204
 20
-99.75375577946244
 30
0.0
  3
21-4A
  1

  0
LINE
  5
58
330
4A
100
AcDbEntity
  8
1
  6
Continuous
 62
     7
100
AcDbLine
 10
119.0796476550067
 20
269.4333402656819
 30
0.0
 11
119.079647655007
 21
235.6188980537603
 31
0.0
  0
LINE
  5
59
330
4A
100
AcDbEntity
  8
1
  6
Continuous
 62
     7
100
AcDbLine
 10
119.0796476550067
 20
269.4333402656819
 30
0.0
 11
119.534112758553
 21
281.784042358688
 31
0.0
  0
LINE
  5
5A
330
4A
100
AcDbEntity
  8
1
  6
Continuous
 62
     7
100
AcDbLine
 10
125.5796476550067
 20
269.4333402656819
 30
0.0
 11
125.1251825514604
 21
281.7840423586881
 31
0.0
  0
LINE
  5
5B
330
4A
100
AcDbEntity
  8
1
  6
Continuous
 62
     7
100
AcDbLine
 10
125.5796476550067
 20
235.6188980537603
 30
0.0
 11
125.5796476550067
 21
269.4333402656819
 31
0.0
  0
LINE
  5
5C
330
4A
100
AcDbEntity
  8
1
  6
Continuous
 62
     7
100
AcDbLine
 10
125.5796476550067
 20
235.6188980537603
 30
0.0
 11
125.1500175727305
 21
230.0180340443937
 31
0.0
  0
LINE
  5
5D
330
4A
100
AcDbEntity
  8
1
  6
Continuous
 62
     7
100
AcDbLine
 10
119.5092777372831
 20
230.0180340443937
 30
0.0
 11
119.079647655007
 21
235.6188980537603
 31
0.0
  0
LINE
  5
5E
330
4A
100
AcDbEntity
  8
1
  6
Continuous
 62
     7
100
AcDbLine
 10
258.8296476550077
 20
205.8846140130112
 30
0.0
 11
258.8296476550072
 21
244.7398566463813
 31
0.0
  0
LINE
  5
5F
330
4A
100
AcDbEntity
  8
1
  6
Continuous
 62
     7
100
AcDbLine
 10
261.3691235975888
 20
245.5486952973189
 30
0.0
 11
277.8296476550072
 21
245.5486952973189
 31
0.0
  0
LINE
  5
60
330
4A
100
AcDbEntity
  8
1
  6
Continuous
 62
     7
100
AcDbLine
 10
259.8296476550077
 20
204.8846140130112
 30
0.0
 11
277.8296476550072
 21
204.8846140130112
 31
0.0
  0
LINE
  5
61
330
4A
100
AcDbEntity
  8
1
  6
Continuous
 62
     7
100
AcDbLine
 10
296.8296476550072
 20
244.7406267777462
 30
0.0
 11
296.8296476550076
 21
205.8846140130112
 31
0.0
  0
LINE
  5
62
330
4A
100
AcDbEntity
  8
1
  6
Continuous
 62
     7
100
AcDbLine
 10
277.8296476550072
 20
247.3789163134896
 30
0.0
 11
289.3721659111486
 21
247.3789163134896
 31
0.0
  0
LINE
  5
63
330
4A
100
AcDbEntity
  8
1
  6
Continuous
 62
     7
100
AcDbLine
 10
277.8296476550072
 20
245.5486952973189
 30
0.0
 11
294.2901717124256
 21
245.5486952973189
 31
0.0
  0
LINE
  5
64
330
4A
100
AcDbEntity
  8
1
  6
Continuous
 62
     7
100
AcDbLine
 10
277.8296476550072
 20
204.8846140130112
 30
0.0
 11
295.8296476550067
 21
204.8846140130112
 31
0.0
  0
LINE
  5
65
330
4A
100
AcDbEntity
  8
1
  6
Continuous
 62
     7
100
AcDbLine
 10
103.3296476550073
 20
205.8846140130112
 30
0.0
 11
103.3296476550072
 21
244.7398566463813
 31
0.0
  0
LINE
  5
66
330
4A
100
AcDbEntity
  8
1
  6
Continuous
 62
     7
100
AcDbLine
 10
104.3296476550062
 20
204.8846140130112
 30
0.0
 11
122.3296476550067
 21
204.8846140130112
 31
0.0
  0
LINE
  5
67
330
4A
100
AcDbEntity
  8
1
  6
Continuous
 62
     7
100
AcDbLine
 10
141.3296476550072
 20
244.7406267777462
 30
0.0
 11
141.3296476550071
 21
205.8846140130112
 31
0.0
  0
LINE
  5
68
330
4A
100
AcDbEntity
  8
1
  6
Continuous
 62
     7
100
AcDbLine
 10
122.3296476550067
 20
204.8846140130112
 30
0.0
 11
140.3296476550063
 21
204.8846140130112
 31
0.0
  0
LINE
  5
69
330
4A
100
AcDbEntity
  8
1
  6
Continuous
 62
     7
100
AcDbLine
 10
277.8296476550072
 20
247.3846140130112
 30
0.0
 11
266.3296476550072
 21
247.3846140130113
 31
0.0
  0
LINE
  5
6A
330
4A
100
AcDbEntity
  8
1
  6
Continuous
 62
     7
100
AcDbLine
 10
253.8296476550072
 20
228.3846140130112
 30
0.0
 11
192.8245065392479
 21
228.3846140130112
 31
0.0
  0
LINE
  5
6B
330
4A
100
AcDbEntity
  8
1
  6
Continuous
 62
     7
100
AcDbLine
 10
174.8296476550073
 20
269.3846140130113
 30
0.0
 11
174.8296476550073
 21
263.3846140130113
 31
0.0
  0
LINE
  5
6C
330
4A
100
AcDbEntity
  8
1
  6
Continuous
 62
     7
100
AcDbLine
 10
176.3296476550073
 20
269.3846140130113
 30
0.0
 11
176.3296476550073
 21
263.3846140130113
 31
0.0
  0
LINE
  5
6D
330
4A
100
AcDbEntity
  8
1
  6
Continuous
 62
     7
100
AcDbLine
 10
241.9657222641513
 20
239.2816862034019
 30
0.0
 11
241.2453230306643
 21
239.4458026365566
 31
0.0
  0
LINE
  5
6E
330
4A
100
AcDbEntity
  8
1
  6
Continuous
 62
     7
100
AcDbLine
 10
256.8135186227491
 20
240.3927436977442
 30
0.0
 11
252.1342717002367
 21
240.3927436977442
 31
0.0
  0
LINE
  5
6F
330
4A
100
AcDbEntity
  8
1
  6
Continuous
 62
     7
100
AcDbLine
 10
243.2809214023365
 20
229.8846140130113
 30
0.0
 11
192.9399107218264
 21
229.8846140130113
 31
0.0
  0
LINE
  5
70
330
4A
100
AcDbEntity
  8
1
  6
Continuous
 62
     7
100
AcDbLine
 10
215.0983001511077
 20
245.640233401294
 30
0.0
 11
214.7395866217537
 21
245.8295018088949
 31
0.0
  0
LINE
  5
71
330
4A
100
AcDbEntity
  8
1
  6
Continuous
 62
     7
100
AcDbLine
 10
105.8691235975888
 20
245.5486952973189
 30
0.0
 11
119.0796476550069
 21
245.5486952973189
 31
0.0
  0
LINE
  5
72
330
4A
100
AcDbEntity
  8
1
  6
Continuous
 62
     7
100
AcDbLine
 10
125.5796476550067
 20
245.5486952973189
 30
0.0
 11
138.7901717124256
 21
245.5486952973189
 31
0.0
  0
LINE
  5
73
330
4A
100
AcDbEntity
  8
1
  6
Continuous
 62
     7
100
AcDbLine
 10
125.5796476550067
 20
247.3789163134896
 30
0.0
 11
133.8721659111486
 21
247.3789163134896
 31
0.0
  0
LINE
  5
74
330
4A
100
AcDbEntity
  8
1
  6
Continuous
 62
     7
100
AcDbLine
 10
119.0796476550069
 20
247.3846140130112
 30
0.0
 11
110.8296476550072
 21
247.3846140130113
 31
0.0
  0
LINE
  5
75
330
4A
100
AcDbEntity
  8
1
  6
Continuous
 62
     7
100
AcDbLine
 10
116.3296476550071
 20
390.884614013011
 30
0.0
 11
116.3296476550071
 21
399.5538850053095
 31
0.0
  0
LINE
  5
76
330
4A
100
AcDbEntity
  8
1
  6
Continuous
 62
     7
100
AcDbLine
 10
128.3296476550071
 20
390.884614013011
 30
0.0
 11
128.3296476550071
 21
399.5538850053095
 31
0.0
  0
LINE
  5
77
330
4A
100
AcDbEntity
  8
1
  6
Continuous
 62
     7
100
AcDbLine
 10
119.0796476550071
 20
361.884614013011
 30
0.0
 11
119.0796476550071
 21
379.7417584362332
 31
0.0
  0
LINE
  5
78
330
4A
100
AcDbEntity
  8
1
  6
Continuous
 62
     7
100
AcDbLine
 10
125.5796476550071
 20
379.7417584362332
 30
0.0
 11
125.5796476550071
 21
361.884614013011
 31
0.0
  0
LINE
  5
79
330
4A
100
AcDbEntity
  8
1
  6
Continuous
 62
     7
100
AcDbLine
 10
119.0796476550071
 20
335.9948770798301
 30
0.0
 11
119.5341127585534
 21
319.533911920005
 31
0.0
  0
LINE
  5
7A
330
4A
100
AcDbEntity
  8
1
  6
Continuous
 62
     7
100
AcDbLine
 10
119.0796476550071
 20
335.9948770798301
 30
0.0
 11
119.0796476550071
 21
361.884614013011
 31
0.0
  0
LINE
  5
7B
330
4A
100
AcDbEntity
  8
1
  6
Continuous
 62
     7
100
AcDbLine
 10
125.1251825514609
 20
319.5339119200049
 30
0.0
 11
125.5796476550071
 21
335.9948770798301
 31
0.0
  0
LINE
  5
7C
330
4A
100
AcDbEntity
  8
1
  6
Continuous
 62
     7
100
AcDbLine
 10
125.5796476550071
 20
361.884614013011
 30
0.0
 11
125.5796476550071
 21
335.9948770798301
 31
0.0
  0
ARC
  5
7D
330
4A
100
AcDbEntity
  8
1
  6
Continuous
 62
     7
100
AcDbCircle
 10
112.3296476550071
 20
420.884614013011
 30
0.0
 40
1.500000000000079
100
AcDbArc
 50
85.69877769532943
 51
274.3012223046709
  0
ARC
  5
7E
330
4A
100
AcDbEntity
  8
1
  6
Continuous
 62
     7
100
AcDbCircle
 10
122.3296476550067
 20
277.4333402656822
 30
0.0
 40
5.999999999999776
100
AcDbArc
 50
73.26033058590299
 51
106.7396694140951
  0
ARC
  5
7F
330
4A
100
AcDbEntity
  8
1
  6
Continuous
 62
     7
100
AcDbCircle
 10
122.3296476550067
 20
234.4333402656819
 30
0.0
 40
6.000000000000014
100
AcDbArc
 50
0.0
 51
57.20283170417634
  0
ARC
  5
80
330
4A
100
AcDbEntity
  8
1
  6
Continuous
 62
     7
100
AcDbCircle
 10
122.3296476550067
 20
234.4333402656819
 30
0.0
 40
6.000000000000093
100
AcDbArc
 50
122.7971682958231
 51
0.0
  0
ARC
  5
81
330
4A
100
AcDbEntity
  8
1
  6
Continuous
 62
     7
100
AcDbCircle
 10
277.8313314813544
 20
168.2157358527218
 30
0.0
 40
80.00000000000013
100
AcDbArc
 50
98.26611976827365
 51
102.8824414943158
  0
ARC
  5
82
330
4A
100
AcDbEntity
  8
1
  6
Continuous
 62
     7
100
AcDbCircle
 10
277.8313314813544
 20
168.2157358527218
 30
0.0
 40
80.00000000000009
100
AcDbArc
 50
77.12007995007718
 51
81.70554529669525
  0
ARC
  5
83
330
4A
100
AcDbEntity
  8
1
  6
Continuous
 62
     7
100
AcDbCircle
 10
193.5938677564383
 20
238.3549742531171
 30
0.0
 40
9.99999999999996
100
AcDbArc
 50
214.0022218508718
 51
265.5875245809588
  0
ARC
  5
84
330
4A
100
AcDbEntity
  8
1
  6
Continuous
 62
     7
100
AcDbCircle
 10
224.9751998074344
 20
263.4291168577245
 30
0.0
 40
48.64557250889017
100
AcDbArc
 50
180.0524163948034
 51
217.8183980758109
  0
ARC
  5
85
330
4A
100
AcDbEntity
  8
1
  6
Continuous
 62
     7
100
AcDbCircle
 10
224.8296476550073
 20
263.3846140130113
 30
0.0
 40
50.0
100
AcDbArc
 50
180.0
 51
217.7659816810076
  0
ARC
  5
86
330
4A
100
AcDbEntity
  8
1
  6
Continuous
 62
     7
100
AcDbCircle
 10
193.5938677564383
 20
238.3549742531171
 30
0.0
 40
8.499999999999924
100
AcDbArc
 50
214.0022218508716
 51
265.5875245809585
  0
ARC
  5
87
330
4A
100
AcDbEntity
  8
1
  6
Continuous
 62
     7
100
AcDbCircle
 10
188.8296476550073
 20
269.3846140130113
 30
0.0
 40
14.0
100
AcDbArc
 50
90.0
 51
180.0
  0
ARC
  5
88
330
4A
100
AcDbEntity
  8
1
  6
Continuous
 62
     7
100
AcDbCircle
 10
188.8296476550073
 20
269.3846140130113
 30
0.0
 40
12.5
100
AcDbArc
 50
90.0
 51
180.0
  0
ARC
  5
89
330
4A
100
AcDbEntity
  8
1
  6
Continuous
 62
     7
100
AcDbCircle
 10
188.8296476550073
 20
269.3846140130113
 30
0.0
 40
12.50000000000006
100
AcDbArc
 50
9.51833805958781
 51
90.0
  0
ARC
  5
8A
330
4A
100
AcDbEntity
  8
1
  6
Continuous
 62
     7
100
AcDbCircle
 10
188.8296476550073
 20
269.3846140130113
 30
0.0
 40
13.99999999999995
100
AcDbArc
 50
9.51833805969052
 51
90.0
  0
ARC
  5
8B
330
4A
100
AcDbEntity
  8
1
  6
Continuous
 62
     7
100
AcDbCircle
 10
251.955846435967
 20
279.9241812839569
 30
0.0
 40
49.99999999999995
100
AcDbArc
 50
189.4675873594668
 51
205.4855535598245
  0
ARC
  5
8C
330
4A
100
AcDbEntity
  8
1
  6
Continuous
 62
     7
100
AcDbCircle
 10
251.955846435967
 20
279.9241812839569
 30
0.0
 40
51.49999942870166
100
AcDbArc
 50
189.4675873594667
 51
205.4212070371928
  0
ARC
  5
8D
330
4A
100
AcDbEntity
  8
1
  6
Continuous
 62
     7
100
AcDbCircle
 10
230.1547459744155
 20
267.3846140130113
 30
0.0
 40
26.50000000000001
100
AcDbArc
 50
201.1646583360057
 51
234.429508705065
  0
ARC
  5
8E
330
4A
100
AcDbEntity
  8
1
  6
Continuous
 62
     7
100
AcDbCircle
 10
230.1547459744155
 20
267.3846140130113
 30
0.0
 40
25.00000000000016
100
AcDbArc
 50
201.0378329484593
 51
234.429508705065
  0
ARC
  5
8F
330
4A
100
AcDbEntity
  8
1
  6
Continuous
 62
     7
100
AcDbCircle
 10
251.9596476550073
 20
342.9527436977442
 30
0.0
 40
102.5599999999999
100
AcDbArc
 50
249.2536374812727
 51
270.0
  0
ARC
  5
90
330
4A
100
AcDbEntity
  8
1
  6
Continuous
 62
     7
100
AcDbCircle
 10
251.9596476550073
 20
342.9527436977442
 30
0.0
 40
104.0599999999999
100
AcDbArc
 50
249.2536374812727
 51
264.0901839320802
  0
ARC
  5
91
330
4A
100
AcDbEntity
  8
1
  6
Continuous
 62
     7
100
AcDbCircle
 10
243.2809214023365
 20
234.4333402656819
 30
0.0
 40
4.548726252670605
100
AcDbArc
 50
270.0
 51
82.68124764144287
  0
ARC
  5
92
330
4A
100
AcDbEntity
  8
1
  6
Continuous
 62
     7
100
AcDbCircle
 10
243.2809214023365
 20
234.4333402656819
 30
0.0
 40
4.548726252670605
100
AcDbArc
 50
270.0
 51
82.68124764144287
  0
ARC
  5
93
330
4A
100
AcDbEntity
  8
1
  6
Continuous
 62
     7
100
AcDbCircle
 10
122.3313314813544
 20
168.2157358527218
 30
0.0
 40
80.0000000000001
100
AcDbArc
 50
77.12007995007714
 51
81.70554529669525
  0
ARC
  5
94
330
4A
100
AcDbEntity
  8
1
  6
Continuous
 62
     7
100
AcDbCircle
 10
122.3313314813544
 20
168.2157358527218
 30
0.0
 40
80.00000000000011
100
AcDbArc
 50
98.26611976827361
 51
102.8824414943158
  0
ARC
  5
95
330
4A
100
AcDbEntity
  8
1
  6
Continuous
 62
     7
100
AcDbCircle
 10
184.9398160506331
 20
371.0027420131498
 30
0.0
 40
59.99999999999998
100
AcDbArc
 50
160.6483819540052
 51
171.6250630946847
  0
ARC
  5
96
330
4A
100
AcDbEntity
  8
1
  6
Continuous
 62
     7
100
AcDbCircle
 10
59.71947925938116
 20
371.0027420131498
 30
0.0
 40
59.99999999999991
100
AcDbArc
 50
8.3749369053153
 51
19.35161804599484
  0
ARC
  5
97
330
4A
100
AcDbEntity
  8
1
  6
Continuous
 62
     7
100
AcDbCircle
 10
122.3296476550071
 20
323.884614013011
 30
0.0
 40
6.000000000000042
100
AcDbArc
 50
253.2603305859058
 51
286.7396694140951
  0
CIRCLE
  5
98
330
4A
100
AcDbEntity
  8
1
  6
Continuous
 62
     7
100
AcDbCircle
 10
122.3296476550071
 20
420.884614013011
 30
0.0
 40
19.0000000000003
  0
ARC
  5
99
330
4A
100
AcDbEntity
  8
1
  6
Continuous
 62
     7
100
AcDbCircle
 10
123.6257539032136
 20
281.7426451508529
 30
0.0
 40
1.499999999999917
100
AcDbArc
 50
1.58145765984451
 51
73.26033058590379
  0
ARC
  5
9A
330
4A
100
AcDbEntity
  8
1
  6
Continuous
 62
     7
100
AcDbCircle
 10
121.0335414067999
 20
281.7426451508529
 30
0.0
 40
1.500000000000058
100
AcDbArc
 50
106.7396694140926
 51
178.4185423401599
  0
ARC
  5
9B
330
4A
100
AcDbEntity
  8
1
  6
Continuous
 62
     7
100
AcDbCircle
 10
123.6544112600957
 20
230.132758747953
 30
0.0
 40
1.500000000000077
100
AcDbArc
 50
287.121077358672
 51
355.6135554685492
  0
ARC
  5
9C
330
4A
100
AcDbEntity
  8
1
  6
Continuous
 62
     7
100
AcDbCircle
 10
121.0048840499181
 20
230.132758747953
 30
0.0
 40
1.500000000000149
100
AcDbArc
 50
184.3864445314502
 51
252.8789226413207
  0
ARC
  5
9D
330
4A
100
AcDbEntity
  8
1
  6
Continuous
 62
     7
100
AcDbCircle
 10
259.8296476550075
 20
205.8846140130112
 30
0.0
 40
0.9999999999997726
100
AcDbArc
 50
180.0
 51
270.000000000013
  0
ARC
  5
9E
330
4A
100
AcDbEntity
  8
1
  6
Continuous
 62
     7
100
AcDbCircle
 10
295.8296476550075
 20
205.8846140130112
 30
0.0
 40
1.0
100
AcDbArc
 50
269.9999999999544
 51
0.0
  0
ARC
  5
9F
330
4A
100
AcDbEntity
  8
1
  6
Continuous
 62
     7
100
AcDbCircle
 10
104.3296476550071
 20
205.8846140130112
 30
0.0
 40
0.9999999999997868
100
AcDbArc
 50
180.0
 51
269.9999999999487
  0
ARC
  5
A0
330
4A
100
AcDbEntity
  8
1
  6
Continuous
 62
     7
100
AcDbCircle
 10
140.3296476550071
 20
205.8846140130112
 30
0.0
 40
1.0
100
AcDbArc
 50
269.9999999999544
 51
0.0
  0
ARC
  5
A1
330
4A
100
AcDbEntity
  8
1
  6
Continuous
 62
     7
100
AcDbCircle
 10
260.3296476550072
 20
244.7398566463813
 30
0.0
 40
1.499999999999952
100
AcDbArc
 50
102.8824414943179
 51
180.0
  0
ARC
  5
A2
330
4A
100
AcDbEntity
  8
1
  6
Continuous
 62
     7
100
AcDbCircle
 10
295.3296476550072
 20
244.7406267777462
 30
0.0
 40
1.5
100
AcDbArc
 50
0.0
 51
77.12007995007689
  0
ARC
  5
A3
330
4A
100
AcDbEntity
  8
1
  6
Continuous
 62
     7
100
AcDbCircle
 10
253.8296476550072
 20
223.3846140130112
 30
0.0
 40
5.0
100
AcDbArc
 50
0.0
 51
90.0
  0
ARC
  5
A4
330
4A
100
AcDbEntity
  8
1
  6
Continuous
 62
     7
100
AcDbCircle
 10
246.4081649658962
 20
258.7820631956991
 30
0.0
 40
20.0
100
AcDbArc
 50
257.1662931588565
 51
262.6812476414431
  0
ARC
  5
A5
330
4A
100
AcDbEntity
  8
1
  6
Continuous
 62
     7
100
AcDbCircle
 10
256.8296476550072
 20
242.3926786602664
 30
0.0
 40
2.000000000000054
100
AcDbArc
 50
269.5379322533591
 51
359.9999999999976
  0
ARC
  5
A6
330
4A
100
AcDbEntity
  8
1
  6
Continuous
 62
     7
100
AcDbCircle
 10
139.8296476550072
 20
244.7406267777462
 30
0.0
 40
1.5
100
AcDbArc
 50
0.0
 51
77.12007995007582
  0
ARC
  5
A7
330
4A
100
AcDbEntity
  8
1
  6
Continuous
 62
     7
100
AcDbCircle
 10
104.8296476550072
 20
244.7398566463813
 30
0.0
 40
1.499999999999955
100
AcDbArc
 50
102.8824414943185
 51
180.0
  0
ARC
  5
A8
330
4A
100
AcDbEntity
  8
1
  6
Continuous
 62
     7
100
AcDbCircle
 10
111.3296476550071
 20
399.5538850053095
 30
0.0
 40
5.0
100
AcDbArc
 50
0.0
 51
62.72038726402171
  0
ARC
  5
A9
330
4A
100
AcDbEntity
  8
1
  6
Continuous
 62
     7
100
AcDbCircle
 10
133.3296476550071
 20
399.5538850053095
 30
0.0
 40
4.999999999999993
100
AcDbArc
 50
117.2796127359773
 51
180.0
  0
ARC
  5
AA
330
4A
100
AcDbEntity
  8
1
  6
Continuous
 62
     7
100
AcDbCircle
 10
121.0335414068003
 20
319.5753091278398
 30
0.0
 40
1.500000000000005
100
AcDbArc
 50
181.5814576598292
 51
253.2603305859055
  0
ARC
  5
AB
330
4A
100
AcDbEntity
  8
1
  6
Continuous
 62
     7
100
AcDbCircle
 10
123.6257539032139
 20
319.5753091278398
 30
0.0
 40
1.499999999999923
100
AcDbArc
 50
286.7396694140981
 51
358.4185423401687
  0
ENDBLK
  5
4C
330
4A
100
AcDbEntity
  8
0
100
AcDbBlockEnd
  0
BLOCK
  5
4E
330
4D
100
AcDbEntity
  8
0
100
AcDbBlockBegin
  2
開示A4
 70
     0
 10
0.0
 20
0.0
 30
0.0
  3
開示A4
  1

  0
POINT
  5
AC
330
4D
100
AcDbEntity
  8
1
 62
     4
100
AcDbPoint
 10
93.75
 20
17.0
 30
0.0
  0
POINT
  5
AD
330
4D
100
AcDbEntity
  8
1
 62
     4
100
AcDbPoint
 10
85.25
 20
17.0
 30
0.0
  0
POINT
  5
AE
330
4D
100
AcDbEntity
  8
1
 62
     4
100
AcDbPoint
 10
106.5
 20
19.00000000000001
 30
0.0
  0
POINT
  5
AF
330
4D
100
AcDbEntity
  8
1
 62
     4
100
AcDbPoint
 10
106.5
 20
12.5
 30
0.0
  0
POINT
  5
B0
330
4D
100
AcDbEntity
  8
1
 62
     4
100
AcDbPoint
 10
112.25
 20
12.5
 30
0.0
  0
POINT
  5
B1
330
4D
100
AcDbEntity
  8
1
 62
     4
100
AcDbPoint
 10
100.75
 20
12.5
 30
0.0
  0
POINT
  5
B2
330
4D
100
AcDbEntity
  8
1
 62
     4
100
AcDbPoint
 10
123.5
 20
19.00000000000001
 30
0.0
  0
POINT
  5
B3
330
4D
100
AcDbEntity
  8
1
 62
     4
100
AcDbPoint
 10
123.5
 20
12.5
 30
0.0
  0
POINT
  5
B4
330
4D
100
AcDbEntity
  8
1
 62
     4
100
AcDbPoint
 10
129.25
 20
12.5
 30
0.0
  0
POINT
  5
B5
330
4D
100
AcDbEntity
  8
1
 62
     4
100
AcDbPoint
 10
117.75
 20
12.5
 30
0.0
  0
POINT
  5
B6
330
4D
100
AcDbEntity
  8
1
 62
     4
100
AcDbPoint
 10
140.5
 20
19.00000000000001
 30
0.0
  0
POINT
  5
B7
330
4D
100
AcDbEntity
  8
1
 62
     4
100
AcDbPoint
 10
140.5
 20
12.5
 30
0.0
  0
POINT
  5
B8
330
4D
100
AcDbEntity
  8
1
 62
     4
100
AcDbPoint
 10
146.25
 20
12.5
 30
0.0
  0
POINT
  5
B9
330
4D
100
AcDbEntity
  8
1
 62
     4
100
AcDbPoint
 10
134.75
 20
12.5
 30
0.0
  0
POINT
  5
BA
330
4D
100
AcDbEntity
  8
1
 62
     4
100
AcDbPoint
 10
151.75
 20
12.5
 30
0.0
  0
POINT
  5
BB
330
4D
100
AcDbEntity
  8
1
 62
     4
100
AcDbPoint
 10
163.25
 20
12.5
 30
0.0
  0
POINT
  5
BC
330
4D
100
AcDbEntity
  8
1
 62
     4
100
AcDbPoint
 10
157.5
 20
12.5
 30
0.0
  0
POINT
  5
BD
330
4D
100
AcDbEntity
  8
1
 62
     4
100
AcDbPoint
 10
57.0
 20
14.25
 30
0.0
  0
POINT
  5
BE
330
4D
100
AcDbEntity
  8
1
 62
     4
100
AcDbPoint
 10
57.0
 20
22.75000000000001
 30
0.0
  0
POINT
  5
BF
330
4D
100
AcDbEntity
  8
1
 62
     4
100
AcDbPoint
 10
47.5
 20
282.0000000000003
 30
0.0
  0
POINT
  5
C0
330
4D
100
AcDbEntity
  8
1
 62
     4
100
AcDbPoint
 10
157.5
 20
19.00000000000001
 30
0.0
  0
POINT
  5
C1
330
4D
100
AcDbEntity
  8
1
 62
     4
100
AcDbPoint
 10
57.0
 20
16.25
 30
0.0
  0
POINT
  5
C2
330
4D
100
AcDbEntity
  8
1
 62
     4
100
AcDbPoint
 10
57.0
 20
24.75000000000001
 30
0.0
  0
POINT
  5
C3
330
4D
100
AcDbEntity
  8
1
 62
     4
100
AcDbPoint
 10
57.0
 20
20.75000000000001
 30
0.0
  0
POINT
  5
C4
330
4D
100
AcDbEntity
  8
1
 62
     4
100
AcDbPoint
 10
57.0
 20
12.25
 30
0.0
  0
POINT
  5
C5
330
4D
100
AcDbEntity
  8
1
 62
     4
100
AcDbPoint
 10
34.0
 20
34.00000000000001
 30
0.0
  0
LINE
  5
C6
330
4D
100
AcDbEntity
  8
1
  6
Continuous
 62
     7
100
AcDbLine
 10
105.0
 20
10.0
 30
0.0
 11
200.0
 21
10.0
 31
0.0
  0
LINE
  5
C7
330
4D
100
AcDbEntity
  8
1
  6
Continuous
 62
     2
100
AcDbLine
 10
105.0
 20
10.0
 30
0.0
 11
105.0
 21
5.0
 31
0.0
  0
LINE
  5
C8
330
4D
100
AcDbEntity
  8
1
  6
Continuous
 62
     7
100
AcDbLine
 10
200.0
 20
148.5
 30
0.0
 11
200.0
 21
287.0000000000003
 31
0.0
  0
LINE
  5
C9
330
4D
100
AcDbEntity
  8
1
  6
Continuous
 62
     2
100
AcDbLine
 10
200.0
 20
148.5
 30
0.0
 11
205.0
 21
148.5
 31
0.0
  0
LINE
  5
CA
330
4D
100
AcDbEntity
  8
1
  6
Continuous
 62
     7
100
AcDbLine
 10
25.0
 20
148.5
 30
0.0
 11
25.0
 21
287.0000000000003
 31
0.0
  0
LINE
  5
CB
330
4D
100
AcDbEntity
  8
1
  6
Continuous
 62
     2
100
AcDbLine
 10
25.0
 20
148.5
 30
0.0
 11
20.0
 21
148.5
 31
0.0
  0
LINE
  5
CC
330
4D
100
AcDbEntity
  8
1
  6
Continuous
 62
     7
100
AcDbLine
 10
105.0
 20
287.0000000000003
 30
0.0
 11
25.0
 21
287.0000000000003
 31
0.0
  0
LINE
  5
CD
330
4D
100
AcDbEntity
  8
1
  6
Continuous
 62
     2
100
AcDbLine
 10
105.0
 20
287.0000000000003
 30
0.0
 11
105.0
 21
292.0000000000003
 31
0.0
  0
LINE
  5
CE
330
4D
100
AcDbEntity
  8
1
  6
Continuous
 62
     2
100
AcDbLine
 10
166.0
 20
20.00000000000001
 30
0.0
 11
200.0
 21
20.00000000000001
 31
0.0
  0
LINE
  5
CF
330
4D
100
AcDbEntity
  8
1
  6
Continuous
 62
     2
100
AcDbLine
 10
98.0
 20
27.00000000000001
 30
0.0
 11
98.0
 21
9.99999999999999
 31
0.0
  0
LINE
  5
D0
330
4D
100
AcDbEntity
  8
1
  6
Continuous
 62
     2
100
AcDbLine
 10
115.0
 20
27.00000000000001
 30
0.0
 11
115.0
 21
9.99999999999999
 31
0.0
  0
LINE
  5
D1
330
4D
100
AcDbEntity
  8
1
  6
Continuous
 62
     2
100
AcDbLine
 10
149.0
 20
27.00000000000001
 30
0.0
 11
149.0
 21
10.0
 31
0.0
  0
LINE
  5
D2
330
4D
100
AcDbEntity
  8
1
  6
Continuous
 62
     2
100
AcDbLine
 10
132.0
 20
27.00000000000001
 30
0.0
 11
132.0
 21
9.99999999999999
 31
0.0
  0
LINE
  5
D3
330
4D
100
AcDbEntity
  8
1
  6
Continuous
 62
     2
100
AcDbLine
 10
166.0
 20
27.00000000000001
 30
0.0
 11
166.0
 21
10.0
 31
0.0
  0
LINE
  5
D4
330
4D
100
AcDbEntity
  8
1
  6
Continuous
 62
     2
100
AcDbLine
 10
55.0
 20
277.0000000000003
 30
0.0
 11
25.0
 21
277.0000000000003
 31
0.0
  0
LINE
  5
D5
330
4D
100
AcDbEntity
  8
1
  6
Continuous
 62
     7
100
AcDbLine
 10
25.0
 20
10.0
 30
0.0
 11
25.0
 21
148.5
 31
0.0
  0
LINE
  5
D6
330
4D
100
AcDbEntity
  8
1
  6
Continuous
 62
     2
100
AcDbLine
 10
40.0
 20
287.0000000000003
 30
0.0
 11
40.0
 21
277.0000000000003
 31
0.0
  0
LINE
  5
D7
330
4D
100
AcDbEntity
  8
1
  6
Continuous
 62
     2
100
AcDbLine
 10
55.0
 20
287.0000000000003
 30
0.0
 11
55.0
 21
277.0000000000003
 31
0.0
  0
LINE
  5
D8
330
4D
100
AcDbEntity
  8
1
  6
Continuous
 62
     2
100
AcDbLine
 10
33.0
 20
41.00000000000001
 30
0.0
 11
33.0
 21
27.0
 31
0.0
  0
LINE
  5
D9
330
4D
100
AcDbEntity
  8
1
  6
Continuous
 62
     7
100
AcDbLine
 10
200.0
 20
27.00000000000001
 30
0.0
 11
25.0
 21
27.00000000000001
 31
0.0
  0
LINE
  5
DA
330
4D
100
AcDbEntity
  8
1
  6
Continuous
 62
     7
100
AcDbLine
 10
25.0
 20
41.0
 30
0.0
 11
200.0
 21
41.0
 31
0.0
  0
LINE
  5
DB
330
4D
100
AcDbEntity
  8
1
  6
PHANTOM
 62
     4
100
AcDbLine
 10
0.0
 20
0.0
 30
0.0
 11
210.0
 21
0.0
 31
0.0
  0
LINE
  5
DC
330
4D
100
AcDbEntity
  8
1
  6
PHANTOM
 62
     4
100
AcDbLine
 10
210.0
 20
0.0
 30
0.0
 11
210.0
 21
297.0
 31
0.0
  0
LINE
  5
DD
330
4D
100
AcDbEntity
  8
1
  6
PHANTOM
 62
     4
100
AcDbLine
 10
210.0
 20
297.0
 30
0.0
 11
0.0
 21
297.0
 31
0.0
  0
LINE
  5
DE
330
4D
100
AcDbEntity
  8
1
  6
PHANTOM
 62
     4
100
AcDbLine
 10
0.0
 20
297.0
 30
0.0
 11
0.0
 21
0.0
 31
0.0
  0
LINE
  5
DF
330
4D
100
AcDbEntity
  8
1
  6
Continuous
 62
     7
100
AcDbLine
 10
25.0
 20
10.0
 30
0.0
 11
105.0
 21
10.0
 31
0.0
  0
LINE
  5
E0
330
4D
100
AcDbEntity
  8
1
  6
Continuous
 62
     7
100
AcDbLine
 10
200.0
 20
10.0
 30
0.0
 11
200.0
 21
148.5
 31
0.0
  0
LINE
  5
E1
330
4D
100
AcDbEntity
  8
1
  6
Continuous
 62
     7
100
AcDbLine
 10
200.0
 20
287.0000000000003
 30
0.0
 11
105.0
 21
287.0000000000003
 31
0.0
  0
LINE
  5
E2
330
4D
100
AcDbEntity
  8
1
  6
Continuous
 62
     2
100
AcDbLine
 10
25.0
 20
18.50000000000001
 30
0.0
 11
81.0
 21
18.50000000000001
 31
0.0
  0
LINE
  5
E3
330
4D
100
AcDbEntity
  8
1
  6
Continuous
 62
     2
100
AcDbLine
 10
33.0
 20
27.0
 30
0.0
 11
33.0
 21
10.0
 31
0.0
  0
LINE
  5
E4
330
4D
100
AcDbEntity
  8
1
  6
Continuous
 62
     7
100
AcDbLine
 10
191.0
 20
24.70000000000001
 30
0.0
 11
191.0
 21
22.30000000000001
 31
0.0
  0
LINE
  5
E5
330
4D
100
AcDbEntity
  8
1
  6
Continuous
 62
     7
100
AcDbLine
 10
191.0
 20
24.70000000000001
 30
0.0
 11
196.0
 21
25.50000000000001
 31
0.0
  0
LINE
  5
E6
330
4D
100
AcDbEntity
  8
1
  6
Continuous
 62
     7
100
AcDbLine
 10
196.0
 20
25.50000000000001
 30
0.0
 11
196.0
 21
21.50000000000001
 31
0.0
  0
LINE
  5
E7
330
4D
100
AcDbEntity
  8
1
  6
Continuous
 62
     7
100
AcDbLine
 10
196.0
 20
21.50000000000001
 30
0.0
 11
191.0
 21
22.30000000000001
 31
0.0
  0
LINE
  5
E8
330
4D
100
AcDbEntity
  8
1
  6
DOT_CENTER
 62
     2
100
AcDbLine
 10
184.0
 20
23.50000000000001
 30
0.0
 11
197.0
 21
23.50000000000001
 31
0.0
  0
LINE
  5
E9
330
4D
100
AcDbEntity
  8
1
  6
DOT_CENTER
 62
     2
100
AcDbLine
 10
187.0
 20
26.50000000000001
 30
0.0
 11
187.0
 21
20.50000000000001
 31
0.0
  0
LINE
  5
EA
330
4D
100
AcDbEntity
  8
1
  6
Continuous
 62
     2
100
AcDbLine
 10
81.0
 20
27.00000000000001
 30
0.0
 11
81.0
 21
10.0
 31
0.0
  0
CIRCLE
  5
EB
330
4D
100
AcDbEntity
  8
1
  6
Continuous
 62
     7
100
AcDbCircle
 10
103.5
 20
12.5
 30
0.0
 40
0.2999999999999972
  0
CIRCLE
  5
EC
330
4D
100
AcDbEntity
  8
1
  6
Continuous
 62
     7
100
AcDbCircle
 10
109.5
 20
12.5
 30
0.0
 40
0.2999999999999972
  0
CIRCLE
  5
ED
330
4D
100
AcDbEntity
  8
1
  6
Continuous
 62
     7
100
AcDbCircle
 10
120.5
 20
12.5
 30
0.0
 40
0.2999999999999972
  0
CIRCLE
  5
EE
330
4D
100
AcDbEntity
  8
1
  6
Continuous
 62
     7
100
AcDbCircle
 10
126.5
 20
12.5
 30
0.0
 40
0.2999999999999972
  0
CIRCLE
  5
EF
330
4D
100
AcDbEntity
  8
1
  6
Continuous
 62
     7
100
AcDbCircle
 10
137.5
 20
12.5
 30
0.0
 40
0.3000000000000114
  0
CIRCLE
  5
F0
330
4D
100
AcDbEntity
  8
1
  6
Continuous
 62
     7
100
AcDbCircle
 10
143.5
 20
12.5
 30
0.0
 40
0.3000000000000114
  0
CIRCLE
  5
F1
330
4D
100
AcDbEntity
  8
1
  6
Continuous
 62
     7
100
AcDbCircle
 10
160.5
 20
12.5
 30
0.0
 40
0.3000000000000114
  0
CIRCLE
  5
F2
330
4D
100
AcDbEntity
  8
1
  6
Continuous
 62
     7
100
AcDbCircle
 10
154.5
 20
12.5
 30
0.0
 40
0.3000000000000114
  0
CIRCLE
  5
F3
330
4D
100
AcDbEntity
  8
1
  6
Continuous
 62
     7
100
AcDbCircle
 10
187.0
 20
23.50000000000001
 30
0.0
 40
1.200000000000102
  0
CIRCLE
  5
F4
330
4D
100
AcDbEntity
  8
1
  6
Continuous
 62
     7
100
AcDbCircle
 10
187.0
 20
23.50000000000001
 30
0.0
 40
2.0
  0
CIRCLE
  5
F5
330
4D
100
AcDbEntity
  8
1
  6
DOT_CENTER
 62
     7
100
AcDbCircle
 10
89.5
 20
16.0
 30
0.0
 40
0.1000000000000227
  0
CIRCLE
  5
F6
330
4D
100
AcDbEntity
  8
1
  6
DOT_CENTER
 62
     7
100
AcDbCircle
 10
89.5
 20
18.0
 30
0.0
 40
0.1000000000000227
  0
MTEXT
  5
F8
330
4D
100
AcDbEntity
  8
1
 62
     7
100
AcDbMText
 10
188.5
 20
15.0
 30
0.0
 40
3.0
 41
0.0
 71
     5
 72
     1
  1
三栄水栓製作所
  7
CONVERTER_11
 73
     1
 44
1.0
  0
MTEXT
  5
F9
330
4D
100
AcDbEntity
  8
1
 62
     7
100
AcDbMText
 10
171.5
 20
15.0
 30
0.0
 40
2.5
 41
0.0
 71
     5
 72
     1
  1
株式会社
  7
CONVERTER_11
 73
     1
 44
1.0
  0
MTEXT
  5
FA
330
4D
100
AcDbEntity
  8
1
 62
     2
100
AcDbMText
 10
32.5
 20
282.0000000000003
 30
0.0
 40
5.0
 41
0.0
 71
     5
 72
     1
  1
図番
  7
CONVERTER_11
 73
     1
 44
0.45454545454545
  0
MTEXT
  5
FB
330
4D
100
AcDbEntity
  8
1
 62
     2
100
AcDbMText
 10
29.0
 20
34.00000000000001
 30
0.0
 40
3.5
 41
0.0
 71
     5
 72
     1
  1
備考
  7
CONVERTER_11
 73
     1
 44
0.45454545454545
  0
MTEXT
  5
FC
330
4D
100
AcDbEntity
  8
1
 62
     2
100
AcDbMText
 10
29.0
 20
22.75
 30
0.0
 40
3.5
 41
0.0
 71
     5
 72
     1
  1
品名
  7
CONVERTER_11
 73
     1
 44
0.72727272727273
  0
MTEXT
  5
FD
330
4D
100
AcDbEntity
  8
1
 62
     2
100
AcDbMText
 10
29.0
 20
14.25
 30
0.0
 40
3.5
 41
0.0
 71
     5
 72
     1
  1
品番
  7
CONVERTER_11
 73
     1
 44
0.72727272727273
  0
MTEXT
  5
FE
330
4D
100
AcDbEntity
  8
1
 62
     2
100
AcDbMText
 10
101.5
 20
25.00000000000001
 30
0.0
 40
3.0
 41
0.0
 71
     5
 72
     1
  1
承認
  7
CONVERTER_11
 73
     1
 44
0.59090909090909
  0
MTEXT
  5
FF
330
4D
100
AcDbEntity
  8
1
 62
     2
100
AcDbMText
 10
175.0
 20
23.50000000000001
 30
0.0
 40
3.5
 41
0.0
 71
     5
 72
     1
  1
第三角法
  7
CONVERTER_11
 73
     1
 44
0.54545454545455
  0
MTEXT
  5
100
330
4D
100
AcDbEntity
  8
1
 62
     2
100
AcDbMText
 10
118.5
 20
25.00000000000001
 30
0.0
 40
3.0
 41
0.0
 71
     5
 72
     1
  1
検図
  7
CONVERTER_11
 73
     1
 44
0.59090909090909
  0
MTEXT
  5
101
330
4D
100
AcDbEntity
  8
1
 62
     2
100
AcDbMText
 10
152.5
 20
25.00000000000001
 30
0.0
 40
3.0
 41
0.0
 71
     5
 72
     1
  1
設計
  7
CONVERTER_11
 73
     1
 44
0.59090909090909
  0
MTEXT
  5
102
330
4D
100
AcDbEntity
  8
1
 62
     2
100
AcDbMText
 10
135.5
 20
25.00000000000001
 30
0.0
 40
3.0
 41
0.0
 71
     5
 72
     1
  1
製図
  7
CONVERTER_11
 73
     1
 44
0.59090909090909
  0
MTEXT
  5
103
330
4D
100
AcDbEntity
  8
1
 62
     2
100
AcDbMText
 10
89.5
 20
24.00000000000001
 30
0.0
 40
3.5
 41
0.0
 71
     5
 72
     1
  1
尺度
  7
CONVERTER_11
 73
     1
 44
0.54545454545455
  0
MTEXT
  5
104
330
4D
100
AcDbEntity
  8
1
 62
   250
100
AcDbMText
 10
25.0
 20
5.0
 30
0.0
 40
3.5
 41
0.0
 71
     4
 72
     1
  1
備考欄の文字列 原点位置=4
  7
CONVERTER_11
 73
     1
 44
0.54545454545455
  0
ENDBLK
  5
4F
330
4D
100
AcDbEntity
  8
0
100
AcDbBlockEnd
  0
BLOCK
  5
51
330
50
100
AcDbEntity
  8
0
100
AcDbBlockBegin
  2
Y231-0-13
 70
     0
 10
322.8296476550072
 20
180.3846140130112
 30
0.0
  3
Y231-0-13
  1

  0
LINE
  5
105
330
50
100
AcDbEntity
  8
1
  6
Continuous
 62
     7
100
AcDbLine
 10
131.0796476550069
 20
396.8650907038357
 30
0.0
 11
130.5796476550069
 21
385.8846140130106
 31
0.0
  0
LINE
  5
106
330
50
100
AcDbEntity
  8
1
  6
Continuous
 62
     7
100
AcDbLine
 10
113.579647655007
 20
396.8650907038357
 30
0.0
 11
114.0796476550069
 21
385.8846140130107
 31
0.0
  0
LINE
  5
107
330
50
100
AcDbEntity
  8
1
  6
Continuous
 62
     7
100
AcDbLine
 10
234.6411419039663
 20
156.3900360961036
 30
0.0
 11
251.0181534060481
 21
154.3791919299187
 31
0.0
  0
LINE
  5
108
330
50
100
AcDbEntity
  8
1
  6
Continuous
 62
     7
100
AcDbLine
 10
251.0181534060481
 20
154.3791919299187
 30
0.0
 11
252.3289152228763
 21
165.0544902507285
 31
0.0
  0
LINE
  5
109
330
50
100
AcDbEntity
  8
1
  6
Continuous
 62
     7
100
AcDbLine
 10
234.6411419039663
 20
156.3900360961036
 30
0.0
 11
236.8328144366085
 21
174.2397764586183
 31
0.0
  0
LINE
  5
10A
330
50
100
AcDbEntity
  8
1
  6
Continuous
 62
     7
100
AcDbLine
 10
112.8296476550069
 20
508.8846140130106
 30
0.0
 11
131.8296476550069
 21
508.8846140130106
 31
0.0
  0
LINE
  5
10B
330
50
100
AcDbEntity
  8
1
  6
Continuous
 62
     7
100
AcDbLine
 10
112.8296476550069
 20
497.6166648205794
 30
0.0
 11
131.8296476550069
 21
497.6166648205794
 31
0.0
  0
LINE
  5
10C
330
50
100
AcDbEntity
  8
1
  6
Continuous
 62
     7
100
AcDbLine
 10
111.8296476550069
 20
495.8846140130106
 30
0.0
 11
132.8296476550069
 21
495.8846140130106
 31
0.0
  0
LINE
  5
10D
330
50
100
AcDbEntity
  8
1
  6
Continuous
 62
     7
100
AcDbLine
 10
99.79041810714295
 20
493.3483505919731
 30
0.0
 11
144.8688772028708
 21
493.3483505919731
 31
0.0
  0
LINE
  5
10E
330
50
100
AcDbEntity
  8
1
  6
Continuous
 62
     7
100
AcDbLine
 10
122.3296476550069
 20
509.8846140130106
 30
0.0
 11
112.8296476550069
 21
509.8846140130106
 31
0.0
  0
LINE
  5
10F
330
50
100
AcDbEntity
  8
1
  6
Continuous
 62
     7
100
AcDbLine
 10
132.8296476550069
 20
497.6166648205794
 30
0.0
 11
132.8296476550069
 21
495.8846140130106
 31
0.0
  0
LINE
  5
110
330
50
100
AcDbEntity
  8
1
  6
Continuous
 62
     7
100
AcDbLine
 10
122.3296476550069
 20
509.8846140130106
 30
0.0
 11
131.8296476550069
 21
509.8846140130106
 31
0.0
  0
LINE
  5
111
330
50
100
AcDbEntity
  8
1
  6
Continuous
 62
     7
100
AcDbLine
 10
132.8296476550069
 20
508.8846140130106
 30
0.0
 11
131.8296476550069
 21
509.8846140130106
 31
0.0
  0
LINE
  5
112
330
50
100
AcDbEntity
  8
1
  6
Continuous
 62
     7
100
AcDbLine
 10
132.8296476550069
 20
497.6166648205794
 30
0.0
 11
131.8296476550069
 21
497.6166648205794
 31
0.0
  0
LINE
  5
113
330
50
100
AcDbEntity
  8
1
  6
Continuous
 62
     7
100
AcDbLine
 10
132.8296476550069
 20
508.8846140130106
 30
0.0
 11
132.8296476550069
 21
497.6166648205794
 31
0.0
  0
LINE
  5
114
330
50
100
AcDbEntity
  8
1
  6
Continuous
 62
     7
100
AcDbLine
 10
131.8296476550069
 20
508.8846140130106
 30
0.0
 11
132.8296476550069
 21
508.8846140130106
 31
0.0
  0
LINE
  5
115
330
50
100
AcDbEntity
  8
1
  6
Continuous
 62
     7
100
AcDbLine
 10
111.8296476550069
 20
508.8846140130106
 30
0.0
 11
112.8296476550069
 21
508.8846140130106
 31
0.0
  0
LINE
  5
116
330
50
100
AcDbEntity
  8
1
  6
Continuous
 62
     7
100
AcDbLine
 10
111.8296476550069
 20
497.6166648205794
 30
0.0
 11
111.8296476550069
 21
508.8846140130106
 31
0.0
  0
LINE
  5
117
330
50
100
AcDbEntity
  8
1
  6
Continuous
 62
     7
100
AcDbLine
 10
112.8296476550069
 20
497.6166648205794
 30
0.0
 11
111.8296476550069
 21
497.6166648205794
 31
0.0
  0
LINE
  5
118
330
50
100
AcDbEntity
  8
1
  6
Continuous
 62
     7
100
AcDbLine
 10
112.8296476550069
 20
509.8846140130106
 30
0.0
 11
111.8296476550069
 21
508.8846140130106
 31
0.0
  0
LINE
  5
119
330
50
100
AcDbEntity
  8
1
  6
Continuous
 62
     7
100
AcDbLine
 10
111.8296476550069
 20
495.8846140130106
 30
0.0
 11
111.8296476550069
 21
497.6166648205794
 31
0.0
  0
LINE
  5
11A
330
50
100
AcDbEntity
  8
1
  6
Continuous
 62
     7
100
AcDbLine
 10
99.79041810714295
 20
493.3483505919731
 30
0.0
 11
109.8934840379183
 21
492.5532220590594
 31
0.0
  0
LINE
  5
11B
330
50
100
AcDbEntity
  8
1
  6
Continuous
 62
     7
100
AcDbLine
 10
113.5796476550069
 20
488.5655527241269
 30
0.0
 11
113.579647655007
 21
444.9041373221854
 31
0.0
  0
LINE
  5
11C
330
50
100
AcDbEntity
  8
1
  6
Continuous
 62
     2
100
AcDbLine
 10
112.8296476550069
 20
508.8846140130106
 30
0.0
 11
112.8296476550069
 21
509.8846140130106
 31
0.0
  0
LINE
  5
11D
330
50
100
AcDbEntity
  8
1
  6
Continuous
 62
     2
100
AcDbLine
 10
112.8296476550069
 20
497.6166648205794
 30
0.0
 11
112.8296476550069
 21
508.8846140130106
 31
0.0
  0
LINE
  5
11E
330
50
100
AcDbEntity
  8
1
  6
Continuous
 62
     2
100
AcDbLine
 10
111.8296476550069
 20
495.8846140130106
 30
0.0
 11
112.8296476550069
 21
497.6166648205794
 31
0.0
  0
LINE
  5
11F
330
50
100
AcDbEntity
  8
1
  6
Continuous
 62
     7
100
AcDbLine
 10
99.32964765500688
 20
495.8846140130106
 30
0.0
 11
111.8296476550069
 21
495.8846140130106
 31
0.0
  0
LINE
  5
120
330
50
100
AcDbEntity
  8
1
  6
Continuous
 62
     7
100
AcDbLine
 10
99.32964765500688
 20
495.8846140130106
 30
0.0
 11
99.32964765500688
 21
493.8468092588398
 31
0.0
  0
LINE
  5
121
330
50
100
AcDbEntity
  8
1
  6
Continuous
 62
     7
100
AcDbLine
 10
131.0796476550069
 20
488.5655527241269
 30
0.0
 11
131.0796476550069
 21
444.9041373221854
 31
0.0
  0
LINE
  5
122
330
50
100
AcDbEntity
  8
1
  6
Continuous
 62
     7
100
AcDbLine
 10
134.7658112720955
 20
492.5532220590594
 30
0.0
 11
144.8688772028708
 21
493.3483505919731
 31
0.0
  0
LINE
  5
123
330
50
100
AcDbEntity
  8
1
  6
Continuous
 62
     7
100
AcDbLine
 10
145.3296476550069
 20
493.8468092588398
 30
0.0
 11
145.3296476550069
 21
495.8846140130106
 31
0.0
  0
LINE
  5
124
330
50
100
AcDbEntity
  8
1
  6
Continuous
 62
     7
100
AcDbLine
 10
132.8296476550069
 20
495.8846140130106
 30
0.0
 11
145.3296476550069
 21
495.8846140130106
 31
0.0
  0
LINE
  5
125
330
50
100
AcDbEntity
  8
1
  6
Continuous
 62
     2
100
AcDbLine
 10
131.8296476550069
 20
497.6166648205794
 30
0.0
 11
132.8296476550069
 21
495.8846140130106
 31
0.0
  0
LINE
  5
126
330
50
100
AcDbEntity
  8
1
  6
Continuous
 62
     2
100
AcDbLine
 10
131.8296476550069
 20
508.8846140130106
 30
0.0
 11
131.8296476550069
 21
497.6166648205794
 31
0.0
  0
LINE
  5
127
330
50
100
AcDbEntity
  8
1
  6
Continuous
 62
     2
100
AcDbLine
 10
131.8296476550069
 20
509.8846140130106
 30
0.0
 11
131.8296476550069
 21
508.8846140130106
 31
0.0
  0
LINE
  5
128
330
50
100
AcDbEntity
  8
1
  6
Continuous
 62
     7
100
AcDbLine
 10
261.9443280735245
 20
189.5196227639049
 30
0.0
 11
249.0342030192444
 21
187.1691441395671
 31
0.0
  0
LINE
  5
129
330
50
100
AcDbEntity
  8
1
  6
Continuous
 62
     7
100
AcDbLine
 10
352.8296476550072
 20
203.3846140130112
 30
0.0
 11
350.8281063218739
 21
203.3846140130112
 31
0.0
  0
LINE
  5
12A
330
50
100
AcDbEntity
  8
1
  6
Continuous
 62
     7
100
AcDbLine
 10
352.8296476550072
 20
203.3846140130112
 30
0.0
 11
352.8296476550072
 21
180.3846140130112
 31
0.0
  0
LINE
  5
12B
330
50
100
AcDbEntity
  8
1
  6
Continuous
 62
     7
100
AcDbLine
 10
352.8296476550072
 20
190.8846140130112
 30
0.0
 11
365.8296476550072
 21
190.8846140130112
 31
0.0
  0
LINE
  5
12C
330
50
100
AcDbEntity
  8
1
  6
Continuous
 62
     2
100
AcDbLine
 10
352.8296476550072
 20
190.8846140130112
 30
0.0
 11
354.561698462576
 21
189.8846140130112
 31
0.0
  0
LINE
  5
12D
330
50
100
AcDbEntity
  8
1
  6
Continuous
 62
     2
100
AcDbLine
 10
354.561698462576
 20
189.8846140130112
 30
0.0
 11
366.8296476550072
 21
189.8846140130112
 31
0.0
  0
LINE
  5
12E
330
50
100
AcDbEntity
  8
1
  6
Continuous
 62
     7
100
AcDbLine
 10
366.8296476550072
 20
189.8846140130112
 30
0.0
 11
366.8296476550072
 21
170.8846140130112
 31
0.0
  0
LINE
  5
12F
330
50
100
AcDbEntity
  8
1
  6
Continuous
 62
     7
100
AcDbLine
 10
366.8296476550072
 20
189.8846140130112
 30
0.0
 11
365.8296476550072
 21
190.8846140130112
 31
0.0
  0
LINE
  5
130
330
50
100
AcDbEntity
  8
1
  6
Continuous
 62
     7
100
AcDbLine
 10
354.561698462576
 20
180.3846140130112
 30
0.0
 11
354.561698462576
 21
190.8846140130112
 31
0.0
  0
LINE
  5
131
330
50
100
AcDbEntity
  8
1
  6
Continuous
 62
     7
100
AcDbLine
 10
365.8296476550072
 20
190.8846140130112
 30
0.0
 11
365.8296476550072
 21
180.3846140130112
 31
0.0
  0
LINE
  5
132
330
50
100
AcDbEntity
  8
1
  6
Continuous
 62
     2
100
AcDbLine
 10
366.8296476550072
 20
170.8846140130112
 30
0.0
 11
354.561698462576
 21
170.8846140130112
 31
0.0
  0
LINE
  5
133
330
50
100
AcDbEntity
  8
1
  6
Continuous
 62
     7
100
AcDbLine
 10
365.8296476550072
 20
180.3846140130112
 30
0.0
 11
365.8296476550072
 21
169.8846140130112
 31
0.0
  0
LINE
  5
134
330
50
100
AcDbEntity
  8
1
  6
Continuous
 62
     7
100
AcDbLine
 10
365.8296476550072
 20
169.8846140130112
 30
0.0
 11
352.8296476550072
 21
169.8846140130112
 31
0.0
  0
LINE
  5
135
330
50
100
AcDbEntity
  8
1
  6
Continuous
 62
     7
100
AcDbLine
 10
354.561698462576
 20
169.8846140130112
 30
0.0
 11
354.561698462576
 21
180.3846140130112
 31
0.0
  0
LINE
  5
136
330
50
100
AcDbEntity
  8
1
  6
Continuous
 62
     7
100
AcDbLine
 10
365.8296476550072
 20
169.8846140130112
 30
0.0
 11
366.8296476550072
 21
170.8846140130112
 31
0.0
  0
LINE
  5
137
330
50
100
AcDbEntity
  8
1
  6
Continuous
 62
     2
100
AcDbLine
 10
354.561698462576
 20
170.8846140130112
 30
0.0
 11
352.8296476550072
 21
169.8846140130112
 31
0.0
  0
LINE
  5
138
330
50
100
AcDbEntity
  8
1
  6
Continuous
 62
     7
100
AcDbLine
 10
352.8296476550072
 20
180.3846140130112
 30
0.0
 11
352.8296476550072
 21
157.3846140130112
 31
0.0
  0
LINE
  5
139
330
50
100
AcDbEntity
  8
1
  6
Continuous
 62
     7
100
AcDbLine
 10
350.8281063218739
 20
157.3846140130112
 30
0.0
 11
352.8296476550072
 21
157.3846140130112
 31
0.0
  0
LINE
  5
13A
330
50
100
AcDbEntity
  8
1
  6
Continuous
 62
     7
100
AcDbLine
 10
289.8296476550072
 20
195.7166349900446
 30
0.0
 11
289.8296476550072
 21
204.8846140130112
 31
0.0
  0
LINE
  5
13B
330
50
100
AcDbEntity
  8
1
  6
Continuous
 62
     7
100
AcDbLine
 10
346.3419783200748
 20
189.1346140130112
 30
0.0
 11
301.8491709641821
 21
189.1346140130112
 31
0.0
  0
LINE
  5
13C
330
50
100
AcDbEntity
  8
1
  6
Continuous
 62
     2
100
AcDbLine
 10
288.8296476550072
 20
204.3846140130112
 30
0.0
 11
289.8296476550072
 21
202.6525632054423
 31
0.0
  0
LINE
  5
13D
330
50
100
AcDbEntity
  8
1
  6
Continuous
 62
     2
100
AcDbLine
 10
288.8296476550072
 20
204.8846140130112
 30
0.0
 11
288.8296476550072
 21
204.3846140130112
 31
0.0
  0
LINE
  5
13E
330
50
100
AcDbEntity
  8
1
  6
Continuous
 62
     7
100
AcDbLine
 10
277.8296476550072
 20
204.3846140130112
 30
0.0
 11
289.8296476550072
 21
204.3846140130112
 31
0.0
  0
LINE
  5
13F
330
50
100
AcDbEntity
  8
1
  6
Continuous
 62
     7
100
AcDbLine
 10
265.8296476550072
 20
204.8846140130112
 30
0.0
 11
265.8296476550072
 21
195.1346140130112
 31
0.0
  0
LINE
  5
140
330
50
100
AcDbEntity
  8
1
  6
Continuous
 62
     7
100
AcDbLine
 10
265.8296476550072
 20
204.3846140130112
 30
0.0
 11
277.8296476550072
 21
204.3846140130112
 31
0.0
  0
LINE
  5
141
330
50
100
AcDbEntity
  8
1
  6
Continuous
 62
     2
100
AcDbLine
 10
266.8296476550072
 20
204.3846140130112
 30
0.0
 11
266.8296476550072
 21
204.8846140130112
 31
0.0
  0
LINE
  5
142
330
50
100
AcDbEntity
  8
1
  6
Continuous
 62
     2
100
AcDbLine
 10
265.8296476550072
 20
202.6525632054423
 30
0.0
 11
266.8296476550072
 21
204.3846140130112
 31
0.0
  0
LINE
  5
143
330
50
100
AcDbEntity
  8
1
  6
Continuous
 62
     7
100
AcDbLine
 10
301.8491709641821
 20
171.6346140130112
 30
0.0
 11
346.3419783200748
 21
171.6346140130112
 31
0.0
  0
LINE
  5
144
330
50
100
AcDbEntity
  8
1
  6
Continuous
 62
     7
100
AcDbLine
 10
350.3296476550073
 20
202.9238435608751
 30
0.0
 11
350.3296476550073
 21
157.8453844651472
 31
0.0
  0
LINE
  5
145
330
50
100
AcDbEntity
  8
1
  6
DASH_CENTER
 62
     2
100
AcDbLine
 10
132.205762428253
 20
155.3846140130112
 30
0.0
 11
111.1749224465801
 21
155.3846140130112
 31
0.0
  0
LINE
  5
146
330
50
100
AcDbEntity
  8
1
  6
Continuous
 62
     7
100
AcDbLine
 10
113.5796686565695
 20
155.3825211442549
 30
0.0
 11
113.0814093312594
 21
180.2090400089149
 31
0.0
  0
LINE
  5
147
330
50
100
AcDbEntity
  8
1
  6
Continuous
 62
     7
100
AcDbLine
 10
130.0796266534446
 20
155.3825211442549
 30
0.0
 11
130.5778859787546
 21
180.2090400089149
 31
0.0
  0
LINE
  5
148
330
50
100
AcDbEntity
  8
1
  6
Continuous
 62
     7
100
AcDbLine
 10
109.829647655007
 20
186.4673765433094
 30
0.0
 11
109.8296476550069
 21
204.8846140130112
 31
0.0
  0
LINE
  5
149
330
50
100
AcDbEntity
  8
1
  6
Continuous
 62
     7
100
AcDbLine
 10
132.829647655007
 20
204.3846140130112
 30
0.0
 11
110.829647655007
 21
204.3846140130112
 31
0.0
  0
LINE
  5
14A
330
50
100
AcDbEntity
  8
1
  6
Continuous
 62
     2
100
AcDbLine
 10
110.829647655007
 20
204.3846140130112
 30
0.0
 11
110.829647655007
 21
204.8846140130112
 31
0.0
  0
LINE
  5
14B
330
50
100
AcDbEntity
  8
1
  6
Continuous
 62
     7
100
AcDbLine
 10
132.829647655007
 20
204.3846140130112
 30
0.0
 11
133.829647655007
 21
204.3846140130112
 31
0.0
  0
LINE
  5
14C
330
50
100
AcDbEntity
  8
1
  6
Continuous
 62
     2
100
AcDbLine
 10
132.829647655007
 20
204.8846140130112
 30
0.0
 11
132.829647655007
 21
204.3846140130112
 31
0.0
  0
LINE
  5
14D
330
50
100
AcDbEntity
  8
1
  6
Continuous
 62
     2
100
AcDbLine
 10
132.829647655007
 20
204.3846140130112
 30
0.0
 11
133.829647655007
 21
202.6525632054423
 31
0.0
  0
LINE
  5
14E
330
50
100
AcDbEntity
  8
1
  6
Continuous
 62
     7
100
AcDbLine
 10
133.829647655007
 20
204.8846140130112
 30
0.0
 11
133.829647655007
 21
186.4673765433094
 31
0.0
  0
LINE
  5
14F
330
50
100
AcDbEntity
  8
1
  6
Continuous
 62
     2
100
AcDbLine
 10
109.829647655007
 20
202.6525632054423
 30
0.0
 11
110.829647655007
 21
204.3846140130112
 31
0.0
  0
LINE
  5
150
330
50
100
AcDbEntity
  8
1
  6
Continuous
 62
     7
100
AcDbLine
 10
109.829647655007
 20
204.3846140130112
 30
0.0
 11
110.829647655007
 21
204.3846140130112
 31
0.0
  0
ARC
  5
151
330
50
100
AcDbEntity
  8
1
  6
Continuous
 62
     7
100
AcDbCircle
 10
122.2719276505073
 20
385.8849870556657
 30
0.0
 40
8.192280003993812
100
AcDbArc
 50
180.002609013572
 51
247.0660762952354
  0
ARC
  5
152
330
50
100
AcDbEntity
  8
1
  6
Continuous
 62
     7
100
AcDbCircle
 10
122.3873676595065
 20
385.8849870556657
 30
0.0
 40
8.192280003993837
100
AcDbArc
 50
292.9339237047679
 51
359.9973909864271
  0
ARC
  5
153
330
50
100
AcDbEntity
  8
1
  6
Continuous
 62
     7
100
AcDbCircle
 10
277.8296476550072
 20
207.3846140130112
 30
0.0
 40
40.00000000000005
100
AcDbArc
 50
246.7500688339883
 51
290.0680546208191
  0
ARC
  5
154
330
50
100
AcDbEntity
  8
1
  6
Continuous
 62
     7
100
AcDbCircle
 10
259.8296476550072
 20
195.1346140130112
 30
0.0
 40
6.000000000000083
100
AcDbArc
 50
290.637041666072
 51
0.0
  0
ARC
  5
155
330
50
100
AcDbEntity
  8
1
  6
Continuous
 62
     7
100
AcDbCircle
 10
121.829647655007
 20
180.3846140130112
 30
0.0
 40
22.99999999999985
100
AcDbArc
 50
121.4489813893798
 51
248.7891346935753
  0
ARC
  5
156
330
50
100
AcDbEntity
  8
1
  6
Continuous
 62
     7
100
AcDbCircle
 10
121.829647655007
 20
180.3846140130112
 30
0.0
 40
22.99999999999995
100
AcDbArc
 50
291.2108653064245
 51
0.0
  0
ARC
  5
157
330
50
100
AcDbEntity
  8
1
  6
Continuous
 62
     7
100
AcDbCircle
 10
121.829647655007
 20
180.3846140130112
 30
0.0
 40
23.0
100
AcDbArc
 50
0.0
 51
58.55101861062022
  0
ARC
  5
158
330
50
100
AcDbEntity
  8
1
  6
Continuous
 62
     7
100
AcDbCircle
 10
121.829647655007
 20
180.3846140130112
 30
0.0
 40
13.00000000000007
100
AcDbArc
 50
161.3282819359923
 51
228.8447616755863
  0
ARC
  5
159
330
50
100
AcDbEntity
  8
1
  6
Continuous
 62
     7
100
AcDbCircle
 10
121.829647655007
 20
180.3846140130112
 30
0.0
 40
8.75000000000005
100
AcDbArc
 50
358.850248617231
 51
181.1497513827689
  0
ARC
  5
15A
330
50
100
AcDbEntity
  8
1
  6
Continuous
 62
     7
100
AcDbCircle
 10
121.829647655007
 20
180.3846140130112
 30
0.0
 40
13.00000000000007
100
AcDbArc
 50
311.1552383244141
 51
18.67171806400782
  0
SPLINE
  5
15B
330
50
100
AcDbEntity
  8
1
  6
Continuous
 62
     7
100
AcDbSpline
210
0.0
220
0.0
230
1.0
 70
     8
 71
     3
 72
    45
 73
    41
 74
    39
 42
0.000000001
 43
0.0000000001
 44
0.00000001
 40
0.0
 40
0.0
 40
0.0
 40
0.0
 40
0.0462393297073115
 40
0.1003470432350584
 40
0.269160829650237
 40
0.4261387054238172
 40
0.6844079265701268
 40
0.943599546470059
 40
1.310383370680681
 40
1.676797155671672
 40
2.142254726681343
 40
2.607682516648948
 40
3.159389762250014
 40
3.711072100330159
 40
4.333025162447877
 40
4.95496595034032
 40
5.628793461929714
 40
6.302615252220771
 40
7.008249979183612
 40
7.713882139857759
 40
8.430232391700121
 40
9.146582643542484
 40
9.85221480421666
 40
10.55784953117949
 40
11.23167132147053
 40
11.90549883305997
 40
12.52743962095244
 40
13.14939268307019
 40
13.70107502115034
 40
14.25278226675138
 40
14.71821005671904
 40
15.18366762772868
 40
15.55008141271968
 40
15.9168652369303
 40
16.17605685683024
 40
16.43432607797651
 40
16.59130395375007
 40
16.76011774016517
 40
16.81422545368108
 40
16.86046478337909
 40
16.86046478337909
 40
16.86046478337909
 40
16.86046478337909
 10
113.5796686565695
 20
155.3825211442549
 30
0.0
 10
113.5820814158554
 20
155.3670534237992
 30
0.0
 10
113.5873174904366
 20
155.3334858919074
 30
0.0
 10
113.6440137736755
 20
155.2611162975688
 30
0.0
 10
113.7375891898175
 20
155.1750168268524
 30
0.0
 10
113.9138802742224
 20
155.0878024069901
 30
0.0
 10
114.1296001089676
 20
155.0240518926041
 30
0.0
 10
114.4128148042306
 20
154.9423850261577
 30
0.0
 10
114.7354899959897
 20
154.8685928009972
 30
0.0
 10
115.1282704235598
 20
154.7950710206607
 30
0.0
 10
115.5558670891603
 20
154.7300922236566
 30
0.0
 10
116.0458872994612
 20
154.6658076462818
 30
0.0
 10
116.5657560788989
 20
154.6088504496857
 30
0.0
 10
117.1384482468353
 20
154.5558959555519
 30
0.0
 10
117.7352625949105
 20
154.5103501270542
 30
0.0
 10
118.3732598461098
 20
154.4702386078107
 30
0.0
 10
119.0289953579587
 20
154.4375869843377
 30
0.0
 10
119.71294034334
 20
154.4115002506134
 30
0.0
 10
120.4077378638006
 20
154.3929815179096
 30
0.0
 10
121.1168663348398
 20
154.3816522744749
 30
0.0
 10
121.829647655007
 20
154.377952470267
 30
0.0
 10
122.5424289751742
 20
154.3816522744748
 30
0.0
 10
123.2515574462134
 20
154.3929815179094
 30
0.0
 10
123.9463549666739
 20
154.4115002506133
 30
0.0
 10
124.6302999520554
 20
154.4375869843377
 30
0.0
 10
125.2860354639041
 20
154.4702386078106
 30
0.0
 10
125.9240327151036
 20
154.5103501270542
 30
0.0
 10
126.5208470631787
 20
154.5558959555519
 30
0.0
 10
127.0935392311152
 20
154.6088504496857
 30
0.0
 10
127.6134080105529
 20
154.6658076462818
 30
0.0
 10
128.1034282208538
 20
154.7300922236567
 30
0.0
 10
128.5310248864543
 20
154.7950710206607
 30
0.0
 10
128.9238053140244
 20
154.8685928009972
 30
0.0
 10
129.2464805057835
 20
154.9423850261576
 30
0.0
 10
129.5296952010464
 20
155.0240518926041
 30
0.0
 10
129.7454150357917
 20
155.0878024069903
 30
0.0
 10
129.9217061201964
 20
155.1750168268522
 30
0.0
 10
130.0152815363358
 20
155.2611162975669
 30
0.0
 10
130.0719778195702
 20
155.3334858918979
 30
0.0
 10
130.0772138941559
 20
155.3670534237814
 30
0.0
 10
130.079626653444
 20
155.3825211442334
 30
0.0
 11
113.5796686565695
 21
155.3825211442549
 31
0.0
 11
113.5902832342815
 21
155.3375166311156
 31
0.0
 11
113.6203205185578
 21
155.292512117976
 31
0.0
 11
113.745361142458
 21
155.1790972311618
 31
0.0
 11
113.8843758355546
 21
155.1061796861752
 31
0.0
 11
114.1293616836661
 21
155.0244182989541
 31
0.0
 11
114.3788756735285
 21
154.9542537461031
 31
0.0
 11
114.736075348119
 21
154.8709544912721
 31
0.0
 11
115.0961253857084
 21
154.8029616093707
 31
0.0
 11
115.5560888082837
 21
154.7316566313018
 31
0.0
 11
116.0175538445276
 21
154.6710509582078
 31
0.0
 11
116.5659169719067
 21
154.6103981360382
 31
0.0
 11
117.115240248995
 21
154.5594340423693
 31
0.0
 11
117.7353614201591
 21
154.5117334782478
 31
0.0
 11
118.3560710126926
 21
154.4726189718569
 31
0.0
 11
119.0290539175641
 21
154.4388917695942
 31
0.0
 11
119.7023843177213
 21
154.4131628696206
 31
0.0
 11
120.4077651750634
 21
154.3942363578924
 31
0.0
 11
121.113307356624
 21
154.3829680378701
 31
0.0
 11
121.829647655007
 21
154.3791919299187
 31
0.0
 11
122.54598795339
 21
154.38296803787
 31
0.0
 11
123.2515301349506
 21
154.3942363578923
 31
0.0
 11
123.9569109922927
 21
154.4131628696205
 31
0.0
 11
124.6302413924499
 21
154.4388917695942
 31
0.0
 11
125.3032242973214
 21
154.4726189718569
 31
0.0
 11
125.923933889855
 21
154.5117334782478
 31
0.0
 11
126.5440550610191
 21
154.5594340423693
 31
0.0
 11
127.0933783381074
 21
154.6103981360382
 31
0.0
 11
127.6417414654864
 21
154.6710509582077
 31
0.0
 11
128.1032065017304
 21
154.7316566313018
 31
0.0
 11
128.5631699243057
 21
154.8029616093707
 31
0.0
 11
128.9232199618951
 21
154.8709544912721
 31
0.0
 11
129.2804196364856
 21
154.9542537461031
 31
0.0
 11
129.529933626348
 21
155.0244182989541
 31
0.0
 11
129.7749194744594
 21
155.1061796861753
 31
0.0
 11
129.913934167556
 21
155.1790972311618
 31
0.0
 11
130.0389747914561
 21
155.2925121179761
 31
0.0
 11
130.0690120757275
 21
155.3375166311047
 31
0.0
 11
130.079626653444
 21
155.3825211442334
 31
0.0
  0
SPLINE
  5
15C
330
50
100
AcDbEntity
  8
1
  6
Continuous
 62
     7
100
AcDbSpline
210
0.0
220
0.0
230
1.0
 70
    24
 71
     3
 72
     9
 73
     5
 74
     3
 42
0.000000001
 43
0.0000000001
 44
0.00000001
 40
0.0
 40
0.0
 40
0.0
 40
0.0
 40
0.0000025948648426
 40
0.0000051897284878
 40
0.0000051897284878
 40
0.0000051897284878
 40
0.0000051897284878
 10
130.079626653444
 20
155.3825211442334
 30
0.0
 10
130.0796266707945
 20
155.3825220090143
 30
0.0
 10
130.0796267054793
 20
155.3825237385761
 30
0.0
 10
130.0796267401319
 20
155.3825254681384
 30
0.0
 10
130.0796267574501
 20
155.3825263329196
 30
0.0
 11
130.079626653444
 21
155.3825211442334
 31
0.0
 11
130.0796267054794
 21
155.3825237385765
 31
0.0
 11
130.0796267574501
 21
155.3825263329196
 31
0.0
  0
SPLINE
  5
15D
330
50
100
AcDbEntity
  8
1
  6
Continuous
 62
     7
100
AcDbSpline
210
0.0
220
0.0
230
1.0
 70
    24
 71
     3
 72
     9
 73
     5
 74
     3
 42
0.000000001
 43
0.0000000001
 44
0.00000001
 40
0.0
 40
0.0
 40
0.0
 40
0.0
 40
0.0000025948447972
 40
0.0000051896910764
 40
0.0000051896910764
 40
0.0000051896910764
 40
0.0000051896910764
 10
113.5796685525642
 20
155.3825263329037
 30
0.0
 10
113.5796685698823
 20
155.3825254681288
 30
0.0
 10
113.5796686045346
 20
155.3825237385789
 30
0.0
 10
113.5796686392192
 20
155.3825220090297
 30
0.0
 10
113.5796686565695
 20
155.3825211442549
 30
0.0
 11
113.5796685525642
 21
155.3825263329037
 31
0.0
 11
113.5796686045346
 21
155.3825237385794
 31
0.0
 11
113.5796686565695
 21
155.3825211442549
 31
0.0
  0
SPLINE
  5
15E
330
50
100
AcDbEntity
  8
1
  6
Continuous
 62
     7
100
AcDbSpline
210
0.0
220
0.0
230
1.0
 70
     8
 71
     3
 72
     9
 73
     5
 74
     3
 42
0.000000001
 43
0.0000000001
 44
0.00000001
 40
0.0
 40
0.0
 40
0.0
 40
0.0
 40
0.0480816541771717
 40
0.1044417871549611
 40
0.1044417871549611
 40
0.1044417871549611
 40
0.1044417871549611
 10
130.0796267574501
 20
155.3825263329196
 30
0.0
 10
130.0776792155682
 20
155.3987553633984
 30
0.0
 10
130.0734487941998
 20
155.4340076589801
 30
0.0
 10
130.0510577339619
 20
155.4617469195183
 30
0.0
 10
130.0389747914562
 20
155.4767159080464
 30
0.0
 11
130.0796267574501
 21
155.3825263329196
 31
0.0
 11
130.0699351820504
 21
155.429621120483
 31
0.0
 11
130.0389747914562
 21
155.4767159080464
 31
0.0
  0
SPLINE
  5
15F
330
50
100
AcDbEntity
  8
1
  6
Continuous
 62
     7
100
AcDbSpline
210
0.0
220
0.0
230
1.0
 70
     8
 71
     3
 72
    43
 73
    39
 74
    37
 42
0.000000001
 43
0.0000000001
 44
0.00000001
 40
0.0
 40
0.0
 40
0.0
 40
0.0
 40
0.1688137882182245
 40
0.3257916627772156
 40
0.5840608838076821
 40
0.8432525037634837
 40
1.210036328130827
 40
1.576450113295994
 40
2.041907684519206
 40
2.507335474681396
 40
3.059042720477644
 40
3.610725058707155
 40
4.232678120931027
 40
4.854618908859306
 40
5.528446420405731
 40
6.202268210570671
 40
6.907902937318786
 40
7.613535097705022
 40
8.329885349195454
 40
9.046235600643554
 40
9.751867760905498
 40
10.45750248744889
 40
11.13132427734528
 40
11.8051517885554
 40
12.42709257611708
 40
13.04904563792596
 40
13.60072797575156
 40
14.15243522111633
 40
14.61786301089828
 40
15.0833205817339
 40
15.44973436659472
 40
15.81651819067986
 40
16.07570981049306
 40
16.33397903154843
 40
16.49095690726038
 40
16.65977069362861
 40
16.71613082869787
 40
16.7642124862906
 40
16.7642124862906
 40
16.7642124862906
 40
16.7642124862906
 10
130.0389747914562
 20
155.4767159080464
 30
0.0
 10
129.9993278681224
 20
155.5172657729119
 30
0.0
 10
129.9228137655089
 20
155.5955224708129
 30
0.0
 10
129.7449147645515
 20
155.680833390572
 30
0.0
 10
129.5298545783785
 20
155.7453648159876
 30
0.0
 10
129.2464176212838
 20
155.8267685621027
 30
0.0
 10
128.9238243646475
 20
155.9006577845759
 30
0.0
 10
128.5310182254279
 20
155.9741491267886
 30
0.0
 10
128.1034301651928
 20
156.0391381111813
 30
0.0
 10
127.6134073754485
 20
156.1034196350084
 30
0.0
 10
127.0935394066934
 20
156.1603777913309
 30
0.0
 10
126.5208470032069
 20
156.2133320065484
 30
0.0
 10
125.9240327256592
 20
156.2588779183753
 30
0.0
 10
125.2860354543896
 20
156.2989894135814
 30
0.0
 10
124.6302999483562
 20
156.3316410435522
 30
0.0
 10
123.9463549614816
 20
156.3577277750145
 30
0.0
 10
123.2515574416722
 20
156.3762465079148
 30
0.0
 10
122.5424289707905
 20
156.3875757509043
 30
0.0
 10
121.8296476510001
 20
156.3912755549059
 30
0.0
 10
121.1168663312117
 20
156.3875757505065
 30
0.0
 10
120.4077378605839
 20
156.3762465069531
 30
0.0
 10
119.7129403405396
 20
156.3577277742121
 30
0.0
 10
119.0289953555343
 20
156.331641040424
 30
0.0
 10
118.3732598441331
 20
156.2989894172198
 30
0.0
 10
117.73526259299
 20
156.2588778972614
 30
0.0
 10
117.1384482461937
 20
156.2133320716349
 30
0.0
 10
116.5657560752279
 20
156.1603775683407
 30
0.0
 10
116.0458873073319
 20
156.1034204037628
 30
0.0
 10
115.5558670611922
 20
156.0391357249799
 30
0.0
 10
115.1282705159422
 20
155.9741572667662
 30
0.0
 10
114.7354897293739
 20
155.9006344745733
 30
0.0
 10
114.4128156821551
 20
155.8268454742783
 30
0.0
 10
114.1295978825128
 20
155.7451698601681
 30
0.0
 10
113.9138872615478
 20
155.6814453081184
 30
0.0
 10
113.7375737184528
 20
155.5941676042726
 30
0.0
 10
113.6435046668433
 20
155.507730021993
 30
0.0
 10
113.585950563499
 20
155.4338785566283
 30
0.0
 10
113.5816489051766
 20
155.3987146625416
 30
0.0
 10
113.5796685525642
 20
155.3825263329037
 30
0.0
 11
130.0389747914562
 21
155.4767159080464
 31
0.0
 11
129.913934167556
 21
155.5901307948606
 31
0.0
 11
129.7749194744594
 21
155.6630483398472
 31
0.0
 11
129.529933626348
 21
155.7448097270684
 31
0.0
 11
129.2804196364856
 21
155.8149742799194
 31
0.0
 11
128.9232199618951
 21
155.8982735347503
 31
0.0
 11
128.5631699243056
 21
155.9662664166517
 31
0.0
 11
128.1032065017303
 21
156.0375713947205
 31
0.0
 11
127.6417414654863
 21
156.0981770678146
 31
0.0
 11
127.0933783381073
 21
156.1588298899842
 31
0.0
 11
126.5440550610191
 21
156.2097939836531
 31
0.0
 11
125.923933889855
 21
156.2574945477746
 31
0.0
 11
125.3032242973214
 21
156.2966090541655
 31
0.0
 11
124.6302413924499
 21
156.3303362564282
 31
0.0
 11
123.9569109922927
 21
156.3560651564019
 31
0.0
 11
123.2515301349506
 21
156.3749916681301
 31
0.0
 11
122.54598795339
 21
156.3862599881523
 31
0.0
 11
121.829647655007
 21
156.3900360961037
 31
0.0
 11
121.113307356624
 21
156.3862599881523
 31
0.0
 11
120.4077651750634
 21
156.37499166813
 31
0.0
 11
119.7023843177213
 21
156.3560651564018
 31
0.0
 11
119.0290539175641
 21
156.3303362564282
 31
0.0
 11
118.3560710126926
 21
156.2966090541655
 31
0.0
 11
117.7353614201591
 21
156.2574945477746
 31
0.0
 11
117.1152402489949
 21
156.2097939836531
 31
0.0
 11
116.5659169719066
 21
156.1588298899842
 31
0.0
 11
116.0175538445276
 21
156.0981770678146
 31
0.0
 11
115.5560888082836
 21
156.0375713947205
 31
0.0
 11
115.0961253857084
 21
155.9662664166516
 31
0.0
 11
114.736075348119
 21
155.8982735347503
 31
0.0
 11
114.3788756735285
 21
155.8149742799194
 31
0.0
 11
114.1293616836661
 21
155.7448097270684
 31
0.0
 11
113.8843758355546
 21
155.6630483398471
 31
0.0
 11
113.745361142458
 21
155.5901307948606
 31
0.0
 11
113.620320518558
 21
155.4767159080464
 31
0.0
 11
113.5893601279602
 21
155.4296211204751
 31
0.0
 11
113.5796685525642
 21
155.3825263329037
 31
0.0
  0
ARC
  5
160
330
50
100
AcDbEntity
  8
1
  6
Continuous
 62
     7
100
AcDbCircle
 10
161.0796476550071
 20
444.9041373221854
 30
0.0
 40
30.0000000000002
100
AcDbArc
 50
180.0
 51
194.9074395234785
  0
ARC
  5
161
330
50
100
AcDbEntity
  8
1
  6
Continuous
 62
     7
100
AcDbCircle
 10
83.57964765500688
 20
396.8650907038357
 30
0.0
 40
30.00000000000011
100
AcDbArc
 50
0.0
 51
14.90743952348177
  0
ARC
  5
162
330
50
100
AcDbEntity
  8
1
  6
Continuous
 62
     7
100
AcDbCircle
 10
259.2767382843655
 20
164.2014048468925
 30
0.0
 40
6.999999999999988
100
AcDbArc
 50
66.750068833988
 51
173.0000000000003
  0
ARC
  5
163
330
50
100
AcDbEntity
  8
1
  6
Continuous
 62
     7
100
AcDbCircle
 10
251.7210067112283
 20
172.4117363075411
 30
0.0
 40
15.00000000000002
100
AcDbArc
 50
100.3185208330362
 51
173.0
  0
ARC
  5
164
330
50
100
AcDbEntity
  8
1
  6
Continuous
 62
     7
100
AcDbCircle
 10
295.8296476550072
 20
195.7166349900446
 30
0.0
 40
6.0
100
AcDbArc
 50
180.0
 51
239.9118061840567
  0
ARC
  5
165
330
50
100
AcDbEntity
  8
1
  6
Continuous
 62
     7
100
AcDbCircle
 10
301.8491709641821
 20
219.1346140130112
 30
0.0
 40
30.00000000000001
100
AcDbArc
 50
252.4872952996483
 51
270.0
  0
ARC
  5
166
330
50
100
AcDbEntity
  8
1
  6
Continuous
 62
     7
100
AcDbCircle
 10
301.8491709641821
 20
141.6346140130112
 30
0.0
 40
30.0
100
AcDbArc
 50
90.0
 51
110.0680546208192
  0
ARC
  5
167
330
50
100
AcDbEntity
  8
1
  6
Continuous
 62
     7
100
AcDbCircle
 10
83.57964765500688
 20
444.9041373221854
 30
0.0
 40
29.99999999999997
100
AcDbArc
 50
345.0925604765208
 51
0.0
  0
ARC
  5
168
330
50
100
AcDbEntity
  8
1
  6
Continuous
 62
     7
100
AcDbCircle
 10
161.0796476550071
 20
396.8650907038357
 30
0.0
 40
30.00000000000029
100
AcDbArc
 50
165.0925604765185
 51
180.0
  0
ARC
  5
169
330
50
100
AcDbEntity
  8
1
  6
Continuous
 62
     7
100
AcDbCircle
 10
99.82964765500688
 20
493.8468092588398
 30
0.0
 40
0.5
100
AcDbArc
 50
180.0
 51
265.5000000000011
  0
ARC
  5
16A
330
50
100
AcDbEntity
  8
1
  6
Continuous
 62
     7
100
AcDbCircle
 10
109.5796476550069
 20
488.5655527241269
 30
0.0
 40
4.0
100
AcDbArc
 50
0.0
 51
85.49999999999963
  0
ARC
  5
16B
330
50
100
AcDbEntity
  8
1
  6
Continuous
 62
     7
100
AcDbCircle
 10
135.0796476550069
 20
488.5655527241269
 30
0.0
 40
3.999999999999981
100
AcDbArc
 50
94.50000000000037
 51
180.0
  0
ARC
  5
16C
330
50
100
AcDbEntity
  8
1
  6
Continuous
 62
     7
100
AcDbCircle
 10
144.8296476550069
 20
493.8468092588398
 30
0.0
 40
0.5000000000001583
100
AcDbArc
 50
274.4999999999957
 51
0.0
  0
ARC
  5
16D
330
50
100
AcDbEntity
  8
1
  6
Continuous
 62
     7
100
AcDbCircle
 10
350.8281063218739
 20
202.8846140130112
 30
0.0
 40
0.5
100
AcDbArc
 50
90.0
 51
175.5000000000033
  0
ARC
  5
16E
330
50
100
AcDbEntity
  8
1
  6
Continuous
 62
     7
100
AcDbCircle
 10
350.8281063218739
 20
157.8846140130112
 30
0.0
 40
0.5000000000000538
100
AcDbArc
 50
184.5000000000097
 51
270.0
  0
ARC
  5
16F
330
50
100
AcDbEntity
  8
1
  6
Continuous
 62
     7
100
AcDbCircle
 10
103.829647655007
 20
186.4673765433094
 30
0.0
 40
5.999999999999921
100
AcDbArc
 50
341.328281935992
 51
0.0
  0
ARC
  5
170
330
50
100
AcDbEntity
  8
1
  6
Continuous
 62
     7
100
AcDbCircle
 10
139.8296476550072
 20
186.4673765433094
 30
0.0
 40
6.000000000000199
100
AcDbArc
 50
180.0
 51
198.6717180640072
  0
ARC
  5
171
330
50
100
AcDbEntity
  8
1
  6
Continuous
 62
     7
100
AcDbCircle
 10
346.3419783200748
 20
193.1346140130112
 30
0.0
 40
4.0
100
AcDbArc
 50
270.0
 51
355.4999999999995
  0
ARC
  5
172
330
50
100
AcDbEntity
  8
1
  6
Continuous
 62
     7
100
AcDbCircle
 10
346.3419783200748
 20
167.6346140130112
 30
0.0
 40
3.999999999999868
100
AcDbArc
 50
4.5000000000005
 51
90.0
  0
ENDBLK
  5
52
330
50
100
AcDbEntity
  8
0
100
AcDbBlockEnd
  0
BLOCK
  5
192
330
189
100
AcDbEntity
  8
0
100
AcDbBlockBegin
  2
*D5
 70
     1
 10
0.0
 20
0.0
 30
0.0
  3
*D5
  1

  0
LINE
  5
18A
330
189
100
AcDbEntity
  8
1
  6
Continuous
 62
     2
100
AcDbLine
 10
366.8296476550072
 20
137.3846140130112
 30
0.0
 11
380.8296476550072
 21
137.3846140130112
 31
0.0
  0
LINE
  5
18B
330
189
100
AcDbEntity
  8
1
  6
Continuous
 62
     2
100
AcDbLine
 10
352.8296476550072
 20
137.3846140130112
 30
0.0
 11
366.8296476550072
 21
137.3846140130112
 31
0.0
  0
LINE
  5
18C
330
189
100
AcDbEntity
  8
1
  6
Continuous
 62
     2
100
AcDbLine
 10
338.8296476550072
 20
137.3846140130112
 30
0.0
 11
352.8296476550072
 21
137.3846140130112
 31
0.0
  0
LINE
  5
18D
330
189
100
AcDbEntity
  8
1
  6
Continuous
 62
     2
100
AcDbLine
 10
352.8296476550072
 20
157.3846140130112
 30
0.0
 11
352.8296476550072
 21
135.3846140130112
 31
0.0
  0
LINE
  5
18E
330
189
100
AcDbEntity
  8
1
  6
Continuous
 62
     2
100
AcDbLine
 10
366.8296476550072
 20
170.8846140130112
 30
0.0
 11
366.8296476550072
 21
135.3846140130112
 31
0.0
  0
SOLID
  5
18F
330
189
100
AcDbEntity
  8
1
 62
     2
100
AcDbTrace
 10
345.8296476550072
 20
136.4630465298994
 30
0.0
 11
345.8296476550072
 21
138.306181496123
 31
0.0
 12
352.8296476550072
 22
137.3846140130112
 32
0.0
 13
352.8296476550072
 23
137.3846140130112
 33
0.0
  0
SOLID
  5
190
330
189
100
AcDbEntity
  8
1
 62
     2
100
AcDbTrace
 10
373.8296476550072
 20
138.306181496123
 30
0.0
 11
373.8296476550072
 21
136.4630465298994
 31
0.0
 12
366.8296476550072
 22
137.3846140130112
 32
0.0
 13
366.8296476550072
 23
137.3846140130112
 33
0.0
  0
MTEXT
  5
191
330
189
100
AcDbEntity
  8
1
 62
     7
100
AcDbMText
 10
355.6296476550072
 20
139.3846140130112
 30
0.0
 40
7.0
 41
0.0
 71
     7
 72
     1
  1
14
  7
CONVERTER_12
 11
0.9999999999970619
 21
2.424068405545306E-6
 31
0.0
 73
     1
 44
0.60024009603842
  0
ENDBLK
  5
193
330
189
100
AcDbEntity
  8
0
100
AcDbBlockEnd
  0
BLOCK
  5
19D
330
196
100
AcDbEntity
  8
0
100
AcDbBlockBegin
  2
*D6
 70
     1
 10
0.0
 20
0.0
 30
0.0
  3
*D6
  1

  0
LINE
  5
197
330
196
100
AcDbEntity
  8
1
  6
Continuous
 62
     2
100
AcDbLine
 10
277.8296476550072
 20
137.3846140130112
 30
0.0
 11
352.8296476550072
 21
137.3846140130112
 31
0.0
  0
LINE
  5
198
330
196
100
AcDbEntity
  8
1
  6
Continuous
 62
     2
100
AcDbLine
 10
277.8296476550072
 20
164.6103671729145
 30
0.0
 11
277.8296476550072
 21
135.3846140130112
 31
0.0
  0
LINE
  5
199
330
196
100
AcDbEntity
  8
1
  6
Continuous
 62
     2
100
AcDbLine
 10
352.8296476550072
 20
157.3846140130112
 30
0.0
 11
352.8296476550072
 21
135.3846140130112
 31
0.0
  0
SOLID
  5
19A
330
196
100
AcDbEntity
  8
1
 62
     2
100
AcDbTrace
 10
284.8296476550072
 20
138.306181496123
 30
0.0
 11
284.8296476550072
 21
136.4630465298994
 31
0.0
 12
277.8296476550072
 22
137.3846140130112
 32
0.0
 13
277.8296476550072
 23
137.3846140130112
 33
0.0
  0
SOLID
  5
19B
330
196
100
AcDbEntity
  8
1
 62
     2
100
AcDbTrace
 10
345.8296476550072
 20
136.4630465298994
 30
0.0
 11
345.8296476550072
 21
138.306181496123
 31
0.0
 12
352.8296476550072
 22
137.3846140130112
 32
0.0
 13
352.8296476550072
 23
137.3846140130112
 33
0.0
  0
MTEXT
  5
19C
330
196
100
AcDbEntity
  8
1
 62
     7
100
AcDbMText
 10
310.0796476550072
 20
139.3846140130112
 30
0.0
 40
7.0
 41
0.0
 71
     7
 72
     1
  1
75
  7
CONVERTER_12
 11
0.9999999999970619
 21
2.424068405545306E-6
 31
0.0
 73
     1
 44
0.60024009603842
  0
ENDBLK
  5
19E
330
196
100
AcDbEntity
  8
0
100
AcDbBlockEnd
  0
BLOCK
  5
1A8
330
1A1
100
AcDbEntity
  8
0
100
AcDbBlockBegin
  2
*D7
 70
     1
 10
0.0
 20
0.0
 30
0.0
  3
*D7
  1

  0
LINE
  5
1A2
330
1A1
100
AcDbEntity
  8
1
  6
Continuous
 62
     2
100
AcDbLine
 10
226.9775003217517
 20
180.3846140130111
 30
0.0
 11
226.9775003217517
 21
247.3846140130112
 31
0.0
  0
LINE
  5
1A3
330
1A1
100
AcDbEntity
  8
1
  6
Continuous
 62
     2
100
AcDbLine
 10
228.0343813828179
 20
180.3846140130111
 30
0.0
 11
224.9775003217517
 21
180.3846140130111
 31
0.0
  0
LINE
  5
1A4
330
1A1
100
AcDbEntity
  8
1
  6
Continuous
 62
     2
100
AcDbLine
 10
266.3296476550072
 20
247.3846140130112
 30
0.0
 11
224.9775003217517
 21
247.3846140130112
 31
0.0
  0
SOLID
  5
1A5
330
1A1
100
AcDbEntity
  8
1
 62
     2
100
AcDbTrace
 10
226.0559328386399
 20
187.3846140130111
 30
0.0
 11
227.8990678048635
 21
187.3846140130111
 31
0.0
 12
226.9775003217517
 22
180.3846140130111
 32
0.0
 13
226.9775003217517
 23
180.3846140130111
 33
0.0
  0
SOLID
  5
1A6
330
1A1
100
AcDbEntity
  8
1
 62
     2
100
AcDbTrace
 10
227.8990678048635
 20
240.3846140130112
 30
0.0
 11
226.0559328386399
 21
240.3846140130112
 31
0.0
 12
226.9775003217517
 22
247.3846140130112
 32
0.0
 13
226.9775003217517
 23
247.3846140130112
 33
0.0
  0
MTEXT
  5
1A7
330
1A1
100
AcDbEntity
  8
1
 62
     7
100
AcDbMText
 10
224.9775003217517
 20
208.1662792494886
 30
0.0
 40
7.0
 41
0.0
 71
     7
 72
     1
  1
67
  7
CONVERTER_12
 11
0.0
 21
1.0
 31
0.0
 73
     1
 44
0.60024009603842
  0
ENDBLK
  5
1A9
330
1A1
100
AcDbEntity
  8
0
100
AcDbBlockEnd
  0
BLOCK
  5
1B3
330
1AC
100
AcDbEntity
  8
0
100
AcDbBlockBegin
  2
*D8
 70
     1
 10
0.0
 20
0.0
 30
0.0
  3
*D8
  1

  0
LINE
  5
1AD
330
1AC
100
AcDbEntity
  8
1
  6
Continuous
 62
     2
100
AcDbLine
 10
386.8296476550072
 20
157.3846140130112
 30
0.0
 11
386.8296476550072
 21
203.3846140130112
 31
0.0
  0
LINE
  5
1AE
330
1AC
100
AcDbEntity
  8
1
  6
Continuous
 62
     2
100
AcDbLine
 10
352.8296476550072
 20
157.3846140130112
 30
0.0
 11
388.8296476550072
 21
157.3846140130112
 31
0.0
  0
LINE
  5
1AF
330
1AC
100
AcDbEntity
  8
1
  6
Continuous
 62
     2
100
AcDbLine
 10
352.8296476550072
 20
203.3846140130112
 30
0.0
 11
388.8296476550072
 21
203.3846140130112
 31
0.0
  0
SOLID
  5
1B0
330
1AC
100
AcDbEntity
  8
1
 62
     2
100
AcDbTrace
 10
385.9080801718954
 20
164.3846140130112
 30
0.0
 11
387.7512151381189
 21
164.3846140130112
 31
0.0
 12
386.8296476550072
 22
157.3846140130112
 32
0.0
 13
386.8296476550072
 23
157.3846140130112
 33
0.0
  0
SOLID
  5
1B1
330
1AC
100
AcDbEntity
  8
1
 62
     2
100
AcDbTrace
 10
387.7512151381189
 20
196.3846140130112
 30
0.0
 11
385.9080801718954
 21
196.3846140130112
 31
0.0
 12
386.8296476550072
 22
203.3846140130112
 32
0.0
 13
386.8296476550072
 23
203.3846140130112
 33
0.0
  0
MTEXT
  5
1B2
330
1AC
100
AcDbEntity
  8
1
 62
     7
100
AcDbMText
 10
384.8296476550072
 20
173.5946140130112
 30
0.0
 40
7.0
 41
0.0
 71
     7
 72
     1
  1
\C7;{\Fgdt;n}\C7;46
  7
CONVERTER_12
 11
0.0
 21
1.0
 31
0.0
 73
     1
 44
0.60024009603842
  0
ENDBLK
  5
1B4
330
1AC
100
AcDbEntity
  8
0
100
AcDbBlockEnd
  0
BLOCK
  5
1BE
330
1B7
100
AcDbEntity
  8
0
100
AcDbBlockBegin
  2
*D9
 70
     1
 10
0.0
 20
0.0
 30
0.0
  3
*D9
  1

  0
LINE
  5
1B8
330
1B7
100
AcDbEntity
  8
1
  6
Continuous
 62
     2
100
AcDbLine
 10
174.8296476550072
 20
303.3846140130113
 30
0.0
 11
277.8296476550072
 21
303.3846140130113
 31
0.0
  0
LINE
  5
1B9
330
1B7
100
AcDbEntity
  8
1
  6
Continuous
 62
     2
100
AcDbLine
 10
174.8296476550072
 20
269.3846140130113
 30
0.0
 11
174.8296476550072
 21
305.3846140130113
 31
0.0
  0
LINE
  5
1BA
330
1B7
100
AcDbEntity
  8
1
  6
Continuous
 62
     2
100
AcDbLine
 10
277.8296476550072
 20
253.3789163134896
 30
0.0
 11
277.8296476550072
 21
305.3846140130113
 31
0.0
  0
SOLID
  5
1BB
330
1B7
100
AcDbEntity
  8
1
 62
     2
100
AcDbTrace
 10
181.8296476550072
 20
304.306181496123
 30
0.0
 11
181.8296476550072
 21
302.4630465298995
 31
0.0
 12
174.8296476550072
 22
303.3846140130113
 32
0.0
 13
174.8296476550072
 23
303.3846140130113
 33
0.0
  0
SOLID
  5
1BC
330
1B7
100
AcDbEntity
  8
1
 62
     2
100
AcDbTrace
 10
270.8296476550072
 20
302.4630465298995
 30
0.0
 11
270.8296476550072
 21
304.306181496123
 31
0.0
 12
277.8296476550072
 22
303.3846140130113
 32
0.0
 13
277.8296476550072
 23
303.3846140130113
 33
0.0
  0
MTEXT
  5
1BD
330
1B7
100
AcDbEntity
  8
1
 62
     7
100
AcDbMText
 10
218.9796476550072
 20
305.3846140130113
 30
0.0
 40
7.0
 41
0.0
 71
     7
 72
     1
  1
103
  7
CONVERTER_12
 11
0.9999999999970619
 21
2.424068405545306E-6
 31
0.0
 73
     1
 44
0.60024009603842
  0
ENDBLK
  5
1BF
330
1B7
100
AcDbEntity
  8
0
100
AcDbBlockEnd
  0
BLOCK
  5
1C9
330
1C2
100
AcDbEntity
  8
0
100
AcDbBlockBegin
  2
*D10
 70
     1
 10
0.0
 20
0.0
 30
0.0
  3
*D10
  1

  0
LINE
  5
1C3
330
1C2
100
AcDbEntity
  8
1
  6
Continuous
 62
     2
100
AcDbLine
 10
164.8296476550073
 20
283.3846140130113
 30
0.0
 11
164.8296476550073
 21
180.3846140130112
 31
0.0
  0
LINE
  5
1C4
330
1C2
100
AcDbEntity
  8
1
  6
Continuous
 62
     2
100
AcDbLine
 10
188.8296476550073
 20
283.3846140130113
 30
0.0
 11
162.8296476550073
 21
283.3846140130113
 31
0.0
  0
LINE
  5
1C5
330
1C2
100
AcDbEntity
  8
1
  6
Continuous
 62
     2
100
AcDbLine
 10
228.034381382818
 20
180.3846140130112
 30
0.0
 11
162.8296476550073
 21
180.3846140130112
 31
0.0
  0
SOLID
  5
1C6
330
1C2
100
AcDbEntity
  8
1
 62
     2
100
AcDbTrace
 10
165.7512151381191
 20
276.3846140130113
 30
0.0
 11
163.9080801718955
 21
276.3846140130113
 31
0.0
 12
164.8296476550073
 22
283.3846140130113
 32
0.0
 13
164.8296476550073
 23
283.3846140130113
 33
0.0
  0
SOLID
  5
1C7
330
1C2
100
AcDbEntity
  8
1
 62
     2
100
AcDbTrace
 10
163.9080801718955
 20
187.3846140130112
 30
0.0
 11
165.7512151381191
 21
187.3846140130112
 31
0.0
 12
164.8296476550073
 22
180.3846140130112
 32
0.0
 13
164.8296476550073
 23
180.3846140130112
 33
0.0
  0
MTEXT
  5
1C8
330
1C2
100
AcDbEntity
  8
1
 62
     7
100
AcDbMText
 10
162.8296476550073
 20
224.5346140130112
 30
0.0
 40
7.0
 41
0.0
 71
     7
 72
     1
  1
103
  7
CONVERTER_12
 11
0.0
 21
1.0
 31
0.0
 73
     1
 44
0.60024009603842
  0
ENDBLK
  5
1CA
330
1C2
100
AcDbEntity
  8
0
100
AcDbBlockEnd
  0
BLOCK
  5
1D6
330
1CD
100
AcDbEntity
  8
0
100
AcDbBlockBegin
  2
*D11
 70
     1
 10
0.0
 20
0.0
 30
0.0
  3
*D11
  1

  0
LINE
  5
1CE
330
1CD
100
AcDbEntity
  8
1
  6
Continuous
 62
     2
100
AcDbLine
 10
200.7807967481579
 20
165.5851128353745
 30
0.0
 11
235.2504886209921
 21
161.3527668543102
 31
0.0
  0
LINE
  5
1CF
330
1CD
100
AcDbEntity
  8
1
  6
Continuous
 62
     2
100
AcDbLine
 10
235.2504886209921
 20
161.3527668543102
 30
0.0
 11
251.6275001230739
 21
159.3419226881254
 31
0.0
  0
LINE
  5
1D0
330
1CD
100
AcDbEntity
  8
1
  6
Continuous
 62
     2
100
AcDbLine
 10
251.6275001230739
 20
159.3419226881254
 30
0.0
 11
265.5231462460524
 21
157.6357518804533
 31
0.0
  0
LINE
  5
1D1
330
1CD
100
AcDbEntity
  8
1
  6
Continuous
 62
     2
100
AcDbLine
 10
234.6411419039663
 20
156.3900360961036
 30
0.0
 11
235.4942273078023
 21
163.3378591575929
 31
0.0
  0
LINE
  5
1D2
330
1CD
100
AcDbEntity
  8
1
  6
Continuous
 62
     2
100
AcDbLine
 10
251.0181534060482
 20
154.3791919299187
 30
0.0
 11
251.8712388098841
 21
161.327014991408
 31
0.0
  0
SOLID
  5
1D3
330
1CD
100
AcDbEntity
  8
1
 62
     2
100
AcDbTrace
 10
228.1903547354324
 20
161.2911539993058
 30
0.0
 11
228.4149763835732
 21
163.1205505169866
 31
0.0
 12
235.2504886209921
 22
161.3527668543102
 32
0.0
 13
235.2504886209921
 23
161.3527668543102
 33
0.0
  0
SOLID
  5
1D4
330
1CD
100
AcDbEntity
  8
1
 62
     2
100
AcDbTrace
 10
258.6876340086335
 20
159.4035355431297
 30
0.0
 11
258.4630123604928
 21
157.574139025449
 31
0.0
 12
251.6275001230739
 22
159.3419226881254
 32
0.0
 13
251.6275001230739
 23
159.3419226881254
 33
0.0
  0
MTEXT
  5
1D5
330
1CD
100
AcDbEntity
  8
1
 62
     7
100
AcDbMText
 10
203.7500167387176
 20
167.9408149913484
 30
0.0
 40
7.0
 41
0.0
 71
     7
 72
     1
  1
\C7;{\Fgdt;n}\C7;16,5
  7
CONVERTER_12
 11
0.9925461516413224
 21
-0.1218693434051447
 31
0.0
 73
     1
 44
0.60024009603842
  0
ENDBLK
  5
1D7
330
1CD
100
AcDbEntity
  8
0
100
AcDbBlockEnd
  0
BLOCK
  5
1E1
330
1DA
100
AcDbEntity
  8
0
100
AcDbBlockBegin
  2
*D12
 70
     1
 10
0.0
 20
0.0
 30
0.0
  3
*D12
  1

  0
LINE
  5
1DB
330
1DA
100
AcDbEntity
  8
1
  6
Continuous
 62
     2
100
AcDbLine
 10
277.8296476550072
 20
137.3846140130112
 30
0.0
 11
242.8296476550072
 21
137.3846140130112
 31
0.0
  0
LINE
  5
1DC
330
1DA
100
AcDbEntity
  8
1
  6
Continuous
 62
     2
100
AcDbLine
 10
277.8296476550072
 20
164.6103671729145
 30
0.0
 11
277.8296476550072
 21
135.3846140130112
 31
0.0
  0
LINE
  5
1DD
330
1DA
100
AcDbEntity
  8
1
  6
Continuous
 62
     2
100
AcDbLine
 10
242.8296476550072
 20
154.6708616461033
 30
0.0
 11
242.8296476550072
 21
135.3846140130112
 31
0.0
  0
SOLID
  5
1DE
330
1DA
100
AcDbEntity
  8
1
 62
     2
100
AcDbTrace
 10
271.8296476550072
 20
136.5946990274868
 30
0.0
 11
271.8296476550072
 21
138.1745289985356
 31
0.0
 12
277.8296476550072
 22
137.3846140130112
 32
0.0
 13
277.8296476550072
 23
137.3846140130112
 33
0.0
  0
SOLID
  5
1DF
330
1DA
100
AcDbEntity
  8
1
 62
     2
100
AcDbTrace
 10
248.8296476550072
 20
138.1745289985356
 30
0.0
 11
248.8296476550072
 21
136.5946990274868
 31
0.0
 12
242.8296476550072
 22
137.3846140130112
 32
0.0
 13
242.8296476550072
 23
137.3846140130112
 33
0.0
  0
MTEXT
  5
1E0
330
1DA
100
AcDbEntity
  8
1
 62
     7
100
AcDbMText
 10
255.0796476550072
 20
139.3846140130112
 30
0.0
 40
7.0
 41
0.0
 71
     7
 72
     1
  1
35
  7
CONVERTER_12
 11
0.9999999999970619
 21
2.424068405545306E-6
 31
0.0
 73
     1
 44
0.60024009603842
  0
ENDBLK
  5
1E2
330
1DA
100
AcDbEntity
  8
0
100
AcDbBlockEnd
  0
BLOCK
  5
1EC
330
1E5
100
AcDbEntity
  8
0
100
AcDbBlockBegin
  2
*D13
 70
     1
 10
0.0
 20
0.0
 30
0.0
  3
*D13
  1

  0
LINE
  5
1E6
330
1E5
100
AcDbEntity
  8
0
  6
Continuous
 62
     2
100
AcDbLine
 10
164.8296476550073
 20
155.3846140130112
 30
0.0
 11
164.8296476550073
 21
180.3846140130112
 31
0.0
  0
LINE
  5
1E7
330
1E5
100
AcDbEntity
  8
0
  6
Continuous
 62
     2
100
AcDbLine
 10
242.8296476550072
 20
155.3846140130112
 30
0.0
 11
162.8296476550073
 21
155.3846140130112
 31
0.0
  0
LINE
  5
1E8
330
1E5
100
AcDbEntity
  8
0
  6
Continuous
 62
     2
100
AcDbLine
 10
228.034381382818
 20
180.3846140130112
 30
0.0
 11
162.8296476550073
 21
180.3846140130112
 31
0.0
  0
SOLID
  5
1E9
330
1E5
100
AcDbEntity
  8
0
 62
     2
100
AcDbTrace
 10
163.9080801718955
 20
162.3846140130112
 30
0.0
 11
165.7512151381191
 21
162.3846140130112
 31
0.0
 12
164.8296476550073
 22
155.3846140130112
 32
0.0
 13
164.8296476550073
 23
155.3846140130112
 33
0.0
  0
SOLID
  5
1EA
330
1E5
100
AcDbEntity
  8
0
 62
     2
100
AcDbTrace
 10
165.7512151381191
 20
173.3846140130112
 30
0.0
 11
163.9080801718955
 21
173.3846140130112
 31
0.0
 12
164.8296476550073
 22
180.3846140130112
 32
0.0
 13
164.8296476550073
 23
180.3846140130112
 33
0.0
  0
MTEXT
  5
1EB
330
1E5
100
AcDbEntity
  8
0
 62
     7
100
AcDbMText
 10
162.8296476550073
 20
162.6346140130112
 30
0.0
 40
7.0
 41
0.0
 71
     7
 72
     1
  1
25
  7
CONVERTER_12
 11
0.0
 21
1.0
 31
0.0
 73
     1
 44
0.60024009603842
  0
ENDBLK
  5
1ED
330
1E5
100
AcDbEntity
  8
0
100
AcDbBlockEnd
  0
BLOCK
  5
1F5
330
1F0
100
AcDbEntity
  8
0
100
AcDbBlockBegin
  2
*D14
 70
     1
 10
0.0
 20
0.0
 30
0.0
  3
*D14
  1

  0
LINE
  5
1F1
330
1F0
100
AcDbEntity
  8
1
  6
Continuous
 62
     2
100
AcDbLine
 10
143.1892977000104
 20
400.0249639680076
 30
0.0
 11
88.69345999186817
 21
454.52080167615
 31
0.0
  0
SOLID
  5
1F2
330
1F0
100
AcDbEntity
  8
1
 62
     2
100
AcDbTrace
 10
103.2932247275273
 20
438.6177437072321
 30
0.0
 11
104.596517960786
 21
439.9210369404908
 31
0.0
 12
108.8946188124625
 22
434.3196428555556
 32
0.0
 13
108.8946188124625
 23
434.3196428555556
 33
0.0
  0
SOLID
  5
1F3
330
1F0
100
AcDbEntity
  8
1
 62
     2
100
AcDbTrace
 10
141.3660705824869
 20
403.1514843187899
 30
0.0
 11
140.0627773492282
 21
401.8481910855312
 31
0.0
 12
135.7646764975517
 22
407.4495851704664
 32
0.0
 13
135.7646764975517
 23
407.4495851704664
 33
0.0
  0
MTEXT
  5
1F4
330
1F0
100
AcDbEntity
  8
1
 62
     7
100
AcDbMText
 10
91.98857759219747
 20
454.0541112005668
 30
0.0
 40
7.0
 41
0.0
 71
     7
 72
     1
  1
\C7;{\Fgdt;n}\C7;38
  7
CONVERTER_12
 11
0.707106781186547
 21
-0.707106781186548
 31
0.0
 73
     1
 44
0.60024009603842
  0
ENDBLK
  5
1F6
330
1F0
100
AcDbEntity
  8
0
100
AcDbBlockEnd
  0
BLOCK
  5
201
330
1F8
100
AcDbEntity
  8
0
100
AcDbBlockBegin
  2
*D15
 70
     1
 10
0.0
 20
0.0
 30
0.0
  3
*D15
  1

  0
LINE
  5
1F9
330
1F8
100
AcDbEntity
  8
1
  6
Continuous
 62
     2
100
AcDbLine
 10
238.5399679083416
 20
120.4479760911055
 30
0.0
 11
238.2962292215313
 21
118.4628837878229
 31
0.0
  0
LINE
  5
1FA
330
1F8
100
AcDbEntity
  8
1
  6
Continuous
 62
     2
100
AcDbLine
 10
242.8296476550072
 20
120.185608038193
 30
0.0
 11
242.8296476550072
 21
118.185608038193
 31
0.0
  0
LINE
  5
1FB
330
1F8
100
AcDbEntity
  8
1
  6
Continuous
 62
     2
100
AcDbLine
 10
242.4640396247917
 20
152.4069755580872
 30
0.0
 11
238.5399679083416
 21
120.4479760911055
 31
0.0
  0
LINE
  5
1FC
330
1F8
100
AcDbEntity
  8
1
  6
Continuous
 62
     2
100
AcDbLine
 10
242.8296476550072
 20
149.3846140130113
 30
0.0
 11
242.8296476550072
 21
120.185608038193
 31
0.0
  0
ARC
  5
1FD
330
1F8
100
AcDbEntity
  8
1
  6
Continuous
 62
     2
100
AcDbCircle
 10
242.8296476550072
 20
155.3846140130113
 30
0.0
 40
35.1990059748183
100
AcDbArc
 50
245.9084467522239
 51
287.0915532477752
  0
SOLID
  5
1FE
330
1F8
100
AcDbEntity
  8
1
 62
     2
100
AcDbTrace
 10
231.5085915504079
 20
121.0875330776356
 30
0.0
 11
231.9137094183974
 21
122.8855948164953
 31
0.0
 12
238.5399679083416
 22
120.4479760911055
 32
0.0
 13
238.5399679083416
 23
120.4479760911055
 33
0.0
  0
SOLID
  5
1FF
330
1F8
100
AcDbEntity
  8
1
 62
     2
100
AcDbTrace
 10
249.7035860125173
 20
121.797519351845
 30
0.0
 11
249.8865555898347
 21
119.9634886439526
 31
0.0
 12
242.8296476550072
 22
120.185608038193
 32
0.0
 13
242.8296476550072
 23
120.185608038193
 33
0.0
  0
MTEXT
  5
200
330
1F8
100
AcDbEntity
  8
1
 62
     7
100
AcDbMText
 10
226.9128489739523
 20
125.8967857195816
 30
0.0
 40
7.0
 41
0.0
 71
     7
 72
     1
  1
7{\Fgdt;~}
  7
CONVERTER_12
 11
0.9363345157150902
 21
-0.3511092062031238
 31
0.0
 73
     1
 44
0.60024009603842
  0
ENDBLK
  5
202
330
1F8
100
AcDbEntity
  8
0
100
AcDbBlockEnd
  0
ENDSEC
  0
SECTION
  2
ENTITIES
  0
INSERT
  5
53
330
1F
100
AcDbEntity
  8
0
100
AcDbBlockReference
  2
84-55
 10
34.41028049672684
 20
-71.97415954852704
 30
0.0
  0
INSERT
  5
54
330
1F
100
AcDbEntity
  8
0
100
AcDbBlockReference
  2
21-4A
 10
133.3927075073204
 20
-99.75375577946244
 30
0.0
  0
INSERT
  5
55
330
1F
100
AcDbEntity
  8
1
100
AcDbBlockReference
  2
開示A4
 10
0.0
 20
0.0
 30
0.0
 41
2.0
 42
2.0
 43
2.0
  0
INSERT
  5
56
330
1F
100
AcDbEntity
  8
0
100
AcDbBlockReference
  2
Y231-0-13
 10
322.8296476550072
 20
180.3846140130112
 30
0.0
  0
LINE
  5
173
330
1F
100
AcDbEntity
  8
1
  6
DASH_CENTER
 62
     2
100
AcDbLine
 10
277.8296476550072
 20
220.8846140130112
 30
0.0
 11
277.8296476550072
 21
253.3789163134896
 31
0.0
  0
LINE
  5
174
330
1F
100
AcDbEntity
  8
1
  6
DASH_CENTER
 62
     2
100
AcDbLine
 10
242.8296476550072
 20
155.3846140130112
 30
0.0
 11
242.8296476550072
 21
154.6708616461033
 31
0.0
  0
LINE
  5
175
330
1F
100
AcDbEntity
  8
1
  6
DASH_CENTER
 62
     2
100
AcDbLine
 10
242.8296476550072
 20
155.3846140130112
 30
0.0
 11
242.4640396247917
 21
152.4069755580872
 31
0.0
  0
LINE
  5
176
330
1F
100
AcDbEntity
  8
1
  6
DASH_CENTER
 62
     2
100
AcDbLine
 10
135.3296476550071
 20
420.884614013011
 30
0.0
 11
143.730991109738
 21
420.884614013011
 31
0.0
  0
LINE
  5
177
330
1F
100
AcDbEntity
  8
1
  6
DASH_CENTER
 62
     2
100
AcDbLine
 10
100.3427601463684
 20
420.884614013011
 30
0.0
 11
135.3296476550071
 21
420.884614013011
 31
0.0
  0
LINE
  5
178
330
1F
100
AcDbEntity
  8
1
  6
DASH_CENTER
 62
     2
100
AcDbLine
 10
242.8296476550072
 20
155.3846140130112
 30
0.0
 11
247.2722497517992
 21
191.5667045309315
 31
0.0
  0
LINE
  5
179
330
1F
100
AcDbEntity
  8
1
  6
DASH_CENTER
 62
     2
100
AcDbLine
 10
372.8296476550072
 20
180.3846140130112
 30
0.0
 11
228.0343813828179
 21
180.3846140130112
 31
0.0
  0
LINE
  5
17A
330
1F
100
AcDbEntity
  8
1
  6
DASH_CENTER
 62
     2
100
AcDbLine
 10
122.3296476550072
 20
311.884614013011
 30
0.0
 11
122.3296476550069
 21
515.8846140130106
 31
0.0
  0
LINE
  5
17B
330
1F
100
AcDbEntity
  8
1
  6
DASH_CENTER
 62
     2
100
AcDbLine
 10
277.8296476550072
 20
164.6103671729145
 30
0.0
 11
277.8296476550072
 21
220.8846140130112
 31
0.0
  0
LINE
  5
17C
330
1F
100
AcDbEntity
  8
1
  6
DASH_CENTER
 62
     2
100
AcDbLine
 10
122.3296476550072
 20
289.3846140130113
 30
0.0
 11
122.3296476550072
 21
147.7427192033609
 31
0.0
  0
LINE
  5
17D
330
1F
100
AcDbEntity
  8
0
  6
DASH_CENTER
 62
     2
100
AcDbLine
 10
96.32964765500716
 20
180.3846140130112
 30
0.0
 11
148.3296476550072
 21
180.3846140130112
 31
0.0
  0
LINE
  5
17E
330
1F
100
AcDbEntity
  8
1
  6
Continuous
 62
     2
100
AcDbLine
 10
242.8296476550072
 20
155.3846140130112
 30
0.0
 11
242.8296476550072
 21
149.3846140130112
 31
0.0
  0
LINE
  5
17F
330
1F
100
AcDbEntity
  8
1
  6
DASH_CENTER
 62
     2
100
AcDbLine
 10
134.3296476550067
 20
234.4333402656819
 30
0.0
 11
110.3296476550067
 21
234.4333402656819
 31
0.0
  0
SOLID
  5
180
330
1F
100
AcDbEntity
  8
1
 62
     2
100
AcDbTrace
 10
135.5315468033307
 20
508.8177881823544
 30
0.0
 11
137.1277485066836
 21
507.8962206992426
 31
0.0
 12
132.8296476550071
 22
502.2948266143075
 32
0.0
 13
132.8296476550071
 23
502.2948266143075
 33
0.0
  0
LEADER
  5
181
330
1F
100
AcDbEntity
  8
1
  6
Continuous
 62
     2
100
AcDbLeader
  3
Standard
 71
     0
 76
     3
 10
132.8296476550071
 20
502.2948266143075
 30
0.0
 10
148.7586188365329
 20
529.8846140130106
 30
0.0
 10
178.067235721443
 20
529.8846140130106
 30
0.0
  0
MTEXT
  5
183
330
1F
100
AcDbEntity
  8
1
 62
     7
100
AcDbMText
 10
68.0
 20
68.00000000000001
 30
0.0
 40
7.0
 41
0.0
 71
     4
 72
     1
  1
JIS
  7
CONVERTER_12
 73
     1
 44
0.7202881152461
  0
MTEXT
  5
184
330
1F
100
AcDbEntity
  8
0
 62
     7
100
AcDbMText
 10
114.0
 20
45.50000000000002
 30
0.0
 40
7.0
 41
0.0
 71
     5
 72
     1
  1
レバー胴長横水栓
  7
CONVERTER_11
 73
     1
 44
1.0
  0
MTEXT
  5
185
330
1F
100
AcDbEntity
  8
0
 62
     7
100
AcDbMText
 10
114.0
 20
28.5
 30
0.0
 40
7.0
 41
0.0
 71
     5
 72
     1
  1
Y231-13
  7
CONVERTER_12
 73
     1
 44
0.90036014405762
  0
MTEXT
  5
186
330
1F
100
AcDbEntity
  8
0
 62
     7
100
AcDbMText
 10
170.5
 20
34.0
 30
0.0
 40
7.0
 41
0.0
 71
     5
 72
     1
  1
1
  7
CONVERTER_12
 73
     1
 44
1.32052821128451
  0
MTEXT
  5
187
330
1F
100
AcDbEntity
  8
0
 62
     7
100
AcDbMText
 10
187.5
 20
34.0
 30
0.0
 40
7.0
 41
0.0
 71
     5
 72
     1
  1
2
  7
CONVERTER_12
 73
     1
 44
1.32052821128451
  0
MTEXT
  5
188
330
1F
100
AcDbEntity
  8
1
 62
     7
100
AcDbMText
 10
163.412927278988
 20
535.8846140130106
 30
0.0
 40
7.0
 41
0.0
 71
     5
 72
     1
  1
PJ1/2
  7
CONVERTER_12
 73
     1
 44
1.32052821128451
  0
DIMENSION
  5
195
330
1F
100
AcDbEntity
  8
1
100
AcDbDimension
  2
*D5
 10
352.8296476550072
 20
137.3846140130112
 30
0.0
 11
359.8296476550072
 21
142.8846140130112
 31
0.0
 70
    32
  1
<>
 71
     5
 42
-1.0
 53
0.00013888888889
  3
ME10_DIM_10
100
AcDbAlignedDimension
 13
366.8296476550072
 23
170.8846140130112
 33
0.0
 14
352.8296476550072
 24
157.3846140130112
 34
0.0
100
AcDbRotatedDimension
  0
DIMENSION
  5
1A0
330
1F
100
AcDbEntity
  8
1
100
AcDbDimension
  2
*D6
 10
277.8296476550072
 20
137.3846140130112
 30
0.0
 11
315.3296476550072
 21
142.8846140130112
 31
0.0
 70
    32
  1
<>
 71
     5
 42
-1.0
 53
0.00013888888889
  3
ME10_DIM_11
100
AcDbAlignedDimension
 13
352.8296476550072
 23
157.3846140130112
 33
0.0
 14
277.8296476550072
 24
164.6103671729145
 34
0.0
100
AcDbRotatedDimension
  0
DIMENSION
  5
1AB
330
1F
100
AcDbEntity
  8
1
100
AcDbDimension
  2
*D7
 10
226.9775003217517
 20
180.3846140130111
 30
0.0
 11
221.4775003217517
 21
213.4162792494886
 31
0.0
 70
    32
  1
<>
 71
     5
 42
-1.0
 53
90.0
  3
ME10_DIM_12
100
AcDbAlignedDimension
 13
266.3296476550072
 23
247.3846140130113
 33
0.0
 14
228.0343813828179
 24
180.3846140130112
 34
0.0
 50
90.0
100
AcDbRotatedDimension
  0
DIMENSION
  5
1B6
330
1F
100
AcDbEntity
  8
1
100
AcDbDimension
  2
*D8
 10
386.8296476550072
 20
157.3846140130112
 30
0.0
 11
381.3296476550072
 21
180.3846140130112
 31
0.0
 70
    32
  1
<>
 71
     5
 42
-1.0
 53
90.0
  3
ME10_DIM_13
100
AcDbAlignedDimension
 13
352.8296476550072
 23
203.3846140130112
 33
0.0
 14
352.8296476550072
 24
157.3846140130112
 34
0.0
 50
90.0
100
AcDbRotatedDimension
  0
DIMENSION
  5
1C1
330
1F
100
AcDbEntity
  8
1
100
AcDbDimension
  2
*D9
 10
174.8296476550072
 20
303.3846140130113
 30
0.0
 11
226.3296476550072
 21
308.8846140130113
 31
0.0
 70
    32
  1
<>
 71
     5
 42
-1.0
 53
0.00013888888889
  3
ME10_DIM_14
100
AcDbAlignedDimension
 13
277.8296476550072
 23
253.3789163134896
 33
0.0
 14
174.8296476550073
 24
269.3846140130113
 34
0.0
100
AcDbRotatedDimension
  0
DIMENSION
  5
1CC
330
1F
100
AcDbEntity
  8
1
100
AcDbDimension
  2
*D10
 10
164.8296476550073
 20
283.3846140130113
 30
0.0
 11
159.3296476550073
 21
231.8846140130112
 31
0.0
 70
    32
  1
<>
 71
     5
 42
-1.0
 53
90.0
  3
ME10_DIM_15
100
AcDbAlignedDimension
 13
228.0343813828179
 23
180.3846140130112
 33
0.0
 14
188.8296476550073
 24
283.3846140130113
 34
0.0
 50
90.0
100
AcDbRotatedDimension
  0
DIMENSION
  5
1D9
330
1F
100
AcDbEntity
  8
1
100
AcDbDimension
  2
*D11
 10
235.2504886209921
 20
161.3527668543102
 30
0.0
 11
214.1735094942958
 21
169.8346269604755
 31
0.0
 70
    33
  1
<>
 71
     5
 42
-1.0
 53
-6.99999999999982
  3
ME10_DIM_16
100
AcDbAlignedDimension
 13
251.0181534060481
 23
154.3791919299187
 33
0.0
 14
234.6411419039663
 24
156.3900360961036
 34
0.0
  0
DIMENSION
  5
1E4
330
1F
100
AcDbEntity
  8
1
100
AcDbDimension
  2
*D12
 10
277.8296476550072
 20
137.3846140130112
 30
0.0
 11
260.3296476550072
 21
142.8846140130112
 31
0.0
 70
    32
  1
<>
 71
     5
 42
-1.0
 53
0.00013888888889
  3
ME10_DIM_17
100
AcDbAlignedDimension
 13
242.8296476550072
 23
154.6708616461033
 33
0.0
 14
277.8296476550072
 24
164.6103671729145
 34
0.0
100
AcDbRotatedDimension
  0
DIMENSION
  5
1EF
330
1F
100
AcDbEntity
  8
0
100
AcDbDimension
  2
*D13
 10
164.8296476550073
 20
155.3846140130112
 30
0.0
 11
159.3296476550073
 21
167.8846140130112
 31
0.0
 70
    32
  1
<>
 71
     5
 42
-1.0
 53
90.0
  3
ME10_DIM_18
100
AcDbAlignedDimension
 13
228.0343813828179
 23
180.3846140130112
 33
0.0
 14
242.8296476550072
 24
155.3846140130112
 34
0.0
 50
90.0
100
AcDbRotatedDimension
  0
INSERT
  5
1F7
330
1F
100
AcDbEntity
  8
1
100
AcDbBlockReference
  2
*D14
 10
0.0
 20
0.0
 30
0.0
  0
DIMENSION
  5
204
330
1F
100
AcDbEntity
  8
1
100
AcDbDimension
  2
*D15
 10
240.6807997471658
 20
120.2512612796859
 30
0.0
 11
232.4020532421669
 21
127.5764096363602
 31
0.0
 70
    37
  1
<>
 71
     5
 42
-1.0
  3
ME10_DIM_19
100
AcDb3PointAngularDimension
 13
242.4640396247917
 23
152.4069755580872
 33
0.0
 14
242.8296476550072
 24
149.3846140130112
 34
0.0
 15
242.8296476550072
 25
155.3846140130113
 35
0.0
  0
ENDSEC
  0
SECTION
  2
OBJECTS
  0
DICTIONARY
  5
C
330
0
100
AcDbDictionary
281
     1
  3
ACAD_GROUP
350
D
  3
ACAD_LAYOUT
350
1A
  3
ACAD_MATERIAL
350
3B
  3
ACAD_MLEADERSTYLE
350
207
  3
ACAD_MLINESTYLE
350
17
  3
ACAD_PLOTSETTINGS
350
19
  3
ACAD_PLOTSTYLENAME
350
E
  3
ACAD_VISUALSTYLE
350
2A
  3
AcDbVariableDictionary
350
205
  0
DICTIONARY
  5
D
102
{ACAD_REACTORS
330
C
102
}
330
C
100
AcDbDictionary
281
     1
  0
DICTIONARY
  5
1A
102
{ACAD_REACTORS
330
C
102
}
330
C
100
AcDbDictionary
281
     1
  3
Layout1
350
1E
  3
Layout2
350
26
  3
Model
350
22
  0
DICTIONARY
  5
3B
102
{ACAD_REACTORS
330
C
102
}
330
C
100
AcDbDictionary
281
     1
  3
ByBlock
350
3D
  3
ByLayer
350
3C
  3
Global
350
3E
  0
DICTIONARY
  5
207
102
{ACAD_REACTORS
330
C
102
}
330
C
100
AcDbDictionary
281
     1
  0
DICTIONARY
  5
17
102
{ACAD_REACTORS
330
C
102
}
330
C
100
AcDbDictionary
281
     1
  3
Standard
350
18
  0
DICTIONARY
  5
19
102
{ACAD_REACTORS
330
C
102
}
330
C
100
AcDbDictionary
281
     1
  0
ACDBDICTIONARYWDFLT
  5
E
102
{ACAD_REACTORS
330
C
102
}
330
C
100
AcDbDictionary
281
     1
  3
Normal
350
F
100
AcDbDictionaryWithDefault
340
F
  0
DICTIONARY
  5
2A
102
{ACAD_REACTORS
330
C
102
}
330
C
100
AcDbDictionary
281
     1
  3
2dWireframe
350
2F
  3
3D Hidden
350
31
  3
3dWireframe
350
30
  3
Basic
350
32
  3
Brighten
350
36
  3
ColorChange
350
3A
  3
Conceptual
350
34
  3
Dim
350
35
  3
Facepattern
350
39
  3
Flat
350
2B
  3
FlatWithEdges
350
2C
  3
Gouraud
350
2D
  3
GouraudWithEdges
350
2E
  3
Linepattern
350
38
  3
Realistic
350
33
  3
Thicken
350
37
  0
DICTIONARY
  5
205
102
{ACAD_REACTORS
330
C
102
}
330
C
100
AcDbDictionary
281
     1
  3
DIMASSOC
350
208
  3
HIDETEXT
350
209
  0
LAYOUT
  5
1E
102
{ACAD_REACTORS
330
1A
102
}
330
1A
100
AcDbPlotSettings
  1

  2
none_device
  4

  6

 40
0.0
 41
0.0
 42
0.0
 43
0.0
 44
0.0
 45
0.0
 46
0.0
 47
0.0
 48
0.0
 49
0.0
140
0.0
141
0.0
142
1.0
143
1.0
 70
   688
 72
     0
 73
     0
 74
     5
  7

 75
    16
147
1.0
148
0.0
149
0.0
100
AcDbLayout
  1
Layout1
 70
     1
 71
     1
 10
0.0
 20
0.0
 11
12.0
 21
9.0
 12
0.0
 22
0.0
 32
0.0
 14
1.00000000000000E+20
 24
1.00000000000000E+20
 34
1.00000000000000E+20
 15
-1.00000000000000E+20
 25
-1.00000000000000E+20
 35
-1.00000000000000E+20
146
0.0
 13
0.0
 23
0.0
 33
0.0
 16
1.0
 26
0.0
 36
0.0
 17
0.0
 27
1.0
 37
0.0
 76
     0
330
1B
  0
LAYOUT
  5
26
102
{ACAD_REACTORS
330
1A
102
}
330
1A
100
AcDbPlotSettings
  1

  2
none_device
  4

  6

 40
0.0
 41
0.0
 42
0.0
 43
0.0
 44
0.0
 45
0.0
 46
0.0
 47
0.0
 48
0.0
 49
0.0
140
0.0
141
0.0
142
1.0
143
1.0
 70
   688
 72
     0
 73
     0
 74
     5
  7

 75
    16
147
1.0
148
0.0
149
0.0
100
AcDbLayout
  1
Layout2
 70
     1
 71
     2
 10
0.0
 20
0.0
 11
0.0
 21
0.0
 12
0.0
 22
0.0
 32
0.0
 14
0.0
 24
0.0
 34
0.0
 15
0.0
 25
0.0
 35
0.0
146
0.0
 13
0.0
 23
0.0
 33
0.0
 16
1.0
 26
0.0
 36
0.0
 17
0.0
 27
1.0
 37
0.0
 76
     0
330
23
  0
LAYOUT
  5
22
102
{ACAD_REACTORS
330
1A
102
}
330
1A
100
AcDbPlotSettings
  1

  2
none_device
  4

  6

 40
0.0
 41
0.0
 42
0.0
 43
0.0
 44
0.0
 45
0.0
 46
0.0
 47
0.0
 48
0.0
 49
0.0
140
0.0
141
0.0
142
1.0
143
1.0
 70
  1712
 72
     0
 73
     0
 74
     0
  7

 75
     0
147
1.0
148
0.0
149
0.0
100
AcDbLayout
  1
Model
 70
     1
 71
     0
 10
0.0
 20
0.0
 11
12.0
 21
9.0
 12
0.0
 22
0.0
 32
0.0
 14
0.0
 24
0.0
 34
0.0
 15
420.0
 25
594.0
 35
0.0
146
0.0
 13
0.0
 23
0.0
 33
0.0
 16
1.0
 26
0.0
 36
0.0
 17
0.0
 27
1.0
 37
0.0
 76
     0
330
1F
331
29
  0
MATERIAL
  5
3D
102
{ACAD_REACTORS
330
3B
102
}
102
{ACAD_XDICTIONARY
360
22C
102
}
330
3B
100
AcDbMaterial
  1
ByBlock
  0
MATERIAL
  5
3C
102
{ACAD_REACTORS
330
3B
102
}
102
{ACAD_XDICTIONARY
360
22A
102
}
330
3B
100
AcDbMaterial
  1
ByLayer
  0
MATERIAL
  5
3E
102
{ACAD_REACTORS
330
3B
102
}
102
{ACAD_XDICTIONARY
360
22E
102
}
330
3B
100
AcDbMaterial
  1
Global
  0
MLINESTYLE
  5
18
102
{ACAD_REACTORS
330
17
102
}
330
17
100
AcDbMlineStyle
  2
Standard
 70
     0
  3

 62
   256
 51
90.0
 52
90.0
 71
     2
 49
0.5
 62
   256
  6
BYLAYER
 49
-0.5
 62
   256
  6
BYLAYER
  0
ACDBPLACEHOLDER
  5
F
102
{ACAD_REACTORS
330
E
102
}
330
E
  0
VISUALSTYLE
  5
2F
102
{ACAD_REACTORS
330
2A
102
}
102
{ACAD_XDICTIONARY
360
212
102
}
330
2A
100
AcDbVisualStyle
  2
2dWireframe
 70
     4
 71
     0
 72
     2
 73
     0
 90
        0
 40
-0.6
 41
-30.0
 62
     5
 63
     7
 74
     1
 91
        4
 64
     7
 65
   257
 75
     1
175
     1
 42
1.0
 92
        0
 66
   257
 43
1.0
 76
     1
 77
     6
 78
     2
 67
     7
 79
     5
170
     0
171
     0
290
     0
174
     0
 93
        1
 44
0.0
173
     0
291
     0
 45
0.0
1001
ACAD
1000
AcDbSavedByObjectVersion
1070
     0
  0
VISUALSTYLE
  5
31
102
{ACAD_REACTORS
330
2A
102
}
102
{ACAD_XDICTIONARY
360
216
102
}
330
2A
100
AcDbVisualStyle
  2
3D Hidden
 70
     6
 71
     1
 72
     2
 73
     2
 90
        0
 40
-0.6
 41
-30.0
 62
     5
 63
     7
 74
     2
 91
        2
 64
     7
 65
   257
 75
     2
175
     1
 42
40.0
 92
        0
 66
   257
 43
1.0
 76
     1
 77
     6
 78
     2
 67
     7
 79
     3
170
     0
171
     0
290
     0
174
     0
 93
        1
 44
0.0
173
     0
291
     0
 45
0.0
1001
ACAD
1000
AcDbSavedByObjectVersion
1070
     0
  0
VISUALSTYLE
  5
30
102
{ACAD_REACTORS
330
2A
102
}
102
{ACAD_XDICTIONARY
360
214
102
}
330
2A
100
AcDbVisualStyle
  2
3dWireframe
 70
     5
 71
     0
 72
     2
 73
     0
 90
        0
 40
-0.6
 41
-30.0
 62
     5
 63
     7
 74
     1
 91
        4
 64
     7
 65
   257
 75
     1
175
     1
 42
1.0
 92
        0
 66
   257
 43
1.0
 76
     1
 77
     6
 78
     2
 67
     7
 79
     5
170
     0
171
     0
290
     0
174
     0
 93
        1
 44
0.0
173
     0
291
     0
 45
0.0
1001
ACAD
1000
AcDbSavedByObjectVersion
1070
     0
  0
VISUALSTYLE
  5
32
102
{ACAD_REACTORS
330
2A
102
}
102
{ACAD_XDICTIONARY
360
218
102
}
330
2A
100
AcDbVisualStyle
  2
Basic
 70
     7
 71
     1
 72
     0
 73
     1
 90
        0
 40
-0.6
 41
-30.0
 62
     5
 63
     7
 74
     0
 91
        4
 64
     7
 65
   257
 75
     1
175
     1
 42
1.0
 92
        8
 66
     7
 43
1.0
 76
     1
 77
     6
 78
     2
 67
     7
 79
     5
170
     0
171
     0
290
     0
174
     0
 93
        1
 44
0.0
173
     0
291
     1
 45
0.0
1001
ACAD
1000
AcDbSavedByObjectVersion
1070
     0
  0
VISUALSTYLE
  5
36
102
{ACAD_REACTORS
330
2A
102
}
102
{ACAD_XDICTIONARY
360
220
102
}
330
2A
100
AcDbVisualStyle
  2
Brighten
 70
    12
 71
     2
 72
     2
 73
     0
 90
        0
 40
-0.6
 41
-30.0
 62
     5
 63
     7
 74
     1
 91
        4
 64
     7
 65
   257
 75
     1
175
     1
 42
1.0
 92
        8
 66
     7
 43
1.0
 76
     1
 77
     6
 78
     2
 67
     7
 79
     5
170
     0
171
     0
290
     0
174
     0
 93
        1
 44
50.0
173
     0
291
     1
 45
0.0
1001
ACAD
1000
AcDbSavedByObjectVersion
1070
     0
  0
VISUALSTYLE
  5
3A
102
{ACAD_REACTORS
330
2A
102
}
102
{ACAD_XDICTIONARY
360
228
102
}
330
2A
100
AcDbVisualStyle
  2
ColorChange
 70
    16
 71
     2
 72
     2
 73
     3
 90
        0
 40
-0.6
 41
-30.0
 62
     5
 63
     8
 74
     1
 91
        4
 64
     7
 65
   257
 75
     1
175
     1
 42
1.0
 92
        8
 66
     8
 43
1.0
 76
     1
 77
     6
 78
     2
 67
     7
 79
     5
170
     0
171
     0
290
     0
174
     0
 93
        1
 44
0.0
173
     0
291
     1
 45
0.0
1001
ACAD
1000
AcDbSavedByObjectVersion
1070
     0
  0
VISUALSTYLE
  5
34
102
{ACAD_REACTORS
330
2A
102
}
102
{ACAD_XDICTIONARY
360
21C
102
}
330
2A
100
AcDbVisualStyle
  2
Conceptual
 70
     9
 71
     3
 72
     2
 73
     0
 90
        0
 40
-0.6
 41
-30.0
 62
     5
 63
     7
 74
     2
 91
        2
 64
     7
 65
   257
 75
     1
175
     1
 42
40.0
 92
        8
 66
     7
 43
1.0
 76
     1
 77
     6
 78
     2
 67
     7
 79
     3
170
     0
171
     0
290
     0
174
     0
 93
        1
 44
0.0
173
     0
291
     0
 45
0.0
1001
ACAD
1000
AcDbSavedByObjectVersion
1070
     0
  0
VISUALSTYLE
  5
35
102
{ACAD_REACTORS
330
2A
102
}
102
{ACAD_XDICTIONARY
360
21E
102
}
330
2A
100
AcDbVisualStyle
  2
Dim
 70
    11
 71
     2
 72
     2
 73
     0
 90
        0
 40
-0.6
 41
-30.0
 62
     5
 63
     7
 74
     1
 91
        4
 64
     7
 65
   257
 75
     1
175
     1
 42
1.0
 92
        8
 66
     7
 43
1.0
 76
     1
 77
     6
 78
     2
 67
     7
 79
     5
170
     0
171
     0
290
     0
174
     0
 93
        1
 44
-50.0
173
     0
291
     1
 45
0.0
1001
ACAD
1000
AcDbSavedByObjectVersion
1070
     0
  0
VISUALSTYLE
  5
39
102
{ACAD_REACTORS
330
2A
102
}
102
{ACAD_XDICTIONARY
360
226
102
}
330
2A
100
AcDbVisualStyle
  2
Facepattern
 70
    15
 71
     2
 72
     2
 73
     0
 90
        0
 40
-0.6
 41
-30.0
 62
     5
 63
     7
 74
     1
 91
        4
 64
     7
 65
   257
 75
     1
175
     1
 42
1.0
 92
        8
 66
     7
 43
1.0
 76
     1
 77
     6
 78
     2
 67
     7
 79
     5
170
     0
171
     0
290
     0
174
     0
 93
        1
 44
0.0
173
     0
291
     1
 45
0.0
1001
ACAD
1000
AcDbSavedByObjectVersion
1070
     0
  0
VISUALSTYLE
  5
2B
102
{ACAD_REACTORS
330
2A
102
}
102
{ACAD_XDICTIONARY
360
20A
102
}
330
2A
100
AcDbVisualStyle
  2
Flat
 70
     0
 71
     2
 72
     1
 73
     1
 90
        2
 40
-0.6
 41
30.0
 62
     5
 63
     7
 74
     0
 91
        4
 64
     7
 65
   257
 75
     1
175
     1
 42
1.0
 92
        8
 66
     7
 43
1.0
 76
     1
 77
     6
 78
     2
 67
     7
 79
     5
170
     0
171
     0
290
     0
174
     0
 93
       13
 44
0.0
173
     0
291
     1
 45
0.0
1001
ACAD
1000
AcDbSavedByObjectVersion
1070
     0
  0
VISUALSTYLE
  5
2C
102
{ACAD_REACTORS
330
2A
102
}
102
{ACAD_XDICTIONARY
360
20C
102
}
330
2A
100
AcDbVisualStyle
  2
FlatWithEdges
 70
     1
 71
     2
 72
     1
 73
     1
 90
        2
 40
-0.6
 41
30.0
 62
     5
 63
     7
 74
     1
 91
        4
 64
     7
 65
   257
 75
     1
175
     1
 42
1.0
 92
        0
 66
   257
 43
1.0
 76
     1
 77
     6
 78
     2
 67
     7
 79
     5
170
     0
171
     0
290
     0
174
     0
 93
       13
 44
0.0
173
     0
291
     1
 45
0.0
1001
ACAD
1000
AcDbSavedByObjectVersion
1070
     0
  0
VISUALSTYLE
  5
2D
102
{ACAD_REACTORS
330
2A
102
}
102
{ACAD_XDICTIONARY
360
20E
102
}
330
2A
100
AcDbVisualStyle
  2
Gouraud
 70
     2
 71
     2
 72
     2
 73
     1
 90
        2
 40
-0.6
 41
30.0
 62
     5
 63
     7
 74
     0
 91
        4
 64
     7
 65
   257
 75
     1
175
     1
 42
1.0
 92
        0
 66
     7
 43
1.0
 76
     1
 77
     6
 78
     2
 67
     7
 79
     5
170
     0
171
     0
290
     0
174
     0
 93
       13
 44
0.0
173
     0
291
     1
 45
0.0
1001
ACAD
1000
AcDbSavedByObjectVersion
1070
     0
  0
VISUALSTYLE
  5
2E
102
{ACAD_REACTORS
330
2A
102
}
102
{ACAD_XDICTIONARY
360
210
102
}
330
2A
100
AcDbVisualStyle
  2
GouraudWithEdges
 70
     3
 71
     2
 72
     2
 73
     1
 90
        2
 40
-0.6
 41
30.0
 62
     5
 63
     7
 74
     1
 91
        4
 64
     7
 65
   257
 75
     1
175
     1
 42
1.0
 92
        0
 66
   257
 43
1.0
 76
     1
 77
     6
 78
     2
 67
     7
 79
     5
170
     0
171
     0
290
     0
174
     0
 93
       13
 44
0.0
173
     0
291
     1
 45
0.0
1001
ACAD
1000
AcDbSavedByObjectVersion
1070
     0
  0
VISUALSTYLE
  5
38
102
{ACAD_REACTORS
330
2A
102
}
102
{ACAD_XDICTIONARY
360
224
102
}
330
2A
100
AcDbVisualStyle
  2
Linepattern
 70
    14
 71
     2
 72
     2
 73
     0
 90
        0
 40
-0.6
 41
-30.0
 62
     5
 63
     7
 74
     1
 91
        4
 64
     7
 65
   257
 75
     7
175
     7
 42
1.0
 92
        8
 66
     7
 43
1.0
 76
     1
 77
     6
 78
     2
 67
     7
 79
     5
170
     0
171
     0
290
     0
174
     0
 93
        1
 44
0.0
173
     0
291
     1
 45
0.0
1001
ACAD
1000
AcDbSavedByObjectVersion
1070
     0
  0
VISUALSTYLE
  5
33
102
{ACAD_REACTORS
330
2A
102
}
102
{ACAD_XDICTIONARY
360
21A
102
}
330
2A
100
AcDbVisualStyle
  2
Realistic
 70
     8
 71
     2
 72
     2
 73
     0
 90
        0
 40
-0.6
 41
-30.0
 62
     5
 63
     7
 74
     1
 91
        0
 64
     7
 65
   257
 75
     1
175
     1
 42
1.0
 92
        8
 66
     8
 43
1.0
 76
     1
 77
     6
 78
     2
 67
     7
 79
     5
170
     0
171
     0
290
     0
174
     0
 93
       13
 44
0.0
173
     0
291
     0
 45
0.0
1001
ACAD
1000
AcDbSavedByObjectVersion
1070
     0
  0
VISUALSTYLE
  5
37
102
{ACAD_REACTORS
330
2A
102
}
102
{ACAD_XDICTIONARY
360
222
102
}
330
2A
100
AcDbVisualStyle
  2
Thicken
 70
    13
 71
     2
 72
     2
 73
     0
 90
        0
 40
-0.6
 41
-30.0
 62
     5
 63
     7
 74
     1
 91
        4
 64
     7
 65
   257
 75
     1
175
     1
 42
1.0
 92
       12
 66
     7
 43
1.0
 76
     1
 77
     6
 78
     2
 67
     7
 79
     5
170
     0
171
     0
290
     0
174
     0
 93
        1
 44
0.0
173
     0
291
     1
 45
0.0
1001
ACAD
1000
AcDbSavedByObjectVersion
1070
     0
  0
DICTIONARYVAR
  5
208
102
{ACAD_REACTORS
330
205
102
}
330
205
100
DictionaryVariables
280
     0
  1
2
  0
DICTIONARYVAR
  5
209
102
{ACAD_REACTORS
330
205
102
}
330
205
100
DictionaryVariables
280
     0
  1
1
  0
DICTIONARY
  5
22C
330
3D
100
AcDbDictionary
280
     1
281
     1
  3
ACAD_XREC_ROUNDTRIP
360
22D
  0
DICTIONARY
  5
22A
330
3C
100
AcDbDictionary
280
     1
281
     1
  3
ACAD_XREC_ROUNDTRIP
360
22B
  0
DICTIONARY
  5
22E
330
3E
100
AcDbDictionary
280
     1
281
     1
  3
ACAD_XREC_ROUNDTRIP
360
22F
  0
DICTIONARY
  5
212
330
2F
100
AcDbDictionary
280
     1
281
     1
  3
ACAD_XREC_ROUNDTRIP
360
213
  0
DICTIONARY
  5
216
330
31
100
AcDbDictionary
280
     1
281
     1
  3
ACAD_XREC_ROUNDTRIP
360
217
  0
DICTIONARY
  5
214
330
30
100
AcDbDictionary
280
     1
281
     1
  3
ACAD_XREC_ROUNDTRIP
360
215
  0
DICTIONARY
  5
218
330
32
100
AcDbDictionary
280
     1
281
     1
  3
ACAD_XREC_ROUNDTRIP
360
219
  0
DICTIONARY
  5
220
330
36
100
AcDbDictionary
280
     1
281
     1
  3
ACAD_XREC_ROUNDTRIP
360
221
  0
DICTIONARY
  5
228
330
3A
100
AcDbDictionary
280
     1
281
     1
  3
ACAD_XREC_ROUNDTRIP
360
229
  0
DICTIONARY
  5
21C
330
34
100
AcDbDictionary
280
     1
281
     1
  3
ACAD_XREC_ROUNDTRIP
360
21D
  0
DICTIONARY
  5
21E
330
35
100
AcDbDictionary
280
     1
281
     1
  3
ACAD_XREC_ROUNDTRIP
360
21F
  0
DICTIONARY
  5
226
330
39
100
AcDbDictionary
280
     1
281
     1
  3
ACAD_XREC_ROUNDTRIP
360
227
  0
DICTIONARY
  5
20A
330
2B
100
AcDbDictionary
280
     1
281
     1
  3
ACAD_XREC_ROUNDTRIP
360
20B
  0
DICTIONARY
  5
20C
330
2C
100
AcDbDictionary
280
     1
281
     1
  3
ACAD_XREC_ROUNDTRIP
360
20D
  0
DICTIONARY
  5
20E
330
2D
100
AcDbDictionary
280
     1
281
     1
  3
ACAD_XREC_ROUNDTRIP
360
20F
  0
DICTIONARY
  5
210
330
2E
100
AcDbDictionary
280
     1
281
     1
  3
ACAD_XREC_ROUNDTRIP
360
211
  0
DICTIONARY
  5
224
330
38
100
AcDbDictionary
280
     1
281
     1
  3
ACAD_XREC_ROUNDTRIP
360
225
  0
DICTIONARY
  5
21A
330
33
100
AcDbDictionary
280
     1
281
     1
  3
ACAD_XREC_ROUNDTRIP
360
21B
  0
DICTIONARY
  5
222
330
37
100
AcDbDictionary
280
     1
281
     1
  3
ACAD_XREC_ROUNDTRIP
360
223
  0
XRECORD
  5
22D
102
{ACAD_REACTORS
330
22C
102
}
330
22C
100
AcDbXrecord
280
     1
102
MATERIAL
148
0.0
149
0.0
149
0.0
 93
        0
 94
      127
282
     0
 72
     1
 77
     1
171
     1
175
     1
179
     1
273
     0
  0
XRECORD
  5
22B
102
{ACAD_REACTORS
330
22A
102
}
330
22A
100
AcDbXrecord
280
     1
102
MATERIAL
148
0.0
149
0.0
149
0.0
 93
        0
 94
      127
282
     0
 72
     1
 77
     1
171
     1
175
     1
179
     1
273
     0
  0
XRECORD
  5
22F
102
{ACAD_REACTORS
330
22E
102
}
330
22E
100
AcDbXrecord
280
     1
102
MATERIAL
148
0.0
149
0.0
149
0.0
 93
        0
 94
      127
282
     0
 72
     1
 77
     1
171
     1
175
     1
179
     1
273
     0
  0
XRECORD
  5
213
102
{ACAD_REACTORS
330
212
102
}
330
212
100
AcDbXrecord
280
     1
102
RTVSPropertyOp0
 70
     1
102
RTVSPropertyOp1
 70
     1
102
RTVSPropertyOp2
 70
     1
102
RTVSPropertyOp3
 70
     1
102
RTVSPropertyOp4
 70
     1
102
RTVSPropertyOp5
 70
     1
102
RTVSPropertyOp6
 70
     1
102
RTVSPropertyOp7
 70
     1
102
RTVSPropertyOp8
 70
     1
102
RTVSPropertyOp9
 70
     1
102
RTVSPropertyOp10
 70
     1
102
RTVSPropertyOp11
 70
     1
102
RTVSPropertyOp12
 70
     1
102
RTVSPropertyOp13
 70
     1
102
RTVSPropertyOp14
 70
     1
102
RTVSPropertyOp15
 70
     1
102
RTVSPropertyOp16
 70
     1
102
RTVSPropertyOp17
 70
     1
102
RTVSPropertyOp18
 70
     1
102
RTVSPropertyOp19
 70
     1
102
RTVSPropertyOp20
 70
     1
102
RTVSPropertyOp21
 70
     1
102
RTVSPropertyOp22
 70
     1
102
RTVSPropertyOp23
 70
     1
102
RTVSPropertyOp24
 70
     1
102
RTVSPropertyOp25
 70
     1
102
RTVSPropertyOp26
 70
     1
102
RTVSPropertyOp27
 70
     1
102
RTVSPropertyOp28
 70
     1
102
RTVSPropertyOp29
 70
     1
102
RTVSPropertyOp30
 70
     1
102
RTVSPropertyOp31
 70
     1
102
RTVSPropertyOp32
 70
     1
  0
XRECORD
  5
217
102
{ACAD_REACTORS
330
216
102
}
330
216
100
AcDbXrecord
280
     1
102
RTVSPropertyOp0
 70
     1
102
RTVSPropertyOp1
 70
     1
102
RTVSPropertyOp2
 70
     1
102
RTVSPropertyOp3
 70
     1
102
RTVSPropertyOp4
 70
     1
102
RTVSPropertyOp5
 70
     1
102
RTVSPropertyOp6
 70
     1
102
RTVSPropertyOp7
 70
     1
102
RTVSPropertyOp8
 70
     1
102
RTVSPropertyOp9
 70
     1
102
RTVSPropertyOp10
 70
     1
102
RTVSPropertyOp11
 70
     1
102
RTVSPropertyOp12
 70
     1
102
RTVSPropertyOp13
 70
     1
102
RTVSPropertyOp14
 70
     1
102
RTVSPropertyOp15
 70
     1
102
RTVSPropertyOp16
 70
     1
102
RTVSPropertyOp17
 70
     1
102
RTVSPropertyOp18
 70
     1
102
RTVSPropertyOp19
 70
     1
102
RTVSPropertyOp20
 70
     1
102
RTVSPropertyOp21
 70
     1
102
RTVSPropertyOp22
 70
     1
102
RTVSPropertyOp23
 70
     1
102
RTVSPropertyOp24
 70
     1
102
RTVSPropertyOp25
 70
     1
102
RTVSPropertyOp26
 70
     1
102
RTVSPropertyOp27
 70
     1
102
RTVSPropertyOp28
 70
     1
102
RTVSPropertyOp29
 70
     1
102
RTVSPropertyOp30
 70
     1
102
RTVSPropertyOp31
 70
     1
102
RTVSPropertyOp32
 70
     1
  0
XRECORD
  5
215
102
{ACAD_REACTORS
330
214
102
}
330
214
100
AcDbXrecord
280
     1
102
RTVSPropertyOp0
 70
     1
102
RTVSPropertyOp1
 70
     1
102
RTVSPropertyOp2
 70
     1
102
RTVSPropertyOp3
 70
     1
102
RTVSPropertyOp4
 70
     1
102
RTVSPropertyOp5
 70
     1
102
RTVSPropertyOp6
 70
     1
102
RTVSPropertyOp7
 70
     1
102
RTVSPropertyOp8
 70
     1
102
RTVSPropertyOp9
 70
     1
102
RTVSPropertyOp10
 70
     1
102
RTVSPropertyOp11
 70
     1
102
RTVSPropertyOp12
 70
     1
102
RTVSPropertyOp13
 70
     1
102
RTVSPropertyOp14
 70
     1
102
RTVSPropertyOp15
 70
     1
102
RTVSPropertyOp16
 70
     1
102
RTVSPropertyOp17
 70
     1
102
RTVSPropertyOp18
 70
     1
102
RTVSPropertyOp19
 70
     1
102
RTVSPropertyOp20
 70
     1
102
RTVSPropertyOp21
 70
     1
102
RTVSPropertyOp22
 70
     1
102
RTVSPropertyOp23
 70
     1
102
RTVSPropertyOp24
 70
     1
102
RTVSPropertyOp25
 70
     1
102
RTVSPropertyOp26
 70
     1
102
RTVSPropertyOp27
 70
     1
102
RTVSPropertyOp28
 70
     1
102
RTVSPropertyOp29
 70
     1
102
RTVSPropertyOp30
 70
     1
102
RTVSPropertyOp31
 70
     1
102
RTVSPropertyOp32
 70
     1
  0
XRECORD
  5
219
102
{ACAD_REACTORS
330
218
102
}
330
218
100
AcDbXrecord
280
     1
102
RTVSPropertyOp0
 70
     1
102
RTVSPropertyOp1
 70
     1
102
RTVSPropertyOp2
 70
     1
102
RTVSPropertyOp3
 70
     1
102
RTVSPropertyOp4
 70
     1
102
RTVSPropertyOp5
 70
     1
102
RTVSPropertyOp6
 70
     1
102
RTVSPropertyOp7
 70
     1
102
RTVSPropertyOp8
 70
     1
102
RTVSPropertyOp9
 70
     1
102
RTVSPropertyOp10
 70
     1
102
RTVSPropertyOp11
 70
     1
102
RTVSPropertyOp12
 70
     1
102
RTVSPropertyOp13
 70
     1
102
RTVSPropertyOp14
 70
     1
102
RTVSPropertyOp15
 70
     1
102
RTVSPropertyOp16
 70
     1
102
RTVSPropertyOp17
 70
     1
102
RTVSPropertyOp18
 70
     1
102
RTVSPropertyOp19
 70
     1
102
RTVSPropertyOp20
 70
     1
102
RTVSPropertyOp21
 70
     1
102
RTVSPropertyOp22
 70
     1
102
RTVSPropertyOp23
 70
     1
102
RTVSPropertyOp24
 70
     1
102
RTVSPropertyOp25
 70
     1
102
RTVSPropertyOp26
 70
     1
102
RTVSPropertyOp27
 70
     1
102
RTVSPropertyOp28
 70
     1
102
RTVSPropertyOp29
 70
     1
102
RTVSPropertyOp30
 70
     1
102
RTVSPropertyOp31
 70
     1
102
RTVSPropertyOp32
 70
     1
  0
XRECORD
  5
221
102
{ACAD_REACTORS
330
220
102
}
330
220
100
AcDbXrecord
280
     1
102
RTVSPropertyOp0
 70
     1
102
RTVSPropertyOp1
 70
     1
102
RTVSPropertyOp2
 70
     1
102
RTVSPropertyOp3
 70
     1
102
RTVSPropertyOp4
 70
     1
102
RTVSPropertyOp5
 70
     1
102
RTVSPropertyOp6
 70
     1
102
RTVSPropertyOp7
 70
     1
102
RTVSPropertyOp8
 70
     1
102
RTVSPropertyOp9
 70
     1
102
RTVSPropertyOp10
 70
     1
102
RTVSPropertyOp11
 70
     1
102
RTVSPropertyOp12
 70
     1
102
RTVSPropertyOp13
 70
     1
102
RTVSPropertyOp14
 70
     1
102
RTVSPropertyOp15
 70
     1
102
RTVSPropertyOp16
 70
     1
102
RTVSPropertyOp17
 70
     1
102
RTVSPropertyOp18
 70
     1
102
RTVSPropertyOp19
 70
     1
102
RTVSPropertyOp20
 70
     1
102
RTVSPropertyOp21
 70
     1
102
RTVSPropertyOp22
 70
     1
102
RTVSPropertyOp23
 70
     1
102
RTVSPropertyOp24
 70
     1
102
RTVSPropertyOp25
 70
     1
102
RTVSPropertyOp26
 70
     1
102
RTVSPropertyOp27
 70
     1
102
RTVSPropertyOp28
 70
     1
102
RTVSPropertyOp29
 70
     1
102
RTVSPropertyOp30
 70
     1
102
RTVSPropertyOp31
 70
     1
102
RTVSPropertyOp32
 70
     1
  0
XRECORD
  5
229
102
{ACAD_REACTORS
330
228
102
}
330
228
100
AcDbXrecord
280
     1
102
RTVSPropertyOp0
 70
     1
102
RTVSPropertyOp1
 70
     1
102
RTVSPropertyOp2
 70
     1
102
RTVSPropertyOp3
 70
     1
102
RTVSPropertyOp4
 70
     1
102
RTVSPropertyOp5
 70
     1
102
RTVSPropertyOp6
 70
     1
102
RTVSPropertyOp7
 70
     1
102
RTVSPropertyOp8
 70
     1
102
RTVSPropertyOp9
 70
     1
102
RTVSPropertyOp10
 70
     1
102
RTVSPropertyOp11
 70
     1
102
RTVSPropertyOp12
 70
     1
102
RTVSPropertyOp13
 70
     1
102
RTVSPropertyOp14
 70
     1
102
RTVSPropertyOp15
 70
     1
102
RTVSPropertyOp16
 70
     1
102
RTVSPropertyOp17
 70
     1
102
RTVSPropertyOp18
 70
     1
102
RTVSPropertyOp19
 70
     1
102
RTVSPropertyOp20
 70
     1
102
RTVSPropertyOp21
 70
     1
102
RTVSPropertyOp22
 70
     1
102
RTVSPropertyOp23
 70
     1
102
RTVSPropertyOp24
 70
     1
102
RTVSPropertyOp25
 70
     1
102
RTVSPropertyOp26
 70
     1
102
RTVSPropertyOp27
 70
     1
102
RTVSPropertyOp28
 70
     1
102
RTVSPropertyOp29
 70
     1
102
RTVSPropertyOp30
 70
     1
102
RTVSPropertyOp31
 70
     1
102
RTVSPropertyOp32
 70
     1
  0
XRECORD
  5
21D
102
{ACAD_REACTORS
330
21C
102
}
330
21C
100
AcDbXrecord
280
     1
102
RTVSPropertyOp0
 70
     1
102
RTVSPropertyOp1
 70
     1
102
RTVSPropertyOp2
 70
     1
102
RTVSPropertyOp3
 70
     1
102
RTVSPropertyOp4
 70
     1
102
RTVSPropertyOp5
 70
     1
102
RTVSPropertyOp6
 70
     1
102
RTVSPropertyOp7
 70
     1
102
RTVSPropertyOp8
 70
     1
102
RTVSPropertyOp9
 70
     1
102
RTVSPropertyOp10
 70
     1
102
RTVSPropertyOp11
 70
     1
102
RTVSPropertyOp12
 70
     1
102
RTVSPropertyOp13
 70
     1
102
RTVSPropertyOp14
 70
     1
102
RTVSPropertyOp15
 70
     1
102
RTVSPropertyOp16
 70
     1
102
RTVSPropertyOp17
 70
     1
102
RTVSPropertyOp18
 70
     1
102
RTVSPropertyOp19
 70
     1
102
RTVSPropertyOp20
 70
     1
102
RTVSPropertyOp21
 70
     1
102
RTVSPropertyOp22
 70
     1
102
RTVSPropertyOp23
 70
     1
102
RTVSPropertyOp24
 70
     1
102
RTVSPropertyOp25
 70
     1
102
RTVSPropertyOp26
 70
     1
102
RTVSPropertyOp27
 70
     1
102
RTVSPropertyOp28
 70
     1
102
RTVSPropertyOp29
 70
     1
102
RTVSPropertyOp30
 70
     1
102
RTVSPropertyOp31
 70
     1
102
RTVSPropertyOp32
 70
     1
  0
XRECORD
  5
21F
102
{ACAD_REACTORS
330
21E
102
}
330
21E
100
AcDbXrecord
280
     1
102
RTVSPropertyOp0
 70
     1
102
RTVSPropertyOp1
 70
     1
102
RTVSPropertyOp2
 70
     1
102
RTVSPropertyOp3
 70
     1
102
RTVSPropertyOp4
 70
     1
102
RTVSPropertyOp5
 70
     1
102
RTVSPropertyOp6
 70
     1
102
RTVSPropertyOp7
 70
     1
102
RTVSPropertyOp8
 70
     1
102
RTVSPropertyOp9
 70
     1
102
RTVSPropertyOp10
 70
     1
102
RTVSPropertyOp11
 70
     1
102
RTVSPropertyOp12
 70
     1
102
RTVSPropertyOp13
 70
     1
102
RTVSPropertyOp14
 70
     1
102
RTVSPropertyOp15
 70
     1
102
RTVSPropertyOp16
 70
     1
102
RTVSPropertyOp17
 70
     1
102
RTVSPropertyOp18
 70
     1
102
RTVSPropertyOp19
 70
     1
102
RTVSPropertyOp20
 70
     1
102
RTVSPropertyOp21
 70
     1
102
RTVSPropertyOp22
 70
     1
102
RTVSPropertyOp23
 70
     1
102
RTVSPropertyOp24
 70
     1
102
RTVSPropertyOp25
 70
     1
102
RTVSPropertyOp26
 70
     1
102
RTVSPropertyOp27
 70
     1
102
RTVSPropertyOp28
 70
     1
102
RTVSPropertyOp29
 70
     1
102
RTVSPropertyOp30
 70
     1
102
RTVSPropertyOp31
 70
     1
102
RTVSPropertyOp32
 70
     1
  0
XRECORD
  5
227
102
{ACAD_REACTORS
330
226
102
}
330
226
100
AcDbXrecord
280
     1
102
RTVSPropertyOp0
 70
     1
102
RTVSPropertyOp1
 70
     1
102
RTVSPropertyOp2
 70
     1
102
RTVSPropertyOp3
 70
     1
102
RTVSPropertyOp4
 70
     1
102
RTVSPropertyOp5
 70
     1
102
RTVSPropertyOp6
 70
     1
102
RTVSPropertyOp7
 70
     1
102
RTVSPropertyOp8
 70
     1
102
RTVSPropertyOp9
 70
     1
102
RTVSPropertyOp10
 70
     1
102
RTVSPropertyOp11
 70
     1
102
RTVSPropertyOp12
 70
     1
102
RTVSPropertyOp13
 70
     1
102
RTVSPropertyOp14
 70
     1
102
RTVSPropertyOp15
 70
     1
102
RTVSPropertyOp16
 70
     1
102
RTVSPropertyOp17
 70
     1
102
RTVSPropertyOp18
 70
     1
102
RTVSPropertyOp19
 70
     1
102
RTVSPropertyOp20
 70
     1
102
RTVSPropertyOp21
 70
     1
102
RTVSPropertyOp22
 70
     1
102
RTVSPropertyOp23
 70
     1
102
RTVSPropertyOp24
 70
     1
102
RTVSPropertyOp25
 70
     1
102
RTVSPropertyOp26
 70
     1
102
RTVSPropertyOp27
 70
     1
102
RTVSPropertyOp28
 70
     1
102
RTVSPropertyOp29
 70
     1
102
RTVSPropertyOp30
 70
     1
102
RTVSPropertyOp31
 70
     1
102
RTVSPropertyOp32
 70
     1
  0
XRECORD
  5
20B
102
{ACAD_REACTORS
330
20A
102
}
330
20A
100
AcDbXrecord
280
     1
102
RTVSPropertyOp0
 70
     1
102
RTVSPropertyOp1
 70
     1
102
RTVSPropertyOp2
 70
     1
102
RTVSPropertyOp3
 70
     1
102
RTVSPropertyOp4
 70
     1
102
RTVSPropertyOp5
 70
     1
102
RTVSPropertyOp6
 70
     1
102
RTVSPropertyOp7
 70
     1
102
RTVSPropertyOp8
 70
     1
102
RTVSPropertyOp9
 70
     1
102
RTVSPropertyOp10
 70
     1
102
RTVSPropertyOp11
 70
     1
102
RTVSPropertyOp12
 70
     1
102
RTVSPropertyOp13
 70
     1
102
RTVSPropertyOp14
 70
     1
102
RTVSPropertyOp15
 70
     1
102
RTVSPropertyOp16
 70
     1
102
RTVSPropertyOp17
 70
     1
102
RTVSPropertyOp18
 70
     1
102
RTVSPropertyOp19
 70
     1
102
RTVSPropertyOp20
 70
     1
102
RTVSPropertyOp21
 70
     1
102
RTVSPropertyOp22
 70
     1
102
RTVSPropertyOp23
 70
     1
102
RTVSPropertyOp24
 70
     1
102
RTVSPropertyOp25
 70
     1
102
RTVSPropertyOp26
 70
     1
102
RTVSPropertyOp27
 70
     1
102
RTVSPropertyOp28
 70
     1
102
RTVSPropertyOp29
 70
     1
102
RTVSPropertyOp30
 70
     1
102
RTVSPropertyOp31
 70
     1
102
RTVSPropertyOp32
 70
     1
  0
XRECORD
  5
20D
102
{ACAD_REACTORS
330
20C
102
}
330
20C
100
AcDbXrecord
280
     1
102
RTVSPropertyOp0
 70
     1
102
RTVSPropertyOp1
 70
     1
102
RTVSPropertyOp2
 70
     1
102
RTVSPropertyOp3
 70
     1
102
RTVSPropertyOp4
 70
     1
102
RTVSPropertyOp5
 70
     1
102
RTVSPropertyOp6
 70
     1
102
RTVSPropertyOp7
 70
     1
102
RTVSPropertyOp8
 70
     1
102
RTVSPropertyOp9
 70
     1
102
RTVSPropertyOp10
 70
     1
102
RTVSPropertyOp11
 70
     1
102
RTVSPropertyOp12
 70
     1
102
RTVSPropertyOp13
 70
     1
102
RTVSPropertyOp14
 70
     1
102
RTVSPropertyOp15
 70
     1
102
RTVSPropertyOp16
 70
     1
102
RTVSPropertyOp17
 70
     1
102
RTVSPropertyOp18
 70
     1
102
RTVSPropertyOp19
 70
     1
102
RTVSPropertyOp20
 70
     1
102
RTVSPropertyOp21
 70
     1
102
RTVSPropertyOp22
 70
     1
102
RTVSPropertyOp23
 70
     1
102
RTVSPropertyOp24
 70
     1
102
RTVSPropertyOp25
 70
     1
102
RTVSPropertyOp26
 70
     1
102
RTVSPropertyOp27
 70
     1
102
RTVSPropertyOp28
 70
     1
102
RTVSPropertyOp29
 70
     1
102
RTVSPropertyOp30
 70
     1
102
RTVSPropertyOp31
 70
     1
102
RTVSPropertyOp32
 70
     1
  0
XRECORD
  5
20F
102
{ACAD_REACTORS
330
20E
102
}
330
20E
100
AcDbXrecord
280
     1
102
RTVSPropertyOp0
 70
     1
102
RTVSPropertyOp1
 70
     1
102
RTVSPropertyOp2
 70
     1
102
RTVSPropertyOp3
 70
     1
102
RTVSPropertyOp4
 70
     1
102
RTVSPropertyOp5
 70
     1
102
RTVSPropertyOp6
 70
     1
102
RTVSPropertyOp7
 70
     1
102
RTVSPropertyOp8
 70
     1
102
RTVSPropertyOp9
 70
     1
102
RTVSPropertyOp10
 70
     1
102
RTVSPropertyOp11
 70
     1
102
RTVSPropertyOp12
 70
     1
102
RTVSPropertyOp13
 70
     1
102
RTVSPropertyOp14
 70
     1
102
RTVSPropertyOp15
 70
     1
102
RTVSPropertyOp16
 70
     1
102
RTVSPropertyOp17
 70
     1
102
RTVSPropertyOp18
 70
     1
102
RTVSPropertyOp19
 70
     1
102
RTVSPropertyOp20
 70
     1
102
RTVSPropertyOp21
 70
     1
102
RTVSPropertyOp22
 70
     1
102
RTVSPropertyOp23
 70
     1
102
RTVSPropertyOp24
 70
     1
102
RTVSPropertyOp25
 70
     1
102
RTVSPropertyOp26
 70
     1
102
RTVSPropertyOp27
 70
     1
102
RTVSPropertyOp28
 70
     1
102
RTVSPropertyOp29
 70
     1
102
RTVSPropertyOp30
 70
     1
102
RTVSPropertyOp31
 70
     1
102
RTVSPropertyOp32
 70
     1
  0
XRECORD
  5
211
102
{ACAD_REACTORS
330
210
102
}
330
210
100
AcDbXrecord
280
     1
102
RTVSPropertyOp0
 70
     1
102
RTVSPropertyOp1
 70
     1
102
RTVSPropertyOp2
 70
     1
102
RTVSPropertyOp3
 70
     1
102
RTVSPropertyOp4
 70
     1
102
RTVSPropertyOp5
 70
     1
102
RTVSPropertyOp6
 70
     1
102
RTVSPropertyOp7
 70
     1
102
RTVSPropertyOp8
 70
     1
102
RTVSPropertyOp9
 70
     1
102
RTVSPropertyOp10
 70
     1
102
RTVSPropertyOp11
 70
     1
102
RTVSPropertyOp12
 70
     1
102
RTVSPropertyOp13
 70
     1
102
RTVSPropertyOp14
 70
     1
102
RTVSPropertyOp15
 70
     1
102
RTVSPropertyOp16
 70
     1
102
RTVSPropertyOp17
 70
     1
102
RTVSPropertyOp18
 70
     1
102
RTVSPropertyOp19
 70
     1
102
RTVSPropertyOp20
 70
     1
102
RTVSPropertyOp21
 70
     1
102
RTVSPropertyOp22
 70
     1
102
RTVSPropertyOp23
 70
     1
102
RTVSPropertyOp24
 70
     1
102
RTVSPropertyOp25
 70
     1
102
RTVSPropertyOp26
 70
     1
102
RTVSPropertyOp27
 70
     1
102
RTVSPropertyOp28
 70
     1
102
RTVSPropertyOp29
 70
     1
102
RTVSPropertyOp30
 70
     1
102
RTVSPropertyOp31
 70
     1
102
RTVSPropertyOp32
 70
     1
  0
XRECORD
  5
225
102
{ACAD_REACTORS
330
224
102
}
330
224
100
AcDbXrecord
280
     1
102
RTVSPropertyOp0
 70
     1
102
RTVSPropertyOp1
 70
     1
102
RTVSPropertyOp2
 70
     1
102
RTVSPropertyOp3
 70
     1
102
RTVSPropertyOp4
 70
     1
102
RTVSPropertyOp5
 70
     1
102
RTVSPropertyOp6
 70
     1
102
RTVSPropertyOp7
 70
     1
102
RTVSPropertyOp8
 70
     1
102
RTVSPropertyOp9
 70
     1
102
RTVSPropertyOp10
 70
     1
102
RTVSPropertyOp11
 70
     1
102
RTVSPropertyOp12
 70
     1
102
RTVSPropertyOp13
 70
     1
102
RTVSPropertyOp14
 70
     1
102
RTVSPropertyOp15
 70
     1
102
RTVSPropertyOp16
 70
     1
102
RTVSPropertyOp17
 70
     1
102
RTVSPropertyOp18
 70
     1
102
RTVSPropertyOp19
 70
     1
102
RTVSPropertyOp20
 70
     1
102
RTVSPropertyOp21
 70
     1
102
RTVSPropertyOp22
 70
     1
102
RTVSPropertyOp23
 70
     1
102
RTVSPropertyOp24
 70
     1
102
RTVSPropertyOp25
 70
     1
102
RTVSPropertyOp26
 70
     1
102
RTVSPropertyOp27
 70
     1
102
RTVSPropertyOp28
 70
     1
102
RTVSPropertyOp29
 70
     1
102
RTVSPropertyOp30
 70
     1
102
RTVSPropertyOp31
 70
     1
102
RTVSPropertyOp32
 70
     1
  0
XRECORD
  5
21B
102
{ACAD_REACTORS
330
21A
102
}
330
21A
100
AcDbXrecord
280
     1
102
RTVSPropertyOp0
 70
     1
102
RTVSPropertyOp1
 70
     1
102
RTVSPropertyOp2
 70
     1
102
RTVSPropertyOp3
 70
     1
102
RTVSPropertyOp4
 70
     1
102
RTVSPropertyOp5
 70
     1
102
RTVSPropertyOp6
 70
     1
102
RTVSPropertyOp7
 70
     1
102
RTVSPropertyOp8
 70
     1
102
RTVSPropertyOp9
 70
     1
102
RTVSPropertyOp10
 70
     1
102
RTVSPropertyOp11
 70
     1
102
RTVSPropertyOp12
 70
     1
102
RTVSPropertyOp13
 70
     1
102
RTVSPropertyOp14
 70
     1
102
RTVSPropertyOp15
 70
     1
102
RTVSPropertyOp16
 70
     1
102
RTVSPropertyOp17
 70
     1
102
RTVSPropertyOp18
 70
     1
102
RTVSPropertyOp19
 70
     1
102
RTVSPropertyOp20
 70
     1
102
RTVSPropertyOp21
 70
     1
102
RTVSPropertyOp22
 70
     1
102
RTVSPropertyOp23
 70
     1
102
RTVSPropertyOp24
 70
     1
102
RTVSPropertyOp25
 70
     1
102
RTVSPropertyOp26
 70
     1
102
RTVSPropertyOp27
 70
     1
102
RTVSPropertyOp28
 70
     1
102
RTVSPropertyOp29
 70
     1
102
RTVSPropertyOp30
 70
     1
102
RTVSPropertyOp31
 70
     1
102
RTVSPropertyOp32
 70
     1
  0
XRECORD
  5
223
102
{ACAD_REACTORS
330
222
102
}
330
222
100
AcDbXrecord
280
     1
102
RTVSPropertyOp0
 70
     1
102
RTVSPropertyOp1
 70
     1
102
RTVSPropertyOp2
 70
     1
102
RTVSPropertyOp3
 70
     1
102
RTVSPropertyOp4
 70
     1
102
RTVSPropertyOp5
 70
     1
102
RTVSPropertyOp6
 70
     1
102
RTVSPropertyOp7
 70
     1
102
RTVSPropertyOp8
 70
     1
102
RTVSPropertyOp9
 70
     1
102
RTVSPropertyOp10
 70
     1
102
RTVSPropertyOp11
 70
     1
102
RTVSPropertyOp12
 70
     1
102
RTVSPropertyOp13
 70
     1
102
RTVSPropertyOp14
 70
     1
102
RTVSPropertyOp15
 70
     1
102
RTVSPropertyOp16
 70
     1
102
RTVSPropertyOp17
 70
     1
102
RTVSPropertyOp18
 70
     1
102
RTVSPropertyOp19
 70
     1
102
RTVSPropertyOp20
 70
     1
102
RTVSPropertyOp21
 70
     1
102
RTVSPropertyOp22
 70
     1
102
RTVSPropertyOp23
 70
     1
102
RTVSPropertyOp24
 70
     1
102
RTVSPropertyOp25
 70
     1
102
RTVSPropertyOp26
 70
     1
102
RTVSPropertyOp27
 70
     1
102
RTVSPropertyOp28
 70
     1
102
RTVSPropertyOp29
 70
     1
102
RTVSPropertyOp30
 70
     1
102
RTVSPropertyOp31
 70
     1
102
RTVSPropertyOp32
 70
     1
  0
ENDSEC
  0
EOF
