  0
SECTION
  2
HEADER
  9
$ACADVER
  1
AC1015
  9
$ACADMAINTVER
 70
     6
  9
$DWGCODEPAGE
  3
DOS932
  9
$INSBASE
 10
0.0
 20
0.0
 30
0.0
  9
$EXTMIN
 10
0.0
 20
0.0
 30
0.0
  9
$EXTMAX
 10
315.0
 20
445.5
 30
0.0
  9
$LIMMIN
 10
0.0
 20
0.0
  9
$LIMMAX
 10
12.0
 20
9.0
  9
$ORTHOMODE
 70
     0
  9
$REGENMODE
 70
     1
  9
$FILLMODE
 70
     1
  9
$QTEXTMODE
 70
     0
  9
$MIRRTEXT
 70
     1
  9
$LTSCALE
 40
1.0
  9
$ATTMODE
 70
     1
  9
$TEXTSIZE
 40
0.2
  9
$TRACEWID
 40
0.05
  9
$TEXTSTYLE
  7
Standard
  9
$CLAYER
  8
0
  9
$CELTYPE
  6
ByLayer
  9
$CECOLOR
 62
   256
  9
$CELTSCALE
 40
1.0
  9
$DISPSILH
 70
     0
  9
$DIMSCALE
 40
1.0
  9
$DIMASZ
 40
0.18
  9
$DIMEXO
 40
0.0625
  9
$DIMDLI
 40
0.38
  9
$DIMRND
 40
0.0
  9
$DIMDLE
 40
0.0
  9
$DIMEXE
 40
0.18
  9
$DIMTP
 40
0.0
  9
$DIMTM
 40
0.0
  9
$DIMTXT
 40
0.18
  9
$DIMCEN
 40
0.09
  9
$DIMTSZ
 40
0.0
  9
$DIMTOL
 70
     0
  9
$DIMLIM
 70
     0
  9
$DIMTIH
 70
     1
  9
$DIMTOH
 70
     1
  9
$DIMSE1
 70
     0
  9
$DIMSE2
 70
     0
  9
$DIMTAD
 70
     0
  9
$DIMZIN
 70
     0
  9
$DIMBLK
  1

  9
$DIMASO
 70
     1
  9
$DIMSHO
 70
     1
  9
$DIMPOST
  1

  9
$DIMAPOST
  1

  9
$DIMALT
 70
     0
  9
$DIMALTD
 70
     2
  9
$DIMALTF
 40
25.4
  9
$DIMLFAC
 40
1.0
  9
$DIMTOFL
 70
     0
  9
$DIMTVP
 40
0.0
  9
$DIMTIX
 70
     0
  9
$DIMSOXD
 70
     0
  9
$DIMSAH
 70
     0
  9
$DIMBLK1
  1

  9
$DIMBLK2
  1

  9
$DIMSTYLE
  2
Standard
  9
$DIMCLRD
 70
     0
  9
$DIMCLRE
 70
     0
  9
$DIMCLRT
 70
     0
  9
$DIMTFAC
 40
1.0
  9
$DIMGAP
 40
0.09
  9
$DIMJUST
 70
     0
  9
$DIMSD1
 70
     0
  9
$DIMSD2
 70
     0
  9
$DIMTOLJ
 70
     1
  9
$DIMTZIN
 70
     0
  9
$DIMALTZ
 70
     0
  9
$DIMALTTZ
 70
     0
  9
$DIMUPT
 70
     0
  9
$DIMDEC
 70
     4
  9
$DIMTDEC
 70
     4
  9
$DIMALTU
 70
     2
  9
$DIMALTTD
 70
     2
  9
$DIMTXSTY
  7
Standard
  9
$DIMAUNIT
 70
     0
  9
$DIMADEC
 70
     0
  9
$DIMALTRND
 40
0.0
  9
$DIMAZIN
 70
     0
  9
$DIMDSEP
 70
    46
  9
$DIMATFIT
 70
     3
  9
$DIMFRAC
 70
     0
  9
$DIMLDRBLK
  1

  9
$DIMLUNIT
 70
     2
  9
$DIMLWD
 70
    -2
  9
$DIMLWE
 70
    -2
  9
$DIMTMOVE
 70
     0
  9
$LUNITS
 70
     2
  9
$LUPREC
 70
     4
  9
$SKETCHINC
 40
0.1
  9
$FILLETRAD
 40
0.5
  9
$AUNITS
 70
     0
  9
$AUPREC
 70
     0
  9
$MENU
  1
.
  9
$ELEVATION
 40
0.0
  9
$PELEVATION
 40
0.0
  9
$THICKNESS
 40
0.0
  9
$LIMCHECK
 70
     0
  9
$CHAMFERA
 40
0.5
  9
$CHAMFERB
 40
0.5
  9
$CHAMFERC
 40
1.0
  9
$CHAMFERD
 40
0.0
  9
$SKPOLY
 70
     0
  9
$TDCREATE
 40
2456143.66935022
  9
$TDUCREATE
 40
2456143.29435022
  9
$TDUPDATE
 40
2456143.669350232
  9
$TDUUPDATE
 40
2456143.294350232
  9
$TDINDWG
 40
0.0000000116
  9
$TDUSRTIMER
 40
0.0000000116
  9
$USRTIMER
 70
     1
  9
$ANGBASE
 50
0.0
  9
$ANGDIR
 70
     0
  9
$PDMODE
 70
     0
  9
$PDSIZE
 40
0.0
  9
$PLINEWID
 40
0.0
  9
$SPLFRAME
 70
     0
  9
$SPLINETYPE
 70
     6
  9
$SPLINESEGS
 70
     8
  9
$HANDSEED
  5
164
  9
$SURFTAB1
 70
     6
  9
$SURFTAB2
 70
     6
  9
$SURFTYPE
 70
     6
  9
$SURFU
 70
     6
  9
$SURFV
 70
     6
  9
$UCSBASE
  2

  9
$UCSNAME
  2

  9
$UCSORG
 10
0.0
 20
0.0
 30
0.0
  9
$UCSXDIR
 10
1.0
 20
0.0
 30
0.0
  9
$UCSYDIR
 10
0.0
 20
1.0
 30
0.0
  9
$UCSORTHOREF
  2

  9
$UCSORTHOVIEW
 70
     0
  9
$UCSORGTOP
 10
0.0
 20
0.0
 30
0.0
  9
$UCSORGBOTTOM
 10
0.0
 20
0.0
 30
0.0
  9
$UCSORGLEFT
 10
0.0
 20
0.0
 30
0.0
  9
$UCSORGRIGHT
 10
0.0
 20
0.0
 30
0.0
  9
$UCSORGFRONT
 10
0.0
 20
0.0
 30
0.0
  9
$UCSORGBACK
 10
0.0
 20
0.0
 30
0.0
  9
$PUCSBASE
  2

  9
$PUCSNAME
  2

  9
$PUCSORG
 10
0.0
 20
0.0
 30
0.0
  9
$PUCSXDIR
 10
1.0
 20
0.0
 30
0.0
  9
$PUCSYDIR
 10
0.0
 20
1.0
 30
0.0
  9
$PUCSORTHOREF
  2

  9
$PUCSORTHOVIEW
 70
     0
  9
$PUCSORGTOP
 10
0.0
 20
0.0
 30
0.0
  9
$PUCSORGBOTTOM
 10
0.0
 20
0.0
 30
0.0
  9
$PUCSORGLEFT
 10
0.0
 20
0.0
 30
0.0
  9
$PUCSORGRIGHT
 10
0.0
 20
0.0
 30
0.0
  9
$PUCSORGFRONT
 10
0.0
 20
0.0
 30
0.0
  9
$PUCSORGBACK
 10
0.0
 20
0.0
 30
0.0
  9
$USERI1
 70
     0
  9
$USERI2
 70
     0
  9
$USERI3
 70
     0
  9
$USERI4
 70
     0
  9
$USERI5
 70
     0
  9
$USERR1
 40
13.2
  9
$USERR2
 40
0.0
  9
$USERR3
 40
0.0
  9
$USERR4
 40
0.0
  9
$USERR5
 40
0.0
  9
$WORLDVIEW
 70
     1
  9
$SHADEDGE
 70
     3
  9
$SHADEDIF
 70
    70
  9
$TILEMODE
 70
     1
  9
$MAXACTVP
 70
    64
  9
$PINSBASE
 10
0.0
 20
0.0
 30
0.0
  9
$PLIMCHECK
 70
     0
  9
$PEXTMIN
 10
1.00000000000000E+20
 20
1.00000000000000E+20
 30
1.00000000000000E+20
  9
$PEXTMAX
 10
-1.00000000000000E+20
 20
-1.00000000000000E+20
 30
-1.00000000000000E+20
  9
$PLIMMIN
 10
0.0
 20
0.0
  9
$PLIMMAX
 10
12.0
 20
9.0
  9
$UNITMODE
 70
     0
  9
$VISRETAIN
 70
     1
  9
$PLINEGEN
 70
     0
  9
$PSLTSCALE
 70
     1
  9
$TREEDEPTH
 70
  3020
  9
$CMLSTYLE
  2
Standard
  9
$CMLJUST
 70
     0
  9
$CMLSCALE
 40
1.0
  9
$PROXYGRAPHICS
 70
     1
  9
$MEASUREMENT
 70
     1
  9
$CELWEIGHT
370
    -1
  9
$ENDCAPS
280
     0
  9
$JOINSTYLE
280
     0
  9
$LWDISPLAY
290
     0
  9
$INSUNITS
 70
     1
  9
$HYPERLINKBASE
  1

  9
$STYLESHEET
  1

  9
$XEDIT
290
     1
  9
$CEPSNTYPE
380
     0
  9
$PSTYLEMODE
290
     0
  9
$FINGERPRINTGUID
  2
{FAEB1C30-E019-11D5-929B-00C0DF256EC4}
  9
$VERSIONGUID
  2
{FAEB1C32-E019-11D5-929B-00C0DF256EC4}
  9
$EXTNAMES
290
     1
  9
$PSVPSCALE
 40
0.0
  9
$OLESTARTUP
290
     0
  0
ENDSEC
  0
SECTION
  2
CLASSES
  0
CLASS
  1
ACDBDICTIONARYWDFLT
  2
AcDbDictionaryWithDefault
  3
ObjectDBX Classes
 90
        0
280
     0
281
     0
  0
CLASS
  1
TABLESTYLE
  2
AcDbTableStyle
  3
ObjectDBX Classes
 90
     2047
280
     0
281
     0
  0
CLASS
  1
DICTIONARYVAR
  2
AcDbDictionaryVar
  3
ObjectDBX Classes
 90
        0
280
     0
281
     0
  0
CLASS
  1

  2
exOdDbCircle
  3

 90
        0
280
     0
281
     1
  0
CLASS
  1

  2
exOdDbSpline
  3

 90
        0
280
     0
281
     1
  0
CLASS
  1
ACDBPLACEHOLDER
  2
AcDbPlaceHolder
  3
ObjectDBX Classes
 90
        0
280
     0
281
     0
  0
CLASS
  1
LAYOUT
  2
AcDbLayout
  3
ObjectDBX Classes
 90
        0
280
     0
281
     0
  0
ENDSEC
  0
SECTION
  2
TABLES
  0
TABLE
  2
VPORT
  5
8
330
0
100
AcDbSymbolTable
 70
     2
  0
VPORT
  5
29
330
8
100
AcDbSymbolTableRecord
100
AcDbViewportTableRecord
  2
*Active
 70
     0
 10
0.0
 20
0.0
 11
1.0
 21
1.0
 12
157.5
 22
222.75
 13
0.0
 23
0.0
 14
0.5
 24
0.5
 15
0.5
 25
0.5
 16
0.0
 26
0.0
 36
1.0
 17
0.0
 27
0.0
 37
0.0
 40
490.05
 41
1.60267857142857
 42
50.0
 43
0.0
 44
0.0
 50
0.0
 51
0.0
 71
     0
 72
   100
 73
     1
 74
     3
 75
     0
 76
     0
 77
     0
 78
     0
281
     0
 65
     1
110
0.0
120
0.0
130
0.0
111
1.0
121
0.0
131
0.0
112
0.0
122
1.0
132
0.0
 79
     0
146
0.0
  0
ENDTAB
  0
TABLE
  2
LTYPE
  5
5
330
0
100
AcDbSymbolTable
 70
     8
  0
LTYPE
  5
14
330
5
100
AcDbSymbolTableRecord
100
AcDbLinetypeTableRecord
  2
ByBlock
 70
     0
  3

 72
    65
 73
     0
 40
0.0
  0
LTYPE
  5
15
330
5
100
AcDbSymbolTableRecord
100
AcDbLinetypeTableRecord
  2
ByLayer
 70
     0
  3

 72
    65
 73
     0
 40
0.0
  0
LTYPE
  5
16
330
5
100
AcDbSymbolTableRecord
100
AcDbLinetypeTableRecord
  2
Continuous
 70
     0
  3
Solid line
 72
    65
 73
     0
 40
0.0
  0
LTYPE
  5
2E
330
5
100
AcDbSymbolTableRecord
100
AcDbLinetypeTableRecord
  2
DASHED
 70
     0
  3
Dashed
 72
    65
 73
     2
 40
15.0
 49
7.0
 74
     0
 49
-8.0
 74
     0
  0
LTYPE
  5
2F
330
5
100
AcDbSymbolTableRecord
100
AcDbLinetypeTableRecord
  2
DOTTED
 70
     0
  3
Dotted
 72
    65
 73
     2
 40
1.0
 49
0.0
 74
     0
 49
-1.0
 74
     0
  0
LTYPE
  5
30
330
5
100
AcDbSymbolTableRecord
100
AcDbLinetypeTableRecord
  2
DOT_CENTER
 70
     0
  3
Dot_Center
 72
    65
 73
     4
 40
14.0
 49
12.0
 74
     0
 49
-1.0
 74
     0
 49
0.0
 74
     0
 49
-1.0
 74
     0
  0
LTYPE
  5
31
330
5
100
AcDbSymbolTableRecord
100
AcDbLinetypeTableRecord
  2
LONG_DASHED
 70
     0
  3
Long_Dashed
 72
    65
 73
     2
 40
15.0
 49
10.0
 74
     0
 49
-5.0
 74
     0
  0
LTYPE
  5
32
330
5
100
AcDbSymbolTableRecord
100
AcDbLinetypeTableRecord
  2
DASH_CENTER
 70
     0
  3
Dash_Center
 72
    65
 73
     4
 40
14.0
 49
11.0
 74
     0
 49
-1.0
 74
     0
 49
1.0
 74
     0
 49
-1.0
 74
     0
  0
LTYPE
  5
33
330
5
100
AcDbSymbolTableRecord
100
AcDbLinetypeTableRecord
  2
PHANTOM
 70
     0
  3
Phantom
 72
    65
 73
     6
 40
13.0
 49
10.0
 74
     0
 49
-1.0
 74
     0
 49
0.0
 74
     0
 49
-1.0
 74
     0
 49
0.0
 74
     0
 49
-1.0
 74
     0
  0
LTYPE
  5
34
330
5
100
AcDbSymbolTableRecord
100
AcDbLinetypeTableRecord
  2
CENTER_DASH_DASH
 70
     0
  3
Center_Dash_Dash
 72
    65
 73
     6
 40
14.0
 49
9.0
 74
     0
 49
-1.0
 74
     0
 49
1.0
 74
     0
 49
-1.0
 74
     0
 49
1.0
 74
     0
 49
-1.0
 74
     0
  0
ENDTAB
  0
TABLE
  2
LAYER
  5
2
330
0
100
AcDbSymbolTable
 70
     2
  0
LAYER
  5
10
330
2
100
AcDbSymbolTableRecord
100
AcDbLayerTableRecord
  2
0
 70
     0
 62
     7
  6
Continuous
370
    -3
390
F
  0
LAYER
  5
35
330
2
100
AcDbSymbolTableRecord
100
AcDbLayerTableRecord
  2
1
 70
     0
 62
     7
  6
Continuous
370
    -3
390
F
  0
ENDTAB
  0
TABLE
  2
STYLE
  5
3
330
0
100
AcDbSymbolTable
 70
     3
  0
STYLE
  5
11
330
3
100
AcDbSymbolTableRecord
100
AcDbTextStyleTableRecord
  2
Standard
 70
     0
 40
0.0
 41
1.0
 50
0.0
 71
     0
 42
0.2
  3
txt
  4

  0
STYLE
  5
99
330
3
100
AcDbSymbolTableRecord
100
AcDbTextStyleTableRecord
  2
CONVERTER_1
 70
     0
 40
0.0
 41
0.89
 50
0.0
 71
     0
 42
0.2
  3
msmincho.ttc
  4

1001
ACAD
1000
MS Mincho
1071
    32785
  0
STYLE
  5
117
330
3
100
AcDbSymbolTableRecord
100
AcDbTextStyleTableRecord
  2
CONVERTER_2
 70
     0
 40
0.0
 41
0.9
 50
0.0
 71
     0
 42
0.2
  3
txt.shx
  4

  0
ENDTAB
  0
TABLE
  2
VIEW
  5
6
330
0
100
AcDbSymbolTable
 70
     0
  0
ENDTAB
  0
TABLE
  2
UCS
  5
7
330
0
100
AcDbSymbolTable
 70
     0
  0
ENDTAB
  0
TABLE
  2
APPID
  5
9
330
0
100
AcDbSymbolTable
 70
     1
  0
APPID
  5
12
330
9
100
AcDbSymbolTableRecord
100
AcDbRegAppTableRecord
  2
ACAD
 70
     0
  0
ENDTAB
  0
TABLE
  2
DIMSTYLE
  5
A
330
0
100
AcDbSymbolTable
 70
     7
100
AcDbDimStyleTable
  0
DIMSTYLE
105
27
330
A
100
AcDbSymbolTableRecord
100
AcDbDimStyleTableRecord
  2
Standard
 70
     0
340
11
  0
DIMSTYLE
105
127
102
{ACAD_REACTORS
330
128
102
}
330
A
100
AcDbSymbolTableRecord
100
AcDbDimStyleTableRecord
  2
ME10_DIM_0
 70
     0
  3
{\Fgdt;n}<>
 41
5.25
 42
0.0
 44
1.5
 73
     0
 74
     0
 77
     1
 78
     8
140
5.25
147
0.625
172
     1
173
     1
176
     2
177
     2
178
     7
271
     2
340
117
  0
DIMSTYLE
105
135
102
{ACAD_REACTORS
330
136
102
}
330
A
100
AcDbSymbolTableRecord
100
AcDbDimStyleTableRecord
  2
ME10_DIM_1
 70
     0
 41
5.25
 42
0.0
 44
1.5
 73
     0
 74
     0
 77
     1
 78
     8
140
5.25
147
0.625
172
     1
173
     1
176
     2
177
     2
178
     7
271
     2
340
117
344
132
  0
DIMSTYLE
105
141
102
{ACAD_REACTORS
330
142
102
}
330
A
100
AcDbSymbolTableRecord
100
AcDbDimStyleTableRecord
  2
ME10_DIM_2
 70
     0
 41
5.25
 42
0.0
 44
1.5
 73
     0
 74
     0
 77
     1
 78
     8
140
5.25
147
0.625
172
     1
173
     1
176
     2
177
     2
178
     7
271
     2
340
117
  0
DIMSTYLE
105
14C
102
{ACAD_REACTORS
330
14D
102
}
330
A
100
AcDbSymbolTableRecord
100
AcDbDimStyleTableRecord
  2
ME10_DIM_3
 70
     0
 41
5.25
 42
0.0
 44
1.5
 73
     0
 74
     0
 77
     1
 78
     8
140
5.25
147
0.625
172
     1
173
     1
176
     2
177
     2
178
     7
271
     2
340
117
  0
DIMSTYLE
105
157
102
{ACAD_REACTORS
330
158
102
}
330
A
100
AcDbSymbolTableRecord
100
AcDbDimStyleTableRecord
  2
ME10_DIM_4
 70
     0
 41
5.25
 42
0.0
 44
1.5
 73
     0
 74
     0
 77
     1
 78
     8
140
5.25
147
0.625
172
     1
173
     1
176
     2
177
     2
178
     7
271
     2
340
117
  0
DIMSTYLE
105
162
102
{ACAD_REACTORS
330
163
102
}
330
A
100
AcDbSymbolTableRecord
100
AcDbDimStyleTableRecord
  2
ME10_DIM_5
 70
     0
 41
5.25
 42
0.0
 44
1.5
 73
     0
 74
     0
 77
     1
 78
     8
140
5.25
147
0.625
172
     1
173
     1
176
     2
177
     2
178
     7
271
     2
340
99
  0
ENDTAB
  0
TABLE
  2
BLOCK_RECORD
  5
1
330
0
100
AcDbSymbolTable
 70
    14
  0
BLOCK_RECORD
  5
1F
330
1
100
AcDbSymbolTableRecord
100
AcDbBlockTableRecord
  2
*Model_Space
340
22
  0
BLOCK_RECORD
  5
1B
330
1
100
AcDbSymbolTableRecord
100
AcDbBlockTableRecord
  2
*Paper_Space
340
1E
  0
BLOCK_RECORD
  5
23
330
1
100
AcDbSymbolTableRecord
100
AcDbBlockTableRecord
  2
*Paper_Space0
340
26
  0
BLOCK_RECORD
  5
36
330
1
100
AcDbSymbolTableRecord
100
AcDbBlockTableRecord
  2
_J__A4
340
0
102
{BLKREFS
331
49
102
}
  0
BLOCK_RECORD
  5
39
330
1
100
AcDbSymbolTableRecord
100
AcDbBlockTableRecord
  2
Y40-0
340
0
102
{BLKREFS
331
4A
102
}
  0
BLOCK_RECORD
  5
3C
330
1
100
AcDbSymbolTableRecord
100
AcDbBlockTableRecord
  2
31-13
340
0
102
{BLKREFS
331
4B
102
}
  0
BLOCK_RECORD
  5
3F
330
1
100
AcDbSymbolTableRecord
100
AcDbBlockTableRecord
  2
34-17
340
0
102
{BLKREFS
331
4C
102
}
  0
BLOCK_RECORD
  5
42
330
1
100
AcDbSymbolTableRecord
100
AcDbBlockTableRecord
  2
36-7
340
0
102
{BLKREFS
331
46
102
}
  0
BLOCK_RECORD
  5
45
330
1
100
AcDbSymbolTableRecord
100
AcDbBlockTableRecord
  2
36-7X
340
0
102
{BLKREFS
331
4D
102
}
  0
BLOCK_RECORD
  5
11E
330
1
100
AcDbSymbolTableRecord
100
AcDbBlockTableRecord
  2
*D07
340
0
  0
BLOCK_RECORD
  5
129
330
1
100
AcDbSymbolTableRecord
100
AcDbBlockTableRecord
  2
*D18
340
0
  0
BLOCK_RECORD
  5
132
330
1
100
AcDbSymbolTableRecord
100
AcDbBlockTableRecord
  2
_None
340
0
  0
BLOCK_RECORD
  5
137
330
1
100
AcDbSymbolTableRecord
100
AcDbBlockTableRecord
  2
*D210
340
0
  0
BLOCK_RECORD
  5
143
330
1
100
AcDbSymbolTableRecord
100
AcDbBlockTableRecord
  2
*D311
340
0
  0
BLOCK_RECORD
  5
14E
330
1
100
AcDbSymbolTableRecord
100
AcDbBlockTableRecord
  2
*D412
340
0
  0
BLOCK_RECORD
  5
159
330
1
100
AcDbSymbolTableRecord
100
AcDbBlockTableRecord
  2
*D513
340
0
  0
ENDTAB
  0
ENDSEC
  0
SECTION
  2
BLOCKS
  0
BLOCK
  5
20
330
1F
100
AcDbEntity
  8
0
100
AcDbBlockBegin
  2
*Model_Space
 70
     0
 71
     0
 10
0.0
 20
0.0
 30
0.0
  3
*Model_Space
  1

  0
ENDBLK
  5
21
330
1F
100
AcDbEntity
  8
0
100
AcDbBlockEnd
  0
BLOCK
  5
1C
330
1B
100
AcDbEntity
 67
     1
  8
0
100
AcDbBlockBegin
  2
*Paper_Space
 70
     0
 71
     0
 10
0.0
 20
0.0
 30
0.0
  3
*Paper_Space
  1

  0
ENDBLK
  5
1D
330
1B
100
AcDbEntity
 67
     1
  8
0
100
AcDbBlockEnd
  0
BLOCK
  5
24
330
23
100
AcDbEntity
  8
0
100
AcDbBlockBegin
  2
*Paper_Space0
 70
     0
 71
     0
 10
0.0
 20
0.0
 30
0.0
  3
*Paper_Space0
  1

  0
ENDBLK
  5
25
330
23
100
AcDbEntity
  8
0
100
AcDbBlockEnd
  0
BLOCK
  5
37
330
36
100
AcDbEntity
  8
0
100
AcDbBlockBegin
  2
_J__A4
 70
     0
 71
     0
 10
0.0
 20
0.0
 30
0.0
  3
_J__A4
  1

  0
POINT
  5
4E
330
36
100
AcDbEntity
  8
1
 62
     4
100
AcDbPoint
 10
93.75
 20
17.0
 30
0.0
  0
POINT
  5
4F
330
36
100
AcDbEntity
  8
1
 62
     4
100
AcDbPoint
 10
85.25
 20
17.0
 30
0.0
  0
POINT
  5
50
330
36
100
AcDbEntity
  8
1
 62
     4
100
AcDbPoint
 10
106.5
 20
19.00000000000001
 30
0.0
  0
POINT
  5
51
330
36
100
AcDbEntity
  8
1
 62
     4
100
AcDbPoint
 10
106.5
 20
12.5
 30
0.0
  0
POINT
  5
52
330
36
100
AcDbEntity
  8
1
 62
     4
100
AcDbPoint
 10
112.25
 20
12.5
 30
0.0
  0
POINT
  5
53
330
36
100
AcDbEntity
  8
1
 62
     4
100
AcDbPoint
 10
100.75
 20
12.5
 30
0.0
  0
POINT
  5
54
330
36
100
AcDbEntity
  8
1
 62
     4
100
AcDbPoint
 10
123.5
 20
19.00000000000001
 30
0.0
  0
POINT
  5
55
330
36
100
AcDbEntity
  8
1
 62
     4
100
AcDbPoint
 10
123.5
 20
12.5
 30
0.0
  0
POINT
  5
56
330
36
100
AcDbEntity
  8
1
 62
     4
100
AcDbPoint
 10
129.25
 20
12.5
 30
0.0
  0
POINT
  5
57
330
36
100
AcDbEntity
  8
1
 62
     4
100
AcDbPoint
 10
117.75
 20
12.5
 30
0.0
  0
POINT
  5
58
330
36
100
AcDbEntity
  8
1
 62
     4
100
AcDbPoint
 10
140.5
 20
19.00000000000001
 30
0.0
  0
POINT
  5
59
330
36
100
AcDbEntity
  8
1
 62
     4
100
AcDbPoint
 10
140.5
 20
12.5
 30
0.0
  0
POINT
  5
5A
330
36
100
AcDbEntity
  8
1
 62
     4
100
AcDbPoint
 10
146.25
 20
12.5
 30
0.0
  0
POINT
  5
5B
330
36
100
AcDbEntity
  8
1
 62
     4
100
AcDbPoint
 10
134.75
 20
12.5
 30
0.0
  0
POINT
  5
5C
330
36
100
AcDbEntity
  8
1
 62
     4
100
AcDbPoint
 10
151.75
 20
12.5
 30
0.0
  0
POINT
  5
5D
330
36
100
AcDbEntity
  8
1
 62
     4
100
AcDbPoint
 10
163.25
 20
12.5
 30
0.0
  0
POINT
  5
5E
330
36
100
AcDbEntity
  8
1
 62
     4
100
AcDbPoint
 10
157.5
 20
12.5
 30
0.0
  0
POINT
  5
5F
330
36
100
AcDbEntity
  8
1
 62
     4
100
AcDbPoint
 10
57.0
 20
14.25
 30
0.0
  0
POINT
  5
60
330
36
100
AcDbEntity
  8
1
 62
     4
100
AcDbPoint
 10
57.0
 20
22.75000000000001
 30
0.0
  0
POINT
  5
61
330
36
100
AcDbEntity
  8
1
 62
     4
100
AcDbPoint
 10
47.5
 20
282.0000000000003
 30
0.0
  0
POINT
  5
62
330
36
100
AcDbEntity
  8
1
 62
     4
100
AcDbPoint
 10
157.5
 20
19.00000000000001
 30
0.0
  0
POINT
  5
63
330
36
100
AcDbEntity
  8
1
 62
     4
100
AcDbPoint
 10
57.0
 20
16.25
 30
0.0
  0
POINT
  5
64
330
36
100
AcDbEntity
  8
1
 62
     4
100
AcDbPoint
 10
57.0
 20
24.75000000000001
 30
0.0
  0
POINT
  5
65
330
36
100
AcDbEntity
  8
1
 62
     4
100
AcDbPoint
 10
57.0
 20
20.75000000000001
 30
0.0
  0
POINT
  5
66
330
36
100
AcDbEntity
  8
1
 62
     4
100
AcDbPoint
 10
57.0
 20
12.25
 30
0.0
  0
POINT
  5
67
330
36
100
AcDbEntity
  8
1
 62
     4
100
AcDbPoint
 10
34.0
 20
34.00000000000001
 30
0.0
  0
LINE
  5
68
330
36
100
AcDbEntity
  8
1
  6
Continuous
 62
     7
100
AcDbLine
 10
105.0
 20
10.0
 30
0.0
 11
200.0
 21
10.0
 31
0.0
  0
LINE
  5
69
330
36
100
AcDbEntity
  8
1
  6
Continuous
 62
     2
100
AcDbLine
 10
105.0
 20
10.0
 30
0.0
 11
105.0
 21
5.0
 31
0.0
  0
LINE
  5
6A
330
36
100
AcDbEntity
  8
1
  6
Continuous
 62
     7
100
AcDbLine
 10
200.0
 20
148.5
 30
0.0
 11
200.0
 21
287.0000000000003
 31
0.0
  0
LINE
  5
6B
330
36
100
AcDbEntity
  8
1
  6
Continuous
 62
     2
100
AcDbLine
 10
200.0
 20
148.5
 30
0.0
 11
205.0
 21
148.5
 31
0.0
  0
LINE
  5
6C
330
36
100
AcDbEntity
  8
1
  6
Continuous
 62
     7
100
AcDbLine
 10
25.0
 20
148.5
 30
0.0
 11
25.0
 21
287.0000000000003
 31
0.0
  0
LINE
  5
6D
330
36
100
AcDbEntity
  8
1
  6
Continuous
 62
     2
100
AcDbLine
 10
25.0
 20
148.5
 30
0.0
 11
20.0
 21
148.5
 31
0.0
  0
LINE
  5
6E
330
36
100
AcDbEntity
  8
1
  6
Continuous
 62
     7
100
AcDbLine
 10
105.0
 20
287.0000000000003
 30
0.0
 11
25.0
 21
287.0000000000003
 31
0.0
  0
LINE
  5
6F
330
36
100
AcDbEntity
  8
1
  6
Continuous
 62
     2
100
AcDbLine
 10
105.0
 20
287.0000000000003
 30
0.0
 11
105.0
 21
292.0000000000003
 31
0.0
  0
LINE
  5
70
330
36
100
AcDbEntity
  8
1
  6
Continuous
 62
     2
100
AcDbLine
 10
166.0
 20
20.00000000000001
 30
0.0
 11
200.0
 21
20.00000000000001
 31
0.0
  0
LINE
  5
71
330
36
100
AcDbEntity
  8
1
  6
Continuous
 62
     2
100
AcDbLine
 10
98.0
 20
27.00000000000001
 30
0.0
 11
98.0
 21
9.99999999999999
 31
0.0
  0
LINE
  5
72
330
36
100
AcDbEntity
  8
1
  6
Continuous
 62
     2
100
AcDbLine
 10
115.0
 20
27.00000000000001
 30
0.0
 11
115.0
 21
9.99999999999999
 31
0.0
  0
LINE
  5
73
330
36
100
AcDbEntity
  8
1
  6
Continuous
 62
     2
100
AcDbLine
 10
149.0
 20
27.00000000000001
 30
0.0
 11
149.0
 21
10.0
 31
0.0
  0
LINE
  5
74
330
36
100
AcDbEntity
  8
1
  6
Continuous
 62
     2
100
AcDbLine
 10
132.0
 20
27.00000000000001
 30
0.0
 11
132.0
 21
9.99999999999999
 31
0.0
  0
LINE
  5
75
330
36
100
AcDbEntity
  8
1
  6
Continuous
 62
     2
100
AcDbLine
 10
166.0
 20
27.00000000000001
 30
0.0
 11
166.0
 21
10.0
 31
0.0
  0
LINE
  5
76
330
36
100
AcDbEntity
  8
1
  6
Continuous
 62
     2
100
AcDbLine
 10
55.0
 20
277.0000000000003
 30
0.0
 11
25.0
 21
277.0000000000003
 31
0.0
  0
LINE
  5
77
330
36
100
AcDbEntity
  8
1
  6
Continuous
 62
     7
100
AcDbLine
 10
25.0
 20
10.0
 30
0.0
 11
25.0
 21
148.5
 31
0.0
  0
LINE
  5
78
330
36
100
AcDbEntity
  8
1
  6
Continuous
 62
     2
100
AcDbLine
 10
40.0
 20
287.0000000000003
 30
0.0
 11
40.0
 21
277.0000000000003
 31
0.0
  0
LINE
  5
79
330
36
100
AcDbEntity
  8
1
  6
Continuous
 62
     2
100
AcDbLine
 10
55.0
 20
287.0000000000003
 30
0.0
 11
55.0
 21
277.0000000000003
 31
0.0
  0
LINE
  5
7A
330
36
100
AcDbEntity
  8
1
  6
Continuous
 62
     2
100
AcDbLine
 10
33.0
 20
41.00000000000001
 30
0.0
 11
33.0
 21
27.0
 31
0.0
  0
LINE
  5
7B
330
36
100
AcDbEntity
  8
1
  6
Continuous
 62
     7
100
AcDbLine
 10
200.0
 20
27.00000000000001
 30
0.0
 11
25.0
 21
27.00000000000001
 31
0.0
  0
LINE
  5
7C
330
36
100
AcDbEntity
  8
1
  6
Continuous
 62
     7
100
AcDbLine
 10
25.0
 20
41.0
 30
0.0
 11
200.0
 21
41.0
 31
0.0
  0
LINE
  5
7D
330
36
100
AcDbEntity
  8
1
  6
PHANTOM
 62
     4
100
AcDbLine
 10
0.0
 20
0.0
 30
0.0
 11
210.0
 21
0.0
 31
0.0
  0
LINE
  5
7E
330
36
100
AcDbEntity
  8
1
  6
PHANTOM
 62
     4
100
AcDbLine
 10
210.0
 20
0.0
 30
0.0
 11
210.0
 21
297.0
 31
0.0
  0
LINE
  5
7F
330
36
100
AcDbEntity
  8
1
  6
PHANTOM
 62
     4
100
AcDbLine
 10
210.0
 20
297.0
 30
0.0
 11
0.0
 21
297.0
 31
0.0
  0
LINE
  5
80
330
36
100
AcDbEntity
  8
1
  6
PHANTOM
 62
     4
100
AcDbLine
 10
0.0
 20
297.0
 30
0.0
 11
0.0
 21
0.0
 31
0.0
  0
LINE
  5
81
330
36
100
AcDbEntity
  8
1
  6
Continuous
 62
     7
100
AcDbLine
 10
25.0
 20
10.0
 30
0.0
 11
105.0
 21
10.0
 31
0.0
  0
LINE
  5
82
330
36
100
AcDbEntity
  8
1
  6
Continuous
 62
     7
100
AcDbLine
 10
200.0
 20
10.0
 30
0.0
 11
200.0
 21
148.5
 31
0.0
  0
LINE
  5
83
330
36
100
AcDbEntity
  8
1
  6
Continuous
 62
     7
100
AcDbLine
 10
200.0
 20
287.0000000000003
 30
0.0
 11
105.0
 21
287.0000000000003
 31
0.0
  0
LINE
  5
84
330
36
100
AcDbEntity
  8
1
  6
Continuous
 62
     2
100
AcDbLine
 10
25.0
 20
18.50000000000001
 30
0.0
 11
81.0
 21
18.50000000000001
 31
0.0
  0
LINE
  5
85
330
36
100
AcDbEntity
  8
1
  6
Continuous
 62
     2
100
AcDbLine
 10
33.0
 20
27.0
 30
0.0
 11
33.0
 21
10.0
 31
0.0
  0
LINE
  5
86
330
36
100
AcDbEntity
  8
1
  6
Continuous
 62
     7
100
AcDbLine
 10
191.0
 20
24.70000000000001
 30
0.0
 11
191.0
 21
22.30000000000001
 31
0.0
  0
LINE
  5
87
330
36
100
AcDbEntity
  8
1
  6
Continuous
 62
     7
100
AcDbLine
 10
191.0
 20
24.70000000000001
 30
0.0
 11
196.0
 21
25.50000000000001
 31
0.0
  0
LINE
  5
88
330
36
100
AcDbEntity
  8
1
  6
Continuous
 62
     7
100
AcDbLine
 10
196.0
 20
25.50000000000001
 30
0.0
 11
196.0
 21
21.50000000000001
 31
0.0
  0
LINE
  5
89
330
36
100
AcDbEntity
  8
1
  6
Continuous
 62
     7
100
AcDbLine
 10
196.0
 20
21.50000000000001
 30
0.0
 11
191.0
 21
22.30000000000001
 31
0.0
  0
LINE
  5
8A
330
36
100
AcDbEntity
  8
1
  6
DOT_CENTER
 62
     2
100
AcDbLine
 10
184.0
 20
23.50000000000001
 30
0.0
 11
197.0
 21
23.50000000000001
 31
0.0
  0
LINE
  5
8B
330
36
100
AcDbEntity
  8
1
  6
DOT_CENTER
 62
     2
100
AcDbLine
 10
187.0
 20
26.50000000000001
 30
0.0
 11
187.0
 21
20.50000000000001
 31
0.0
  0
LINE
  5
8C
330
36
100
AcDbEntity
  8
1
  6
Continuous
 62
     2
100
AcDbLine
 10
81.0
 20
27.00000000000001
 30
0.0
 11
81.0
 21
10.0
 31
0.0
  0
CIRCLE
  5
8D
330
36
100
AcDbEntity
  8
1
  6
Continuous
 62
     7
100
AcDbCircle
 10
103.5
 20
12.5
 30
0.0
 40
0.2999999999999972
  0
CIRCLE
  5
8E
330
36
100
AcDbEntity
  8
1
  6
Continuous
 62
     7
100
AcDbCircle
 10
109.5
 20
12.5
 30
0.0
 40
0.2999999999999972
  0
CIRCLE
  5
8F
330
36
100
AcDbEntity
  8
1
  6
Continuous
 62
     7
100
AcDbCircle
 10
120.5
 20
12.5
 30
0.0
 40
0.2999999999999972
  0
CIRCLE
  5
90
330
36
100
AcDbEntity
  8
1
  6
Continuous
 62
     7
100
AcDbCircle
 10
126.5
 20
12.5
 30
0.0
 40
0.2999999999999972
  0
CIRCLE
  5
91
330
36
100
AcDbEntity
  8
1
  6
Continuous
 62
     7
100
AcDbCircle
 10
137.5
 20
12.5
 30
0.0
 40
0.3000000000000114
  0
CIRCLE
  5
92
330
36
100
AcDbEntity
  8
1
  6
Continuous
 62
     7
100
AcDbCircle
 10
143.5
 20
12.5
 30
0.0
 40
0.3000000000000114
  0
CIRCLE
  5
93
330
36
100
AcDbEntity
  8
1
  6
Continuous
 62
     7
100
AcDbCircle
 10
160.5
 20
12.5
 30
0.0
 40
0.3000000000000114
  0
CIRCLE
  5
94
330
36
100
AcDbEntity
  8
1
  6
Continuous
 62
     7
100
AcDbCircle
 10
154.5
 20
12.5
 30
0.0
 40
0.3000000000000114
  0
CIRCLE
  5
95
330
36
100
AcDbEntity
  8
1
  6
Continuous
 62
     7
100
AcDbCircle
 10
187.0
 20
23.50000000000001
 30
0.0
 40
1.200000000000102
  0
CIRCLE
  5
96
330
36
100
AcDbEntity
  8
1
  6
Continuous
 62
     7
100
AcDbCircle
 10
187.0
 20
23.50000000000001
 30
0.0
 40
2.0
  0
CIRCLE
  5
97
330
36
100
AcDbEntity
  8
1
  6
DOT_CENTER
 62
     7
100
AcDbCircle
 10
89.5
 20
16.0
 30
0.0
 40
0.1000000000000227
  0
CIRCLE
  5
98
330
36
100
AcDbEntity
  8
1
  6
DOT_CENTER
 62
     7
100
AcDbCircle
 10
89.5
 20
18.0
 30
0.0
 40
0.1000000000000227
  0
MTEXT
  5
9A
330
36
100
AcDbEntity
  8
1
 62
     7
100
AcDbMText
 10
188.5
 20
15.0
 30
0.0
 40
3.0
 41
0.0
 71
     5
 72
     1
  1
三栄水栓製作所
  7
CONVERTER_1
 73
     1
 44
1.32052821128451
  0
MTEXT
  5
9B
330
36
100
AcDbEntity
  8
1
 62
     7
100
AcDbMText
 10
171.5
 20
15.0
 30
0.0
 40
2.5
 41
0.0
 71
     5
 72
     1
  1
株式会社
  7
CONVERTER_1
 73
     1
 44
1.32052821128451
  0
MTEXT
  5
9C
330
36
100
AcDbEntity
  8
1
 62
     2
100
AcDbMText
 10
32.5
 20
282.0000000000003
 30
0.0
 40
5.0
 41
0.0
 71
     5
 72
     1
  1
図番
  7
CONVERTER_1
 73
     1
 44
0.60024009603842
  0
MTEXT
  5
9D
330
36
100
AcDbEntity
  8
1
 62
     2
100
AcDbMText
 10
29.0
 20
34.00000000000001
 30
0.0
 40
3.5
 41
0.0
 71
     5
 72
     1
  1
備考
  7
CONVERTER_1
 73
     1
 44
0.60024009603842
  0
MTEXT
  5
9E
330
36
100
AcDbEntity
  8
1
 62
     2
100
AcDbMText
 10
29.0
 20
22.75
 30
0.0
 40
3.5
 41
0.0
 71
     5
 72
     1
  1
品名
  7
CONVERTER_1
 73
     1
 44
0.96038415366146
  0
MTEXT
  5
9F
330
36
100
AcDbEntity
  8
1
 62
     2
100
AcDbMText
 10
29.0
 20
14.25
 30
0.0
 40
3.5
 41
0.0
 71
     5
 72
     1
  1
品番
  7
CONVERTER_1
 73
     1
 44
0.96038415366146
  0
MTEXT
  5
A0
330
36
100
AcDbEntity
  8
1
 62
     2
100
AcDbMText
 10
101.5
 20
25.00000000000001
 30
0.0
 40
3.0
 41
0.0
 71
     5
 72
     1
  1
承認
  7
CONVERTER_1
 73
     1
 44
0.78031212484994
  0
MTEXT
  5
A1
330
36
100
AcDbEntity
  8
1
 62
     2
100
AcDbMText
 10
175.0
 20
23.50000000000001
 30
0.0
 40
3.5
 41
0.0
 71
     5
 72
     1
  1
第三角法
  7
CONVERTER_1
 73
     1
 44
0.7202881152461
  0
MTEXT
  5
A2
330
36
100
AcDbEntity
  8
1
 62
     2
100
AcDbMText
 10
118.5
 20
25.00000000000001
 30
0.0
 40
3.0
 41
0.0
 71
     5
 72
     1
  1
検図
  7
CONVERTER_1
 73
     1
 44
0.78031212484994
  0
MTEXT
  5
A3
330
36
100
AcDbEntity
  8
1
 62
     2
100
AcDbMText
 10
152.5
 20
25.00000000000001
 30
0.0
 40
3.0
 41
0.0
 71
     5
 72
     1
  1
設計
  7
CONVERTER_1
 73
     1
 44
0.78031212484994
  0
MTEXT
  5
A4
330
36
100
AcDbEntity
  8
1
 62
     2
100
AcDbMText
 10
135.5
 20
25.00000000000001
 30
0.0
 40
3.0
 41
0.0
 71
     5
 72
     1
  1
製図
  7
CONVERTER_1
 73
     1
 44
0.78031212484994
  0
MTEXT
  5
A5
330
36
100
AcDbEntity
  8
1
 62
     2
100
AcDbMText
 10
89.5
 20
24.00000000000001
 30
0.0
 40
3.5
 41
0.0
 71
     5
 72
     1
  1
尺度
  7
CONVERTER_1
 73
     1
 44
0.7202881152461
  0
MTEXT
  5
A6
330
36
100
AcDbEntity
  8
1
 62
   250
100
AcDbMText
 10
25.0
 20
5.0
 30
0.0
 40
3.5
 41
0.0
 71
     4
 72
     1
  1
備考欄の文字列 原点位置=4
  7
CONVERTER_1
 73
     1
 44
0.7202881152461
  0
ENDBLK
  5
38
330
36
100
AcDbEntity
  8
0
100
AcDbBlockEnd
  0
BLOCK
  5
3A
330
39
100
AcDbEntity
  8
0
100
AcDbBlockBegin
  2
Y40-0
 70
     0
 71
     0
 10
178.3339439584434
 20
179.6164114729591
 30
0.0
  3
Y40-0
  1

  0
LINE
  5
A7
330
39
100
AcDbEntity
  8
1
  6
Continuous
 62
     7
100
AcDbLine
 10
255.4458280065813
 20
158.8924432337026
 30
0.0
 11
255.4458280065813
 21
194.3241619740233
 31
0.0
  0
LINE
  5
A8
330
39
100
AcDbEntity
  8
1
  6
Continuous
 62
     7
100
AcDbLine
 10
257.9458280065813
 20
194.8241619740233
 30
0.0
 11
255.9458280065813
 21
194.8241619740233
 31
0.0
  0
LINE
  5
A9
330
39
100
AcDbEntity
  8
1
  6
Continuous
 62
     7
100
AcDbLine
 10
257.9458280065813
 20
194.8241619740233
 30
0.0
 11
257.9458280065813
 21
161.3241619740233
 31
0.0
  0
LINE
  5
AA
330
39
100
AcDbEntity
  8
1
  6
Continuous
 62
     2
100
AcDbLine
 10
257.9458280065813
 20
182.3241619740233
 30
0.0
 11
259.6778788141502
 21
181.3241619740233
 31
0.0
  0
LINE
  5
AB
330
39
100
AcDbEntity
  8
1
  6
Continuous
 62
     2
100
AcDbLine
 10
259.6778788141502
 20
181.3241619740233
 30
0.0
 11
271.9458280065813
 21
181.3241619740233
 31
0.0
  0
LINE
  5
AC
330
39
100
AcDbEntity
  8
1
  6
Continuous
 62
     7
100
AcDbLine
 10
271.9458280065813
 20
181.3241619740233
 30
0.0
 11
271.9458280065813
 21
162.3241619740233
 31
0.0
  0
LINE
  5
AD
330
39
100
AcDbEntity
  8
1
  6
Continuous
 62
     7
100
AcDbLine
 10
271.9458280065813
 20
181.3241619740233
 30
0.0
 11
270.9458280065813
 21
182.3241619740233
 31
0.0
  0
LINE
  5
AE
330
39
100
AcDbEntity
  8
1
  6
Continuous
 62
     7
100
AcDbLine
 10
259.6778788141502
 20
162.3241619740233
 30
0.0
 11
259.6778788141502
 21
182.3241619740233
 31
0.0
  0
LINE
  5
AF
330
39
100
AcDbEntity
  8
1
  6
Continuous
 62
     7
100
AcDbLine
 10
270.9458280065813
 20
182.3241619740233
 30
0.0
 11
257.9458280065813
 21
182.3241619740233
 31
0.0
  0
LINE
  5
B0
330
39
100
AcDbEntity
  8
1
  6
Continuous
 62
     7
100
AcDbLine
 10
270.9458280065813
 20
161.3241619740233
 30
0.0
 11
257.9458280065813
 21
161.3241619740233
 31
0.0
  0
LINE
  5
B1
330
39
100
AcDbEntity
  8
1
  6
Continuous
 62
     7
100
AcDbLine
 10
259.6778788141502
 20
161.3241619740233
 30
0.0
 11
259.6778788141502
 21
162.3241619740233
 31
0.0
  0
LINE
  5
B2
330
39
100
AcDbEntity
  8
1
  6
Continuous
 62
     7
100
AcDbLine
 10
270.9458280065813
 20
161.3241619740233
 30
0.0
 11
271.9458280065813
 21
162.3241619740233
 31
0.0
  0
LINE
  5
B3
330
39
100
AcDbEntity
  8
1
  6
Continuous
 62
     2
100
AcDbLine
 10
259.6778788141502
 20
162.3241619740233
 30
0.0
 11
271.9458280065813
 21
162.3241619740233
 31
0.0
  0
LINE
  5
B4
330
39
100
AcDbEntity
  8
1
  6
Continuous
 62
     2
100
AcDbLine
 10
259.6778788141502
 20
162.3241619740233
 30
0.0
 11
257.9458280065813
 21
161.3241619740233
 31
0.0
  0
LINE
  5
B5
330
39
100
AcDbEntity
  8
1
  6
Continuous
 62
     7
100
AcDbLine
 10
257.9458280065813
 20
161.3241619740233
 30
0.0
 11
257.9458280065813
 21
148.8241619740233
 31
0.0
  0
LINE
  5
B6
330
39
100
AcDbEntity
  8
1
  6
Continuous
 62
     7
100
AcDbLine
 10
257.9458280065813
 20
148.8241619740233
 30
0.0
 11
255.9458280065813
 21
148.8241619740233
 31
0.0
  0
LINE
  5
B7
330
39
100
AcDbEntity
  8
1
  6
Continuous
 62
     7
100
AcDbLine
 10
255.4458280065813
 20
158.8924432337026
 30
0.0
 11
255.4458280065813
 21
149.3241619740233
 31
0.0
  0
LINE
  5
B8
330
39
100
AcDbEntity
  8
1
  6
Continuous
 62
     7
100
AcDbLine
 10
251.5146919711903
 20
162.8918504090698
 30
0.0
 11
181.1179879181037
 21
164.1039790881295
 31
0.0
  0
LINE
  5
B9
330
39
100
AcDbEntity
  8
1
  6
Continuous
 62
     7
100
AcDbLine
 10
251.5146919711903
 20
180.7564735389768
 30
0.0
 11
164.429348272014
 21
179.2569907997857
 31
0.0
  0
LINE
  5
BA
330
39
100
AcDbEntity
  8
1
  6
Continuous
 62
     7
100
AcDbLine
 10
170.9458280065813
 20
141.8241619740233
 30
0.0
 11
168.9458280065813
 21
141.8241619740233
 31
0.0
  0
LINE
  5
BB
330
39
100
AcDbEntity
  8
1
  6
Continuous
 62
     7
100
AcDbLine
 10
170.9458280065813
 20
141.8241619740233
 30
0.0
 11
170.9458280065813
 21
154.1054611497116
 31
0.0
  0
LINE
  5
BC
330
39
100
AcDbEntity
  8
1
  6
Continuous
 62
     7
100
AcDbLine
 10
134.9458280065813
 20
141.8241619740233
 30
0.0
 11
134.9458280065813
 21
149.261436984532
 31
0.0
  0
LINE
  5
BD
330
39
100
AcDbEntity
  8
1
  6
Continuous
 62
     7
100
AcDbLine
 10
168.9458280065813
 20
141.8241619740233
 30
0.0
 11
134.9458280065813
 21
141.8241619740233
 31
0.0
  0
LINE
  5
BE
330
39
100
AcDbEntity
  8
1
  6
Continuous
 62
     7
100
AcDbLine
 10
64.32134105064321
 20
383.5152411466103
 30
0.0
 11
64.32134105064321
 21
381.5152411466103
 31
0.0
  0
LINE
  5
BF
330
39
100
AcDbEntity
  8
1
  6
Continuous
 62
     2
100
AcDbLine
 10
76.82134105064321
 20
383.5152411466103
 30
0.0
 11
77.82134105064321
 21
385.2472919541792
 31
0.0
  0
LINE
  5
C0
330
39
100
AcDbEntity
  8
1
  6
Continuous
 62
     2
100
AcDbLine
 10
77.82134105064321
 20
385.2472919541792
 30
0.0
 11
77.82134105064321
 21
396.5152411466103
 31
0.0
  0
LINE
  5
C1
330
39
100
AcDbEntity
  8
1
  6
Continuous
 62
     7
100
AcDbLine
 10
77.82134105064321
 20
397.5152411466103
 30
0.0
 11
76.82134105064321
 21
396.5152411466103
 31
0.0
  0
LINE
  5
C2
330
39
100
AcDbEntity
  8
1
  6
Continuous
 62
     7
100
AcDbLine
 10
76.82134105064321
 20
396.5152411466103
 30
0.0
 11
76.82134105064321
 21
383.5152411466103
 31
0.0
  0
LINE
  5
C3
330
39
100
AcDbEntity
  8
1
  6
Continuous
 62
     2
100
AcDbLine
 10
77.82134105064321
 20
396.5152411466103
 30
0.0
 11
77.82134105064321
 21
397.5152411466103
 31
0.0
  0
LINE
  5
C4
330
39
100
AcDbEntity
  8
1
  6
Continuous
 62
     2
100
AcDbLine
 10
96.82134105064321
 20
397.5152411466103
 30
0.0
 11
96.82134105064321
 21
396.5152411466103
 31
0.0
  0
LINE
  5
C5
330
39
100
AcDbEntity
  8
1
  6
Continuous
 62
     7
100
AcDbLine
 10
97.82134105064321
 20
396.5152411466103
 30
0.0
 11
97.82134105064321
 21
383.5152411466103
 31
0.0
  0
LINE
  5
C6
330
39
100
AcDbEntity
  8
1
  6
Continuous
 62
     7
100
AcDbLine
 10
97.82134105064321
 20
396.5152411466103
 30
0.0
 11
96.82134105064321
 21
397.5152411466103
 31
0.0
  0
LINE
  5
C7
330
39
100
AcDbEntity
  8
1
  6
Continuous
 62
     2
100
AcDbLine
 10
96.82134105064321
 20
396.5152411466103
 30
0.0
 11
96.82134105064321
 21
385.2472919541792
 31
0.0
  0
LINE
  5
C8
330
39
100
AcDbEntity
  8
1
  6
Continuous
 62
     2
100
AcDbLine
 10
96.82134105064321
 20
385.2472919541792
 30
0.0
 11
97.82134105064321
 21
383.5152411466103
 31
0.0
  0
LINE
  5
C9
330
39
100
AcDbEntity
  8
1
  6
Continuous
 62
     7
100
AcDbLine
 10
110.3213410506432
 20
383.5152411466103
 30
0.0
 11
64.32134105064321
 21
383.5152411466103
 31
0.0
  0
LINE
  5
CA
330
39
100
AcDbEntity
  8
1
  6
Continuous
 62
     7
100
AcDbLine
 10
110.3213410506432
 20
383.5152411466103
 30
0.0
 11
110.3213410506432
 21
381.5152411466103
 31
0.0
  0
LINE
  5
CB
330
39
100
AcDbEntity
  8
1
  6
Continuous
 62
     7
100
AcDbLine
 10
109.8213410506432
 20
381.0152411466103
 30
0.0
 11
64.82134105064321
 21
381.0152411466103
 31
0.0
  0
LINE
  5
CC
330
39
100
AcDbEntity
  8
1
  6
Continuous
 62
     7
100
AcDbLine
 10
96.82134105064321
 20
397.5152411466103
 30
0.0
 11
77.82134105064321
 21
397.5152411466103
 31
0.0
  0
LINE
  5
CD
330
39
100
AcDbEntity
  8
1
  6
Continuous
 62
     7
100
AcDbLine
 10
78.38902948568972
 20
377.0841051112193
 30
0.0
 11
79.63214359576901
 21
304.8878625643061
 31
0.0
  0
LINE
  5
CE
330
39
100
AcDbEntity
  8
1
  6
Continuous
 62
     7
100
AcDbLine
 10
97.82134105064321
 20
396.5152411466103
 30
0.0
 11
76.82134105064321
 21
396.5152411466103
 31
0.0
  0
LINE
  5
CF
330
39
100
AcDbEntity
  8
1
  6
Continuous
 62
     7
100
AcDbLine
 10
76.82134105064321
 20
385.2472919541792
 30
0.0
 11
97.82134105064321
 21
385.2472919541792
 31
0.0
  0
LINE
  5
D0
330
39
100
AcDbEntity
  8
1
  6
Continuous
 62
     7
100
AcDbLine
 10
95.01053850551742
 20
304.8878625643061
 30
0.0
 11
96.25365261559671
 21
377.0841051112193
 31
0.0
  0
LINE
  5
D1
330
39
100
AcDbEntity
  8
1
  6
Continuous
 62
     7
100
AcDbLine
 10
69.32134105064321
 20
141.8241619740233
 30
0.0
 11
105.3213410506432
 21
141.8241619740233
 31
0.0
  0
LINE
  5
D2
330
39
100
AcDbEntity
  8
1
  6
Continuous
 62
     7
100
AcDbLine
 10
69.32134105064321
 20
141.8241619740233
 30
0.0
 11
69.32134105064321
 21
149.261436984532
 31
0.0
  0
LINE
  5
D3
330
39
100
AcDbEntity
  8
1
  6
Continuous
 62
     7
100
AcDbLine
 10
105.3213410506432
 20
141.8241619740233
 30
0.0
 11
105.3213410506432
 21
149.261436984532
 31
0.0
  0
LINE
  5
D4
330
39
100
AcDbEntity
  8
1
  6
Continuous
 62
     7
100
AcDbLine
 10
270.9458280065813
 20
161.3241619740233
 30
0.0
 11
270.9458280065813
 21
182.3241619740233
 31
0.0
  0
ARC
  5
D5
330
39
100
AcDbEntity
  8
1
  6
Continuous
 62
     7
100
AcDbCircle
 10
87.32134105063071
 20
163.4216417792355
 30
0.0
 40
17.36167138858021
100
AcDbArc
 50
16.17645901137865
 51
163.8235409886213
  0
ARC
  5
D6
330
39
100
AcDbEntity
  8
1
  6
Continuous
 62
     7
100
AcDbCircle
 10
87.32134105064321
 20
171.8241619740233
 30
0.0
 40
22.99999999999999
100
AcDbArc
 50
0.0
 51
-141.5021049947581
  0
ARC
  5
D7
330
39
100
AcDbEntity
  8
1
  6
Continuous
 62
     7
100
AcDbCircle
 10
87.32134105064321
 20
171.8241619740233
 30
0.0
 40
22.99999999999996
100
AcDbArc
 50
-38.49789500459622
 51
0.0
  0
ARC
  5
D8
330
39
100
AcDbEntity
  8
1
  6
Continuous
 62
     7
100
AcDbCircle
 10
164.9458280065813
 20
149.261436984532
 30
0.0
 40
30.00000000000001
100
AcDbArc
 50
90.98645236641146
 51
180.0
  0
ARC
  5
D9
330
39
100
AcDbEntity
  8
1
  6
Continuous
 62
     7
100
AcDbCircle
 10
180.9458280065813
 20
154.1054611497116
 30
0.0
 40
10.0
100
AcDbArc
 50
89.01354763358883
 51
180.0
  0
ARC
  5
DA
330
39
100
AcDbEntity
  8
1
  6
Continuous
 62
     7
100
AcDbCircle
 10
115.0075743823532
 20
304.5435427412613
 30
0.0
 40
19.99999999999997
100
AcDbArc
 50
179.0135476335888
 51
-136.7679077482412
  0
ARC
  5
DB
330
39
100
AcDbEntity
  8
1
  6
Continuous
 62
     7
100
AcDbCircle
 10
59.63510771893323
 20
304.5435427412613
 30
0.0
 40
19.99999999999998
100
AcDbArc
 50
-43.23209225175878
 51
0.98645236641118
  0
ARC
  5
DC
330
39
100
AcDbEntity
  8
1
  6
Continuous
 62
     7
100
AcDbCircle
 10
87.32134105064321
 20
278.5152411466104
 30
0.0
 40
17.99999999999999
100
AcDbArc
 50
0.0
 51
43.23209225175896
  0
ARC
  5
DD
330
39
100
AcDbEntity
  8
1
  6
Continuous
 62
     7
100
AcDbCircle
 10
87.32134105064321
 20
278.5152411466104
 30
0.0
 40
18.0
100
AcDbArc
 50
180.0
 51
0.0
  0
ARC
  5
DE
330
39
100
AcDbEntity
  8
1
  6
Continuous
 62
     7
100
AcDbCircle
 10
87.32134105064321
 20
278.5152411466104
 30
0.0
 40
17.99999999999999
100
AcDbArc
 50
136.7679077482411
 51
180.0
  0
SPLINE
  5
DF
330
39
100
AcDbEntity
  8
1
  6
Continuous
 62
     7
100
AcDbSpline
210
0.0
220
0.0
230
1.0
 70
     8
 71
     3
 72
    13
 73
     9
 74
     7
 42
0.0000000001
 43
0.0000000001
 44
0.00000001
 40
0.0
 40
0.0
 40
0.0
 40
0.0
 40
6.538410980737145
 40
13.08289844593392
 40
15.58237555936434
 40
18.07255762721159
 40
18.59249232835812
 40
19.11277990555204
 40
19.11277990555204
 40
19.11277990555204
 40
19.11277990555204
 10
105.3213410506432
 20
149.261436984532
 30
0.0
 10
105.349339684928
 20
151.4407085784674
 30
0.0
 10
105.4053629740806
 20
155.8012770764651
 30
0.0
 10
105.2210399057696
 20
160.9974132949829
 30
0.0
 10
104.832254944423
 20
164.8237963528554
 30
0.0
 10
104.4783464042783
 20
166.6315984090581
 30
0.0
 10
104.1489455279576
 20
167.7614795720158
 30
0.0
 10
104.0467488601442
 20
168.0928178318994
 30
0.0
 10
103.9956331920788
 20
168.2585431620101
 30
0.0
 11
105.3213410506432
 21
149.261436984532
 31
0.0
 11
105.3526908467772
 21
155.7997728082188
 31
0.0
 11
105.0695803999421
 21
162.338133815154
 31
0.0
 11
104.7937189713721
 21
164.8223411963502
 31
0.0
 11
104.2919037991204
 21
167.261436984532
 31
0.0
 11
104.1476943844058
 21
167.7609725069566
 31
0.0
 11
103.9956331920788
 21
168.2585431620101
 31
0.0
  0
SPLINE
  5
E0
330
39
100
AcDbEntity
  8
1
  6
Continuous
 62
     7
100
AcDbSpline
210
0.0
220
0.0
230
1.0
 70
     8
 71
     3
 72
    13
 73
     9
 74
     7
 42
0.0000000001
 43
0.0000000001
 44
0.00000001
 40
0.0
 40
0.0
 40
0.0
 40
0.0
 40
6.538410980742314
 40
13.08289844593475
 40
15.58237555936226
 40
18.07255762721094
 40
18.59249232835398
 40
19.11277990554424
 40
19.11277990554424
 40
19.11277990554424
 40
19.11277990554424
 10
69.32134105064321
 20
149.261436984532
 30
0.0
 10
69.2933424163509
 20
151.440708578469
 30
0.0
 10
69.23731912718318
 20
155.8012770764668
 30
0.0
 10
69.42164219550284
 20
160.9974132949849
 30
0.0
 10
69.81042715688476
 20
164.8237963528519
 30
0.0
 10
70.16433569702221
 20
166.6315984090523
 30
0.0
 10
70.49373657331746
 20
167.7614795720154
 30
0.0
 10
70.59593324112181
 20
168.0928178318993
 30
0.0
 10
70.6470489091827
 20
168.2585431620101
 30
0.0
 11
69.32134105064321
 21
149.261436984532
 31
0.0
 11
69.28999125449225
 21
155.7997728082239
 31
0.0
 11
69.57310170134443
 21
162.338133815154
 31
0.0
 11
69.84896312992996
 21
164.8223411963456
 31
0.0
 11
70.35077830216611
 21
167.261436984532
 31
0.0
 11
70.49498771686909
 21
167.7609725069563
 31
0.0
 11
70.6470489091827
 21
168.2585431620101
 31
0.0
  0
ARC
  5
E1
330
39
100
AcDbEntity
  8
1
  6
Continuous
 62
     7
100
AcDbCircle
 10
255.9458280065813
 20
194.3241619740233
 30
0.0
 40
0.5
100
AcDbArc
 50
90.0
 51
180.0
  0
ARC
  5
E2
330
39
100
AcDbEntity
  8
1
  6
Continuous
 62
     7
100
AcDbCircle
 10
255.9458280065813
 20
149.3241619740233
 30
0.0
 40
0.5
100
AcDbArc
 50
180.0
 51
-90.0
  0
ARC
  5
E3
330
39
100
AcDbEntity
  8
1
  6
Continuous
 62
     7
100
AcDbCircle
 10
251.4458280065813
 20
158.8924432337026
 30
0.0
 40
4.0
100
AcDbArc
 50
0.0
 51
89.01354763358826
  0
ARC
  5
E4
330
39
100
AcDbEntity
  8
1
  6
Continuous
 62
     7
100
AcDbCircle
 10
251.4458280065813
 20
184.755880714344
 30
0.0
 40
4.000000000000035
100
AcDbArc
 50
-89.01354763358826
 51
0.0
  0
ARC
  5
E5
330
39
100
AcDbEntity
  8
1
  6
Continuous
 62
     7
100
AcDbCircle
 10
64.82134105064321
 20
381.5152411466103
 30
0.0
 40
0.5
100
AcDbArc
 50
180.0
 51
-90.0
  0
ARC
  5
E6
330
39
100
AcDbEntity
  8
1
  6
Continuous
 62
     7
100
AcDbCircle
 10
109.8213410506432
 20
381.5152411466103
 30
0.0
 40
0.5
100
AcDbArc
 50
-90.0
 51
0.0
  0
ARC
  5
E7
330
39
100
AcDbEntity
  8
1
  6
Continuous
 62
     7
100
AcDbCircle
 10
100.2530597909639
 20
377.0152411466103
 30
0.0
 40
4.0
100
AcDbArc
 50
90.0
 51
179.0135476335887
  0
ARC
  5
E8
330
39
100
AcDbEntity
  8
1
  6
Continuous
 62
     7
100
AcDbCircle
 10
74.38962231032252
 20
377.0152411466103
 30
0.0
 40
4.000000000000035
100
AcDbArc
 50
0.98645236641133
 51
90.0
  0
ENDBLK
  5
3B
330
39
100
AcDbEntity
  8
0
100
AcDbBlockEnd
  0
BLOCK
  5
3D
330
3C
100
AcDbEntity
  8
0
100
AcDbBlockBegin
  2
31-13
 70
     0
 71
     0
 10
203.4458280065813
 20
179.3669101754622
 30
0.0
  3
31-13
  1

  0
LINE
  5
E9
330
3C
100
AcDbEntity
  8
1
  6
Continuous
 62
     7
100
AcDbLine
 10
148.4716872748125
 20
118.3241619740233
 30
0.0
 11
138.0375156114035
 21
118.3241619740233
 31
0.0
  0
LINE
  5
EA
330
3C
100
AcDbEntity
  8
1
  6
Continuous
 62
     7
100
AcDbLine
 10
157.4716872748125
 20
123.3241619740233
 30
0.0
 11
167.8541404017591
 21
123.3241619740233
 31
0.0
  0
LINE
  5
EB
330
3C
100
AcDbEntity
  8
1
  6
Continuous
 62
     7
100
AcDbLine
 10
167.8541404017591
 20
118.3241619740233
 30
0.0
 11
157.4716872748125
 21
118.3241619740233
 31
0.0
  0
LINE
  5
EC
330
3C
100
AcDbEntity
  8
1
  6
Continuous
 62
     7
100
AcDbLine
 10
138.0375156114036
 20
123.3241619740233
 30
0.0
 11
148.4716872748125
 21
123.3241619740233
 31
0.0
  0
LINE
  5
ED
330
3C
100
AcDbEntity
  8
1
  6
Continuous
 62
     7
100
AcDbLine
 10
138.0375156114036
 20
120.8241619740233
 30
0.0
 11
138.0375156114035
 21
118.3241619740233
 31
0.0
  0
LINE
  5
EE
330
3C
100
AcDbEntity
  8
1
  6
Continuous
 62
     7
100
AcDbLine
 10
138.0375156114036
 20
123.3241619740233
 30
0.0
 11
138.0375156114036
 21
120.8241619740233
 31
0.0
  0
LINE
  5
EF
330
3C
100
AcDbEntity
  8
1
  6
Continuous
 62
     7
100
AcDbLine
 10
167.8541404017591
 20
120.8241619740233
 30
0.0
 11
167.8541404017591
 21
118.3241619740233
 31
0.0
  0
LINE
  5
F0
330
3C
100
AcDbEntity
  8
1
  6
Continuous
 62
     7
100
AcDbLine
 10
167.8541404017591
 20
123.3241619740233
 30
0.0
 11
167.8541404017591
 21
120.8241619740233
 31
0.0
  0
ARC
  5
F1
330
3C
100
AcDbEntity
  8
1
  6
Continuous
 62
     7
100
AcDbCircle
 10
139.6958280065813
 20
120.8241619740233
 30
0.0
 40
3.0
100
AcDbArc
 50
180.0
 51
-123.5573097619224
  0
ARC
  5
F2
330
3C
100
AcDbEntity
  8
1
  6
Continuous
 62
     7
100
AcDbCircle
 10
139.6958280065813
 20
120.8241619740233
 30
0.0
 40
3.000000000000009
100
AcDbArc
 50
123.557309761921
 51
180.0
  0
ARC
  5
F3
330
3C
100
AcDbEntity
  8
1
  6
Continuous
 62
     7
100
AcDbCircle
 10
166.1958280065813
 20
120.8241619740233
 30
0.0
 40
3.000000000000056
100
AcDbArc
 50
-56.44269023807766
 51
0.0
  0
ARC
  5
F4
330
3C
100
AcDbEntity
  8
1
  6
Continuous
 62
     7
100
AcDbCircle
 10
166.1958280065813
 20
120.8241619740233
 30
0.0
 40
3.0
100
AcDbArc
 50
0.0
 51
56.44269023807766
  0
CIRCLE
  5
F5
330
3C
100
AcDbEntity
  8
1
  6
Continuous
 62
     7
100
AcDbCircle
 10
87.32134105064321
 20
120.8241619740233
 30
0.0
 40
2.5
  0
ENDBLK
  5
3E
330
3C
100
AcDbEntity
  8
0
100
AcDbBlockEnd
  0
BLOCK
  5
40
330
3F
100
AcDbEntity
  8
0
100
AcDbBlockBegin
  2
34-17
 70
     0
 71
     0
 10
575.3762309205389
 20
234.0025959826735
 30
0.0
  3
34-17
  1

  0
LINE
  5
F6
330
3F
100
AcDbEntity
  8
1
  6
Continuous
 62
     7
100
AcDbLine
 10
149.7934479533517
 20
134.3241619740233
 30
0.0
 11
156.0982080598109
 21
134.3241619740233
 31
0.0
  0
LINE
  5
F7
330
3F
100
AcDbEntity
  8
1
  6
Continuous
 62
     7
100
AcDbLine
 10
145.9458280065813
 20
141.8241619740233
 30
0.0
 11
145.9458280065813
 21
134.3241619740233
 31
0.0
  0
LINE
  5
F8
330
3F
100
AcDbEntity
  8
1
  6
Continuous
 62
     7
100
AcDbLine
 10
149.7934479533517
 20
140.8241619740233
 30
0.0
 11
149.7934479533517
 21
134.3241619740233
 31
0.0
  0
LINE
  5
F9
330
3F
100
AcDbEntity
  8
1
  6
Continuous
 62
     7
100
AcDbLine
 10
145.9458280065813
 20
134.3241619740233
 30
0.0
 11
149.7934479533517
 21
134.3241619740233
 31
0.0
  0
LINE
  5
FA
330
3F
100
AcDbEntity
  8
1
  6
Continuous
 62
     7
100
AcDbLine
 10
156.0982080598109
 20
140.8241619740233
 30
0.0
 11
149.7934479533517
 21
140.8241619740233
 31
0.0
  0
LINE
  5
FB
330
3F
100
AcDbEntity
  8
1
  6
Continuous
 62
     7
100
AcDbLine
 10
152.9458280065813
 20
137.5741619740233
 30
0.0
 11
149.7934479533517
 21
134.3241619740233
 31
0.0
  0
LINE
  5
FC
330
3F
100
AcDbEntity
  8
1
  6
Continuous
 62
     7
100
AcDbLine
 10
152.9458280065813
 20
137.5741619740233
 30
0.0
 11
149.7934479533517
 21
140.8241619740233
 31
0.0
  0
LINE
  5
FD
330
3F
100
AcDbEntity
  8
1
  6
Continuous
 62
     7
100
AcDbLine
 10
159.9458280065813
 20
134.3241619740233
 30
0.0
 11
159.9458280065813
 21
141.8241619740233
 31
0.0
  0
LINE
  5
FE
330
3F
100
AcDbEntity
  8
1
  6
Continuous
 62
     7
100
AcDbLine
 10
156.0982080598109
 20
134.3241619740233
 30
0.0
 11
156.0982080598109
 21
140.8241619740233
 31
0.0
  0
LINE
  5
FF
330
3F
100
AcDbEntity
  8
1
  6
Continuous
 62
     7
100
AcDbLine
 10
156.0982080598109
 20
134.3241619740233
 30
0.0
 11
159.9458280065813
 21
134.3241619740233
 31
0.0
  0
LINE
  5
100
330
3F
100
AcDbEntity
  8
1
  6
Continuous
 62
     7
100
AcDbLine
 10
156.0982080598109
 20
134.3241619740233
 30
0.0
 11
152.9458280065813
 21
137.5741619740233
 31
0.0
  0
LINE
  5
101
330
3F
100
AcDbEntity
  8
1
  6
Continuous
 62
     7
100
AcDbLine
 10
156.0982080598109
 20
140.8241619740233
 30
0.0
 11
152.9458280065813
 21
137.5741619740233
 31
0.0
  0
LINE
  5
102
330
3F
100
AcDbEntity
  8
1
  6
Continuous
 62
     7
100
AcDbLine
 10
80.32134105064321
 20
134.3241619740233
 30
0.0
 11
94.32134105064321
 21
134.3241619740233
 31
0.0
  0
LINE
  5
103
330
3F
100
AcDbEntity
  8
1
  6
Continuous
 62
     7
100
AcDbLine
 10
94.32134105064321
 20
141.8241619740233
 30
0.0
 11
94.32134105064321
 21
134.3241619740233
 31
0.0
  0
LINE
  5
104
330
3F
100
AcDbEntity
  8
1
  6
Continuous
 62
     7
100
AcDbLine
 10
80.32134105064321
 20
141.8241619740233
 30
0.0
 11
80.32134105064321
 21
134.3241619740233
 31
0.0
  0
ENDBLK
  5
41
330
3F
100
AcDbEntity
  8
0
100
AcDbBlockEnd
  0
BLOCK
  5
43
330
42
100
AcDbEntity
  8
0
100
AcDbBlockBegin
  2
36-7
 70
     0
 71
     0
 10
338.5091368927278
 20
51.04862902382428
 30
0.0
  3
36-7
  1

  0
LINE
  5
105
330
42
100
AcDbEntity
  8
1
  6
Continuous
 62
     7
100
AcDbLine
 10
157.4716872748125
 20
118.3241619740233
 30
0.0
 11
157.4716872748125
 21
118.344712502253
 31
0.0
  0
LINE
  5
106
330
42
100
AcDbEntity
  8
1
  6
Continuous
 62
     7
100
AcDbLine
 10
157.4716872748125
 20
134.3241619740233
 30
0.0
 11
157.4716872748125
 21
118.344712502253
 31
0.0
  0
LINE
  5
107
330
42
100
AcDbEntity
  8
1
  6
Continuous
 62
     7
100
AcDbLine
 10
148.4716872748125
 20
118.344712502253
 30
0.0
 11
148.4716872748125
 21
118.3241619740233
 31
0.0
  0
LINE
  5
108
330
42
100
AcDbEntity
  8
1
  6
Continuous
 62
     7
100
AcDbLine
 10
148.4716872748125
 20
118.344712502253
 30
0.0
 11
148.4716872748125
 21
134.3241619740233
 31
0.0
  0
LINE
  5
109
330
42
100
AcDbEntity
  8
1
  6
Continuous
 62
     7
100
AcDbLine
 10
82.82134105064321
 20
134.3241619740233
 30
0.0
 11
82.82134105064321
 21
118.3241619740233
 31
0.0
  0
LINE
  5
10A
330
42
100
AcDbEntity
  8
1
  6
Continuous
 62
     7
100
AcDbLine
 10
91.82134105064321
 20
134.3241619740233
 30
0.0
 11
91.82134105064321
 21
118.3241619740233
 31
0.0
  0
ARC
  5
10B
330
42
100
AcDbEntity
  8
0
  6
Continuous
 62
     7
100
AcDbCircle
 10
152.9716872748125
 20
120.5241619740233
 30
0.0
 40
4.999999999999983
100
AcDbArc
 50
-154.1580672368333
 51
-25.84193276316672
  0
ARC
  5
10C
330
42
100
AcDbEntity
  8
0
  6
Continuous
 62
     7
100
AcDbCircle
 10
87.32134105064321
 20
120.5403532003066
 30
0.0
 40
5.01612435566096
100
AcDbArc
 50
-153.7803560184387
 51
-26.21964398156136
  0
ENDBLK
  5
44
330
42
100
AcDbEntity
  8
0
100
AcDbBlockEnd
  0
BLOCK
  5
47
330
45
100
AcDbEntity
  8
0
100
AcDbBlockBegin
  2
36-7X
 70
     0
 71
     0
 10
275.729465253093
 20
-59.84202047225611
 30
0.0
  3
36-7X
  1

  0
INSERT
  5
46
330
45
100
AcDbEntity
  8
1
100
AcDbBlockReference
  2
36-7
 10
338.5091368927278
 20
51.04862902382428
 30
0.0
  0
ENDBLK
  5
48
330
45
100
AcDbEntity
  8
0
100
AcDbBlockEnd
  0
BLOCK
  5
125
330
11E
100
AcDbEntity
  8
0
100
AcDbBlockBegin
  2
*D07
 70
     1
 71
     0
 10
0.0
 20
0.0
 30
0.0
  3
*D07
  1

  0
LINE
  5
11F
330
11E
100
AcDbEntity
  8
1
  6
Continuous
 62
     2
100
AcDbLine
 10
286.9458280065812
 20
148.8241619740233
 30
0.0
 11
286.9458280065812
 21
194.8241619740233
 31
0.0
  0
LINE
  5
120
330
11E
100
AcDbEntity
  8
1
  6
Continuous
 62
     2
100
AcDbLine
 10
257.9458280065813
 20
194.8241619740233
 30
0.0
 11
288.4458280065812
 21
194.8241619740233
 31
0.0
  0
LINE
  5
121
330
11E
100
AcDbEntity
  8
1
  6
Continuous
 62
     2
100
AcDbLine
 10
257.9458280065813
 20
148.8241619740233
 30
0.0
 11
288.4458280065812
 21
148.8241619740233
 31
0.0
  0
SOLID
  5
122
330
11E
100
AcDbEntity
  8
1
 62
     2
100
AcDbTrace
 10
286.2546523942474
 20
154.0741619740233
 30
0.0
 11
287.6370036189151
 21
154.0741619740233
 31
0.0
 12
286.9458280065812
 22
148.8241619740233
 32
0.0
 13
286.9458280065812
 23
148.8241619740233
 33
0.0
  0
SOLID
  5
123
330
11E
100
AcDbEntity
  8
1
 62
     2
100
AcDbTrace
 10
287.6370036189151
 20
189.5741619740233
 30
0.0
 11
286.2546523942474
 21
189.5741619740233
 31
0.0
 12
286.9458280065812
 22
194.8241619740233
 32
0.0
 13
286.9458280065812
 23
194.8241619740233
 33
0.0
  0
MTEXT
  5
124
330
11E
100
AcDbEntity
  8
1
 62
     7
100
AcDbMText
 10
285.4458280065812
 20
162.4266619740233
 30
0.0
 40
5.25
 41
0.0
 71
     7
 72
     1
  1
\C7;{\Fgdt;n}\C7;46
  7
CONVERTER_2
 11
0.0
 21
1.0
 31
0.0
 73
     1
 44
0.60024009603842
  0
ENDBLK
  5
126
330
11E
100
AcDbEntity
  8
0
100
AcDbBlockEnd
  0
BLOCK
  5
130
330
129
100
AcDbEntity
  8
0
100
AcDbBlockBegin
  2
*D18
 70
     1
 71
     0
 10
0.0
 20
0.0
 30
0.0
  3
*D18
  1

  0
LINE
  5
12A
330
129
100
AcDbEntity
  8
1
  6
Continuous
 62
     2
100
AcDbLine
 10
257.9458280065813
 20
88.52422884464583
 30
0.0
 11
271.9458280065813
 21
88.52422884464583
 31
0.0
  0
LINE
  5
12B
330
129
100
AcDbEntity
  8
1
  6
Continuous
 62
     2
100
AcDbLine
 10
271.9458280065813
 20
88.52422884464583
 30
0.0
 11
280.9458280065813
 21
88.52422884464583
 31
0.0
  0
LINE
  5
12C
330
129
100
AcDbEntity
  8
1
  6
Continuous
 62
     2
100
AcDbLine
 10
271.9458280065813
 20
162.3241619740233
 30
0.0
 11
271.9458280065813
 21
87.02422884464583
 31
0.0
  0
LINE
  5
12D
330
129
100
AcDbEntity
  8
1
  6
Continuous
 62
     2
100
AcDbLine
 10
257.9458280065813
 20
148.8241619740233
 30
0.0
 11
257.9458280065813
 21
87.02422884464583
 31
0.0
  0
SOLID
  5
12E
330
129
100
AcDbEntity
  8
1
 62
     2
100
AcDbTrace
 10
276.4458280065813
 20
89.11666508378912
 30
0.0
 11
276.4458280065813
 21
87.93179260550255
 31
0.0
 12
271.9458280065813
 22
88.52422884464583
 32
0.0
 13
271.9458280065813
 23
88.52422884464583
 33
0.0
  0
MTEXT
  5
12F
330
129
100
AcDbEntity
  8
1
 62
     7
100
AcDbMText
 10
261.7958280065813
 20
90.02422884464583
 30
0.0
 40
5.25
 41
0.0
 71
     7
 72
     1
  1
14
  7
CONVERTER_2
 11
0.9999999999970621
 21
2.424068405545307E-6
 31
0.0
 73
     1
 44
0.60024009603842
  0
ENDBLK
  5
131
330
129
100
AcDbEntity
  8
0
100
AcDbBlockEnd
  0
BLOCK
  5
133
330
132
100
AcDbEntity
  8
0
100
AcDbBlockBegin
  2
_None
 70
     0
 71
     0
 10
0.0
 20
0.0
 30
0.0
  3
_None
  1

  0
ENDBLK
  5
134
330
132
100
AcDbEntity
  8
0
100
AcDbBlockEnd
  0
BLOCK
  5
13F
330
137
100
AcDbEntity
  8
0
100
AcDbBlockBegin
  2
*D210
 70
     1
 71
     0
 10
0.0
 20
0.0
 30
0.0
  3
*D210
  1

  0
LINE
  5
138
330
137
100
AcDbEntity
  8
1
  6
Continuous
 62
     2
100
AcDbLine
 10
152.9458280065813
 20
88.52422884464583
 30
0.0
 11
257.9458280065813
 21
88.52422884464583
 31
0.0
  0
LINE
  5
139
330
137
100
AcDbEntity
  8
1
  6
Continuous
 62
     2
100
AcDbLine
 10
257.9458280065813
 20
148.8241619740233
 30
0.0
 11
257.9458280065813
 21
87.02422884464583
 31
0.0
  0
LINE
  5
13A
330
137
100
AcDbEntity
  8
1
  6
Continuous
 62
     2
100
AcDbLine
 10
152.9458280065813
 20
112.524162437585
 30
0.0
 11
152.9458280065813
 21
108.366499108108
 31
0.0
  0
LINE
  5
13B
330
137
100
AcDbEntity
  8
1
  6
Continuous
 62
     2
100
AcDbLine
 10
152.9458280065813
 20
98.82490245207889
 30
0.0
 11
152.9458280065813
 21
87.02422884464583
 31
0.0
  0
SOLID
  5
13C
330
137
100
AcDbEntity
  8
1
 62
     2
100
AcDbTrace
 10
158.1958280065813
 20
89.21540445697966
 30
0.0
 11
158.1958280065813
 21
87.83305323231201
 31
0.0
 12
152.9458280065813
 22
88.52422884464583
 32
0.0
 13
152.9458280065813
 23
88.52422884464583
 33
0.0
  0
SOLID
  5
13D
330
137
100
AcDbEntity
  8
1
 62
     2
100
AcDbTrace
 10
252.6958280065813
 20
87.83305323231201
 30
0.0
 11
252.6958280065813
 21
89.21540445697966
 31
0.0
 12
257.9458280065813
 22
88.52422884464583
 32
0.0
 13
257.9458280065813
 23
88.52422884464583
 33
0.0
  0
MTEXT
  5
13E
330
137
100
AcDbEntity
  8
1
 62
     7
100
AcDbMText
 10
199.9333280065813
 20
90.02422884464583
 30
0.0
 40
5.25
 41
0.0
 71
     7
 72
     1
  1
105
  7
CONVERTER_2
 11
0.9999999999970621
 21
2.424068405545307E-6
 31
0.0
 73
     1
 44
0.60024009603842
  0
ENDBLK
  5
140
330
137
100
AcDbEntity
  8
0
100
AcDbBlockEnd
  0
BLOCK
  5
14A
330
143
100
AcDbEntity
  8
0
100
AcDbBlockBegin
  2
*D311
 70
     1
 71
     0
 10
0.0
 20
0.0
 30
0.0
  3
*D311
  1

  0
LINE
  5
144
330
143
100
AcDbEntity
  8
1
  6
Continuous
 62
     2
100
AcDbLine
 10
136.6958280065813
 20
100.5242288446458
 30
0.0
 11
169.1958280065813
 21
100.5242288446458
 31
0.0
  0
LINE
  5
145
330
143
100
AcDbEntity
  8
1
  6
Continuous
 62
     2
100
AcDbLine
 10
169.1958280065813
 20
120.8241619740233
 30
0.0
 11
169.1958280065813
 21
99.02422884464581
 31
0.0
  0
LINE
  5
146
330
143
100
AcDbEntity
  8
1
  6
Continuous
 62
     2
100
AcDbLine
 10
136.6958280065813
 20
120.8241619740233
 30
0.0
 11
136.6958280065813
 21
99.02422884464581
 31
0.0
  0
SOLID
  5
147
330
143
100
AcDbEntity
  8
1
 62
     2
100
AcDbTrace
 10
141.9458280065813
 20
101.2154044569796
 30
0.0
 11
141.9458280065813
 21
99.83305323231198
 31
0.0
 12
136.6958280065813
 22
100.5242288446458
 32
0.0
 13
136.6958280065813
 23
100.5242288446458
 33
0.0
  0
SOLID
  5
148
330
143
100
AcDbEntity
  8
1
 62
     2
100
AcDbTrace
 10
163.9458280065813
 20
99.83305323231198
 30
0.0
 11
163.9458280065813
 21
101.2154044569796
 31
0.0
 12
169.1958280065813
 22
100.5242288446458
 32
0.0
 13
169.1958280065813
 23
100.5242288446458
 33
0.0
  0
MTEXT
  5
149
330
143
100
AcDbEntity
  8
1
 62
     7
100
AcDbMText
 10
149.0083280065813
 20
102.0242288446458
 30
0.0
 40
5.25
 41
0.0
 71
     7
 72
     1
  1
33
  7
CONVERTER_2
 11
0.9999999999970621
 21
2.424068405545307E-6
 31
0.0
 73
     1
 44
0.60024009603842
  0
ENDBLK
  5
14B
330
143
100
AcDbEntity
  8
0
100
AcDbBlockEnd
  0
BLOCK
  5
155
330
14E
100
AcDbEntity
  8
0
100
AcDbBlockBegin
  2
*D412
 70
     1
 71
     0
 10
0.0
 20
0.0
 30
0.0
  3
*D412
  1

  0
LINE
  5
14F
330
14E
100
AcDbEntity
  8
1
  6
Continuous
 62
     2
100
AcDbLine
 10
119.9458280065813
 20
141.8241619740233
 30
0.0
 11
119.9458280065813
 21
171.8241619740233
 31
0.0
  0
LINE
  5
150
330
14E
100
AcDbEntity
  8
1
  6
Continuous
 62
     2
100
AcDbLine
 10
138.4451421136591
 20
171.8241619740233
 30
0.0
 11
118.4458280065813
 21
171.8241619740233
 31
0.0
  0
LINE
  5
151
330
14E
100
AcDbEntity
  8
1
  6
Continuous
 62
     2
100
AcDbLine
 10
134.9458280065813
 20
141.8241619740233
 30
0.0
 11
118.4458280065813
 21
141.8241619740233
 31
0.0
  0
SOLID
  5
152
330
14E
100
AcDbEntity
  8
1
 62
     2
100
AcDbTrace
 10
119.2546523942475
 20
147.0741619740233
 30
0.0
 11
120.6370036189151
 21
147.0741619740233
 31
0.0
 12
119.9458280065813
 22
141.8241619740233
 32
0.0
 13
119.9458280065813
 23
141.8241619740233
 33
0.0
  0
SOLID
  5
153
330
14E
100
AcDbEntity
  8
1
 62
     2
100
AcDbTrace
 10
120.6370036189151
 20
166.5741619740233
 30
0.0
 11
119.2546523942475
 21
166.5741619740233
 31
0.0
 12
119.9458280065813
 22
171.8241619740233
 32
0.0
 13
119.9458280065813
 23
171.8241619740233
 33
0.0
  0
MTEXT
  5
154
330
14E
100
AcDbEntity
  8
1
 62
     7
100
AcDbMText
 10
118.4458280065813
 20
152.8866619740233
 30
0.0
 40
5.25
 41
0.0
 71
     7
 72
     1
  1
30
  7
CONVERTER_2
 11
0.0
 21
1.0
 31
0.0
 73
     1
 44
0.60024009603842
  0
ENDBLK
  5
156
330
14E
100
AcDbEntity
  8
0
100
AcDbBlockEnd
  0
BLOCK
  5
160
330
159
100
AcDbEntity
  8
0
100
AcDbBlockBegin
  2
*D513
 70
     1
 71
     0
 10
0.0
 20
0.0
 30
0.0
  3
*D513
  1

  0
LINE
  5
15A
330
159
100
AcDbEntity
  8
1
  6
Continuous
 62
     2
100
AcDbLine
 10
49.32134105064318
 20
171.8241619740233
 30
0.0
 11
49.32134105064318
 21
120.8241619740233
 31
0.0
  0
LINE
  5
15B
330
159
100
AcDbEntity
  8
1
  6
Continuous
 62
     2
100
AcDbLine
 10
61.32134105064321
 20
171.8241619740233
 30
0.0
 11
47.82134105064318
 21
171.8241619740233
 31
0.0
  0
LINE
  5
15C
330
159
100
AcDbEntity
  8
1
  6
Continuous
 62
     2
100
AcDbLine
 10
79.82134105064321
 20
120.8241619740233
 30
0.0
 11
47.82134105064318
 21
120.8241619740233
 31
0.0
  0
SOLID
  5
15D
330
159
100
AcDbEntity
  8
1
 62
     2
100
AcDbTrace
 10
50.01251666297701
 20
166.5741619740233
 30
0.0
 11
48.63016543830935
 21
166.5741619740233
 31
0.0
 12
49.32134105064318
 22
171.8241619740233
 32
0.0
 13
49.32134105064318
 23
171.8241619740233
 33
0.0
  0
SOLID
  5
15E
330
159
100
AcDbEntity
  8
1
 62
     2
100
AcDbTrace
 10
48.63016543830935
 20
126.0741619740233
 30
0.0
 11
50.01251666297701
 21
126.0741619740233
 31
0.0
 12
49.32134105064318
 22
120.8241619740233
 32
0.0
 13
49.32134105064318
 23
120.8241619740233
 33
0.0
  0
MTEXT
  5
15F
330
159
100
AcDbEntity
  8
1
 62
     7
100
AcDbMText
 10
47.82134105064318
 20
125.8491619740233
 30
0.0
 40
5.25
 41
0.0
 71
     7
 72
     1
  1
最大59 最小51
  7
CONVERTER_1
 11
0.0
 21
1.0
 31
0.0
 73
     1
 44
0.60024009603842
  0
ENDBLK
  5
161
330
159
100
AcDbEntity
  8
0
100
AcDbBlockEnd
  0
ENDSEC
  0
SECTION
  2
ENTITIES
  0
INSERT
  5
49
330
1F
100
AcDbEntity
  8
1
100
AcDbBlockReference
  2
_J__A4
 10
0.0
 20
0.0
 30
0.0
 41
1.5
 42
1.5
 43
1.5
  0
INSERT
  5
4A
330
1F
100
AcDbEntity
  8
0
100
AcDbBlockReference
  2
Y40-0
 10
178.3339439584434
 20
179.6164114729591
 30
0.0
  0
INSERT
  5
4B
330
1F
100
AcDbEntity
  8
1
100
AcDbBlockReference
  2
31-13
 10
203.4458280065813
 20
179.3669101754622
 30
0.0
  0
INSERT
  5
4C
330
1F
100
AcDbEntity
  8
1
100
AcDbBlockReference
  2
34-17
 10
575.3762309205389
 20
234.0025959826735
 30
0.0
  0
INSERT
  5
4D
330
1F
100
AcDbEntity
  8
0
100
AcDbBlockReference
  2
36-7X
 10
275.729465253093
 20
-59.84202047225611
 30
0.0
  0
LINE
  5
10D
330
1F
100
AcDbEntity
  8
1
  6
DASH_CENTER
 62
     2
100
AcDbLine
 10
79.82134105064321
 20
120.8241619740233
 30
0.0
 11
94.82134105064321
 21
120.8241619740233
 31
0.0
  0
LINE
  5
10E
330
1F
100
AcDbEntity
  8
1
  6
DASH_CENTER
 62
     2
100
AcDbLine
 10
61.32134105064321
 20
171.8241619740233
 30
0.0
 11
113.3213410506432
 21
171.8241619740233
 31
0.0
  0
LINE
  5
10F
330
1F
100
AcDbEntity
  8
1
  6
DASH_CENTER
 62
     2
100
AcDbLine
 10
87.32134105064321
 20
197.8241619740233
 30
0.0
 11
87.32134105064321
 21
112.5241619740234
 31
0.0
  0
LINE
  5
110
330
1F
100
AcDbEntity
  8
1
  6
DASH_CENTER
 62
     2
100
AcDbLine
 10
152.9458280065813
 20
112.524162437585
 30
0.0
 11
152.9458280065813
 21
182.0597059961512
 31
0.0
  0
LINE
  5
111
330
1F
100
AcDbEntity
  8
1
  6
DASH_CENTER
 62
     2
100
AcDbLine
 10
274.9836345383343
 20
171.8241619740233
 30
0.0
 11
138.4451421136591
 21
171.8241619740233
 31
0.0
  0
LINE
  5
112
330
1F
100
AcDbEntity
  8
1
  6
DASH_CENTER
 62
     2
100
AcDbLine
 10
169.9918711720488
 20
120.8241619740233
 30
0.0
 11
136.2796409562216
 21
120.8241619740233
 31
0.0
  0
LINE
  5
113
330
1F
100
AcDbEntity
  8
1
  6
DASH_CENTER
 62
     2
100
AcDbLine
 10
87.32134105064321
 20
257.5152411466104
 30
0.0
 11
87.32134105064321
 21
400.5530476783634
 31
0.0
  0
LINE
  5
114
330
1F
100
AcDbEntity
  8
1
  6
DASH_CENTER
 62
     2
100
AcDbLine
 10
108.3213410506432
 20
278.5152411466104
 30
0.0
 11
66.32134105064321
 21
278.5152411466104
 31
0.0
  0
SOLID
  5
115
330
1F
100
AcDbEntity
  8
1
 62
     2
100
AcDbTrace
 10
266.4722523678239
 20
187.2163831500585
 30
0.0
 11
267.6694036453386
 21
186.5252075377247
 31
0.0
 12
264.4458280065813
 22
182.3241619740233
 32
0.0
 13
264.4458280065813
 23
182.3241619740233
 33
0.0
  0
LEADER
  5
116
330
1F
100
AcDbEntity
  8
1
  6
Continuous
 62
     2
100
AcDbLeader
  3
Standard
 71
     0
 76
     3
 10
264.4458280065813
 20
182.3241619740233
 30
0.0
 10
277.7248841979426
 20
205.3241619740233
 30
0.0
 10
252.285611906424
 20
205.3241619740233
 30
0.0
  0
MTEXT
  5
118
330
1F
100
AcDbEntity
  8
1
 62
     7
100
AcDbMText
 10
140.625
 20
25.5
 30
0.0
 40
5.25
 41
0.0
 71
     5
 72
     1
  1
1,5
  7
CONVERTER_2
 73
     1
 44
1.32052821128451
  0
MTEXT
  5
119
330
1F
100
AcDbEntity
  8
1
 62
     7
100
AcDbMText
 10
127.875
 20
25.5
 30
0.0
 40
5.25
 41
0.0
 71
     5
 72
     1
  1
1
  7
CONVERTER_2
 73
     1
 44
1.32052821128451
  0
MTEXT
  5
11A
330
1F
100
AcDbEntity
  8
1
 62
     7
100
AcDbMText
 10
85.5
 20
21.375
 30
0.0
 40
5.25
 41
0.0
 71
     5
 72
     1
  1
Y40J-13
  7
CONVERTER_2
 73
     1
 44
0.90036014405762
  0
MTEXT
  5
11B
330
1F
100
AcDbEntity
  8
1
 62
     7
100
AcDbMText
 10
85.5
 20
34.12500000000001
 30
0.0
 40
5.25
 41
0.0
 71
     5
 72
     1
  1
衛生水栓
  7
CONVERTER_1
 73
     1
 44
1.32052821128451
  0
MTEXT
  5
11C
330
1F
100
AcDbEntity
  8
1
 62
     7
100
AcDbMText
 10
51.0
 20
51.00000000000001
 30
0.0
 40
5.25
 41
0.0
 71
     4
 72
     1
  1
JIS
  7
CONVERTER_2
 73
     1
 44
0.7202881152461
  0
MTEXT
  5
11D
330
1F
100
AcDbEntity
  8
1
 62
     7
100
AcDbMText
 10
265.0052480521833
 20
209.8241619740233
 30
0.0
 40
5.25
 41
0.0
 71
     5
 72
     1
  1
PJ1/2
  7
CONVERTER_2
 73
     1
 44
1.32052821128451
  0
DIMENSION
  5
128
330
1F
100
AcDbEntity
  8
1
100
AcDbDimension
  2
*D07
 10
286.9458280065812
 20
148.8241619740233
 30
0.0
 11
282.8208280065812
 21
171.8241619740233
 31
0.0
  1
<>
 71
     5
 42
0.0
 53
90.0
  3
ME10_DIM_0
100
AcDbAlignedDimension
 13
257.9458280065813
 23
194.8241619740233
 33
0.0
 14
257.9458280065813
 24
148.8241619740233
 34
0.0
 50
90.0
100
AcDbRotatedDimension
  0
DIMENSION
  5
136
330
1F
100
AcDbEntity
  8
1
100
AcDbDimension
  2
*D18
 10
257.9458280065813
 20
88.52422884464583
 30
0.0
 11
264.9458280065812
 21
92.64922884464583
 31
0.0
  1
<>
 71
     5
 42
0.0
 53
0.00013888888889
  3
ME10_DIM_1
100
AcDbAlignedDimension
 13
271.9458280065812
 23
162.3241619740233
 33
0.0
 14
257.9458280065813
 24
148.8241619740233
 34
0.0
100
AcDbRotatedDimension
  0
DIMENSION
  5
142
330
1F
100
AcDbEntity
  8
1
100
AcDbDimension
  2
*D210
 10
152.9458280065813
 20
88.52422884464583
 30
0.0
 11
205.4458280065813
 21
92.64922884464583
 31
0.0
  1
<>
 71
     5
 42
0.0
 53
0.00013888888889
  3
ME10_DIM_2
100
AcDbAlignedDimension
 13
257.9458280065813
 23
148.8241619740233
 33
0.0
 14
152.9458280065813
 24
112.524162437585
 34
0.0
100
AcDbRotatedDimension
  0
DIMENSION
  5
14D
330
1F
100
AcDbEntity
  8
1
100
AcDbDimension
  2
*D311
 10
136.6958280065813
 20
100.5242288446458
 30
0.0
 11
152.9458280065813
 21
104.6492288446458
 31
0.0
  1
33
 71
     5
 42
0.0
 53
0.00013888888889
  3
ME10_DIM_3
100
AcDbAlignedDimension
 13
169.1958280065813
 23
120.8241619740233
 33
0.0
 14
136.6958280065813
 24
120.8241619740233
 34
0.0
100
AcDbRotatedDimension
  0
DIMENSION
  5
158
330
1F
100
AcDbEntity
  8
1
100
AcDbDimension
  2
*D412
 10
119.9458280065813
 20
141.8241619740233
 30
0.0
 11
115.8208280065813
 21
156.8241619740233
 31
0.0
  1
<>
 71
     5
 42
0.0
 53
90.0
  3
ME10_DIM_4
100
AcDbAlignedDimension
 13
138.4451421136591
 23
171.8241619740233
 33
0.0
 14
134.9458280065813
 24
141.8241619740233
 34
0.0
 50
90.0
100
AcDbRotatedDimension
  0
DIMENSION
  5
163
330
1F
100
AcDbEntity
  8
1
100
AcDbDimension
  2
*D513
 10
49.32134105064318
 20
171.8241619740233
 30
0.0
 11
45.19634105064318
 21
146.3241619740233
 31
0.0
  1
最大59 最小51
 71
     5
 42
0.0
 53
90.0
  3
ME10_DIM_5
100
AcDbAlignedDimension
 13
79.82134105064321
 23
120.8241619740233
 33
0.0
 14
61.32134105064321
 24
171.8241619740233
 34
0.0
 50
90.0
100
AcDbRotatedDimension
  0
ENDSEC
  0
SECTION
  2
OBJECTS
  0
DICTIONARY
  5
C
330
0
100
AcDbDictionary
281
     1
  3
ACAD_GROUP
350
D
  3
ACAD_LAYOUT
350
1A
  3
ACAD_MLINESTYLE
350
17
  3
ACAD_PLOTSETTINGS
350
19
  3
ACAD_PLOTSTYLENAME
350
E
  3
ACAD_TABLESTYLE
350
2A
  3
AcDbVariableDictionary
350
2C
  0
DICTIONARY
  5
D
102
{ACAD_REACTORS
330
C
102
}
330
C
100
AcDbDictionary
281
     1
  0
DICTIONARY
  5
1A
102
{ACAD_REACTORS
330
C
102
}
330
C
100
AcDbDictionary
281
     1
  3
Layout1
350
1E
  3
Layout2
350
26
  3
Model
350
22
  0
DICTIONARY
  5
17
102
{ACAD_REACTORS
330
C
102
}
330
C
100
AcDbDictionary
281
     1
  3
Standard
350
18
  0
DICTIONARY
  5
19
102
{ACAD_REACTORS
330
C
102
}
330
C
100
AcDbDictionary
281
     1
  0
ACDBDICTIONARYWDFLT
  5
E
102
{ACAD_REACTORS
330
C
102
}
330
C
100
AcDbDictionary
281
     1
  3
Normal
350
F
100
AcDbDictionaryWithDefault
340
F
  0
DICTIONARY
  5
2A
102
{ACAD_REACTORS
330
C
102
}
330
C
100
AcDbDictionary
281
     1
  3
Standard
350
2B
  0
DICTIONARY
  5
2C
102
{ACAD_REACTORS
330
C
102
}
330
C
100
AcDbDictionary
281
     1
  3
CTABLESTYLE
350
2D
  0
LAYOUT
  5
1E
102
{ACAD_REACTORS
330
1A
102
}
330
1A
100
AcDbPlotSettings
  1

  2

  4

  6

 40
0.0
 41
0.0
 42
0.0
 43
0.0
 44
0.0
 45
0.0
 46
0.0
 47
0.0
 48
0.0
 49
0.0
140
0.0
141
0.0
142
1.0
143
1.0
 70
   688
 72
     0
 73
     0
 74
     5
  7

 75
    16
147
1.0
148
0.0
149
0.0
100
AcDbLayout
  1
Layout1
 70
     1
 71
     1
 10
0.0
 20
0.0
 11
12.0
 21
9.0
 12
0.0
 22
0.0
 32
0.0
 14
1.00000000000000E+20
 24
1.00000000000000E+20
 34
1.00000000000000E+20
 15
-1.00000000000000E+20
 25
-1.00000000000000E+20
 35
-1.00000000000000E+20
146
0.0
 13
0.0
 23
0.0
 33
0.0
 16
1.0
 26
0.0
 36
0.0
 17
0.0
 27
1.0
 37
0.0
 76
     0
330
1B
  0
LAYOUT
  5
26
102
{ACAD_REACTORS
330
1A
102
}
330
1A
100
AcDbPlotSettings
  1

  2

  4

  6

 40
0.0
 41
0.0
 42
0.0
 43
0.0
 44
0.0
 45
0.0
 46
0.0
 47
0.0
 48
0.0
 49
0.0
140
0.0
141
0.0
142
1.0
143
1.0
 70
   688
 72
     0
 73
     0
 74
     5
  7

 75
    16
147
1.0
148
0.0
149
0.0
100
AcDbLayout
  1
Layout2
 70
     1
 71
     2
 10
0.0
 20
0.0
 11
0.0
 21
0.0
 12
0.0
 22
0.0
 32
0.0
 14
0.0
 24
0.0
 34
0.0
 15
0.0
 25
0.0
 35
0.0
146
0.0
 13
0.0
 23
0.0
 33
0.0
 16
1.0
 26
0.0
 36
0.0
 17
0.0
 27
1.0
 37
0.0
 76
     0
330
23
  0
LAYOUT
  5
22
102
{ACAD_REACTORS
330
1A
102
}
330
1A
100
AcDbPlotSettings
  1

  2

  4

  6

 40
0.0
 41
0.0
 42
0.0
 43
0.0
 44
0.0
 45
0.0
 46
0.0
 47
0.0
 48
0.0
 49
0.0
140
0.0
141
0.0
142
1.0
143
1.0
 70
  1712
 72
     0
 73
     0
 74
     0
  7

 75
     0
147
1.0
148
0.0
149
0.0
100
AcDbLayout
  1
Model
 70
     1
 71
     0
 10
0.0
 20
0.0
 11
0.0
 21
0.0
 12
0.0
 22
0.0
 32
0.0
 14
0.0
 24
0.0
 34
0.0
 15
315.0
 25
445.5
 35
0.0
146
0.0
 13
0.0
 23
0.0
 33
0.0
 16
1.0
 26
0.0
 36
0.0
 17
0.0
 27
1.0
 37
0.0
 76
     0
330
1F
  0
MLINESTYLE
  5
18
102
{ACAD_REACTORS
330
17
102
}
330
17
100
AcDbMlineStyle
  2
Standard
 70
     0
  3

 62
   256
 51
90.0
 52
90.0
 71
     2
 49
0.5
 62
   256
  6
BYLAYER
 49
-0.5
 62
   256
  6
BYLAYER
  0
ACDBPLACEHOLDER
  5
F
102
{ACAD_REACTORS
330
E
102
}
330
E
  0
TABLESTYLE
  5
2B
102
{ACAD_REACTORS
330
2A
102
}
330
2A
100
AcDbTableStyle
  3
Standard
 70
     0
 71
     0
 40
0.06
 41
0.06
280
     0
281
     0
  7
Standard
140
0.18
170
     2
 62
     0
 63
     7
283
     0
274
    -2
284
     1
 64
     0
275
    -2
285
     1
 65
     0
276
    -2
286
     1
 66
     0
277
    -2
287
     1
 67
     0
278
    -2
288
     1
 68
     0
279
    -2
289
     1
 69
     0
  7
Standard
140
0.25
170
     5
 62
     0
 63
     7
283
     0
274
    -2
284
     1
 64
     0
275
    -2
285
     1
 65
     0
276
    -2
286
     1
 66
     0
277
    -2
287
     1
 67
     0
278
    -2
288
     1
 68
     0
279
    -2
289
     1
 69
     0
  7
Standard
140
0.18
170
     5
 62
     0
 63
     7
283
     0
274
    -2
284
     1
 64
     0
275
    -2
285
     1
 65
     0
276
    -2
286
     1
 66
     0
277
    -2
287
     1
 67
     0
278
    -2
288
     1
 68
     0
279
    -2
289
     1
 69
     0
  0
DICTIONARYVAR
  5
2D
102
{ACAD_REACTORS
330
2C
102
}
330
2C
100
DictionaryVariables
280
     0
  1
Standard
  0
ENDSEC
  0
EOF
