  0
SECTION
  2
HEADER
  9
$ACADVER
  1
AC1015
  9
$ACADMAINTVER
 70
     6
  9
$DWGCODEPAGE
  3
DOS932
  9
$INSBASE
 10
0.0
 20
0.0
 30
0.0
  9
$EXTMIN
 10
0.0
 20
0.0
 30
0.0
  9
$EXTMAX
 10
735.0
 20
1039.5
 30
0.0
  9
$LIMMIN
 10
0.0
 20
0.0
  9
$LIMMAX
 10
12.0
 20
9.0
  9
$ORTHOMODE
 70
     0
  9
$REGENMODE
 70
     1
  9
$FILLMODE
 70
     1
  9
$QTEXTMODE
 70
     0
  9
$MIRRTEXT
 70
     1
  9
$LTSCALE
 40
1.0
  9
$ATTMODE
 70
     1
  9
$TEXTSIZE
 40
0.2
  9
$TRACEWID
 40
0.05
  9
$TEXTSTYLE
  7
Standard
  9
$CLAYER
  8
0
  9
$CELTYPE
  6
ByLayer
  9
$CECOLOR
 62
   256
  9
$CELTSCALE
 40
1.0
  9
$DISPSILH
 70
     0
  9
$DIMSCALE
 40
1.0
  9
$DIMASZ
 40
0.18
  9
$DIMEXO
 40
0.0625
  9
$DIMDLI
 40
0.38
  9
$DIMRND
 40
0.0
  9
$DIMDLE
 40
0.0
  9
$DIMEXE
 40
0.18
  9
$DIMTP
 40
0.0
  9
$DIMTM
 40
0.0
  9
$DIMTXT
 40
0.18
  9
$DIMCEN
 40
0.09
  9
$DIMTSZ
 40
0.0
  9
$DIMTOL
 70
     0
  9
$DIMLIM
 70
     0
  9
$DIMTIH
 70
     1
  9
$DIMTOH
 70
     1
  9
$DIMSE1
 70
     0
  9
$DIMSE2
 70
     0
  9
$DIMTAD
 70
     0
  9
$DIMZIN
 70
     0
  9
$DIMBLK
  1

  9
$DIMASO
 70
     1
  9
$DIMSHO
 70
     1
  9
$DIMPOST
  1

  9
$DIMAPOST
  1

  9
$DIMALT
 70
     0
  9
$DIMALTD
 70
     2
  9
$DIMALTF
 40
25.4
  9
$DIMLFAC
 40
1.0
  9
$DIMTOFL
 70
     0
  9
$DIMTVP
 40
0.0
  9
$DIMTIX
 70
     0
  9
$DIMSOXD
 70
     0
  9
$DIMSAH
 70
     0
  9
$DIMBLK1
  1

  9
$DIMBLK2
  1

  9
$DIMSTYLE
  2
Standard
  9
$DIMCLRD
 70
     0
  9
$DIMCLRE
 70
     0
  9
$DIMCLRT
 70
     0
  9
$DIMTFAC
 40
1.0
  9
$DIMGAP
 40
0.09
  9
$DIMJUST
 70
     0
  9
$DIMSD1
 70
     0
  9
$DIMSD2
 70
     0
  9
$DIMTOLJ
 70
     1
  9
$DIMTZIN
 70
     0
  9
$DIMALTZ
 70
     0
  9
$DIMALTTZ
 70
     0
  9
$DIMUPT
 70
     0
  9
$DIMDEC
 70
     4
  9
$DIMTDEC
 70
     4
  9
$DIMALTU
 70
     2
  9
$DIMALTTD
 70
     2
  9
$DIMTXSTY
  7
Standard
  9
$DIMAUNIT
 70
     0
  9
$DIMADEC
 70
     0
  9
$DIMALTRND
 40
0.0
  9
$DIMAZIN
 70
     0
  9
$DIMDSEP
 70
    46
  9
$DIMATFIT
 70
     3
  9
$DIMFRAC
 70
     0
  9
$DIMLDRBLK
  1

  9
$DIMLUNIT
 70
     2
  9
$DIMLWD
 70
    -2
  9
$DIMLWE
 70
    -2
  9
$DIMTMOVE
 70
     0
  9
$LUNITS
 70
     2
  9
$LUPREC
 70
     4
  9
$SKETCHINC
 40
0.1
  9
$FILLETRAD
 40
0.5
  9
$AUNITS
 70
     0
  9
$AUPREC
 70
     0
  9
$MENU
  1
.
  9
$ELEVATION
 40
0.0
  9
$PELEVATION
 40
0.0
  9
$THICKNESS
 40
0.0
  9
$LIMCHECK
 70
     0
  9
$CHAMFERA
 40
0.5
  9
$CHAMFERB
 40
0.5
  9
$CHAMFERC
 40
1.0
  9
$CHAMFERD
 40
0.0
  9
$SKPOLY
 70
     0
  9
$TDCREATE
 40
2456136.723072917
  9
$TDUCREATE
 40
2456136.348072917
  9
$TDUPDATE
 40
2456136.723072928
  9
$TDUUPDATE
 40
2456136.348072928
  9
$TDINDWG
 40
0.0000000116
  9
$TDUSRTIMER
 40
0.0000000116
  9
$USRTIMER
 70
     1
  9
$ANGBASE
 50
0.0
  9
$ANGDIR
 70
     0
  9
$PDMODE
 70
     0
  9
$PDSIZE
 40
0.0
  9
$PLINEWID
 40
0.0
  9
$SPLFRAME
 70
     0
  9
$SPLINETYPE
 70
     6
  9
$SPLINESEGS
 70
     8
  9
$HANDSEED
  5
385
  9
$SURFTAB1
 70
     6
  9
$SURFTAB2
 70
     6
  9
$SURFTYPE
 70
     6
  9
$SURFU
 70
     6
  9
$SURFV
 70
     6
  9
$UCSBASE
  2

  9
$UCSNAME
  2

  9
$UCSORG
 10
0.0
 20
0.0
 30
0.0
  9
$UCSXDIR
 10
1.0
 20
0.0
 30
0.0
  9
$UCSYDIR
 10
0.0
 20
1.0
 30
0.0
  9
$UCSORTHOREF
  2

  9
$UCSORTHOVIEW
 70
     0
  9
$UCSORGTOP
 10
0.0
 20
0.0
 30
0.0
  9
$UCSORGBOTTOM
 10
0.0
 20
0.0
 30
0.0
  9
$UCSORGLEFT
 10
0.0
 20
0.0
 30
0.0
  9
$UCSORGRIGHT
 10
0.0
 20
0.0
 30
0.0
  9
$UCSORGFRONT
 10
0.0
 20
0.0
 30
0.0
  9
$UCSORGBACK
 10
0.0
 20
0.0
 30
0.0
  9
$PUCSBASE
  2

  9
$PUCSNAME
  2

  9
$PUCSORG
 10
0.0
 20
0.0
 30
0.0
  9
$PUCSXDIR
 10
1.0
 20
0.0
 30
0.0
  9
$PUCSYDIR
 10
0.0
 20
1.0
 30
0.0
  9
$PUCSORTHOREF
  2

  9
$PUCSORTHOVIEW
 70
     0
  9
$PUCSORGTOP
 10
0.0
 20
0.0
 30
0.0
  9
$PUCSORGBOTTOM
 10
0.0
 20
0.0
 30
0.0
  9
$PUCSORGLEFT
 10
0.0
 20
0.0
 30
0.0
  9
$PUCSORGRIGHT
 10
0.0
 20
0.0
 30
0.0
  9
$PUCSORGFRONT
 10
0.0
 20
0.0
 30
0.0
  9
$PUCSORGBACK
 10
0.0
 20
0.0
 30
0.0
  9
$USERI1
 70
     0
  9
$USERI2
 70
     0
  9
$USERI3
 70
     0
  9
$USERI4
 70
     0
  9
$USERI5
 70
     0
  9
$USERR1
 40
13.2
  9
$USERR2
 40
0.0
  9
$USERR3
 40
0.0
  9
$USERR4
 40
0.0
  9
$USERR5
 40
0.0
  9
$WORLDVIEW
 70
     1
  9
$SHADEDGE
 70
     3
  9
$SHADEDIF
 70
    70
  9
$TILEMODE
 70
     1
  9
$MAXACTVP
 70
    64
  9
$PINSBASE
 10
0.0
 20
0.0
 30
0.0
  9
$PLIMCHECK
 70
     0
  9
$PEXTMIN
 10
1.00000000000000E+20
 20
1.00000000000000E+20
 30
1.00000000000000E+20
  9
$PEXTMAX
 10
-1.00000000000000E+20
 20
-1.00000000000000E+20
 30
-1.00000000000000E+20
  9
$PLIMMIN
 10
0.0
 20
0.0
  9
$PLIMMAX
 10
12.0
 20
9.0
  9
$UNITMODE
 70
     0
  9
$VISRETAIN
 70
     1
  9
$PLINEGEN
 70
     0
  9
$PSLTSCALE
 70
     1
  9
$TREEDEPTH
 70
  3020
  9
$CMLSTYLE
  2
Standard
  9
$CMLJUST
 70
     0
  9
$CMLSCALE
 40
1.0
  9
$PROXYGRAPHICS
 70
     1
  9
$MEASUREMENT
 70
     1
  9
$CELWEIGHT
370
    -1
  9
$ENDCAPS
280
     0
  9
$JOINSTYLE
280
     0
  9
$LWDISPLAY
290
     0
  9
$INSUNITS
 70
     1
  9
$HYPERLINKBASE
  1

  9
$STYLESHEET
  1

  9
$XEDIT
290
     1
  9
$CEPSNTYPE
380
     0
  9
$PSTYLEMODE
290
     0
  9
$FINGERPRINTGUID
  2
{FAEB1C30-E019-11D5-929B-00C0DF256EC4}
  9
$VERSIONGUID
  2
{FAEB1C32-E019-11D5-929B-00C0DF256EC4}
  9
$EXTNAMES
290
     1
  9
$PSVPSCALE
 40
0.0
  9
$OLESTARTUP
290
     0
  0
ENDSEC
  0
SECTION
  2
CLASSES
  0
CLASS
  1
ACDBDICTIONARYWDFLT
  2
AcDbDictionaryWithDefault
  3
ObjectDBX Classes
 90
        0
280
     0
281
     0
  0
CLASS
  1
TABLESTYLE
  2
AcDbTableStyle
  3
ObjectDBX Classes
 90
     2047
280
     0
281
     0
  0
CLASS
  1
DICTIONARYVAR
  2
AcDbDictionaryVar
  3
ObjectDBX Classes
 90
        0
280
     0
281
     0
  0
CLASS
  1

  2
exOdDbCircle
  3

 90
        0
280
     0
281
     1
  0
CLASS
  1

  2
exOdDbSpline
  3

 90
        0
280
     0
281
     1
  0
CLASS
  1
ACDBPLACEHOLDER
  2
AcDbPlaceHolder
  3
ObjectDBX Classes
 90
        0
280
     0
281
     0
  0
CLASS
  1
LAYOUT
  2
AcDbLayout
  3
ObjectDBX Classes
 90
        0
280
     0
281
     0
  0
ENDSEC
  0
SECTION
  2
TABLES
  0
TABLE
  2
VPORT
  5
8
330
0
100
AcDbSymbolTable
 70
     2
  0
VPORT
  5
29
330
8
100
AcDbSymbolTableRecord
100
AcDbViewportTableRecord
  2
*Active
 70
     0
 10
0.0
 20
0.0
 11
1.0
 21
1.0
 12
367.5
 22
519.75
 13
0.0
 23
0.0
 14
0.5
 24
0.5
 15
0.5
 25
0.5
 16
0.0
 26
0.0
 36
1.0
 17
0.0
 27
0.0
 37
0.0
 40
1143.45
 41
1.60267857142857
 42
50.0
 43
0.0
 44
0.0
 50
0.0
 51
0.0
 71
     0
 72
   100
 73
     1
 74
     3
 75
     0
 76
     0
 77
     0
 78
     0
281
     0
 65
     1
110
0.0
120
0.0
130
0.0
111
1.0
121
0.0
131
0.0
112
0.0
122
1.0
132
0.0
 79
     0
146
0.0
  0
ENDTAB
  0
TABLE
  2
LTYPE
  5
5
330
0
100
AcDbSymbolTable
 70
     8
  0
LTYPE
  5
14
330
5
100
AcDbSymbolTableRecord
100
AcDbLinetypeTableRecord
  2
ByBlock
 70
     0
  3

 72
    65
 73
     0
 40
0.0
  0
LTYPE
  5
15
330
5
100
AcDbSymbolTableRecord
100
AcDbLinetypeTableRecord
  2
ByLayer
 70
     0
  3

 72
    65
 73
     0
 40
0.0
  0
LTYPE
  5
16
330
5
100
AcDbSymbolTableRecord
100
AcDbLinetypeTableRecord
  2
Continuous
 70
     0
  3
Solid line
 72
    65
 73
     0
 40
0.0
  0
LTYPE
  5
2E
330
5
100
AcDbSymbolTableRecord
100
AcDbLinetypeTableRecord
  2
DASHED
 70
     0
  3
Dashed
 72
    65
 73
     2
 40
15.0
 49
7.0
 74
     0
 49
-8.0
 74
     0
  0
LTYPE
  5
2F
330
5
100
AcDbSymbolTableRecord
100
AcDbLinetypeTableRecord
  2
DOTTED
 70
     0
  3
Dotted
 72
    65
 73
     2
 40
1.0
 49
0.0
 74
     0
 49
-1.0
 74
     0
  0
LTYPE
  5
30
330
5
100
AcDbSymbolTableRecord
100
AcDbLinetypeTableRecord
  2
DOT_CENTER
 70
     0
  3
Dot_Center
 72
    65
 73
     4
 40
14.0
 49
12.0
 74
     0
 49
-1.0
 74
     0
 49
0.0
 74
     0
 49
-1.0
 74
     0
  0
LTYPE
  5
31
330
5
100
AcDbSymbolTableRecord
100
AcDbLinetypeTableRecord
  2
LONG_DASHED
 70
     0
  3
Long_Dashed
 72
    65
 73
     2
 40
15.0
 49
10.0
 74
     0
 49
-5.0
 74
     0
  0
LTYPE
  5
32
330
5
100
AcDbSymbolTableRecord
100
AcDbLinetypeTableRecord
  2
DASH_CENTER
 70
     0
  3
Dash_Center
 72
    65
 73
     4
 40
14.0
 49
11.0
 74
     0
 49
-1.0
 74
     0
 49
1.0
 74
     0
 49
-1.0
 74
     0
  0
LTYPE
  5
33
330
5
100
AcDbSymbolTableRecord
100
AcDbLinetypeTableRecord
  2
PHANTOM
 70
     0
  3
Phantom
 72
    65
 73
     6
 40
13.0
 49
10.0
 74
     0
 49
-1.0
 74
     0
 49
0.0
 74
     0
 49
-1.0
 74
     0
 49
0.0
 74
     0
 49
-1.0
 74
     0
  0
LTYPE
  5
34
330
5
100
AcDbSymbolTableRecord
100
AcDbLinetypeTableRecord
  2
CENTER_DASH_DASH
 70
     0
  3
Center_Dash_Dash
 72
    65
 73
     6
 40
14.0
 49
9.0
 74
     0
 49
-1.0
 74
     0
 49
1.0
 74
     0
 49
-1.0
 74
     0
 49
1.0
 74
     0
 49
-1.0
 74
     0
  0
ENDTAB
  0
TABLE
  2
LAYER
  5
2
330
0
100
AcDbSymbolTable
 70
     2
  0
LAYER
  5
10
330
2
100
AcDbSymbolTableRecord
100
AcDbLayerTableRecord
  2
0
 70
     0
 62
     7
  6
Continuous
370
    -3
390
F
  0
LAYER
  5
35
330
2
100
AcDbSymbolTableRecord
100
AcDbLayerTableRecord
  2
1
 70
     0
 62
     7
  6
Continuous
370
    -3
390
F
  0
ENDTAB
  0
TABLE
  2
STYLE
  5
3
330
0
100
AcDbSymbolTable
 70
     3
  0
STYLE
  5
11
330
3
100
AcDbSymbolTableRecord
100
AcDbTextStyleTableRecord
  2
Standard
 70
     0
 40
0.0
 41
1.0
 50
0.0
 71
     0
 42
0.2
  3
txt
  4

  0
STYLE
  5
CD
330
3
100
AcDbSymbolTableRecord
100
AcDbTextStyleTableRecord
  2
CONVERTER_1
 70
     0
 40
0.0
 41
0.89
 50
0.0
 71
     0
 42
0.2
  3
msmincho.ttc
  4

1001
ACAD
1000
MS Mincho
1071
    32785
  0
STYLE
  5
318
330
3
100
AcDbSymbolTableRecord
100
AcDbTextStyleTableRecord
  2
CONVERTER_2
 70
     0
 40
0.0
 41
0.9
 50
0.0
 71
     0
 42
0.2
  3
txt.shx
  4

  0
ENDTAB
  0
TABLE
  2
VIEW
  5
6
330
0
100
AcDbSymbolTable
 70
     0
  0
ENDTAB
  0
TABLE
  2
UCS
  5
7
330
0
100
AcDbSymbolTable
 70
     0
  0
ENDTAB
  0
TABLE
  2
APPID
  5
9
330
0
100
AcDbSymbolTable
 70
     1
  0
APPID
  5
12
330
9
100
AcDbSymbolTableRecord
100
AcDbRegAppTableRecord
  2
ACAD
 70
     0
  0
ENDTAB
  0
TABLE
  2
DIMSTYLE
  5
A
330
0
100
AcDbSymbolTable
 70
    10
100
AcDbDimStyleTable
  0
DIMSTYLE
105
27
330
A
100
AcDbSymbolTableRecord
100
AcDbDimStyleTableRecord
  2
Standard
 70
     0
340
11
  0
DIMSTYLE
105
32B
102
{ACAD_REACTORS
330
32C
102
}
330
A
100
AcDbSymbolTableRecord
100
AcDbDimStyleTableRecord
  2
ME10_DIM_0
 70
     0
 41
12.25000000000001
 42
0.0
 44
3.5
 73
     0
 74
     0
 77
     1
 78
     8
140
12.25
147
0.625
172
     1
173
     1
176
     2
177
     2
178
     7
271
     2
340
318
  0
DIMSTYLE
105
336
102
{ACAD_REACTORS
330
337
102
}
330
A
100
AcDbSymbolTableRecord
100
AcDbDimStyleTableRecord
  2
ME10_DIM_1
 70
     0
 41
12.25000000000001
 42
0.0
 44
3.5
 73
     0
 74
     0
 77
     1
 78
     8
140
12.25
147
0.625
172
     1
173
     1
176
     2
177
     2
178
     7
271
     2
340
318
  0
DIMSTYLE
105
341
102
{ACAD_REACTORS
330
342
102
}
330
A
100
AcDbSymbolTableRecord
100
AcDbDimStyleTableRecord
  2
ME10_DIM_2
 70
     0
 41
12.25
 42
0.0
 44
3.5
 73
     0
 74
     0
 77
     1
 78
     8
140
12.25
147
0.625
172
     1
173
     1
176
     2
177
     2
178
     7
271
     2
340
318
  0
DIMSTYLE
105
34C
102
{ACAD_REACTORS
330
34D
102
}
330
A
100
AcDbSymbolTableRecord
100
AcDbDimStyleTableRecord
  2
ME10_DIM_3
 70
     0
 41
12.25
 42
0.0
 44
3.5
 73
     0
 74
     0
 77
     1
 78
     8
140
12.25
147
0.625
172
     1
173
     1
176
     2
177
     2
178
     7
271
     2
340
CD
  0
DIMSTYLE
105
357
102
{ACAD_REACTORS
330
358
102
}
330
A
100
AcDbSymbolTableRecord
100
AcDbDimStyleTableRecord
  2
ME10_DIM_4
 70
     0
  3
{\Fgdt;n}<>
 41
12.25
 42
0.0
 44
3.5
 73
     0
 74
     0
 77
     1
 78
     8
140
12.25
147
0.625
172
     1
173
     1
176
     2
177
     2
178
     7
271
     2
340
318
  0
DIMSTYLE
105
362
102
{ACAD_REACTORS
330
363
102
}
330
A
100
AcDbSymbolTableRecord
100
AcDbDimStyleTableRecord
  2
ME10_DIM_5
 70
     0
 41
12.25
 42
0.0
 44
3.5
 73
     0
 74
     0
 77
     1
 78
     8
140
12.25
147
0.625
172
     1
173
     1
176
     2
177
     2
178
     7
271
     2
340
318
  0
DIMSTYLE
105
36D
102
{ACAD_REACTORS
330
36E
102
}
330
A
100
AcDbSymbolTableRecord
100
AcDbDimStyleTableRecord
  2
ME10_DIM_6
 70
     0
 41
12.25000000000001
 42
0.0
 44
3.5
 73
     0
 74
     0
 77
     1
 78
     8
140
12.25
147
0.625
172
     1
173
     1
176
     2
177
     2
178
     7
271
     2
340
CD
  0
DIMSTYLE
105
378
102
{ACAD_REACTORS
330
379
102
}
330
A
100
AcDbSymbolTableRecord
100
AcDbDimStyleTableRecord
  2
ME10_DIM_7
 70
     0
 41
12.25
 42
0.0
 44
3.5
 73
     0
 74
     0
 77
     1
 78
     8
140
12.25
147
0.625
172
     1
173
     1
176
     2
177
     2
178
     7
271
     2
340
318
  0
DIMSTYLE
105
383
102
{ACAD_REACTORS
330
384
102
}
330
A
100
AcDbSymbolTableRecord
100
AcDbDimStyleTableRecord
  2
ME10_DIM_8
 70
     0
 41
12.25
 42
0.0
 44
3.5
 73
     0
 74
     0
 77
     1
 78
     8
140
12.25
147
0.625
172
     1
173
     1
176
     2
177
     2
178
     7
271
     2
340
318
  0
ENDTAB
  0
TABLE
  2
BLOCK_RECORD
  5
1
330
0
100
AcDbSymbolTable
 70
    29
  0
BLOCK_RECORD
  5
1F
330
1
100
AcDbSymbolTableRecord
100
AcDbBlockTableRecord
  2
*Model_Space
340
22
  0
BLOCK_RECORD
  5
1B
330
1
100
AcDbSymbolTableRecord
100
AcDbBlockTableRecord
  2
*Paper_Space
340
1E
  0
BLOCK_RECORD
  5
23
330
1
100
AcDbSymbolTableRecord
100
AcDbBlockTableRecord
  2
*Paper_Space0
340
26
  0
BLOCK_RECORD
  5
36
330
1
100
AcDbSymbolTableRecord
100
AcDbBlockTableRecord
  2
_J__A4
340
0
102
{BLKREFS
331
77
102
}
  0
BLOCK_RECORD
  5
39
330
1
100
AcDbSymbolTableRecord
100
AcDbBlockTableRecord
  2
K11-1-0
340
0
102
{BLKREFS
331
78
102
}
  0
BLOCK_RECORD
  5
3C
330
1
100
AcDbSymbolTableRecord
100
AcDbBlockTableRecord
  2
32-43A__1
340
0
102
{BLKREFS
331
49
102
}
  0
BLOCK_RECORD
  5
3F
330
1
100
AcDbSymbolTableRecord
100
AcDbBlockTableRecord
  2
32-43A__2
340
0
102
{BLKREFS
331
4A
102
}
  0
BLOCK_RECORD
  5
42
330
1
100
AcDbSymbolTableRecord
100
AcDbBlockTableRecord
  2
78-3AK__3
340
0
102
{BLKREFS
331
4B
102
}
  0
BLOCK_RECORD
  5
45
330
1
100
AcDbSymbolTableRecord
100
AcDbBlockTableRecord
  2
13-8-50K__4
340
0
102
{BLKREFS
331
4C
102
}
  0
BLOCK_RECORD
  5
48
330
1
100
AcDbSymbolTableRecord
100
AcDbBlockTableRecord
  2
U3-8X-50__5
340
0
102
{BLKREFS
331
79
102
}
  0
BLOCK_RECORD
  5
4F
330
1
100
AcDbSymbolTableRecord
100
AcDbBlockTableRecord
  2
60-1-16-170
340
0
102
{BLKREFS
331
56
102
}
  0
BLOCK_RECORD
  5
52
330
1
100
AcDbSymbolTableRecord
100
AcDbBlockTableRecord
  2
32-1-16
340
0
102
{BLKREFS
331
57
102
}
  0
BLOCK_RECORD
  5
55
330
1
100
AcDbSymbolTableRecord
100
AcDbBlockTableRecord
  2
A10J-60X-16
340
0
102
{BLKREFS
331
7A
102
}
  0
BLOCK_RECORD
  5
5A
330
1
100
AcDbSymbolTableRecord
100
AcDbBlockTableRecord
  2
78-3AK__6
340
0
102
{BLKREFS
331
61
102
}
  0
BLOCK_RECORD
  5
5D
330
1
100
AcDbSymbolTableRecord
100
AcDbBlockTableRecord
  2
13-8-50K__7
340
0
102
{BLKREFS
331
62
102
}
  0
BLOCK_RECORD
  5
60
330
1
100
AcDbSymbolTableRecord
100
AcDbBlockTableRecord
  2
U3-8X-50__8
340
0
102
{BLKREFS
331
7B
102
}
  0
BLOCK_RECORD
  5
65
330
1
100
AcDbSymbolTableRecord
100
AcDbBlockTableRecord
  2
84-34-R75
340
0
102
{BLKREFS
331
7C
102
}
  0
BLOCK_RECORD
  5
68
330
1
100
AcDbSymbolTableRecord
100
AcDbBlockTableRecord
  2
84-35-LH__9
340
0
102
{BLKREFS
331
7D
102
}
  0
BLOCK_RECORD
  5
6B
330
1
100
AcDbSymbolTableRecord
100
AcDbBlockTableRecord
  2
87-18-LH__10
340
0
102
{BLKREFS
331
7E
102
}
  0
BLOCK_RECORD
  5
6E
330
1
100
AcDbSymbolTableRecord
100
AcDbBlockTableRecord
  2
87-18-LH__11
340
0
102
{BLKREFS
331
7F
102
}
  0
BLOCK_RECORD
  5
71
330
1
100
AcDbSymbolTableRecord
100
AcDbBlockTableRecord
  2
84-34-B75
340
0
102
{BLKREFS
331
80
102
}
  0
BLOCK_RECORD
  5
74
330
1
100
AcDbSymbolTableRecord
100
AcDbBlockTableRecord
  2
84-35-LH__12
340
0
102
{BLKREFS
331
81
102
}
  0
BLOCK_RECORD
  5
322
330
1
100
AcDbSymbolTableRecord
100
AcDbBlockTableRecord
  2
*D020
340
0
  0
BLOCK_RECORD
  5
32D
330
1
100
AcDbSymbolTableRecord
100
AcDbBlockTableRecord
  2
*D121
340
0
  0
BLOCK_RECORD
  5
338
330
1
100
AcDbSymbolTableRecord
100
AcDbBlockTableRecord
  2
*D222
340
0
  0
BLOCK_RECORD
  5
343
330
1
100
AcDbSymbolTableRecord
100
AcDbBlockTableRecord
  2
*D323
340
0
  0
BLOCK_RECORD
  5
34E
330
1
100
AcDbSymbolTableRecord
100
AcDbBlockTableRecord
  2
*D424
340
0
  0
BLOCK_RECORD
  5
359
330
1
100
AcDbSymbolTableRecord
100
AcDbBlockTableRecord
  2
*D525
340
0
  0
BLOCK_RECORD
  5
364
330
1
100
AcDbSymbolTableRecord
100
AcDbBlockTableRecord
  2
*D626
340
0
  0
BLOCK_RECORD
  5
36F
330
1
100
AcDbSymbolTableRecord
100
AcDbBlockTableRecord
  2
*D727
340
0
  0
BLOCK_RECORD
  5
37A
330
1
100
AcDbSymbolTableRecord
100
AcDbBlockTableRecord
  2
*D828
340
0
  0
ENDTAB
  0
ENDSEC
  0
SECTION
  2
BLOCKS
  0
BLOCK
  5
20
330
1F
100
AcDbEntity
  8
0
100
AcDbBlockBegin
  2
*Model_Space
 70
     0
 71
     0
 10
0.0
 20
0.0
 30
0.0
  3
*Model_Space
  1

  0
ENDBLK
  5
21
330
1F
100
AcDbEntity
  8
0
100
AcDbBlockEnd
  0
BLOCK
  5
1C
330
1B
100
AcDbEntity
 67
     1
  8
0
100
AcDbBlockBegin
  2
*Paper_Space
 70
     0
 71
     0
 10
0.0
 20
0.0
 30
0.0
  3
*Paper_Space
  1

  0
ENDBLK
  5
1D
330
1B
100
AcDbEntity
 67
     1
  8
0
100
AcDbBlockEnd
  0
BLOCK
  5
24
330
23
100
AcDbEntity
  8
0
100
AcDbBlockBegin
  2
*Paper_Space0
 70
     0
 71
     0
 10
0.0
 20
0.0
 30
0.0
  3
*Paper_Space0
  1

  0
ENDBLK
  5
25
330
23
100
AcDbEntity
  8
0
100
AcDbBlockEnd
  0
BLOCK
  5
37
330
36
100
AcDbEntity
  8
0
100
AcDbBlockBegin
  2
_J__A4
 70
     0
 71
     0
 10
0.0
 20
0.0
 30
0.0
  3
_J__A4
  1

  0
POINT
  5
82
330
36
100
AcDbEntity
  8
1
 62
     4
100
AcDbPoint
 10
34.0
 20
34.00000000000001
 30
0.0
  0
POINT
  5
83
330
36
100
AcDbEntity
  8
1
 62
     4
100
AcDbPoint
 10
57.0
 20
12.25
 30
0.0
  0
POINT
  5
84
330
36
100
AcDbEntity
  8
1
 62
     4
100
AcDbPoint
 10
57.0
 20
20.75000000000001
 30
0.0
  0
POINT
  5
85
330
36
100
AcDbEntity
  8
1
 62
     4
100
AcDbPoint
 10
57.0
 20
24.75000000000001
 30
0.0
  0
POINT
  5
86
330
36
100
AcDbEntity
  8
1
 62
     4
100
AcDbPoint
 10
57.0
 20
16.25
 30
0.0
  0
POINT
  5
87
330
36
100
AcDbEntity
  8
1
 62
     4
100
AcDbPoint
 10
157.5
 20
19.00000000000001
 30
0.0
  0
POINT
  5
88
330
36
100
AcDbEntity
  8
1
 62
     4
100
AcDbPoint
 10
47.5
 20
282.0000000000003
 30
0.0
  0
POINT
  5
89
330
36
100
AcDbEntity
  8
1
 62
     4
100
AcDbPoint
 10
57.0
 20
22.75000000000001
 30
0.0
  0
POINT
  5
8A
330
36
100
AcDbEntity
  8
1
 62
     4
100
AcDbPoint
 10
57.0
 20
14.25
 30
0.0
  0
POINT
  5
8B
330
36
100
AcDbEntity
  8
1
 62
     4
100
AcDbPoint
 10
157.5
 20
12.5
 30
0.0
  0
POINT
  5
8C
330
36
100
AcDbEntity
  8
1
 62
     4
100
AcDbPoint
 10
163.25
 20
12.5
 30
0.0
  0
POINT
  5
8D
330
36
100
AcDbEntity
  8
1
 62
     4
100
AcDbPoint
 10
151.75
 20
12.5
 30
0.0
  0
POINT
  5
8E
330
36
100
AcDbEntity
  8
1
 62
     4
100
AcDbPoint
 10
134.75
 20
12.5
 30
0.0
  0
POINT
  5
8F
330
36
100
AcDbEntity
  8
1
 62
     4
100
AcDbPoint
 10
146.25
 20
12.5
 30
0.0
  0
POINT
  5
90
330
36
100
AcDbEntity
  8
1
 62
     4
100
AcDbPoint
 10
140.5
 20
12.5
 30
0.0
  0
POINT
  5
91
330
36
100
AcDbEntity
  8
1
 62
     4
100
AcDbPoint
 10
140.5
 20
19.00000000000001
 30
0.0
  0
POINT
  5
92
330
36
100
AcDbEntity
  8
1
 62
     4
100
AcDbPoint
 10
117.75
 20
12.5
 30
0.0
  0
POINT
  5
93
330
36
100
AcDbEntity
  8
1
 62
     4
100
AcDbPoint
 10
129.25
 20
12.5
 30
0.0
  0
POINT
  5
94
330
36
100
AcDbEntity
  8
1
 62
     4
100
AcDbPoint
 10
123.5
 20
12.5
 30
0.0
  0
POINT
  5
95
330
36
100
AcDbEntity
  8
1
 62
     4
100
AcDbPoint
 10
123.5
 20
19.00000000000001
 30
0.0
  0
POINT
  5
96
330
36
100
AcDbEntity
  8
1
 62
     4
100
AcDbPoint
 10
100.75
 20
12.5
 30
0.0
  0
POINT
  5
97
330
36
100
AcDbEntity
  8
1
 62
     4
100
AcDbPoint
 10
112.25
 20
12.5
 30
0.0
  0
POINT
  5
98
330
36
100
AcDbEntity
  8
1
 62
     4
100
AcDbPoint
 10
106.5
 20
12.5
 30
0.0
  0
POINT
  5
99
330
36
100
AcDbEntity
  8
1
 62
     4
100
AcDbPoint
 10
106.5
 20
19.00000000000001
 30
0.0
  0
POINT
  5
9A
330
36
100
AcDbEntity
  8
1
 62
     4
100
AcDbPoint
 10
85.25
 20
17.0
 30
0.0
  0
POINT
  5
9B
330
36
100
AcDbEntity
  8
1
 62
     4
100
AcDbPoint
 10
93.75
 20
17.0
 30
0.0
  0
LINE
  5
9C
330
36
100
AcDbEntity
  8
1
  6
Continuous
 62
     2
100
AcDbLine
 10
81.0
 20
27.00000000000001
 30
0.0
 11
81.0
 21
10.0
 31
0.0
  0
LINE
  5
9D
330
36
100
AcDbEntity
  8
1
  6
DOT_CENTER
 62
     2
100
AcDbLine
 10
187.0
 20
26.50000000000001
 30
0.0
 11
187.0
 21
20.50000000000001
 31
0.0
  0
LINE
  5
9E
330
36
100
AcDbEntity
  8
1
  6
DOT_CENTER
 62
     2
100
AcDbLine
 10
184.0
 20
23.50000000000001
 30
0.0
 11
197.0
 21
23.50000000000001
 31
0.0
  0
LINE
  5
9F
330
36
100
AcDbEntity
  8
1
  6
Continuous
 62
     7
100
AcDbLine
 10
196.0
 20
21.50000000000001
 30
0.0
 11
191.0
 21
22.30000000000001
 31
0.0
  0
LINE
  5
A0
330
36
100
AcDbEntity
  8
1
  6
Continuous
 62
     7
100
AcDbLine
 10
196.0
 20
25.50000000000001
 30
0.0
 11
196.0
 21
21.50000000000001
 31
0.0
  0
LINE
  5
A1
330
36
100
AcDbEntity
  8
1
  6
Continuous
 62
     7
100
AcDbLine
 10
191.0
 20
24.70000000000001
 30
0.0
 11
196.0
 21
25.50000000000001
 31
0.0
  0
LINE
  5
A2
330
36
100
AcDbEntity
  8
1
  6
Continuous
 62
     7
100
AcDbLine
 10
191.0
 20
24.70000000000001
 30
0.0
 11
191.0
 21
22.30000000000001
 31
0.0
  0
LINE
  5
A3
330
36
100
AcDbEntity
  8
1
  6
Continuous
 62
     2
100
AcDbLine
 10
33.0
 20
27.0
 30
0.0
 11
33.0
 21
10.0
 31
0.0
  0
LINE
  5
A4
330
36
100
AcDbEntity
  8
1
  6
Continuous
 62
     2
100
AcDbLine
 10
25.0
 20
18.50000000000001
 30
0.0
 11
81.0
 21
18.50000000000001
 31
0.0
  0
LINE
  5
A5
330
36
100
AcDbEntity
  8
1
  6
Continuous
 62
     7
100
AcDbLine
 10
200.0
 20
287.0000000000003
 30
0.0
 11
105.0
 21
287.0000000000003
 31
0.0
  0
LINE
  5
A6
330
36
100
AcDbEntity
  8
1
  6
Continuous
 62
     7
100
AcDbLine
 10
200.0
 20
10.0
 30
0.0
 11
200.0
 21
148.5
 31
0.0
  0
LINE
  5
A7
330
36
100
AcDbEntity
  8
1
  6
Continuous
 62
     7
100
AcDbLine
 10
25.0
 20
10.0
 30
0.0
 11
105.0
 21
10.0
 31
0.0
  0
LINE
  5
A8
330
36
100
AcDbEntity
  8
1
  6
PHANTOM
 62
     4
100
AcDbLine
 10
0.0
 20
297.0
 30
0.0
 11
0.0
 21
0.0
 31
0.0
  0
LINE
  5
A9
330
36
100
AcDbEntity
  8
1
  6
PHANTOM
 62
     4
100
AcDbLine
 10
210.0
 20
297.0
 30
0.0
 11
0.0
 21
297.0
 31
0.0
  0
LINE
  5
AA
330
36
100
AcDbEntity
  8
1
  6
PHANTOM
 62
     4
100
AcDbLine
 10
210.0
 20
0.0
 30
0.0
 11
210.0
 21
297.0
 31
0.0
  0
LINE
  5
AB
330
36
100
AcDbEntity
  8
1
  6
PHANTOM
 62
     4
100
AcDbLine
 10
0.0
 20
0.0
 30
0.0
 11
210.0
 21
0.0
 31
0.0
  0
LINE
  5
AC
330
36
100
AcDbEntity
  8
1
  6
Continuous
 62
     7
100
AcDbLine
 10
25.0
 20
41.0
 30
0.0
 11
200.0
 21
41.0
 31
0.0
  0
LINE
  5
AD
330
36
100
AcDbEntity
  8
1
  6
Continuous
 62
     7
100
AcDbLine
 10
200.0
 20
27.00000000000001
 30
0.0
 11
25.0
 21
27.00000000000001
 31
0.0
  0
LINE
  5
AE
330
36
100
AcDbEntity
  8
1
  6
Continuous
 62
     2
100
AcDbLine
 10
33.0
 20
41.00000000000001
 30
0.0
 11
33.0
 21
27.0
 31
0.0
  0
LINE
  5
AF
330
36
100
AcDbEntity
  8
1
  6
Continuous
 62
     2
100
AcDbLine
 10
55.0
 20
287.0000000000003
 30
0.0
 11
55.0
 21
277.0000000000003
 31
0.0
  0
LINE
  5
B0
330
36
100
AcDbEntity
  8
1
  6
Continuous
 62
     2
100
AcDbLine
 10
40.0
 20
287.0000000000003
 30
0.0
 11
40.0
 21
277.0000000000003
 31
0.0
  0
LINE
  5
B1
330
36
100
AcDbEntity
  8
1
  6
Continuous
 62
     7
100
AcDbLine
 10
25.0
 20
10.0
 30
0.0
 11
25.0
 21
148.5
 31
0.0
  0
LINE
  5
B2
330
36
100
AcDbEntity
  8
1
  6
Continuous
 62
     2
100
AcDbLine
 10
55.0
 20
277.0000000000003
 30
0.0
 11
25.0
 21
277.0000000000003
 31
0.0
  0
LINE
  5
B3
330
36
100
AcDbEntity
  8
1
  6
Continuous
 62
     2
100
AcDbLine
 10
166.0
 20
27.00000000000001
 30
0.0
 11
166.0
 21
10.0
 31
0.0
  0
LINE
  5
B4
330
36
100
AcDbEntity
  8
1
  6
Continuous
 62
     2
100
AcDbLine
 10
132.0
 20
27.00000000000001
 30
0.0
 11
132.0
 21
9.99999999999999
 31
0.0
  0
LINE
  5
B5
330
36
100
AcDbEntity
  8
1
  6
Continuous
 62
     2
100
AcDbLine
 10
149.0
 20
27.00000000000001
 30
0.0
 11
149.0
 21
10.0
 31
0.0
  0
LINE
  5
B6
330
36
100
AcDbEntity
  8
1
  6
Continuous
 62
     2
100
AcDbLine
 10
115.0
 20
27.00000000000001
 30
0.0
 11
115.0
 21
9.99999999999999
 31
0.0
  0
LINE
  5
B7
330
36
100
AcDbEntity
  8
1
  6
Continuous
 62
     2
100
AcDbLine
 10
98.0
 20
27.00000000000001
 30
0.0
 11
98.0
 21
9.99999999999999
 31
0.0
  0
LINE
  5
B8
330
36
100
AcDbEntity
  8
1
  6
Continuous
 62
     2
100
AcDbLine
 10
166.0
 20
20.00000000000001
 30
0.0
 11
200.0
 21
20.00000000000001
 31
0.0
  0
LINE
  5
B9
330
36
100
AcDbEntity
  8
1
  6
Continuous
 62
     2
100
AcDbLine
 10
105.0
 20
287.0000000000003
 30
0.0
 11
105.0
 21
292.0000000000003
 31
0.0
  0
LINE
  5
BA
330
36
100
AcDbEntity
  8
1
  6
Continuous
 62
     7
100
AcDbLine
 10
105.0
 20
287.0000000000003
 30
0.0
 11
25.0
 21
287.0000000000003
 31
0.0
  0
LINE
  5
BB
330
36
100
AcDbEntity
  8
1
  6
Continuous
 62
     2
100
AcDbLine
 10
25.0
 20
148.5
 30
0.0
 11
20.0
 21
148.5
 31
0.0
  0
LINE
  5
BC
330
36
100
AcDbEntity
  8
1
  6
Continuous
 62
     7
100
AcDbLine
 10
25.0
 20
148.5
 30
0.0
 11
25.0
 21
287.0000000000003
 31
0.0
  0
LINE
  5
BD
330
36
100
AcDbEntity
  8
1
  6
Continuous
 62
     2
100
AcDbLine
 10
200.0
 20
148.5
 30
0.0
 11
205.0
 21
148.5
 31
0.0
  0
LINE
  5
BE
330
36
100
AcDbEntity
  8
1
  6
Continuous
 62
     7
100
AcDbLine
 10
200.0
 20
148.5
 30
0.0
 11
200.0
 21
287.0000000000003
 31
0.0
  0
LINE
  5
BF
330
36
100
AcDbEntity
  8
1
  6
Continuous
 62
     2
100
AcDbLine
 10
105.0
 20
10.0
 30
0.0
 11
105.0
 21
5.0
 31
0.0
  0
LINE
  5
C0
330
36
100
AcDbEntity
  8
1
  6
Continuous
 62
     7
100
AcDbLine
 10
105.0
 20
10.0
 30
0.0
 11
200.0
 21
10.0
 31
0.0
  0
CIRCLE
  5
C1
330
36
100
AcDbEntity
  8
1
  6
DOT_CENTER
 62
     7
100
AcDbCircle
 10
89.5
 20
18.0
 30
0.0
 40
0.1000000000000227
  0
CIRCLE
  5
C2
330
36
100
AcDbEntity
  8
1
  6
DOT_CENTER
 62
     7
100
AcDbCircle
 10
89.5
 20
16.0
 30
0.0
 40
0.1000000000000227
  0
CIRCLE
  5
C3
330
36
100
AcDbEntity
  8
1
  6
Continuous
 62
     7
100
AcDbCircle
 10
187.0
 20
23.50000000000001
 30
0.0
 40
2.0
  0
CIRCLE
  5
C4
330
36
100
AcDbEntity
  8
1
  6
Continuous
 62
     7
100
AcDbCircle
 10
187.0
 20
23.50000000000001
 30
0.0
 40
1.200000000000102
  0
CIRCLE
  5
C5
330
36
100
AcDbEntity
  8
1
  6
Continuous
 62
     7
100
AcDbCircle
 10
154.5
 20
12.5
 30
0.0
 40
0.3000000000000114
  0
CIRCLE
  5
C6
330
36
100
AcDbEntity
  8
1
  6
Continuous
 62
     7
100
AcDbCircle
 10
160.5
 20
12.5
 30
0.0
 40
0.3000000000000114
  0
CIRCLE
  5
C7
330
36
100
AcDbEntity
  8
1
  6
Continuous
 62
     7
100
AcDbCircle
 10
143.5
 20
12.5
 30
0.0
 40
0.3000000000000114
  0
CIRCLE
  5
C8
330
36
100
AcDbEntity
  8
1
  6
Continuous
 62
     7
100
AcDbCircle
 10
137.5
 20
12.5
 30
0.0
 40
0.3000000000000114
  0
CIRCLE
  5
C9
330
36
100
AcDbEntity
  8
1
  6
Continuous
 62
     7
100
AcDbCircle
 10
126.5
 20
12.5
 30
0.0
 40
0.2999999999999972
  0
CIRCLE
  5
CA
330
36
100
AcDbEntity
  8
1
  6
Continuous
 62
     7
100
AcDbCircle
 10
120.5
 20
12.5
 30
0.0
 40
0.2999999999999972
  0
CIRCLE
  5
CB
330
36
100
AcDbEntity
  8
1
  6
Continuous
 62
     7
100
AcDbCircle
 10
109.5
 20
12.5
 30
0.0
 40
0.2999999999999972
  0
CIRCLE
  5
CC
330
36
100
AcDbEntity
  8
1
  6
Continuous
 62
     7
100
AcDbCircle
 10
103.5
 20
12.5
 30
0.0
 40
0.2999999999999972
  0
MTEXT
  5
CE
330
36
100
AcDbEntity
  8
1
 62
   250
100
AcDbMText
 10
25.0
 20
5.0
 30
0.0
 40
3.5
 41
0.0
 71
     4
 72
     1
  1
備考欄の文字列 原点位置=4
  7
CONVERTER_1
 73
     1
 44
0.7202881152461
  0
MTEXT
  5
CF
330
36
100
AcDbEntity
  8
1
 62
     2
100
AcDbMText
 10
89.5
 20
24.00000000000001
 30
0.0
 40
3.5
 41
0.0
 71
     5
 72
     1
  1
尺度
  7
CONVERTER_1
 73
     1
 44
0.7202881152461
  0
MTEXT
  5
D0
330
36
100
AcDbEntity
  8
1
 62
     2
100
AcDbMText
 10
135.5
 20
25.00000000000001
 30
0.0
 40
3.0
 41
0.0
 71
     5
 72
     1
  1
製図
  7
CONVERTER_1
 73
     1
 44
0.78031212484994
  0
MTEXT
  5
D1
330
36
100
AcDbEntity
  8
1
 62
     2
100
AcDbMText
 10
152.5
 20
25.00000000000001
 30
0.0
 40
3.0
 41
0.0
 71
     5
 72
     1
  1
設計
  7
CONVERTER_1
 73
     1
 44
0.78031212484994
  0
MTEXT
  5
D2
330
36
100
AcDbEntity
  8
1
 62
     2
100
AcDbMText
 10
118.5
 20
25.00000000000001
 30
0.0
 40
3.0
 41
0.0
 71
     5
 72
     1
  1
検図
  7
CONVERTER_1
 73
     1
 44
0.78031212484994
  0
MTEXT
  5
D3
330
36
100
AcDbEntity
  8
1
 62
     2
100
AcDbMText
 10
175.0
 20
23.50000000000001
 30
0.0
 40
3.5
 41
0.0
 71
     5
 72
     1
  1
第三角法
  7
CONVERTER_1
 73
     1
 44
0.7202881152461
  0
MTEXT
  5
D4
330
36
100
AcDbEntity
  8
1
 62
     2
100
AcDbMText
 10
101.5
 20
25.00000000000001
 30
0.0
 40
3.0
 41
0.0
 71
     5
 72
     1
  1
承認
  7
CONVERTER_1
 73
     1
 44
0.78031212484994
  0
MTEXT
  5
D5
330
36
100
AcDbEntity
  8
1
 62
     2
100
AcDbMText
 10
29.0
 20
14.25
 30
0.0
 40
3.5
 41
0.0
 71
     5
 72
     1
  1
品番
  7
CONVERTER_1
 73
     1
 44
0.96038415366146
  0
MTEXT
  5
D6
330
36
100
AcDbEntity
  8
1
 62
     2
100
AcDbMText
 10
29.0
 20
22.75
 30
0.0
 40
3.5
 41
0.0
 71
     5
 72
     1
  1
品名
  7
CONVERTER_1
 73
     1
 44
0.96038415366146
  0
MTEXT
  5
D7
330
36
100
AcDbEntity
  8
1
 62
     2
100
AcDbMText
 10
29.0
 20
34.00000000000001
 30
0.0
 40
3.5
 41
0.0
 71
     5
 72
     1
  1
備考
  7
CONVERTER_1
 73
     1
 44
0.60024009603842
  0
MTEXT
  5
D8
330
36
100
AcDbEntity
  8
1
 62
     2
100
AcDbMText
 10
32.5
 20
282.0000000000003
 30
0.0
 40
5.0
 41
0.0
 71
     5
 72
     1
  1
図番
  7
CONVERTER_1
 73
     1
 44
0.60024009603842
  0
MTEXT
  5
D9
330
36
100
AcDbEntity
  8
1
 62
     7
100
AcDbMText
 10
171.5
 20
15.0
 30
0.0
 40
2.5
 41
0.0
 71
     5
 72
     1
  1
株式会社
  7
CONVERTER_1
 73
     1
 44
1.32052821128451
  0
MTEXT
  5
DA
330
36
100
AcDbEntity
  8
1
 62
     7
100
AcDbMText
 10
188.5
 20
15.0
 30
0.0
 40
3.0
 41
0.0
 71
     5
 72
     1
  1
三栄水栓製作所
  7
CONVERTER_1
 73
     1
 44
1.32052821128451
  0
ENDBLK
  5
38
330
36
100
AcDbEntity
  8
0
100
AcDbBlockEnd
  0
BLOCK
  5
3A
330
39
100
AcDbEntity
  8
0
100
AcDbBlockBegin
  2
K11-1-0
 70
     0
 71
     0
 10
190.6633994120038
 20
350.3716963330054
 30
0.0
  3
K11-1-0
  1

  0
LINE
  5
DB
330
39
100
AcDbEntity
  8
1
  6
Continuous
 62
     7
100
AcDbLine
 10
599.2926298359033
 20
376.8716963330055
 30
0.0
 11
599.2926298359033
 21
377.8716963330055
 31
0.0
  0
LINE
  5
DC
330
39
100
AcDbEntity
  8
1
  6
Continuous
 62
     2
100
AcDbLine
 10
602.992629835903
 20
376.8716963330055
 30
0.0
 11
599.2926298359033
 21
376.8716963330055
 31
0.0
  0
LINE
  5
DD
330
39
100
AcDbEntity
  8
1
  6
Continuous
 62
     2
100
AcDbLine
 10
602.992629835903
 20
352.8716963330055
 30
0.0
 11
599.2926298359033
 21
352.8716963330055
 31
0.0
  0
LINE
  5
DE
330
39
100
AcDbEntity
  8
1
  6
Continuous
 62
     7
100
AcDbLine
 10
581.2926298359033
 20
351.8716963330055
 30
0.0
 11
597.5605790283345
 21
351.8716963330055
 31
0.0
  0
LINE
  5
DF
330
39
100
AcDbEntity
  8
1
  6
Continuous
 62
     7
100
AcDbLine
 10
599.2926298359033
 20
377.8716963330055
 30
0.0
 11
602.992629835903
 21
377.8716963330055
 31
0.0
  0
LINE
  5
E0
330
39
100
AcDbEntity
  8
1
  6
Continuous
 62
     7
100
AcDbLine
 10
599.2926298359033
 20
351.8716963330055
 30
0.0
 11
597.5605790283345
 21
351.8716963330055
 31
0.0
  0
LINE
  5
E1
330
39
100
AcDbEntity
  8
1
  6
Continuous
 62
     7
100
AcDbLine
 10
599.2926298359033
 20
351.8716963330055
 30
0.0
 11
599.2926298359033
 21
376.8716963330055
 31
0.0
  0
LINE
  5
E2
330
39
100
AcDbEntity
  8
1
  6
Continuous
 62
     7
100
AcDbLine
 10
597.5605790283345
 20
377.8716963330055
 30
0.0
 11
599.2926298359033
 21
377.8716963330055
 31
0.0
  0
LINE
  5
E3
330
39
100
AcDbEntity
  8
1
  6
Continuous
 62
     2
100
AcDbLine
 10
599.2926298359033
 20
376.8716963330055
 30
0.0
 11
597.5605790283345
 21
377.8716963330055
 31
0.0
  0
LINE
  5
E4
330
39
100
AcDbEntity
  8
1
  6
Continuous
 62
     2
100
AcDbLine
 10
599.2926298359033
 20
352.8716963330055
 30
0.0
 11
597.5605790283345
 21
351.8716963330055
 31
0.0
  0
LINE
  5
E5
330
39
100
AcDbEntity
  8
1
  6
Continuous
 62
     7
100
AcDbLine
 10
602.992629835903
 20
351.8716963330055
 30
0.0
 11
599.2926298359033
 21
351.8716963330055
 31
0.0
  0
LINE
  5
E6
330
39
100
AcDbEntity
  8
1
  6
Continuous
 62
     7
100
AcDbLine
 10
597.5605790283345
 20
377.8716963330055
 30
0.0
 11
596.6959765015205
 21
377.8716963330055
 31
0.0
  0
LINE
  5
E7
330
39
100
AcDbEntity
  8
1
  6
Continuous
 62
     2
100
AcDbLine
 10
570.1276298359034
 20
393.8716963330054
 30
0.0
 11
570.1276298359034
 21
392.8716963330055
 31
0.0
  0
LINE
  5
E8
330
39
100
AcDbEntity
  8
1
  6
Continuous
 62
     2
100
AcDbLine
 10
569.2926298359033
 20
391.4254339086856
 30
0.0
 11
570.1276298359034
 21
392.8716963330055
 31
0.0
  0
LINE
  5
E9
330
39
100
AcDbEntity
  8
1
  6
Continuous
 62
     7
100
AcDbLine
 10
569.2926298359033
 20
392.8716963330055
 30
0.0
 11
569.2926298359033
 21
391.4254339086856
 31
0.0
  0
LINE
  5
EA
330
39
100
AcDbEntity
  8
1
  6
Continuous
 62
     7
100
AcDbLine
 10
569.2926298359033
 20
392.8716963330055
 30
0.0
 11
570.1276298359034
 21
392.8716963330055
 31
0.0
  0
LINE
  5
EB
330
39
100
AcDbEntity
  8
1
  6
Continuous
 62
     7
100
AcDbLine
 10
569.2926298359033
 20
393.8716963330054
 30
0.0
 11
569.2926298359033
 21
392.8716963330055
 31
0.0
  0
LINE
  5
EC
330
39
100
AcDbEntity
  8
1
  6
Continuous
 62
     7
100
AcDbLine
 10
568.3020121264627
 20
365.3655095843168
 30
0.0
 11
569.2926298359033
 21
391.4254339086856
 31
0.0
  0
LINE
  5
ED
330
39
100
AcDbEntity
  8
1
  6
Continuous
 62
     2
100
AcDbLine
 10
592.4576298359033
 20
392.8716963330055
 30
0.0
 11
592.4576298359033
 21
393.8716963330054
 31
0.0
  0
LINE
  5
EE
330
39
100
AcDbEntity
  8
1
  6
Continuous
 62
     2
100
AcDbLine
 10
592.4576298359033
 20
392.8716963330055
 30
0.0
 11
593.2926298359033
 21
391.4254339086856
 31
0.0
  0
LINE
  5
EF
330
39
100
AcDbEntity
  8
1
  6
Continuous
 62
     7
100
AcDbLine
 10
593.2926298359033
 20
391.4254339086856
 30
0.0
 11
593.2926298359033
 21
392.8716963330055
 31
0.0
  0
LINE
  5
F0
330
39
100
AcDbEntity
  8
1
  6
Continuous
 62
     7
100
AcDbLine
 10
570.1276298359034
 20
392.8716963330055
 30
0.0
 11
593.2926298359033
 21
392.8716963330055
 31
0.0
  0
LINE
  5
F1
330
39
100
AcDbEntity
  8
1
  6
Continuous
 62
     7
100
AcDbLine
 10
593.2926298359033
 20
392.8716963330055
 30
0.0
 11
593.2926298359033
 21
393.8716963330054
 31
0.0
  0
LINE
  5
F2
330
39
100
AcDbEntity
  8
1
  6
Continuous
 62
     7
100
AcDbLine
 10
593.2926298359033
 20
391.4254339086856
 30
0.0
 11
593.6981416454959
 21
380.7577394288568
 31
0.0
  0
LINE
  5
F3
330
39
100
AcDbEntity
  8
1
  6
Continuous
 62
     2
100
AcDbLine
 10
311.6633994120037
 20
693.0697353601904
 30
0.0
 11
311.6633994120037
 21
689.3716963330055
 31
0.0
  0
LINE
  5
F4
330
39
100
AcDbEntity
  8
1
  6
Continuous
 62
     7
100
AcDbLine
 10
336.6633994120037
 20
689.3716963330055
 30
0.0
 11
327.8007592138293
 21
689.3716963330055
 31
0.0
  0
LINE
  5
F5
330
39
100
AcDbEntity
  8
1
  6
Continuous
 62
     2
100
AcDbLine
 10
334.8283994120039
 20
392.8716963330055
 30
0.0
 11
334.8283994120039
 21
393.8716963330054
 31
0.0
  0
LINE
  5
F6
330
39
100
AcDbEntity
  8
1
  6
Continuous
 62
     7
100
AcDbLine
 10
279.6633994120037
 20
361.8716963330054
 30
0.0
 11
284.3603888127637
 21
361.8716963330054
 31
0.0
  0
LINE
  5
F7
330
39
100
AcDbEntity
  8
1
  6
Continuous
 62
     7
100
AcDbLine
 10
218.914693800399
 20
381.8716963330054
 30
0.0
 11
308.4121050236089
 21
381.8716963330054
 31
0.0
  0
LINE
  5
F8
330
39
100
AcDbEntity
  8
1
  6
Continuous
 62
     7
100
AcDbLine
 10
311.6633994120037
 20
392.8716963330055
 30
0.0
 11
311.6633994120037
 21
391.4254339086854
 31
0.0
  0
LINE
  5
F9
330
39
100
AcDbEntity
  8
1
  6
Continuous
 62
     7
100
AcDbLine
 10
334.8283994120039
 20
392.8716963330055
 30
0.0
 11
311.6633994120037
 21
392.8716963330055
 31
0.0
  0
LINE
  5
FA
330
39
100
AcDbEntity
  8
1
  6
Continuous
 62
     7
100
AcDbLine
 10
276.6633994120037
 20
357.8716963330054
 30
0.0
 11
276.6633994120037
 21
356.3716963330057
 31
0.0
  0
LINE
  5
FB
330
39
100
AcDbEntity
  8
1
  6
Continuous
 62
     7
100
AcDbLine
 10
276.6633994120037
 20
358.8716963330054
 30
0.0
 11
276.6633994120037
 21
357.8716963330054
 31
0.0
  0
LINE
  5
FC
330
39
100
AcDbEntity
  8
1
  6
Continuous
 62
     7
100
AcDbLine
 10
284.3603888127637
 20
361.8716963330054
 30
0.0
 11
296.0953019078233
 21
361.8716963330054
 31
0.0
  0
LINE
  5
FD
330
39
100
AcDbEntity
  8
1
  6
Continuous
 62
     2
100
AcDbLine
 10
275.8283994120039
 20
356.3716963330057
 30
0.0
 11
275.8283994120039
 21
357.8716963330054
 31
0.0
  0
LINE
  5
FE
330
39
100
AcDbEntity
  8
1
  6
Continuous
 62
     7
100
AcDbLine
 10
263.6633994120037
 20
357.8716963330054
 30
0.0
 11
276.6633994120037
 21
357.8716963330054
 31
0.0
  0
LINE
  5
FF
330
39
100
AcDbEntity
  8
1
  6
Continuous
 62
     2
100
AcDbLine
 10
275.8283994120039
 20
357.8716963330054
 30
0.0
 11
276.7100668596756
 21
359.3987891477524
 31
0.0
  0
LINE
  5
100
330
39
100
AcDbEntity
  8
1
  6
Continuous
 62
     7
100
AcDbLine
 10
311.6633994120037
 20
391.4254339086854
 30
0.0
 11
311.4099398796336
 21
384.7577394288563
 31
0.0
  0
LINE
  5
101
330
39
100
AcDbEntity
  8
1
  6
Continuous
 62
     7
100
AcDbLine
 10
311.6633994120037
 20
393.8716963330054
 30
0.0
 11
311.6633994120037
 21
392.8716963330055
 31
0.0
  0
LINE
  5
102
330
39
100
AcDbEntity
  8
1
  6
Continuous
 62
     2
100
AcDbLine
 10
312.4983994120039
 20
392.8716963330055
 30
0.0
 11
312.4983994120039
 21
393.8716963330054
 31
0.0
  0
LINE
  5
103
330
39
100
AcDbEntity
  8
1
  6
Continuous
 62
     2
100
AcDbLine
 10
334.8283994120039
 20
392.8716963330055
 30
0.0
 11
335.6633994120037
 21
391.4254339086854
 31
0.0
  0
LINE
  5
104
330
39
100
AcDbEntity
  8
1
  6
Continuous
 62
     7
100
AcDbLine
 10
335.6633994120037
 20
391.4254339086854
 30
0.0
 11
335.6633994120037
 21
392.8716963330055
 31
0.0
  0
LINE
  5
105
330
39
100
AcDbEntity
  8
1
  6
Continuous
 62
     7
100
AcDbLine
 10
334.8283994120039
 20
392.8716963330055
 30
0.0
 11
335.6633994120037
 21
392.8716963330055
 31
0.0
  0
LINE
  5
106
330
39
100
AcDbEntity
  8
1
  6
Continuous
 62
     7
100
AcDbLine
 10
335.6633994120037
 20
392.8716963330055
 30
0.0
 11
335.6633994120037
 21
393.8716963330054
 31
0.0
  0
LINE
  5
107
330
39
100
AcDbEntity
  8
1
  6
Continuous
 62
     2
100
AcDbLine
 10
312.4983994120039
 20
392.8716963330055
 30
0.0
 11
311.6633994120037
 21
391.4254339086854
 31
0.0
  0
LINE
  5
108
330
39
100
AcDbEntity
  8
1
  6
Continuous
 62
     7
100
AcDbLine
 10
335.6633994120037
 20
391.4254339086854
 30
0.0
 11
336.6540171214444
 21
365.3655095843163
 31
0.0
  0
LINE
  5
109
330
39
100
AcDbEntity
  8
1
  6
Continuous
 62
     2
100
AcDbLine
 10
192.498399412004
 20
393.8716963330054
 30
0.0
 11
192.498399412004
 21
392.8716963330055
 31
0.0
  0
LINE
  5
10A
330
39
100
AcDbEntity
  8
1
  6
Continuous
 62
     2
100
AcDbLine
 10
335.6633994120037
 20
693.0697353601904
 30
0.0
 11
335.6633994120037
 21
689.3716963330055
 31
0.0
  0
LINE
  5
10B
330
39
100
AcDbEntity
  8
1
  6
Continuous
 62
     7
100
AcDbLine
 10
319.3913975393452
 20
689.3716963330055
 30
0.0
 11
310.6633994120037
 21
689.3716963330055
 31
0.0
  0
LINE
  5
10C
330
39
100
AcDbEntity
  8
1
  6
Continuous
 62
     7
100
AcDbLine
 10
190.6633994120038
 20
693.0697353601904
 30
0.0
 11
190.6633994120038
 21
684.5341429140934
 31
0.0
  0
LINE
  5
10D
330
39
100
AcDbEntity
  8
1
  6
Continuous
 62
     7
100
AcDbLine
 10
216.6633994120038
 20
693.0697353601904
 30
0.0
 11
216.6633994120038
 21
689.3716963330055
 31
0.0
  0
LINE
  5
10E
330
39
100
AcDbEntity
  8
1
  6
Continuous
 62
     7
100
AcDbLine
 10
199.3913975393453
 20
689.3716963330055
 30
0.0
 11
190.6633994120038
 21
689.3716963330055
 31
0.0
  0
LINE
  5
10F
330
39
100
AcDbEntity
  8
1
  6
Continuous
 62
     7
100
AcDbLine
 10
216.6633994120038
 20
684.5341429140938
 30
0.0
 11
216.6633994120038
 21
689.3716963330055
 31
0.0
  0
LINE
  5
110
330
39
100
AcDbEntity
  8
1
  6
Continuous
 62
     7
100
AcDbLine
 10
336.6633994120037
 20
684.5341429140938
 30
0.0
 11
336.6633994120037
 21
693.0697353601904
 31
0.0
  0
LINE
  5
111
330
39
100
AcDbEntity
  8
1
  6
Continuous
 62
     7
100
AcDbLine
 10
310.6633994120037
 20
684.5341429140934
 30
0.0
 11
310.6633994120037
 21
684.3716963330055
 31
0.0
  0
LINE
  5
112
330
39
100
AcDbEntity
  8
1
  6
Continuous
 62
     7
100
AcDbLine
 10
242.9664100112442
 20
361.8716963330054
 30
0.0
 11
247.6633994120041
 21
361.8716963330054
 31
0.0
  0
LINE
  5
113
330
39
100
AcDbEntity
  8
1
  6
Continuous
 62
     7
100
AcDbLine
 10
215.6633994120041
 20
391.4254339086854
 30
0.0
 11
215.6633994120041
 21
392.8716963330055
 31
0.0
  0
LINE
  5
114
330
39
100
AcDbEntity
  8
1
  6
Continuous
 62
     7
100
AcDbLine
 10
215.6633994120041
 20
392.8716963330055
 30
0.0
 11
192.498399412004
 21
392.8716963330055
 31
0.0
  0
LINE
  5
115
330
39
100
AcDbEntity
  8
1
  6
Continuous
 62
     7
100
AcDbLine
 10
250.6633994120041
 20
356.3716963330057
 30
0.0
 11
250.6633994120041
 21
357.8716963330054
 31
0.0
  0
LINE
  5
116
330
39
100
AcDbEntity
  8
1
  6
Continuous
 62
     7
100
AcDbLine
 10
250.6633994120041
 20
357.8716963330054
 30
0.0
 11
250.6633994120041
 21
358.8716963330054
 31
0.0
  0
LINE
  5
117
330
39
100
AcDbEntity
  8
1
  6
Continuous
 62
     7
100
AcDbLine
 10
231.2314969161845
 20
361.8716963330054
 30
0.0
 11
242.9664100112442
 21
361.8716963330054
 31
0.0
  0
LINE
  5
118
330
39
100
AcDbEntity
  8
1
  6
Continuous
 62
     2
100
AcDbLine
 10
251.498399412004
 20
357.8716963330054
 30
0.0
 11
251.498399412004
 21
356.3716963330057
 31
0.0
  0
LINE
  5
119
330
39
100
AcDbEntity
  8
1
  6
Continuous
 62
     7
100
AcDbLine
 10
250.6633994120041
 20
357.8716963330054
 30
0.0
 11
263.6633994120037
 21
357.8716963330054
 31
0.0
  0
LINE
  5
11A
330
39
100
AcDbEntity
  8
1
  6
Continuous
 62
     2
100
AcDbLine
 10
250.6167319643323
 20
359.3987891477524
 30
0.0
 11
251.498399412004
 21
357.8716963330054
 31
0.0
  0
LINE
  5
11B
330
39
100
AcDbEntity
  8
1
  6
Continuous
 62
     7
100
AcDbLine
 10
215.9168589443742
 20
384.7577394288563
 30
0.0
 11
215.6633994120041
 21
391.4254339086854
 31
0.0
  0
LINE
  5
11C
330
39
100
AcDbEntity
  8
1
  6
Continuous
 62
     7
100
AcDbLine
 10
215.6633994120041
 20
392.8716963330055
 30
0.0
 11
215.6633994120041
 21
393.8716963330054
 31
0.0
  0
LINE
  5
11D
330
39
100
AcDbEntity
  8
1
  6
Continuous
 62
     2
100
AcDbLine
 10
214.828399412004
 20
393.8716963330054
 30
0.0
 11
214.828399412004
 21
392.8716963330055
 31
0.0
  0
LINE
  5
11E
330
39
100
AcDbEntity
  8
1
  6
Continuous
 62
     2
100
AcDbLine
 10
191.6633994120041
 20
391.4254339086854
 30
0.0
 11
192.498399412004
 21
392.8716963330055
 31
0.0
  0
LINE
  5
11F
330
39
100
AcDbEntity
  8
1
  6
Continuous
 62
     7
100
AcDbLine
 10
191.6633994120041
 20
392.8716963330055
 30
0.0
 11
191.6633994120041
 21
391.4254339086854
 31
0.0
  0
LINE
  5
120
330
39
100
AcDbEntity
  8
1
  6
Continuous
 62
     7
100
AcDbLine
 10
191.6633994120041
 20
392.8716963330055
 30
0.0
 11
192.498399412004
 21
392.8716963330055
 31
0.0
  0
LINE
  5
121
330
39
100
AcDbEntity
  8
1
  6
Continuous
 62
     7
100
AcDbLine
 10
191.6633994120041
 20
393.8716963330054
 30
0.0
 11
191.6633994120041
 21
392.8716963330055
 31
0.0
  0
LINE
  5
122
330
39
100
AcDbEntity
  8
1
  6
Continuous
 62
     2
100
AcDbLine
 10
215.6633994120041
 20
391.4254339086854
 30
0.0
 11
214.828399412004
 21
392.8716963330055
 31
0.0
  0
LINE
  5
123
330
39
100
AcDbEntity
  8
1
  6
Continuous
 62
     7
100
AcDbLine
 10
190.6727817025635
 20
365.3655095843163
 30
0.0
 11
191.6633994120041
 21
391.4254339086854
 31
0.0
  0
LINE
  5
124
330
39
100
AcDbEntity
  8
1
  6
Continuous
 62
     7
100
AcDbLine
 10
216.6633994120038
 20
689.3716963330055
 30
0.0
 11
207.8007592138293
 21
689.3716963330055
 31
0.0
  0
LINE
  5
125
330
39
100
AcDbEntity
  8
1
  6
Continuous
 62
     2
100
AcDbLine
 10
216.6633994120038
 20
687.6396455254366
 30
0.0
 11
215.6633994120038
 21
689.3716963330055
 31
0.0
  0
LINE
  5
126
330
39
100
AcDbEntity
  8
1
  6
Continuous
 62
     2
100
AcDbLine
 10
190.6633994120038
 20
687.6396455254366
 30
0.0
 11
191.6633994120038
 21
689.3716963330055
 31
0.0
  0
LINE
  5
127
330
39
100
AcDbEntity
  8
1
  6
Continuous
 62
     2
100
AcDbLine
 10
215.6633994120038
 20
689.3716963330055
 30
0.0
 11
215.6633994120038
 21
693.0697353601904
 31
0.0
  0
LINE
  5
128
330
39
100
AcDbEntity
  8
1
  6
Continuous
 62
     2
100
AcDbLine
 10
191.6633994120038
 20
689.3716963330055
 30
0.0
 11
191.6633994120038
 21
693.0697353601904
 31
0.0
  0
LINE
  5
129
330
39
100
AcDbEntity
  8
1
  6
Continuous
 62
     7
100
AcDbLine
 10
216.6633994120038
 20
684.3716963330055
 30
0.0
 11
216.6633994120038
 21
684.5341429140938
 31
0.0
  0
LINE
  5
12A
330
39
100
AcDbEntity
  8
1
  6
Continuous
 62
     7
100
AcDbLine
 10
219.6633994120038
 20
681.3716963330055
 30
0.0
 11
246.0850035807568
 21
681.3716963330055
 31
0.0
  0
LINE
  5
12B
330
39
100
AcDbEntity
  8
1
  6
Continuous
 62
     7
100
AcDbLine
 10
221.2417952432507
 20
661.3716963330055
 30
0.0
 11
246.0850035807568
 21
661.3716963330055
 31
0.0
  0
LINE
  5
12C
330
39
100
AcDbEntity
  8
1
  6
Continuous
 62
     7
100
AcDbLine
 10
310.6633994120037
 20
693.0697353601904
 30
0.0
 11
310.6633994120037
 21
684.5341429140934
 31
0.0
  0
LINE
  5
12D
330
39
100
AcDbEntity
  8
1
  6
Continuous
 62
     2
100
AcDbLine
 10
311.6633994120037
 20
689.3716963330055
 30
0.0
 11
310.6633994120037
 21
687.6396455254366
 31
0.0
  0
LINE
  5
12E
330
39
100
AcDbEntity
  8
1
  6
Continuous
 62
     2
100
AcDbLine
 10
335.6633994120037
 20
689.3716963330055
 30
0.0
 11
336.6633994120037
 21
687.6396455254366
 31
0.0
  0
LINE
  5
12F
330
39
100
AcDbEntity
  8
1
  6
Continuous
 62
     7
100
AcDbLine
 10
281.2417952432508
 20
681.3716963330055
 30
0.0
 11
307.6633994120037
 21
681.3716963330055
 31
0.0
  0
LINE
  5
130
330
39
100
AcDbEntity
  8
1
  6
Continuous
 62
     7
100
AcDbLine
 10
281.2417952432508
 20
661.3716963330055
 30
0.0
 11
306.0850035807569
 21
661.3716963330055
 31
0.0
  0
ARC
  5
131
330
39
100
AcDbEntity
  8
1
  6
Continuous
 62
     7
100
AcDbCircle
 10
581.2926298359033
 20
364.8716963330055
 30
0.0
 40
13.00000000000008
100
AcDbArc
 50
177.8230597135258
 51
-90.0
  0
ARC
  5
132
330
39
100
AcDbEntity
  8
1
  6
Continuous
 62
     7
100
AcDbCircle
 10
323.6633994120037
 20
364.8716963330054
 30
0.0
 40
13.0
100
AcDbArc
 50
-90.0
 51
2.1769402864727
  0
ARC
  5
133
330
39
100
AcDbEntity
  8
1
  6
Continuous
 62
     7
100
AcDbCircle
 10
279.6633994120037
 20
358.8716963330054
 30
0.0
 40
3.0
100
AcDbArc
 50
90.0
 51
169.8807430505304
  0
ARC
  5
134
330
39
100
AcDbEntity
  8
1
  6
Continuous
 62
     7
100
AcDbCircle
 10
279.6633994120037
 20
358.8716963330054
 30
0.0
 40
2.999999999999793
100
AcDbArc
 50
169.8807430505304
 51
180.0
  0
ARC
  5
135
330
39
100
AcDbEntity
  8
1
  6
Continuous
 62
     7
100
AcDbCircle
 10
296.0953019078233
 20
331.8716963330053
 30
0.0
 40
30.00000000000019
100
AcDbArc
 50
50.12472264291748
 51
90.0
  0
ARC
  5
136
330
39
100
AcDbEntity
  8
1
  6
Continuous
 62
     7
100
AcDbCircle
 10
323.6633994120037
 20
364.8716963330054
 30
0.0
 40
12.99999999999987
100
AcDbArc
 50
-129.8752773570817
 51
-90.0
  0
ARC
  5
137
330
39
100
AcDbEntity
  8
1
  6
Continuous
 62
     7
100
AcDbCircle
 10
221.2417952432507
 20
621.3716963330055
 30
0.0
 40
40.0
100
AcDbArc
 50
90.0
 51
92.93459839049295
  0
ARC
  5
138
330
39
100
AcDbEntity
  8
1
  6
Continuous
 62
     7
100
AcDbCircle
 10
203.6633994120041
 20
364.8716963330054
 30
0.0
 40
13.00000000000009
100
AcDbArc
 50
177.8230597135273
 51
-90.0
  0
ARC
  5
139
330
39
100
AcDbEntity
  8
1
  6
Continuous
 62
     7
100
AcDbCircle
 10
247.6633994120041
 20
358.8716963330054
 30
0.0
 40
2.999999999999877
100
AcDbArc
 50
10.11925694946928
 51
90.0
  0
ARC
  5
13A
330
39
100
AcDbEntity
  8
1
  6
Continuous
 62
     7
100
AcDbCircle
 10
247.6633994120041
 20
358.8716963330054
 30
0.0
 40
3.0
100
AcDbArc
 50
0.0
 51
10.11925694946928
  0
ARC
  5
13B
330
39
100
AcDbEntity
  8
1
  6
Continuous
 62
     7
100
AcDbCircle
 10
231.2314969161845
 20
331.8716963330053
 30
0.0
 40
30.00000000000011
100
AcDbArc
 50
90.0
 51
129.8752773570824
  0
ARC
  5
13C
330
39
100
AcDbEntity
  8
1
  6
Continuous
 62
     7
100
AcDbCircle
 10
203.6633994120041
 20
364.8716963330054
 30
0.0
 40
13.0
100
AcDbArc
 50
-90.0
 51
-50.12472264291802
  0
ARC
  5
13D
330
39
100
AcDbEntity
  8
1
  6
Continuous
 62
     7
100
AcDbCircle
 10
263.6633994120037
 20
671.3716963330055
 30
0.0
 40
13.0
100
AcDbArc
 50
90.0
 51
109.3700382455391
  0
ARC
  5
13E
330
39
100
AcDbEntity
  8
1
  6
Continuous
 62
     7
100
AcDbCircle
 10
263.6633994120037
 20
671.3716963330055
 30
0.0
 40
12.99999999999977
100
AcDbArc
 50
-109.3700382455395
 51
-90.0
  0
ARC
  5
13F
330
39
100
AcDbEntity
  8
1
  6
Continuous
 62
     7
100
AcDbCircle
 10
246.0850035807568
 20
721.3716963330055
 30
0.0
 40
40.0
100
AcDbArc
 50
-90.0
 51
-70.62996175445906
  0
ARC
  5
140
330
39
100
AcDbEntity
  8
1
  6
Continuous
 62
     7
100
AcDbCircle
 10
246.0850035807568
 20
621.3716963330055
 30
0.0
 40
40.00000000000021
100
AcDbArc
 50
70.62996175445917
 51
90.0
  0
ARC
  5
141
330
39
100
AcDbEntity
  8
1
  6
Continuous
 62
     7
100
AcDbCircle
 10
263.6633994120037
 20
671.3716963330055
 30
0.0
 40
13.00000000000019
100
AcDbArc
 50
70.62996175445828
 51
90.0
  0
ARC
  5
142
330
39
100
AcDbEntity
  8
1
  6
Continuous
 62
     7
100
AcDbCircle
 10
263.6633994120037
 20
671.3716963330055
 30
0.0
 40
13.0
100
AcDbArc
 50
-90.0
 51
-70.62996175445794
  0
ARC
  5
143
330
39
100
AcDbEntity
  8
1
  6
Continuous
 62
     7
100
AcDbCircle
 10
281.2417952432508
 20
721.3716963330055
 30
0.0
 40
39.99999999999987
100
AcDbArc
 50
-109.3700382455404
 51
-90.0
  0
ARC
  5
144
330
39
100
AcDbEntity
  8
1
  6
Continuous
 62
     7
100
AcDbCircle
 10
306.0850035807569
 20
621.3716963330055
 30
0.0
 40
39.99999999999994
100
AcDbArc
 50
87.0654016095062
 51
90.0
  0
ARC
  5
145
330
39
100
AcDbEntity
  8
1
  6
Continuous
 62
     7
100
AcDbCircle
 10
281.2417952432508
 20
621.3716963330055
 30
0.0
 40
40.0
100
AcDbArc
 50
90.0
 51
109.3700382455403
  0
ARC
  5
146
330
39
100
AcDbEntity
  8
1
  6
Continuous
 62
     7
100
AcDbCircle
 10
596.6959765015205
 20
380.8716963330055
 30
0.0
 40
2.999999999999876
100
AcDbArc
 50
-177.8230597135263
 51
-90.0
  0
ARC
  5
147
330
39
100
AcDbEntity
  8
1
  6
Continuous
 62
     7
100
AcDbCircle
 10
308.4121050236089
 20
384.8716963330054
 30
0.0
 40
3.0
100
AcDbArc
 50
-90.0
 51
-2.17694028648009
  0
ARC
  5
148
330
39
100
AcDbEntity
  8
1
  6
Continuous
 62
     7
100
AcDbCircle
 10
307.6633994120037
 20
684.3716963330055
 30
0.0
 40
3.0
100
AcDbArc
 50
-90.0
 51
-81.21274711999099
  0
ARC
  5
149
330
39
100
AcDbEntity
  8
1
  6
Continuous
 62
     7
100
AcDbCircle
 10
218.914693800399
 20
384.8716963330054
 30
0.0
 40
3.00000000000006
100
AcDbArc
 50
-177.82305971352
 51
-90.0
  0
ARC
  5
14A
330
39
100
AcDbEntity
  8
1
  6
Continuous
 62
     7
100
AcDbCircle
 10
219.6633994120038
 20
684.3716963330055
 30
0.0
 40
2.999999999999999
100
AcDbArc
 50
-98.78725287999937
 51
-90.0
  0
ENDBLK
  5
3B
330
39
100
AcDbEntity
  8
0
100
AcDbBlockEnd
  0
BLOCK
  5
3D
330
3C
100
AcDbEntity
  8
0
100
AcDbBlockBegin
  2
32-43A__1
 70
     0
 71
     0
 10
-880.0719937553351
 20
342.4783807146388
 30
0.0
  3
32-43A__1
  1

  0
LINE
  5
14B
330
3C
100
AcDbEntity
  8
1
  6
Continuous
 62
     7
100
AcDbLine
 10
186.8622312945924
 20
365.6342876990942
 30
0.0
 11
190.9522906096246
 21
372.7184782387
 31
0.0
  0
LINE
  5
14C
330
3C
100
AcDbEntity
  8
1
  6
Continuous
 62
     7
100
AcDbLine
 10
190.673018355237
 20
357.3716963330041
 30
0.0
 11
186.8697041524281
 21
363.9592297694184
 31
0.0
  0
LINE
  5
14D
330
3C
100
AcDbEntity
  8
1
  6
Continuous
 62
     7
100
AcDbLine
 10
194.4763325580466
 20
350.7841628965904
 30
0.0
 11
190.673018355237
 21
357.3716963330041
 31
0.0
  0
LINE
  5
14E
330
3C
100
AcDbEntity
  8
1
  6
Continuous
 62
     7
100
AcDbLine
 10
203.6633994120042
 20
349.8716963330039
 30
0.0
 11
196.0567710063859
 21
349.8716963330039
 31
0.0
  0
LINE
  5
14F
330
3C
100
AcDbEntity
  8
1
  6
Continuous
 62
     7
100
AcDbLine
 10
211.2700278176226
 20
349.8716963330039
 30
0.0
 11
203.6633994120042
 21
349.8716963330039
 31
0.0
  0
LINE
  5
150
330
3C
100
AcDbEntity
  8
1
  6
Continuous
 62
     7
100
AcDbLine
 10
216.6537804687712
 20
357.3716963330041
 30
0.0
 11
212.8504662659617
 21
350.7841628965905
 31
0.0
  0
LINE
  5
151
330
3C
100
AcDbEntity
  8
1
  6
Continuous
 62
     7
100
AcDbLine
 10
217.2583539040387
 20
358.4188482397942
 30
0.0
 11
216.6537804687712
 21
357.3716963330041
 31
0.0
  0
LINE
  5
152
330
3C
100
AcDbEntity
  8
1
  6
Continuous
 62
     7
100
AcDbLine
 10
218.6633994120041
 20
704.5697353601904
 30
0.0
 11
214.6633994120041
 21
704.5697353601904
 31
0.0
  0
LINE
  5
153
330
3C
100
AcDbEntity
  8
1
  6
Continuous
 62
     7
100
AcDbLine
 10
203.6633994120041
 20
693.0697353601904
 30
0.0
 11
218.6633994120041
 21
693.0697353601904
 31
0.0
  0
LINE
  5
154
330
3C
100
AcDbEntity
  8
1
  6
Continuous
 62
     7
100
AcDbLine
 10
214.6633994120041
 20
704.5697353601904
 30
0.0
 11
203.6633994120041
 21
704.5697353601904
 31
0.0
  0
LINE
  5
155
330
3C
100
AcDbEntity
  8
1
  6
Continuous
 62
     7
100
AcDbLine
 10
192.6633994120037
 20
704.5697353601904
 30
0.0
 11
188.6633994120037
 21
704.5697353601904
 31
0.0
  0
LINE
  5
156
330
3C
100
AcDbEntity
  8
1
  6
Continuous
 62
     7
100
AcDbLine
 10
188.6633994120037
 20
693.0697353601904
 30
0.0
 11
203.6633994120041
 21
693.0697353601904
 31
0.0
  0
LINE
  5
157
330
3C
100
AcDbEntity
  8
1
  6
Continuous
 62
     7
100
AcDbLine
 10
203.6633994120041
 20
704.5697353601904
 30
0.0
 11
192.6633994120037
 21
704.5697353601904
 31
0.0
  0
ARC
  5
158
330
3C
100
AcDbEntity
  8
1
  6
Continuous
 62
     7
100
AcDbCircle
 10
206.970837872068
 20
364.9614830917392
 30
0.0
 40
20.12610465383062
100
AcDbArc
 50
-179.7443907062688
 51
-177.145565541657
  0
ARC
  5
159
330
3C
100
AcDbEntity
  8
1
  6
Continuous
 62
     7
100
AcDbCircle
 10
203.6633994120041
 20
364.8716963330044
 30
0.0
 40
16.8184659140234
100
AcDbArc
 50
177.4011748353918
 51
180.0
  0
ARC
  5
15A
330
3C
100
AcDbEntity
  8
1
  6
Continuous
 62
     7
100
AcDbCircle
 10
204.416739664273
 20
366.1765199253263
 30
0.0
 40
18.32310967978942
100
AcDbArc
 50
-122.8544344583406
 51
-117.1455655416412
  0
ARC
  5
15B
330
3C
100
AcDbEntity
  8
1
  6
Continuous
 62
     7
100
AcDbCircle
 10
202.910059159734
 20
366.1765199253283
 30
0.0
 40
18.32310967979229
100
AcDbArc
 50
-62.85443445835748
 51
-57.14556554165915
  0
ARC
  5
15C
330
3C
100
AcDbEntity
  8
1
  6
Continuous
 62
     7
100
AcDbCircle
 10
210.4818653260271
 20
698.8197353601904
 30
0.0
 40
10.00000000000018
100
AcDbArc
 50
-35.09963219539279
 51
35.09963219539279
  0
ARC
  5
15D
330
3C
100
AcDbEntity
  8
1
  6
Continuous
 62
     7
100
AcDbCircle
 10
196.8449334979806
 20
698.8197353601904
 30
0.0
 40
10.00000000000009
100
AcDbArc
 50
144.9003678046068
 51
-144.9003678046068
  0
SPLINE
  5
15E
330
3C
100
AcDbEntity
  8
1
  6
Continuous
 62
     7
100
AcDbSpline
210
0.0
220
0.0
230
1.0
 70
     8
 71
     3
 72
    43
 73
    39
 74
    37
 42
0.0000000001
 43
0.0000000001
 44
0.00000001
 40
0.0
 40
0.0
 40
0.0
 40
0.0
 40
0.6741122140077974
 40
1.347191793851187
 40
2.011630304022069
 40
2.676871725019185
 40
3.324478930126943
 40
3.971720081677415
 40
4.595015010543304
 40
5.218409846267091
 40
5.813201329818978
 40
6.407916853462078
 40
6.97266970828448
 40
7.537385867034788
 40
8.07437902320747
 40
8.611308672712331
 40
9.126727082004914
 40
9.642089756504477
 40
10.14564262934854
 40
10.64917050877322
 40
11.1526983881978
 40
11.65625126104175
 40
12.17161393554153
 40
12.68703234483422
 40
13.22396199433896
 40
13.76095515051166
 40
14.32567130926199
 40
14.89042416408437
 40
15.48513968772761
 40
16.07993117127936
 40
16.70332600700318
 40
17.32662093586914
 40
17.97386208741953
 40
18.62146929252722
 40
19.28671071352436
 40
19.9511492236952
 40
20.6242288035386
 40
21.29834101754648
 40
21.29834101754648
 40
21.29834101754648
 40
21.29834101754648
 10
203.6633994120041
 20
704.5697353601904
 30
0.0
 10
203.4388523626307
 20
704.5613807882812
 30
0.0
 10
202.9901022347389
 20
704.5446844423559
 30
0.0
 10
202.3211309933536
 20
704.4918953479108
 30
0.0
 10
201.661479321053
 20
704.384416804472
 30
0.0
 10
201.0199478899047
 20
704.2312269347433
 30
0.0
 10
200.3949402522166
 20
704.0392894354533
 30
0.0
 10
199.7975886647188
 20
703.809716613035
 30
0.0
 10
199.2260884829905
 20
703.5401382390264
 30
0.0
 10
198.691976806898
 20
703.2363480710089
 30
0.0
 10
198.1913834394373
 20
702.8967063380367
 30
0.0
 10
197.735951539166
 20
702.5287553973261
 30
0.0
 10
197.3217871266329
 20
702.1292044950408
 30
0.0
 10
196.958808302641
 20
701.7075609103461
 30
0.0
 10
196.6440859211145
 20
701.2600603822932
 30
0.0
 10
196.3846702984089
 20
700.7969782159686
 30
0.0
 10
196.1795355606478
 20
700.315251765245
 30
0.0
 10
196.0321370791691
 20
699.8243312280083
 30
0.0
 10
195.9432743493783
 20
699.3235469829457
 30
0.0
 10
195.9132213474871
 20
698.8197353601905
 30
0.0
 10
195.9432743493783
 20
698.3159237374352
 30
0.0
 10
196.0321370791692
 20
697.8151394923727
 30
0.0
 10
196.1795355606477
 20
697.324218955136
 30
0.0
 10
196.3846702984089
 20
696.8424925044119
 30
0.0
 10
196.6440859211145
 20
696.3794103380875
 30
0.0
 10
196.9588083026411
 20
695.9319098100348
 30
0.0
 10
197.321787126633
 20
695.5102662253398
 30
0.0
 10
197.735951539166
 20
695.1107153230548
 30
0.0
 10
198.1913834394374
 20
694.7427643823437
 30
0.0
 10
198.691976806898
 20
694.4031226493721
 30
0.0
 10
199.2260884829905
 20
694.0993324813539
 30
0.0
 10
199.7975886647187
 20
693.8297541073457
 30
0.0
 10
200.3949402522167
 20
693.6001812849271
 30
0.0
 10
201.0199478899047
 20
693.408243785638
 30
0.0
 10
201.661479321053
 20
693.2550539159086
 30
0.0
 10
202.3211309933535
 20
693.14757537247
 30
0.0
 10
202.9901022347388
 20
693.0947862780245
 30
0.0
 10
203.4388523626307
 20
693.0780899320997
 30
0.0
 10
203.6633994120041
 20
693.0697353601904
 30
0.0
 11
203.6633994120041
 21
704.5697353601904
 31
0.0
 11
202.9899433214499
 21
704.5400003443021
 31
0.0
 11
202.3193346353956
 21
704.4823799400106
 31
0.0
 11
201.6633776641526
 21
704.3765546799078
 31
0.0
 11
201.0161085868951
 21
704.2229679297095
 31
0.0
 11
200.3972349508103
 21
704.0322049493736
 31
0.0
 11
199.7933191305213
 21
703.7993814319509
 31
0.0
 11
199.229767372881
 21
703.5330996548604
 31
0.0
 11
198.6881201051457
 21
703.2244909081244
 31
0.0
 11
198.1962737875012
 21
702.8900299855559
 31
0.0
 11
197.7340924238961
 21
702.515764115888
 31
0.0
 11
197.3281022940505
 21
702.1231857141668
 31
0.0
 11
196.9602237351058
 21
701.6947353601904
 31
0.0
 11
196.6518179390513
 21
701.2551360941125
 31
0.0
 11
196.3900276472877
 21
700.7863511843129
 31
0.0
 11
196.1884926805202
 21
700.3119675907858
 31
0.0
 11
196.0408292800367
 21
699.8182123817753
 31
0.0
 11
195.9529599429415
 21
699.3223853198394
 31
0.0
 11
195.9232388490392
 21
698.8197353601904
 31
0.0
 11
195.9529599429415
 21
698.3170854005415
 31
0.0
 11
196.0408292800367
 21
697.8212583386057
 31
0.0
 11
196.1884926805202
 21
697.327503129595
 31
0.0
 11
196.3900276472877
 21
696.8531195360678
 31
0.0
 11
196.6518179390513
 21
696.3843346262684
 31
0.0
 11
196.9602237351058
 21
695.9447353601904
 31
0.0
 11
197.3281022940506
 21
695.5162850062141
 31
0.0
 11
197.7340924238961
 21
695.1237066044928
 31
0.0
 11
198.1962737875013
 21
694.7494407348248
 31
0.0
 11
198.6881201051457
 21
694.4149798122564
 31
0.0
 11
199.229767372881
 21
694.1063710655203
 31
0.0
 11
199.7933191305213
 21
693.8400892884297
 31
0.0
 11
200.3972349508103
 21
693.6072657710072
 31
0.0
 11
201.0161085868951
 21
693.4165027906715
 31
0.0
 11
201.6633776641526
 21
693.262916040473
 31
0.0
 11
202.3193346353955
 21
693.1570907803701
 31
0.0
 11
202.9899433214498
 21
693.0994703760784
 31
0.0
 11
203.6633994120041
 21
693.0697353601904
 31
0.0
  0
SPLINE
  5
15F
330
3C
100
AcDbEntity
  8
1
  6
Continuous
 62
     7
100
AcDbSpline
210
0.0
220
0.0
230
1.0
 70
    11
 71
     3
 72
    79
 73
    75
 74
    73
 42
0.0000000001
 43
0.0000000001
 44
0.00000001
 40
0.0
 40
0.0
 40
0.0
 40
0.0
 40
0.3402621889957154
 40
0.6805591118123391
 40
1.03250345295705
 40
1.384518291221917
 40
1.757474666115468
 40
2.130492798710226
 40
2.530035794632314
 40
2.929621827749905
 40
3.357408406887847
 40
3.785223476226797
 40
4.239510439281309
 40
4.693815937249908
 40
5.170195891321277
 40
5.646587447271442
 40
6.1387275064224
 40
6.63087394748577
 40
7.131199082992142
 40
7.631526256527125
 40
8.131853430061995
 40
8.632178565568253
 40
9.124325006631848
 40
9.616465065782919
 40
10.09285662173297
 40
10.56923657580434
 40
11.02354207377293
 40
11.47782903682746
 40
11.90564410616639
 40
12.33343068530435
 40
12.73301671842207
 40
13.1325597143442
 40
13.50557784693875
 40
13.87853422183224
 40
14.23054906009721
 40
14.58249340124195
 40
14.92279032405855
 40
15.26305251305427
 40
15.60331470204992
 40
15.94361162486649
 40
16.29555596601122
 40
16.64757080427619
 40
17.02052717916977
 40
17.39354531176441
 40
17.79308830768644
 40
18.19267434080411
 40
18.62046091994202
 40
19.048275989281
 40
19.50256295233553
 40
19.95686845030416
 40
20.4332484043754
 40
20.90963996032555
 40
21.40178001947665
 40
21.89392646054025
 40
22.3942515960464
 40
22.89457876958138
 40
23.39490594311637
 40
23.89523107862274
 40
24.38737751968624
 40
24.87951757883711
 40
25.35590913478726
 40
25.83228908885861
 40
26.28659458682721
 40
26.74088154988177
 40
27.16869661922074
 40
27.59648319835866
 40
27.99606923147614
 40
28.39561222739819
 40
28.76863035999304
 40
29.14158673488668
 40
29.49360157315137
 40
29.84554591429596
 40
30.18584283711275
 40
30.52610502610849
 40
30.52610502610849
 40
30.52610502610849
 40
30.52610502610849
 10
190.7236626777688
 20
704.5697353601904
 30
0.0
 10
190.6101681165196
 20
704.565402793758
 30
0.0
 10
190.3831674085443
 20
704.5567372186271
 30
0.0
 10
190.0445073291973
 20
704.4879318595788
 30
0.0
 10
189.7132333354975
 20
704.3788410903368
 30
0.0
 10
189.3876185308135
 20
704.2256857012202
 30
0.0
 10
189.0756022948634
 20
704.0329428347487
 30
0.0
 10
188.7734005745882
 20
703.7984863793471
 30
0.0
 10
188.489554777161
 20
703.5290726157817
 30
0.0
 10
188.2199372892275
 20
703.2208733262165
 30
0.0
 10
187.9722646055648
 20
702.8830265363905
 30
0.0
 10
187.7432041925869
 20
702.5108083358501
 30
0.0
 10
187.5388150611751
 20
702.1145241207165
 30
0.0
 10
187.3570198427649
 20
701.6897773497594
 30
0.0
 10
187.201936530975
 20
701.2467555530764
 30
0.0
 10
187.0726995442493
 20
700.7824512056833
 30
0.0
 10
186.9716081516291
 20
700.3058457140241
 30
0.0
 10
186.8986512844315
 20
699.8160844095066
 30
0.0
 10
186.8546954074823
 20
699.3201349272373
 30
0.0
 10
186.8400525332888
 20
698.8197353601897
 30
0.0
 10
186.8546954074822
 20
698.3193357931465
 30
0.0
 10
186.8986512844316
 20
697.8233863108651
 30
0.0
 10
186.9716081516291
 20
697.333625006391
 30
0.0
 10
187.0726995442493
 20
696.857019514571
 30
0.0
 10
187.201936530975
 20
696.3927151677588
 30
0.0
 10
187.3570198427649
 20
695.9496933689567
 30
0.0
 10
187.538815061175
 20
695.5249466055589
 30
0.0
 10
187.743204192587
 20
695.1286623630409
 30
0.0
 10
187.9722646055648
 20
694.7564442590129
 30
0.0
 10
188.2199372892275
 20
694.4185971214478
 30
0.0
 10
188.489554777161
 20
694.1103990480829
 30
0.0
 10
188.773400574588
 20
693.8409809112376
 30
0.0
 10
189.0756022948635
 20
693.6065397446517
 30
0.0
 10
189.3876185308136
 20
693.413741718868
 30
0.0
 10
189.7132333354975
 20
693.2607811737323
 30
0.0
 10
190.0445073291972
 20
693.1509802416124
 30
0.0
 10
190.3831674085443
 20
693.08474183898
 30
0.0
 10
190.7236626777688
 20
693.0622325037399
 30
0.0
 10
191.0641579469933
 20
693.0847418389799
 30
0.0
 10
191.4028180263403
 20
693.1509802416122
 30
0.0
 10
191.7340920200399
 20
693.2607811737327
 30
0.0
 10
192.0597068247239
 20
693.4137417188678
 30
0.0
 10
192.3717230606741
 20
693.6065397446516
 30
0.0
 10
192.6739247809496
 20
693.8409809112374
 30
0.0
 10
192.9577705783767
 20
694.1103990480826
 30
0.0
 10
193.2273880663099
 20
694.418597121448
 30
0.0
 10
193.4750607499726
 20
694.7564442590125
 30
0.0
 10
193.7041211629505
 20
695.128662363041
 30
0.0
 10
193.9085102943625
 20
695.5249466055587
 30
0.0
 10
194.0903055127728
 20
695.9496933689566
 30
0.0
 10
194.2453888245625
 20
696.3927151677589
 30
0.0
 10
194.3746258112881
 20
696.8570195145711
 30
0.0
 10
194.4757172039086
 20
697.333625006391
 30
0.0
 10
194.5486740711062
 20
697.8233863108649
 30
0.0
 10
194.5926299480555
 20
698.3193357931464
 30
0.0
 10
194.6072728222489
 20
698.8197353601897
 30
0.0
 10
194.5926299480555
 20
699.3201349272371
 30
0.0
 10
194.5486740711062
 20
699.8160844095066
 30
0.0
 10
194.4757172039085
 20
700.3058457140239
 30
0.0
 10
194.3746258112881
 20
700.7824512056834
 30
0.0
 10
194.2453888245626
 20
701.2467555530765
 30
0.0
 10
194.0903055127727
 20
701.6897773497594
 30
0.0
 10
193.9085102943626
 20
702.1145241207164
 30
0.0
 10
193.7041211629505
 20
702.5108083358504
 30
0.0
 10
193.4750607499727
 20
702.8830265363903
 30
0.0
 10
193.2273880663099
 20
703.2208733262166
 30
0.0
 10
192.9577705783767
 20
703.5290726157814
 30
0.0
 10
192.6739247809495
 20
703.7984863793473
 30
0.0
 10
192.3717230606742
 20
704.0329428347487
 30
0.0
 10
192.059706824724
 20
704.22568570122
 30
0.0
 10
191.7340920200401
 20
704.3788410903367
 30
0.0
 10
191.4028180263406
 20
704.487931859579
 30
0.0
 10
191.0641579469934
 20
704.556737218627
 30
0.0
 10
190.837157239018
 20
704.5654027937583
 30
0.0
 10
190.7236626777688
 20
704.5697353601904
 30
0.0
 11
190.7236626777688
 21
704.5697353601904
 31
0.0
 11
190.3841234009934
 21
704.5475669866153
 31
0.0
 11
190.050128424035
 21
704.4823799400106
 31
0.0
 11
189.7158731498034
 21
704.3722063001861
 31
0.0
 11
189.3970591677761
 21
704.2229679297095
 31
0.0
 11
189.0794158813984
 21
704.0275217729478
 31
0.0
 11
188.7842980878747
 21
703.7993814319509
 31
0.0
 11
188.494041152399
 21
703.5248172008526
 31
0.0
 11
188.2304636196713
 21
703.2244909081244
 31
0.0
 11
187.9770717785934
 21
702.8798259517309
 31
0.0
 11
187.7523837432284
 21
702.515764115888
 31
0.0
 11
187.5437414767453
 21
702.1122234742693
 31
0.0
 11
187.3645846736722
 21
701.6947353601904
 31
0.0
 11
187.2068858636237
 21
701.2452145642862
 31
0.0
 11
187.0788494894947
 21
700.7863511843129
 31
0.0
 11
186.9765463212492
 21
700.3049616335455
 31
0.0
 11
186.9038601096787
 21
699.8182123817753
 31
0.0
 11
186.8596210918699
 21
699.3198469029119
 31
0.0
 11
186.8449334979806
 21
698.8197353601904
 31
0.0
 11
186.8596210918699
 21
698.3196238174691
 31
0.0
 11
186.9038601096787
 21
697.8212583386057
 31
0.0
 11
186.9765463212492
 21
697.3345090868353
 31
0.0
 11
187.0788494894947
 21
696.8531195360678
 31
0.0
 11
187.2068858636237
 21
696.3942561560946
 31
0.0
 11
187.3645846736722
 21
695.9447353601904
 31
0.0
 11
187.5437414767452
 21
695.5272472461115
 31
0.0
 11
187.7523837432284
 21
695.1237066044928
 31
0.0
 11
187.9770717785934
 21
694.7596447686499
 31
0.0
 11
188.2304636196713
 21
694.4149798122564
 31
0.0
 11
188.4940411523989
 21
694.114653519528
 31
0.0
 11
188.7842980878747
 21
693.8400892884297
 31
0.0
 11
189.0794158813984
 21
693.6119489474331
 31
0.0
 11
189.3970591677761
 21
693.4165027906715
 31
0.0
 11
189.7158731498034
 21
693.2672644201947
 31
0.0
 11
190.050128424035
 21
693.1570907803701
 31
0.0
 11
190.3841234009934
 21
693.0919037337656
 31
0.0
 11
190.7236626777688
 21
693.0697353601904
 31
0.0
 11
191.0632019545442
 21
693.0919037337654
 31
0.0
 11
191.3971969315025
 21
693.1570907803701
 31
0.0
 11
191.731452205734
 21
693.2672644201948
 31
0.0
 11
192.0502661877614
 21
693.4165027906715
 31
0.0
 11
192.3679094741392
 21
693.6119489474331
 31
0.0
 11
192.663027267663
 21
693.8400892884297
 31
0.0
 11
192.9532842031387
 21
694.114653519528
 31
0.0
 11
193.2168617358662
 21
694.4149798122564
 31
0.0
 11
193.470253576944
 21
694.7596447686499
 31
0.0
 11
193.6949416123091
 21
695.1237066044928
 31
0.0
 11
193.9035838787923
 21
695.5272472461115
 31
0.0
 11
194.0827406818654
 21
695.9447353601904
 31
0.0
 11
194.2404394919139
 21
696.3942561560945
 31
0.0
 11
194.3684758660428
 21
696.8531195360678
 31
0.0
 11
194.4707790342885
 21
697.3345090868353
 31
0.0
 11
194.543465245859
 21
697.8212583386057
 31
0.0
 11
194.5877042636678
 21
698.3196238174689
 31
0.0
 11
194.6023918575571
 21
698.8197353601904
 31
0.0
 11
194.5877042636678
 21
699.3198469029119
 31
0.0
 11
194.543465245859
 21
699.8182123817753
 31
0.0
 11
194.4707790342884
 21
700.3049616335456
 31
0.0
 11
194.3684758660428
 21
700.7863511843129
 31
0.0
 11
194.2404394919139
 21
701.2452145642862
 31
0.0
 11
194.0827406818654
 21
701.6947353601904
 31
0.0
 11
193.9035838787924
 21
702.1122234742693
 31
0.0
 11
193.6949416123091
 21
702.515764115888
 31
0.0
 11
193.4702535769441
 21
702.8798259517309
 31
0.0
 11
193.2168617358662
 21
703.2244909081244
 31
0.0
 11
192.9532842031387
 21
703.5248172008526
 31
0.0
 11
192.663027267663
 21
703.7993814319509
 31
0.0
 11
192.3679094741392
 21
704.0275217729478
 31
0.0
 11
192.0502661877614
 21
704.2229679297095
 31
0.0
 11
191.7314522057342
 21
704.372206300186
 31
0.0
 11
191.3971969315028
 21
704.4823799400106
 31
0.0
 11
191.0632019545443
 21
704.5475669866153
 31
0.0
 11
190.7236626777688
 21
704.5697353601904
 31
0.0
  0
SPLINE
  5
160
330
3C
100
AcDbEntity
  8
1
  6
Continuous
 62
     7
100
AcDbSpline
210
0.0
220
0.0
230
1.0
 70
     8
 71
     3
 72
    43
 73
    39
 74
    37
 42
0.0000000001
 43
0.0000000001
 44
0.00000001
 40
0.0
 40
0.0
 40
0.0
 40
0.0
 40
0.6741122140075703
 40
1.347191793850762
 40
2.0116303040217
 40
2.676871725018843
 40
3.324478930126466
 40
3.971720081676805
 40
4.595015010542771
 40
5.218409846266683
 40
5.813201329818522
 40
6.407916853461645
 40
6.972669708284067
 40
7.537385867034375
 40
8.074379023207106
 40
8.611308672711967
 40
9.126727082004537
 40
9.642089756504076
 40
10.14564262934813
 40
10.64917050877282
 40
11.1526983881974
 40
11.65625126104134
 40
12.17161393554109
 40
12.68703234483377
 40
13.2239619943385
 40
13.76095515051127
 40
14.32567130926142
 40
14.89042416408398
 40
15.48513968772718
 40
16.07993117127895
 40
16.70332600700287
 40
17.32662093586893
 40
17.97386208741914
 40
18.62146929252675
 40
19.28671071352394
 40
19.95114922369481
 40
20.62422880353801
 40
21.29834101754566
 40
21.29834101754566
 40
21.29834101754566
 40
21.29834101754566
 10
203.6633994120041
 20
704.5697353601904
 30
0.0
 10
203.8879464613775
 20
704.5613807882811
 30
0.0
 10
204.3366965892691
 20
704.5446844423559
 30
0.0
 10
205.0056678306543
 20
704.4918953479105
 30
0.0
 10
205.6653195029548
 20
704.3844168044723
 30
0.0
 10
206.3068509341031
 20
704.2312269347431
 30
0.0
 10
206.9318585717912
 20
704.0392894354536
 30
0.0
 10
207.5292101592889
 20
703.8097166130349
 30
0.0
 10
208.1007103410171
 20
703.5401382390265
 30
0.0
 10
208.6348220171099
 20
703.2363480710091
 30
0.0
 10
209.1354153845704
 20
702.8967063380369
 30
0.0
 10
209.5908472848419
 20
702.528755397326
 30
0.0
 10
210.0050116973749
 20
702.1292044950409
 30
0.0
 10
210.3679905213668
 20
701.7075609103463
 30
0.0
 10
210.6827129028934
 20
701.260060382293
 30
0.0
 10
210.942128525599
 20
700.7969782159689
 30
0.0
 10
211.1472632633601
 20
700.3152517652446
 30
0.0
 10
211.2946617448387
 20
699.8243312280088
 30
0.0
 10
211.3835244746294
 20
699.3235469829456
 30
0.0
 10
211.4135774765208
 20
698.8197353601904
 30
0.0
 10
211.3835244746294
 20
698.3159237374352
 30
0.0
 10
211.2946617448387
 20
697.8151394923729
 30
0.0
 10
211.1472632633601
 20
697.3242189551359
 30
0.0
 10
210.9421285255991
 20
696.8424925044122
 30
0.0
 10
210.6827129028934
 20
696.3794103380875
 30
0.0
 10
210.3679905213668
 20
695.9319098100348
 30
0.0
 10
210.0050116973748
 20
695.5102662253402
 30
0.0
 10
209.5908472848419
 20
695.1107153230548
 30
0.0
 10
209.1354153845704
 20
694.7427643823435
 30
0.0
 10
208.6348220171097
 20
694.403122649372
 30
0.0
 10
208.1007103410173
 20
694.0993324813542
 30
0.0
 10
207.5292101592889
 20
693.8297541073457
 30
0.0
 10
206.931858571791
 20
693.600181284927
 30
0.0
 10
206.3068509341032
 20
693.408243785638
 30
0.0
 10
205.6653195029548
 20
693.2550539159086
 30
0.0
 10
205.0056678306545
 20
693.1475753724701
 30
0.0
 10
204.3366965892691
 20
693.0947862780245
 30
0.0
 10
203.8879464613775
 20
693.0780899320996
 30
0.0
 10
203.6633994120041
 20
693.0697353601904
 30
0.0
 11
203.6633994120041
 21
704.5697353601904
 31
0.0
 11
204.3368555025581
 21
704.5400003443021
 31
0.0
 11
205.0074641886122
 21
704.4823799400106
 31
0.0
 11
205.6634211598553
 21
704.3765546799078
 31
0.0
 11
206.3106902371128
 21
704.2229679297095
 31
0.0
 11
206.9295638731975
 21
704.0322049493736
 31
0.0
 11
207.5334796934863
 21
703.7993814319509
 31
0.0
 11
208.0970314511267
 21
703.5330996548604
 31
0.0
 11
208.6386787188621
 21
703.2244909081244
 31
0.0
 11
209.1305250365066
 21
702.8900299855559
 31
0.0
 11
209.5927064001117
 21
702.515764115888
 31
0.0
 11
209.9986965299573
 21
702.1231857141668
 31
0.0
 11
210.366575088902
 21
701.6947353601904
 31
0.0
 11
210.6749808849566
 21
701.2551360941125
 31
0.0
 11
210.9367711767202
 21
700.7863511843129
 31
0.0
 11
211.1383061434877
 21
700.3119675907858
 31
0.0
 11
211.2859695439711
 21
699.8182123817753
 31
0.0
 11
211.3738388810663
 21
699.3223853198394
 31
0.0
 11
211.4035599749686
 21
698.8197353601904
 31
0.0
 11
211.3738388810662
 21
698.3170854005415
 31
0.0
 11
211.2859695439711
 21
697.8212583386057
 31
0.0
 11
211.1383061434877
 21
697.327503129595
 31
0.0
 11
210.9367711767202
 21
696.8531195360678
 31
0.0
 11
210.6749808849567
 21
696.3843346262684
 31
0.0
 11
210.366575088902
 21
695.9447353601904
 31
0.0
 11
209.9986965299573
 21
695.5162850062143
 31
0.0
 11
209.5927064001117
 21
695.1237066044928
 31
0.0
 11
209.1305250365066
 21
694.7494407348248
 31
0.0
 11
208.6386787188621
 21
694.4149798122564
 31
0.0
 11
208.0970314511267
 21
694.1063710655203
 31
0.0
 11
207.5334796934863
 21
693.8400892884297
 31
0.0
 11
206.9295638731975
 21
693.6072657710072
 31
0.0
 11
206.3106902371128
 21
693.4165027906715
 31
0.0
 11
205.6634211598553
 21
693.262916040473
 31
0.0
 11
205.0074641886123
 21
693.1570907803701
 31
0.0
 11
204.3368555025582
 21
693.0994703760784
 31
0.0
 11
203.6633994120041
 21
693.0697353601904
 31
0.0
  0
SPLINE
  5
161
330
3C
100
AcDbEntity
  8
1
  6
Continuous
 62
     7
100
AcDbSpline
210
0.0
220
0.0
230
1.0
 70
    11
 71
     3
 72
    79
 73
    75
 74
    73
 42
0.0000000001
 43
0.0000000001
 44
0.00000001
 40
0.0
 40
0.0
 40
0.0
 40
0.0
 40
0.3402621889957722
 40
0.6805591118125354
 40
1.032503452957273
 40
1.384518291222115
 40
1.757474666115749
 40
2.130492798710415
 40
2.530035794632606
 40
2.929621827750179
 40
3.357408406888019
 40
3.785223476226896
 40
4.239510439281473
 40
4.693815937250139
 40
5.170195891321498
 40
5.646587447271616
 40
6.138727506422686
 40
6.630873947485943
 40
7.131199082992315
 40
7.631526256527298
 40
8.131853430062167
 40
8.632178565568426
 40
9.12432500663202
 40
9.616465065783091
 40
10.09285662173311
 40
10.56923657580446
 40
11.02354207377313
 40
11.4778290368277
 40
11.90564410616649
 40
12.33343068530441
 40
12.73301671842215
 40
13.13255971434434
 40
13.50557784693889
 40
13.87853422183238
 40
14.23054906009732
 40
14.58249340124209
 40
14.92279032405881
 40
15.26305251305461
 40
15.60331470205006
 40
15.94361162486655
 40
16.29555596601136
 40
16.64757080427632
 40
17.02052717916984
 40
17.39354531176446
 40
17.79308830768656
 40
18.19267434080423
 40
18.62046091994229
 40
19.04827598928106
 40
19.50256295233568
 40
19.9568684503043
 40
20.43324840437554
 40
20.90963996032567
 40
21.40178001947677
 40
21.89392646054039
 40
22.39425159604654
 40
22.89457876958152
 40
23.3949059431165
 40
23.89523107862288
 40
24.38737751968639
 40
24.87951757883726
 40
25.35590913478739
 40
25.83228908885874
 40
26.28659458682736
 40
26.74088154988198
 40
27.16869661922081
 40
27.59648319835882
 40
27.99606923147633
 40
28.39561222739842
 40
28.76863035999324
 40
29.14158673488682
 40
29.49360157315148
 40
29.8455459142961
 40
30.18584283711278
 40
30.52610502610844
 40
30.52610502610844
 40
30.52610502610844
 40
30.52610502610844
 10
216.6031361462388
 20
704.5697353601904
 30
0.0
 10
216.716630707488
 20
704.565402793758
 30
0.0
 10
216.9436314154635
 20
704.5567372186272
 30
0.0
 10
217.2822914948105
 20
704.4879318595786
 30
0.0
 10
217.6135654885102
 20
704.3788410903367
 30
0.0
 10
217.9391802931944
 20
704.2256857012204
 30
0.0
 10
218.2511965291443
 20
704.0329428347485
 30
0.0
 10
218.5533982494197
 20
703.7984863793474
 30
0.0
 10
218.8372440468469
 20
703.5290726157815
 30
0.0
 10
219.1068615347804
 20
703.2208733262168
 30
0.0
 10
219.354534218443
 20
702.8830265363904
 30
0.0
 10
219.5835946314206
 20
702.51080833585
 30
0.0
 10
219.7879837628327
 20
702.1145241207163
 30
0.0
 10
219.9697789812431
 20
701.6897773497593
 30
0.0
 10
220.1248622930329
 20
701.2467555530766
 30
0.0
 10
220.2540992797583
 20
700.7824512056831
 30
0.0
 10
220.3551906723787
 20
700.3058457140241
 30
0.0
 10
220.4281475395762
 20
699.8160844095065
 30
0.0
 10
220.4721034165256
 20
699.3201349272372
 30
0.0
 10
220.4867462907189
 20
698.8197353601897
 30
0.0
 10
220.4721034165256
 20
698.3193357931467
 30
0.0
 10
220.4281475395761
 20
697.8233863108645
 30
0.0
 10
220.3551906723787
 20
697.3336250063912
 30
0.0
 10
220.2540992797584
 20
696.8570195145708
 30
0.0
 10
220.1248622930328
 20
696.3927151677591
 30
0.0
 10
219.9697789812431
 20
695.9496933689563
 30
0.0
 10
219.7879837628327
 20
695.5249466055586
 30
0.0
 10
219.5835946314206
 20
695.1286623630411
 30
0.0
 10
219.354534218443
 20
694.7564442590128
 30
0.0
 10
219.1068615347803
 20
694.4185971214479
 30
0.0
 10
218.837244046847
 20
694.1103990480827
 30
0.0
 10
218.5533982494197
 20
693.8409809112372
 30
0.0
 10
218.2511965291443
 20
693.6065397446519
 30
0.0
 10
217.9391802931942
 20
693.413741718868
 30
0.0
 10
217.6135654885103
 20
693.2607811737323
 30
0.0
 10
217.2822914948106
 20
693.1509802416124
 30
0.0
 10
216.9436314154634
 20
693.0847418389802
 30
0.0
 10
216.6031361462389
 20
693.0622325037398
 30
0.0
 10
216.2626408770144
 20
693.0847418389799
 30
0.0
 10
215.9239807976676
 20
693.1509802416124
 30
0.0
 10
215.5927068039679
 20
693.2607811737327
 30
0.0
 10
215.2670919992839
 20
693.413741718868
 30
0.0
 10
214.9550757633338
 20
693.6065397446517
 30
0.0
 10
214.6528740430582
 20
693.8409809112372
 30
0.0
 10
214.3690282456312
 20
694.1103990480827
 30
0.0
 10
214.0994107576979
 20
694.4185971214481
 30
0.0
 10
213.8517380740353
 20
694.7564442590127
 30
0.0
 10
213.6226776610573
 20
695.1286623630411
 30
0.0
 10
213.4182885296451
 20
695.5249466055586
 30
0.0
 10
213.2364933112351
 20
695.9496933689566
 30
0.0
 10
213.0814099994452
 20
696.3927151677589
 30
0.0
 10
212.9521730127197
 20
696.857019514571
 30
0.0
 10
212.8510816200992
 20
697.3336250063909
 30
0.0
 10
212.7781247529015
 20
697.8233863108646
 30
0.0
 10
212.7341688759522
 20
698.3193357931465
 30
0.0
 10
212.7195260017587
 20
698.8197353601897
 30
0.0
 10
212.7341688759522
 20
699.3201349272372
 30
0.0
 10
212.7781247529015
 20
699.8160844095066
 30
0.0
 10
212.8510816200993
 20
700.3058457140241
 30
0.0
 10
212.9521730127196
 20
700.7824512056832
 30
0.0
 10
213.0814099994452
 20
701.2467555530766
 30
0.0
 10
213.2364933112349
 20
701.6897773497593
 30
0.0
 10
213.4182885296452
 20
702.1145241207164
 30
0.0
 10
213.6226776610573
 20
702.5108083358502
 30
0.0
 10
213.8517380740352
 20
702.8830265363902
 30
0.0
 10
214.0994107576978
 20
703.2208733262168
 30
0.0
 10
214.3690282456312
 20
703.5290726157817
 30
0.0
 10
214.6528740430584
 20
703.7984863793471
 30
0.0
 10
214.9550757633337
 20
704.0329428347488
 30
0.0
 10
215.2670919992838
 20
704.2256857012202
 30
0.0
 10
215.5927068039678
 20
704.3788410903366
 30
0.0
 10
215.9239807976672
 20
704.4879318595786
 30
0.0
 10
216.2626408770144
 20
704.5567372186272
 30
0.0
 10
216.4896415849896
 20
704.5654027937582
 30
0.0
 10
216.6031361462388
 20
704.5697353601904
 30
0.0
 11
216.6031361462388
 21
704.5697353601904
 31
0.0
 11
216.9426754230143
 21
704.5475669866153
 31
0.0
 11
217.2766703999728
 21
704.4823799400106
 31
0.0
 11
217.6109256742044
 21
704.3722063001861
 31
0.0
 11
217.9297396562317
 21
704.2229679297095
 31
0.0
 11
218.2473829426094
 21
704.0275217729477
 31
0.0
 11
218.5425007361331
 21
703.7993814319509
 31
0.0
 11
218.832757671609
 21
703.5248172008526
 31
0.0
 11
219.0963352043366
 21
703.2244909081244
 31
0.0
 11
219.3497270454143
 21
702.8798259517309
 31
0.0
 11
219.5744150807792
 21
702.515764115888
 31
0.0
 11
219.7830573472625
 21
702.1122234742693
 31
0.0
 11
219.9622141503357
 21
701.6947353601904
 31
0.0
 11
220.1199129603842
 21
701.2452145642862
 31
0.0
 11
220.247949334513
 21
700.7863511843129
 31
0.0
 11
220.3502525027585
 21
700.3049616335454
 31
0.0
 11
220.422938714329
 21
699.8182123817753
 31
0.0
 11
220.4671777321378
 21
699.3198469029119
 31
0.0
 11
220.4818653260271
 21
698.8197353601904
 31
0.0
 11
220.4671777321378
 21
698.3196238174691
 31
0.0
 11
220.422938714329
 21
697.8212583386057
 31
0.0
 11
220.3502525027585
 21
697.3345090868353
 31
0.0
 11
220.247949334513
 21
696.8531195360678
 31
0.0
 11
220.1199129603842
 21
696.3942561560946
 31
0.0
 11
219.9622141503357
 21
695.9447353601904
 31
0.0
 11
219.7830573472625
 21
695.5272472461115
 31
0.0
 11
219.5744150807792
 21
695.1237066044928
 31
0.0
 11
219.3497270454143
 21
694.75964476865
 31
0.0
 11
219.0963352043366
 21
694.4149798122564
 31
0.0
 11
218.832757671609
 21
694.114653519528
 31
0.0
 11
218.5425007361331
 21
693.8400892884297
 31
0.0
 11
218.2473829426094
 21
693.6119489474331
 31
0.0
 11
217.9297396562317
 21
693.4165027906715
 31
0.0
 11
217.6109256742044
 21
693.2672644201947
 31
0.0
 11
217.2766703999728
 21
693.1570907803701
 31
0.0
 11
216.9426754230143
 21
693.0919037337656
 31
0.0
 11
216.6031361462388
 21
693.0697353601904
 31
0.0
 11
216.2635968694636
 21
693.0919037337654
 31
0.0
 11
215.9296018925054
 21
693.1570907803701
 31
0.0
 11
215.5953466182738
 21
693.2672644201948
 31
0.0
 11
215.2765326362464
 21
693.4165027906715
 31
0.0
 11
214.9588893498687
 21
693.6119489474331
 31
0.0
 11
214.6637715563449
 21
693.8400892884297
 31
0.0
 11
214.3735146208691
 21
694.114653519528
 31
0.0
 11
214.1099370881416
 21
694.4149798122564
 31
0.0
 11
213.8565452470638
 21
694.7596447686501
 31
0.0
 11
213.6318572116988
 21
695.1237066044928
 31
0.0
 11
213.4232149452154
 21
695.5272472461115
 31
0.0
 11
213.2440581421423
 21
695.9447353601904
 31
0.0
 11
213.0863593320939
 21
696.3942561560945
 31
0.0
 11
212.958322957965
 21
696.8531195360678
 31
0.0
 11
212.8560197897194
 21
697.3345090868353
 31
0.0
 11
212.7833335781487
 21
697.8212583386057
 31
0.0
 11
212.7390945603399
 21
698.3196238174689
 31
0.0
 11
212.7244069664506
 21
698.8197353601904
 31
0.0
 11
212.7390945603398
 21
699.3198469029119
 31
0.0
 11
212.7833335781487
 21
699.8182123817753
 31
0.0
 11
212.8560197897194
 21
700.3049616335456
 31
0.0
 11
212.958322957965
 21
700.7863511843129
 31
0.0
 11
213.0863593320938
 21
701.2452145642862
 31
0.0
 11
213.2440581421423
 21
701.6947353601904
 31
0.0
 11
213.4232149452154
 21
702.1122234742693
 31
0.0
 11
213.6318572116988
 21
702.515764115888
 31
0.0
 11
213.8565452470638
 21
702.8798259517308
 31
0.0
 11
214.1099370881416
 21
703.2244909081244
 31
0.0
 11
214.3735146208691
 21
703.5248172008526
 31
0.0
 11
214.6637715563449
 21
703.7993814319509
 31
0.0
 11
214.9588893498687
 21
704.0275217729478
 31
0.0
 11
215.2765326362464
 21
704.2229679297095
 31
0.0
 11
215.5953466182736
 21
704.372206300186
 31
0.0
 11
215.929601892505
 21
704.4823799400106
 31
0.0
 11
216.2635968694634
 21
704.5475669866153
 31
0.0
 11
216.6031361462388
 21
704.5697353601904
 31
0.0
  0
ENDBLK
  5
3E
330
3C
100
AcDbEntity
  8
0
100
AcDbBlockEnd
  0
BLOCK
  5
40
330
3F
100
AcDbEntity
  8
0
100
AcDbBlockBegin
  2
32-43A__2
 70
     0
 71
     0
 10
1407.398792579344
 20
342.4783807146388
 30
0.0
  3
32-43A__2
  1

  0
LINE
  5
162
330
3F
100
AcDbEntity
  8
1
  6
Continuous
 62
     7
100
AcDbLine
 10
336.3745082143836
 20
372.7184782387
 30
0.0
 11
340.4645675294155
 21
365.6342876990942
 31
0.0
  0
LINE
  5
163
330
3F
100
AcDbEntity
  8
1
  6
Continuous
 62
     7
100
AcDbLine
 10
340.4570946715799
 20
363.9592297694184
 30
0.0
 11
336.6537804687712
 21
357.3716963330041
 31
0.0
  0
LINE
  5
164
330
3F
100
AcDbEntity
  8
1
  6
Continuous
 62
     7
100
AcDbLine
 10
336.6537804687712
 20
357.3716963330041
 30
0.0
 11
332.8504662659616
 21
350.7841628965904
 31
0.0
  0
LINE
  5
165
330
3F
100
AcDbEntity
  8
1
  6
Continuous
 62
     7
100
AcDbLine
 10
331.2700278176222
 20
349.8716963330039
 30
0.0
 11
323.6633994120037
 21
349.8716963330039
 31
0.0
  0
LINE
  5
166
330
3F
100
AcDbEntity
  8
1
  6
Continuous
 62
     7
100
AcDbLine
 10
323.6633994120037
 20
349.8716963330039
 30
0.0
 11
316.0567710063856
 21
349.8716963330039
 31
0.0
  0
LINE
  5
167
330
3F
100
AcDbEntity
  8
1
  6
Continuous
 62
     7
100
AcDbLine
 10
314.4763325580464
 20
350.7841628965905
 30
0.0
 11
310.673018355237
 21
357.3716963330041
 31
0.0
  0
LINE
  5
168
330
3F
100
AcDbEntity
  8
1
  6
Continuous
 62
     7
100
AcDbLine
 10
310.673018355237
 20
357.3716963330041
 30
0.0
 11
310.0684449199694
 21
358.4188482397942
 31
0.0
  0
LINE
  5
169
330
3F
100
AcDbEntity
  8
1
  6
Continuous
 62
     7
100
AcDbLine
 10
614.492629835903
 20
349.871696333004
 30
0.0
 11
602.992629835903
 21
349.871696333004
 31
0.0
  0
LINE
  5
16A
330
3F
100
AcDbEntity
  8
1
  6
Continuous
 62
     7
100
AcDbLine
 10
602.992629835903
 20
379.8716963330044
 30
0.0
 11
614.492629835903
 21
379.8716963330044
 31
0.0
  0
LINE
  5
16B
330
3F
100
AcDbEntity
  8
1
  6
Continuous
 62
     7
100
AcDbLine
 10
614.492629835903
 20
353.871696333004
 30
0.0
 11
614.492629835903
 21
364.8716963330044
 31
0.0
  0
LINE
  5
16C
330
3F
100
AcDbEntity
  8
1
  6
Continuous
 62
     7
100
AcDbLine
 10
602.9926298359031
 20
364.8716963330044
 30
0.0
 11
602.992629835903
 21
349.871696333004
 31
0.0
  0
LINE
  5
16D
330
3F
100
AcDbEntity
  8
1
  6
Continuous
 62
     7
100
AcDbLine
 10
614.492629835903
 20
349.871696333004
 30
0.0
 11
614.492629835903
 21
353.871696333004
 31
0.0
  0
LINE
  5
16E
330
3F
100
AcDbEntity
  8
1
  6
Continuous
 62
     7
100
AcDbLine
 10
614.492629835903
 20
364.8716963330044
 30
0.0
 11
614.492629835903
 21
375.8716963330044
 31
0.0
  0
LINE
  5
16F
330
3F
100
AcDbEntity
  8
1
  6
Continuous
 62
     7
100
AcDbLine
 10
602.992629835903
 20
379.8716963330044
 30
0.0
 11
602.9926298359031
 21
364.8716963330044
 31
0.0
  0
LINE
  5
170
330
3F
100
AcDbEntity
  8
1
  6
Continuous
 62
     7
100
AcDbLine
 10
614.492629835903
 20
375.8716963330044
 30
0.0
 11
614.492629835903
 21
379.8716963330044
 31
0.0
  0
LINE
  5
171
330
3F
100
AcDbEntity
  8
1
  6
Continuous
 62
     7
100
AcDbLine
 10
334.6633994120042
 20
704.5697353601904
 30
0.0
 11
323.6633994120037
 21
704.5697353601904
 31
0.0
  0
LINE
  5
172
330
3F
100
AcDbEntity
  8
1
  6
Continuous
 62
     7
100
AcDbLine
 10
323.6633994120037
 20
693.0697353601904
 30
0.0
 11
338.6633994120042
 21
693.0697353601904
 31
0.0
  0
LINE
  5
173
330
3F
100
AcDbEntity
  8
1
  6
Continuous
 62
     7
100
AcDbLine
 10
338.6633994120042
 20
704.5697353601904
 30
0.0
 11
334.6633994120042
 21
704.5697353601904
 31
0.0
  0
LINE
  5
174
330
3F
100
AcDbEntity
  8
1
  6
Continuous
 62
     7
100
AcDbLine
 10
323.6633994120037
 20
704.5697353601904
 30
0.0
 11
312.6633994120037
 21
704.5697353601904
 31
0.0
  0
LINE
  5
175
330
3F
100
AcDbEntity
  8
1
  6
Continuous
 62
     7
100
AcDbLine
 10
308.6633994120037
 20
693.0697353601904
 30
0.0
 11
323.6633994120037
 21
693.0697353601904
 31
0.0
  0
LINE
  5
176
330
3F
100
AcDbEntity
  8
1
  6
Continuous
 62
     7
100
AcDbLine
 10
312.6633994120037
 20
704.5697353601904
 30
0.0
 11
308.6633994120037
 21
704.5697353601904
 31
0.0
  0
ARC
  5
177
330
3F
100
AcDbEntity
  8
1
  6
Continuous
 62
     7
100
AcDbCircle
 10
320.35596095194
 20
364.9614830917392
 30
0.0
 40
20.12610465383074
100
AcDbArc
 50
-2.85443445834296
 51
-0.25560929373126
  0
ARC
  5
178
330
3F
100
AcDbEntity
  8
1
  6
Continuous
 62
     7
100
AcDbCircle
 10
323.6633994120041
 20
364.8716963330044
 30
0.0
 40
16.81846591402302
100
AcDbArc
 50
0.0
 51
2.59882516460826
  0
ARC
  5
179
330
3F
100
AcDbEntity
  8
1
  6
Continuous
 62
     7
100
AcDbCircle
 10
322.9100591597349
 20
366.1765199253263
 30
0.0
 40
18.32310967978993
100
AcDbArc
 50
-62.85443445835827
 51
-57.14556554165858
  0
ARC
  5
17A
330
3F
100
AcDbEntity
  8
1
  6
Continuous
 62
     7
100
AcDbCircle
 10
324.4167396642741
 20
366.1765199253283
 30
0.0
 40
18.3231096797917
100
AcDbArc
 50
-122.8544344583408
 51
-117.1455655416422
  0
ARC
  5
17B
330
3F
100
AcDbEntity
  8
1
  6
Continuous
 62
     7
100
AcDbCircle
 10
330.4818653260273
 20
698.8197353601904
 30
0.0
 40
10.00000000000011
100
AcDbArc
 50
-35.09963219539307
 51
35.09963219539307
  0
ARC
  5
17C
330
3F
100
AcDbEntity
  8
1
  6
Continuous
 62
     7
100
AcDbCircle
 10
316.8449334979808
 20
698.8197353601904
 30
0.0
 40
10.00000000000025
100
AcDbArc
 50
144.9003678046075
 51
-144.9003678046075
  0
SPLINE
  5
17D
330
3F
100
AcDbEntity
  8
1
  6
Continuous
 62
     7
100
AcDbSpline
210
0.0
220
0.0
230
1.0
 70
    11
 71
     3
 72
    79
 73
    75
 74
    73
 42
0.0000000001
 43
0.0000000001
 44
0.00000001
 40
0.0
 40
0.0
 40
0.0
 40
0.0
 40
0.5051302555995814
 40
1.010205519841712
 40
1.522901407141366
 40
2.035501606588793
 40
2.559564306195922
 40
3.083511977949371
 40
3.62119008994821
 40
4.158753742259341
 40
4.710557688679132
 40
5.262261609034631
 40
5.827023209480872
 40
6.39170682307266
 40
6.966818040371712
 40
7.541876564076913
 40
8.123641411987169
 40
8.705379839970306
 40
9.28942950895215
 40
9.873479177933994
 40
10.45521760591719
 40
11.03698245382741
 40
11.6120409775325
 40
12.18715219483146
 40
12.75183580842319
 40
13.31659740886938
 40
13.86830132922488
 40
14.42010527564471
 40
14.95766892795596
 40
15.49534703995472
 40
16.01929471170798
 40
16.54335741131524
 40
17.05595761076264
 40
17.56865349806251
 40
18.07372876230469
 40
18.57885901790419
 40
19.08131584484747
 40
19.58377267179053
 40
20.08890292739002
 40
20.5939781916322
 40
21.1066740789319
 40
21.61927427837943
 40
22.14333697798658
 40
22.66728464974009
 40
23.20496276173885
 40
23.74252641405005
 40
24.29433036046985
 40
24.84603428082539
 40
25.41079588127163
 40
25.97547949486336
 40
26.55059071216223
 40
27.12564923586743
 40
27.70741408377767
 40
28.28915251176074
 40
28.87320218074252
 40
29.45725184972442
 40
30.03899027770754
 40
30.62075512561786
 40
31.1958136493232
 40
31.77092486662212
 40
32.33560848021384
 40
32.90037008066013
 40
33.45207400101557
 40
34.00387794743536
 40
34.54144159974648
 40
35.07911971174545
 40
35.60306738349878
 40
36.127130083106
 40
36.63973028255343
 40
37.15242616985323
 40
37.65750143409532
 40
38.16263168969491
 40
38.66508851663819
 40
39.16754534358137
 40
39.16754534358137
 40
39.16754534358137
 40
39.16754534358137
 10
609.2444292254683
 20
364.0834099173175
 30
0.0
 10
609.4115129659018
 20
364.0614170090071
 30
0.0
 10
609.7456622570805
 20
364.0174335866592
 30
0.0
 10
610.2374939477456
 20
363.8866327422939
 30
0.0
 10
610.7170729552886
 20
363.7108901339303
 30
0.0
 10
611.182453613158
 20
363.4849571973788
 30
0.0
 10
611.6275837790007
 20
363.214286091498
 30
0.0
 10
612.0519478486992
 20
362.8979246853314
 30
0.0
 10
612.4493596332991
 20
362.5415636520372
 30
0.0
 10
612.8198140669664
 20
362.144519763491
 30
0.0
 10
613.157750899415
 20
361.7135129206976
 30
0.0
 10
613.4631931158618
 20
361.2480681198626
 30
0.0
 10
613.7317021749316
 20
360.7554955013444
 30
0.0
 10
613.9630720218232
 20
360.2359097760684
 30
0.0
 10
614.1542282348263
 20
359.6965842418435
 30
0.0
 10
614.3047277049504
 20
359.1386560420526
 30
0.0
 10
614.4128432365707
 20
358.5687434326949
 30
0.0
 10
614.4781065499543
 20
357.9893452698727
 30
0.0
 10
614.4999058754961
 20
357.4059292900178
 30
0.0
 10
614.478106549955
 20
356.8225133101512
 30
0.0
 10
614.4128432365681
 20
356.2431151473644
 30
0.0
 10
614.3047277049607
 20
355.6732025378771
 30
0.0
 10
614.1542282347875
 20
355.1152743385645
 30
0.0
 10
613.9630720219661
 20
354.5759488025694
 30
0.0
 10
613.7317021744094
 20
354.056363083786
 30
0.0
 10
613.4631931177923
 20
353.5637904413138
 30
0.0
 10
613.1577508923947
 20
353.0983457279042
 30
0.0
 10
612.819814092907
 20
352.6673385631762
 30
0.0
 10
612.4493595392515
 20
352.2702958465692
 30
0.0
 10
612.0519481962879
 20
351.9139304997543
 30
0.0
 10
611.6275825184187
 20
351.5975848008116
 30
0.0
 10
611.1824582794127
 20
351.3268558067178
 30
0.0
 10
610.7170559618216
 20
351.1011344235733
 30
0.0
 10
610.2375570297008
 20
350.924609707823
 30
0.0
 10
609.7454307028075
 20
350.7966866150066
 30
0.0
 10
609.2461763024381
 20
350.72013819863
 30
0.0
 10
608.7426298359028
 20
350.694084383604
 30
0.0
 10
608.2390833693676
 20
350.7201381986299
 30
0.0
 10
607.7398289689984
 20
350.7966866150065
 30
0.0
 10
607.247702642105
 20
350.9246097078229
 30
0.0
 10
606.7682037099845
 20
351.1011344235735
 30
0.0
 10
606.3028013923932
 20
351.3268558067181
 30
0.0
 10
605.8576771533876
 20
351.5975848008117
 30
0.0
 10
605.4333114755175
 20
351.9139304997543
 30
0.0
 10
605.0359001325544
 20
352.2702958465693
 30
0.0
 10
604.6654455788987
 20
352.6673385631761
 30
0.0
 10
604.3275087794112
 20
353.0983457279044
 30
0.0
 10
604.0220665540134
 20
353.5637904413136
 30
0.0
 10
603.7535574973965
 20
354.0563630837861
 30
0.0
 10
603.5221876498396
 20
354.5759488025692
 30
0.0
 10
603.3310314370179
 20
355.1152743385646
 30
0.0
 10
603.180531966845
 20
355.6732025378772
 30
0.0
 10
603.0724164352379
 20
356.2431151473643
 30
0.0
 10
603.0071531218511
 20
356.8225133101516
 30
0.0
 10
602.9853537963103
 20
357.4059292900161
 30
0.0
 10
603.0071531218506
 20
357.9893452698796
 30
0.0
 10
603.072416435238
 20
358.5687434326695
 30
0.0
 10
603.180531966844
 20
359.1386560421474
 30
0.0
 10
603.3310314370208
 20
359.6965842414943
 30
0.0
 10
603.5221876498293
 20
360.235909777363
 30
0.0
 10
603.7535574974337
 20
360.7554954966111
 30
0.0
 10
604.0220665538755
 20
361.2480681373683
 30
0.0
 10
604.3275087799135
 20
361.7135128570378
 30
0.0
 10
604.6654455770415
 20
362.1445199987136
 30
0.0
 10
605.0359001392884
 20
362.5415627992373
 30
0.0
 10
605.4333114506287
 20
362.8979278371832
 30
0.0
 10
605.857677243651
 20
363.214274660838
 30
0.0
 10
606.3028010582672
 20
363.4849995098602
 30
0.0
 10
606.7682049267974
 20
363.7107360412348
 30
0.0
 10
607.2476981251372
 20
363.8872047543777
 30
0.0
 10
607.7398455493851
 20
364.0153339078875
 30
0.0
 10
608.2390215904027
 20
364.0911169779656
 30
0.0
 10
608.7428590475145
 20
364.120012936974
 30
0.0
 10
609.0772391661506
 20
364.0956109238697
 30
0.0
 10
609.2444292254683
 20
364.0834099173175
 30
0.0
 11
609.2444292254683
 21
364.0834099173175
 31
0.0
 11
609.7437061485332
 21
364.0067344374239
 31
0.0
 11
610.2326309310153
 21
363.8800317159688
 31
0.0
 11
610.7137689721315
 21
363.7029349677072
 31
0.0
 11
611.1751727327985
 21
363.4796290472397
 31
0.0
 11
611.6230025276936
 21
363.2074339188415
 31
0.0
 11
612.043330923497
 21
362.8946317410722
 31
0.0
 11
612.443789463674
 21
362.535841120066
 31
0.0
 11
612.8107993038178
 21
362.1430581551558
 31
0.0
 11
613.1514706373489
 21
361.7089721754299
 31
0.0
 11
613.4544306728016
 21
361.2478947061754
 31
0.0
 11
613.7249422565367
 21
360.7521335253597
 31
0.0
 11
613.954868211099
 21
360.2363800582093
 31
0.0
 11
614.1471673530955
 21
359.6943708772441
 31
0.0
 11
614.2970812939963
 21
359.1391969261174
 31
0.0
 11
614.4056188409575
 21
358.5676464566366
 31
0.0
 11
614.4707955417059
 21
357.9895706862814
 31
0.0
 11
614.492629835903
 21
357.4059292900159
 31
0.0
 11
614.4707955417059
 21
356.8222878937504
 31
0.0
 11
614.4056188409575
 21
356.2442121233951
 31
0.0
 11
614.2970812939961
 21
355.6726616539144
 31
0.0
 11
614.1471673530954
 21
355.1174877027878
 31
0.0
 11
613.954868211099
 21
354.5754785218226
 31
0.0
 11
613.7249422565366
 21
354.0597250546723
 31
0.0
 11
613.4544306728016
 21
353.5639638738567
 31
0.0
 11
613.1514706373489
 21
353.1028864046022
 31
0.0
 11
612.8107993038178
 21
352.6688004248762
 31
0.0
 11
612.4437894636739
 21
352.2760174599659
 31
0.0
 11
612.043330923497
 21
351.9172268389597
 31
0.0
 11
611.6230025276939
 21
351.6044246611904
 31
0.0
 11
611.1751727327986
 21
351.3322295327922
 31
0.0
 11
610.7137689721316
 21
351.1089236123248
 31
0.0
 11
610.2326309310151
 21
350.9318268640631
 31
0.0
 11
609.743706148533
 21
350.8051241426082
 31
0.0
 11
609.2444292254681
 21
350.7284486627145
 31
0.0
 11
608.7426298359028
 21
350.7027536131182
 31
0.0
 11
608.2408304463377
 21
350.7284486627145
 31
0.0
 11
607.7415535232728
 21
350.8051241426082
 31
0.0
 11
607.2526287407907
 21
350.9318268640631
 31
0.0
 11
606.7714906996745
 21
351.1089236123248
 31
0.0
 11
606.3100869390073
 21
351.3322295327923
 31
0.0
 11
605.8622571441122
 21
351.6044246611905
 31
0.0
 11
605.4419287483087
 21
351.9172268389598
 31
0.0
 11
605.0414702081318
 21
352.2760174599659
 31
0.0
 11
604.6744603679879
 21
352.6688004248762
 31
0.0
 11
604.3337890344568
 21
353.1028864046021
 31
0.0
 11
604.0308289990041
 21
353.5639638738567
 31
0.0
 11
603.760317415269
 21
354.0597250546723
 31
0.0
 11
603.5303914607066
 21
354.5754785218226
 31
0.0
 11
603.3380923187103
 21
355.1174877027877
 31
0.0
 11
603.1881783778096
 21
355.6726616539144
 31
0.0
 11
603.0796408308485
 21
356.2442121233952
 31
0.0
 11
603.0144641301001
 21
356.8222878937504
 31
0.0
 11
602.992629835903
 21
357.4059292900158
 31
0.0
 11
603.0144641300999
 21
357.9895706862814
 31
0.0
 11
603.0796408308482
 21
358.5676464566366
 31
0.0
 11
603.1881783778094
 21
359.1391969261175
 31
0.0
 11
603.3380923187103
 21
359.6943708772442
 31
0.0
 11
603.5303914607066
 21
360.2363800582094
 31
0.0
 11
603.7603174152691
 21
360.7521335253597
 31
0.0
 11
604.0308289990043
 21
361.2478947061754
 31
0.0
 11
604.3337890344568
 21
361.7089721754299
 31
0.0
 11
604.6744603679879
 21
362.1430581551558
 31
0.0
 11
605.0414702081317
 21
362.535841120066
 31
0.0
 11
605.4419287483088
 21
362.8946317410723
 31
0.0
 11
605.8622571441121
 21
363.2074339188415
 31
0.0
 11
606.3100869390073
 21
363.4796290472397
 31
0.0
 11
606.7714906996744
 21
363.7029349677072
 31
0.0
 11
607.2526287407907
 21
363.8800317159689
 31
0.0
 11
607.7415535232727
 21
364.0067344374239
 31
0.0
 11
608.2408304463377
 21
364.0834099173175
 31
0.0
 11
608.742629835903
 21
364.1091049669138
 31
0.0
 11
609.2444292254683
 21
364.0834099173175
 31
0.0
  0
SPLINE
  5
17E
330
3F
100
AcDbEntity
  8
1
  6
Continuous
 62
     7
100
AcDbSpline
210
0.0
220
0.0
230
1.0
 70
    11
 71
     3
 72
    79
 73
    75
 74
    73
 42
0.0000000001
 43
0.0000000001
 44
0.00000001
 40
0.0
 40
0.0
 40
0.0
 40
0.0
 40
0.5051302555995987
 40
1.010205519841701
 40
1.522901407141394
 40
2.035501606588796
 40
2.559564306195955
 40
3.083511977949336
 40
3.621190089948213
 40
4.158753742259302
 40
4.710557688679137
 40
5.262261609034637
 40
5.827023209480828
 40
6.391706823072512
 40
6.966818040371564
 40
7.541876564076765
 40
8.123641411986965
 40
8.705379839970046
 40
9.289429508951947
 40
9.873479177933849
 40
10.45521760591699
 40
11.03698245382726
 40
11.61204097753246
 40
12.18715219483148
 40
12.75183580842321
 40
13.31659740886934
 40
13.86830132922489
 40
14.42010527564473
 40
14.95766892795589
 40
15.49534703995473
 40
16.01929471170796
 40
16.54335741131515
 40
17.05595761076256
 40
17.56865349806244
 40
18.07372876230467
 40
18.57885901790415
 40
19.08131584484744
 40
19.58377267179051
 40
20.08890292738999
 40
20.5939781916322
 40
21.1066740789319
 40
21.6192742783794
 40
22.14333697798653
 40
22.66728464974
 40
23.20496276173872
 40
23.74252641404997
 40
24.29433036046985
 40
24.8460342808253
 40
25.41079588127149
 40
25.97547949486322
 40
26.55059071216214
 40
27.12564923586745
 40
27.70741408377774
 40
28.28915251176086
 40
28.87320218074271
 40
29.4572518497246
 40
30.03899027770767
 40
30.62075512561798
 40
31.1958136493231
 40
31.77092486662208
 40
32.33560848021386
 40
32.90037008066005
 40
33.45207400101548
 40
34.00387794743527
 40
34.54144159974644
 40
35.07911971174536
 40
35.60306738349865
 40
36.12713008310594
 40
36.63973028255337
 40
37.15242616985317
 40
37.65750143409527
 40
38.16263168969485
 40
38.66508851663814
 40
39.16754534358131
 40
39.16754534358131
 40
39.16754534358131
 40
39.16754534358131
 10
609.2444292254683
 20
365.6599827486913
 30
0.0
 10
609.4115129659016
 20
365.6819756570018
 30
0.0
 10
609.7456622570808
 20
365.7259590793497
 30
0.0
 10
610.2374939477456
 20
365.8567599237146
 30
0.0
 10
610.7170729552887
 20
366.0325025320788
 30
0.0
 10
611.1824536131578
 20
366.2584354686298
 30
0.0
 10
611.6275837790008
 20
366.5291065745111
 30
0.0
 10
612.0519478486992
 20
366.8454679806771
 30
0.0
 10
612.4493596332992
 20
367.2018290139717
 30
0.0
 10
612.8198140669664
 20
367.5988729025179
 30
0.0
 10
613.1577508994151
 20
368.029879745311
 30
0.0
 10
613.4631931158617
 20
368.4953245461462
 30
0.0
 10
613.7317021749315
 20
368.9878971646642
 30
0.0
 10
613.9630720218232
 20
369.5074828899402
 30
0.0
 10
614.1542282348264
 20
370.0468084241651
 30
0.0
 10
614.3047277049504
 20
370.6047366239562
 30
0.0
 10
614.4128432365708
 20
371.1746492333135
 30
0.0
 10
614.4781065499542
 20
371.7540473961358
 30
0.0
 10
614.4999058754962
 20
372.3374633759907
 30
0.0
 10
614.4781065499551
 20
372.9208793558575
 30
0.0
 10
614.4128432365679
 20
373.5002775186442
 30
0.0
 10
614.3047277049607
 20
374.0701901281316
 30
0.0
 10
614.1542282347878
 20
374.628118327444
 30
0.0
 10
613.9630720219659
 20
375.1674438634395
 30
0.0
 10
613.7317021744096
 20
375.6870295822229
 30
0.0
 10
613.463193117792
 20
376.179602224695
 30
0.0
 10
613.1577508923949
 20
376.6450469381047
 30
0.0
 10
612.8198140929068
 20
377.0760541028326
 30
0.0
 10
612.4493595392514
 20
377.4730968194394
 30
0.0
 10
612.051948196288
 20
377.8294621662543
 30
0.0
 10
611.6275825184185
 20
378.1458078651973
 30
0.0
 10
611.1824582794129
 20
378.4165368592908
 30
0.0
 10
610.7170559618215
 20
378.6422582424352
 30
0.0
 10
610.2375570297008
 20
378.8187829581855
 30
0.0
 10
609.7454307028075
 20
378.9467060510025
 30
0.0
 10
609.246176302438
 20
379.0232544673788
 30
0.0
 10
608.742629835903
 20
379.0493082824048
 30
0.0
 10
608.2390833693676
 20
379.0232544673788
 30
0.0
 10
607.7398289689984
 20
378.9467060510023
 30
0.0
 10
607.2477026421052
 20
378.8187829581857
 30
0.0
 10
606.7682037099843
 20
378.642258242435
 30
0.0
 10
606.3028013923932
 20
378.4165368592908
 30
0.0
 10
605.8576771533874
 20
378.145807865197
 30
0.0
 10
605.4333114755176
 20
377.8294621662544
 30
0.0
 10
605.0359001325542
 20
377.4730968194397
 30
0.0
 10
604.6654455788988
 20
377.0760541028326
 30
0.0
 10
604.327508779411
 20
376.6450469381044
 30
0.0
 10
604.0220665540135
 20
376.1796022246953
 30
0.0
 10
603.7535574973962
 20
375.6870295822229
 30
0.0
 10
603.5221876498397
 20
375.1674438634396
 30
0.0
 10
603.3310314370178
 20
374.6281183274441
 30
0.0
 10
603.1805319668453
 20
374.0701901281317
 30
0.0
 10
603.0724164352379
 20
373.5002775186442
 30
0.0
 10
603.0071531218509
 20
372.9208793558569
 30
0.0
 10
602.9853537963103
 20
372.3374633759926
 30
0.0
 10
603.0071531218507
 20
371.754047396129
 30
0.0
 10
603.0724164352379
 20
371.1746492333391
 30
0.0
 10
603.1805319668442
 20
370.6047366238611
 30
0.0
 10
603.3310314370208
 20
370.0468084245145
 30
0.0
 10
603.5221876498292
 20
369.5074828886458
 30
0.0
 10
603.7535574974336
 20
368.9878971693976
 30
0.0
 10
604.0220665538756
 20
368.4953245286407
 30
0.0
 10
604.3275087799135
 20
368.029879808971
 30
0.0
 10
604.6654455770415
 20
367.5988726672953
 30
0.0
 10
605.0359001392883
 20
367.2018298667715
 30
0.0
 10
605.4333114506287
 20
366.8454648288256
 30
0.0
 10
605.8576772436512
 20
366.5291180051707
 30
0.0
 10
606.3028010582671
 20
366.2583931561483
 30
0.0
 10
606.7682049267975
 20
366.0326566247741
 30
0.0
 10
607.2476981251369
 20
365.8561879116311
 30
0.0
 10
607.7398455493852
 20
365.7280587581211
 30
0.0
 10
608.2390215904024
 20
365.6522756880431
 30
0.0
 10
608.7428590475145
 20
365.6233797290345
 30
0.0
 10
609.0772391661506
 20
365.6477817421391
 30
0.0
 10
609.2444292254683
 20
365.6599827486913
 30
0.0
 11
609.2444292254683
 21
365.6599827486913
 31
0.0
 11
609.7437061485332
 21
365.7366582285849
 31
0.0
 11
610.2326309310153
 21
365.8633609500399
 31
0.0
 11
610.7137689721315
 21
366.0404576983017
 31
0.0
 11
611.1751727327985
 21
366.2637636187691
 31
0.0
 11
611.6230025276936
 21
366.5359587471673
 31
0.0
 11
612.043330923497
 21
366.8487609249365
 31
0.0
 11
612.443789463674
 21
367.2075515459428
 31
0.0
 11
612.8107993038178
 21
367.6003345108529
 31
0.0
 11
613.1514706373489
 21
368.0344204905789
 31
0.0
 11
613.4544306728016
 21
368.4954979598334
 31
0.0
 11
613.7249422565367
 21
368.991259140649
 31
0.0
 11
613.954868211099
 21
369.5070126077993
 31
0.0
 11
614.1471673530955
 21
370.0490217887646
 31
0.0
 11
614.2970812939963
 21
370.6041957398912
 31
0.0
 11
614.4056188409575
 21
371.1757462093719
 31
0.0
 11
614.4707955417059
 21
371.7538219797272
 31
0.0
 11
614.492629835903
 21
372.3374633759927
 31
0.0
 11
614.4707955417059
 21
372.9211047722582
 31
0.0
 11
614.4056188409575
 21
373.4991805426135
 31
0.0
 11
614.2970812939961
 21
374.0707310120943
 31
0.0
 11
614.1471673530954
 21
374.6259049632209
 31
0.0
 11
613.954868211099
 21
375.1679141441862
 31
0.0
 11
613.7249422565366
 21
375.6836676113365
 31
0.0
 11
613.4544306728016
 21
376.1794287921521
 31
0.0
 11
613.1514706373489
 21
376.6405062614066
 31
0.0
 11
612.8107993038178
 21
377.0745922411326
 31
0.0
 11
612.4437894636739
 21
377.4673752060428
 31
0.0
 11
612.043330923497
 21
377.8261658270491
 31
0.0
 11
611.6230025276939
 21
378.1389680048183
 31
0.0
 11
611.1751727327986
 21
378.4111631332164
 31
0.0
 11
610.7137689721316
 21
378.6344690536839
 31
0.0
 11
610.2326309310151
 21
378.8115658019456
 31
0.0
 11
609.743706148533
 21
378.9382685234006
 31
0.0
 11
609.2444292254681
 21
379.0149440032943
 31
0.0
 11
608.7426298359028
 21
379.0406390528906
 31
0.0
 11
608.2408304463377
 21
379.0149440032942
 31
0.0
 11
607.7415535232728
 21
378.9382685234006
 31
0.0
 11
607.2526287407907
 21
378.8115658019456
 31
0.0
 11
606.7714906996745
 21
378.6344690536838
 31
0.0
 11
606.3100869390073
 21
378.4111631332164
 31
0.0
 11
605.8622571441122
 21
378.1389680048182
 31
0.0
 11
605.4419287483087
 21
377.826165827049
 31
0.0
 11
605.0414702081318
 21
377.4673752060429
 31
0.0
 11
604.6744603679879
 21
377.0745922411326
 31
0.0
 11
604.3337890344568
 21
376.6405062614066
 31
0.0
 11
604.0308289990041
 21
376.1794287921521
 31
0.0
 11
603.760317415269
 21
375.6836676113366
 31
0.0
 11
603.5303914607066
 21
375.1679141441862
 31
0.0
 11
603.3380923187103
 21
374.6259049632211
 31
0.0
 11
603.1881783778096
 21
374.0707310120943
 31
0.0
 11
603.0796408308485
 21
373.4991805426134
 31
0.0
 11
603.0144641301001
 21
372.9211047722582
 31
0.0
 11
602.992629835903
 21
372.3374633759927
 31
0.0
 11
603.0144641300999
 21
371.7538219797272
 31
0.0
 11
603.0796408308482
 21
371.1757462093719
 31
0.0
 11
603.1881783778094
 21
370.6041957398911
 31
0.0
 11
603.3380923187103
 21
370.0490217887646
 31
0.0
 11
603.5303914607066
 21
369.5070126077993
 31
0.0
 11
603.7603174152691
 21
368.991259140649
 31
0.0
 11
604.0308289990043
 21
368.4954979598334
 31
0.0
 11
604.3337890344568
 21
368.0344204905789
 31
0.0
 11
604.6744603679879
 21
367.600334510853
 31
0.0
 11
605.0414702081317
 21
367.2075515459427
 31
0.0
 11
605.4419287483088
 21
366.8487609249365
 31
0.0
 11
605.8622571441121
 21
366.5359587471673
 31
0.0
 11
606.3100869390073
 21
366.2637636187691
 31
0.0
 11
606.7714906996744
 21
366.0404576983016
 31
0.0
 11
607.2526287407907
 21
365.8633609500398
 31
0.0
 11
607.7415535232727
 21
365.7366582285848
 31
0.0
 11
608.2408304463377
 21
365.6599827486913
 31
0.0
 11
608.742629835903
 21
365.6342876990949
 31
0.0
 11
609.2444292254683
 21
365.6599827486913
 31
0.0
  0
SPLINE
  5
17F
330
3F
100
AcDbEntity
  8
1
  6
Continuous
 62
     7
100
AcDbSpline
210
0.0
220
0.0
230
1.0
 70
    11
 71
     3
 72
    79
 73
    75
 74
    73
 42
0.0000000001
 43
0.0000000001
 44
0.00000001
 40
0.0
 40
0.0
 40
0.0
 40
0.0
 40
0.340262188995602
 40
0.6805591118123373
 40
1.032503452957102
 40
1.384518291222072
 40
1.757474666115623
 40
2.130492798710403
 40
2.53003579463259
 40
2.929621827750058
 40
3.35740840688795
 40
3.785223476226856
 40
4.239510439281419
 40
4.693815937250085
 40
5.170195891321492
 40
5.646587447271625
 40
6.138727506422573
 40
6.630873947485926
 40
7.131199082992292
 40
7.631526256527277
 40
8.131853430062147
 40
8.632178565568401
 40
9.124325006631977
 40
9.616465065783036
 40
10.09285662173306
 40
10.56923657580447
 40
11.02354207377313
 40
11.4778290368277
 40
11.90564410616663
 40
12.33343068530449
 40
12.73301671842217
 40
13.13255971434433
 40
13.5055778469389
 40
13.87853422183239
 40
14.23054906009745
 40
14.58249340124226
 40
14.92279032405891
 40
15.26305251305457
 40
15.60331470205011
 40
15.94361162486662
 40
16.2955559660114
 40
16.64757080427632
 40
17.02052717916981
 40
17.39354531176452
 40
17.79308830768671
 40
18.19267434080436
 40
18.62046091994218
 40
19.04827598928108
 40
19.50256295233565
 40
19.95686845030431
 40
20.43324840437558
 40
20.9096399603257
 40
21.4017800194768
 40
21.89392646054041
 40
22.39425159604656
 40
22.89457876958154
 40
23.39490594311652
 40
23.8952310786229
 40
24.3873775196864
 40
24.87951757883728
 40
25.35590913478741
 40
25.83228908885877
 40
26.28659458682722
 40
26.74088154988199
 40
27.16869661922074
 40
27.59648319835872
 40
27.99606923147627
 40
28.39561222739838
 40
28.7686303599933
 40
29.14158673488685
 40
29.49360157315151
 40
29.84554591429615
 40
30.18584283711283
 40
30.52610502610849
 40
30.52610502610849
 40
30.52610502610849
 40
30.52610502610849
 10
310.7236626777691
 20
704.5697353601904
 30
0.0
 10
310.61016811652
 20
704.5654027937582
 30
0.0
 10
310.3831674085446
 20
704.5567372186271
 30
0.0
 10
310.0445073291976
 20
704.4879318595786
 30
0.0
 10
309.7132333354978
 20
704.3788410903369
 30
0.0
 10
309.3876185308136
 20
704.2256857012202
 30
0.0
 10
309.0756022948635
 20
704.0329428347486
 30
0.0
 10
308.7734005745882
 20
703.7984863793473
 30
0.0
 10
308.4895547771611
 20
703.5290726157812
 30
0.0
 10
308.2199372892276
 20
703.2208733262169
 30
0.0
 10
307.972264605565
 20
702.8830265363902
 30
0.0
 10
307.7432041925873
 20
702.5108083358502
 30
0.0
 10
307.5388150611751
 20
702.1145241207164
 30
0.0
 10
307.3570198427649
 20
701.6897773497595
 30
0.0
 10
307.2019365309748
 20
701.2467555530764
 30
0.0
 10
307.0726995442494
 20
700.7824512056834
 30
0.0
 10
306.9716081516291
 20
700.3058457140241
 30
0.0
 10
306.8986512844316
 20
699.8160844095066
 30
0.0
 10
306.8546954074826
 20
699.3201349272373
 30
0.0
 10
306.8400525332888
 20
698.8197353601897
 30
0.0
 10
306.8546954074826
 20
698.3193357931467
 30
0.0
 10
306.8986512844316
 20
697.8233863108645
 30
0.0
 10
306.9716081516291
 20
697.3336250063911
 30
0.0
 10
307.0726995442494
 20
696.857019514571
 30
0.0
 10
307.2019365309749
 20
696.3927151677589
 30
0.0
 10
307.3570198427648
 20
695.9496933689565
 30
0.0
 10
307.5388150611752
 20
695.5249466055586
 30
0.0
 10
307.7432041925872
 20
695.128662363041
 30
0.0
 10
307.972264605565
 20
694.7564442590125
 30
0.0
 10
308.2199372892277
 20
694.4185971214481
 30
0.0
 10
308.489554777161
 20
694.1103990480827
 30
0.0
 10
308.7734005745881
 20
693.8409809112375
 30
0.0
 10
309.0756022948636
 20
693.6065397446517
 30
0.0
 10
309.3876185308137
 20
693.4137417188678
 30
0.0
 10
309.7132333354978
 20
693.2607811737324
 30
0.0
 10
310.0445073291974
 20
693.1509802416122
 30
0.0
 10
310.3831674085446
 20
693.08474183898
 30
0.0
 10
310.7236626777691
 20
693.06223250374
 30
0.0
 10
311.0641579469934
 20
693.0847418389798
 30
0.0
 10
311.4028180263405
 20
693.1509802416124
 30
0.0
 10
311.7340920200401
 20
693.2607811737325
 30
0.0
 10
312.059706824724
 20
693.4137417188679
 30
0.0
 10
312.3717230606742
 20
693.606539744652
 30
0.0
 10
312.6739247809496
 20
693.8409809112374
 30
0.0
 10
312.9577705783769
 20
694.1103990480825
 30
0.0
 10
313.2273880663101
 20
694.4185971214477
 30
0.0
 10
313.4750607499728
 20
694.7564442590127
 30
0.0
 10
313.7041211629505
 20
695.128662363041
 30
0.0
 10
313.9085102943626
 20
695.5249466055587
 30
0.0
 10
314.0903055127729
 20
695.9496933689566
 30
0.0
 10
314.2453888245627
 20
696.3927151677588
 30
0.0
 10
314.3746258112883
 20
696.8570195145712
 30
0.0
 10
314.4757172039087
 20
697.333625006391
 30
0.0
 10
314.5486740711064
 20
697.8233863108649
 30
0.0
 10
314.5926299480557
 20
698.3193357931464
 30
0.0
 10
314.6072728222491
 20
698.8197353601898
 30
0.0
 10
314.5926299480557
 20
699.320134927237
 30
0.0
 10
314.5486740711064
 20
699.8160844095069
 30
0.0
 10
314.4757172039087
 20
700.305845714024
 30
0.0
 10
314.3746258112882
 20
700.7824512056836
 30
0.0
 10
314.2453888245626
 20
701.2467555530764
 30
0.0
 10
314.0903055127729
 20
701.6897773497592
 30
0.0
 10
313.9085102943625
 20
702.1145241207164
 30
0.0
 10
313.7041211629505
 20
702.5108083358499
 30
0.0
 10
313.4750607499729
 20
702.8830265363904
 30
0.0
 10
313.2273880663103
 20
703.2208733262166
 30
0.0
 10
312.9577705783768
 20
703.5290726157815
 30
0.0
 10
312.6739247809496
 20
703.7984863793474
 30
0.0
 10
312.3717230606742
 20
704.0329428347486
 30
0.0
 10
312.0597068247242
 20
704.2256857012203
 30
0.0
 10
311.7340920200401
 20
704.3788410903364
 30
0.0
 10
311.4028180263406
 20
704.4879318595788
 30
0.0
 10
311.0641579469937
 20
704.556737218627
 30
0.0
 10
310.8371572390183
 20
704.5654027937582
 30
0.0
 10
310.7236626777691
 20
704.5697353601904
 30
0.0
 11
310.7236626777691
 21
704.5697353601904
 31
0.0
 11
310.3841234009938
 21
704.5475669866153
 31
0.0
 11
310.0501284240353
 21
704.4823799400106
 31
0.0
 11
309.7158731498037
 21
704.3722063001861
 31
0.0
 11
309.3970591677762
 21
704.2229679297095
 31
0.0
 11
309.0794158813985
 21
704.0275217729478
 31
0.0
 11
308.7842980878748
 21
703.7993814319509
 31
0.0
 11
308.494041152399
 21
703.5248172008525
 31
0.0
 11
308.2304636196714
 21
703.2244909081244
 31
0.0
 11
307.9770717785936
 21
702.8798259517309
 31
0.0
 11
307.7523837432287
 21
702.515764115888
 31
0.0
 11
307.5437414767454
 21
702.1122234742693
 31
0.0
 11
307.3645846736722
 21
701.6947353601904
 31
0.0
 11
307.2068858636235
 21
701.2452145642862
 31
0.0
 11
307.0788494894947
 21
700.7863511843129
 31
0.0
 11
306.9765463212493
 21
700.3049616335455
 31
0.0
 11
306.9038601096789
 21
699.8182123817753
 31
0.0
 11
306.8596210918701
 21
699.3198469029119
 31
0.0
 11
306.8449334979808
 21
698.8197353601904
 31
0.0
 11
306.8596210918701
 21
698.3196238174691
 31
0.0
 11
306.9038601096789
 21
697.8212583386057
 31
0.0
 11
306.9765463212493
 21
697.3345090868353
 31
0.0
 11
307.0788494894947
 21
696.8531195360678
 31
0.0
 11
307.2068858636235
 21
696.3942561560946
 31
0.0
 11
307.3645846736722
 21
695.9447353601904
 31
0.0
 11
307.5437414767454
 21
695.5272472461115
 31
0.0
 11
307.7523837432287
 21
695.1237066044928
 31
0.0
 11
307.9770717785937
 21
694.7596447686499
 31
0.0
 11
308.2304636196714
 21
694.4149798122564
 31
0.0
 11
308.494041152399
 21
694.114653519528
 31
0.0
 11
308.7842980878748
 21
693.8400892884297
 31
0.0
 11
309.0794158813985
 21
693.6119489474331
 31
0.0
 11
309.3970591677762
 21
693.4165027906715
 31
0.0
 11
309.7158731498037
 21
693.2672644201947
 31
0.0
 11
310.0501284240353
 21
693.1570907803701
 31
0.0
 11
310.3841234009937
 21
693.0919037337656
 31
0.0
 11
310.7236626777691
 21
693.0697353601904
 31
0.0
 11
311.0632019545444
 21
693.0919037337654
 31
0.0
 11
311.3971969315026
 21
693.1570907803701
 31
0.0
 11
311.7314522057342
 21
693.2672644201948
 31
0.0
 11
312.0502661877615
 21
693.4165027906715
 31
0.0
 11
312.3679094741392
 21
693.6119489474331
 31
0.0
 11
312.6630272676631
 21
693.8400892884297
 31
0.0
 11
312.953284203139
 21
694.114653519528
 31
0.0
 11
313.2168617358665
 21
694.4149798122564
 31
0.0
 11
313.4702535769442
 21
694.7596447686499
 31
0.0
 11
313.6949416123091
 21
695.1237066044928
 31
0.0
 11
313.9035838787924
 21
695.5272472461115
 31
0.0
 11
314.0827406818656
 21
695.9447353601904
 31
0.0
 11
314.2404394919141
 21
696.3942561560945
 31
0.0
 11
314.3684758660429
 21
696.8531195360678
 31
0.0
 11
314.4707790342886
 21
697.3345090868353
 31
0.0
 11
314.5434652458592
 21
697.8212583386057
 31
0.0
 11
314.587704263668
 21
698.3196238174689
 31
0.0
 11
314.6023918575573
 21
698.8197353601904
 31
0.0
 11
314.5877042636681
 21
699.3198469029119
 31
0.0
 11
314.5434652458592
 21
699.8182123817753
 31
0.0
 11
314.4707790342886
 21
700.3049616335456
 31
0.0
 11
314.3684758660429
 21
700.7863511843129
 31
0.0
 11
314.2404394919141
 21
701.2452145642862
 31
0.0
 11
314.0827406818656
 21
701.6947353601904
 31
0.0
 11
313.9035838787924
 21
702.1122234742691
 31
0.0
 11
313.6949416123091
 21
702.515764115888
 31
0.0
 11
313.4702535769443
 21
702.8798259517308
 31
0.0
 11
313.2168617358665
 21
703.2244909081244
 31
0.0
 11
312.9532842031389
 21
703.5248172008526
 31
0.0
 11
312.6630272676631
 21
703.7993814319509
 31
0.0
 11
312.3679094741392
 21
704.0275217729478
 31
0.0
 11
312.0502661877615
 21
704.2229679297095
 31
0.0
 11
311.7314522057343
 21
704.372206300186
 31
0.0
 11
311.3971969315029
 21
704.4823799400106
 31
0.0
 11
311.0632019545445
 21
704.5475669866153
 31
0.0
 11
310.7236626777691
 21
704.5697353601904
 31
0.0
  0
SPLINE
  5
180
330
3F
100
AcDbEntity
  8
1
  6
Continuous
 62
     7
100
AcDbSpline
210
0.0
220
0.0
230
1.0
 70
     8
 71
     3
 72
    43
 73
    39
 74
    37
 42
0.0000000001
 43
0.0000000001
 44
0.00000001
 40
0.0
 40
0.0
 40
0.0
 40
0.0
 40
0.6741122140073715
 40
1.347191793850478
 40
2.011630304021557
 40
2.676871725018755
 40
3.324478930126378
 40
3.971720081676717
 40
4.595015010542735
 40
5.218409846266572
 40
5.813201329818481
 40
6.407916853461559
 40
6.972669708284119
 40
7.537385867034329
 40
8.074379023207028
 40
8.611308672711806
 40
9.126727082004365
 40
9.642089756503896
 40
10.14564262934798
 40
10.64917050877267
 40
11.15269838819725
 40
11.65625126104121
 40
12.17161393554096
 40
12.68703234483362
 40
13.2239619943383
 40
13.760955150511
 40
14.32567130926134
 40
14.89042416408378
 40
15.48513968772702
 40
16.07993117127877
 40
16.70332600700272
 40
17.32662093586873
 40
17.97386208741899
 40
18.62146929252655
 40
19.28671071352369
 40
19.9511492236945
 40
20.62422880353783
 40
21.29834101754537
 40
21.29834101754537
 40
21.29834101754537
 40
21.29834101754537
 10
323.6633994120037
 20
704.5697353601904
 30
0.0
 10
323.4388523626303
 20
704.561380788281
 30
0.0
 10
322.9901022347387
 20
704.5446844423559
 30
0.0
 10
322.3211309933538
 20
704.4918953479109
 30
0.0
 10
321.6614793210531
 20
704.384416804472
 30
0.0
 10
321.0199478899047
 20
704.2312269347433
 30
0.0
 10
320.3949402522168
 20
704.0392894354535
 30
0.0
 10
319.7975886647189
 20
703.8097166130349
 30
0.0
 10
319.2260884829907
 20
703.5401382390267
 30
0.0
 10
318.691976806898
 20
703.2363480710089
 30
0.0
 10
318.1913834394375
 20
702.8967063380368
 30
0.0
 10
317.7359515391659
 20
702.5287553973261
 30
0.0
 10
317.3217871266332
 20
702.1292044950407
 30
0.0
 10
316.9588083026409
 20
701.7075609103458
 30
0.0
 10
316.6440859211145
 20
701.2600603822934
 30
0.0
 10
316.3846702984089
 20
700.7969782159685
 30
0.0
 10
316.1795355606481
 20
700.315251765245
 30
0.0
 10
316.0321370791694
 20
699.8243312280085
 30
0.0
 10
315.9432743493785
 20
699.3235469829458
 30
0.0
 10
315.9132213474871
 20
698.8197353601903
 30
0.0
 10
315.9432743493786
 20
698.3159237374352
 30
0.0
 10
316.0321370791694
 20
697.8151394923726
 30
0.0
 10
316.179535560648
 20
697.324218955136
 30
0.0
 10
316.3846702984091
 20
696.8424925044124
 30
0.0
 10
316.6440859211144
 20
696.3794103380874
 30
0.0
 10
316.9588083026411
 20
695.9319098100348
 30
0.0
 10
317.321787126633
 20
695.5102662253399
 30
0.0
 10
317.7359515391661
 20
695.1107153230547
 30
0.0
 10
318.1913834394376
 20
694.742764382344
 30
0.0
 10
318.691976806898
 20
694.4031226493718
 30
0.0
 10
319.2260884829908
 20
694.0993324813542
 30
0.0
 10
319.7975886647189
 20
693.8297541073456
 30
0.0
 10
320.3949402522167
 20
693.6001812849271
 30
0.0
 10
321.0199478899049
 20
693.4082437856381
 30
0.0
 10
321.6614793210529
 20
693.2550539159086
 30
0.0
 10
322.3211309933535
 20
693.1475753724701
 30
0.0
 10
322.9901022347386
 20
693.0947862780249
 30
0.0
 10
323.4388523626304
 20
693.0780899320997
 30
0.0
 10
323.6633994120037
 20
693.0697353601904
 30
0.0
 11
323.6633994120037
 21
704.5697353601904
 31
0.0
 11
322.9899433214499
 21
704.5400003443021
 31
0.0
 11
322.3193346353959
 21
704.4823799400106
 31
0.0
 11
321.6633776641527
 21
704.3765546799078
 31
0.0
 11
321.0161085868951
 21
704.2229679297095
 31
0.0
 11
320.3972349508104
 21
704.0322049493736
 31
0.0
 11
319.7933191305216
 21
703.7993814319509
 31
0.0
 11
319.2297673728812
 21
703.5330996548604
 31
0.0
 11
318.6881201051458
 21
703.2244909081244
 31
0.0
 11
318.1962737875012
 21
702.8900299855559
 31
0.0
 11
317.7340924238962
 21
702.515764115888
 31
0.0
 11
317.3281022940506
 21
702.1231857141665
 31
0.0
 11
316.9602237351058
 21
701.6947353601904
 31
0.0
 11
316.6518179390512
 21
701.2551360941125
 31
0.0
 11
316.3900276472878
 21
700.7863511843129
 31
0.0
 11
316.1884926805204
 21
700.3119675907858
 31
0.0
 11
316.040829280037
 21
699.8182123817753
 31
0.0
 11
315.9529599429417
 21
699.3223853198394
 31
0.0
 11
315.9232388490393
 21
698.8197353601904
 31
0.0
 11
315.9529599429417
 21
698.3170854005415
 31
0.0
 11
316.040829280037
 21
697.8212583386057
 31
0.0
 11
316.1884926805204
 21
697.327503129595
 31
0.0
 11
316.3900276472878
 21
696.8531195360678
 31
0.0
 11
316.6518179390512
 21
696.3843346262684
 31
0.0
 11
316.9602237351058
 21
695.9447353601904
 31
0.0
 11
317.3281022940506
 21
695.5162850062141
 31
0.0
 11
317.7340924238962
 21
695.1237066044928
 31
0.0
 11
318.1962737875014
 21
694.7494407348248
 31
0.0
 11
318.6881201051458
 21
694.4149798122564
 31
0.0
 11
319.2297673728812
 21
694.1063710655203
 31
0.0
 11
319.7933191305216
 21
693.8400892884297
 31
0.0
 11
320.3972349508104
 21
693.6072657710072
 31
0.0
 11
321.0161085868951
 21
693.4165027906715
 31
0.0
 11
321.6633776641526
 21
693.262916040473
 31
0.0
 11
322.3193346353955
 21
693.1570907803701
 31
0.0
 11
322.9899433214497
 21
693.0994703760787
 31
0.0
 11
323.6633994120037
 21
693.0697353601904
 31
0.0
  0
SPLINE
  5
181
330
3F
100
AcDbEntity
  8
1
  6
Continuous
 62
     7
100
AcDbSpline
210
0.0
220
0.0
230
1.0
 70
    11
 71
     3
 72
    79
 73
    75
 74
    73
 42
0.0000000001
 43
0.0000000001
 44
0.00000001
 40
0.0
 40
0.0
 40
0.0
 40
0.0
 40
0.3402621889956587
 40
0.6805591118123382
 40
1.032503452956995
 40
1.384518291221811
 40
1.757474666115518
 40
2.130492798710229
 40
2.530035794632378
 40
2.92962182774997
 40
3.357408406887894
 40
3.785223476226741
 40
4.239510439281252
 40
4.693815937249896
 40
5.170195891321284
 40
5.646587447271433
 40
6.138727506422391
 40
6.630873947485761
 40
7.131199082992133
 40
7.631526256527116
 40
8.131853430061986
 40
8.632178565568244
 40
9.124325006631839
 40
9.61646506578291
 40
10.09285662173297
 40
10.56923657580433
 40
11.02354207377296
 40
11.47782903682749
 40
11.9056441061664
 40
12.33343068530426
 40
12.73301671842194
 40
13.13255971434418
 40
13.50557784693884
 40
13.87853422183233
 40
14.23054906009729
 40
14.58249340124193
 40
14.92279032405848
 40
15.26305251305425
 40
15.60331470204984
 40
15.94361162486647
 40
16.29555596601125
 40
16.64757080427627
 40
17.02052717916971
 40
17.39354531176428
 40
17.79308830768639
 40
18.19267434080408
 40
18.62046091994203
 40
19.04827598928097
 40
19.50256295233548
 40
19.95686845030413
 40
20.43324840437542
 40
20.90963996032556
 40
21.40178001947666
 40
21.89392646054025
 40
22.3942515960464
 40
22.89457876958138
 40
23.39490594311636
 40
23.89523107862273
 40
24.38737751968621
 40
24.8795175788371
 40
25.35590913478726
 40
25.83228908885863
 40
26.28659458682723
 40
26.74088154988179
 40
27.1686966192207
 40
27.59648319835869
 40
27.99606923147621
 40
28.39561222739831
 40
28.76863035999309
 40
29.14158673488659
 40
29.49360157315141
 40
29.84554591429616
 40
30.18584283711284
 40
30.5261050261085
 40
30.5261050261085
 40
30.5261050261085
 40
30.5261050261085
 10
336.6031361462391
 20
704.5697353601904
 30
0.0
 10
336.7166307074882
 20
704.565402793758
 30
0.0
 10
336.9436314154636
 20
704.5567372186272
 30
0.0
 10
337.2822914948106
 20
704.4879318595786
 30
0.0
 10
337.6135654885102
 20
704.3788410903367
 30
0.0
 10
337.9391802931943
 20
704.2256857012203
 30
0.0
 10
338.2511965291444
 20
704.0329428347486
 30
0.0
 10
338.5533982494198
 20
703.7984863793472
 30
0.0
 10
338.8372440468469
 20
703.5290726157816
 30
0.0
 10
339.1068615347804
 20
703.2208733262168
 30
0.0
 10
339.3545342184432
 20
702.8830265363904
 30
0.0
 10
339.5835946314207
 20
702.51080833585
 30
0.0
 10
339.7879837628327
 20
702.1145241207164
 30
0.0
 10
339.9697789812431
 20
701.6897773497595
 30
0.0
 10
340.124862293033
 20
701.2467555530764
 30
0.0
 10
340.2540992797585
 20
700.7824512056834
 30
0.0
 10
340.3551906723789
 20
700.3058457140241
 30
0.0
 10
340.4281475395763
 20
699.8160844095065
 30
0.0
 10
340.4721034165258
 20
699.3201349272373
 30
0.0
 10
340.4867462907191
 20
698.8197353601897
 30
0.0
 10
340.4721034165257
 20
698.3193357931465
 30
0.0
 10
340.4281475395765
 20
697.8233863108651
 30
0.0
 10
340.3551906723788
 20
697.333625006391
 30
0.0
 10
340.2540992797586
 20
696.857019514571
 30
0.0
 10
340.1248622930327
 20
696.3927151677589
 30
0.0
 10
339.9697789812431
 20
695.9496933689565
 30
0.0
 10
339.7879837628328
 20
695.5249466055587
 30
0.0
 10
339.5835946314207
 20
695.1286623630409
 30
0.0
 10
339.3545342184431
 20
694.7564442590125
 30
0.0
 10
339.1068615347805
 20
694.4185971214481
 30
0.0
 10
338.8372440468471
 20
694.1103990480826
 30
0.0
 10
338.55339824942
 20
693.8409809112375
 30
0.0
 10
338.2511965291441
 20
693.6065397446517
 30
0.0
 10
337.9391802931942
 20
693.4137417188679
 30
0.0
 10
337.6135654885102
 20
693.2607811737323
 30
0.0
 10
337.2822914948108
 20
693.1509802416124
 30
0.0
 10
336.9436314154635
 20
693.0847418389799
 30
0.0
 10
336.6031361462391
 20
693.0622325037398
 30
0.0
 10
336.2626408770146
 20
693.08474183898
 30
0.0
 10
335.9239807976677
 20
693.1509802416125
 30
0.0
 10
335.5927068039679
 20
693.2607811737325
 30
0.0
 10
335.2670919992838
 20
693.4137417188678
 30
0.0
 10
334.9550757633339
 20
693.6065397446519
 30
0.0
 10
334.6528740430583
 20
693.8409809112372
 30
0.0
 10
334.3690282456312
 20
694.1103990480827
 30
0.0
 10
334.099410757698
 20
694.4185971214481
 30
0.0
 10
333.851738074035
 20
694.7564442590123
 30
0.0
 10
333.6226776610574
 20
695.1286623630413
 30
0.0
 10
333.4182885296453
 20
695.5249466055586
 30
0.0
 10
333.2364933112353
 20
695.9496933689565
 30
0.0
 10
333.081409999445
 20
696.392715167759
 30
0.0
 10
332.9521730127196
 20
696.857019514571
 30
0.0
 10
332.8510816200992
 20
697.333625006391
 30
0.0
 10
332.7781247529016
 20
697.8233863108649
 30
0.0
 10
332.7341688759523
 20
698.3193357931466
 30
0.0
 10
332.7195260017589
 20
698.8197353601896
 30
0.0
 10
332.7341688759524
 20
699.3201349272374
 30
0.0
 10
332.7781247529016
 20
699.8160844095066
 30
0.0
 10
332.8510816200991
 20
700.3058457140243
 30
0.0
 10
332.9521730127197
 20
700.7824512056834
 30
0.0
 10
333.0814099994453
 20
701.2467555530764
 30
0.0
 10
333.2364933112351
 20
701.6897773497594
 30
0.0
 10
333.4182885296452
 20
702.1145241207162
 30
0.0
 10
333.6226776610574
 20
702.5108083358504
 30
0.0
 10
333.851738074035
 20
702.8830265363904
 30
0.0
 10
334.099410757698
 20
703.2208733262168
 30
0.0
 10
334.3690282456313
 20
703.5290726157816
 30
0.0
 10
334.6528740430586
 20
703.7984863793472
 30
0.0
 10
334.9550757633338
 20
704.0329428347488
 30
0.0
 10
335.2670919992837
 20
704.2256857012202
 30
0.0
 10
335.5927068039679
 20
704.3788410903366
 30
0.0
 10
335.9239807976674
 20
704.4879318595787
 30
0.0
 10
336.2626408770146
 20
704.556737218627
 30
0.0
 10
336.48964158499
 20
704.5654027937582
 30
0.0
 10
336.6031361462391
 20
704.5697353601904
 30
0.0
 11
336.6031361462391
 21
704.5697353601904
 31
0.0
 11
336.9426754230145
 21
704.5475669866153
 31
0.0
 11
337.2766703999729
 21
704.4823799400106
 31
0.0
 11
337.6109256742044
 21
704.3722063001861
 31
0.0
 11
337.9297396562317
 21
704.2229679297095
 31
0.0
 11
338.2473829426095
 21
704.0275217729477
 31
0.0
 11
338.5425007361332
 21
703.7993814319509
 31
0.0
 11
338.832757671609
 21
703.5248172008526
 31
0.0
 11
339.0963352043367
 21
703.2244909081244
 31
0.0
 11
339.3497270454146
 21
702.8798259517309
 31
0.0
 11
339.5744150807794
 21
702.515764115888
 31
0.0
 11
339.7830573472625
 21
702.1122234742693
 31
0.0
 11
339.9622141503357
 21
701.6947353601904
 31
0.0
 11
340.1199129603843
 21
701.2452145642862
 31
0.0
 11
340.2479493345132
 21
700.7863511843129
 31
0.0
 11
340.3502525027587
 21
700.3049616335455
 31
0.0
 11
340.4229387143292
 21
699.8182123817753
 31
0.0
 11
340.467177732138
 21
699.3198469029119
 31
0.0
 11
340.4818653260273
 21
698.8197353601904
 31
0.0
 11
340.467177732138
 21
698.3196238174691
 31
0.0
 11
340.4229387143292
 21
697.8212583386057
 31
0.0
 11
340.3502525027587
 21
697.3345090868353
 31
0.0
 11
340.2479493345132
 21
696.8531195360678
 31
0.0
 11
340.1199129603842
 21
696.3942561560946
 31
0.0
 11
339.9622141503357
 21
695.9447353601904
 31
0.0
 11
339.7830573472626
 21
695.5272472461115
 31
0.0
 11
339.5744150807794
 21
695.1237066044928
 31
0.0
 11
339.3497270454145
 21
694.7596447686499
 31
0.0
 11
339.0963352043367
 21
694.4149798122564
 31
0.0
 11
338.8327576716092
 21
694.114653519528
 31
0.0
 11
338.5425007361332
 21
693.8400892884297
 31
0.0
 11
338.2473829426094
 21
693.6119489474331
 31
0.0
 11
337.9297396562317
 21
693.4165027906715
 31
0.0
 11
337.6109256742043
 21
693.2672644201947
 31
0.0
 11
337.2766703999729
 21
693.1570907803701
 31
0.0
 11
336.9426754230146
 21
693.0919037337656
 31
0.0
 11
336.6031361462391
 21
693.0697353601904
 31
0.0
 11
336.2635968694638
 21
693.0919037337654
 31
0.0
 11
335.9296018925054
 21
693.1570907803701
 31
0.0
 11
335.5953466182738
 21
693.2672644201948
 31
0.0
 11
335.2765326362464
 21
693.4165027906715
 31
0.0
 11
334.9588893498687
 21
693.6119489474331
 31
0.0
 11
334.663771556345
 21
693.8400892884297
 31
0.0
 11
334.3735146208692
 21
694.114653519528
 31
0.0
 11
334.1099370881417
 21
694.4149798122564
 31
0.0
 11
333.8565452470638
 21
694.7596447686499
 31
0.0
 11
333.6318572116988
 21
695.1237066044928
 31
0.0
 11
333.4232149452157
 21
695.5272472461115
 31
0.0
 11
333.2440581421425
 21
695.9447353601904
 31
0.0
 11
333.0863593320938
 21
696.3942561560945
 31
0.0
 11
332.958322957965
 21
696.8531195360678
 31
0.0
 11
332.8560197897193
 21
697.3345090868353
 31
0.0
 11
332.7833335781488
 21
697.8212583386057
 31
0.0
 11
332.73909456034
 21
698.3196238174689
 31
0.0
 11
332.7244069664508
 21
698.8197353601904
 31
0.0
 11
332.7390945603401
 21
699.3198469029119
 31
0.0
 11
332.7833335781488
 21
699.8182123817753
 31
0.0
 11
332.8560197897193
 21
700.3049616335456
 31
0.0
 11
332.958322957965
 21
700.7863511843129
 31
0.0
 11
333.0863593320939
 21
701.2452145642862
 31
0.0
 11
333.2440581421425
 21
701.6947353601904
 31
0.0
 11
333.4232149452155
 21
702.1122234742693
 31
0.0
 11
333.6318572116988
 21
702.515764115888
 31
0.0
 11
333.8565452470637
 21
702.8798259517309
 31
0.0
 11
334.1099370881417
 21
703.2244909081244
 31
0.0
 11
334.3735146208692
 21
703.5248172008526
 31
0.0
 11
334.663771556345
 21
703.7993814319509
 31
0.0
 11
334.9588893498687
 21
704.0275217729478
 31
0.0
 11
335.2765326362464
 21
704.2229679297095
 31
0.0
 11
335.5953466182737
 21
704.372206300186
 31
0.0
 11
335.9296018925053
 21
704.4823799400106
 31
0.0
 11
336.2635968694637
 21
704.5475669866153
 31
0.0
 11
336.6031361462391
 21
704.5697353601904
 31
0.0
  0
SPLINE
  5
182
330
3F
100
AcDbEntity
  8
1
  6
Continuous
 62
     7
100
AcDbSpline
210
0.0
220
0.0
230
1.0
 70
     8
 71
     3
 72
    43
 73
    39
 74
    37
 42
0.0000000001
 43
0.0000000001
 44
0.00000001
 40
0.0
 40
0.0
 40
0.0
 40
0.0
 40
0.6741122140078258
 40
1.347191793851272
 40
2.011630304022126
 40
2.67687172501927
 40
3.32447893012711
 40
3.971720081677502
 40
4.595015010543314
 40
5.218409846267102
 40
5.813201329819106
 40
6.407916853462317
 40
6.972669708284637
 40
7.537385867034908
 40
8.074379023207607
 40
8.61130867271244
 40
9.126727082005044
 40
9.642089756504591
 40
10.14564262934864
 40
10.64917050877333
 40
11.1526983881979
 40
11.65625126104183
 40
12.17161393554159
 40
12.6870323448343
 40
13.22396199433898
 40
13.76095515051174
 40
14.32567130926202
 40
14.89042416408434
 40
15.48513968772766
 40
16.07993117127955
 40
16.70332600700335
 40
17.32662093586926
 40
17.97386208741957
 40
18.62146929252734
 40
19.28671071352443
 40
19.9511492236953
 40
20.62422880353881
 40
21.29834101754669
 40
21.29834101754669
 40
21.29834101754669
 40
21.29834101754669
 10
323.6633994120037
 20
704.5697353601904
 30
0.0
 10
323.8879464613771
 20
704.5613807882811
 30
0.0
 10
324.3366965892689
 20
704.544684442356
 30
0.0
 10
325.0056678306544
 20
704.4918953479106
 30
0.0
 10
325.6653195029548
 20
704.384416804472
 30
0.0
 10
326.3068509341031
 20
704.231226934743
 30
0.0
 10
326.9318585717913
 20
704.0392894354536
 30
0.0
 10
327.5292101592891
 20
703.8097166130349
 30
0.0
 10
328.1007103410173
 20
703.5401382390267
 30
0.0
 10
328.63482201711
 20
703.2363480710089
 30
0.0
 10
329.1354153845704
 20
702.8967063380369
 30
0.0
 10
329.5908472848422
 20
702.5287553973261
 30
0.0
 10
330.0050116973749
 20
702.1292044950405
 30
0.0
 10
330.3679905213669
 20
701.7075609103463
 30
0.0
 10
330.6827129028935
 20
701.260060382293
 30
0.0
 10
330.9421285255988
 20
700.7969782159686
 30
0.0
 10
331.1472632633601
 20
700.3152517652447
 30
0.0
 10
331.2946617448389
 20
699.8243312280085
 30
0.0
 10
331.3835244746295
 20
699.3235469829457
 30
0.0
 10
331.4135774765207
 20
698.8197353601904
 30
0.0
 10
331.3835244746296
 20
698.3159237374355
 30
0.0
 10
331.2946617448387
 20
697.8151394923725
 30
0.0
 10
331.1472632633603
 20
697.3242189551362
 30
0.0
 10
330.942128525599
 20
696.8424925044119
 30
0.0
 10
330.6827129028935
 20
696.3794103380874
 30
0.0
 10
330.3679905213669
 20
695.9319098100348
 30
0.0
 10
330.0050116973751
 20
695.5102662253402
 30
0.0
 10
329.590847284842
 20
695.1107153230546
 30
0.0
 10
329.1354153845706
 20
694.7427643823439
 30
0.0
 10
328.6348220171097
 20
694.4031226493719
 30
0.0
 10
328.1007103410174
 20
694.0993324813542
 30
0.0
 10
327.5292101592892
 20
693.8297541073455
 30
0.0
 10
326.9318585717912
 20
693.6001812849272
 30
0.0
 10
326.3068509341031
 20
693.408243785638
 30
0.0
 10
325.665319502955
 20
693.2550539159086
 30
0.0
 10
325.0056678306544
 20
693.1475753724701
 30
0.0
 10
324.3366965892691
 20
693.0947862780245
 30
0.0
 10
323.8879464613771
 20
693.0780899320996
 30
0.0
 10
323.6633994120037
 20
693.0697353601904
 30
0.0
 11
323.6633994120037
 21
704.5697353601904
 31
0.0
 11
324.336855502558
 21
704.5400003443021
 31
0.0
 11
325.0074641886123
 21
704.4823799400106
 31
0.0
 11
325.6634211598553
 21
704.3765546799078
 31
0.0
 11
326.3106902371128
 21
704.2229679297095
 31
0.0
 11
326.9295638731977
 21
704.0322049493736
 31
0.0
 11
327.5334796934866
 21
703.7993814319509
 31
0.0
 11
328.0970314511268
 21
703.5330996548604
 31
0.0
 11
328.6386787188621
 21
703.2244909081244
 31
0.0
 11
329.1305250365068
 21
702.8900299855559
 31
0.0
 11
329.592706400112
 21
702.515764115888
 31
0.0
 11
329.9986965299574
 21
702.1231857141668
 31
0.0
 11
330.3665750889021
 21
701.6947353601904
 31
0.0
 11
330.6749808849567
 21
701.2551360941125
 31
0.0
 11
330.9367711767202
 21
700.7863511843129
 31
0.0
 11
331.1383061434877
 21
700.3119675907858
 31
0.0
 11
331.2859695439712
 21
699.8182123817753
 31
0.0
 11
331.3738388810663
 21
699.3223853198394
 31
0.0
 11
331.4035599749686
 21
698.8197353601904
 31
0.0
 11
331.3738388810663
 21
698.3170854005415
 31
0.0
 11
331.2859695439712
 21
697.8212583386057
 31
0.0
 11
331.1383061434877
 21
697.327503129595
 31
0.0
 11
330.9367711767202
 21
696.8531195360678
 31
0.0
 11
330.6749808849568
 21
696.3843346262684
 31
0.0
 11
330.3665750889021
 21
695.9447353601904
 31
0.0
 11
329.9986965299574
 21
695.5162850062141
 31
0.0
 11
329.592706400112
 21
695.1237066044928
 31
0.0
 11
329.1305250365067
 21
694.7494407348248
 31
0.0
 11
328.6386787188621
 21
694.4149798122564
 31
0.0
 11
328.0970314511268
 21
694.1063710655203
 31
0.0
 11
327.5334796934866
 21
693.8400892884297
 31
0.0
 11
326.9295638731977
 21
693.6072657710072
 31
0.0
 11
326.3106902371128
 21
693.4165027906715
 31
0.0
 11
325.6634211598554
 21
693.262916040473
 31
0.0
 11
325.0074641886124
 21
693.1570907803701
 31
0.0
 11
324.336855502558
 21
693.0994703760784
 31
0.0
 11
323.6633994120037
 21
693.0697353601904
 31
0.0
  0
ENDBLK
  5
41
330
3F
100
AcDbEntity
  8
0
100
AcDbBlockEnd
  0
BLOCK
  5
43
330
42
100
AcDbEntity
  8
0
100
AcDbBlockBegin
  2
78-3AK__3
 70
     0
 71
     0
 10
104.5740499542467
 20
485.2993353443724
 30
0.0
  3
78-3AK__3
  1

  0
LINE
  5
183
330
42
100
AcDbEntity
  8
1
  6
Continuous
 62
     7
100
AcDbLine
 10
644.8137971158558
 20
321.5974544654923
 30
0.0
 11
652.2944219633419
 21
310.2466734061341
 31
0.0
  0
LINE
  5
184
330
42
100
AcDbEntity
  8
1
  6
Continuous
 62
     7
100
AcDbLine
 10
653.0752907727849
 20
309.8713684536884
 30
0.0
 11
655.2946659252989
 21
309.8713684536884
 31
0.0
  0
LINE
  5
185
330
42
100
AcDbEntity
  8
1
  6
Continuous
 62
     7
100
AcDbLine
 10
655.2946659252989
 20
309.8713684536884
 30
0.0
 11
655.2946659252989
 21
334.8713684536883
 31
0.0
  0
LINE
  5
186
330
42
100
AcDbEntity
  8
1
  6
Continuous
 62
     7
100
AcDbLine
 10
652.9311033185388
 20
312.5015696974527
 30
0.0
 11
652.9311033185388
 21
334.8713684536883
 31
0.0
  0
LINE
  5
187
330
42
100
AcDbEntity
  8
1
  6
Continuous
 62
     7
100
AcDbLine
 10
652.9311033185388
 20
334.8713684536883
 30
0.0
 11
652.9311033185388
 21
357.2411672099242
 31
0.0
  0
LINE
  5
188
330
42
100
AcDbEntity
  8
1
  6
Continuous
 62
     7
100
AcDbLine
 10
644.5946659252988
 20
322.2221495130465
 30
0.0
 11
644.5946659252988
 21
347.5205873943303
 31
0.0
  0
LINE
  5
189
330
42
100
AcDbEntity
  8
1
  6
Continuous
 62
     7
100
AcDbLine
 10
655.2946659252989
 20
334.8713684536883
 30
0.0
 11
655.2946659252989
 21
359.8713684536883
 31
0.0
  0
LINE
  5
18A
330
42
100
AcDbEntity
  8
1
  6
Continuous
 62
     7
100
AcDbLine
 10
655.2946659252989
 20
359.8713684536883
 30
0.0
 11
653.0752907727849
 21
359.8713684536883
 31
0.0
  0
LINE
  5
18B
330
42
100
AcDbEntity
  8
1
  6
Continuous
 62
     7
100
AcDbLine
 10
644.8137971158558
 20
348.1452824418846
 30
0.0
 11
652.2944219633419
 21
359.4960635012428
 31
0.0
  0
LINE
  5
18C
330
42
100
AcDbEntity
  8
1
  6
Continuous
 62
     7
100
AcDbLine
 10
376.9373134002002
 20
734.8908275235624
 30
0.0
 11
388.2880944595584
 21
742.3714523710485
 31
0.0
  0
LINE
  5
18D
330
42
100
AcDbEntity
  8
1
  6
Continuous
 62
     7
100
AcDbLine
 10
388.6633994120041
 20
743.1523211804915
 30
0.0
 11
388.6633994120041
 21
745.3716963330055
 31
0.0
  0
LINE
  5
18E
330
42
100
AcDbEntity
  8
1
  6
Continuous
 62
     7
100
AcDbLine
 10
388.6633994120041
 20
745.3716963330055
 30
0.0
 11
363.6633994120041
 21
745.3716963330055
 31
0.0
  0
LINE
  5
18F
330
42
100
AcDbEntity
  8
1
  6
Continuous
 62
     7
100
AcDbLine
 10
386.0331981682399
 20
743.0081337262454
 30
0.0
 11
363.6633994120041
 21
743.0081337262454
 31
0.0
  0
LINE
  5
190
330
42
100
AcDbEntity
  8
1
  6
Continuous
 62
     7
100
AcDbLine
 10
363.6633994120041
 20
743.0081337262454
 30
0.0
 11
341.2936006557683
 21
743.0081337262454
 31
0.0
  0
LINE
  5
191
330
42
100
AcDbEntity
  8
1
  6
Continuous
 62
     7
100
AcDbLine
 10
376.3126183526458
 20
734.6716963330055
 30
0.0
 11
351.0141804713622
 21
734.6716963330055
 31
0.0
  0
LINE
  5
192
330
42
100
AcDbEntity
  8
1
  6
Continuous
 62
     7
100
AcDbLine
 10
363.6633994120041
 20
745.3716963330055
 30
0.0
 11
338.6633994120041
 21
745.3716963330055
 31
0.0
  0
LINE
  5
193
330
42
100
AcDbEntity
  8
1
  6
Continuous
 62
     7
100
AcDbLine
 10
338.6633994120041
 20
745.3716963330055
 30
0.0
 11
338.6633994120041
 21
743.1523211804915
 31
0.0
  0
LINE
  5
194
330
42
100
AcDbEntity
  8
1
  6
Continuous
 62
     7
100
AcDbLine
 10
350.3894854238077
 20
734.8908275235624
 30
0.0
 11
339.0387043644496
 21
742.3714523710485
 31
0.0
  0
ARC
  5
195
330
42
100
AcDbEntity
  8
1
  6
Continuous
 62
     7
100
AcDbCircle
 10
363.6633994120035
 20
334.8716963330035
 30
0.0
 40
13.00000000000047
100
AcDbArc
 50
-163.7138619566462
 51
-36.86989764584522
  0
ARC
  5
196
330
42
100
AcDbEntity
  8
1
  6
Continuous
 62
     7
100
AcDbCircle
 10
363.6631535025166
 20
334.8713684536876
 30
0.0
 40
12.9999999999998
100
AcDbArc
 50
-36.86989764584508
 51
89.97406666495996
  0
ARC
  5
197
330
42
100
AcDbEntity
  8
0
  6
Continuous
 62
     7
100
AcDbCircle
 10
363.6631535025166
 20
334.8713684536876
 30
0.0
 40
24.99999999999988
100
AcDbArc
 50
-36.86989764584473
 51
118.8995056039135
  0
ARC
  5
198
330
42
100
AcDbEntity
  8
0
  6
Continuous
 62
     7
100
AcDbCircle
 10
363.6633994120035
 20
334.8716963330035
 30
0.0
 40
25.00000000000019
100
AcDbArc
 50
167.360699104399
 51
-36.86989764584497
  0
ARC
  5
199
330
42
100
AcDbEntity
  8
1
  6
Continuous
 62
     7
100
AcDbCircle
 10
645.5946659252988
 20
347.5205873943303
 30
0.0
 40
0.9999999999999645
100
AcDbArc
 50
141.3401917459155
 51
159.464904370464
  0
ARC
  5
19A
330
42
100
AcDbEntity
  8
1
  6
Continuous
 62
     7
100
AcDbCircle
 10
645.5946659252988
 20
322.2221495130465
 30
0.0
 40
1.0
100
AcDbArc
 50
180.0
 51
-159.4649043704579
  0
ARC
  5
19B
330
42
100
AcDbEntity
  8
1
  6
Continuous
 62
     7
100
AcDbCircle
 10
653.0752907727849
 20
358.8713684536883
 30
0.0
 40
1.0
100
AcDbArc
 50
90.0
 51
141.3401917459079
  0
ARC
  5
19C
330
42
100
AcDbEntity
  8
1
  6
Continuous
 62
     7
100
AcDbCircle
 10
653.0752907727849
 20
310.8713684536884
 30
0.0
 40
0.999999999999929
100
AcDbArc
 50
-141.3401917459181
 51
-90.0
  0
ARC
  5
19D
330
42
100
AcDbEntity
  8
1
  6
Continuous
 62
     7
100
AcDbCircle
 10
645.5946659252988
 20
322.2221495130465
 30
0.0
 40
1.00000000000028
100
AcDbArc
 50
-159.4649043704579
 51
-141.3401917459231
  0
ARC
  5
19E
330
42
100
AcDbEntity
  8
1
  6
Continuous
 62
     7
100
AcDbCircle
 10
645.5946659252988
 20
347.5205873943303
 30
0.0
 40
1.000000000000241
100
AcDbArc
 50
159.464904370464
 51
180.0
  0
ARC
  5
19F
330
42
100
AcDbEntity
  8
1
  6
Continuous
 62
     7
100
AcDbCircle
 10
351.0141804713622
 20
735.6716963330055
 30
0.0
 40
1.000000000000071
100
AcDbArc
 50
-128.6598082540921
 51
-110.5350956295391
  0
ARC
  5
1A0
330
42
100
AcDbEntity
  8
1
  6
Continuous
 62
     7
100
AcDbCircle
 10
376.3126183526458
 20
735.6716963330055
 30
0.0
 40
1.0
100
AcDbArc
 50
-90.0
 51
-69.46490437045179
  0
ARC
  5
1A1
330
42
100
AcDbEntity
  8
1
  6
Continuous
 62
     7
100
AcDbCircle
 10
339.6633994120041
 20
743.1523211804915
 30
0.0
 40
1.0
100
AcDbArc
 50
180.0
 51
-128.6598082540921
  0
ARC
  5
1A2
330
42
100
AcDbEntity
  8
1
  6
Continuous
 62
     7
100
AcDbCircle
 10
387.6633994120041
 20
743.1523211804915
 30
0.0
 40
0.9999999999999645
100
AcDbArc
 50
-51.3401917459155
 51
0.0
  0
ARC
  5
1A3
330
42
100
AcDbEntity
  8
1
  6
Continuous
 62
     7
100
AcDbCircle
 10
376.3126183526458
 20
735.6716963330055
 30
0.0
 40
1.00000000000032
100
AcDbArc
 50
-69.46490437045179
 51
-51.34019174591296
  0
ARC
  5
1A4
330
42
100
AcDbEntity
  8
1
  6
Continuous
 62
     7
100
AcDbCircle
 10
351.0141804713622
 20
735.6716963330055
 30
0.0
 40
1.000000000000261
100
AcDbArc
 50
-110.5350956295391
 51
-90.0
  0
ENDBLK
  5
44
330
42
100
AcDbEntity
  8
0
100
AcDbBlockEnd
  0
BLOCK
  5
46
330
45
100
AcDbEntity
  8
0
100
AcDbBlockBegin
  2
13-8-50K__4
 70
     0
 71
     0
 10
311.6633994120037
 20
360.8716963330054
 30
0.0
  3
13-8-50K__4
  1

  0
LINE
  5
1A5
330
45
100
AcDbEntity
  8
1
  6
Continuous
 62
     7
100
AcDbLine
 10
643.7946659252989
 20
344.1868684536883
 30
0.0
 11
643.7946659252989
 21
325.5558684536883
 31
0.0
  0
LINE
  5
1A6
330
45
100
AcDbEntity
  8
1
  6
Continuous
 62
     2
100
AcDbLine
 10
643.7946659252989
 20
344.1868684536883
 30
0.0
 11
644.5946659252988
 21
344.1868684536883
 31
0.0
  0
LINE
  5
1A7
330
45
100
AcDbEntity
  8
1
  6
Continuous
 62
     2
100
AcDbLine
 10
643.7946659252989
 20
325.5558684536883
 30
0.0
 11
641.8296094840239
 21
324.4213425883453
 31
0.0
  0
LINE
  5
1A8
330
45
100
AcDbEntity
  8
1
  6
Continuous
 62
     7
100
AcDbLine
 10
644.5946659252988
 20
345.3488684536883
 30
0.0
 11
643.7946659252989
 21
345.3488684536883
 31
0.0
  0
LINE
  5
1A9
330
45
100
AcDbEntity
  8
1
  6
Continuous
 62
     2
100
AcDbLine
 10
641.7820228869039
 20
345.3488684536883
 30
0.0
 11
643.7946659252989
 21
344.1868684536883
 31
0.0
  0
LINE
  5
1AA
330
45
100
AcDbEntity
  8
1
  6
Continuous
 62
     7
100
AcDbLine
 10
643.7946659252989
 20
344.1868684536883
 30
0.0
 11
643.7946659252989
 21
345.3488684536883
 31
0.0
  0
LINE
  5
1AB
330
45
100
AcDbEntity
  8
1
  6
Continuous
 62
     2
100
AcDbLine
 10
641.7820228869039
 20
345.3488684536883
 30
0.0
 11
643.7946659252989
 21
344.1868684536883
 31
0.0
  0
LINE
  5
1AC
330
45
100
AcDbEntity
  8
1
  6
Continuous
 62
     7
100
AcDbLine
 10
644.5946659252988
 20
324.3938684536882
 30
0.0
 11
643.7946659252989
 21
324.3938684536882
 31
0.0
  0
LINE
  5
1AD
330
45
100
AcDbEntity
  8
1
  6
Continuous
 62
     7
100
AcDbLine
 10
643.7946659252989
 20
324.3938684536882
 30
0.0
 11
643.7946659252989
 21
325.5558684536883
 31
0.0
  0
LINE
  5
1AE
330
45
100
AcDbEntity
  8
1
  6
Continuous
 62
     2
100
AcDbLine
 10
644.5946659252988
 20
325.5558684536883
 30
0.0
 11
643.7946659252989
 21
325.5558684536883
 31
0.0
  0
LINE
  5
1AF
330
45
100
AcDbEntity
  8
1
  6
Continuous
 62
     7
100
AcDbLine
 10
643.7946659252989
 20
345.3488684536883
 30
0.0
 11
641.7945908087181
 21
345.3488684536883
 31
0.0
  0
LINE
  5
1B0
330
45
100
AcDbEntity
  8
1
  6
Continuous
 62
     7
100
AcDbLine
 10
668.1326659252989
 20
344.1868684536883
 30
0.0
 11
668.1326659252989
 21
325.5558684536883
 31
0.0
  0
LINE
  5
1B1
330
45
100
AcDbEntity
  8
1
  6
Continuous
 62
     7
100
AcDbLine
 10
668.1326659252989
 20
324.3938684536882
 30
0.0
 11
655.2946659252989
 21
324.3938684536882
 31
0.0
  0
LINE
  5
1B2
330
45
100
AcDbEntity
  8
1
  6
Continuous
 62
     2
100
AcDbLine
 10
668.1326659252989
 20
325.5558684536883
 30
0.0
 11
655.2946659252989
 21
325.5558684536883
 31
0.0
  0
LINE
  5
1B3
330
45
100
AcDbEntity
  8
1
  6
Continuous
 62
     7
100
AcDbLine
 10
668.1326659252989
 20
345.3488684536883
 30
0.0
 11
655.2946659252989
 21
345.3488684536883
 31
0.0
  0
LINE
  5
1B4
330
45
100
AcDbEntity
  8
1
  6
Continuous
 62
     7
100
AcDbLine
 10
669.2946659252989
 20
328.8713684536882
 30
0.0
 11
669.2946659252989
 21
340.8713684536882
 31
0.0
  0
LINE
  5
1B5
330
45
100
AcDbEntity
  8
1
  6
Continuous
 62
     7
100
AcDbLine
 10
669.2946659252989
 20
325.5558684536883
 30
0.0
 11
669.2946659252989
 21
328.8713684536882
 31
0.0
  0
LINE
  5
1B6
330
45
100
AcDbEntity
  8
1
  6
Continuous
 62
     7
100
AcDbLine
 10
669.2946659252989
 20
340.8713684536882
 30
0.0
 11
669.2946659252989
 21
344.1868684536883
 31
0.0
  0
LINE
  5
1B7
330
45
100
AcDbEntity
  8
1
  6
Continuous
 62
     7
100
AcDbLine
 10
668.1326659252989
 20
345.3488684536883
 30
0.0
 11
669.2946659252989
 21
344.1868684536883
 31
0.0
  0
LINE
  5
1B8
330
45
100
AcDbEntity
  8
1
  6
Continuous
 62
     7
100
AcDbLine
 10
668.1326659252989
 20
345.3488684536883
 30
0.0
 11
668.1326659252989
 21
344.1868684536883
 31
0.0
  0
LINE
  5
1B9
330
45
100
AcDbEntity
  8
1
  6
Continuous
 62
     2
100
AcDbLine
 10
655.2946659252989
 20
344.1868684536883
 30
0.0
 11
668.1326659252989
 21
344.1868684536883
 31
0.0
  0
LINE
  5
1BA
330
45
100
AcDbEntity
  8
1
  6
Continuous
 62
     2
100
AcDbLine
 10
668.1326659252989
 20
344.1868684536883
 30
0.0
 11
669.2946659252989
 21
344.1868684536883
 31
0.0
  0
LINE
  5
1BB
330
45
100
AcDbEntity
  8
1
  6
Continuous
 62
     2
100
AcDbLine
 10
669.2946659252989
 20
325.5558684536883
 30
0.0
 11
668.1326659252989
 21
325.5558684536883
 31
0.0
  0
LINE
  5
1BC
330
45
100
AcDbEntity
  8
1
  6
Continuous
 62
     7
100
AcDbLine
 10
668.1326659252989
 20
325.5558684536883
 30
0.0
 11
668.1326659252989
 21
324.3938684536882
 31
0.0
  0
LINE
  5
1BD
330
45
100
AcDbEntity
  8
1
  6
Continuous
 62
     7
100
AcDbLine
 10
668.1326659252989
 20
324.3938684536882
 30
0.0
 11
669.2946659252989
 21
325.5558684536883
 31
0.0
  0
LINE
  5
1BE
330
45
100
AcDbEntity
  8
1
  6
Continuous
 62
     7
100
AcDbLine
 10
354.347899412004
 20
733.8716963330055
 30
0.0
 11
372.978899412004
 21
733.8716963330055
 31
0.0
  0
LINE
  5
1BF
330
45
100
AcDbEntity
  8
1
  6
Continuous
 62
     7
100
AcDbLine
 10
354.347899412004
 20
758.2096963330055
 30
0.0
 11
372.978899412004
 21
758.2096963330055
 31
0.0
  0
LINE
  5
1C0
330
45
100
AcDbEntity
  8
1
  6
Continuous
 62
     7
100
AcDbLine
 10
374.1408994120041
 20
758.2096963330055
 30
0.0
 11
374.1408994120041
 21
745.3716963330055
 31
0.0
  0
LINE
  5
1C1
330
45
100
AcDbEntity
  8
1
  6
Continuous
 62
     2
100
AcDbLine
 10
372.978899412004
 20
758.2096963330055
 30
0.0
 11
372.978899412004
 21
745.3716963330055
 31
0.0
  0
LINE
  5
1C2
330
45
100
AcDbEntity
  8
1
  6
Continuous
 62
     7
100
AcDbLine
 10
353.185899412004
 20
758.2096963330055
 30
0.0
 11
353.185899412004
 21
745.3716963330055
 31
0.0
  0
LINE
  5
1C3
330
45
100
AcDbEntity
  8
1
  6
Continuous
 62
     2
100
AcDbLine
 10
354.347899412004
 20
733.8716963330055
 30
0.0
 11
354.347899412004
 21
734.6716963330055
 31
0.0
  0
LINE
  5
1C4
330
45
100
AcDbEntity
  8
1
  6
Continuous
 62
     7
100
AcDbLine
 10
369.6633994120042
 20
759.3716963330055
 30
0.0
 11
357.6633994120042
 21
759.3716963330055
 31
0.0
  0
LINE
  5
1C5
330
45
100
AcDbEntity
  8
1
  6
Continuous
 62
     7
100
AcDbLine
 10
372.978899412004
 20
759.3716963330055
 30
0.0
 11
369.6633994120042
 21
759.3716963330055
 31
0.0
  0
LINE
  5
1C6
330
45
100
AcDbEntity
  8
1
  6
Continuous
 62
     7
100
AcDbLine
 10
333.6633994120041
 20
704.5697353601904
 30
0.0
 11
333.6633994120041
 21
706.8716963330055
 31
0.0
  0
LINE
  5
1C7
330
45
100
AcDbEntity
  8
1
  6
Continuous
 62
     7
100
AcDbLine
 10
338.6633994120041
 20
711.8716963330055
 30
0.0
 11
352.6633994120041
 21
711.8716963330055
 31
0.0
  0
LINE
  5
1C8
330
45
100
AcDbEntity
  8
1
  6
Continuous
 62
     2
100
AcDbLine
 10
372.978899412004
 20
733.8716963330055
 30
0.0
 11
374.1134252773469
 21
731.9066398917305
 31
0.0
  0
LINE
  5
1C9
330
45
100
AcDbEntity
  8
1
  6
Continuous
 62
     7
100
AcDbLine
 10
374.1408994120041
 20
733.8716963330055
 30
0.0
 11
374.1408994120041
 21
732.3883379293702
 31
0.0
  0
LINE
  5
1CA
330
45
100
AcDbEntity
  8
1
  6
Continuous
 62
     7
100
AcDbLine
 10
357.6633994120042
 20
759.3716963330055
 30
0.0
 11
354.347899412004
 21
759.3716963330055
 31
0.0
  0
LINE
  5
1CB
330
45
100
AcDbEntity
  8
1
  6
Continuous
 62
     7
100
AcDbLine
 10
353.185899412004
 20
734.6716963330055
 30
0.0
 11
353.185899412004
 21
733.8716963330055
 31
0.0
  0
LINE
  5
1CC
330
45
100
AcDbEntity
  8
1
  6
Continuous
 62
     7
100
AcDbLine
 10
353.185899412004
 20
758.2096963330055
 30
0.0
 11
354.347899412004
 21
759.3716963330055
 31
0.0
  0
LINE
  5
1CD
330
45
100
AcDbEntity
  8
1
  6
Continuous
 62
     7
100
AcDbLine
 10
353.185899412004
 20
758.2096963330055
 30
0.0
 11
354.347899412004
 21
758.2096963330055
 31
0.0
  0
LINE
  5
1CE
330
45
100
AcDbEntity
  8
1
  6
Continuous
 62
     2
100
AcDbLine
 10
353.185899412004
 20
731.8590532946105
 30
0.0
 11
354.347899412004
 21
733.8716963330055
 31
0.0
  0
LINE
  5
1CF
330
45
100
AcDbEntity
  8
1
  6
Continuous
 62
     7
100
AcDbLine
 10
354.347899412004
 20
733.8716963330055
 30
0.0
 11
353.185899412004
 21
733.8716963330055
 31
0.0
  0
LINE
  5
1D0
330
45
100
AcDbEntity
  8
1
  6
Continuous
 62
     2
100
AcDbLine
 10
353.185899412004
 20
731.8590532946105
 30
0.0
 11
354.347899412004
 21
733.8716963330055
 31
0.0
  0
LINE
  5
1D1
330
45
100
AcDbEntity
  8
1
  6
Continuous
 62
     2
100
AcDbLine
 10
354.347899412004
 20
745.3716963330055
 30
0.0
 11
354.347899412004
 21
758.2096963330055
 31
0.0
  0
LINE
  5
1D2
330
45
100
AcDbEntity
  8
1
  6
Continuous
 62
     2
100
AcDbLine
 10
354.347899412004
 20
758.2096963330055
 30
0.0
 11
354.347899412004
 21
759.3716963330055
 31
0.0
  0
LINE
  5
1D3
330
45
100
AcDbEntity
  8
1
  6
Continuous
 62
     2
100
AcDbLine
 10
372.978899412004
 20
759.3716963330055
 30
0.0
 11
372.978899412004
 21
758.2096963330055
 31
0.0
  0
LINE
  5
1D4
330
45
100
AcDbEntity
  8
1
  6
Continuous
 62
     7
100
AcDbLine
 10
372.978899412004
 20
758.2096963330055
 30
0.0
 11
374.1408994120041
 21
758.2096963330055
 31
0.0
  0
LINE
  5
1D5
330
45
100
AcDbEntity
  8
1
  6
Continuous
 62
     7
100
AcDbLine
 10
374.1408994120041
 20
734.6716963330055
 30
0.0
 11
374.1408994120041
 21
733.8716963330055
 31
0.0
  0
LINE
  5
1D6
330
45
100
AcDbEntity
  8
1
  6
Continuous
 62
     7
100
AcDbLine
 10
374.1408994120041
 20
733.8716963330055
 30
0.0
 11
372.978899412004
 21
733.8716963330055
 31
0.0
  0
LINE
  5
1D7
330
45
100
AcDbEntity
  8
1
  6
Continuous
 62
     7
100
AcDbLine
 10
374.1408994120041
 20
758.2096963330055
 30
0.0
 11
372.978899412004
 21
759.3716963330055
 31
0.0
  0
LINE
  5
1D8
330
45
100
AcDbEntity
  8
1
  6
Continuous
 62
     2
100
AcDbLine
 10
372.978899412004
 20
734.6716963330055
 30
0.0
 11
372.978899412004
 21
733.8716963330055
 31
0.0
  0
LINE
  5
1D9
330
45
100
AcDbEntity
  8
1
  6
Continuous
 62
     7
100
AcDbLine
 10
353.185899412004
 20
733.8716963330055
 30
0.0
 11
353.185899412004
 21
731.8716963330055
 31
0.0
  0
LINE
  5
1DA
330
45
100
AcDbEntity
  8
1
  6
Continuous
 62
     7
100
AcDbLine
 10
337.1633994120041
 20
726.8716963330055
 30
0.0
 11
348.185899412004
 21
726.8716963330055
 31
0.0
  0
LINE
  5
1DB
330
45
100
AcDbEntity
  8
1
  6
Continuous
 62
     7
100
AcDbLine
 10
339.8355084772072
 20
365.3933861881706
 30
0.0
 11
369.9038959803002
 21
343.2876016592891
 31
0.0
  0
LINE
  5
1DC
330
45
100
AcDbEntity
  8
1
  6
Continuous
 62
     7
100
AcDbLine
 10
327.0776736904774
 20
349.6694339042796
 30
0.0
 11
357.3314693378881
 21
326.5243661360753
 31
0.0
  0
LINE
  5
1DD
330
45
100
AcDbEntity
  8
1
  6
Continuous
 62
     7
100
AcDbLine
 10
614.4926298359029
 20
354.8716963330043
 30
0.0
 11
616.7945908087181
 21
354.871696333004
 31
0.0
  0
LINE
  5
1DE
330
45
100
AcDbEntity
  8
1
  6
Continuous
 62
     7
100
AcDbLine
 10
636.7945908087181
 20
351.371696333004
 30
0.0
 11
636.7945908087181
 21
350.3488684536883
 31
0.0
  0
LINE
  5
1DF
330
45
100
AcDbEntity
  8
0
  6
Continuous
 62
     7
100
AcDbLine
 10
636.7945908087181
 20
350.3488684536883
 30
0.0
 11
636.7945908087181
 21
341.3488684536883
 31
0.0
  0
LINE
  5
1E0
330
45
100
AcDbEntity
  8
1
  6
Continuous
 62
     7
100
AcDbLine
 10
621.7945908087181
 20
349.871696333004
 30
0.0
 11
621.7945908087181
 21
345.3713684536883
 31
0.0
  0
LINE
  5
1E1
330
45
100
AcDbEntity
  8
0
  6
Continuous
 62
     7
100
AcDbLine
 10
642.3113075216638
 20
324.3938684536882
 30
0.0
 11
643.7946659252989
 21
324.3938684536882
 31
0.0
  0
ARC
  5
1E2
330
45
100
AcDbEntity
  8
1
  6
Continuous
 62
     7
100
AcDbCircle
 10
643.2946659252989
 20
345.8713684536883
 30
0.0
 40
21.50000000000016
100
AcDbArc
 50
-93.90728598466586
 51
-92.62148599041808
  0
ARC
  5
1E3
330
45
100
AcDbEntity
  8
1
  6
Continuous
 62
     7
100
AcDbCircle
 10
337.0008515765029
 20
703.5294855072394
 30
0.0
 40
23.34277678497863
100
AcDbArc
 50
89.60101661003924
 51
177.4458192251683
  0
ARC
  5
1E4
330
45
100
AcDbEntity
  8
1
  6
Continuous
 62
     7
100
AcDbCircle
 10
338.6633994120041
 20
706.8716963330055
 30
0.0
 40
5.0
100
AcDbArc
 50
90.0
 51
180.0
  0
ARC
  5
1E5
330
45
100
AcDbEntity
  8
1
  6
Continuous
 62
     7
100
AcDbCircle
 10
352.6633994120041
 20
733.3716963330055
 30
0.0
 40
21.5
100
AcDbArc
 50
-90.0
 51
-3.90728598466591
  0
ARC
  5
1E6
330
45
100
AcDbEntity
  8
1
  6
Continuous
 62
     7
100
AcDbCircle
 10
352.6633994120041
 20
733.3716963330055
 30
0.0
 40
21.49999999999993
100
AcDbArc
 50
-3.90728598466591
 51
-2.6214859904187
  0
ARC
  5
1E7
330
45
100
AcDbEntity
  8
0
  6
Continuous
 62
     7
100
AcDbCircle
 10
348.185899412004
 20
731.8716963330055
 30
0.0
 40
5.0
100
AcDbArc
 50
-90.0
 51
0.0
  0
ARC
  5
1E8
330
45
100
AcDbEntity
  8
1
  6
Continuous
 62
     7
100
AcDbCircle
 10
363.6977307590944
 20
334.8459478226823
 30
0.0
 40
10.47750000000061
100
AcDbArc
 50
-127.417080657823
 51
53.67728536612748
  0
ARC
  5
1E9
330
45
100
AcDbEntity
  8
1
  6
Continuous
 62
     7
100
AcDbCircle
 10
613.452379982952
 20
351.5342441685053
 30
0.0
 40
23.34277678497863
100
AcDbArc
 50
-0.39898338996104
 51
87.44581922516829
  0
ARC
  5
1EA
330
45
100
AcDbEntity
  8
1
  6
Continuous
 62
     7
100
AcDbCircle
 10
616.7945908087181
 20
349.871696333004
 30
0.0
 40
5.0
100
AcDbArc
 50
0.0
 51
90.0
  0
ARC
  5
1EB
330
45
100
AcDbEntity
  8
0
  6
Continuous
 62
     7
100
AcDbCircle
 10
641.7945908087181
 20
350.3488684536883
 30
0.0
 40
5.0
100
AcDbArc
 50
180.0
 51
-90.0
  0
ARC
  5
1EC
330
45
100
AcDbEntity
  8
1
  6
Continuous
 62
     7
100
AcDbCircle
 10
643.2945908087181
 20
345.8438943190311
 30
0.0
 40
21.5
100
AcDbArc
 50
180.0
 51
-93.90728598466589
  0
ENDBLK
  5
47
330
45
100
AcDbEntity
  8
0
100
AcDbBlockEnd
  0
BLOCK
  5
4D
330
48
100
AcDbEntity
  8
0
100
AcDbBlockBegin
  2
U3-8X-50__5
 70
     0
 71
     0
 10
289.6633994120041
 20
459.2278404552222
 30
0.0
  3
U3-8X-50__5
  1

  0
INSERT
  5
49
330
48
100
AcDbEntity
  8
1
100
AcDbBlockReference
  2
32-43A__1
 10
-880.0719937553351
 20
342.4783807146388
 30
0.0
  0
INSERT
  5
4A
330
48
100
AcDbEntity
  8
1
100
AcDbBlockReference
  2
32-43A__2
 10
1407.398792579344
 20
342.4783807146388
 30
0.0
  0
INSERT
  5
4B
330
48
100
AcDbEntity
  8
0
100
AcDbBlockReference
  2
78-3AK__3
 10
104.5740499542467
 20
485.2993353443724
 30
0.0
  0
INSERT
  5
4C
330
48
100
AcDbEntity
  8
1
100
AcDbBlockReference
  2
13-8-50K__4
 10
311.6633994120037
 20
360.8716963330054
 30
0.0
  0
ENDBLK
  5
4E
330
48
100
AcDbEntity
  8
0
100
AcDbBlockEnd
  0
BLOCK
  5
50
330
4F
100
AcDbEntity
  8
0
100
AcDbBlockBegin
  2
60-1-16-170
 70
     0
 71
     0
 10
50.91339941200411
 20
382.6186785815264
 30
0.0
  3
60-1-16-170
  1

  0
LINE
  5
1ED
330
4F
100
AcDbEntity
  8
1
  6
Continuous
 62
     7
100
AcDbLine
 10
255.6633994120042
 20
313.8716963330053
 30
0.0
 11
255.6633994120038
 21
346.3716963330054
 31
0.0
  0
LINE
  5
1EE
330
4F
100
AcDbEntity
  8
1
  6
Continuous
 62
     7
100
AcDbLine
 10
271.663399412004
 20
313.8716963330054
 30
0.0
 11
271.6633994120043
 21
285.8716963330054
 31
0.0
  0
LINE
  5
1EF
330
4F
100
AcDbEntity
  8
1
  6
Continuous
 62
     7
100
AcDbLine
 10
255.6633994120043
 20
285.8716963330054
 30
0.0
 11
271.6633994120043
 21
285.8716963330054
 31
0.0
  0
LINE
  5
1F0
330
4F
100
AcDbEntity
  8
1
  6
Continuous
 62
     7
100
AcDbLine
 10
256.5632470358653
 20
280.8716963330054
 30
0.0
 11
271.0498064179905
 21
280.8716963330054
 31
0.0
  0
LINE
  5
1F1
330
4F
100
AcDbEntity
  8
1
  6
Continuous
 62
     7
100
AcDbLine
 10
255.6633994120043
 20
285.8716963330054
 30
0.0
 11
255.6633994120042
 21
313.8716963330053
 31
0.0
  0
LINE
  5
1F2
330
4F
100
AcDbEntity
  8
1
  6
Continuous
 62
     7
100
AcDbLine
 10
271.6633994120037
 20
346.3716963330057
 30
0.0
 11
271.663399412004
 21
313.8716963330054
 31
0.0
  0
LINE
  5
1F3
330
4F
100
AcDbEntity
  8
1
  6
Continuous
 62
     7
100
AcDbLine
 10
256.2769924060181
 20
280.8716963330054
 30
0.0
 11
256.5632470358653
 21
280.8716963330054
 31
0.0
  0
LINE
  5
1F4
330
4F
100
AcDbEntity
  8
1
  6
Continuous
 62
     7
100
AcDbLine
 10
403.2926298359027
 20
285.8716963330054
 30
0.0
 11
419.2926298359027
 21
285.8716963330054
 31
0.0
  0
LINE
  5
1F5
330
4F
100
AcDbEntity
  8
1
  6
Continuous
 62
     7
100
AcDbLine
 10
554.292629835903
 20
305.8716963330054
 30
0.0
 11
456.6878190696849
 21
305.8716963330054
 31
0.0
  0
LINE
  5
1F6
330
4F
100
AcDbEntity
  8
1
  6
Continuous
 62
     7
100
AcDbLine
 10
554.292629835903
 20
321.8716963330053
 30
0.0
 11
545.9046114858209
 21
321.8716963330053
 31
0.0
  0
LINE
  5
1F7
330
4F
100
AcDbEntity
  8
1
  6
Continuous
 62
     7
100
AcDbLine
 10
403.9062228299167
 20
280.8716963330054
 30
0.0
 11
418.3927822120418
 21
280.8716963330054
 31
0.0
  0
LINE
  5
1F8
330
4F
100
AcDbEntity
  8
1
  6
Continuous
 62
     7
100
AcDbLine
 10
453.8737582620493
 20
321.8716963330053
 30
0.0
 11
438.292629835903
 21
321.8716963330053
 31
0.0
  0
LINE
  5
1F9
330
4F
100
AcDbEntity
  8
1
  6
Continuous
 62
     7
100
AcDbLine
 10
573.2926298359032
 20
340.8716963330053
 30
0.0
 11
573.2926298359032
 21
346.3716963330054
 31
0.0
  0
LINE
  5
1FA
330
4F
100
AcDbEntity
  8
1
  6
Continuous
 62
     7
100
AcDbLine
 10
589.2926298359033
 20
346.3716963330057
 30
0.0
 11
589.2926298359032
 21
340.8716963330056
 31
0.0
  0
LINE
  5
1FB
330
4F
100
AcDbEntity
  8
1
  6
Continuous
 62
     7
100
AcDbLine
 10
403.2926298359027
 20
285.8716963330054
 30
0.0
 11
403.2926298359029
 21
286.8716963330054
 31
0.0
  0
LINE
  5
1FC
330
4F
100
AcDbEntity
  8
1
  6
Continuous
 62
     7
100
AcDbLine
 10
419.2926298359027
 20
285.8716963330054
 30
0.0
 11
419.2926298359027
 21
286.8716963330054
 31
0.0
  0
LINE
  5
1FD
330
4F
100
AcDbEntity
  8
1
  6
Continuous
 62
     7
100
AcDbLine
 10
418.3927822120418
 20
280.8716963330054
 30
0.0
 11
418.679036841889
 21
280.8716963330054
 31
0.0
  0
LINE
  5
1FE
330
4F
100
AcDbEntity
  8
1
  6
Continuous
 62
     7
100
AcDbLine
 10
456.6878190696849
 20
305.8716963330054
 30
0.0
 11
438.292629835903
 21
305.8716963330054
 31
0.0
  0
LINE
  5
1FF
330
4F
100
AcDbEntity
  8
0
  6
Continuous
 62
     7
100
AcDbLine
 10
453.8737582620493
 20
321.8716963330053
 30
0.0
 11
545.9046114858209
 21
321.8716963330053
 31
0.0
  0
LINE
  5
200
330
4F
100
AcDbEntity
  8
0
  6
Continuous
 62
     7
100
AcDbLine
 10
271.6633994120037
 20
660.2464849155286
 30
0.0
 11
271.6633994120037
 21
501.3716963330056
 31
0.0
  0
LINE
  5
201
330
4F
100
AcDbEntity
  8
0
  6
Continuous
 62
     7
100
AcDbLine
 10
255.6633994120038
 20
660.2643184573258
 30
0.0
 11
255.6633994120038
 21
501.3716963330056
 31
0.0
  0
ARC
  5
202
330
4F
100
AcDbEntity
  8
1
  6
Continuous
 62
     7
100
AcDbCircle
 10
263.663399412004
 20
313.8716963330054
 30
0.0
 40
8.0
100
AcDbArc
 50
0.0
 51
-179.9999999999992
  0
ARC
  5
203
330
4F
100
AcDbEntity
  8
1
  6
Continuous
 62
     7
100
AcDbCircle
 10
268.453373117286
 20
283.7279766257831
 30
0.0
 40
3.860026294718451
100
AcDbArc
 50
-47.72834450357998
 51
33.73579100002692
  0
ARC
  5
204
330
4F
100
AcDbEntity
  8
1
  6
Continuous
 62
     7
100
AcDbCircle
 10
258.8734257067224
 20
283.7279766257831
 30
0.0
 40
3.860026294718036
100
AcDbArc
 50
146.2642089999712
 51
-132.2716554964175
  0
ARC
  5
205
330
4F
100
AcDbEntity
  8
1
  6
Continuous
 62
     7
100
AcDbCircle
 10
554.292629835903
 20
340.8716963330053
 30
0.0
 40
34.99999999999989
100
AcDbArc
 50
-90.0
 51
0.00000000000056
  0
ARC
  5
206
330
4F
100
AcDbEntity
  8
1
  6
Continuous
 62
     7
100
AcDbCircle
 10
554.292629835903
 20
340.8716963330053
 30
0.0
 40
19.0
100
AcDbArc
 50
-90.0
 51
0.0
  0
ARC
  5
207
330
4F
100
AcDbEntity
  8
1
  6
Continuous
 62
     7
100
AcDbCircle
 10
438.292629835903
 20
286.8716963330054
 30
0.0
 40
34.99999999999989
100
AcDbArc
 50
90.0
 51
180.0
  0
ARC
  5
208
330
4F
100
AcDbEntity
  8
1
  6
Continuous
 62
     7
100
AcDbCircle
 10
438.292629835903
 20
286.8716963330054
 30
0.0
 40
19.0
100
AcDbArc
 50
90.0
 51
180.0
  0
ARC
  5
209
330
4F
100
AcDbEntity
  8
1
  6
Continuous
 62
     7
100
AcDbCircle
 10
406.5026561306211
 20
283.7279766257831
 30
0.0
 40
3.86002629471832
100
AcDbArc
 50
146.264208999974
 51
-132.2716554964188
  0
ARC
  5
20A
330
4F
100
AcDbEntity
  8
1
  6
Continuous
 62
     7
100
AcDbCircle
 10
416.0826035411847
 20
283.7279766257831
 30
0.0
 40
3.860026294718298
100
AcDbArc
 50
-47.72834450358248
 51
33.73579100002973
  0
ARC
  5
20B
330
4F
100
AcDbEntity
  8
0
  6
Continuous
 62
     7
100
AcDbCircle
 10
263.6633994120037
 20
501.3716963330056
 30
0.0
 40
7.999999999999886
100
AcDbArc
 50
180.0
 51
0.0
  0
ARC
  5
20C
330
4F
100
AcDbEntity
  8
0
  6
Continuous
 62
     7
100
AcDbCircle
 10
263.6633994120037
 20
501.3716963330056
 30
0.0
 40
8.649999999999656
100
AcDbArc
 50
157.6465744006738
 51
180.0
  0
ARC
  5
20D
330
4F
100
AcDbEntity
  8
0
  6
Continuous
 62
     7
100
AcDbCircle
 10
263.6633994120037
 20
501.3716963330056
 30
0.0
 40
8.649999999999579
100
AcDbArc
 50
180.0
 51
22.35342559932609
  0
ENDBLK
  5
51
330
4F
100
AcDbEntity
  8
0
100
AcDbBlockEnd
  0
BLOCK
  5
53
330
52
100
AcDbEntity
  8
0
100
AcDbBlockBegin
  2
32-1-16
 70
     0
 71
     0
 10
257.2567102998768
 20
365.9491664843845
 30
0.0
  3
32-1-16
  1

  0
LINE
  5
20E
330
52
100
AcDbEntity
  8
1
  6
Continuous
 62
     7
100
AcDbLine
 10
595.2926298359032
 20
351.8716963330055
 30
0.0
 11
595.2926298359032
 21
348.6589568163807
 31
0.0
  0
LINE
  5
20F
330
52
100
AcDbEntity
  8
1
  6
Continuous
 62
     7
100
AcDbLine
 10
571.4564720494499
 20
356.3716963330057
 30
0.0
 11
567.9930763571211
 21
356.3716963330057
 31
0.0
  0
LINE
  5
210
330
52
100
AcDbEntity
  8
1
  6
Continuous
 62
     7
100
AcDbLine
 10
571.4564720494499
 20
356.3716963330057
 30
0.0
 11
567.9930763571211
 21
356.3716963330057
 31
0.0
  0
LINE
  5
211
330
52
100
AcDbEntity
  8
1
  6
Continuous
 62
     7
100
AcDbLine
 10
567.2926298359034
 20
348.6589568163807
 30
0.0
 11
567.2926298359034
 21
355.7995097787477
 31
0.0
  0
LINE
  5
212
330
52
100
AcDbEntity
  8
1
  6
Continuous
 62
     7
100
AcDbLine
 10
592.8502043764157
 20
347.3716963330057
 30
0.0
 11
592.7921833146852
 21
347.3716963330054
 31
0.0
  0
LINE
  5
213
330
52
100
AcDbEntity
  8
1
  6
Continuous
 62
     7
100
AcDbLine
 10
591.0601325071162
 20
346.3716963330057
 30
0.0
 11
581.2921833146853
 21
346.3716963330057
 31
0.0
  0
LINE
  5
214
330
52
100
AcDbEntity
  8
1
  6
Continuous
 62
     7
100
AcDbLine
 10
591.4120259810179
 20
347.3716963330057
 30
0.0
 11
581.2921833146853
 21
347.3716963330054
 31
0.0
  0
LINE
  5
215
330
52
100
AcDbEntity
  8
1
  6
Continuous
 62
     7
100
AcDbLine
 10
569.7930763571212
 20
347.3716963330054
 30
0.0
 11
569.7350552953907
 21
347.3716963330057
 31
0.0
  0
LINE
  5
216
330
52
100
AcDbEntity
  8
1
  6
Continuous
 62
     7
100
AcDbLine
 10
581.2930763571211
 20
346.3716963330057
 30
0.0
 11
571.5251271646902
 21
346.3716963330057
 31
0.0
  0
LINE
  5
217
330
52
100
AcDbEntity
  8
1
  6
Continuous
 62
     7
100
AcDbLine
 10
581.2930763571211
 20
347.3716963330054
 30
0.0
 11
571.1732336907885
 21
347.3716963330057
 31
0.0
  0
LINE
  5
218
330
52
100
AcDbEntity
  8
1
  6
Continuous
 62
     7
100
AcDbLine
 10
275.2209739525165
 20
347.3716963330057
 30
0.0
 11
275.1629528907859
 21
347.3716963330054
 31
0.0
  0
LINE
  5
219
330
52
100
AcDbEntity
  8
1
  6
Continuous
 62
     7
100
AcDbLine
 10
273.430902083217
 20
346.3716963330057
 30
0.0
 11
263.6629528907862
 21
346.3716963330057
 31
0.0
  0
LINE
  5
21A
330
52
100
AcDbEntity
  8
1
  6
Continuous
 62
     7
100
AcDbLine
 10
273.7827955571188
 20
347.3716963330057
 30
0.0
 11
263.6629528907862
 21
347.3716963330054
 31
0.0
  0
LINE
  5
21B
330
52
100
AcDbEntity
  8
1
  6
Continuous
 62
     7
100
AcDbLine
 10
276.9629528907861
 20
356.3716963330057
 30
0.0
 11
263.6633994120037
 21
356.3716963330057
 31
0.0
  0
LINE
  5
21C
330
52
100
AcDbEntity
  8
1
  6
Continuous
 62
     7
100
AcDbLine
 10
252.1638459332221
 20
347.3716963330054
 30
0.0
 11
252.1058248714914
 21
347.3716963330057
 31
0.0
  0
LINE
  5
21D
330
52
100
AcDbEntity
  8
1
  6
Continuous
 62
     7
100
AcDbLine
 10
263.663845933222
 20
346.3716963330057
 30
0.0
 11
253.895896740791
 21
346.3716963330057
 31
0.0
  0
LINE
  5
21E
330
52
100
AcDbEntity
  8
1
  6
Continuous
 62
     7
100
AcDbLine
 10
263.663845933222
 20
347.3716963330054
 30
0.0
 11
253.5440032668894
 21
347.3716963330057
 31
0.0
  0
LINE
  5
21F
330
52
100
AcDbEntity
  8
1
  6
Continuous
 62
     7
100
AcDbLine
 10
263.6633994120037
 20
356.3716963330057
 30
0.0
 11
250.3638459332219
 21
356.3716963330057
 31
0.0
  0
ARC
  5
220
330
52
100
AcDbEntity
  8
1
  6
Continuous
 62
     7
100
AcDbCircle
 10
570.7930763571214
 20
352.2292332975643
 30
0.0
 40
5.00000000000001
100
AcDbArc
 50
-134.4341693318676
 51
-105.3375576695569
  0
ARC
  5
221
330
52
100
AcDbEntity
  8
1
  6
Continuous
 62
     7
100
AcDbCircle
 10
570.7930763571214
 20
352.2292332975643
 30
0.0
 40
4.999999999999988
100
AcDbArc
 50
124.0557977425721
 51
134.4341693318694
  0
ARC
  5
222
330
52
100
AcDbEntity
  8
1
  6
Continuous
 62
     7
100
AcDbCircle
 10
591.7921833146852
 20
352.2292332975643
 30
0.0
 40
5.000000000000109
100
AcDbArc
 50
-74.66244233044561
 51
-45.56583066813245
  0
ARC
  5
223
330
52
100
AcDbEntity
  8
1
  6
Continuous
 62
     7
100
AcDbCircle
 10
274.1629528907859
 20
352.2292332975643
 30
0.0
 40
5.000000000000124
100
AcDbArc
 50
-74.66244233044498
 51
55.94420225742899
  0
ARC
  5
224
330
52
100
AcDbEntity
  8
1
  6
Continuous
 62
     7
100
AcDbCircle
 10
263.6633994120037
 20
344.3309505272002
 30
0.0
 40
11.46899698463574
100
AcDbArc
 50
66.90086751034305
 51
90.0
  0
ARC
  5
225
330
52
100
AcDbEntity
  8
1
  6
Continuous
 62
     7
100
AcDbCircle
 10
263.6633994120037
 20
358.5450243405223
 30
0.0
 40
9.886505257229601
100
AcDbArc
 50
-90.0
 51
-62.92729759414019
  0
ARC
  5
226
330
52
100
AcDbEntity
  8
1
  6
Continuous
 62
     7
100
AcDbCircle
 10
253.1638459332221
 20
352.2292332975643
 30
0.0
 40
4.999999999999924
100
AcDbArc
 50
124.055797742571
 51
-105.337557669555
  0
ARC
  5
227
330
52
100
AcDbEntity
  8
1
  6
Continuous
 62
     7
100
AcDbCircle
 10
263.6633994120037
 20
344.3309505272002
 30
0.0
 40
11.46899698463545
100
AcDbArc
 50
90.0
 51
113.0991324896533
  0
ARC
  5
228
330
52
100
AcDbEntity
  8
1
  6
Continuous
 62
     7
100
AcDbCircle
 10
263.6633994120037
 20
358.5450243405223
 30
0.0
 40
9.886505257229294
100
AcDbArc
 50
-117.0727024058557
 51
-90.0
  0
SPLINE
  5
229
330
52
100
AcDbEntity
  8
1
  6
Continuous
 62
     7
100
AcDbSpline
210
0.0
220
0.0
230
1.0
 70
     8
 71
     3
 72
    47
 73
    43
 74
    41
 42
0.0000000001
 43
0.0000000001
 44
0.00000001
 40
0.0
 40
0.0
 40
0.0
 40
0.0
 40
0.1992160457483733
 40
0.3977786474376312
 40
0.5971085575835897
 40
0.8247992302904199
 40
1.051607131071009
 40
1.278967959867376
 40
1.648403963175487
 40
2.0175120863232
 40
2.419170762214035
 40
2.820589770261412
 40
3.254001687021928
 40
3.68725213143937
 40
4.148568168265661
 40
4.609781075307339
 40
5.092677874186168
 40
5.575514007138712
 40
6.071996432982812
 40
6.568450811278621
 40
7.06955813803894
 40
7.570665464799146
 40
8.067119843094842
 40
8.563602268939054
 40
9.046438401891464
 40
9.529335200770527
 40
9.990548107812007
 40
10.45186414463851
 40
10.88511458905572
 40
11.31852650581627
 40
11.71994551386371
 40
12.1216041897545
 40
12.49071231290214
 40
12.86014831621013
 40
13.08750914500667
 40
13.3143170457871
 40
13.54200771849393
 40
13.75623968149943
 40
13.96970795930894
 40
14.18417725560183
 40
14.19253850946608
 40
14.20089540148249
 40
14.20089540148249
 40
14.20089540148249
 40
14.20089540148249
 10
594.0241640317184
 20
351.8716963330411
 30
0.0
 10
594.0119033592216
 20
351.8063937581646
 30
0.0
 10
593.9874222301836
 20
351.676002805915
 30
0.0
 10
593.9299993269635
 20
351.4850438905438
 30
0.0
 10
593.8539434372132
 20
351.2906870965472
 30
0.0
 10
593.7579849694776
 20
351.0947271351589
 30
0.0
 10
593.6426315383328
 20
350.8986030997281
 30
0.0
 10
593.4840567870829
 20
350.6741926199307
 30
0.0
 10
593.2755092568888
 20
350.4280701714276
 30
0.0
 10
593.0012896467563
 20
350.1641026943983
 30
0.0
 10
592.6957612887399
 20
349.9197008802272
 30
0.0
 10
592.3531395444798
 20
349.6898342977666
 30
0.0
 10
591.9844445244355
 20
349.4822656073176
 30
0.0
 10
591.5838894491934
 20
349.293049048085
 30
0.0
 10
591.162785046782
 20
349.1280843190648
 30
0.0
 10
590.7164267146601
 20
348.9849003288755
 30
0.0
 10
590.2552308641508
 20
348.8673730931358
 30
0.0
 10
589.7765357657914
 20
348.7742892890426
 30
0.0
 10
589.288868457345
 20
348.7077864898179
 30
0.0
 10
588.7922506514485
 20
348.6674009275435
 30
0.0
 10
588.292629835903
 20
348.654057447279
 30
0.0
 10
587.7930090203572
 20
348.6674009275434
 30
0.0
 10
587.2963912144628
 20
348.7077864898181
 30
0.0
 10
586.8087239060085
 20
348.7742892890423
 30
0.0
 10
586.3300288076774
 20
348.8673730931364
 30
0.0
 10
585.8688329570645
 20
348.9849003288724
 30
0.0
 10
585.4224746253138
 20
349.1280843190753
 30
0.0
 10
585.0013702215567
 20
349.2930490480471
 30
0.0
 10
584.6008151510469
 20
349.4822656074493
 30
0.0
 10
584.2321201140014
 20
349.6898342972889
 30
0.0
 10
583.8894984287449
 20
349.9197008818648
 30
0.0
 10
583.5839698598784
 20
350.1641026884774
 30
0.0
 10
583.3097509763031
 20
350.428070191551
 30
0.0
 10
583.1012011232524
 20
350.6741925567895
 30
0.0
 10
582.9426319655297
 20
350.8986032370909
 30
0.0
 10
582.8272601858809
 20
351.0947266148058
 30
0.0
 10
582.7291822665289
 20
351.2951553182073
 30
0.0
 10
582.6498404971958
 20
351.4990151613499
 30
0.0
 10
582.5910407597378
 20
351.7051460987691
 30
0.0
 10
582.5639185827149
 20
351.8482583241739
 30
0.0
 10
582.5530810461444
 20
351.9245544861875
 30
0.0
 10
582.5523234138327
 20
351.9300754767825
 30
0.0
 10
582.551944696512
 20
351.9328352518529
 30
0.0
 11
594.0241640317184
 21
351.8716963330411
 31
0.0
 11
593.983927552748
 21
351.6765859575003
 31
0.0
 11
593.9275554725604
 21
351.486193480325
 31
0.0
 11
593.8550477911556
 21
351.3005189015155
 31
0.0
 11
593.7552990864961
 21
351.0958405236725
 31
0.0
 11
593.6400788896017
 21
350.900478986813
 31
0.0
 11
593.5093872004727
 21
350.714434290937
 31
0.0
 11
593.2708939039172
 21
350.4322926455913
 31
0.0
 11
593.0055567748121
 21
350.1757054002109
 31
0.0
 11
592.6923954175904
 21
349.9241906764641
 31
0.0
 11
592.3593682984096
 21
349.7000698208709
 31
0.0
 11
591.9820399356914
 21
349.4868347480557
 31
0.0
 11
591.5904722664977
 21
349.3014143931048
 31
0.0
 11
591.1611389147586
 21
349.1326383316579
 31
0.0
 11
590.7220498262582
 21
348.9915067689877
 31
0.0
 11
590.2542039358575
 21
348.8718842744366
 31
0.0
 11
589.7802719083587
 21
348.7795849537704
 31
0.0
 11
589.2883752016651
 21
348.7122616359972
 31
0.0
 11
588.7935556496827
 21
348.67200544759
 31
0.0
 11
588.292629835903
 21
348.6585190832927
 31
0.0
 11
587.7917040221233
 21
348.67200544759
 31
0.0
 11
587.2968844701411
 21
348.7122616359972
 31
0.0
 11
586.8049877634473
 21
348.7795849537704
 31
0.0
 11
586.3310557359487
 21
348.8718842744365
 31
0.0
 11
585.8632098455478
 21
348.9915067689877
 31
0.0
 11
585.4241207570476
 21
349.1326383316579
 31
0.0
 11
584.9947874053082
 21
349.3014143931048
 31
0.0
 11
584.6032197361147
 21
349.4868347480557
 31
0.0
 11
584.2258913733966
 21
349.7000698208709
 31
0.0
 11
583.8928642542157
 21
349.9241906764642
 31
0.0
 11
583.579702896994
 21
350.175705400211
 31
0.0
 11
583.3143657678891
 21
350.4322926455914
 31
0.0
 11
583.0758724713337
 21
350.714434290937
 31
0.0
 11
582.9451807822045
 21
350.900478986813
 31
0.0
 11
582.8299605853104
 21
351.0958405236725
 31
0.0
 11
582.7302118806508
 21
351.3005189015155
 31
0.0
 11
582.6529131825054
 21
351.500319415124
 31
0.0
 11
582.5942630578898
 21
351.7055725966183
 31
0.0
 11
582.5542615068036
 21
351.9162784459986
 31
0.0
 11
582.5530873640703
 21
351.9245568489257
 31
0.0
 11
582.551944696512
 21
351.9328352518529
 31
0.0
  0
SPLINE
  5
22A
330
52
100
AcDbEntity
  8
1
  6
Continuous
 62
     7
100
AcDbSpline
210
0.0
220
0.0
230
1.0
 70
     8
 71
     3
 72
    66
 73
    62
 74
    60
 42
0.0000000001
 43
0.0000000001
 44
0.00000001
 40
0.0
 40
0.0
 40
0.0
 40
0.0
 40
0.1845211553601618
 40
0.3691975456122311
 40
0.8304104526539267
 40
1.291726489480133
 40
1.724976933897472
 40
2.158388850658214
 40
2.559807858705559
 40
2.961466534596411
 40
3.330574657743922
 40
3.700010661052002
 40
3.927371489848547
 40
4.154179390629079
 40
4.381870063335808
 40
4.596102026341211
 40
4.809570304150894
 40
5.0240396004436
 40
5.233631815955587
 40
5.442268383666058
 40
5.651860599178044
 40
5.866329895470884
 40
6.079798173280426
 40
6.294030136285894
 40
6.521720808992623
 40
6.748528709773261
 40
6.975889538569759
 40
7.345325541877797
 40
7.714433665025428
 40
8.116092340916351
 40
8.517511348963728
 40
8.950923265724343
 40
9.384173710141683
 40
9.845489746967974
 40
10.30670265400965
 40
10.78959945288859
 40
11.27243558584102
 40
11.76891801168512
 40
12.26537238998093
 40
12.76647971674114
 40
13.26758704350134
 40
13.76404142179715
 40
14.26052384764114
 40
14.74335998059377
 40
15.22625677947262
 40
15.68746968651442
 40
16.14878572334071
 40
16.58203616775792
 40
17.01544808451866
 40
17.41686709256592
 40
17.81852576845689
 40
18.18763389160453
 40
18.55706989491245
 40
18.78443072370893
 40
19.01123862448947
 40
19.2389292971963
 40
19.45316126020171
 40
19.66662953801137
 40
19.88109883430414
 40
19.88946008800805
 40
19.89781697986433
 40
19.89781697986433
 40
19.89781697986433
 40
19.89781697986433
 10
572.2202457702797
 20
355.5608506482391
 30
0.0
 10
572.1605217652882
 20
355.5461375590471
 30
0.0
 10
572.0410235103919
 20
355.5166990027611
 30
0.0
 10
571.7741319209147
 20
355.4431829887801
 30
0.0
 10
571.4224700454031
 20
355.3303825454264
 30
0.0
 10
571.0013713661786
 20
355.1654174797794
 30
0.0
 10
570.6008148517925
 20
354.9762010052047
 30
0.0
 10
570.2321201870719
 20
354.7686322938162
 30
0.0
 10
569.8894984117063
 20
354.5387657133251
 30
0.0
 10
569.5839698568557
 20
354.2943639102297
 30
0.0
 10
569.3097510012613
 20
354.030396390551
 30
0.0
 10
569.101201041276
 20
353.7842740794279
 30
0.0
 10
568.9426321442466
 20
353.5598632686268
 30
0.0
 10
568.8272595087315
 20
353.3637403190331
 30
0.0
 10
568.7291847442932
 20
353.1633100375591
 30
0.0
 10
568.6498318696621
 20
352.9594557492139
 30
0.0
 10
568.5910729589979
 20
352.7533043905041
 30
0.0
 10
568.5512895495572
 20
352.5442615080875
 30
0.0
 10
568.5309184406758
 20
352.3340369601099
 30
0.0
 10
568.5309184406757
 20
352.1244296350185
 30
0.0
 10
568.5512895495569
 20
351.914205087041
 30
0.0
 10
568.5910729589982
 20
351.7051622046245
 30
0.0
 10
568.6498318696612
 20
351.4990108459145
 30
0.0
 10
568.7291847442957
 20
351.2951565575694
 30
0.0
 10
568.8272595087203
 20
351.0947262760946
 30
0.0
 10
568.9426321442871
 20
350.898603326504
 30
0.0
 10
569.1012010410839
 20
350.6741925156893
 30
0.0
 10
569.3097510024908
 20
350.4280702046498
 30
0.0
 10
569.5839698521737
 20
350.1641026846234
 30
0.0
 10
569.8894984308762
 20
349.9197008829306
 30
0.0
 10
570.2321201133802
 20
349.6898342969779
 30
0.0
 10
570.600815151219
 20
349.4822656075352
 30
0.0
 10
571.0013702215081
 20
349.2930490480225
 30
0.0
 10
571.4224746253281
 20
349.1280843190821
 30
0.0
 10
571.8688329570612
 20
348.9849003288706
 30
0.0
 10
572.3300288076791
 20
348.8673730931371
 30
0.0
 10
572.8087239060087
 20
348.7742892890422
 30
0.0
 10
573.2963912144633
 20
348.7077864898181
 30
0.0
 10
573.7930090203577
 20
348.6674009275434
 30
0.0
 10
574.2926298359035
 20
348.6540574472791
 30
0.0
 10
574.7922506514492
 20
348.6674009275433
 30
0.0
 10
575.2888684573438
 20
348.707786489818
 30
0.0
 10
575.7765357657979
 20
348.7742892890423
 30
0.0
 10
576.2552308641291
 20
348.8673730931365
 30
0.0
 10
576.7164267147422
 20
348.9849003288724
 30
0.0
 10
577.1627850464927
 20
349.1280843190753
 30
0.0
 10
577.5838894502499
 20
349.2930490480471
 30
0.0
 10
577.9844445207598
 20
349.4822656074493
 30
0.0
 10
578.3531395578054
 20
349.6898342972888
 30
0.0
 10
578.6957612430615
 20
349.9197008818649
 30
0.0
 10
579.0012898119285
 20
350.1641026884774
 30
0.0
 10
579.2755086955035
 20
350.4280701915509
 30
0.0
 10
579.4840585485545
 20
350.6741925567896
 30
0.0
 10
579.6426277062767
 20
350.8986032370909
 30
0.0
 10
579.7579994859262
 20
351.0947266148059
 30
0.0
 10
579.8560774052777
 20
351.295155318207
 30
0.0
 10
579.9354191746108
 20
351.49901516135
 30
0.0
 10
579.9942189120682
 20
351.7051460987694
 30
0.0
 10
580.0213410890838
 20
351.8482583241207
 30
0.0
 10
580.0321786256396
 20
351.9245544860288
 30
0.0
 10
580.0329362579377
 20
351.9300754765179
 30
0.0
 10
580.0333149752514
 20
351.9328352515353
 30
0.0
 11
572.2202457702797
 21
355.5608506482391
 31
0.0
 11
572.0412833788272
 21
355.5159004622434
 31
0.0
 11
571.8632098455483
 21
355.4669598261409
 31
0.0
 11
571.4241207570479
 21
355.3258282634706
 31
0.0
 11
570.9947874053089
 21
355.1570522020236
 31
0.0
 11
570.6032197361153
 21
354.9716318470727
 31
0.0
 11
570.225891373397
 21
354.7583967742575
 31
0.0
 11
569.8928642542162
 21
354.5342759186642
 31
0.0
 11
569.5797028969944
 21
354.2827611949175
 31
0.0
 11
569.3143657678895
 21
354.0261739495372
 31
0.0
 11
569.0758724713342
 21
353.7440323041914
 31
0.0
 11
568.9451807822049
 21
353.5579876083154
 31
0.0
 11
568.8299605853107
 21
353.3626260714559
 31
0.0
 11
568.7302118806513
 21
353.1579476936129
 31
0.0
 11
568.6529131825059
 21
352.9581471800045
 31
0.0
 11
568.5942630578901
 21
352.7528939985101
 31
0.0
 11
568.5542615068041
 21
352.54218814913
 31
0.0
 11
568.5342695229801
 21
352.3335515814195
 31
0.0
 11
568.53426952298
 21
352.124915013709
 31
0.0
 11
568.554261506804
 21
351.9162784459986
 31
0.0
 11
568.5942630578901
 21
351.7055725966183
 31
0.0
 11
568.6529131825058
 21
351.500319415124
 31
0.0
 11
568.730211880651
 21
351.3005189015155
 31
0.0
 11
568.8299605853105
 21
351.0958405236726
 31
0.0
 11
568.9451807822048
 21
350.900478986813
 31
0.0
 11
569.075872471334
 21
350.714434290937
 31
0.0
 11
569.3143657678894
 21
350.4322926455913
 31
0.0
 11
569.5797028969944
 21
350.1757054002109
 31
0.0
 11
569.8928642542162
 21
349.9241906764641
 31
0.0
 11
570.2258913733971
 21
349.7000698208709
 31
0.0
 11
570.6032197361153
 21
349.4868347480557
 31
0.0
 11
570.9947874053089
 21
349.3014143931048
 31
0.0
 11
571.4241207570481
 21
349.1326383316579
 31
0.0
 11
571.8632098455485
 21
348.9915067689877
 31
0.0
 11
572.3310557359492
 21
348.8718842744366
 31
0.0
 11
572.8049877634479
 21
348.7795849537704
 31
0.0
 11
573.2968844701416
 21
348.7122616359972
 31
0.0
 11
573.7917040221239
 21
348.67200544759
 31
0.0
 11
574.2926298359035
 21
348.6585190832927
 31
0.0
 11
574.7935556496832
 21
348.67200544759
 31
0.0
 11
575.2883752016655
 21
348.7122616359972
 31
0.0
 11
575.7802719083591
 21
348.7795849537704
 31
0.0
 11
576.254203935858
 21
348.8718842744365
 31
0.0
 11
576.7220498262586
 21
348.9915067689877
 31
0.0
 11
577.1611389147591
 21
349.1326383316579
 31
0.0
 11
577.5904722664983
 21
349.3014143931048
 31
0.0
 11
577.9820399356918
 21
349.4868347480557
 31
0.0
 11
578.3593682984101
 21
349.7000698208709
 31
0.0
 11
578.6923954175908
 21
349.9241906764642
 31
0.0
 11
579.0055567748127
 21
350.175705400211
 31
0.0
 11
579.2708939039177
 21
350.4322926455914
 31
0.0
 11
579.5093872004729
 21
350.714434290937
 31
0.0
 11
579.640078889602
 21
350.900478986813
 31
0.0
 11
579.7552990864964
 21
351.0958405236725
 31
0.0
 11
579.8550477911559
 21
351.3005189015155
 31
0.0
 11
579.9323464893012
 21
351.500319415124
 31
0.0
 11
579.9909966139171
 21
351.7055725966183
 31
0.0
 11
580.0309981650031
 21
351.9162784459985
 31
0.0
 11
580.0321723077141
 21
351.9245568487669
 31
0.0
 11
580.0333149752514
 21
351.9328352515353
 31
0.0
  0
SPLINE
  5
22B
330
52
100
AcDbEntity
  8
1
  6
Continuous
 62
     7
100
AcDbSpline
210
0.0
220
0.0
230
1.0
 70
     8
 71
     3
 72
    23
 73
    19
 74
    17
 42
0.0000000001
 43
0.0000000001
 44
0.00000001
 40
0.0
 40
0.0
 40
0.0
 40
0.0
 40
0.061962639487735
 40
0.1239369973920312
 40
0.6927169500455452
 40
1.261838680778408
 40
1.788172873730259
 40
2.31584568947082
 40
2.699688806968844
 40
3.082455372119803
 40
3.461127711108413
 40
3.926001047127086
 40
4.398453936129775
 40
4.873271021649089
 40
5.49875489485053
 40
6.120380691394265
 40
6.584493132667794
 40
7.049203548290376
 40
7.049203548290376
 40
7.049203548290376
 40
7.049203548290376
 10
259.163845933222
 20
349.7417860333534
 30
0.0
 10
259.1452948251657
 20
349.7508666987019
 30
0.0
 10
259.1081891006548
 20
349.7690297467407
 30
0.0
 10
258.9012975161905
 20
349.8715522317157
 30
0.0
 10
258.5514822982228
 20
350.0669224227162
 30
0.0
 10
258.0972870706236
 20
350.3873727359996
 30
0.0
 10
257.6936747278623
 20
350.7499709691736
 30
0.0
 10
257.3911478093354
 20
351.1254545773024
 30
0.0
 10
257.1824488189425
 20
351.5049490198733
 30
0.0
 10
257.0543274899374
 20
351.8666060929288
 30
0.0
 10
256.9939876831176
 20
352.2742052710183
 30
0.0
 10
257.0437349624459
 20
352.7154594446658
 30
0.0
 10
257.2033623523074
 20
353.161661088593
 30
0.0
 10
257.4702921778213
 20
353.6160500240147
 30
0.0
 10
257.8563938423178
 20
354.0466637776565
 30
0.0
 10
258.310311236005
 20
354.3959689982425
 30
0.0
 10
258.7539592106707
 20
354.6618485738267
 30
0.0
 10
259.0271583973366
 20
354.8075506803232
 30
0.0
 10
259.163845933222
 20
354.8804486349378
 30
0.0
 11
259.163845933222
 21
349.7417860333534
 31
0.0
 11
259.1082150680019
 21
349.7690729446325
 31
0.0
 11
259.0527069232129
 21
349.7966350000662
 31
0.0
 11
258.5568778588177
 21
350.0753179264207
 31
0.0
 11
258.092780426838
 21
350.4047312200538
 31
0.0
 11
257.7040638190564
 21
350.7595932798814
 31
0.0
 11
257.3759010985992
 21
351.1728097236172
 31
0.0
 11
257.1917652503104
 21
351.5096027286301
 31
0.0
 11
257.0659269020881
 21
351.8710926365309
 31
0.0
 11
257.0130191612089
 21
352.2460506492072
 31
0.0
 11
257.0607949026571
 21
352.7084624754727
 31
0.0
 11
257.2164515247756
 21
353.1545372991488
 31
0.0
 11
257.4558889173369
 21
353.5645629077935
 31
0.0
 11
257.8701312581272
 21
354.0332134798956
 31
0.0
 11
258.3595252616151
 21
354.4165046750446
 31
0.0
 11
258.755641780855
 21
354.6583559957566
 31
0.0
 11
259.163845933222
 21
354.8804486349378
 31
0.0
  0
SPLINE
  5
22C
330
52
100
AcDbEntity
  8
1
  6
Continuous
 62
     7
100
AcDbSpline
210
0.0
220
0.0
230
1.0
 70
    11
 71
     3
 72
    79
 73
    75
 74
    73
 42
0.0000000001
 43
0.0000000001
 44
0.00000001
 40
0.0
 40
0.0
 40
0.0
 40
0.0
 40
0.2903672562528999
 40
0.5807357597934225
 40
0.8724071051837042
 40
1.164081918217414
 40
1.458189931540125
 40
1.752302927360693
 40
2.049663207833742
 40
2.34702911312609
 40
2.648045792769428
 40
2.94906794293906
 40
3.253697753141648
 40
3.558332281909176
 40
3.866104864362542
 40
4.173881026138555
 40
4.483966067735106
 40
4.794053328114061
 40
5.105362224076
 40
5.41667187021406
 40
5.727981516352178
 40
6.039290412314283
 40
6.349377672693297
 40
6.659462714289777
 40
6.967238876065661
 40
7.275011458518987
 40
7.579645987286681
 40
7.884275797489282
 40
8.185297947658778
 40
8.486314627301915
 40
8.783680532594467
 40
9.081040813067666
 40
9.375153808888184
 40
9.669261822210762
 40
9.960936635244508
 40
10.25260798063479
 40
10.54297648417535
 40
10.83334374042835
 40
11.12371099668122
 40
11.41407950022173
 40
11.70575084561202
 40
11.99742565864579
 40
12.29153367196834
 40
12.58564666778883
 40
12.88300694826187
 40
13.18037285355442
 40
13.48138953319772
 40
13.7824116833674
 40
14.08704149356975
 40
14.39167602233721
 40
14.69944860479083
 40
15.00722476656689
 40
15.31730980816333
 40
15.62739706854221
 40
15.9387059645042
 40
16.25001561064231
 40
16.56132525678043
 40
16.87263415274247
 40
17.18272141312131
 40
17.4928064547177
 40
17.80058261649374
 40
18.10835519894715
 40
18.41298972771461
 40
18.71761953791717
 40
19.01864168808679
 40
19.31965836773014
 40
19.61702427302258
 40
19.91438455349574
 40
20.20849754931628
 40
20.50260556263886
 40
20.7942803756726
 40
21.08595172106286
 40
21.37632022460338
 40
21.66668748085628
 40
21.66668748085628
 40
21.66668748085628
 40
21.66668748085628
 10
251.5394902802396
 20
348.6585190832927
 30
0.0
 10
251.6363140899737
 20
348.6611506806956
 30
0.0
 10
251.8299621253533
 20
348.6664138868055
 30
0.0
 10
252.1183230037415
 20
348.7087089604991
 30
0.0
 10
252.4020351469878
 20
348.7759198535415
 30
0.0
 10
252.679460209348
 20
348.8699750190928
 30
0.0
 10
252.9477811204241
 20
348.9894064770086
 30
0.0
 10
253.2057808835344
 20
349.1336819726784
 30
0.0
 10
253.4505828865566
 20
349.3012860480415
 30
0.0
 10
253.6812791114002
 20
349.4914486023426
 30
0.0
 10
253.8951748184693
 20
349.7020713227823
 30
0.0
 10
254.0915483608485
 20
349.9322929387311
 30
0.0
 10
254.2680977058175
 20
350.1795293622373
 30
0.0
 10
254.4242005022974
 20
350.4427635365847
 30
0.0
 10
254.5580895167198
 20
350.71912709126
 30
0.0
 10
254.6692175335384
 20
351.0073405352097
 30
0.0
 10
254.7564082933376
 20
351.3044789784451
 30
0.0
 10
254.8192338997966
 20
351.6089021325547
 30
0.0
 10
254.8570824495708
 20
351.9178387449202
 30
0.0
 10
254.8697447115285
 20
352.2292332975639
 30
0.0
 10
254.8570824495708
 20
352.5406278502063
 30
0.0
 10
254.8192338997964
 20
352.8495644625766
 30
0.0
 10
254.7564082933381
 20
353.1539876166694
 30
0.0
 10
254.6692175335386
 20
353.4511260599674
 30
0.0
 10
254.5580895167201
 20
353.7393395036851
 30
0.0
 10
254.4242005022973
 20
354.015703059221
 30
0.0
 10
254.2680977058177
 20
354.2789372303877
 30
0.0
 10
254.0915483608488
 20
354.526173665693
 30
0.0
 10
253.8951748184697
 20
354.756395238107
 30
0.0
 10
253.6812791114007
 20
354.9670181199577
 30
0.0
 10
253.450582886557
 20
355.157180078865
 30
0.0
 10
253.2057808835347
 20
355.3247863624849
 30
0.0
 10
252.9477811204243
 20
355.4690537029688
 30
0.0
 10
252.6794602093484
 20
355.5885154423261
 30
0.0
 10
252.4020351469882
 20
355.6824584893943
 30
0.0
 10
252.1183230037419
 20
355.7500864618417
 30
0.0
 10
251.8299621253537
 20
355.7908315866909
 30
0.0
 10
251.53949028024
 20
355.8045054646185
 30
0.0
 10
251.2490184351262
 20
355.7908315866911
 30
0.0
 10
250.960657556738
 20
355.750086461842
 30
0.0
 10
250.6769454134919
 20
355.6824584893943
 30
0.0
 10
250.3995203511316
 20
355.5885154423261
 30
0.0
 10
250.1311994400556
 20
355.4690537029688
 30
0.0
 10
249.8731996769454
 20
355.3247863624852
 30
0.0
 10
249.6283976739231
 20
355.1571800788652
 30
0.0
 10
249.3977014490794
 20
354.967018119958
 30
0.0
 10
249.1838057420102
 20
354.7563952381071
 30
0.0
 10
248.9874321996311
 20
354.5261736656932
 30
0.0
 10
248.8108828546623
 20
354.278937230388
 30
0.0
 10
248.6547800581823
 20
354.0157030592216
 30
0.0
 10
248.52089104376
 20
353.7393395036853
 30
0.0
 10
248.4097630269413
 20
353.4511260599676
 30
0.0
 10
248.3225722671419
 20
353.1539876166694
 30
0.0
 10
248.2597466606832
 20
352.849564462577
 30
0.0
 10
248.2218981109089
 20
352.5406278502065
 30
0.0
 10
248.2092358489513
 20
352.2292332975645
 30
0.0
 10
248.2218981109089
 20
351.9178387449206
 30
0.0
 10
248.2597466606831
 20
351.6089021325549
 30
0.0
 10
248.322572267142
 20
351.3044789784457
 30
0.0
 10
248.4097630269412
 20
351.0073405352099
 30
0.0
 10
248.5208910437597
 20
350.7191270912605
 30
0.0
 10
248.654780058182
 20
350.4427635365851
 30
0.0
 10
248.8108828546621
 20
350.1795293622377
 30
0.0
 10
248.9874321996309
 20
349.9322929387317
 30
0.0
 10
249.1838057420102
 20
349.7020713227828
 30
0.0
 10
249.3977014490788
 20
349.4914486023428
 30
0.0
 10
249.6283976739227
 20
349.3012860480416
 30
0.0
 10
249.8731996769451
 20
349.1336819726788
 30
0.0
 10
250.1311994400554
 20
348.9894064770089
 30
0.0
 10
250.3995203511312
 20
348.8699750190929
 30
0.0
 10
250.6769454134914
 20
348.7759198535413
 30
0.0
 10
250.9606575567377
 20
348.7087089604993
 30
0.0
 10
251.2490184351259
 20
348.6664138868053
 30
0.0
 10
251.4426664705057
 20
348.6611506806956
 30
0.0
 10
251.5394902802396
 20
348.6585190832927
 30
0.0
 11
251.5394902802396
 21
348.6585190832927
 31
0.0
 11
251.8295380420376
 21
348.6721366961453
 31
0.0
 11
252.1170499665733
 21
348.7127662555589
 31
0.0
 11
252.4007872764419
 21
348.7803333533975
 31
0.0
 11
252.6770607940971
 21
348.8738594994779
 31
0.0
 11
252.945777856196
 21
348.9934030649156
 31
0.0
 11
253.202507117196
 21
349.1369040783508
 31
0.0
 11
253.447924406978
 21
349.3048132510576
 31
0.0
 11
253.6774235152306
 21
349.4939075157554
 31
0.0
 11
253.8919780742676
 21
349.705041081585
 31
0.0
 11
254.087379893767
 21
349.9340224428987
 31
0.0
 11
254.2644832989073
 21
350.1818806788962
 31
0.0
 11
254.4199199356905
 21
350.4438761904282
 31
0.0
 11
254.5541731643136
 21
350.7208238986951
 31
0.0
 11
254.6649395801008
 21
351.0079771102238
 31
0.0
 11
254.7522973355738
 21
351.3055024966712
 31
0.0
 11
254.8149940290885
 21
351.6091852812864
 31
0.0
 11
254.8528764490577
 21
351.9181806711587
 31
0.0
 11
254.8655239541523
 21
352.2292332975637
 31
0.0
 11
254.8528764490576
 21
352.5402859239688
 31
0.0
 11
254.8149940290885
 21
352.8492813138413
 31
0.0
 11
254.752297335574
 21
353.1529640984566
 31
0.0
 11
254.6649395801011
 21
353.4504894849039
 31
0.0
 11
254.5541731643138
 21
353.7376426964324
 31
0.0
 11
254.4199199356906
 21
354.0145904046992
 31
0.0
 11
254.2644832989075
 21
354.2765859162315
 31
0.0
 11
254.0873798937672
 21
354.524444152229
 31
0.0
 11
253.8919780742679
 21
354.7534255135427
 31
0.0
 11
253.6774235152311
 21
354.9645590793722
 31
0.0
 11
253.4479244069784
 21
355.1536533440701
 31
0.0
 11
253.2025071171962
 21
355.3215625167769
 31
0.0
 11
252.9457778561963
 21
355.4650635302122
 31
0.0
 11
252.6770607940975
 21
355.5846070956499
 31
0.0
 11
252.4007872764423
 21
355.6781332417305
 31
0.0
 11
252.1170499665737
 21
355.7457003395689
 31
0.0
 11
251.829538042038
 21
355.7863298989828
 31
0.0
 11
251.5394902802399
 21
355.7999475118356
 31
0.0
 11
251.2494425184419
 21
355.786329898983
 31
0.0
 11
250.9619305939063
 21
355.7457003395691
 31
0.0
 11
250.6781932840377
 21
355.6781332417305
 31
0.0
 11
250.4019197663825
 21
355.5846070956499
 31
0.0
 11
250.1332027042838
 21
355.4650635302122
 31
0.0
 11
249.8764734432838
 21
355.321562516777
 31
0.0
 11
249.6310561535018
 21
355.1536533440703
 31
0.0
 11
249.401557045249
 21
354.9645590793724
 31
0.0
 11
249.187002486212
 21
354.7534255135428
 31
0.0
 11
248.9916006667126
 21
354.5244441522291
 31
0.0
 11
248.8144972615725
 21
354.2765859162318
 31
0.0
 11
248.6590606247893
 21
354.0145904046998
 31
0.0
 11
248.5248073961661
 21
353.7376426964327
 31
0.0
 11
248.4140409803788
 21
353.450489484904
 31
0.0
 11
248.3266832249058
 21
353.1529640984567
 31
0.0
 11
248.2639865313912
 21
352.8492813138416
 31
0.0
 11
248.2261041114221
 21
352.5402859239692
 31
0.0
 11
248.2134566063274
 21
352.2292332975641
 31
0.0
 11
248.2261041114221
 21
351.918180671159
 31
0.0
 11
248.2639865313911
 21
351.6091852812866
 31
0.0
 11
248.3266832249058
 21
351.3055024966715
 31
0.0
 11
248.4140409803788
 21
351.0079771102243
 31
0.0
 11
248.5248073961659
 21
350.7208238986956
 31
0.0
 11
248.659060624789
 21
350.4438761904286
 31
0.0
 11
248.8144972615722
 21
350.1818806788967
 31
0.0
 11
248.9916006667125
 21
349.9340224428992
 31
0.0
 11
249.1870024862118
 21
349.7050410815855
 31
0.0
 11
249.4015570452486
 21
349.4939075157556
 31
0.0
 11
249.6310561535013
 21
349.3048132510578
 31
0.0
 11
249.8764734432835
 21
349.1369040783511
 31
0.0
 11
250.1332027042834
 21
348.9934030649158
 31
0.0
 11
250.4019197663821
 21
348.8738594994779
 31
0.0
 11
250.6781932840373
 21
348.7803333533973
 31
0.0
 11
250.9619305939059
 21
348.7127662555589
 31
0.0
 11
251.2494425184416
 21
348.6721366961453
 31
0.0
 11
251.5394902802396
 21
348.6585190832927
 31
0.0
  0
SPLINE
  5
22D
330
52
100
AcDbEntity
  8
1
  6
Continuous
 62
     7
100
AcDbSpline
210
0.0
220
0.0
230
1.0
 70
     8
 71
     3
 72
    23
 73
    19
 74
    17
 42
0.0000000001
 43
0.0000000001
 44
0.00000001
 40
0.0
 40
0.0
 40
0.0
 40
0.0
 40
0.0619626394876329
 40
0.1239369973917764
 40
0.6927169500454732
 40
1.261838680778376
 40
1.788172873730192
 40
2.315845689470877
 40
2.699688806968875
 40
3.082455372119796
 40
3.46112771110839
 40
3.92600104712712
 40
4.398453936129682
 40
4.873271021649074
 40
5.498754894850435
 40
6.120380691394251
 40
6.584493132667683
 40
7.049203548290214
 40
7.049203548290214
 40
7.049203548290214
 40
7.049203548290214
 10
268.1629528907862
 20
349.7417860333534
 30
0.0
 10
268.1815039988425
 20
349.750866698702
 30
0.0
 10
268.2186097233533
 20
349.7690297467407
 30
0.0
 10
268.4255013078174
 20
349.8715522317153
 30
0.0
 10
268.7753165257851
 20
350.0669224227166
 30
0.0
 10
269.2295117533845
 20
350.3873727359995
 30
0.0
 10
269.6331240961459
 20
350.7499709691734
 30
0.0
 10
269.9356510146728
 20
351.1254545773026
 30
0.0
 10
270.1443500050659
 20
351.5049490198732
 30
0.0
 10
270.2724713340707
 20
351.8666060929287
 30
0.0
 10
270.3328111408903
 20
352.2742052710184
 30
0.0
 10
270.2830638615623
 20
352.7154594446658
 30
0.0
 10
270.1234364717007
 20
353.161661088593
 30
0.0
 10
269.8565066461868
 20
353.6160500240145
 30
0.0
 10
269.4704049816902
 20
354.0466637776566
 30
0.0
 10
269.0164875880031
 20
354.3959689982423
 30
0.0
 10
268.5728396133374
 20
354.6618485738267
 30
0.0
 10
268.2996404266716
 20
354.8075506803232
 30
0.0
 10
268.1629528907862
 20
354.8804486349378
 30
0.0
 11
268.1629528907862
 21
349.7417860333534
 31
0.0
 11
268.2185837560061
 21
349.7690729446325
 31
0.0
 11
268.274091900795
 21
349.7966350000662
 31
0.0
 11
268.7699209651903
 21
350.0753179264209
 31
0.0
 11
269.2340183971702
 21
350.4047312200538
 31
0.0
 11
269.6227350049518
 21
350.7595932798813
 31
0.0
 11
269.9508977254091
 21
351.1728097236172
 31
0.0
 11
270.1350335736978
 21
351.5096027286301
 31
0.0
 11
270.26087192192
 21
351.8710926365309
 31
0.0
 11
270.3137796627991
 21
352.2460506492072
 31
0.0
 11
270.2660039213509
 21
352.7084624754727
 31
0.0
 11
270.1103472992325
 21
353.1545372991487
 31
0.0
 11
269.8709099066711
 21
353.5645629077935
 31
0.0
 11
269.4566675658808
 21
354.0332134798956
 31
0.0
 11
268.9672735623929
 21
354.4165046750446
 31
0.0
 11
268.5711570431531
 21
354.6583559957566
 31
0.0
 11
268.1629528907862
 21
354.8804486349378
 31
0.0
  0
SPLINE
  5
22E
330
52
100
AcDbEntity
  8
1
  6
Continuous
 62
     7
100
AcDbSpline
210
0.0
220
0.0
230
1.0
 70
    11
 71
     3
 72
    79
 73
    75
 74
    73
 42
0.0000000001
 43
0.0000000001
 44
0.00000001
 40
0.0
 40
0.0
 40
0.0
 40
0.0
 40
0.2903672562528999
 40
0.5807357597934225
 40
0.8724071051836779
 40
1.164081918217424
 40
1.458189931540002
 40
1.752302927360518
 40
2.049663207833637
 40
2.347029113126073
 40
2.648045792769391
 40
2.949067942938986
 40
3.253697753141475
 40
3.558332281909031
 40
3.866104864362448
 40
4.173881026138491
 40
4.483966067734949
 40
4.794053328114004
 40
5.10536222407595
 40
5.416671870214008
 40
5.727981516352124
 40
6.039290412314233
 40
6.349377672693209
 40
6.659462714289776
 40
6.967238876065619
 40
7.275011458518908
 40
7.579645987286631
 40
7.8842757974892
 40
8.185297947658714
 40
8.48631462730183
 40
8.783680532594426
 40
9.081040813067672
 40
9.375153808888165
 40
9.669261822210691
 40
9.960936635244437
 40
10.25260798063469
 40
10.54297648417538
 40
10.83334374042846
 40
11.12371099668125
 40
11.41407950022164
 40
11.70575084561193
 40
11.9974256586457
 40
12.29153367196836
 40
12.58564666778892
 40
12.88300694826206
 40
13.18037285355452
 40
13.48138953319776
 40
13.78241168336736
 40
14.08704149356981
 40
14.39167602233728
 40
14.69944860479078
 40
15.00722476656689
 40
15.31730980816334
 40
15.62739706854223
 40
15.93870596450422
 40
16.25001561064233
 40
16.56132525678045
 40
16.87263415274249
 40
17.18272141312133
 40
17.49280645471773
 40
17.80058261649376
 40
18.10835519894718
 40
18.41298972771471
 40
18.7176195379172
 40
19.0186416880868
 40
19.31965836773024
 40
19.61702427302256
 40
19.91438455349576
 40
20.20849754931631
 40
20.50260556263898
 40
20.79428037567262
 40
21.08595172106288
 40
21.37632022460345
 40
21.6666874808563
 40
21.6666874808563
 40
21.6666874808563
 40
21.6666874808563
 10
275.7873085437684
 20
348.6585190832927
 30
0.0
 10
275.6904847340344
 20
348.6611506806955
 30
0.0
 10
275.4968366986547
 20
348.6664138868053
 30
0.0
 10
275.2084758202666
 20
348.7087089604994
 30
0.0
 10
274.9247636770202
 20
348.7759198535413
 30
0.0
 10
274.64733861466
 20
348.8699750190928
 30
0.0
 10
274.3790177035841
 20
348.9894064770089
 30
0.0
 10
274.1210179404737
 20
349.1336819726785
 30
0.0
 10
273.8762159374516
 20
349.3012860480415
 30
0.0
 10
273.6455197126077
 20
349.4914486023426
 30
0.0
 10
273.4316240055388
 20
349.7020713227823
 30
0.0
 10
273.2352504631596
 20
349.9322929387311
 30
0.0
 10
273.0587011181908
 20
350.1795293622374
 30
0.0
 10
272.9025983217109
 20
350.4427635365847
 30
0.0
 10
272.7687093072884
 20
350.7191270912601
 30
0.0
 10
272.6575812904696
 20
351.0073405352096
 30
0.0
 10
272.5703905306702
 20
351.3044789784451
 30
0.0
 10
272.5075649242115
 20
351.6089021325545
 30
0.0
 10
272.4697163744371
 20
351.9178387449204
 30
0.0
 10
272.4570541124795
 20
352.229233297564
 30
0.0
 10
272.4697163744372
 20
352.5406278502063
 30
0.0
 10
272.5075649242115
 20
352.8495644625765
 30
0.0
 10
272.5703905306701
 20
353.1539876166693
 30
0.0
 10
272.6575812904695
 20
353.4511260599675
 30
0.0
 10
272.768709307288
 20
353.7393395036849
 30
0.0
 10
272.9025983217106
 20
354.0157030592212
 30
0.0
 10
273.0587011181905
 20
354.2789372303877
 30
0.0
 10
273.2352504631592
 20
354.5261736656931
 30
0.0
 10
273.4316240055384
 20
354.756395238107
 30
0.0
 10
273.6455197126073
 20
354.9670181199577
 30
0.0
 10
273.8762159374511
 20
355.157180078865
 30
0.0
 10
274.1210179404735
 20
355.3247863624849
 30
0.0
 10
274.3790177035837
 20
355.4690537029687
 30
0.0
 10
274.6473386146597
 20
355.5885154423263
 30
0.0
 10
274.9247636770198
 20
355.682458489394
 30
0.0
 10
275.2084758202662
 20
355.7500864618418
 30
0.0
 10
275.4968366986543
 20
355.7908315866908
 30
0.0
 10
275.7873085437682
 20
355.8045054646186
 30
0.0
 10
276.0777803888818
 20
355.7908315866911
 30
0.0
 10
276.36614126727
 20
355.750086461842
 30
0.0
 10
276.6498534105161
 20
355.6824584893942
 30
0.0
 10
276.9272784728764
 20
355.588515442326
 30
0.0
 10
277.1955993839524
 20
355.469053702969
 30
0.0
 10
277.4535991470629
 20
355.324786362485
 30
0.0
 10
277.6984011500852
 20
355.1571800788653
 30
0.0
 10
277.9290973749289
 20
354.9670181199579
 30
0.0
 10
278.1429930819979
 20
354.7563952381072
 30
0.0
 10
278.3393666243768
 20
354.5261736656933
 30
0.0
 10
278.5159159693459
 20
354.278937230388
 30
0.0
 10
278.6720187658258
 20
354.0157030592217
 30
0.0
 10
278.8059077802482
 20
353.7393395036853
 30
0.0
 10
278.9170357970668
 20
353.4511260599676
 30
0.0
 10
279.0042265568662
 20
353.1539876166695
 30
0.0
 10
279.0670521633249
 20
352.8495644625769
 30
0.0
 10
279.1049007130992
 20
352.5406278502066
 30
0.0
 10
279.1175629750568
 20
352.2292332975645
 30
0.0
 10
279.1049007130991
 20
351.9178387449205
 30
0.0
 10
279.067052163325
 20
351.608902132555
 30
0.0
 10
279.0042265568661
 20
351.3044789784455
 30
0.0
 10
278.9170357970668
 20
351.0073405352101
 30
0.0
 10
278.8059077802483
 20
350.7191270912605
 30
0.0
 10
278.6720187658258
 20
350.442763536585
 30
0.0
 10
278.5159159693461
 20
350.1795293622378
 30
0.0
 10
278.3393666243771
 20
349.9322929387317
 30
0.0
 10
278.1429930819978
 20
349.7020713227827
 30
0.0
 10
277.9290973749291
 20
349.4914486023429
 30
0.0
 10
277.6984011500851
 20
349.3012860480417
 30
0.0
 10
277.453599147063
 20
349.1336819726787
 30
0.0
 10
277.1955993839526
 20
348.9894064770089
 30
0.0
 10
276.9272784728768
 20
348.8699750190929
 30
0.0
 10
276.6498534105166
 20
348.7759198535413
 30
0.0
 10
276.3661412672703
 20
348.7087089604992
 30
0.0
 10
276.0777803888821
 20
348.6664138868054
 30
0.0
 10
275.8841323535024
 20
348.6611506806955
 30
0.0
 10
275.7873085437684
 20
348.6585190832927
 30
0.0
 11
275.7873085437684
 21
348.6585190832927
 31
0.0
 11
275.4972607819704
 21
348.6721366961453
 31
0.0
 11
275.2097488574347
 21
348.7127662555589
 31
0.0
 11
274.9260115475661
 21
348.7803333533973
 31
0.0
 11
274.6497380299109
 21
348.8738594994779
 31
0.0
 11
274.3810209678122
 21
348.9934030649156
 31
0.0
 11
274.1242917068122
 21
349.1369040783508
 31
0.0
 11
273.8788744170301
 21
349.3048132510576
 31
0.0
 11
273.6493753087774
 21
349.4939075157554
 31
0.0
 11
273.4348207497404
 21
349.705041081585
 31
0.0
 11
273.2394189302411
 21
349.9340224428987
 31
0.0
 11
273.0623155251009
 21
350.1818806788962
 31
0.0
 11
272.9068788883177
 21
350.4438761904282
 31
0.0
 11
272.7726256596945
 21
350.7208238986951
 31
0.0
 11
272.6618592439072
 21
351.0079771102238
 31
0.0
 11
272.5745014884342
 21
351.3055024966711
 31
0.0
 11
272.5118047949195
 21
351.6091852812864
 31
0.0
 11
272.4739223749503
 21
351.9181806711587
 31
0.0
 11
272.4612748698557
 21
352.2292332975637
 31
0.0
 11
272.4739223749504
 21
352.5402859239688
 31
0.0
 11
272.5118047949195
 21
352.8492813138413
 31
0.0
 11
272.5745014884341
 21
353.1529640984566
 31
0.0
 11
272.6618592439071
 21
353.4504894849039
 31
0.0
 11
272.7726256596943
 21
353.7376426964324
 31
0.0
 11
272.9068788883174
 21
354.0145904046992
 31
0.0
 11
273.0623155251006
 21
354.2765859162315
 31
0.0
 11
273.2394189302408
 21
354.524444152229
 31
0.0
 11
273.4348207497401
 21
354.7534255135427
 31
0.0
 11
273.6493753087769
 21
354.9645590793722
 31
0.0
 11
273.8788744170297
 21
355.1536533440701
 31
0.0
 11
274.1242917068119
 21
355.3215625167769
 31
0.0
 11
274.3810209678118
 21
355.4650635302122
 31
0.0
 11
274.6497380299105
 21
355.5846070956499
 31
0.0
 11
274.9260115475657
 21
355.6781332417305
 31
0.0
 11
275.2097488574343
 21
355.7457003395689
 31
0.0
 11
275.4972607819701
 21
355.7863298989829
 31
0.0
 11
275.7873085437683
 21
355.7999475118356
 31
0.0
 11
276.0773563055662
 21
355.786329898983
 31
0.0
 11
276.3648682301017
 21
355.7457003395691
 31
0.0
 11
276.6486055399703
 21
355.6781332417305
 31
0.0
 11
276.9248790576255
 21
355.5846070956499
 31
0.0
 11
277.1935961197244
 21
355.4650635302122
 31
0.0
 11
277.4503253807244
 21
355.321562516777
 31
0.0
 11
277.6957426705066
 21
355.1536533440703
 31
0.0
 11
277.9252417787592
 21
354.9645590793724
 31
0.0
 11
278.1397963377961
 21
354.7534255135428
 31
0.0
 11
278.3351981572954
 21
354.5244441522291
 31
0.0
 11
278.5123015624357
 21
354.2765859162318
 31
0.0
 11
278.6677381992189
 21
354.0145904046998
 31
0.0
 11
278.801991427842
 21
353.7376426964328
 31
0.0
 11
278.9127578436292
 21
353.450489484904
 31
0.0
 11
279.0001155991022
 21
353.1529640984567
 31
0.0
 11
279.0628122926169
 21
352.8492813138416
 31
0.0
 11
279.100694712586
 21
352.5402859239692
 31
0.0
 11
279.1133422176806
 21
352.2292332975641
 31
0.0
 11
279.100694712586
 21
351.918180671159
 31
0.0
 11
279.0628122926169
 21
351.6091852812866
 31
0.0
 11
279.0001155991022
 21
351.3055024966715
 31
0.0
 11
278.9127578436292
 21
351.0079771102243
 31
0.0
 11
278.8019914278421
 21
350.7208238986956
 31
0.0
 11
278.667738199219
 21
350.4438761904286
 31
0.0
 11
278.5123015624358
 21
350.1818806788966
 31
0.0
 11
278.3351981572955
 21
349.9340224428992
 31
0.0
 11
278.1397963377962
 21
349.7050410815855
 31
0.0
 11
277.9252417787593
 21
349.4939075157556
 31
0.0
 11
277.6957426705067
 21
349.3048132510579
 31
0.0
 11
277.4503253807245
 21
349.1369040783511
 31
0.0
 11
277.1935961197246
 21
348.9934030649158
 31
0.0
 11
276.9248790576258
 21
348.8738594994779
 31
0.0
 11
276.6486055399707
 21
348.7803333533973
 31
0.0
 11
276.3648682301021
 21
348.7127662555589
 31
0.0
 11
276.0773563055664
 21
348.6721366961453
 31
0.0
 11
275.7873085437684
 21
348.6585190832927
 31
0.0
  0
ARC
  5
22F
330
52
100
AcDbEntity
  8
1
  6
Continuous
 62
     7
100
AcDbCircle
 10
592.8502043764157
 20
348.3716963330054
 30
0.0
 40
0.9999999999997158
100
AcDbArc
 50
-90.0
 51
-74.66244233043564
  0
ARC
  5
230
330
52
100
AcDbEntity
  8
1
  6
Continuous
 62
     7
100
AcDbCircle
 10
592.7921833146852
 20
346.3716963330057
 30
0.0
 40
0.9999999999997158
100
AcDbArc
 50
90.0
 51
149.9999999999995
  0
ARC
  5
231
330
52
100
AcDbEntity
  8
1
  6
Continuous
 62
     7
100
AcDbCircle
 10
591.0601325071162
 20
347.3716963330054
 30
0.0
 40
0.9999999999997873
100
AcDbArc
 50
-42.94140286485087
 51
-29.99999999998319
  0
ARC
  5
232
330
52
100
AcDbEntity
  8
1
  6
Continuous
 62
     7
100
AcDbCircle
 10
591.0601325071162
 20
347.3716963330054
 30
0.0
 40
0.9999999999997158
100
AcDbArc
 50
-90.0
 51
-42.94140286485087
  0
ARC
  5
233
330
52
100
AcDbEntity
  8
1
  6
Continuous
 62
     7
100
AcDbCircle
 10
569.7350552953907
 20
348.3716963330054
 30
0.0
 40
0.9999999999996452
100
AcDbArc
 50
-105.3375576695644
 51
-90.0
  0
ARC
  5
234
330
52
100
AcDbEntity
  8
1
  6
Continuous
 62
     7
100
AcDbCircle
 10
569.7930763571212
 20
346.3716963330057
 30
0.0
 40
0.9999999999999836
100
AcDbArc
 50
30.00000000000054
 51
90.0
  0
ARC
  5
235
330
52
100
AcDbEntity
  8
1
  6
Continuous
 62
     7
100
AcDbCircle
 10
571.5251271646902
 20
347.3716963330054
 30
0.0
 40
0.9999999999999399
100
AcDbArc
 50
-150.0000000000168
 51
-137.0585971351491
  0
ARC
  5
236
330
52
100
AcDbEntity
  8
1
  6
Continuous
 62
     7
100
AcDbCircle
 10
571.5251271646902
 20
347.3716963330054
 30
0.0
 40
0.9999999999997873
100
AcDbArc
 50
-137.0585971351491
 51
-90.0
  0
ARC
  5
237
330
52
100
AcDbEntity
  8
1
  6
Continuous
 62
     7
100
AcDbCircle
 10
275.2209739525165
 20
348.3716963330054
 30
0.0
 40
0.9999999999997158
100
AcDbArc
 50
-90.0
 51
-74.66244233043564
  0
ARC
  5
238
330
52
100
AcDbEntity
  8
1
  6
Continuous
 62
     7
100
AcDbCircle
 10
275.1629528907859
 20
346.3716963330057
 30
0.0
 40
0.9999999999997158
100
AcDbArc
 50
90.0
 51
149.999999999993
  0
ARC
  5
239
330
52
100
AcDbEntity
  8
1
  6
Continuous
 62
     7
100
AcDbCircle
 10
273.430902083217
 20
347.3716963330054
 30
0.0
 40
0.9999999999998706
100
AcDbArc
 50
-42.94140286484644
 51
-29.9999999999783
  0
ARC
  5
23A
330
52
100
AcDbEntity
  8
1
  6
Continuous
 62
     7
100
AcDbCircle
 10
273.430902083217
 20
347.3716963330054
 30
0.0
 40
0.9999999999997158
100
AcDbArc
 50
-90.0
 51
-42.94140286484644
  0
ARC
  5
23B
330
52
100
AcDbEntity
  8
1
  6
Continuous
 62
     7
100
AcDbCircle
 10
252.1058248714914
 20
348.3716963330054
 30
0.0
 40
0.9999999999996151
100
AcDbArc
 50
-105.3375576695581
 51
-90.0
  0
ARC
  5
23C
330
52
100
AcDbEntity
  8
1
  6
Continuous
 62
     7
100
AcDbCircle
 10
252.1638459332221
 20
346.3716963330057
 30
0.0
 40
0.9999999999998851
100
AcDbArc
 50
30.0000000000038
 51
90.0
  0
ARC
  5
23D
330
52
100
AcDbEntity
  8
1
  6
Continuous
 62
     7
100
AcDbCircle
 10
253.895896740791
 20
347.3716963330054
 30
0.0
 40
0.9999999999999891
100
AcDbArc
 50
-150.0000000000185
 51
-137.0585971351458
  0
ARC
  5
23E
330
52
100
AcDbEntity
  8
1
  6
Continuous
 62
     7
100
AcDbCircle
 10
253.895896740791
 20
347.3716963330054
 30
0.0
 40
0.9999999999997249
100
AcDbArc
 50
-137.0585971351458
 51
-90.0
  0
ENDBLK
  5
54
330
52
100
AcDbEntity
  8
0
100
AcDbBlockEnd
  0
BLOCK
  5
58
330
55
100
AcDbEntity
  8
0
100
AcDbBlockBegin
  2
A10J-60X-16
 70
     0
 71
     0
 10
272.2623480774246
 20
696.3760935110935
 30
0.0
  3
A10J-60X-16
  1

  0
INSERT
  5
56
330
55
100
AcDbEntity
  8
0
100
AcDbBlockReference
  2
60-1-16-170
 10
50.91339941200411
 20
382.6186785815264
 30
0.0
  0
INSERT
  5
57
330
55
100
AcDbEntity
  8
0
100
AcDbBlockReference
  2
32-1-16
 10
257.2567102998768
 20
365.9491664843845
 30
0.0
  0
ENDBLK
  5
59
330
55
100
AcDbEntity
  8
0
100
AcDbBlockEnd
  0
BLOCK
  5
5B
330
5A
100
AcDbEntity
  8
0
100
AcDbBlockBegin
  2
78-3AK__6
 70
     0
 71
     0
 10
422.7527488697614
 20
485.2993353443724
 30
0.0
  3
78-3AK__6
  1

  0
LINE
  5
23F
330
5A
100
AcDbEntity
  8
1
  6
Continuous
 62
     7
100
AcDbLine
 10
188.2880944595583
 20
742.3714523710485
 30
0.0
 11
176.9373134002002
 21
734.8908275235624
 31
0.0
  0
LINE
  5
240
330
5A
100
AcDbEntity
  8
1
  6
Continuous
 62
     7
100
AcDbLine
 10
188.6633994120041
 20
743.1523211804915
 30
0.0
 11
188.6633994120041
 21
745.3716963330055
 31
0.0
  0
LINE
  5
241
330
5A
100
AcDbEntity
  8
1
  6
Continuous
 62
     7
100
AcDbLine
 10
188.6633994120041
 20
745.3716963330055
 30
0.0
 11
163.6633994120041
 21
745.3716963330055
 31
0.0
  0
LINE
  5
242
330
5A
100
AcDbEntity
  8
1
  6
Continuous
 62
     7
100
AcDbLine
 10
176.3126183526457
 20
734.6716963330055
 30
0.0
 11
151.0141804713622
 21
734.6716963330055
 31
0.0
  0
LINE
  5
243
330
5A
100
AcDbEntity
  8
1
  6
Continuous
 62
     7
100
AcDbLine
 10
186.0331981682399
 20
743.0081337262454
 30
0.0
 11
163.6633994120041
 21
743.0081337262454
 31
0.0
  0
LINE
  5
244
330
5A
100
AcDbEntity
  8
1
  6
Continuous
 62
     7
100
AcDbLine
 10
163.6633994120041
 20
743.0081337262454
 30
0.0
 11
141.2936006557683
 21
743.0081337262454
 31
0.0
  0
LINE
  5
245
330
5A
100
AcDbEntity
  8
1
  6
Continuous
 62
     7
100
AcDbLine
 10
163.6633994120041
 20
745.3716963330055
 30
0.0
 11
138.6633994120041
 21
745.3716963330055
 31
0.0
  0
LINE
  5
246
330
5A
100
AcDbEntity
  8
1
  6
Continuous
 62
     7
100
AcDbLine
 10
138.6633994120041
 20
745.3716963330055
 30
0.0
 11
138.6633994120041
 21
743.1523211804915
 31
0.0
  0
LINE
  5
247
330
5A
100
AcDbEntity
  8
1
  6
Continuous
 62
     7
100
AcDbLine
 10
139.0387043644497
 20
742.3714523710485
 30
0.0
 11
150.3894854238078
 21
734.8908275235624
 31
0.0
  0
ARC
  5
248
330
5A
100
AcDbEntity
  8
0
  6
Continuous
 62
     7
100
AcDbCircle
 10
163.6633994120043
 20
334.871696333004
 30
0.0
 40
25.0
100
AcDbArc
 50
-143.1301023541556
 51
12.63930089559997
  0
ARC
  5
249
330
5A
100
AcDbEntity
  8
0
  6
Continuous
 62
     7
100
AcDbCircle
 10
163.6636453214912
 20
334.8713684536883
 30
0.0
 40
24.99999999999978
100
AcDbArc
 50
61.10049439608589
 51
-143.1301023541552
  0
ARC
  5
24A
330
5A
100
AcDbEntity
  8
1
  6
Continuous
 62
     7
100
AcDbCircle
 10
163.6636453214912
 20
334.8713684536883
 30
0.0
 40
12.99999999999911
100
AcDbArc
 50
90.02593333503904
 51
-143.1301023541552
  0
ARC
  5
24B
330
5A
100
AcDbEntity
  8
1
  6
Continuous
 62
     7
100
AcDbCircle
 10
163.6633994120043
 20
334.871696333004
 30
0.0
 40
12.99999999999994
100
AcDbArc
 50
-143.1301023541557
 51
-16.28613804335448
  0
ARC
  5
24C
330
5A
100
AcDbEntity
  8
1
  6
Continuous
 62
     7
100
AcDbCircle
 10
176.3126183526457
 20
735.6716963330055
 30
0.0
 40
1.0
100
AcDbArc
 50
-90.0
 51
-69.46490437044417
  0
ARC
  5
24D
330
5A
100
AcDbEntity
  8
1
  6
Continuous
 62
     7
100
AcDbCircle
 10
151.0141804713622
 20
735.6716963330055
 30
0.0
 40
1.000000000000018
100
AcDbArc
 50
-128.6598082540883
 51
-110.5350956295391
  0
ARC
  5
24E
330
5A
100
AcDbEntity
  8
1
  6
Continuous
 62
     7
100
AcDbCircle
 10
139.6633994120041
 20
743.1523211804915
 30
0.0
 40
1.0
100
AcDbArc
 50
180.0
 51
-128.6598082540883
  0
ARC
  5
24F
330
5A
100
AcDbEntity
  8
1
  6
Continuous
 62
     7
100
AcDbCircle
 10
187.6633994120041
 20
743.1523211804915
 30
0.0
 40
0.9999999999998757
100
AcDbArc
 50
-51.34019174592186
 51
0.0
  0
ARC
  5
250
330
5A
100
AcDbEntity
  8
1
  6
Continuous
 62
     7
100
AcDbCircle
 10
151.0141804713622
 20
735.6716963330055
 30
0.0
 40
1.000000000000261
100
AcDbArc
 50
-110.5350956295391
 51
-90.0
  0
ARC
  5
251
330
5A
100
AcDbEntity
  8
1
  6
Continuous
 62
     7
100
AcDbCircle
 10
176.3126183526457
 20
735.6716963330055
 30
0.0
 40
1.00000000000037
100
AcDbArc
 50
-69.46490437044417
 51
-51.34019174590787
  0
ENDBLK
  5
5C
330
5A
100
AcDbEntity
  8
0
100
AcDbBlockEnd
  0
BLOCK
  5
5E
330
5D
100
AcDbEntity
  8
0
100
AcDbBlockBegin
  2
13-8-50K__7
 70
     0
 71
     0
 10
215.6633994120042
 20
360.8716963330054
 30
0.0
  3
13-8-50K__7
  1

  0
LINE
  5
252
330
5D
100
AcDbEntity
  8
1
  6
Continuous
 62
     7
100
AcDbLine
 10
169.9953294861174
 20
326.5243661360772
 30
0.0
 11
200.2491251335297
 21
349.6694339042797
 31
0.0
  0
LINE
  5
253
330
5D
100
AcDbEntity
  8
1
  6
Continuous
 62
     7
100
AcDbLine
 10
157.4229028437063
 20
343.2876016592917
 30
0.0
 11
187.4912903468007
 21
365.3933861881715
 31
0.0
  0
LINE
  5
254
330
5D
100
AcDbEntity
  8
1
  6
Continuous
 62
     7
100
AcDbLine
 10
179.140899412004
 20
726.8716963330055
 30
0.0
 11
190.1633994120038
 21
726.8716963330055
 31
0.0
  0
LINE
  5
255
330
5D
100
AcDbEntity
  8
1
  6
Continuous
 62
     7
100
AcDbLine
 10
174.140899412004
 20
731.8716963330055
 30
0.0
 11
174.140899412004
 21
733.8716963330055
 31
0.0
  0
LINE
  5
256
330
5D
100
AcDbEntity
  8
1
  6
Continuous
 62
     2
100
AcDbLine
 10
154.347899412004
 20
733.8716963330055
 30
0.0
 11
154.347899412004
 21
734.6716963330055
 31
0.0
  0
LINE
  5
257
330
5D
100
AcDbEntity
  8
1
  6
Continuous
 62
     7
100
AcDbLine
 10
154.347899412004
 20
759.3716963330055
 30
0.0
 11
153.1858994120039
 21
758.2096963330055
 31
0.0
  0
LINE
  5
258
330
5D
100
AcDbEntity
  8
1
  6
Continuous
 62
     7
100
AcDbLine
 10
154.347899412004
 20
733.8716963330055
 30
0.0
 11
153.1858994120039
 21
733.8716963330055
 31
0.0
  0
LINE
  5
259
330
5D
100
AcDbEntity
  8
1
  6
Continuous
 62
     7
100
AcDbLine
 10
153.1858994120039
 20
733.8716963330055
 30
0.0
 11
153.1858994120039
 21
734.6716963330055
 31
0.0
  0
LINE
  5
25A
330
5D
100
AcDbEntity
  8
1
  6
Continuous
 62
     7
100
AcDbLine
 10
153.1858994120039
 20
758.2096963330055
 30
0.0
 11
154.347899412004
 21
758.2096963330055
 31
0.0
  0
LINE
  5
25B
330
5D
100
AcDbEntity
  8
1
  6
Continuous
 62
     2
100
AcDbLine
 10
154.347899412004
 20
758.2096963330055
 30
0.0
 11
154.347899412004
 21
759.3716963330055
 31
0.0
  0
LINE
  5
25C
330
5D
100
AcDbEntity
  8
1
  6
Continuous
 62
     2
100
AcDbLine
 10
172.9788994120039
 20
759.3716963330055
 30
0.0
 11
172.9788994120039
 21
758.2096963330055
 31
0.0
  0
LINE
  5
25D
330
5D
100
AcDbEntity
  8
1
  6
Continuous
 62
     2
100
AcDbLine
 10
172.9788994120039
 20
758.2096963330055
 30
0.0
 11
172.9788994120039
 21
745.3716963330055
 31
0.0
  0
LINE
  5
25E
330
5D
100
AcDbEntity
  8
1
  6
Continuous
 62
     2
100
AcDbLine
 10
172.9788994120039
 20
733.8716963330055
 30
0.0
 11
174.140899412004
 21
731.8590532946105
 31
0.0
  0
LINE
  5
25F
330
5D
100
AcDbEntity
  8
1
  6
Continuous
 62
     7
100
AcDbLine
 10
174.140899412004
 20
733.8716963330055
 30
0.0
 11
172.9788994120039
 21
733.8716963330055
 31
0.0
  0
LINE
  5
260
330
5D
100
AcDbEntity
  8
1
  6
Continuous
 62
     2
100
AcDbLine
 10
172.9788994120039
 20
733.8716963330055
 30
0.0
 11
174.140899412004
 21
731.8590532946105
 31
0.0
  0
LINE
  5
261
330
5D
100
AcDbEntity
  8
1
  6
Continuous
 62
     7
100
AcDbLine
 10
172.9788994120039
 20
758.2096963330055
 30
0.0
 11
174.140899412004
 21
758.2096963330055
 31
0.0
  0
LINE
  5
262
330
5D
100
AcDbEntity
  8
1
  6
Continuous
 62
     7
100
AcDbLine
 10
172.9788994120039
 20
759.3716963330055
 30
0.0
 11
174.140899412004
 21
758.2096963330055
 31
0.0
  0
LINE
  5
263
330
5D
100
AcDbEntity
  8
1
  6
Continuous
 62
     7
100
AcDbLine
 10
174.140899412004
 20
733.8716963330055
 30
0.0
 11
174.140899412004
 21
734.6716963330055
 31
0.0
  0
LINE
  5
264
330
5D
100
AcDbEntity
  8
1
  6
Continuous
 62
     7
100
AcDbLine
 10
172.9788994120039
 20
759.3716963330055
 30
0.0
 11
169.6633994120038
 21
759.3716963330055
 31
0.0
  0
LINE
  5
265
330
5D
100
AcDbEntity
  8
1
  6
Continuous
 62
     7
100
AcDbLine
 10
153.1858994120039
 20
732.3883379293702
 30
0.0
 11
153.1858994120039
 21
733.8716963330055
 31
0.0
  0
LINE
  5
266
330
5D
100
AcDbEntity
  8
1
  6
Continuous
 62
     2
100
AcDbLine
 10
153.2133735466611
 20
731.9066398917305
 30
0.0
 11
154.347899412004
 21
733.8716963330055
 31
0.0
  0
LINE
  5
267
330
5D
100
AcDbEntity
  8
1
  6
Continuous
 62
     7
100
AcDbLine
 10
174.6633994120038
 20
711.8716963330055
 30
0.0
 11
188.6633994120038
 21
711.8716963330055
 31
0.0
  0
LINE
  5
268
330
5D
100
AcDbEntity
  8
1
  6
Continuous
 62
     7
100
AcDbLine
 10
193.6633994120038
 20
706.8716963330055
 30
0.0
 11
193.6633994120038
 21
704.5697353601904
 31
0.0
  0
LINE
  5
269
330
5D
100
AcDbEntity
  8
1
  6
Continuous
 62
     7
100
AcDbLine
 10
157.6633994120038
 20
759.3716963330055
 30
0.0
 11
154.347899412004
 21
759.3716963330055
 31
0.0
  0
LINE
  5
26A
330
5D
100
AcDbEntity
  8
1
  6
Continuous
 62
     7
100
AcDbLine
 10
169.6633994120038
 20
759.3716963330055
 30
0.0
 11
157.6633994120038
 21
759.3716963330055
 31
0.0
  0
LINE
  5
26B
330
5D
100
AcDbEntity
  8
1
  6
Continuous
 62
     2
100
AcDbLine
 10
172.9788994120039
 20
734.6716963330055
 30
0.0
 11
172.9788994120039
 21
733.8716963330055
 31
0.0
  0
LINE
  5
26C
330
5D
100
AcDbEntity
  8
1
  6
Continuous
 62
     7
100
AcDbLine
 10
174.140899412004
 20
745.3716963330055
 30
0.0
 11
174.140899412004
 21
758.2096963330055
 31
0.0
  0
LINE
  5
26D
330
5D
100
AcDbEntity
  8
1
  6
Continuous
 62
     2
100
AcDbLine
 10
154.347899412004
 20
745.3716963330055
 30
0.0
 11
154.347899412004
 21
758.2096963330055
 31
0.0
  0
LINE
  5
26E
330
5D
100
AcDbEntity
  8
1
  6
Continuous
 62
     7
100
AcDbLine
 10
153.1858994120039
 20
745.3716963330055
 30
0.0
 11
153.1858994120039
 21
758.2096963330055
 31
0.0
  0
LINE
  5
26F
330
5D
100
AcDbEntity
  8
1
  6
Continuous
 62
     7
100
AcDbLine
 10
154.347899412004
 20
758.2096963330055
 30
0.0
 11
172.9788994120039
 21
758.2096963330055
 31
0.0
  0
LINE
  5
270
330
5D
100
AcDbEntity
  8
1
  6
Continuous
 62
     7
100
AcDbLine
 10
154.347899412004
 20
733.8716963330055
 30
0.0
 11
172.9788994120039
 21
733.8716963330055
 31
0.0
  0
ARC
  5
271
330
5D
100
AcDbEntity
  8
1
  6
Continuous
 62
     7
100
AcDbCircle
 10
163.6290680649119
 20
334.8459478226848
 30
0.0
 40
10.47750000000006
100
AcDbArc
 50
126.3227146338713
 51
-52.58291934218221
  0
ARC
  5
272
330
5D
100
AcDbEntity
  8
0
  6
Continuous
 62
     7
100
AcDbCircle
 10
179.140899412004
 20
731.8716963330055
 30
0.0
 40
5.0
100
AcDbArc
 50
180.0
 51
-90.0
  0
ARC
  5
273
330
5D
100
AcDbEntity
  8
1
  6
Continuous
 62
     7
100
AcDbCircle
 10
174.6633994120038
 20
733.3716963330055
 30
0.0
 40
21.49999999999991
100
AcDbArc
 50
-177.3785140095813
 51
-176.0927140153341
  0
ARC
  5
274
330
5D
100
AcDbEntity
  8
1
  6
Continuous
 62
     7
100
AcDbCircle
 10
174.6633994120038
 20
733.3716963330055
 30
0.0
 40
21.49999999999982
100
AcDbArc
 50
-176.0927140153341
 51
-90.0
  0
ARC
  5
275
330
5D
100
AcDbEntity
  8
1
  6
Continuous
 62
     7
100
AcDbCircle
 10
188.6633994120038
 20
706.8716963330055
 30
0.0
 40
5.0
100
AcDbArc
 50
0.0
 51
90.0
  0
ARC
  5
276
330
5D
100
AcDbEntity
  8
1
  6
Continuous
 62
     7
100
AcDbCircle
 10
190.325947247505
 20
703.5294855072394
 30
0.0
 40
23.34277678497879
100
AcDbArc
 50
2.55418077483169
 51
90.39898338996083
  0
ENDBLK
  5
5F
330
5D
100
AcDbEntity
  8
0
100
AcDbBlockEnd
  0
BLOCK
  5
63
330
60
100
AcDbEntity
  8
0
100
AcDbBlockBegin
  2
U3-8X-50__8
 70
     0
 71
     0
 10
128.6633994120041
 20
347.8716963330055
 30
0.0
  3
U3-8X-50__8
  1

  0
INSERT
  5
61
330
60
100
AcDbEntity
  8
0
100
AcDbBlockReference
  2
78-3AK__6
 10
422.7527488697614
 20
485.2993353443724
 30
0.0
  0
INSERT
  5
62
330
60
100
AcDbEntity
  8
1
100
AcDbBlockReference
  2
13-8-50K__7
 10
215.6633994120042
 20
360.8716963330054
 30
0.0
  0
ENDBLK
  5
64
330
60
100
AcDbEntity
  8
0
100
AcDbBlockEnd
  0
BLOCK
  5
66
330
65
100
AcDbEntity
  8
0
100
AcDbBlockBegin
  2
84-34-R75
 70
     0
 71
     0
 10
368.1082511376784
 20
380.8367317940763
 30
0.0
  3
84-34-R75
  1

  0
LINE
  5
277
330
65
100
AcDbEntity
  8
1
  6
Continuous
 62
     7
100
AcDbLine
 10
193.6633994120038
 20
439.3716963330054
 30
0.0
 11
203.6633994120041
 21
439.3716963330054
 31
0.0
  0
LINE
  5
278
330
65
100
AcDbEntity
  8
1
  6
Continuous
 62
     7
100
AcDbLine
 10
191.1633994120038
 20
437.8716963330054
 30
0.0
 11
191.1633994120041
 21
439.3013556633483
 31
0.0
  0
LINE
  5
279
330
65
100
AcDbEntity
  8
1
  6
Continuous
 62
     7
100
AcDbLine
 10
216.1633994120041
 20
439.3013556633483
 30
0.0
 11
216.1633994120041
 21
437.8716963330054
 31
0.0
  0
LINE
  5
27A
330
65
100
AcDbEntity
  8
1
  6
Continuous
 62
     7
100
AcDbLine
 10
203.6633994120041
 20
439.3716963330054
 30
0.0
 11
213.6633994120041
 21
439.3716963330054
 31
0.0
  0
ARC
  5
27B
330
65
100
AcDbEntity
  8
1
  6
Continuous
 62
     7
100
AcDbCircle
 10
203.6633994120041
 20
39.49671587036076
 30
0.0
 40
400.0000000000006
100
AcDbArc
 50
91.43254373756655
 51
91.79078465932895
  0
ARC
  5
27C
330
65
100
AcDbEntity
  8
1
  6
Continuous
 62
     7
100
AcDbCircle
 10
203.6633994120041
 20
39.49671587036076
 30
0.0
 40
400.0000000000007
100
AcDbArc
 50
88.20921534067105
 51
88.5674562624335
  0
CIRCLE
  5
27D
330
65
100
AcDbEntity
  8
1
  6
Continuous
 62
     7
100
AcDbCircle
 10
203.6633994120041
 20
671.3716963330055
 30
0.0
 40
12.5
  0
ENDBLK
  5
67
330
65
100
AcDbEntity
  8
0
100
AcDbBlockEnd
  0
BLOCK
  5
69
330
68
100
AcDbEntity
  8
0
100
AcDbBlockBegin
  2
84-35-LH__9
 70
     0
 71
     0
 10
392.8523931495128
 20
651.4644241017683
 30
0.0
  3
84-35-LH__9
  1

  0
CIRCLE
  5
27E
330
68
100
AcDbEntity
  8
1
  6
Continuous
 62
     7
100
AcDbCircle
 10
203.6633994120041
 20
671.3716963330055
 30
0.0
 40
10.00000000000031
  0
ENDBLK
  5
6A
330
68
100
AcDbEntity
  8
0
100
AcDbBlockEnd
  0
BLOCK
  5
6C
330
6B
100
AcDbEntity
  8
0
100
AcDbBlockBegin
  2
87-18-LH__10
 70
     0
 71
     0
 10
1074.818851560817
 20
439.7374845260148
 30
0.0
  3
87-18-LH__10
  1

  0
LINE
  5
27F
330
6B
100
AcDbEntity
  8
1
  6
Continuous
 62
     7
100
AcDbLine
 10
185.7349743540707
 20
410.8716963330054
 30
0.0
 11
185.7349743540707
 21
435.8716963330054
 31
0.0
  0
LINE
  5
280
330
6B
100
AcDbEntity
  8
1
  6
PHANTOM
 62
     5
100
AcDbLine
 10
199.4015810736956
 20
613.3598075317066
 30
0.0
 11
199.184379977147
 21
649.8979333789496
 31
0.0
  0
LINE
  5
281
330
6B
100
AcDbEntity
  8
1
  6
PHANTOM
 62
     5
100
AcDbLine
 10
207.9252177503124
 20
613.3598075317066
 30
0.0
 11
208.1424188468605
 21
649.8979333789496
 31
0.0
  0
LINE
  5
282
330
6B
100
AcDbEntity
  8
1
  6
PHANTOM
 62
     5
100
AcDbLine
 10
201.4015457374844
 20
611.3716963330053
 30
0.0
 11
205.9252530865237
 21
611.3716963330053
 31
0.0
  0
LINE
  5
283
330
6B
100
AcDbEntity
  8
0
  6
PHANTOM
 62
     4
100
AcDbLine
 10
156.1633994120038
 20
409.8716963330054
 30
0.0
 11
156.1633994120038
 21
440.8716963330054
 31
0.0
  0
LINE
  5
284
330
6B
100
AcDbEntity
  8
0
  6
PHANTOM
 62
     4
100
AcDbLine
 10
141.6633994120039
 20
425.3716963330054
 30
0.0
 11
170.6633994120038
 21
425.3716963330054
 31
0.0
  0
LINE
  5
285
330
6B
100
AcDbEntity
  8
1
  6
Continuous
 62
     7
100
AcDbLine
 10
182.1896364579481
 20
675.8507157678623
 30
0.0
 11
145.6515106107051
 21
675.633514671314
 31
0.0
  0
LINE
  5
286
330
6B
100
AcDbEntity
  8
1
  6
Continuous
 62
     7
100
AcDbLine
 10
143.6633994120041
 20
673.6335500075252
 30
0.0
 11
143.6633994120041
 21
669.109842658486
 31
0.0
  0
LINE
  5
287
330
6B
100
AcDbEntity
  8
1
  6
Continuous
 62
     7
100
AcDbLine
 10
182.1896364579481
 20
666.8926768981485
 30
0.0
 11
145.6515106107051
 21
667.1098779946971
 31
0.0
  0
LINE
  5
288
330
6B
100
AcDbEntity
  8
1
  6
Continuous
 62
     7
100
AcDbLine
 10
156.1633994120038
 20
437.8716963330054
 30
0.0
 11
188.1633994119988
 21
437.8716963330054
 31
0.0
  0
LINE
  5
289
330
6B
100
AcDbEntity
  8
1
  6
Continuous
 62
     7
100
AcDbLine
 10
183.1633994120038
 20
412.8716963330054
 30
0.0
 11
156.1633994120038
 21
412.8716963330054
 31
0.0
  0
LINE
  5
28A
330
6B
100
AcDbEntity
  8
1
  6
Continuous
 62
     7
100
AcDbLine
 10
185.1633994119988
 20
394.8716963330054
 30
0.0
 11
185.1633994119988
 21
410.8716963330054
 31
0.0
  0
LINE
  5
28B
330
6B
100
AcDbEntity
  8
1
  6
Continuous
 62
     7
100
AcDbLine
 10
222.1633994120088
 20
434.8716963330054
 30
0.0
 11
222.1633994120088
 21
394.8716963330054
 31
0.0
  0
LINE
  5
28C
330
6B
100
AcDbEntity
  8
1
  6
Continuous
 62
     7
100
AcDbLine
 10
221.1633994120088
 20
393.8716963330054
 30
0.0
 11
187.6633994119988
 21
393.8716963330054
 31
0.0
  0
LINE
  5
28D
330
6B
100
AcDbEntity
  8
1
  6
Continuous
 62
     7
100
AcDbLine
 10
186.1633994119988
 20
393.8716963330054
 30
0.0
 11
187.6633994119988
 21
393.8716963330054
 31
0.0
  0
LINE
  5
28E
330
6B
100
AcDbEntity
  8
1
  6
Continuous
 62
     7
100
AcDbLine
 10
188.1633994119988
 20
437.8716963330054
 30
0.0
 11
215.1633994120041
 21
437.8716963330054
 31
0.0
  0
LINE
  5
28F
330
6B
100
AcDbEntity
  8
1
  6
Continuous
 62
     7
100
AcDbLine
 10
215.1633994120041
 20
437.8716963330054
 30
0.0
 11
219.1633994120088
 21
437.8716963330054
 31
0.0
  0
ARC
  5
290
330
6B
100
AcDbEntity
  8
1
  6
Continuous
 62
     7
100
AcDbCircle
 10
156.1633994120038
 20
425.3716963330054
 30
0.0
 40
12.5
100
AcDbArc
 50
90.0
 51
180.0
  0
ARC
  5
291
330
6B
100
AcDbEntity
  8
1
  6
Continuous
 62
     7
100
AcDbCircle
 10
156.1633994120038
 20
425.3716963330054
 30
0.0
 40
12.49999999999989
100
AcDbArc
 50
180.0
 51
-90.0
  0
CIRCLE
  5
292
330
6B
100
AcDbEntity
  8
1
  6
Continuous
 62
     7
100
AcDbCircle
 10
203.6633994120041
 20
671.3716963330055
 30
0.0
 40
18.5
  0
CIRCLE
  5
293
330
6B
100
AcDbEntity
  8
1
  6
Continuous
 62
     7
100
AcDbCircle
 10
156.1633994120038
 20
425.3716963330054
 30
0.0
 40
8.5
  0
SPLINE
  5
294
330
6B
100
AcDbEntity
  8
1
  6
Continuous
 62
     7
100
AcDbSpline
210
0.0
220
0.0
230
1.0
 70
     8
 71
     3
 72
    25
 73
    21
 74
    19
 42
0.0000000001
 43
0.0000000001
 44
0.00000001
 40
0.0
 40
0.0
 40
0.0
 40
0.0
 40
0.1746950786690528
 40
0.3488660244585517
 40
0.5236220034393924
 40
0.6987961183478746
 40
0.8745377328552763
 40
1.05009930292445
 40
1.226709464435642
 40
1.403382090011973
 40
1.581128078265863
 40
1.758873010787452
 40
1.93774693129108
 40
2.116570311547338
 40
2.296290570087439
 40
2.476172505807766
 40
2.656909365160628
 40
2.837275325043
 40
3.017841899093808
 40
3.19887729243681
 40
3.19887729243681
 40
3.19887729243681
 40
3.19887729243681
 10
185.7349743540707
 20
435.8716963330054
 30
0.0
 10
185.7380219276909
 20
435.9298472058867
 30
0.0
 10
185.7441079313794
 20
436.0459744831719
 30
0.0
 10
185.7632131515225
 20
436.2197208905348
 30
0.0
 10
185.8022017116533
 20
436.3904066404047
 30
0.0
 10
185.8578494816188
 20
436.5567876037079
 30
0.0
 10
185.9273028941743
 20
436.7181773765222
 30
0.0
 10
186.0107684636
 20
436.8733616835431
 30
0.0
 10
186.1081069939187
 20
437.0206192104936
 30
0.0
 10
186.2185432770714
 20
437.1592433074726
 30
0.0
 10
186.3409495657484
 20
437.2879422569304
 30
0.0
 10
186.4746036120639
 20
437.4060229136155
 30
0.0
 10
186.6182516949177
 20
437.5123249139261
 30
0.0
 10
186.7711060459766
 20
437.6061731246733
 30
0.0
 10
186.9318516570679
 20
437.6864972785114
 30
0.0
 10
187.0992768376337
 20
437.7534170456552
 30
0.0
 10
187.2716769302983
 20
437.8069741767162
 30
0.0
 10
187.4486389718221
 20
437.8445109112368
 30
0.0
 10
187.6285835975732
 20
437.8629159391412
 30
0.0
 10
187.7489737564607
 20
437.8687670064018
 30
0.0
 10
187.8092468792147
 20
437.8716963330055
 30
0.0
 11
185.7349743540707
 21
435.8716963330054
 31
0.0
 11
185.7457828072727
 21
436.0460567294564
 31
0.0
 11
185.7664872145926
 21
436.2189926883393
 31
0.0
 11
185.8049170187345
 21
436.3894708463044
 31
0.0
 11
185.8600682938378
 21
436.5557366196567
 31
0.0
 11
185.9296286057499
 21
436.7171258326679
 31
0.0
 11
186.012874178068
 21
436.8716963330054
 31
0.0
 11
186.1102062973609
 21
437.0190652839515
 31
0.0
 11
186.2202619378138
 21
437.1572715523786
 31
0.0
 11
186.3427362759319
 21
437.286087983174
 31
0.0
 11
186.4759302009389
 21
437.4037852192433
 31
0.0
 11
186.6197093713905
 21
437.5101968237825
 31
0.0
 11
186.7721106166427
 21
437.6037471405742
 31
0.0
 11
186.932818762887
 21
437.684197516959
 31
0.0
 11
187.0998038928686
 21
437.7510815745774
 31
0.0
 11
187.2725205571459
 21
437.8043240971479
 31
0.0
 11
187.4490532352391
 21
437.8413118390299
 31
0.0
 11
187.6285104214607
 21
437.8612969829593
 31
0.0
 11
187.8092468792147
 21
437.8716963330055
 31
0.0
  0
SPLINE
  5
295
330
6B
100
AcDbEntity
  8
1
  6
Continuous
 62
     7
100
AcDbSpline
210
0.0
220
0.0
230
1.0
 70
     8
 71
     3
 72
    25
 73
    21
 74
    19
 42
0.0000000001
 43
0.0000000001
 44
0.00000001
 40
0.0
 40
0.0
 40
0.0
 40
0.0
 40
0.1796947469671683
 40
0.3589170378935967
 40
0.538017692437174
 40
0.7174924189915949
 40
0.8962579354231535
 40
1.074860575688524
 40
1.252766155730826
 40
1.430723240274372
 40
1.607780315164013
 40
1.784838222701081
 40
1.961053970977471
 40
2.137208783184614
 40
2.312521749907159
 40
2.488012118527371
 40
2.66308659189593
 40
2.837749640513728
 40
3.011912928025366
 40
3.186592417688027
 40
3.186592417688027
 40
3.186592417688027
 40
3.186592417688027
 10
183.6762241420989
 20
412.8716963330054
 30
0.0
 10
183.7360497974495
 20
412.8687661290086
 30
0.0
 10
183.8555438136683
 20
412.8629134251499
 30
0.0
 10
184.0341662718793
 20
412.8445068275939
 30
0.0
 10
184.2098102188101
 20
412.8069646353199
 30
0.0
 10
184.3809360395098
 20
412.75339787254
 30
0.0
 10
184.5471046281633
 20
412.6864732827097
 30
0.0
 10
184.7066677689148
 20
412.6061337635643
 30
0.0
 10
184.8583661427666
 20
412.5122845384174
 30
0.0
 10
185.00095256206
 20
412.405963883362
 30
0.0
 10
185.133589213942
 20
412.2878883547451
 30
0.0
 10
185.2550863764892
 20
412.1591712624101
 30
0.0
 10
185.3646773175587
 20
412.0205588392162
 30
0.0
 10
185.4612874559381
 20
411.8732876072926
 30
0.0
 10
185.5441118616164
 20
411.718123466093
 30
0.0
 10
185.613040602761
 20
411.556728921017
 30
0.0
 10
185.6682610546576
 20
411.3903642568847
 30
0.0
 10
185.7069516384573
 20
411.2196849021907
 30
0.0
 10
185.7259120888644
 20
411.0459653042751
 30
0.0
 10
185.7319506204844
 20
410.9298432675177
 30
0.0
 10
185.7349743540707
 20
410.8716963330054
 30
0.0
 11
183.6762241420989
 21
412.8716963330054
 31
0.0
 11
183.8556175962668
 21
412.8612948576631
 31
0.0
 11
184.0337223646792
 21
412.8413118390299
 31
0.0
 11
184.2089607023704
 21
412.8043176575799
 31
0.0
 11
184.3803581846691
 21
412.7510815745773
 31
0.0
 11
184.5461326698761
 21
412.6841791835932
 31
0.0
 11
184.7055992480847
 21
412.6037471405742
 31
0.0
 11
184.8569040262032
 21
412.510166910137
 31
0.0
 11
184.9995632697938
 21
412.4037852192433
 31
0.0
 11
185.1318019489419
 21
412.2860476317631
 31
0.0
 11
185.2533183017498
 21
412.1572715523785
 31
0.0
 11
185.3625824585493
 21
412.0190205705393
 31
0.0
 11
185.459154125713
 21
411.8716963330054
 31
0.0
 11
185.5417972260026
 21
411.7170847090065
 31
0.0
 11
185.6108165243303
 21
411.5557366196567
 31
0.0
 11
185.6655624682857
 21
411.3894418426921
 31
0.0
 11
185.703697312364
 21
411.2189926883393
 31
0.0
 11
185.7242492861018
 21
411.0460462599508
 31
0.0
 11
185.7349743540707
 21
410.8716963330054
 31
0.0
  0
ARC
  5
296
330
6B
100
AcDbEntity
  8
1
  6
PHANTOM
 62
     5
100
AcDbCircle
 10
194.184468317675
 20
649.8682113757022
 30
0.0
 40
5.0000000000001
100
AcDbArc
 50
0.3405910748181
 51
66.21167996188464
  0
ARC
  5
297
330
6B
100
AcDbEntity
  8
1
  6
PHANTOM
 62
     5
100
AcDbCircle
 10
213.1423305063325
 20
649.8682113757022
 30
0.0
 40
4.999999999999913
100
AcDbArc
 50
113.7883200381124
 51
179.6594089251819
  0
ARC
  5
298
330
6B
100
AcDbEntity
  8
1
  6
PHANTOM
 62
     5
100
AcDbCircle
 10
201.4015457374844
 20
613.3716963330053
 30
0.0
 40
2.000000000000044
100
AcDbArc
 50
-179.6594089251884
 51
-90.0
  0
ARC
  5
299
330
6B
100
AcDbEntity
  8
1
  6
PHANTOM
 62
     5
100
AcDbCircle
 10
205.9252530865237
 20
613.3716963330053
 30
0.0
 40
2.0
100
AcDbArc
 50
-90.0
 51
-0.3405910748116
  0
ARC
  5
29A
330
6B
100
AcDbEntity
  8
1
  6
Continuous
 62
     7
100
AcDbCircle
 10
145.6633994120041
 20
673.6335500075252
 30
0.0
 40
2.000000000000017
100
AcDbArc
 50
90.34059107482055
 51
180.0
  0
ARC
  5
29B
330
6B
100
AcDbEntity
  8
1
  6
Continuous
 62
     7
100
AcDbCircle
 10
145.6633994120041
 20
669.109842658486
 30
0.0
 40
2.0
100
AcDbArc
 50
180.0
 51
-90.34059107482052
  0
ARC
  5
29C
330
6B
100
AcDbEntity
  8
1
  6
Continuous
 62
     7
100
AcDbCircle
 10
182.1599144547007
 20
680.8506274273341
 30
0.0
 40
4.999999999999872
100
AcDbArc
 50
-89.65940892518124
 51
-23.78832003811208
  0
ARC
  5
29D
330
6B
100
AcDbEntity
  8
1
  6
Continuous
 62
     7
100
AcDbCircle
 10
182.1599144547007
 20
661.8927652386767
 30
0.0
 40
4.999999999999993
100
AcDbArc
 50
23.78832003811447
 51
89.65940892518124
  0
ARC
  5
29E
330
6B
100
AcDbEntity
  8
1
  6
Continuous
 62
     7
100
AcDbCircle
 10
183.1633994120038
 20
410.8716963330054
 30
0.0
 40
1.999999999994998
100
AcDbArc
 50
0.0
 51
90.0
  0
ARC
  5
29F
330
6B
100
AcDbEntity
  8
1
  6
Continuous
 62
     7
100
AcDbCircle
 10
186.1633994119988
 20
394.8716963330054
 30
0.0
 40
1.0
100
AcDbArc
 50
180.0
 51
-90.0
  0
ARC
  5
2A0
330
6B
100
AcDbEntity
  8
1
  6
Continuous
 62
     7
100
AcDbCircle
 10
221.1633994120088
 20
394.8716963330054
 30
0.0
 40
1.0
100
AcDbArc
 50
-90.0
 51
0.0
  0
ARC
  5
2A1
330
6B
100
AcDbEntity
  8
1
  6
Continuous
 62
     7
100
AcDbCircle
 10
219.1633994120088
 20
434.8716963330054
 30
0.0
 40
3.0
100
AcDbArc
 50
0.0
 51
90.0
  0
ENDBLK
  5
6D
330
6B
100
AcDbEntity
  8
0
100
AcDbBlockEnd
  0
BLOCK
  5
6F
330
6E
100
AcDbEntity
  8
0
100
AcDbBlockBegin
  2
87-18-LH__11
 70
     0
 71
     0
 10
-547.4920527368087
 20
439.7374845260148
 30
0.0
  3
87-18-LH__11
  1

  0
LINE
  5
2A2
330
6E
100
AcDbEntity
  8
1
  6
PHANTOM
 62
     4
100
AcDbLine
 10
588.7926298359033
 20
425.3716963330054
 30
0.0
 11
573.9683235149331
 21
425.3716963330054
 31
0.0
  0
LINE
  5
2A3
330
6E
100
AcDbEntity
  8
1
  6
Continuous
 62
     7
100
AcDbLine
 10
599.7926298359083
 20
434.8716963330054
 30
0.0
 11
599.7926298359083
 21
394.8716963330054
 31
0.0
  0
LINE
  5
2A4
330
6E
100
AcDbEntity
  8
1
  6
Continuous
 62
     7
100
AcDbLine
 10
565.7926298358983
 20
437.8716963330054
 30
0.0
 11
592.7926298359033
 21
437.8716963330054
 31
0.0
  0
LINE
  5
2A5
330
6E
100
AcDbEntity
  8
1
  6
Continuous
 62
     7
100
AcDbLine
 10
592.7926298359033
 20
437.8716963330054
 30
0.0
 11
596.7926298359083
 21
437.8716963330054
 31
0.0
  0
LINE
  5
2A6
330
6E
100
AcDbEntity
  8
1
  6
Continuous
 62
     7
100
AcDbLine
 10
597.2926298359083
 20
393.8716963330054
 30
0.0
 11
598.7926298359083
 21
393.8716963330054
 31
0.0
  0
LINE
  5
2A7
330
6E
100
AcDbEntity
  8
1
  6
Continuous
 62
     7
100
AcDbLine
 10
597.2926298359083
 20
393.8716963330054
 30
0.0
 11
563.7926298358983
 21
393.8716963330054
 31
0.0
  0
LINE
  5
2A8
330
6E
100
AcDbEntity
  8
1
  6
Continuous
 62
     7
100
AcDbLine
 10
562.7926298358983
 20
394.8716963330054
 30
0.0
 11
562.7926298358983
 21
434.8716963330054
 31
0.0
  0
LINE
  5
2A9
330
6E
100
AcDbEntity
  8
1
  6
Continuous
 62
     7
100
AcDbLine
 10
342.1633994120087
 20
410.8716963330054
 30
0.0
 11
342.1633994120087
 21
394.8716963330054
 31
0.0
  0
LINE
  5
2AA
330
6E
100
AcDbEntity
  8
1
  6
Continuous
 62
     7
100
AcDbLine
 10
585.6169361568735
 20
435.8716963330054
 30
0.0
 11
585.6169361568735
 21
414.8716963330054
 31
0.0
  0
LINE
  5
2AB
330
6E
100
AcDbEntity
  8
1
  6
Continuous
 62
     7
100
AcDbLine
 10
576.9683235149331
 20
414.8716963330054
 30
0.0
 11
576.9683235149331
 21
435.8716963330054
 31
0.0
  0
LINE
  5
2AC
330
6E
100
AcDbEntity
  8
1
  6
Continuous
 62
     7
100
AcDbLine
 10
578.9683235149331
 20
412.8716963330054
 30
0.0
 11
583.6169361568735
 21
412.8716963330054
 31
0.0
  0
LINE
  5
2AD
330
6E
100
AcDbEntity
  8
1
  6
Continuous
 62
     7
100
AcDbLine
 10
583.6169361568735
 20
437.8716963330054
 30
0.0
 11
578.9683235149331
 21
437.8716963330054
 31
0.0
  0
LINE
  5
2AE
330
6E
100
AcDbEntity
  8
1
  6
Continuous
 62
     7
100
AcDbLine
 10
341.5918244699375
 20
435.8716963330054
 30
0.0
 11
341.5918244699375
 21
410.8716963330054
 31
0.0
  0
LINE
  5
2AF
330
6E
100
AcDbEntity
  8
1
  6
PHANTOM
 62
     5
100
AcDbLine
 10
321.4015457374844
 20
611.3716963330053
 30
0.0
 11
325.9252530865236
 21
611.3716963330053
 31
0.0
  0
LINE
  5
2B0
330
6E
100
AcDbEntity
  8
1
  6
PHANTOM
 62
     5
100
AcDbLine
 10
327.9252177503124
 20
613.3598075317066
 30
0.0
 11
328.1424188468606
 21
649.8979333789496
 31
0.0
  0
LINE
  5
2B1
330
6E
100
AcDbEntity
  8
1
  6
PHANTOM
 62
     5
100
AcDbLine
 10
319.4015810736956
 20
613.3598075317066
 30
0.0
 11
319.1843799771471
 21
649.8979333789496
 31
0.0
  0
LINE
  5
2B2
330
6E
100
AcDbEntity
  8
1
  6
Continuous
 62
     7
100
AcDbLine
 10
308.1633994119989
 20
437.8716963330054
 30
0.0
 11
335.1633994120041
 21
437.8716963330054
 31
0.0
  0
LINE
  5
2B3
330
6E
100
AcDbEntity
  8
1
  6
Continuous
 62
     7
100
AcDbLine
 10
335.1633994120041
 20
437.8716963330054
 30
0.0
 11
339.1633994120087
 21
437.8716963330054
 31
0.0
  0
LINE
  5
2B4
330
6E
100
AcDbEntity
  8
1
  6
Continuous
 62
     7
100
AcDbLine
 10
339.6633994120087
 20
393.8716963330054
 30
0.0
 11
341.1633994120087
 21
393.8716963330054
 31
0.0
  0
LINE
  5
2B5
330
6E
100
AcDbEntity
  8
1
  6
Continuous
 62
     7
100
AcDbLine
 10
339.6633994120087
 20
393.8716963330054
 30
0.0
 11
306.1633994119989
 21
393.8716963330054
 31
0.0
  0
LINE
  5
2B6
330
6E
100
AcDbEntity
  8
1
  6
Continuous
 62
     7
100
AcDbLine
 10
305.1633994119989
 20
394.8716963330054
 30
0.0
 11
305.1633994119989
 21
434.8716963330054
 31
0.0
  0
LINE
  5
2B7
330
6E
100
AcDbEntity
  8
1
  6
Continuous
 62
     7
100
AcDbLine
 10
371.1633994120042
 20
412.8716963330054
 30
0.0
 11
344.1633994120042
 21
412.8716963330054
 31
0.0
  0
LINE
  5
2B8
330
6E
100
AcDbEntity
  8
1
  6
Continuous
 62
     7
100
AcDbLine
 10
339.1633994120087
 20
437.8716963330054
 30
0.0
 11
371.1633994120042
 21
437.8716963330054
 31
0.0
  0
LINE
  5
2B9
330
6E
100
AcDbEntity
  8
1
  6
Continuous
 62
     7
100
AcDbLine
 10
381.6752882133029
 20
667.1098779946971
 30
0.0
 11
345.1371623660599
 21
666.8926768981485
 31
0.0
  0
LINE
  5
2BA
330
6E
100
AcDbEntity
  8
1
  6
Continuous
 62
     7
100
AcDbLine
 10
383.6633994120041
 20
669.109842658486
 30
0.0
 11
383.6633994120041
 21
673.6335500075252
 31
0.0
  0
LINE
  5
2BB
330
6E
100
AcDbEntity
  8
1
  6
Continuous
 62
     7
100
AcDbLine
 10
381.6752882133029
 20
675.633514671314
 30
0.0
 11
345.1371623660599
 21
675.8507157678623
 31
0.0
  0
LINE
  5
2BC
330
6E
100
AcDbEntity
  8
0
  6
PHANTOM
 62
     4
100
AcDbLine
 10
356.6633994120042
 20
425.3716963330054
 30
0.0
 11
385.6633994120042
 21
425.3716963330054
 31
0.0
  0
LINE
  5
2BD
330
6E
100
AcDbEntity
  8
0
  6
PHANTOM
 62
     4
100
AcDbLine
 10
371.1633994120042
 20
440.8716963330054
 30
0.0
 11
371.1633994120042
 21
409.8716963330054
 31
0.0
  0
ARC
  5
2BE
330
6E
100
AcDbEntity
  8
1
  6
Continuous
 62
     7
100
AcDbCircle
 10
371.1633994120042
 20
425.3716963330054
 30
0.0
 40
12.5
100
AcDbArc
 50
-90.0
 51
0.0
  0
ARC
  5
2BF
330
6E
100
AcDbEntity
  8
1
  6
Continuous
 62
     7
100
AcDbCircle
 10
371.1633994120042
 20
425.3716963330054
 30
0.0
 40
12.5
100
AcDbArc
 50
0.0
 51
90.0
  0
CIRCLE
  5
2C0
330
6E
100
AcDbEntity
  8
1
  6
Continuous
 62
     7
100
AcDbCircle
 10
371.1633994120042
 20
425.3716963330054
 30
0.0
 40
8.5
  0
CIRCLE
  5
2C1
330
6E
100
AcDbEntity
  8
1
  6
Continuous
 62
     7
100
AcDbCircle
 10
323.6633994120041
 20
671.3716963330055
 30
0.0
 40
18.5
  0
SPLINE
  5
2C2
330
6E
100
AcDbEntity
  8
1
  6
Continuous
 62
     7
100
AcDbSpline
210
0.0
220
0.0
230
1.0
 70
     8
 71
     3
 72
    25
 73
    21
 74
    19
 42
0.0000000001
 43
0.0000000001
 44
0.00000001
 40
0.0
 40
0.0
 40
0.0
 40
0.0
 40
0.1746950786690686
 40
0.348866024458571
 40
0.5236220034394117
 40
0.6987961183478939
 40
0.8745377328552618
 40
1.050099302924422
 40
1.22670946443563
 40
1.403382090012014
 40
1.581128078265745
 40
1.758873010787351
 40
1.937746931291081
 40
2.116570311547406
 40
2.296290570087431
 40
2.476172505807652
 40
2.656909365160585
 40
2.837275325042974
 40
3.01784189909381
 40
3.198877292436896
 40
3.198877292436896
 40
3.198877292436896
 40
3.198877292436896
 10
341.5918244699375
 20
435.8716963330054
 30
0.0
 10
341.5887768963172
 20
435.9298472058869
 30
0.0
 10
341.5826908926285
 20
436.0459744831719
 30
0.0
 10
341.5635856724853
 20
436.2197208905346
 30
0.0
 10
341.5245971123546
 20
436.3904066404049
 30
0.0
 10
341.468949342389
 20
436.5567876037077
 30
0.0
 10
341.3994959298338
 20
436.7181773765224
 30
0.0
 10
341.316030360408
 20
436.873361683543
 30
0.0
 10
341.2186918300894
 20
437.0206192104937
 30
0.0
 10
341.1082555469365
 20
437.1592433074724
 30
0.0
 10
340.9858492582596
 20
437.2879422569304
 30
0.0
 10
340.8521952119441
 20
437.4060229136156
 30
0.0
 10
340.7085471290904
 20
437.5123249139263
 30
0.0
 10
340.5556927780313
 20
437.6061731246732
 30
0.0
 10
340.3949471669401
 20
437.6864972785118
 30
0.0
 10
340.2275219863744
 20
437.7534170456552
 30
0.0
 10
340.0551218937097
 20
437.8069741767164
 30
0.0
 10
339.8781598521858
 20
437.8445109112366
 30
0.0
 10
339.6982152264347
 20
437.8629159391413
 30
0.0
 10
339.5778250675472
 20
437.8687670064019
 30
0.0
 10
339.5175519447932
 20
437.8716963330055
 30
0.0
 11
341.5918244699375
 21
435.8716963330054
 31
0.0
 11
341.5810160167353
 21
436.0460567294564
 31
0.0
 11
341.5603116094153
 21
436.2189926883393
 31
0.0
 11
341.5218818052734
 21
436.3894708463044
 31
0.0
 11
341.4667305301701
 21
436.5557366196567
 31
0.0
 11
341.3971702182581
 21
436.7171258326679
 31
0.0
 11
341.31392464594
 21
436.8716963330054
 31
0.0
 11
341.2165925266471
 21
437.0190652839515
 31
0.0
 11
341.1065368861941
 21
437.1572715523786
 31
0.0
 11
340.9840625480761
 21
437.286087983174
 31
0.0
 11
340.8508686230692
 21
437.4037852192433
 31
0.0
 11
340.7070894526175
 21
437.5101968237825
 31
0.0
 11
340.5546882073652
 21
437.6037471405742
 31
0.0
 11
340.393980061121
 21
437.684197516959
 31
0.0
 11
340.2269949311395
 21
437.7510815745774
 31
0.0
 11
340.0542782668621
 21
437.8043240971479
 31
0.0
 11
339.8777455887689
 21
437.8413118390299
 31
0.0
 11
339.6982884025473
 21
437.8612969829593
 31
0.0
 11
339.5175519447932
 21
437.8716963330055
 31
0.0
  0
SPLINE
  5
2C3
330
6E
100
AcDbEntity
  8
1
  6
Continuous
 62
     7
100
AcDbSpline
210
0.0
220
0.0
230
1.0
 70
     8
 71
     3
 72
    25
 73
    21
 74
    19
 42
0.0000000001
 43
0.0000000001
 44
0.00000001
 40
0.0
 40
0.0
 40
0.0
 40
0.0
 40
0.1796947469671433
 40
0.3589170378935088
 40
0.5380176924371973
 40
0.7174924189917811
 40
0.8962579354233924
 40
1.074860575688814
 40
1.252766155731098
 40
1.43072324027445
 40
1.607780315164112
 40
1.784838222701258
 40
1.961053970977631
 40
2.137208783184712
 40
2.312521749907166
 40
2.488012118527409
 40
2.663086591896003
 40
2.837749640513813
 40
3.011912928025451
 40
3.186592417688102
 40
3.186592417688102
 40
3.186592417688102
 40
3.186592417688102
 10
343.6505746819092
 20
412.8716963330054
 30
0.0
 10
343.5907490265585
 20
412.8687661290085
 30
0.0
 10
343.47125501034
 20
412.8629134251499
 30
0.0
 10
343.2926325521287
 20
412.8445068275939
 30
0.0
 10
343.116988605198
 20
412.8069646353198
 30
0.0
 10
342.9458627844982
 20
412.7533978725399
 30
0.0
 10
342.7796941958445
 20
412.6864732827098
 30
0.0
 10
342.6201310550929
 20
412.6061337635643
 30
0.0
 10
342.4684326812413
 20
412.5122845384175
 30
0.0
 10
342.325846261948
 20
412.405963883362
 30
0.0
 10
342.1932096100659
 20
412.2878883547451
 30
0.0
 10
342.0717124475187
 20
412.1591712624101
 30
0.0
 10
341.9621215064493
 20
412.0205588392165
 30
0.0
 10
341.86551136807
 20
411.8732876072924
 30
0.0
 10
341.7826869623918
 20
411.718123466093
 30
0.0
 10
341.7137582212471
 20
411.5567289210168
 30
0.0
 10
341.6585377693505
 20
411.3903642568849
 30
0.0
 10
341.6198471855507
 20
411.2196849021906
 30
0.0
 10
341.6008867351436
 20
411.0459653042753
 30
0.0
 10
341.5948482035237
 20
410.9298432675176
 30
0.0
 10
341.5918244699375
 20
410.8716963330054
 30
0.0
 11
343.6505746819092
 21
412.8716963330054
 31
0.0
 11
343.4711812277413
 21
412.861294857663
 31
0.0
 11
343.293076459329
 21
412.8413118390299
 31
0.0
 11
343.1178381216377
 21
412.8043176575799
 31
0.0
 11
342.9464406393388
 21
412.7510815745773
 31
0.0
 11
342.7806661541317
 21
412.6841791835932
 31
0.0
 11
342.6211995759231
 21
412.6037471405742
 31
0.0
 11
342.4698947978046
 21
412.5101669101369
 31
0.0
 11
342.3272355542142
 21
412.4037852192433
 31
0.0
 11
342.1949968750661
 21
412.2860476317631
 31
0.0
 11
342.0734805222581
 21
412.1572715523785
 31
0.0
 11
341.9642163654586
 21
412.0190205705393
 31
0.0
 11
341.867644698295
 21
411.8716963330054
 31
0.0
 11
341.7850015980055
 21
411.7170847090065
 31
0.0
 11
341.7159822996779
 21
411.5557366196567
 31
0.0
 11
341.6612363557223
 21
411.3894418426921
 31
0.0
 11
341.623101511644
 21
411.2189926883393
 31
0.0
 11
341.6025495379062
 21
411.0460462599508
 31
0.0
 11
341.5918244699375
 21
410.8716963330054
 31
0.0
  0
ARC
  5
2C4
330
6E
100
AcDbEntity
  8
1
  6
Continuous
 62
     7
100
AcDbCircle
 10
596.7926298359083
 20
434.8716963330054
 30
0.0
 40
3.0
100
AcDbArc
 50
0.0
 51
90.0
  0
ARC
  5
2C5
330
6E
100
AcDbEntity
  8
1
  6
Continuous
 62
     7
100
AcDbCircle
 10
565.7926298358983
 20
434.8716963330054
 30
0.0
 40
3.0
100
AcDbArc
 50
90.0
 51
180.0
  0
ARC
  5
2C6
330
6E
100
AcDbEntity
  8
1
  6
Continuous
 62
     7
100
AcDbCircle
 10
563.7926298358984
 20
394.8716963330054
 30
0.0
 40
1.000000000000114
100
AcDbArc
 50
180.0
 51
-90.00000000000651
  0
ARC
  5
2C7
330
6E
100
AcDbEntity
  8
1
  6
Continuous
 62
     7
100
AcDbCircle
 10
598.7926298359083
 20
394.8716963330054
 30
0.0
 40
1.0
100
AcDbArc
 50
-90.0
 51
0.0
  0
ARC
  5
2C8
330
6E
100
AcDbEntity
  8
1
  6
Continuous
 62
     7
100
AcDbCircle
 10
583.6169361568735
 20
414.8716963330054
 30
0.0
 40
2.0
100
AcDbArc
 50
-90.0
 51
0.0
  0
ARC
  5
2C9
330
6E
100
AcDbEntity
  8
1
  6
Continuous
 62
     7
100
AcDbCircle
 10
578.9683235149331
 20
414.8716963330054
 30
0.0
 40
2.0
100
AcDbArc
 50
180.0
 51
-90.0
  0
ARC
  5
2CA
330
6E
100
AcDbEntity
  8
1
  6
Continuous
 62
     7
100
AcDbCircle
 10
583.6169361568735
 20
435.8716963330054
 30
0.0
 40
2.0
100
AcDbArc
 50
0.0
 51
90.0
  0
ARC
  5
2CB
330
6E
100
AcDbEntity
  8
1
  6
Continuous
 62
     7
100
AcDbCircle
 10
578.9683235149331
 20
435.8716963330054
 30
0.0
 40
2.0
100
AcDbArc
 50
90.0
 51
180.0
  0
ARC
  5
2CC
330
6E
100
AcDbEntity
  8
1
  6
PHANTOM
 62
     5
100
AcDbCircle
 10
333.1423305063325
 20
649.8682113757022
 30
0.0
 40
4.999999999999855
100
AcDbArc
 50
113.7883200381109
 51
179.6594089251819
  0
ARC
  5
2CD
330
6E
100
AcDbEntity
  8
1
  6
PHANTOM
 62
     5
100
AcDbCircle
 10
314.1844683176749
 20
649.8682113757022
 30
0.0
 40
5.000000000000327
100
AcDbArc
 50
0.34059107481808
 51
66.21167996188376
  0
ARC
  5
2CE
330
6E
100
AcDbEntity
  8
1
  6
PHANTOM
 62
     5
100
AcDbCircle
 10
325.9252530865236
 20
613.3716963330053
 30
0.0
 40
2.0
100
AcDbArc
 50
-90.0
 51
-0.34059107481158
  0
ARC
  5
2CF
330
6E
100
AcDbEntity
  8
1
  6
PHANTOM
 62
     5
100
AcDbCircle
 10
321.4015457374844
 20
613.3716963330053
 30
0.0
 40
2.000000000000072
100
AcDbArc
 50
-179.6594089251884
 51
-90.0
  0
ARC
  5
2D0
330
6E
100
AcDbEntity
  8
1
  6
Continuous
 62
     7
100
AcDbCircle
 10
308.1633994119989
 20
434.8716963330054
 30
0.0
 40
3.0
100
AcDbArc
 50
90.0
 51
180.0
  0
ARC
  5
2D1
330
6E
100
AcDbEntity
  8
1
  6
Continuous
 62
     7
100
AcDbCircle
 10
306.1633994119992
 20
394.8716963330054
 30
0.0
 40
1.000000000000284
100
AcDbArc
 50
180.0
 51
-90.00000000001629
  0
ARC
  5
2D2
330
6E
100
AcDbEntity
  8
1
  6
Continuous
 62
     7
100
AcDbCircle
 10
341.1633994120087
 20
394.8716963330054
 30
0.0
 40
1.0
100
AcDbArc
 50
-90.0
 51
0.0
  0
ARC
  5
2D3
330
6E
100
AcDbEntity
  8
1
  6
Continuous
 62
     7
100
AcDbCircle
 10
344.1633994120042
 20
410.8716963330054
 30
0.0
 40
2.0
100
AcDbArc
 50
90.0
 51
180.0
  0
ARC
  5
2D4
330
6E
100
AcDbEntity
  8
1
  6
Continuous
 62
     7
100
AcDbCircle
 10
345.1668843693072
 20
661.8927652386767
 30
0.0
 40
4.999999999999871
100
AcDbArc
 50
90.34059107481745
 51
156.2116799618855
  0
ARC
  5
2D5
330
6E
100
AcDbEntity
  8
1
  6
Continuous
 62
     7
100
AcDbCircle
 10
345.1668843693072
 20
680.8506274273341
 30
0.0
 40
4.999999999999901
100
AcDbArc
 50
-156.2116799618879
 51
-90.34059107481745
  0
ARC
  5
2D6
330
6E
100
AcDbEntity
  8
1
  6
Continuous
 62
     7
100
AcDbCircle
 10
381.6633994120041
 20
669.109842658486
 30
0.0
 40
2.00000000000013
100
AcDbArc
 50
-89.65940892518518
 51
0.0
  0
ARC
  5
2D7
330
6E
100
AcDbEntity
  8
1
  6
Continuous
 62
     7
100
AcDbCircle
 10
381.6633994120041
 20
673.6335500075252
 30
0.0
 40
2.0
100
AcDbArc
 50
0.0
 51
89.65940892518516
  0
ENDBLK
  5
70
330
6E
100
AcDbEntity
  8
0
100
AcDbBlockEnd
  0
BLOCK
  5
72
330
71
100
AcDbEntity
  8
0
100
AcDbBlockBegin
  2
84-34-B75
 70
     0
 71
     0
 10
488.1082511376785
 20
380.8367317940763
 30
0.0
  3
84-34-B75
  1

  0
LINE
  5
2D8
330
71
100
AcDbEntity
  8
1
  6
Continuous
 62
     7
100
AcDbLine
 10
323.6633994120041
 20
439.3716963330054
 30
0.0
 11
333.6633994120041
 21
439.3716963330054
 31
0.0
  0
LINE
  5
2D9
330
71
100
AcDbEntity
  8
1
  6
Continuous
 62
     7
100
AcDbLine
 10
336.1633994120041
 20
439.3013556633483
 30
0.0
 11
336.1633994120041
 21
437.8716963330054
 31
0.0
  0
LINE
  5
2DA
330
71
100
AcDbEntity
  8
1
  6
Continuous
 62
     7
100
AcDbLine
 10
311.1633994120037
 20
437.8716963330054
 30
0.0
 11
311.1633994120041
 21
439.3013556633483
 31
0.0
  0
LINE
  5
2DB
330
71
100
AcDbEntity
  8
1
  6
Continuous
 62
     7
100
AcDbLine
 10
313.6633994120037
 20
439.3716963330054
 30
0.0
 11
323.6633994120041
 21
439.3716963330054
 31
0.0
  0
LINE
  5
2DC
330
71
100
AcDbEntity
  8
1
  6
Continuous
 62
     7
100
AcDbLine
 10
581.2926298359034
 20
439.3716963330054
 30
0.0
 11
591.2926298359034
 21
439.3716963330054
 31
0.0
  0
LINE
  5
2DD
330
71
100
AcDbEntity
  8
1
  6
Continuous
 62
     7
100
AcDbLine
 10
593.7926298359034
 20
439.3013556633483
 30
0.0
 11
593.7926298359034
 21
437.8716963330054
 31
0.0
  0
LINE
  5
2DE
330
71
100
AcDbEntity
  8
1
  6
Continuous
 62
     7
100
AcDbLine
 10
568.7926298359032
 20
437.8716963330054
 30
0.0
 11
568.7926298359034
 21
439.3013556633483
 31
0.0
  0
LINE
  5
2DF
330
71
100
AcDbEntity
  8
1
  6
Continuous
 62
     7
100
AcDbLine
 10
571.2926298359032
 20
439.3716963330054
 30
0.0
 11
581.2926298359034
 21
439.3716963330054
 31
0.0
  0
ARC
  5
2E0
330
71
100
AcDbEntity
  8
1
  6
Continuous
 62
     7
100
AcDbCircle
 10
323.6633994120041
 20
39.49671587036076
 30
0.0
 40
400.0000000000007
100
AcDbArc
 50
88.20921534067105
 51
88.5674562624335
  0
ARC
  5
2E1
330
71
100
AcDbEntity
  8
1
  6
Continuous
 62
     7
100
AcDbCircle
 10
323.6633994120041
 20
39.49671587036076
 30
0.0
 40
400.0000000000006
100
AcDbArc
 50
91.43254373756656
 51
91.79078465932895
  0
ARC
  5
2E2
330
71
100
AcDbEntity
  8
1
  6
Continuous
 62
     7
100
AcDbCircle
 10
581.2926298359034
 20
39.49671587036076
 30
0.0
 40
400.0000000000007
100
AcDbArc
 50
88.20921534067105
 51
88.5674562624335
  0
ARC
  5
2E3
330
71
100
AcDbEntity
  8
1
  6
Continuous
 62
     7
100
AcDbCircle
 10
581.2926298359034
 20
39.49671587036076
 30
0.0
 40
400.0000000000006
100
AcDbArc
 50
91.43254373756653
 51
91.79078465932895
  0
CIRCLE
  5
2E4
330
71
100
AcDbEntity
  8
1
  6
Continuous
 62
     7
100
AcDbCircle
 10
323.6633994120041
 20
671.3716963330055
 30
0.0
 40
12.5
  0
ENDBLK
  5
73
330
71
100
AcDbEntity
  8
0
100
AcDbBlockEnd
  0
BLOCK
  5
75
330
74
100
AcDbEntity
  8
0
100
AcDbBlockBegin
  2
84-35-LH__12
 70
     0
 71
     0
 10
512.8523931495129
 20
651.4644241017683
 30
0.0
  3
84-35-LH__12
  1

  0
CIRCLE
  5
2E5
330
74
100
AcDbEntity
  8
1
  6
Continuous
 62
     7
100
AcDbCircle
 10
323.6633994120041
 20
671.3716963330055
 30
0.0
 40
10.0000000000004
  0
ENDBLK
  5
76
330
74
100
AcDbEntity
  8
0
100
AcDbBlockEnd
  0
BLOCK
  5
329
330
322
100
AcDbEntity
  8
0
100
AcDbBlockBegin
  2
*D020
 70
     1
 71
     0
 10
0.0
 20
0.0
 30
0.0
  3
*D020
  1

  0
LINE
  5
323
330
322
100
AcDbEntity
  8
0
  6
Continuous
 62
     2
100
AcDbLine
 10
138.4756718109434
 20
368.4544223585405
 30
0.0
 11
178.4761089833645
 21
398.4547502378568
 31
0.0
  0
LINE
  5
324
330
322
100
AcDbEntity
  8
0
  6
Continuous
 62
     2
100
AcDbLine
 10
147.7413942025009
 20
356.1001258364639
 30
0.0
 11
136.3756718109434
 21
371.2544223585405
 31
0.0
  0
LINE
  5
325
330
322
100
AcDbEntity
  8
0
  6
Continuous
 62
     2
100
AcDbLine
 10
203.6633994120041
 20
364.8716963330044
 30
0.0
 11
176.3761089833644
 21
401.2547502378568
 31
0.0
  0
SOLID
  5
326
330
322
100
AcDbEntity
  8
0
 62
     2
100
AcDbTrace
 10
147.3080259536758
 20
377.0946168348972
 30
0.0
 11
149.2433176682106
 21
374.5142278821843
 31
0.0
 12
138.4756718109434
 22
368.4544223585405
 32
0.0
 13
138.4756718109434
 23
368.4544223585405
 33
0.0
  0
SOLID
  5
327
330
322
100
AcDbEntity
  8
0
 62
     2
100
AcDbTrace
 10
169.6437548406321
 20
389.8145557615001
 30
0.0
 11
167.7084631260973
 21
392.394944714213
 31
0.0
 12
178.4761089833645
 22
398.4547502378568
 32
0.0
 13
178.4761089833645
 23
398.4547502378568
 33
0.0
  0
MTEXT
  5
328
330
322
100
AcDbEntity
  8
0
 62
     7
100
AcDbMText
 10
150.2614422711504
 20
381.6687502036959
 30
0.0
 40
12.25
 41
0.0
 71
     7
 72
     1
  1
50
  7
CONVERTER_2
 11
0.7999999999999951
 21
0.6000000000000065
 31
0.0
 73
     1
 44
0.60024009603842
  0
ENDBLK
  5
32A
330
322
100
AcDbEntity
  8
0
100
AcDbBlockEnd
  0
BLOCK
  5
334
330
32D
100
AcDbEntity
  8
0
100
AcDbBlockBegin
  2
*D121
 70
     1
 71
     0
 10
0.0
 20
0.0
 30
0.0
  3
*D121
  1

  0
LINE
  5
32E
330
32D
100
AcDbEntity
  8
0
  6
Continuous
 62
     2
100
AcDbLine
 10
528.1414172922873
 20
280.8716963330055
 30
0.0
 11
528.1414172922873
 21
364.8716963330044
 31
0.0
  0
LINE
  5
32F
330
32D
100
AcDbEntity
  8
0
  6
Continuous
 62
     2
100
AcDbLine
 10
418.3927822120417
 20
280.8716963330055
 30
0.0
 11
531.6414172922873
 21
280.8716963330055
 31
0.0
  0
LINE
  5
330
330
32D
100
AcDbEntity
  8
0
  6
Continuous
 62
     2
100
AcDbLine
 10
563.6654424279823
 20
364.8716963330044
 30
0.0
 11
524.6414172922873
 21
364.8716963330044
 31
0.0
  0
SOLID
  5
331
330
32D
100
AcDbEntity
  8
0
 62
     2
100
AcDbTrace
 10
526.5286741968417
 20
293.1216963330055
 30
0.0
 11
529.7541603877329
 21
293.1216963330055
 31
0.0
 12
528.1414172922873
 22
280.8716963330055
 32
0.0
 13
528.1414172922873
 23
280.8716963330055
 33
0.0
  0
SOLID
  5
332
330
32D
100
AcDbEntity
  8
0
 62
     2
100
AcDbTrace
 10
529.7541603877329
 20
352.6216963330044
 30
0.0
 11
526.5286741968417
 21
352.6216963330044
 31
0.0
 12
528.1414172922873
 22
364.8716963330044
 32
0.0
 13
528.1414172922873
 23
364.8716963330044
 33
0.0
  0
MTEXT
  5
333
330
32D
100
AcDbEntity
  8
0
 62
     7
100
AcDbMText
 10
524.6414172922873
 20
326.893843514407
 30
0.0
 40
12.25
 41
0.0
 71
     7
 72
     1
  1
84
  7
CONVERTER_2
 11
0.0
 21
1.0
 31
0.0
 73
     1
 44
0.60024009603842
  0
ENDBLK
  5
335
330
32D
100
AcDbEntity
  8
0
100
AcDbBlockEnd
  0
BLOCK
  5
33F
330
338
100
AcDbEntity
  8
0
100
AcDbBlockBegin
  2
*D222
 70
     1
 71
     0
 10
0.0
 20
0.0
 30
0.0
  3
*D222
  1

  0
LINE
  5
339
330
338
100
AcDbEntity
  8
1
  6
Continuous
 62
     2
100
AcDbLine
 10
581.2926298359032
 20
245.8716963330054
 30
0.0
 11
411.292629835903
 21
245.8716963330054
 31
0.0
  0
LINE
  5
33A
330
338
100
AcDbEntity
  8
1
  6
Continuous
 62
     2
100
AcDbLine
 10
411.292629835903
 20
275.3716963330053
 30
0.0
 11
411.292629835903
 21
242.3716963330054
 31
0.0
  0
LINE
  5
33B
330
338
100
AcDbEntity
  8
1
  6
Continuous
 62
     2
100
AcDbLine
 10
581.2926298359032
 20
340.8716963330053
 30
0.0
 11
581.2926298359032
 21
242.3716963330054
 31
0.0
  0
SOLID
  5
33C
330
338
100
AcDbEntity
  8
1
 62
     2
100
AcDbTrace
 10
569.0426298359032
 20
244.2589532375598
 30
0.0
 11
569.0426298359032
 21
247.484439428451
 31
0.0
 12
581.2926298359032
 22
245.8716963330054
 32
0.0
 13
581.2926298359032
 23
245.8716963330054
 33
0.0
  0
SOLID
  5
33D
330
338
100
AcDbEntity
  8
1
 62
     2
100
AcDbTrace
 10
423.542629835903
 20
247.484439428451
 30
0.0
 11
423.542629835903
 21
244.2589532375598
 31
0.0
 12
411.292629835903
 22
245.8716963330054
 32
0.0
 13
411.292629835903
 23
245.8716963330054
 33
0.0
  0
MTEXT
  5
33E
330
338
100
AcDbEntity
  8
1
 62
     7
100
AcDbMText
 10
483.4301298359032
 20
249.3716963330054
 30
0.0
 40
12.25
 41
0.0
 71
     7
 72
     1
  1
170
  7
CONVERTER_2
 11
0.9999999999970621
 21
2.424068405545307E-6
 31
0.0
 73
     1
 44
0.60024009603842
  0
ENDBLK
  5
340
330
338
100
AcDbEntity
  8
0
100
AcDbBlockEnd
  0
BLOCK
  5
34A
330
343
100
AcDbEntity
  8
0
100
AcDbBlockBegin
  2
*D323
 70
     1
 71
     0
 10
0.0
 20
0.0
 30
0.0
  3
*D323
  1

  0
LINE
  5
344
330
343
100
AcDbEntity
  8
1
  6
Continuous
 62
     2
100
AcDbLine
 10
163.6633994120041
 20
822.3716963330053
 30
0.0
 11
363.6633994120041
 21
822.3716963330053
 31
0.0
  0
LINE
  5
345
330
343
100
AcDbEntity
  8
1
  6
Continuous
 62
     2
100
AcDbLine
 10
363.6633994120041
 20
763.9177063361503
 30
0.0
 11
363.6633994120041
 21
825.8716963330053
 31
0.0
  0
LINE
  5
346
330
343
100
AcDbEntity
  8
1
  6
Continuous
 62
     2
100
AcDbLine
 10
163.6633994120041
 20
763.9177063361503
 30
0.0
 11
163.6633994120041
 21
825.8716963330053
 31
0.0
  0
SOLID
  5
347
330
343
100
AcDbEntity
  8
1
 62
     2
100
AcDbTrace
 10
175.9133994120041
 20
823.9844394284509
 30
0.0
 11
175.9133994120041
 21
820.7589532375597
 31
0.0
 12
163.6633994120041
 22
822.3716963330053
 32
0.0
 13
163.6633994120041
 23
822.3716963330053
 33
0.0
  0
SOLID
  5
348
330
343
100
AcDbEntity
  8
1
 62
     2
100
AcDbTrace
 10
351.4133994120041
 20
820.7589532375597
 30
0.0
 11
351.4133994120041
 21
823.9844394284509
 31
0.0
 12
363.6633994120041
 22
822.3716963330053
 32
0.0
 13
363.6633994120041
 23
822.3716963330053
 33
0.0
  0
MTEXT
  5
349
330
343
100
AcDbEntity
  8
1
 62
     7
100
AcDbMText
 10
203.6383994120036
 20
825.8716963330053
 30
0.0
 40
12.25
 41
0.0
 71
     7
 72
     1
  1
取付寸法120～220
  7
CONVERTER_1
 11
0.9999999999970621
 21
2.424068405545307E-6
 31
0.0
 73
     1
 44
0.60024009603842
  0
ENDBLK
  5
34B
330
343
100
AcDbEntity
  8
0
100
AcDbBlockEnd
  0
BLOCK
  5
355
330
34E
100
AcDbEntity
  8
0
100
AcDbBlockBegin
  2
*D424
 70
     1
 71
     0
 10
0.0
 20
0.0
 30
0.0
  3
*D424
  1

  0
LINE
  5
34F
330
34E
100
AcDbEntity
  8
1
  6
Continuous
 62
     2
100
AcDbLine
 10
138.6633994120041
 20
794.3716963330053
 30
0.0
 11
188.6633994120041
 21
794.3716963330053
 31
0.0
  0
LINE
  5
350
330
34E
100
AcDbEntity
  8
1
  6
Continuous
 62
     2
100
AcDbLine
 10
188.6633994120041
 20
745.3716963330055
 30
0.0
 11
188.6633994120041
 21
797.8716963330053
 31
0.0
  0
LINE
  5
351
330
34E
100
AcDbEntity
  8
1
  6
Continuous
 62
     2
100
AcDbLine
 10
138.6633994120041
 20
745.3716963330055
 30
0.0
 11
138.6633994120041
 21
797.8716963330053
 31
0.0
  0
SOLID
  5
352
330
34E
100
AcDbEntity
  8
1
 62
     2
100
AcDbTrace
 10
150.9133994120041
 20
795.9844394284509
 30
0.0
 11
150.9133994120041
 21
792.7589532375597
 31
0.0
 12
138.6633994120041
 22
794.3716963330053
 32
0.0
 13
138.6633994120041
 23
794.3716963330053
 33
0.0
  0
SOLID
  5
353
330
34E
100
AcDbEntity
  8
1
 62
     2
100
AcDbTrace
 10
176.4133994120041
 20
792.7589532375597
 30
0.0
 11
176.4133994120041
 21
795.9844394284509
 31
0.0
 12
188.6633994120041
 22
794.3716963330053
 32
0.0
 13
188.6633994120041
 23
794.3716963330053
 33
0.0
  0
MTEXT
  5
354
330
34E
100
AcDbEntity
  8
1
 62
     7
100
AcDbMText
 10
112.324482636591
 20
797.871647633471
 30
0.0
 40
12.25
 41
0.0
 71
     7
 72
     1
  1
\C7;{\Fgdt;n}\C7;50
  7
CONVERTER_2
 11
0.9999999999970621
 21
2.424068405545307E-6
 31
0.0
 73
     1
 44
0.60024009603842
  0
ENDBLK
  5
356
330
34E
100
AcDbEntity
  8
0
100
AcDbBlockEnd
  0
BLOCK
  5
360
330
359
100
AcDbEntity
  8
0
100
AcDbBlockBegin
  2
*D525
 70
     1
 71
     0
 10
0.0
 20
0.0
 30
0.0
  3
*D525
  1

  0
LINE
  5
35A
330
359
100
AcDbEntity
  8
1
  6
Continuous
 62
     2
100
AcDbLine
 10
581.2926298359033
 20
474.3716963330054
 30
0.0
 11
655.2946659252989
 21
474.3716963330054
 31
0.0
  0
LINE
  5
35B
330
359
100
AcDbEntity
  8
1
  6
Continuous
 62
     2
100
AcDbLine
 10
655.2946659252989
 20
359.8713684536883
 30
0.0
 11
655.2946659252989
 21
477.8716963330054
 31
0.0
  0
LINE
  5
35C
330
359
100
AcDbEntity
  8
1
  6
Continuous
 62
     2
100
AcDbLine
 10
581.2926298359033
 20
448.5230423736716
 30
0.0
 11
581.2926298359033
 21
477.8716963330054
 31
0.0
  0
SOLID
  5
35D
330
359
100
AcDbEntity
  8
1
 62
     2
100
AcDbTrace
 10
593.5426298359033
 20
475.984439428451
 30
0.0
 11
593.5426298359033
 21
472.7589532375598
 31
0.0
 12
581.2926298359033
 22
474.3716963330054
 32
0.0
 13
581.2926298359033
 23
474.3716963330054
 33
0.0
  0
SOLID
  5
35E
330
359
100
AcDbEntity
  8
1
 62
     2
100
AcDbTrace
 10
643.0446659252989
 20
472.7589532375598
 30
0.0
 11
643.0446659252989
 21
475.984439428451
 31
0.0
 12
655.2946659252989
 22
474.3716963330054
 32
0.0
 13
655.2946659252989
 23
474.3716963330054
 33
0.0
  0
MTEXT
  5
35F
330
359
100
AcDbEntity
  8
1
 62
     7
100
AcDbMText
 10
609.1061478806012
 20
477.8716963330054
 30
0.0
 40
12.25
 41
0.0
 71
     7
 72
     1
  1
74
  7
CONVERTER_2
 11
0.9999999999970621
 21
2.424068405545307E-6
 31
0.0
 73
     1
 44
0.60024009603842
  0
ENDBLK
  5
361
330
359
100
AcDbEntity
  8
0
100
AcDbBlockEnd
  0
BLOCK
  5
36B
330
364
100
AcDbEntity
  8
0
100
AcDbBlockBegin
  2
*D626
 70
     1
 71
     0
 10
0.0
 20
0.0
 30
0.0
  3
*D626
  1

  0
LINE
  5
365
330
364
100
AcDbEntity
  8
0
  6
Continuous
 62
     2
100
AcDbLine
 10
528.1414172922874
 20
364.8716963330044
 30
0.0
 11
528.1414172922874
 21
439.3716963330054
 31
0.0
  0
LINE
  5
366
330
364
100
AcDbEntity
  8
0
  6
Continuous
 62
     2
100
AcDbLine
 10
563.6654424279823
 20
364.8716963330044
 30
0.0
 11
524.6414172922874
 21
364.8716963330044
 31
0.0
  0
LINE
  5
367
330
364
100
AcDbEntity
  8
0
  6
Continuous
 62
     2
100
AcDbLine
 10
581.2926298359034
 20
439.3716963330054
 30
0.0
 11
524.6414172922874
 21
439.3716963330054
 31
0.0
  0
SOLID
  5
368
330
364
100
AcDbEntity
  8
0
 62
     2
100
AcDbTrace
 10
526.5286741968419
 20
377.1216963330044
 30
0.0
 11
529.754160387733
 21
377.1216963330044
 31
0.0
 12
528.1414172922874
 22
364.8716963330044
 32
0.0
 13
528.1414172922874
 23
364.8716963330044
 33
0.0
  0
SOLID
  5
369
330
364
100
AcDbEntity
  8
0
 62
     2
100
AcDbTrace
 10
529.754160387733
 20
427.1216963330054
 30
0.0
 11
526.5286741968419
 21
427.1216963330054
 31
0.0
 12
528.1414172922874
 22
439.3716963330054
 32
0.0
 13
528.1414172922874
 23
439.3716963330054
 33
0.0
  0
MTEXT
  5
36A
330
364
100
AcDbEntity
  8
0
 62
     7
100
AcDbMText
 10
524.6414172922874
 20
369.8743637051139
 30
0.0
 40
12.25
 41
0.0
 71
     7
 72
     1
  1
75リフト2
  7
CONVERTER_1
 11
0.0
 21
1.0
 31
0.0
 73
     1
 44
0.60024009603842
  0
ENDBLK
  5
36C
330
364
100
AcDbEntity
  8
0
100
AcDbBlockEnd
  0
BLOCK
  5
376
330
36F
100
AcDbEntity
  8
0
100
AcDbBlockBegin
  2
*D727
 70
     1
 71
     0
 10
0.0
 20
0.0
 30
0.0
  3
*D727
  1

  0
LINE
  5
370
330
36F
100
AcDbEntity
  8
1
  6
Continuous
 62
     2
100
AcDbLine
 10
428.0095148522094
 20
611.3716963330054
 30
0.0
 11
428.0095148522094
 21
671.3716963330057
 31
0.0
  0
LINE
  5
371
330
36F
100
AcDbEntity
  8
1
  6
Continuous
 62
     2
100
AcDbLine
 10
325.9252530865237
 20
611.3716963330054
 30
0.0
 11
431.5095148522094
 21
611.3716963330054
 31
0.0
  0
LINE
  5
372
330
36F
100
AcDbEntity
  8
1
  6
Continuous
 62
     2
100
AcDbLine
 10
389.8601992754023
 20
671.3716963330057
 30
0.0
 11
431.5095148522094
 21
671.3716963330057
 31
0.0
  0
SOLID
  5
373
330
36F
100
AcDbEntity
  8
1
 62
     2
100
AcDbTrace
 10
426.3967717567638
 20
623.6216963330054
 30
0.0
 11
429.622257947655
 21
623.6216963330054
 31
0.0
 12
428.0095148522094
 22
611.3716963330054
 32
0.0
 13
428.0095148522094
 23
611.3716963330054
 33
0.0
  0
SOLID
  5
374
330
36F
100
AcDbEntity
  8
1
 62
     2
100
AcDbTrace
 10
429.622257947655
 20
659.1216963330057
 30
0.0
 11
426.3967717567638
 21
659.1216963330057
 31
0.0
 12
428.0095148522094
 22
671.3716963330057
 32
0.0
 13
428.0095148522094
 23
671.3716963330057
 33
0.0
  0
MTEXT
  5
375
330
36F
100
AcDbEntity
  8
1
 62
     7
100
AcDbMText
 10
424.5095148522094
 20
632.842086501902
 30
0.0
 40
12.25
 41
0.0
 71
     7
 72
     1
  1
60
  7
CONVERTER_2
 11
0.0
 21
1.0
 31
0.0
 73
     1
 44
0.60024009603842
  0
ENDBLK
  5
377
330
36F
100
AcDbEntity
  8
0
100
AcDbBlockEnd
  0
BLOCK
  5
381
330
37A
100
AcDbEntity
  8
0
100
AcDbBlockBegin
  2
*D828
 70
     1
 71
     0
 10
0.0
 20
0.0
 30
0.0
  3
*D828
  1

  0
LINE
  5
37B
330
37A
100
AcDbEntity
  8
1
  6
Continuous
 62
     2
100
AcDbLine
 10
203.6633994120041
 20
794.3716963330053
 30
0.0
 11
323.6633994120041
 21
794.3716963330053
 31
0.0
  0
LINE
  5
37C
330
37A
100
AcDbEntity
  8
1
  6
Continuous
 62
     2
100
AcDbLine
 10
323.6633994120041
 20
729.6309437462223
 30
0.0
 11
323.6633994120041
 21
797.8716963330053
 31
0.0
  0
LINE
  5
37D
330
37A
100
AcDbEntity
  8
1
  6
Continuous
 62
     2
100
AcDbLine
 10
203.6633994120041
 20
729.6309437462223
 30
0.0
 11
203.6633994120041
 21
797.8716963330053
 31
0.0
  0
SOLID
  5
37E
330
37A
100
AcDbEntity
  8
1
 62
     2
100
AcDbTrace
 10
215.9133994120041
 20
795.9844394284509
 30
0.0
 11
215.9133994120041
 21
792.7589532375597
 31
0.0
 12
203.6633994120041
 22
794.3716963330053
 32
0.0
 13
203.6633994120041
 23
794.3716963330053
 33
0.0
  0
SOLID
  5
37F
330
37A
100
AcDbEntity
  8
1
 62
     2
100
AcDbTrace
 10
311.4133994120041
 20
792.7589532375597
 30
0.0
 11
311.4133994120041
 21
795.9844394284509
 31
0.0
 12
323.6633994120041
 22
794.3716963330053
 32
0.0
 13
323.6633994120041
 23
794.3716963330053
 33
0.0
  0
MTEXT
  5
380
330
37A
100
AcDbEntity
  8
1
 62
     7
100
AcDbMText
 10
250.8008994120036
 20
797.8716963330053
 30
0.0
 40
12.25
 41
0.0
 71
     7
 72
     1
  1
120
  7
CONVERTER_2
 11
0.9999999999970621
 21
2.424068405545307E-6
 31
0.0
 73
     1
 44
0.60024009603842
  0
ENDBLK
  5
382
330
37A
100
AcDbEntity
  8
0
100
AcDbBlockEnd
  0
ENDSEC
  0
SECTION
  2
ENTITIES
  0
INSERT
  5
77
330
1F
100
AcDbEntity
  8
1
100
AcDbBlockReference
  2
_J__A4
 10
0.0
 20
0.0
 30
0.0
 41
3.5
 42
3.5
 43
3.5
  0
INSERT
  5
78
330
1F
100
AcDbEntity
  8
1
100
AcDbBlockReference
  2
K11-1-0
 10
190.6633994120038
 20
350.3716963330054
 30
0.0
  0
INSERT
  5
79
330
1F
100
AcDbEntity
  8
0
100
AcDbBlockReference
  2
U3-8X-50__5
 10
289.6633994120041
 20
459.2278404552222
 30
0.0
  0
INSERT
  5
7A
330
1F
100
AcDbEntity
  8
1
100
AcDbBlockReference
  2
A10J-60X-16
 10
272.2623480774246
 20
696.3760935110935
 30
0.0
  0
INSERT
  5
7B
330
1F
100
AcDbEntity
  8
1
100
AcDbBlockReference
  2
U3-8X-50__8
 10
128.6633994120041
 20
347.8716963330055
 30
0.0
  0
INSERT
  5
7C
330
1F
100
AcDbEntity
  8
0
100
AcDbBlockReference
  2
84-34-R75
 10
368.1082511376784
 20
380.8367317940763
 30
0.0
  0
INSERT
  5
7D
330
1F
100
AcDbEntity
  8
0
100
AcDbBlockReference
  2
84-35-LH__9
 10
392.8523931495128
 20
651.4644241017683
 30
0.0
  0
INSERT
  5
7E
330
1F
100
AcDbEntity
  8
0
100
AcDbBlockReference
  2
87-18-LH__10
 10
1074.818851560817
 20
439.7374845260148
 30
0.0
  0
INSERT
  5
7F
330
1F
100
AcDbEntity
  8
0
100
AcDbBlockReference
  2
87-18-LH__11
 10
-547.4920527368087
 20
439.7374845260148
 30
0.0
  0
INSERT
  5
80
330
1F
100
AcDbEntity
  8
0
100
AcDbBlockReference
  2
84-34-B75
 10
488.1082511376785
 20
380.8367317940763
 30
0.0
  0
INSERT
  5
81
330
1F
100
AcDbEntity
  8
0
100
AcDbBlockReference
  2
84-35-LH__12
 10
512.8523931495129
 20
651.4644241017683
 30
0.0
  0
LINE
  5
2E6
330
1F
100
AcDbEntity
  8
1
  6
Continuous
 62
     2
100
AcDbLine
 10
383.813601131621
 20
649.5219296339278
 30
0.0
 11
408.7833777263976
 21
649.5219296339278
 31
0.0
  0
LINE
  5
2E7
330
1F
100
AcDbEntity
  8
1
  6
Continuous
 62
     2
100
AcDbLine
 10
350.9394636406898
 20
613.7023561636041
 30
0.0
 11
374.0991530406392
 21
613.7023561636041
 31
0.0
  0
LINE
  5
2E8
330
1F
100
AcDbEntity
  8
1
  6
DASH_CENTER
 62
     2
100
AcDbLine
 10
411.292629835903
 20
286.8716963330053
 30
0.0
 11
411.292629835903
 21
275.3716963330053
 31
0.0
  0
LINE
  5
2E9
330
1F
100
AcDbEntity
  8
1
  6
DASH_CENTER
 62
     2
100
AcDbLine
 10
438.2926298359031
 20
313.8716963330054
 30
0.0
 11
554.2926298359032
 21
313.8716963330054
 31
0.0
  0
LINE
  5
2EA
330
1F
100
AcDbEntity
  8
1
  6
DASH_CENTER
 62
     2
100
AcDbLine
 10
203.6633994120041
 20
603.3268827762934
 30
0.0
 11
203.6633994120041
 21
729.6309437462223
 31
0.0
  0
LINE
  5
2EB
330
1F
100
AcDbEntity
  8
1
  6
DASH_CENTER
 62
     2
100
AcDbLine
 10
163.6633994120041
 20
710.0572746814744
 30
0.0
 11
163.6633994120041
 21
763.9177063361503
 31
0.0
  0
LINE
  5
2EC
330
1F
100
AcDbEntity
  8
1
  6
DASH_CENTER
 62
     2
100
AcDbLine
 10
215.6633994120038
 20
719.3716963330055
 30
0.0
 11
149.4783904191982
 21
719.3716963330055
 31
0.0
  0
LINE
  5
2ED
330
1F
100
AcDbEntity
  8
1
  6
DASH_CENTER
 62
     2
100
AcDbLine
 10
363.6633994120041
 20
763.9177063361503
 30
0.0
 11
363.6633994120041
 21
710.0572746814744
 31
0.0
  0
LINE
  5
2EE
330
1F
100
AcDbEntity
  8
1
  6
DASH_CENTER
 62
     2
100
AcDbLine
 10
377.8484084048097
 20
719.3716963330055
 30
0.0
 11
311.6633994120037
 21
719.3716963330055
 31
0.0
  0
LINE
  5
2EF
330
1F
100
AcDbEntity
  8
1
  6
DASH_CENTER
 62
     2
100
AcDbLine
 10
563.6654424279823
 20
364.8716963330044
 30
0.0
 11
638.6654424279825
 21
364.8716963330044
 31
0.0
  0
LINE
  5
2F0
330
1F
100
AcDbEntity
  8
1
  6
DASH_CENTER
 62
     2
100
AcDbLine
 10
581.2926298359033
 20
448.5230423736716
 30
0.0
 11
581.2926298359033
 21
267.9224775864861
 31
0.0
  0
LINE
  5
2F1
330
1F
100
AcDbEntity
  8
1
  6
Continuous
 62
     2
100
AcDbLine
 10
119.5434210976104
 20
649.5219296339278
 30
0.0
 11
143.5131976923869
 21
649.5219296339278
 31
0.0
  0
LINE
  5
2F2
330
1F
100
AcDbEntity
  8
1
  6
Continuous
 62
     2
100
AcDbLine
 10
171.2276457833687
 20
606.2023561636041
 30
0.0
 11
194.3873351833181
 21
606.2023561636041
 31
0.0
  0
LINE
  5
2F3
330
1F
100
AcDbEntity
  8
1
  6
DASH_CENTER
 62
     2
100
AcDbLine
 10
263.6633994120037
 20
691.3716963330055
 30
0.0
 11
263.6633994120037
 21
490.8716963330056
 31
0.0
  0
LINE
  5
2F4
330
1F
100
AcDbEntity
  8
1
  6
DASH_CENTER
 62
     2
100
AcDbLine
 10
314.4982480220922
 20
371.8716963330054
 30
0.0
 11
330.6633994120037
 21
371.8716963330054
 31
0.0
  0
LINE
  5
2F5
330
1F
100
AcDbEntity
  8
1
  6
DASH_CENTER
 62
     2
100
AcDbLine
 10
330.6633994120037
 20
371.8716963330054
 30
0.0
 11
343.425913684508
 21
371.8716963330054
 31
0.0
  0
LINE
  5
2F6
330
1F
100
AcDbEntity
  8
1
  6
DASH_CENTER
 62
     2
100
AcDbLine
 10
323.6633994120041
 20
729.6309437462223
 30
0.0
 11
323.6633994120037
 21
603.3268827762934
 31
0.0
  0
LINE
  5
2F7
330
1F
100
AcDbEntity
  8
1
  6
DASH_CENTER
 62
     2
100
AcDbLine
 10
140.6633994120041
 20
671.3716963330055
 30
0.0
 11
389.8601992754022
 21
671.3716963330055
 31
0.0
  0
LINE
  5
2F8
330
1F
100
AcDbEntity
  8
1
  6
DASH_CENTER
 62
     2
100
AcDbLine
 10
323.6633994120041
 20
447.1716963330056
 30
0.0
 11
323.6633994120041
 21
341.3843647196803
 31
0.0
  0
LINE
  5
2F9
330
1F
100
AcDbEntity
  8
1
  6
DASH_CENTER
 62
     2
100
AcDbLine
 10
203.6633994120041
 20
342.2574746903907
 30
0.0
 11
203.6633994120041
 21
388.2222281810014
 31
0.0
  0
LINE
  5
2FA
330
1F
100
AcDbEntity
  8
1
  6
DASH_CENTER
 62
     2
100
AcDbLine
 10
263.6633994120037
 20
274.8716963330055
 30
0.0
 11
263.6633994120037
 21
384.8716963330054
 31
0.0
  0
LINE
  5
2FB
330
1F
100
AcDbEntity
  8
1
  6
DASH_CENTER
 62
     2
100
AcDbLine
 10
203.6633994120041
 20
388.2222281810014
 30
0.0
 11
203.6633994120041
 21
447.1716963330056
 31
0.0
  0
LINE
  5
2FC
330
1F
100
AcDbEntity
  8
1
  6
DASH_CENTER
 62
     2
100
AcDbLine
 10
141.213263438939
 20
318.0340943532048
 30
0.0
 11
163.6629622395833
 21
334.8713684536883
 31
0.0
  0
LINE
  5
2FD
330
1F
100
AcDbEntity
  8
0
  6
DASH_CENTER
 62
     2
100
AcDbLine
 10
147.7413942025009
 20
356.1001258364639
 30
0.0
 11
180.1413942025018
 21
312.9001258364646
 31
0.0
  0
LINE
  5
2FE
330
1F
100
AcDbEntity
  8
1
  6
DASH_CENTER
 62
     2
100
AcDbLine
 10
317.0087451395484
 20
369.862687037346
 30
0.0
 11
386.1135353850688
 21
318.0340943532048
 31
0.0
  0
LINE
  5
2FF
330
1F
100
AcDbEntity
  8
0
  6
DASH_CENTER
 62
     2
100
AcDbLine
 10
380.1407657671454
 20
356.8428843036754
 30
0.0
 11
347.7407657671446
 21
313.6428843036759
 31
0.0
  0
LINE
  5
300
330
1F
100
AcDbEntity
  8
1
  6
DASH_CENTER
 62
     2
100
AcDbLine
 10
616.6654424279823
 20
334.8713684536883
 30
0.0
 11
676.1654424279824
 21
334.8713684536883
 31
0.0
  0
LINE
  5
301
330
1F
100
AcDbEntity
  8
1
  6
DASH_CENTER
 62
     2
100
AcDbLine
 10
163.6629622395833
 20
334.8713684536883
 30
0.0
 11
203.6633994120041
 21
364.8716963330044
 31
0.0
  0
LINE
  5
302
330
1F
100
AcDbEntity
  8
1
  6
DASH_CENTER
 62
     2
100
AcDbLine
 10
203.6633994120041
 20
364.8716963330044
 30
0.0
 11
210.3180536844593
 21
369.862687037346
 31
0.0
  0
LINE
  5
303
330
1F
100
AcDbEntity
  8
1
  6
DASH_CENTER
 62
     2
100
AcDbLine
 10
188.3285508019157
 20
371.8716963330054
 30
0.0
 11
314.4982480220922
 21
371.8716963330054
 31
0.0
  0
LINE
  5
304
330
1F
100
AcDbEntity
  8
1
  6
DASH_CENTER
 62
     2
100
AcDbLine
 10
356.6633994120042
 20
425.3716963330054
 30
0.0
 11
385.6633994120042
 21
425.3716963330054
 31
0.0
  0
LINE
  5
305
330
1F
100
AcDbEntity
  8
1
  6
DASH_CENTER
 62
     2
100
AcDbLine
 10
371.1633994120042
 20
440.8716963330054
 30
0.0
 11
371.1633994120042
 21
409.8716963330053
 31
0.0
  0
LINE
  5
306
330
1F
100
AcDbEntity
  8
1
  6
DASH_CENTER
 62
     2
100
AcDbLine
 10
156.1633994120038
 20
440.8716963330054
 30
0.0
 11
156.1633994120038
 21
409.8716963330053
 31
0.0
  0
LINE
  5
307
330
1F
100
AcDbEntity
  8
1
  6
DASH_CENTER
 62
     2
100
AcDbLine
 10
170.6633994120038
 20
425.3716963330054
 30
0.0
 11
141.6633994120039
 21
425.3716963330054
 31
0.0
  0
LINE
  5
308
330
1F
100
AcDbEntity
  8
1
  6
DASH_CENTER
 62
     2
100
AcDbLine
 10
573.9683235149331
 20
425.3716963330054
 30
0.0
 11
588.7926298359032
 21
425.3716963330054
 31
0.0
  0
ARC
  5
309
330
1F
100
AcDbEntity
  8
1
  6
DASH_CENTER
 62
     2
100
AcDbCircle
 10
438.2926298359031
 20
286.8716963330053
 30
0.0
 40
27.00000000000011
100
AcDbArc
 50
90.0
 51
180.0
  0
ARC
  5
30A
330
1F
100
AcDbEntity
  8
1
  6
DASH_CENTER
 62
     2
100
AcDbCircle
 10
554.2926298359032
 20
340.8716963330053
 30
0.0
 40
26.99999999999989
100
AcDbArc
 50
-90.0
 51
0.0
  0
ARC
  5
30B
330
1F
100
AcDbEntity
  8
1
  6
Continuous
 62
     2
100
AcDbCircle
 10
192.4926831763931
 20
660.2009800973946
 30
0.0
 40
34.20222159817769
100
AcDbArc
 50
180.0
 51
-90.0
  0
ARC
  5
30C
330
1F
100
AcDbEntity
  8
1
  6
Continuous
 62
     2
100
AcDbCircle
 10
334.8341156476148
 20
660.2009800973946
 30
0.0
 40
34.20222159817763
100
AcDbArc
 50
-90.0
 51
0.0
  0
SOLID
  5
30D
330
1F
100
AcDbEntity
  8
1
 62
     2
100
AcDbTrace
 10
160.439414163437
 20
648.0335874811281
 30
0.0
 11
157.217037441422
 21
647.8919914746662
 31
0.0
 12
158.2904615782154
 22
660.2009800973946
 32
0.0
 13
158.2904615782154
 23
660.2009800973946
 33
0.0
  0
LEADER
  5
30E
330
1F
100
AcDbEntity
  8
1
  6
Continuous
 62
     2
100
AcDbLeader
  3
Standard
 71
     0
 76
     2
 10
158.2904615782154
 20
660.2009800973946
 30
0.0
 10
158.422286022106
 20
657.2009800973946
 30
0.0
  0
SOLID
  5
30F
330
1F
100
AcDbEntity
  8
1
 62
     2
100
AcDbTrace
 10
180.1836945536647
 20
624.9253343624235
 30
0.0
 11
180.3252905601266
 21
628.1477110844385
 31
0.0
 12
192.4926831763931
 22
625.9987584992169
 32
0.0
 13
192.4926831763931
 23
625.9987584992169
 33
0.0
  0
LEADER
  5
310
330
1F
100
AcDbEntity
  8
1
  6
Continuous
 62
     2
100
AcDbLeader
  3
Standard
 71
     0
 76
     2
 10
192.4926831763931
 20
625.9987584992169
 30
0.0
 10
189.4926831763931
 20
626.1305829431075
 30
0.0
  0
SOLID
  5
311
330
1F
100
AcDbEntity
  8
1
 62
     2
100
AcDbTrace
 10
347.0015082638813
 20
628.1477110844385
 30
0.0
 11
347.1431042703432
 21
624.9253343624235
 31
0.0
 12
334.8341156476148
 22
625.9987584992169
 32
0.0
 13
334.8341156476148
 23
625.9987584992169
 33
0.0
  0
LEADER
  5
312
330
1F
100
AcDbEntity
  8
1
  6
Continuous
 62
     2
100
AcDbLeader
  3
Standard
 71
     0
 76
     2
 10
334.8341156476148
 20
625.9987584992169
 30
0.0
 10
337.8341156476148
 20
626.1305829431075
 30
0.0
  0
SOLID
  5
313
330
1F
100
AcDbEntity
  8
1
 62
     2
100
AcDbTrace
 10
370.1097613825858
 20
647.8919914746662
 30
0.0
 11
366.8873846605709
 21
648.0335874811281
 31
0.0
 12
369.0363372457925
 22
660.2009800973946
 32
0.0
 13
369.0363372457925
 23
660.2009800973946
 33
0.0
  0
LEADER
  5
314
330
1F
100
AcDbEntity
  8
1
  6
Continuous
 62
     2
100
AcDbLeader
  3
Standard
 71
     0
 76
     2
 10
369.0363372457925
 20
660.2009800973946
 30
0.0
 10
368.9045128019019
 20
657.2009800973946
 30
0.0
  0
SOLID
  5
315
330
1F
100
AcDbEntity
  8
1
 62
     2
100
AcDbTrace
 10
378.8692229215704
 20
763.7521650724771
 30
0.0
 11
381.6625759024381
 21
762.1394219770315
 31
0.0
 12
374.1408994120041
 22
752.3369823283949
 32
0.0
 13
374.1408994120041
 23
752.3369823283949
 33
0.0
  0
LEADER
  5
316
330
1F
100
AcDbEntity
  8
1
  6
Continuous
 62
     2
100
AcDbLeader
  3
Standard
 71
     0
 76
     3
 10
374.1408994120041
 20
752.3369823283949
 30
0.0
 10
387.7932577869063
 20
775.9835606768638
 30
0.0
 10
435.4555966420493
 20
775.9835606768638
 30
0.0
  0
MTEXT
  5
317
330
1F
100
AcDbEntity
  8
1
 62
     7
100
AcDbMText
 10
119.0
 20
119.0
 30
0.0
 40
12.25
 41
0.0
 71
     4
 72
     1
  1
JIS\P吐水口は回転式(角度制限なし)
  7
CONVERTER_1
 73
     1
 44
0.7202881152461
  0
MTEXT
  5
319
330
1F
100
AcDbEntity
  8
1
 62
     7
100
AcDbMText
 10
328.125
 20
59.5
 30
0.0
 40
12.25
 41
0.0
 71
     5
 72
     1
  1
3,5
  7
CONVERTER_2
 73
     1
 44
0.7202881152461
  0
MTEXT
  5
31A
330
1F
100
AcDbEntity
  8
1
 62
     7
100
AcDbMText
 10
298.375
 20
59.5
 30
0.0
 40
12.25
 41
0.0
 71
     5
 72
     1
  1
1
  7
CONVERTER_2
 73
     1
 44
0.7202881152461
  0
MTEXT
  5
31B
330
1F
100
AcDbEntity
  8
1
 62
     7
100
AcDbMText
 10
396.1620713358761
 20
660.0219296339277
 30
0.0
 40
12.25
 41
0.0
 71
     5
 72
     1
  1
止水
  7
CONVERTER_1
 73
     1
 44
0.7202881152461
  0
MTEXT
  5
31C
330
1F
100
AcDbEntity
  8
1
 62
     7
100
AcDbMText
 10
362.5777692954032
 20
624.2023561636039
 30
0.0
 40
12.25
 41
0.0
 71
     5
 72
     1
  1
吐水
  7
CONVERTER_1
 73
     1
 44
0.7202881152461
  0
MTEXT
  5
31D
330
1F
100
AcDbEntity
  8
1
 62
     7
100
AcDbMText
 10
131.1647274881317
 20
660.0219296339277
 30
0.0
 40
12.25
 41
0.0
 71
     5
 72
     1
  1
止水
  7
CONVERTER_1
 73
     1
 44
0.7202881152461
  0
MTEXT
  5
31E
330
1F
100
AcDbEntity
  8
1
 62
     7
100
AcDbMText
 10
182.7490295286047
 20
616.702356163604
 30
0.0
 40
12.25
 41
0.0
 71
     5
 72
     1
  1
吐水
  7
CONVERTER_1
 73
     1
 44
0.7202881152461
  0
MTEXT
  5
31F
330
1F
100
AcDbEntity
  8
1
 62
     7
100
AcDbMText
 10
199.5
 20
49.875
 30
0.0
 40
12.25
 41
0.0
 71
     5
 72
     1
  1
K11-1-LH-13
  7
CONVERTER_2
 73
     1
 44
0.7202881152461
  0
MTEXT
  5
320
330
1F
100
AcDbEntity
  8
1
 62
     7
100
AcDbMText
 10
199.5
 20
79.62500000000004
 30
0.0
 40
12.25
 41
0.0
 71
     5
 72
     1
  1
ツーバルブ混合栓
  7
CONVERTER_1
 73
     1
 44
1.32052821128451
  0
MTEXT
  5
321
330
1F
100
AcDbEntity
  8
1
 62
     7
100
AcDbMText
 10
412.4063560692401
 20
786.4835606768638
 30
0.0
 40
12.25
 41
0.0
 71
     5
 72
     1
  1
PJ1/2
  7
CONVERTER_2
 73
     1
 44
1.32052821128451
  0
DIMENSION
  5
32C
330
1F
100
AcDbEntity
  8
0
100
AcDbDimension
  2
*D020
 10
138.4756718109434
 20
368.4544223585405
 30
0.0
 11
153.9364422711503
 21
392.0812502036959
 31
0.0
  1
<>
 71
     5
 42
0.0
 53
36.86989764584448
  3
ME10_DIM_0
100
AcDbAlignedDimension
 13
203.6633994120041
 23
364.8716963330044
 33
0.0
 14
147.7413942025009
 24
356.1001258364639
 34
0.0
 50
36.86989764584448
100
AcDbRotatedDimension
  0
DIMENSION
  5
337
330
1F
100
AcDbEntity
  8
0
100
AcDbDimension
  2
*D121
 10
528.1414172922873
 20
280.8716963330055
 30
0.0
 11
518.5164172922873
 21
336.081343514407
 31
0.0
  1
<>
 71
     5
 42
0.0
 53
90.0
  3
ME10_DIM_1
100
AcDbAlignedDimension
 13
563.6654424279823
 23
364.8716963330044
 33
0.0
 14
418.3927822120419
 24
280.8716963330055
 34
0.0
 50
90.0
100
AcDbRotatedDimension
  0
DIMENSION
  5
342
330
1F
100
AcDbEntity
  8
1
100
AcDbDimension
  2
*D222
 10
581.2926298359032
 20
245.8716963330054
 30
0.0
 11
496.2926298359032
 21
255.4966963330054
 31
0.0
  1
<>
 71
     5
 42
0.0
 53
0.00013888888889
  3
ME10_DIM_2
100
AcDbAlignedDimension
 13
411.292629835903
 23
275.3716963330053
 33
0.0
 14
581.2926298359032
 24
340.8716963330053
 34
0.0
100
AcDbRotatedDimension
  0
DIMENSION
  5
34D
330
1F
100
AcDbEntity
  8
1
100
AcDbDimension
  2
*D323
 10
163.6633994120041
 20
822.3716963330053
 30
0.0
 11
263.6633994120036
 21
831.9966963330053
 31
0.0
  1
取付寸法120～220
 71
     5
 42
0.0
 53
0.00013888888889
  3
ME10_DIM_3
100
AcDbAlignedDimension
 13
363.6633994120041
 23
763.9177063361503
 33
0.0
 14
163.6633994120041
 24
763.9177063361503
 34
0.0
100
AcDbRotatedDimension
  0
DIMENSION
  5
358
330
1F
100
AcDbEntity
  8
1
100
AcDbDimension
  2
*D424
 10
138.6633994120041
 20
794.3716963330053
 30
0.0
 11
134.251982636532
 21
803.9966963330053
 31
0.0
  1
<>
 71
     5
 42
0.0
 53
0.00013888888889
  3
ME10_DIM_4
100
AcDbAlignedDimension
 13
188.6633994120041
 23
745.3716963330055
 33
0.0
 14
138.6633994120041
 24
745.3716963330055
 34
0.0
100
AcDbRotatedDimension
  0
DIMENSION
  5
363
330
1F
100
AcDbEntity
  8
1
100
AcDbDimension
  2
*D525
 10
581.2926298359033
 20
474.3716963330054
 30
0.0
 11
618.2936478806012
 21
483.9966963330054
 31
0.0
  1
<>
 71
     5
 42
0.0
 53
0.00013888888889
  3
ME10_DIM_5
100
AcDbAlignedDimension
 13
655.2946659252989
 23
359.8713684536884
 33
0.0
 14
581.2926298359033
 24
448.5230423736716
 34
0.0
100
AcDbRotatedDimension
  0
DIMENSION
  5
36E
330
1F
100
AcDbEntity
  8
0
100
AcDbDimension
  2
*D626
 10
528.1414172922874
 20
364.8716963330044
 30
0.0
 11
518.5164172922874
 21
402.9493637051139
 31
0.0
  1
75リフト2
 71
     5
 42
0.0
 53
90.0
  3
ME10_DIM_6
100
AcDbAlignedDimension
 13
581.2926298359034
 23
439.3716963330054
 33
0.0
 14
563.6654424279823
 24
364.8716963330044
 34
0.0
 50
90.0
100
AcDbRotatedDimension
  0
DIMENSION
  5
379
330
1F
100
AcDbEntity
  8
1
100
AcDbDimension
  2
*D727
 10
428.0095148522094
 20
611.3716963330054
 30
0.0
 11
418.3845148522094
 21
642.029586501902
 31
0.0
  1
<>
 71
     5
 42
0.0
 53
90.0
  3
ME10_DIM_7
100
AcDbAlignedDimension
 13
389.8601992754022
 23
671.3716963330055
 33
0.0
 14
325.9252530865236
 24
611.3716963330053
 34
0.0
 50
90.0
100
AcDbRotatedDimension
  0
DIMENSION
  5
384
330
1F
100
AcDbEntity
  8
1
100
AcDbDimension
  2
*D828
 10
203.6633994120041
 20
794.3716963330053
 30
0.0
 11
263.6633994120036
 21
803.9966963330053
 31
0.0
  1
<>
 71
     5
 42
0.0
 53
0.00013888888889
  3
ME10_DIM_8
100
AcDbAlignedDimension
 13
323.6633994120041
 23
729.6309437462223
 33
0.0
 14
203.6633994120041
 24
729.6309437462223
 34
0.0
100
AcDbRotatedDimension
  0
ENDSEC
  0
SECTION
  2
OBJECTS
  0
DICTIONARY
  5
C
330
0
100
AcDbDictionary
281
     1
  3
ACAD_GROUP
350
D
  3
ACAD_LAYOUT
350
1A
  3
ACAD_MLINESTYLE
350
17
  3
ACAD_PLOTSETTINGS
350
19
  3
ACAD_PLOTSTYLENAME
350
E
  3
ACAD_TABLESTYLE
350
2A
  3
AcDbVariableDictionary
350
2C
  0
DICTIONARY
  5
D
102
{ACAD_REACTORS
330
C
102
}
330
C
100
AcDbDictionary
281
     1
  0
DICTIONARY
  5
1A
102
{ACAD_REACTORS
330
C
102
}
330
C
100
AcDbDictionary
281
     1
  3
Layout1
350
1E
  3
Layout2
350
26
  3
Model
350
22
  0
DICTIONARY
  5
17
102
{ACAD_REACTORS
330
C
102
}
330
C
100
AcDbDictionary
281
     1
  3
Standard
350
18
  0
DICTIONARY
  5
19
102
{ACAD_REACTORS
330
C
102
}
330
C
100
AcDbDictionary
281
     1
  0
ACDBDICTIONARYWDFLT
  5
E
102
{ACAD_REACTORS
330
C
102
}
330
C
100
AcDbDictionary
281
     1
  3
Normal
350
F
100
AcDbDictionaryWithDefault
340
F
  0
DICTIONARY
  5
2A
102
{ACAD_REACTORS
330
C
102
}
330
C
100
AcDbDictionary
281
     1
  3
Standard
350
2B
  0
DICTIONARY
  5
2C
102
{ACAD_REACTORS
330
C
102
}
330
C
100
AcDbDictionary
281
     1
  3
CTABLESTYLE
350
2D
  0
LAYOUT
  5
1E
102
{ACAD_REACTORS
330
1A
102
}
330
1A
100
AcDbPlotSettings
  1

  2

  4

  6

 40
0.0
 41
0.0
 42
0.0
 43
0.0
 44
0.0
 45
0.0
 46
0.0
 47
0.0
 48
0.0
 49
0.0
140
0.0
141
0.0
142
1.0
143
1.0
 70
   688
 72
     0
 73
     0
 74
     5
  7

 75
    16
147
1.0
148
0.0
149
0.0
100
AcDbLayout
  1
Layout1
 70
     1
 71
     1
 10
0.0
 20
0.0
 11
12.0
 21
9.0
 12
0.0
 22
0.0
 32
0.0
 14
1.00000000000000E+20
 24
1.00000000000000E+20
 34
1.00000000000000E+20
 15
-1.00000000000000E+20
 25
-1.00000000000000E+20
 35
-1.00000000000000E+20
146
0.0
 13
0.0
 23
0.0
 33
0.0
 16
1.0
 26
0.0
 36
0.0
 17
0.0
 27
1.0
 37
0.0
 76
     0
330
1B
  0
LAYOUT
  5
26
102
{ACAD_REACTORS
330
1A
102
}
330
1A
100
AcDbPlotSettings
  1

  2

  4

  6

 40
0.0
 41
0.0
 42
0.0
 43
0.0
 44
0.0
 45
0.0
 46
0.0
 47
0.0
 48
0.0
 49
0.0
140
0.0
141
0.0
142
1.0
143
1.0
 70
   688
 72
     0
 73
     0
 74
     5
  7

 75
    16
147
1.0
148
0.0
149
0.0
100
AcDbLayout
  1
Layout2
 70
     1
 71
     2
 10
0.0
 20
0.0
 11
0.0
 21
0.0
 12
0.0
 22
0.0
 32
0.0
 14
0.0
 24
0.0
 34
0.0
 15
0.0
 25
0.0
 35
0.0
146
0.0
 13
0.0
 23
0.0
 33
0.0
 16
1.0
 26
0.0
 36
0.0
 17
0.0
 27
1.0
 37
0.0
 76
     0
330
23
  0
LAYOUT
  5
22
102
{ACAD_REACTORS
330
1A
102
}
330
1A
100
AcDbPlotSettings
  1

  2

  4

  6

 40
0.0
 41
0.0
 42
0.0
 43
0.0
 44
0.0
 45
0.0
 46
0.0
 47
0.0
 48
0.0
 49
0.0
140
0.0
141
0.0
142
1.0
143
1.0
 70
  1712
 72
     0
 73
     0
 74
     0
  7

 75
     0
147
1.0
148
0.0
149
0.0
100
AcDbLayout
  1
Model
 70
     1
 71
     0
 10
0.0
 20
0.0
 11
0.0
 21
0.0
 12
0.0
 22
0.0
 32
0.0
 14
0.0
 24
0.0
 34
0.0
 15
735.0
 25
1039.5
 35
0.0
146
0.0
 13
0.0
 23
0.0
 33
0.0
 16
1.0
 26
0.0
 36
0.0
 17
0.0
 27
1.0
 37
0.0
 76
     0
330
1F
  0
MLINESTYLE
  5
18
102
{ACAD_REACTORS
330
17
102
}
330
17
100
AcDbMlineStyle
  2
Standard
 70
     0
  3

 62
   256
 51
90.0
 52
90.0
 71
     2
 49
0.5
 62
   256
  6
BYLAYER
 49
-0.5
 62
   256
  6
BYLAYER
  0
ACDBPLACEHOLDER
  5
F
102
{ACAD_REACTORS
330
E
102
}
330
E
  0
TABLESTYLE
  5
2B
102
{ACAD_REACTORS
330
2A
102
}
330
2A
100
AcDbTableStyle
  3
Standard
 70
     0
 71
     0
 40
0.06
 41
0.06
280
     0
281
     0
  7
Standard
140
0.18
170
     2
 62
     0
 63
     7
283
     0
274
    -2
284
     1
 64
     0
275
    -2
285
     1
 65
     0
276
    -2
286
     1
 66
     0
277
    -2
287
     1
 67
     0
278
    -2
288
     1
 68
     0
279
    -2
289
     1
 69
     0
  7
Standard
140
0.25
170
     5
 62
     0
 63
     7
283
     0
274
    -2
284
     1
 64
     0
275
    -2
285
     1
 65
     0
276
    -2
286
     1
 66
     0
277
    -2
287
     1
 67
     0
278
    -2
288
     1
 68
     0
279
    -2
289
     1
 69
     0
  7
Standard
140
0.18
170
     5
 62
     0
 63
     7
283
     0
274
    -2
284
     1
 64
     0
275
    -2
285
     1
 65
     0
276
    -2
286
     1
 66
     0
277
    -2
287
     1
 67
     0
278
    -2
288
     1
 68
     0
279
    -2
289
     1
 69
     0
  0
DICTIONARYVAR
  5
2D
102
{ACAD_REACTORS
330
2C
102
}
330
2C
100
DictionaryVariables
280
     0
  1
Standard
  0
ENDSEC
  0
EOF
