  0
SECTION
  2
HEADER
  9
$ACADVER
  1
AC1015
  9
$ACADMAINTVER
 70
     6
  9
$DWGCODEPAGE
  3
ANSI_932
  9
$INSBASE
 10
0.0
 20
0.0
 30
0.0
  9
$EXTMIN
 10
0.0
 20
0.0
 30
0.0
  9
$EXTMAX
 10
840.0
 20
1188.0
 30
0.0
  9
$LIMMIN
 10
0.0
 20
0.0
  9
$LIMMAX
 10
12.0
 20
9.0
  9
$ORTHOMODE
 70
     0
  9
$REGENMODE
 70
     1
  9
$FILLMODE
 70
     1
  9
$QTEXTMODE
 70
     0
  9
$MIRRTEXT
 70
     1
  9
$LTSCALE
 40
1.0
  9
$ATTMODE
 70
     1
  9
$TEXTSIZE
 40
0.2
  9
$TRACEWID
 40
0.05
  9
$TEXTSTYLE
  7
Standard
  9
$CLAYER
  8
0
  9
$CELTYPE
  6
ByLayer
  9
$CECOLOR
 62
   256
  9
$CELTSCALE
 40
1.0
  9
$DISPSILH
 70
     0
  9
$DIMSCALE
 40
1.0
  9
$DIMASZ
 40
0.18
  9
$DIMEXO
 40
0.0625
  9
$DIMDLI
 40
0.38
  9
$DIMRND
 40
0.0
  9
$DIMDLE
 40
0.0
  9
$DIMEXE
 40
0.18
  9
$DIMTP
 40
0.0
  9
$DIMTM
 40
0.0
  9
$DIMTXT
 40
0.18
  9
$DIMCEN
 40
0.09
  9
$DIMTSZ
 40
0.0
  9
$DIMTOL
 70
     0
  9
$DIMLIM
 70
     0
  9
$DIMTIH
 70
     1
  9
$DIMTOH
 70
     1
  9
$DIMSE1
 70
     0
  9
$DIMSE2
 70
     0
  9
$DIMTAD
 70
     0
  9
$DIMZIN
 70
     0
  9
$DIMBLK
  1

  9
$DIMASO
 70
     1
  9
$DIMSHO
 70
     1
  9
$DIMPOST
  1

  9
$DIMAPOST
  1

  9
$DIMALT
 70
     0
  9
$DIMALTD
 70
     2
  9
$DIMALTF
 40
25.4
  9
$DIMLFAC
 40
1.0
  9
$DIMTOFL
 70
     0
  9
$DIMTVP
 40
0.0
  9
$DIMTIX
 70
     0
  9
$DIMSOXD
 70
     0
  9
$DIMSAH
 70
     0
  9
$DIMBLK1
  1

  9
$DIMBLK2
  1

  9
$DIMSTYLE
  2
Standard
  9
$DIMCLRD
 70
     0
  9
$DIMCLRE
 70
     0
  9
$DIMCLRT
 70
     0
  9
$DIMTFAC
 40
1.0
  9
$DIMGAP
 40
0.09
  9
$DIMJUST
 70
     0
  9
$DIMSD1
 70
     0
  9
$DIMSD2
 70
     0
  9
$DIMTOLJ
 70
     1
  9
$DIMTZIN
 70
     0
  9
$DIMALTZ
 70
     0
  9
$DIMALTTZ
 70
     0
  9
$DIMUPT
 70
     0
  9
$DIMDEC
 70
     4
  9
$DIMTDEC
 70
     4
  9
$DIMALTU
 70
     2
  9
$DIMALTTD
 70
     2
  9
$DIMTXSTY
  7
Standard
  9
$DIMAUNIT
 70
     0
  9
$DIMADEC
 70
     0
  9
$DIMALTRND
 40
0.0
  9
$DIMAZIN
 70
     0
  9
$DIMDSEP
 70
    46
  9
$DIMATFIT
 70
     3
  9
$DIMFRAC
 70
     0
  9
$DIMLDRBLK
  1

  9
$DIMLUNIT
 70
     2
  9
$DIMLWD
 70
    -2
  9
$DIMLWE
 70
    -2
  9
$DIMTMOVE
 70
     0
  9
$LUNITS
 70
     2
  9
$LUPREC
 70
     4
  9
$SKETCHINC
 40
0.1
  9
$FILLETRAD
 40
0.5
  9
$AUNITS
 70
     0
  9
$AUPREC
 70
     0
  9
$MENU
  1
.
  9
$ELEVATION
 40
0.0
  9
$PELEVATION
 40
0.0
  9
$THICKNESS
 40
0.0
  9
$LIMCHECK
 70
     0
  9
$CHAMFERA
 40
0.5
  9
$CHAMFERB
 40
0.5
  9
$CHAMFERC
 40
1.0
  9
$CHAMFERD
 40
0.0
  9
$SKPOLY
 70
     0
  9
$TDCREATE
 40
2456877.668907674
  9
$TDUCREATE
 40
2456877.293907674
  9
$TDUPDATE
 40
2456877.668908935
  9
$TDUUPDATE
 40
2456877.293908935
  9
$TDINDWG
 40
0.0000000116
  9
$TDUSRTIMER
 40
0.0000000116
  9
$USRTIMER
 70
     1
  9
$ANGBASE
 50
0.0
  9
$ANGDIR
 70
     0
  9
$PDMODE
 70
     0
  9
$PDSIZE
 40
0.0
  9
$PLINEWID
 40
0.0
  9
$SPLFRAME
 70
     0
  9
$SPLINETYPE
 70
     6
  9
$SPLINESEGS
 70
     8
  9
$HANDSEED
  5
4D4
  9
$SURFTAB1
 70
     6
  9
$SURFTAB2
 70
     6
  9
$SURFTYPE
 70
     6
  9
$SURFU
 70
     6
  9
$SURFV
 70
     6
  9
$UCSBASE
  2

  9
$UCSNAME
  2

  9
$UCSORG
 10
0.0
 20
0.0
 30
0.0
  9
$UCSXDIR
 10
1.0
 20
0.0
 30
0.0
  9
$UCSYDIR
 10
0.0
 20
1.0
 30
0.0
  9
$UCSORTHOREF
  2

  9
$UCSORTHOVIEW
 70
     0
  9
$UCSORGTOP
 10
0.0
 20
0.0
 30
0.0
  9
$UCSORGBOTTOM
 10
0.0
 20
0.0
 30
0.0
  9
$UCSORGLEFT
 10
0.0
 20
0.0
 30
0.0
  9
$UCSORGRIGHT
 10
0.0
 20
0.0
 30
0.0
  9
$UCSORGFRONT
 10
0.0
 20
0.0
 30
0.0
  9
$UCSORGBACK
 10
0.0
 20
0.0
 30
0.0
  9
$PUCSBASE
  2

  9
$PUCSNAME
  2

  9
$PUCSORG
 10
0.0
 20
0.0
 30
0.0
  9
$PUCSXDIR
 10
1.0
 20
0.0
 30
0.0
  9
$PUCSYDIR
 10
0.0
 20
1.0
 30
0.0
  9
$PUCSORTHOREF
  2

  9
$PUCSORTHOVIEW
 70
     0
  9
$PUCSORGTOP
 10
0.0
 20
0.0
 30
0.0
  9
$PUCSORGBOTTOM
 10
0.0
 20
0.0
 30
0.0
  9
$PUCSORGLEFT
 10
0.0
 20
0.0
 30
0.0
  9
$PUCSORGRIGHT
 10
0.0
 20
0.0
 30
0.0
  9
$PUCSORGFRONT
 10
0.0
 20
0.0
 30
0.0
  9
$PUCSORGBACK
 10
0.0
 20
0.0
 30
0.0
  9
$USERI1
 70
     0
  9
$USERI2
 70
     0
  9
$USERI3
 70
     0
  9
$USERI4
 70
     0
  9
$USERI5
 70
     0
  9
$USERR1
 40
18.1
  9
$USERR2
 40
0.0
  9
$USERR3
 40
0.0
  9
$USERR4
 40
0.0
  9
$USERR5
 40
0.0
  9
$WORLDVIEW
 70
     1
  9
$SHADEDGE
 70
     3
  9
$SHADEDIF
 70
    70
  9
$TILEMODE
 70
     1
  9
$MAXACTVP
 70
    64
  9
$PINSBASE
 10
0.0
 20
0.0
 30
0.0
  9
$PLIMCHECK
 70
     0
  9
$PEXTMIN
 10
1.00000000000000E+20
 20
1.00000000000000E+20
 30
1.00000000000000E+20
  9
$PEXTMAX
 10
-1.00000000000000E+20
 20
-1.00000000000000E+20
 30
-1.00000000000000E+20
  9
$PLIMMIN
 10
0.0
 20
0.0
  9
$PLIMMAX
 10
12.0
 20
9.0
  9
$UNITMODE
 70
     0
  9
$VISRETAIN
 70
     1
  9
$PLINEGEN
 70
     0
  9
$PSLTSCALE
 70
     1
  9
$TREEDEPTH
 70
  3020
  9
$CMLSTYLE
  2
Standard
  9
$CMLJUST
 70
     0
  9
$CMLSCALE
 40
1.0
  9
$PROXYGRAPHICS
 70
     1
  9
$MEASUREMENT
 70
     1
  9
$CELWEIGHT
370
    -1
  9
$ENDCAPS
280
     0
  9
$JOINSTYLE
280
     0
  9
$LWDISPLAY
290
     0
  9
$INSUNITS
 70
     4
  9
$HYPERLINKBASE
  1

  9
$STYLESHEET
  1

  9
$XEDIT
290
     1
  9
$CEPSNTYPE
380
     0
  9
$PSTYLEMODE
290
     1
  9
$FINGERPRINTGUID
  2
{2A1ED42F-E158-4B7E-A208-CA7F7D6C1EB8}
  9
$VERSIONGUID
  2
{FAEB1C32-E019-11D5-929B-00C0DF256EC4}
  9
$EXTNAMES
290
     1
  9
$PSVPSCALE
 40
0.0
  9
$OLESTARTUP
290
     0
  0
ENDSEC
  0
SECTION
  2
CLASSES
  0
CLASS
  1
ACDBDICTIONARYWDFLT
  2
AcDbDictionaryWithDefault
  3
ObjectDBX Classes
 90
        0
280
     0
281
     0
  0
CLASS
  1
VISUALSTYLE
  2
AcDbVisualStyle
  3
ObjectDBX Classes
 90
     4095
280
     0
281
     0
  0
CLASS
  1
MATERIAL
  2
AcDbMaterial
  3
ObjectDBX Classes
 90
     1153
280
     0
281
     0
  0
CLASS
  1
DICTIONARYVAR
  2
AcDbDictionaryVar
  3
ObjectDBX Classes
 90
        0
280
     0
281
     0
  0
CLASS
  1
ACDBPLACEHOLDER
  2
AcDbPlaceHolder
  3
ObjectDBX Classes
 90
        0
280
     0
281
     0
  0
CLASS
  1
LAYOUT
  2
AcDbLayout
  3
ObjectDBX Classes
 90
        0
280
     0
281
     0
  0
ENDSEC
  0
SECTION
  2
TABLES
  0
TABLE
  2
VPORT
  5
8
330
0
100
AcDbSymbolTable
 70
     1
  0
VPORT
  5
29
330
8
100
AcDbSymbolTableRecord
100
AcDbViewportTableRecord
  2
*Active
 70
     0
 10
0.0
 20
0.0
 11
1.0
 21
1.0
 12
420.0
 22
594.0
 13
0.0
 23
0.0
 14
0.5
 24
0.5
 15
0.5
 25
0.5
 16
0.0
 26
0.0
 36
1.0
 17
0.0
 27
0.0
 37
0.0
 40
1306.8
 41
1.60267857142857
 42
50.0
 43
0.0
 44
0.0
 50
0.0
 51
0.0
 71
     0
 72
   100
 73
     1
 74
     3
 75
     0
 76
     0
 77
     0
 78
     0
281
     0
 65
     1
110
0.0
120
0.0
130
0.0
111
1.0
121
0.0
131
0.0
112
0.0
122
1.0
132
0.0
 79
     0
146
0.0
  0
ENDTAB
  0
TABLE
  2
LTYPE
  5
5
330
0
100
AcDbSymbolTable
 70
     8
  0
LTYPE
  5
14
330
5
100
AcDbSymbolTableRecord
100
AcDbLinetypeTableRecord
  2
ByBlock
 70
     0
  3

 72
    65
 73
     0
 40
0.0
  0
LTYPE
  5
15
330
5
100
AcDbSymbolTableRecord
100
AcDbLinetypeTableRecord
  2
ByLayer
 70
     0
  3

 72
    65
 73
     0
 40
0.0
  0
LTYPE
  5
16
330
5
100
AcDbSymbolTableRecord
100
AcDbLinetypeTableRecord
  2
Continuous
 70
     0
  3
Solid line
 72
    65
 73
     0
 40
0.0
  0
LTYPE
  5
3F
330
5
100
AcDbSymbolTableRecord
100
AcDbLinetypeTableRecord
  2
DASHED
 70
     0
  3
Dashed
 72
    65
 73
     2
 40
15.0
 49
7.0
 74
     0
 49
-8.0
 74
     0
  0
LTYPE
  5
40
330
5
100
AcDbSymbolTableRecord
100
AcDbLinetypeTableRecord
  2
DOTTED
 70
     0
  3
Dotted
 72
    65
 73
     2
 40
1.0
 49
0.0
 74
     0
 49
-1.0
 74
     0
  0
LTYPE
  5
41
330
5
100
AcDbSymbolTableRecord
100
AcDbLinetypeTableRecord
  2
DOT_CENTER
 70
     0
  3
Dot_Center
 72
    65
 73
     4
 40
14.0
 49
12.0
 74
     0
 49
-1.0
 74
     0
 49
0.0
 74
     0
 49
-1.0
 74
     0
  0
LTYPE
  5
42
330
5
100
AcDbSymbolTableRecord
100
AcDbLinetypeTableRecord
  2
LONG_DASHED
 70
     0
  3
Long_Dashed
 72
    65
 73
     2
 40
15.0
 49
10.0
 74
     0
 49
-5.0
 74
     0
  0
LTYPE
  5
43
330
5
100
AcDbSymbolTableRecord
100
AcDbLinetypeTableRecord
  2
DASH_CENTER
 70
     0
  3
Dash_Center
 72
    65
 73
     4
 40
14.0
 49
11.0
 74
     0
 49
-1.0
 74
     0
 49
1.0
 74
     0
 49
-1.0
 74
     0
  0
LTYPE
  5
44
330
5
100
AcDbSymbolTableRecord
100
AcDbLinetypeTableRecord
  2
PHANTOM
 70
     0
  3
Phantom
 72
    65
 73
     6
 40
13.0
 49
10.0
 74
     0
 49
-1.0
 74
     0
 49
0.0
 74
     0
 49
-1.0
 74
     0
 49
0.0
 74
     0
 49
-1.0
 74
     0
  0
LTYPE
  5
45
330
5
100
AcDbSymbolTableRecord
100
AcDbLinetypeTableRecord
  2
CENTER_DASH_DASH
 70
     0
  3
Center_Dash_Dash
 72
    65
 73
     6
 40
14.0
 49
9.0
 74
     0
 49
-1.0
 74
     0
 49
1.0
 74
     0
 49
-1.0
 74
     0
 49
1.0
 74
     0
 49
-1.0
 74
     0
  0
ENDTAB
  0
TABLE
  2
LAYER
  5
2
330
0
100
AcDbSymbolTable
 70
     3
  0
LAYER
  5
10
330
2
100
AcDbSymbolTableRecord
100
AcDbLayerTableRecord
  2
0
 70
     0
 62
     7
  6
Continuous
370
    -3
390
F
  0
LAYER
  5
46
330
2
100
AcDbSymbolTableRecord
100
AcDbLayerTableRecord
  2
1
 70
     0
 62
     7
  6
Continuous
370
    -3
390
F
  0
LAYER
  5
47
330
2
100
AcDbSymbolTableRecord
100
AcDbLayerTableRecord
  2
作図レイヤー
 70
     0
 62
     7
  6
Continuous
370
    -3
390
F
  0
ENDTAB
  0
TABLE
  2
STYLE
  5
3
330
0
100
AcDbSymbolTable
 70
     3
  0
STYLE
  5
11
330
3
100
AcDbSymbolTableRecord
100
AcDbTextStyleTableRecord
  2
Standard
 70
     0
 40
0.0
 41
1.0
 50
0.0
 71
     0
 42
0.2
  3
txt
  4

  0
STYLE
  5
1C8
330
3
100
AcDbSymbolTableRecord
100
AcDbTextStyleTableRecord
  2
CONVERTER_11
 70
     0
 40
0.0
 41
0.89
 50
0.0
 71
     0
 42
0.2
  3
MS Mincho.ttf
  4

1001
ACAD
1000
MS Mincho
1071
    32785
  0
STYLE
  5
3F4
330
3
100
AcDbSymbolTableRecord
100
AcDbTextStyleTableRecord
  2
CONVERTER_12
 70
     0
 40
0.0
 41
0.9
 50
0.0
 71
     0
 42
0.2
  3
txt.shx
  4

  0
ENDTAB
  0
TABLE
  2
VIEW
  5
6
330
0
100
AcDbSymbolTable
 70
     0
  0
ENDTAB
  0
TABLE
  2
UCS
  5
7
330
0
100
AcDbSymbolTable
 70
     0
  0
ENDTAB
  0
TABLE
  2
APPID
  5
9
330
0
100
AcDbSymbolTable
 70
     1
  0
APPID
  5
12
330
9
100
AcDbSymbolTableRecord
100
AcDbRegAppTableRecord
  2
ACAD
 70
     0
  0
ENDTAB
  0
TABLE
  2
DIMSTYLE
  5
A
330
0
100
AcDbSymbolTable
 70
    16
100
AcDbDimStyleTable
  0
DIMSTYLE
105
27
330
A
100
AcDbSymbolTableRecord
100
AcDbDimStyleTableRecord
  2
Standard
 70
     0
178
     0
340
11
  0
DIMSTYLE
105
40A
102
{ACAD_REACTORS
330
40B
102
}
330
A
100
AcDbSymbolTableRecord
100
AcDbDimStyleTableRecord
  2
ME10_DIM_10
 70
     0
 41
14.0
 42
0.0
 44
4.0
 73
     0
 74
     0
 77
     1
 78
     8
140
14.0
147
4.0
172
     1
173
     1
174
     1
175
     1
176
     2
177
     2
271
     2
178
     7
271
     2
340
3F4
  0
DIMSTYLE
105
415
102
{ACAD_REACTORS
330
416
102
}
330
A
100
AcDbSymbolTableRecord
100
AcDbDimStyleTableRecord
  2
ME10_DIM_11
 70
     0
 41
14.0
 42
0.0
 44
4.0
 73
     0
 74
     0
 77
     1
 78
     8
140
14.0
147
4.0
172
     1
173
     1
174
     1
175
     1
176
     2
177
     2
271
     2
178
     7
271
     2
340
3F4
  0
DIMSTYLE
105
420
102
{ACAD_REACTORS
330
421
102
}
330
A
100
AcDbSymbolTableRecord
100
AcDbDimStyleTableRecord
  2
ME10_DIM_12
 70
     0
 41
14.0
 42
0.0
 44
4.0
 73
     0
 74
     0
 77
     1
 78
     8
140
14.0
147
4.0
172
     1
173
     1
174
     1
175
     1
176
     2
177
     2
271
     2
178
     7
271
     2
340
3F4
  0
DIMSTYLE
105
42C
102
{ACAD_REACTORS
330
42D
102
}
330
A
100
AcDbSymbolTableRecord
100
AcDbDimStyleTableRecord
  2
ME10_DIM_13
 70
     0
  3
{\Fgdt;n}<>
 41
14.0
 42
0.0
 44
4.0
 73
     0
 74
     0
 77
     1
 78
     8
140
14.0
147
4.0
172
     1
173
     1
174
     1
175
     1
176
     2
177
     2
271
     2
178
     7
271
     2
340
3F4
  0
DIMSTYLE
105
437
102
{ACAD_REACTORS
330
438
102
}
330
A
100
AcDbSymbolTableRecord
100
AcDbDimStyleTableRecord
  2
ME10_DIM_14
 70
     0
 41
14.0
 42
0.0
 44
4.0
 73
     0
 74
     0
 77
     1
 78
     8
140
14.0
147
4.0
172
     1
173
     1
174
     1
175
     1
176
     2
177
     2
271
     2
178
     7
271
     2
340
1C8
  0
DIMSTYLE
105
442
102
{ACAD_REACTORS
330
443
102
}
330
A
100
AcDbSymbolTableRecord
100
AcDbDimStyleTableRecord
  2
ME10_DIM_15
 70
     0
 41
14.0
 42
0.0
 44
4.0
 73
     0
 74
     0
 77
     1
 78
     8
140
14.0
147
4.0
172
     1
173
     1
174
     1
175
     1
176
     2
177
     2
271
     2
178
     7
271
     2
340
3F4
  0
DIMSTYLE
105
44D
102
{ACAD_REACTORS
330
44E
102
}
330
A
100
AcDbSymbolTableRecord
100
AcDbDimStyleTableRecord
  2
ME10_DIM_16
 70
     0
 41
14.0
 42
0.0
 44
4.0
 73
     0
 74
     0
 77
     1
 78
     8
140
14.0
147
4.0
172
     1
173
     1
174
     1
175
     1
176
     2
177
     2
271
     2
178
     7
271
     2
340
3F4
  0
DIMSTYLE
105
458
102
{ACAD_REACTORS
330
459
102
}
330
A
100
AcDbSymbolTableRecord
100
AcDbDimStyleTableRecord
  2
ME10_DIM_17
 70
     0
  3
最大<>
 41
14.0
 42
0.0
 44
4.0
 73
     0
 74
     0
 77
     1
 78
     8
140
14.0
147
4.0
172
     1
173
     1
174
     1
175
     1
176
     2
177
     2
271
     2
178
     7
271
     2
340
1C8
  0
DIMSTYLE
105
463
102
{ACAD_REACTORS
330
464
102
}
330
A
100
AcDbSymbolTableRecord
100
AcDbDimStyleTableRecord
  2
ME10_DIM_18
 70
     0
  3
最小<>
 41
14.0
 42
0.0
 44
4.0
 73
     0
 74
     0
 77
     1
 78
     8
140
14.0
147
4.0
172
     1
173
     1
174
     1
175
     1
176
     2
177
     2
271
     2
178
     7
271
     2
340
1C8
  0
DIMSTYLE
105
46E
102
{ACAD_REACTORS
330
46F
102
}
330
A
100
AcDbSymbolTableRecord
100
AcDbDimStyleTableRecord
  2
ME10_DIM_19
 70
     0
 41
14.0
 42
0.0
 44
4.0
 73
     0
 74
     0
 77
     1
 78
     8
140
14.0
147
4.0
172
     1
173
     1
174
     1
175
     1
176
     2
177
     2
271
     2
178
     7
271
     2
340
3F4
  0
DIMSTYLE
105
479
102
{ACAD_REACTORS
330
47A
102
}
330
A
100
AcDbSymbolTableRecord
100
AcDbDimStyleTableRecord
  2
ME10_DIM_20
 70
     0
 41
14.0
 42
0.0
 44
4.0
 73
     0
 74
     0
 77
     1
 78
     8
140
14.0
147
4.0
172
     1
173
     1
174
     1
175
     1
176
     2
177
     2
271
     2
178
     7
271
     2
340
3F4
  0
DIMSTYLE
105
484
102
{ACAD_REACTORS
330
485
102
}
330
A
100
AcDbSymbolTableRecord
100
AcDbDimStyleTableRecord
  2
ME10_DIM_21
 70
     0
 41
14.0
 42
0.0
 44
4.0
 73
     0
 74
     0
 77
     1
 78
     8
140
14.0
147
4.0
172
     1
173
     1
174
     1
175
     1
176
     2
177
     2
271
     2
178
     7
271
     2
340
3F4
  0
DIMSTYLE
105
491
102
{ACAD_REACTORS
330
492
102
}
330
A
100
AcDbSymbolTableRecord
100
AcDbDimStyleTableRecord
  2
ME10_DIM_22
 70
     0
 41
14.0
 42
0.0
 44
4.0
 73
     0
 74
     0
 77
     1
 78
     8
140
14.0
147
4.0
172
     1
173
     1
174
     1
175
     1
176
     2
177
     2
271
     2
178
     7
271
     2
340
3F4
  0
DIMSTYLE
105
49C
102
{ACAD_REACTORS
330
49D
102
}
330
A
100
AcDbSymbolTableRecord
100
AcDbDimStyleTableRecord
  2
ME10_DIM_23
 70
     0
 41
14.0
 42
0.0
 44
4.0
 73
     0
 74
     0
 77
     1
 78
     8
140
14.0
147
4.0
172
     1
173
     1
174
     1
175
     1
176
     2
177
     2
271
     2
178
     7
271
     2
340
3F4
  0
DIMSTYLE
105
4A7
102
{ACAD_REACTORS
330
4A8
102
}
330
A
100
AcDbSymbolTableRecord
100
AcDbDimStyleTableRecord
  2
ME10_DIM_24
 70
     0
 41
14.0
 42
0.0
 44
4.0
 73
     0
 74
     0
 77
     1
 78
     8
140
14.0
147
4.0
172
     1
173
     1
174
     1
175
     1
176
     2
177
     2
271
     2
178
     7
271
     2
340
3F4
  0
ENDTAB
  0
TABLE
  2
BLOCK_RECORD
  5
1
330
0
100
AcDbSymbolTable
 70
    41
  0
BLOCK_RECORD
  5
1F
330
1
100
AcDbSymbolTableRecord
100
AcDbBlockTableRecord
  2
*Model_Space
340
22
  0
BLOCK_RECORD
  5
1B
330
1
100
AcDbSymbolTableRecord
100
AcDbBlockTableRecord
  2
*Paper_Space
340
1E
  0
BLOCK_RECORD
  5
23
330
1
100
AcDbSymbolTableRecord
100
AcDbBlockTableRecord
  2
*Paper_Space0
340
26
  0
BLOCK_RECORD
  5
48
330
1
100
AcDbSymbolTableRecord
100
AcDbBlockTableRecord
  2
30-108K__1
340
0
102
{BLKREFS
331
5E
102
}
  0
BLOCK_RECORD
  5
4B
330
1
100
AcDbSymbolTableRecord
100
AcDbBlockTableRecord
  2
78-78K__2
340
0
102
{BLKREFS
331
5F
102
}
  0
BLOCK_RECORD
  5
4E
330
1
100
AcDbSymbolTableRecord
100
AcDbBlockTableRecord
  2
36-99K__3
340
0
102
{BLKREFS
331
60
102
}
  0
BLOCK_RECORD
  5
51
330
1
100
AcDbSymbolTableRecord
100
AcDbBlockTableRecord
  2
03-47-50K__4
340
0
102
{BLKREFS
331
61
102
}
  0
BLOCK_RECORD
  5
54
330
1
100
AcDbSymbolTableRecord
100
AcDbBlockTableRecord
  2
35-6A-8K__5
340
0
102
{BLKREFS
331
62
102
}
  0
BLOCK_RECORD
  5
57
330
1
100
AcDbSymbolTableRecord
100
AcDbBlockTableRecord
  2
78-3AK__6
340
0
102
{BLKREFS
331
63
102
}
  0
BLOCK_RECORD
  5
5A
330
1
100
AcDbSymbolTableRecord
100
AcDbBlockTableRecord
  2
32-3K__7
340
0
102
{BLKREFS
331
64
102
}
  0
BLOCK_RECORD
  5
5D
330
1
100
AcDbSymbolTableRecord
100
AcDbBlockTableRecord
  2
U3-48F-50__8
340
0
102
{BLKREFS
331
A4
102
}
  0
BLOCK_RECORD
  5
67
330
1
100
AcDbSymbolTableRecord
100
AcDbBlockTableRecord
  2
開示A4
340
0
102
{BLKREFS
331
A5
102
}
  0
BLOCK_RECORD
  5
6A
330
1
100
AcDbSymbolTableRecord
100
AcDbBlockTableRecord
  2
84-293
340
0
102
{BLKREFS
331
A6
102
}
  0
BLOCK_RECORD
  5
6D
330
1
100
AcDbSymbolTableRecord
100
AcDbBlockTableRecord
  2
27-014-0323
340
0
102
{BLKREFS
331
A7
102
}
  0
BLOCK_RECORD
  5
70
330
1
100
AcDbSymbolTableRecord
100
AcDbBlockTableRecord
  2
37-302
340
0
102
{BLKREFS
331
A8
102
}
  0
BLOCK_RECORD
  5
73
330
1
100
AcDbSymbolTableRecord
100
AcDbBlockTableRecord
  2
K170-0
340
0
102
{BLKREFS
331
A9
102
}
  0
BLOCK_RECORD
  5
76
330
1
100
AcDbSymbolTableRecord
100
AcDbBlockTableRecord
  2
30-108K__9
340
0
102
{BLKREFS
331
8C
102
}
  0
BLOCK_RECORD
  5
79
330
1
100
AcDbSymbolTableRecord
100
AcDbBlockTableRecord
  2
78-78K__10
340
0
102
{BLKREFS
331
8D
102
}
  0
BLOCK_RECORD
  5
7C
330
1
100
AcDbSymbolTableRecord
100
AcDbBlockTableRecord
  2
36-99K__11
340
0
102
{BLKREFS
331
8E
102
}
  0
BLOCK_RECORD
  5
7F
330
1
100
AcDbSymbolTableRecord
100
AcDbBlockTableRecord
  2
35-6A-8K__12
340
0
102
{BLKREFS
331
8F
102
}
  0
BLOCK_RECORD
  5
82
330
1
100
AcDbSymbolTableRecord
100
AcDbBlockTableRecord
  2
78-3AK__13
340
0
102
{BLKREFS
331
90
102
}
  0
BLOCK_RECORD
  5
85
330
1
100
AcDbSymbolTableRecord
100
AcDbBlockTableRecord
  2
32-3K__14
340
0
102
{BLKREFS
331
91
102
}
  0
BLOCK_RECORD
  5
88
330
1
100
AcDbSymbolTableRecord
100
AcDbBlockTableRecord
  2
03-47-50K__15
340
0
102
{BLKREFS
331
92
102
}
  0
BLOCK_RECORD
  5
8B
330
1
100
AcDbSymbolTableRecord
100
AcDbBlockTableRecord
  2
U3-48F-50__16
340
0
102
{BLKREFS
331
AA
102
}
  0
BLOCK_RECORD
  5
95
330
1
100
AcDbSymbolTableRecord
100
AcDbBlockTableRecord
  2
30-225B-M1K
340
0
102
{BLKREFS
331
9F
102
}
  0
BLOCK_RECORD
  5
98
330
1
100
AcDbSymbolTableRecord
100
AcDbBlockTableRecord
  2
61-142A-16K
340
0
102
{BLKREFS
331
A0
102
}
  0
BLOCK_RECORD
  5
9B
330
1
100
AcDbSymbolTableRecord
100
AcDbBlockTableRecord
  2
32-215K
340
0
102
{BLKREFS
331
A1
102
}
  0
BLOCK_RECORD
  5
9E
330
1
100
AcDbSymbolTableRecord
100
AcDbBlockTableRecord
  2
61-142BX1B
340
0
102
{BLKREFS
331
AB
102
}
  0
BLOCK_RECORD
  5
401
330
1
100
AcDbSymbolTableRecord
100
AcDbBlockTableRecord
  2
*D26
340
0
  0
BLOCK_RECORD
  5
40C
330
1
100
AcDbSymbolTableRecord
100
AcDbBlockTableRecord
  2
*D27
340
0
  0
BLOCK_RECORD
  5
417
330
1
100
AcDbSymbolTableRecord
100
AcDbBlockTableRecord
  2
*D28
340
0
  0
BLOCK_RECORD
  5
422
330
1
100
AcDbSymbolTableRecord
100
AcDbBlockTableRecord
  2
*D29
340
0
  0
BLOCK_RECORD
  5
42E
330
1
100
AcDbSymbolTableRecord
100
AcDbBlockTableRecord
  2
*D30
340
0
  0
BLOCK_RECORD
  5
439
330
1
100
AcDbSymbolTableRecord
100
AcDbBlockTableRecord
  2
*D31
340
0
  0
BLOCK_RECORD
  5
444
330
1
100
AcDbSymbolTableRecord
100
AcDbBlockTableRecord
  2
*D32
340
0
  0
BLOCK_RECORD
  5
44F
330
1
100
AcDbSymbolTableRecord
100
AcDbBlockTableRecord
  2
*D33
340
0
  0
BLOCK_RECORD
  5
45A
330
1
100
AcDbSymbolTableRecord
100
AcDbBlockTableRecord
  2
*D34
340
0
  0
BLOCK_RECORD
  5
465
330
1
100
AcDbSymbolTableRecord
100
AcDbBlockTableRecord
  2
*D35
340
0
  0
BLOCK_RECORD
  5
470
330
1
100
AcDbSymbolTableRecord
100
AcDbBlockTableRecord
  2
*D36
340
0
  0
BLOCK_RECORD
  5
47B
330
1
100
AcDbSymbolTableRecord
100
AcDbBlockTableRecord
  2
*D37
340
0
  0
BLOCK_RECORD
  5
486
330
1
100
AcDbSymbolTableRecord
100
AcDbBlockTableRecord
  2
*D38
340
0
  0
BLOCK_RECORD
  5
493
330
1
100
AcDbSymbolTableRecord
100
AcDbBlockTableRecord
  2
*D39
340
0
  0
BLOCK_RECORD
  5
49E
330
1
100
AcDbSymbolTableRecord
100
AcDbBlockTableRecord
  2
*D40
340
0
  0
ENDTAB
  0
ENDSEC
  0
SECTION
  2
BLOCKS
  0
BLOCK
  5
20
330
1F
100
AcDbEntity
  8
0
100
AcDbBlockBegin
  2
*Model_Space
 70
     0
 10
0.0
 20
0.0
 30
0.0
  3
*Model_Space
  1

  0
ENDBLK
  5
21
330
1F
100
AcDbEntity
  8
0
100
AcDbBlockEnd
  0
BLOCK
  5
1C
330
1B
100
AcDbEntity
 67
     1
  8
0
100
AcDbBlockBegin
  2
*Paper_Space
 70
     0
 10
0.0
 20
0.0
 30
0.0
  3
*Paper_Space
  1

  0
ENDBLK
  5
1D
330
1B
100
AcDbEntity
 67
     1
  8
0
100
AcDbBlockEnd
  0
BLOCK
  5
24
330
23
100
AcDbEntity
  8
0
100
AcDbBlockBegin
  2
*Paper_Space0
 70
     0
 10
0.0
 20
0.0
 30
0.0
  3
*Paper_Space0
  1

  0
ENDBLK
  5
25
330
23
100
AcDbEntity
  8
0
100
AcDbBlockEnd
  0
BLOCK
  5
49
330
48
100
AcDbEntity
  8
0
100
AcDbBlockBegin
  2
30-108K__1
 70
     0
 10
435.8714300220256
 20
733.3495923137953
 30
0.0
  3
30-108K__1
  1

  0
LINE
  5
AC
330
48
100
AcDbEntity
  8
1
  6
Continuous
 62
     7
100
AcDbLine
 10
379.7267679536449
 20
783.3495897861023
 30
0.0
 11
380.7267679536449
 21
784.3495897861023
 31
0.0
  0
LINE
  5
AD
330
48
100
AcDbEntity
  8
1
  6
Continuous
 62
     7
100
AcDbLine
 10
380.7267679536449
 20
796.8495897861023
 30
0.0
 11
380.7267679536449
 21
784.3495897861023
 31
0.0
  0
LINE
  5
AE
330
48
100
AcDbEntity
  8
1
  6
Continuous
 62
     7
100
AcDbLine
 10
379.7267679536449
 20
783.3495897861023
 30
0.0
 11
362.7267679536449
 21
783.3495897861023
 31
0.0
  0
LINE
  5
AF
330
48
100
AcDbEntity
  8
1
  6
Continuous
 62
     7
100
AcDbLine
 10
361.7267679536449
 20
784.3495897861023
 30
0.0
 11
362.7267679536449
 21
783.3495897861023
 31
0.0
  0
LINE
  5
B0
330
48
100
AcDbEntity
  8
1
  6
Continuous
 62
     7
100
AcDbLine
 10
361.7267679536449
 20
784.3495897861023
 30
0.0
 11
361.7267679536449
 21
796.8495897861023
 31
0.0
  0
LINE
  5
B1
330
48
100
AcDbEntity
  8
0
  6
Continuous
 62
     7
100
AcDbLine
 10
361.7267679536449
 20
784.3495897861023
 30
0.0
 11
380.7267679536449
 21
784.3495897861023
 31
0.0
  0
LINE
  5
B2
330
48
100
AcDbEntity
  8
1
  6
Continuous
 62
     2
100
AcDbLine
 10
361.8710943000287
 20
785.3495897861023
 30
0.0
 11
361.8710943000287
 21
795.8495897861023
 31
0.0
  0
LINE
  5
B3
330
48
100
AcDbEntity
  8
1
  6
Continuous
 62
     2
100
AcDbLine
 10
369.5771102658089
 20
785.3495897861023
 30
0.0
 11
369.5771102658089
 21
795.8495897861023
 31
0.0
  0
LINE
  5
B4
330
48
100
AcDbEntity
  8
1
  6
Continuous
 62
     2
100
AcDbLine
 10
367.977576592051
 20
785.3495897861023
 30
0.0
 11
367.977576592051
 21
795.8495897861023
 31
0.0
  0
LINE
  5
B5
330
48
100
AcDbEntity
  8
1
  6
Continuous
 62
     2
100
AcDbLine
 10
366.4767679536449
 20
785.3495897861023
 30
0.0
 11
366.4767679536449
 21
795.8495897861023
 31
0.0
  0
LINE
  5
B6
330
48
100
AcDbEntity
  8
1
  6
Continuous
 62
     2
100
AcDbLine
 10
365.1202856616226
 20
785.3495897861023
 30
0.0
 11
365.1202856616226
 21
795.8495897861023
 31
0.0
  0
LINE
  5
B7
330
48
100
AcDbEntity
  8
1
  6
Continuous
 62
     2
100
AcDbLine
 10
363.9493457440144
 20
785.3495897861023
 30
0.0
 11
363.9493457440144
 21
795.8495897861023
 31
0.0
  0
LINE
  5
B8
330
48
100
AcDbEntity
  8
1
  6
Continuous
 62
     2
100
AcDbLine
 10
362.9995266176927
 20
785.3495897861023
 30
0.0
 11
362.9995266176927
 21
795.8495897861023
 31
0.0
  0
LINE
  5
B9
330
48
100
AcDbEntity
  8
1
  6
Continuous
 62
     2
100
AcDbLine
 10
362.2996880561786
 20
785.3495897861023
 30
0.0
 11
362.2996880561786
 21
795.8495897861023
 31
0.0
  0
LINE
  5
BA
330
48
100
AcDbEntity
  8
1
  6
Continuous
 62
     2
100
AcDbLine
 10
380.5824416072608
 20
795.8495897861023
 30
0.0
 11
380.5824416072608
 21
785.3495897861023
 31
0.0
  0
LINE
  5
BB
330
48
100
AcDbEntity
  8
1
  6
Continuous
 62
     2
100
AcDbLine
 10
380.1538478511109
 20
795.8495897861023
 30
0.0
 11
380.1538478511109
 21
785.3495897861023
 31
0.0
  0
LINE
  5
BC
330
48
100
AcDbEntity
  8
1
  6
Continuous
 62
     2
100
AcDbLine
 10
379.454009289597
 20
795.8495897861023
 30
0.0
 11
379.454009289597
 21
785.3495897861023
 31
0.0
  0
LINE
  5
BD
330
48
100
AcDbEntity
  8
1
  6
Continuous
 62
     2
100
AcDbLine
 10
378.5041901632751
 20
795.8495897861023
 30
0.0
 11
378.5041901632751
 21
785.3495897861023
 31
0.0
  0
LINE
  5
BE
330
48
100
AcDbEntity
  8
1
  6
Continuous
 62
     2
100
AcDbLine
 10
377.3332502456669
 20
795.8495897861023
 30
0.0
 11
377.3332502456669
 21
785.3495897861023
 31
0.0
  0
LINE
  5
BF
330
48
100
AcDbEntity
  8
1
  6
Continuous
 62
     2
100
AcDbLine
 10
375.9767679536449
 20
795.8495897861023
 30
0.0
 11
375.9767679536449
 21
785.3495897861023
 31
0.0
  0
LINE
  5
C0
330
48
100
AcDbEntity
  8
1
  6
Continuous
 62
     2
100
AcDbLine
 10
374.4759593152387
 20
795.8495897861023
 30
0.0
 11
374.4759593152387
 21
785.3495897861023
 31
0.0
  0
LINE
  5
C1
330
48
100
AcDbEntity
  8
1
  6
Continuous
 62
     2
100
AcDbLine
 10
372.8764256414806
 20
795.8495897861023
 30
0.0
 11
372.8764256414806
 21
785.3495897861023
 31
0.0
  0
LINE
  5
C2
330
48
100
AcDbEntity
  8
1
  6
Continuous
 62
     2
100
AcDbLine
 10
685.3714289306225
 20
379.6072063194582
 30
0.0
 11
674.8714289306225
 21
379.6072063194582
 31
0.0
  0
LINE
  5
C3
330
48
100
AcDbEntity
  8
1
  6
Continuous
 62
     2
100
AcDbLine
 10
685.3714289306225
 20
378.0076726457001
 30
0.0
 11
674.8714289306225
 21
378.0076726457001
 31
0.0
  0
LINE
  5
C4
330
48
100
AcDbEntity
  8
1
  6
Continuous
 62
     2
100
AcDbLine
 10
685.3714289306225
 20
376.5068640072939
 30
0.0
 11
674.8714289306225
 21
376.5068640072939
 31
0.0
  0
LINE
  5
C5
330
48
100
AcDbEntity
  8
1
  6
Continuous
 62
     2
100
AcDbLine
 10
685.3714289306225
 20
375.1503817152719
 30
0.0
 11
674.8714289306225
 21
375.1503817152719
 31
0.0
  0
LINE
  5
C6
330
48
100
AcDbEntity
  8
1
  6
Continuous
 62
     2
100
AcDbLine
 10
685.3714289306225
 20
373.9794417976637
 30
0.0
 11
674.8714289306225
 21
373.9794417976637
 31
0.0
  0
LINE
  5
C7
330
48
100
AcDbEntity
  8
1
  6
Continuous
 62
     2
100
AcDbLine
 10
685.3714289306225
 20
373.0296226713418
 30
0.0
 11
674.8714289306225
 21
373.0296226713418
 31
0.0
  0
LINE
  5
C8
330
48
100
AcDbEntity
  8
1
  6
Continuous
 62
     2
100
AcDbLine
 10
685.3714289306225
 20
372.3297841098279
 30
0.0
 11
674.8714289306225
 21
372.3297841098279
 31
0.0
  0
LINE
  5
C9
330
48
100
AcDbEntity
  8
1
  6
Continuous
 62
     2
100
AcDbLine
 10
685.3714289306225
 20
371.901190353678
 30
0.0
 11
674.8714289306225
 21
371.901190353678
 31
0.0
  0
LINE
  5
CA
330
48
100
AcDbEntity
  8
1
  6
Continuous
 62
     2
100
AcDbLine
 10
674.8714289306225
 20
390.1839439047602
 30
0.0
 11
685.3714289306225
 21
390.1839439047602
 31
0.0
  0
LINE
  5
CB
330
48
100
AcDbEntity
  8
1
  6
Continuous
 62
     2
100
AcDbLine
 10
674.8714289306225
 20
389.4841053432461
 30
0.0
 11
685.3714289306225
 21
389.4841053432461
 31
0.0
  0
LINE
  5
CC
330
48
100
AcDbEntity
  8
1
  6
Continuous
 62
     2
100
AcDbLine
 10
674.8714289306225
 20
388.5342862169244
 30
0.0
 11
685.3714289306225
 21
388.5342862169244
 31
0.0
  0
LINE
  5
CD
330
48
100
AcDbEntity
  8
1
  6
Continuous
 62
     2
100
AcDbLine
 10
674.8714289306225
 20
387.3633462993162
 30
0.0
 11
685.3714289306225
 21
387.3633462993162
 31
0.0
  0
LINE
  5
CE
330
48
100
AcDbEntity
  8
1
  6
Continuous
 62
     2
100
AcDbLine
 10
674.8714289306225
 20
386.0068640072939
 30
0.0
 11
685.3714289306225
 21
386.0068640072939
 31
0.0
  0
LINE
  5
CF
330
48
100
AcDbEntity
  8
1
  6
Continuous
 62
     2
100
AcDbLine
 10
674.8714289306225
 20
384.5060553688878
 30
0.0
 11
685.3714289306225
 21
384.5060553688878
 31
0.0
  0
LINE
  5
D0
330
48
100
AcDbEntity
  8
1
  6
Continuous
 62
     2
100
AcDbLine
 10
674.8714289306225
 20
382.9065216951299
 30
0.0
 11
685.3714289306225
 21
382.9065216951299
 31
0.0
  0
LINE
  5
D1
330
48
100
AcDbEntity
  8
1
  6
Continuous
 62
     2
100
AcDbLine
 10
674.8714289306225
 20
390.6125376609101
 30
0.0
 11
685.3714289306225
 21
390.6125376609101
 31
0.0
  0
LINE
  5
D2
330
48
100
AcDbEntity
  8
0
  6
Continuous
 62
     7
100
AcDbLine
 10
673.8714289306225
 20
390.7568640072939
 30
0.0
 11
673.8714289306225
 21
371.7568640072939
 31
0.0
  0
LINE
  5
D3
330
48
100
AcDbEntity
  8
1
  6
Continuous
 62
     7
100
AcDbLine
 10
673.8714289306225
 20
390.7568640072939
 30
0.0
 11
686.3714289306225
 21
390.7568640072939
 31
0.0
  0
LINE
  5
D4
330
48
100
AcDbEntity
  8
1
  6
Continuous
 62
     7
100
AcDbLine
 10
673.8714289306225
 20
390.7568640072939
 30
0.0
 11
672.8714289306225
 21
389.7568640072939
 31
0.0
  0
LINE
  5
D5
330
48
100
AcDbEntity
  8
1
  6
Continuous
 62
     7
100
AcDbLine
 10
672.8714289306225
 20
372.7568640072939
 30
0.0
 11
672.8714289306225
 21
389.7568640072939
 31
0.0
  0
LINE
  5
D6
330
48
100
AcDbEntity
  8
1
  6
Continuous
 62
     7
100
AcDbLine
 10
686.3714289306225
 20
371.7568640072939
 30
0.0
 11
673.8714289306225
 21
371.7568640072939
 31
0.0
  0
LINE
  5
D7
330
48
100
AcDbEntity
  8
1
  6
Continuous
 62
     7
100
AcDbLine
 10
672.8714289306225
 20
372.7568640072939
 30
0.0
 11
673.8714289306225
 21
371.7568640072939
 31
0.0
  0
CIRCLE
  5
D8
330
48
100
AcDbEntity
  8
1
  6
Continuous
 62
     7
100
AcDbCircle
 10
371.226769883597
 20
381.2568615230566
 30
0.0
 40
9.499999999999835
  0
CIRCLE
  5
D9
330
48
100
AcDbEntity
  8
1
  6
Continuous
 62
     7
100
AcDbCircle
 10
371.226769883597
 20
381.2568615230566
 30
0.0
 40
8.499999999999828
  0
CIRCLE
  5
DA
330
48
100
AcDbEntity
  8
1
  6
Continuous
 62
     7
100
AcDbCircle
 10
371.226769883597
 20
381.2568615230566
 30
0.0
 40
5.499999999999964
  0
ENDBLK
  5
4A
330
48
100
AcDbEntity
  8
0
100
AcDbBlockEnd
  0
BLOCK
  5
4C
330
4B
100
AcDbEntity
  8
0
100
AcDbBlockBegin
  2
78-78K__2
 70
     0
 10
391.7214300220257
 20
640.0495923137952
 30
0.0
  3
78-78K__2
  1

  0
LINE
  5
DB
330
4B
100
AcDbEntity
  8
1
  6
Continuous
 62
     7
100
AcDbLine
 10
375.9847496369765
 20
379.2860420193405
 30
0.0
 11
376.3081074739329
 21
379.1521028194069
 31
0.0
  0
LINE
  5
DC
330
4B
100
AcDbEntity
  8
1
  6
Continuous
 62
     7
100
AcDbLine
 10
373.1975897332414
 20
376.4988820915697
 30
0.0
 11
373.3315289359635
 21
376.1755242557682
 31
0.0
  0
ARC
  5
DD
330
4B
100
AcDbEntity
  8
1
  6
Continuous
 62
     7
100
AcDbCircle
 10
371.2267700360454
 20
381.2568616755049
 30
0.0
 40
5.150000000000034
100
AcDbArc
 50
337.5000002470524
 51
292.5000002470516
  0
ENDBLK
  5
4D
330
4B
100
AcDbEntity
  8
0
100
AcDbBlockEnd
  0
BLOCK
  5
4F
330
4E
100
AcDbEntity
  8
0
100
AcDbBlockBegin
  2
36-99K__3
 70
     0
 10
391.1214300220256
 20
655.3495923137953
 30
0.0
  3
36-99K__3
  1

  0
LINE
  5
DE
330
4E
100
AcDbEntity
  8
1
  6
Continuous
 62
     7
100
AcDbLine
 10
367.9559267727021
 20
377.2789116309751
 30
0.0
 11
375.2047197756785
 21
384.5277046339515
 31
0.0
  0
LINE
  5
DF
330
4E
100
AcDbEntity
  8
1
  6
Continuous
 62
     7
100
AcDbLine
 10
367.2488199915155
 20
377.9860184121617
 30
0.0
 11
374.4976129944919
 21
385.234811415138
 31
0.0
  0
ARC
  5
E0
330
4E
100
AcDbEntity
  8
1
  6
Continuous
 62
     7
100
AcDbCircle
 10
371.226769883597
 20
381.2568615230566
 30
0.0
 40
4.249999999999955
100
AcDbArc
 50
51.75632703058851
 51
218.2436729694117
  0
ARC
  5
E1
330
4E
100
AcDbEntity
  8
1
  6
Continuous
 62
     7
100
AcDbCircle
 10
371.226769883597
 20
381.2568615230566
 30
0.0
 40
4.250000000000025
100
AcDbArc
 50
231.7563270305873
 51
38.24367296941245
  0
ENDBLK
  5
50
330
4E
100
AcDbEntity
  8
0
100
AcDbBlockEnd
  0
BLOCK
  5
52
330
51
100
AcDbEntity
  8
0
100
AcDbBlockBegin
  2
03-47-50K__4
 70
     0
 10
365.121429700772
 20
759.7439273533998
 30
0.0
  3
03-47-50K__4
  1

  0
LINE
  5
E2
330
51
100
AcDbEntity
  8
1
  6
Continuous
 62
     7
100
AcDbLine
 10
190.9935925638088
 20
816.3369467477072
 30
0.0
 11
191.0160925638087
 21
816.2979756045371
 31
0.0
  0
LINE
  5
E3
330
51
100
AcDbEntity
  8
1
  6
Continuous
 62
     7
100
AcDbLine
 10
170.0160925638087
 20
816.297975604537
 30
0.0
 11
170.0385925638088
 21
816.3369467477072
 31
0.0
  0
LINE
  5
E4
330
51
100
AcDbEntity
  8
1
  6
Continuous
 62
     7
100
AcDbLine
 10
171.2005925638089
 20
818.3495897861027
 30
0.0
 11
189.8315925638091
 21
818.3495897861025
 31
0.0
  0
LINE
  5
E5
330
51
100
AcDbEntity
  8
1
  6
Continuous
 62
     7
100
AcDbLine
 10
380.5422676419144
 20
818.3495897861025
 30
0.0
 11
381.7042676419141
 21
818.3495897861025
 31
0.0
  0
LINE
  5
E6
330
51
100
AcDbEntity
  8
1
  6
Continuous
 62
     2
100
AcDbLine
 10
380.5422676419144
 20
818.3495897861025
 30
0.0
 11
380.5422676419144
 21
819.1495897861024
 31
0.0
  0
LINE
  5
E7
330
51
100
AcDbEntity
  8
1
  6
Continuous
 62
     7
100
AcDbLine
 10
361.9112676419142
 20
818.3495897861027
 30
0.0
 11
380.5422676419144
 21
818.3495897861025
 31
0.0
  0
LINE
  5
E8
330
51
100
AcDbEntity
  8
1
  6
Continuous
 62
     2
100
AcDbLine
 10
361.9112676419142
 20
818.3495897861027
 30
0.0
 11
361.9112676419142
 21
819.1495897861024
 31
0.0
  0
LINE
  5
E9
330
51
100
AcDbEntity
  8
1
  6
Continuous
 62
     7
100
AcDbLine
 10
360.7492676419141
 20
818.3495897861025
 30
0.0
 11
360.7492676419141
 21
816.3369467477072
 31
0.0
  0
LINE
  5
EA
330
51
100
AcDbEntity
  8
1
  6
Continuous
 62
     7
100
AcDbLine
 10
381.7042676419141
 20
818.3495897861025
 30
0.0
 11
381.7042676419141
 21
816.3369467477072
 31
0.0
  0
LINE
  5
EB
330
51
100
AcDbEntity
  8
1
  6
Continuous
 62
     7
100
AcDbLine
 10
360.7492676419141
 20
818.3495897861025
 30
0.0
 11
361.9112676419142
 21
818.3495897861027
 31
0.0
  0
LINE
  5
EC
330
51
100
AcDbEntity
  8
1
  6
Continuous
 62
     2
100
AcDbLine
 10
361.9112676419142
 20
829.8495897861023
 30
0.0
 11
361.9112676419142
 21
843.8495897861023
 31
0.0
  0
LINE
  5
ED
330
51
100
AcDbEntity
  8
1
  6
Continuous
 62
     7
100
AcDbLine
 10
360.7492676419141
 20
819.1495897861024
 30
0.0
 11
360.7492676419141
 21
818.3495897861025
 31
0.0
  0
LINE
  5
EE
330
51
100
AcDbEntity
  8
1
  6
Continuous
 62
     2
100
AcDbLine
 10
380.5422676419144
 20
818.3495897861025
 30
0.0
 11
381.7042676419141
 21
816.3369467477072
 31
0.0
  0
LINE
  5
EF
330
51
100
AcDbEntity
  8
1
  6
Continuous
 62
     7
100
AcDbLine
 10
381.7042676419141
 20
819.1495897861024
 30
0.0
 11
381.7042676419141
 21
818.3495897861025
 31
0.0
  0
LINE
  5
F0
330
51
100
AcDbEntity
  8
1
  6
Continuous
 62
     7
100
AcDbLine
 10
348.5853294226921
 20
807.0404957443751
 30
0.0
 11
335.8465531783386
 21
807.0404957443751
 31
0.0
  0
LINE
  5
F1
330
51
100
AcDbEntity
  8
1
  6
Continuous
 62
     7
100
AcDbLine
 10
360.7492676419141
 20
842.6875897861023
 30
0.0
 11
381.7042676419141
 21
842.6875897861023
 31
0.0
  0
LINE
  5
F2
330
51
100
AcDbEntity
  8
1
  6
Continuous
 62
     7
100
AcDbLine
 10
363.0950382965114
 20
373.1251342448047
 30
0.0
 11
336.3511026257428
 21
399.8690706074706
 31
0.0
  0
LINE
  5
F3
330
51
100
AcDbEntity
  8
1
  6
Continuous
 62
     7
100
AcDbLine
 10
350.8714282407022
 20
417.8756569721892
 30
0.0
 11
379.3584944741795
 21
389.3885900017178
 31
0.0
  0
LINE
  5
F4
330
51
100
AcDbEntity
  8
1
  6
Continuous
 62
     7
100
AcDbLine
 10
381.726767641914
 20
815.3495897861023
 30
0.0
 11
381.726767641914
 21
816.2979756045371
 31
0.0
  0
LINE
  5
F5
330
51
100
AcDbEntity
  8
1
  6
Continuous
 62
     7
100
AcDbLine
 10
355.7267676419141
 20
814.3495897861023
 30
0.0
 11
382.726767641914
 21
814.3495897861026
 31
0.0
  0
LINE
  5
F6
330
51
100
AcDbEntity
  8
1
  6
Continuous
 62
     7
100
AcDbLine
 10
382.726767641914
 20
796.8495897861023
 30
0.0
 11
381.226767641914
 21
796.8495897861023
 31
0.0
  0
LINE
  5
F7
330
51
100
AcDbEntity
  8
1
  6
Continuous
 62
     7
100
AcDbLine
 10
343.3714297007718
 20
796.8495897861023
 30
0.0
 11
357.7267676419141
 21
796.8495897861023
 31
0.0
  0
LINE
  5
F8
330
51
100
AcDbEntity
  8
1
  6
Continuous
 62
     7
100
AcDbLine
 10
382.726767641914
 20
796.8495897861023
 30
0.0
 11
382.726767641914
 21
814.3495897861026
 31
0.0
  0
LINE
  5
F9
330
51
100
AcDbEntity
  8
1
  6
Continuous
 62
     7
100
AcDbLine
 10
361.9112676419142
 20
843.8495897861023
 30
0.0
 11
380.5422676419144
 21
843.8495897861023
 31
0.0
  0
LINE
  5
FA
330
51
100
AcDbEntity
  8
1
  6
Continuous
 62
     7
100
AcDbLine
 10
381.7042676419141
 20
842.6875897861023
 30
0.0
 11
381.7042676419141
 21
829.8495897861023
 31
0.0
  0
LINE
  5
FB
330
51
100
AcDbEntity
  8
1
  6
Continuous
 62
     7
100
AcDbLine
 10
360.7492676419141
 20
842.6875897861023
 30
0.0
 11
361.9112676419142
 21
843.8495897861023
 31
0.0
  0
LINE
  5
FC
330
51
100
AcDbEntity
  8
1
  6
Continuous
 62
     7
100
AcDbLine
 10
360.726767641914
 20
816.297975604537
 30
0.0
 11
360.7492676419141
 21
816.3369467477072
 31
0.0
  0
LINE
  5
FD
330
51
100
AcDbEntity
  8
1
  6
Continuous
 62
     7
100
AcDbLine
 10
381.7042676419141
 20
842.6875897861023
 30
0.0
 11
380.5422676419144
 21
843.8495897861023
 31
0.0
  0
LINE
  5
FE
330
51
100
AcDbEntity
  8
1
  6
Continuous
 62
     2
100
AcDbLine
 10
380.5422676419144
 20
843.8495897861023
 30
0.0
 11
380.5422676419144
 21
829.8495897861023
 31
0.0
  0
LINE
  5
FF
330
51
100
AcDbEntity
  8
1
  6
Continuous
 62
     7
100
AcDbLine
 10
348.5853392133713
 20
811.3495897861023
 30
0.0
 11
324.371429700772
 21
811.3495897861021
 31
0.0
  0
LINE
  5
100
330
51
100
AcDbEntity
  8
1
  6
Continuous
 62
     7
100
AcDbLine
 10
324.371429700772
 20
811.3495897861021
 30
0.0
 11
324.371429700772
 21
796.8495897861023
 31
0.0
  0
LINE
  5
101
330
51
100
AcDbEntity
  8
1
  6
Continuous
 62
     7
100
AcDbLine
 10
360.726767641914
 20
816.297975604537
 30
0.0
 11
360.726767641914
 21
815.3495897861023
 31
0.0
  0
LINE
  5
102
330
51
100
AcDbEntity
  8
1
  6
Continuous
 62
     7
100
AcDbLine
 10
324.371429700772
 20
796.8495897861023
 30
0.0
 11
343.3714297007718
 21
796.8495897861023
 31
0.0
  0
LINE
  5
103
330
51
100
AcDbEntity
  8
1
  6
Continuous
 62
     7
100
AcDbLine
 10
381.7042676419141
 20
816.3369467477072
 30
0.0
 11
381.726767641914
 21
816.2979756045371
 31
0.0
  0
LINE
  5
104
330
51
100
AcDbEntity
  8
1
  6
Continuous
 62
     7
100
AcDbLine
 10
360.7492676419141
 20
842.6875897861023
 30
0.0
 11
360.7492676419141
 21
829.8495897861023
 31
0.0
  0
LINE
  5
105
330
51
100
AcDbEntity
  8
1
  6
Continuous
 62
     2
100
AcDbLine
 10
360.7492676419141
 20
816.3369467477072
 30
0.0
 11
361.9112676419142
 21
818.3495897861027
 31
0.0
  0
LINE
  5
106
330
51
100
AcDbEntity
  8
1
  6
Continuous
 62
     7
100
AcDbLine
 10
357.7267676419141
 20
796.8495897861023
 30
0.0
 11
381.226767641914
 21
796.8495897861023
 31
0.0
  0
LINE
  5
107
330
51
100
AcDbEntity
  8
1
  6
Continuous
 62
     7
100
AcDbLine
 10
328.271429700772
 20
796.8495897861023
 30
0.0
 11
328.371429700772
 21
796.8495897861023
 31
0.0
  0
LINE
  5
108
330
51
100
AcDbEntity
  8
1
  6
Continuous
 62
     7
100
AcDbLine
 10
686.3714282514029
 20
424.212201580947
 30
0.0
 11
686.3714282514029
 21
424.112201580947
 31
0.0
  0
LINE
  5
109
330
51
100
AcDbEntity
  8
1
  6
Continuous
 62
     7
100
AcDbLine
 10
686.3714282514029
 20
394.7568636398049
 30
0.0
 11
686.3714282514029
 21
371.256863639805
 31
0.0
  0
LINE
  5
10A
330
51
100
AcDbEntity
  8
1
  6
Continuous
 62
     2
100
AcDbLine
 10
705.8587852130078
 20
391.7343636398049
 30
0.0
 11
707.8714282514032
 21
390.5723636398048
 31
0.0
  0
LINE
  5
10B
330
51
100
AcDbEntity
  8
1
  6
Continuous
 62
     7
100
AcDbLine
 10
732.2094282514029
 20
391.7343636398049
 30
0.0
 11
719.3714282514029
 21
391.7343636398049
 31
0.0
  0
LINE
  5
10C
330
51
100
AcDbEntity
  8
1
  6
Continuous
 62
     7
100
AcDbLine
 10
705.8587852130078
 20
370.7793636398049
 30
0.0
 11
705.8198140698377
 21
370.756863639805
 31
0.0
  0
LINE
  5
10D
330
51
100
AcDbEntity
  8
1
  6
Continuous
 62
     7
100
AcDbLine
 10
686.3714282514029
 20
428.112201580947
 30
0.0
 11
686.3714282514029
 21
409.1122015809472
 31
0.0
  0
LINE
  5
10E
330
51
100
AcDbEntity
  8
1
  6
Continuous
 62
     7
100
AcDbLine
 10
705.8198140698375
 20
391.756863639805
 30
0.0
 11
704.8714282514029
 21
391.756863639805
 31
0.0
  0
LINE
  5
10F
330
51
100
AcDbEntity
  8
1
  6
Continuous
 62
     7
100
AcDbLine
 10
700.8714282514027
 20
428.112201580947
 30
0.0
 11
686.3714282514029
 21
428.112201580947
 31
0.0
  0
LINE
  5
110
330
51
100
AcDbEntity
  8
1
  6
Continuous
 62
     7
100
AcDbLine
 10
700.8714282514029
 20
403.8982920683477
 30
0.0
 11
700.8714282514027
 21
428.112201580947
 31
0.0
  0
LINE
  5
111
330
51
100
AcDbEntity
  8
1
  6
Continuous
 62
     2
100
AcDbLine
 10
733.3714282514029
 20
371.9413636398046
 30
0.0
 11
719.3714282514029
 21
371.9413636398046
 31
0.0
  0
LINE
  5
112
330
51
100
AcDbEntity
  8
1
  6
Continuous
 62
     7
100
AcDbLine
 10
732.2094282514029
 20
370.7793636398049
 30
0.0
 11
733.3714282514029
 21
371.9413636398046
 31
0.0
  0
LINE
  5
113
330
51
100
AcDbEntity
  8
1
  6
Continuous
 62
     7
100
AcDbLine
 10
705.8198140698375
 20
391.756863639805
 30
0.0
 11
705.8587852130078
 21
391.7343636398049
 31
0.0
  0
LINE
  5
114
330
51
100
AcDbEntity
  8
1
  6
Continuous
 62
     7
100
AcDbLine
 10
732.2094282514029
 20
391.7343636398049
 30
0.0
 11
733.3714282514029
 21
390.5723636398048
 31
0.0
  0
LINE
  5
115
330
51
100
AcDbEntity
  8
1
  6
Continuous
 62
     7
100
AcDbLine
 10
732.2094282514029
 20
370.7793636398049
 30
0.0
 11
719.3714282514029
 21
370.7793636398049
 31
0.0
  0
LINE
  5
116
330
51
100
AcDbEntity
  8
1
  6
Continuous
 62
     7
100
AcDbLine
 10
733.3714282514029
 20
390.5723636398048
 30
0.0
 11
733.3714282514029
 21
371.9413636398046
 31
0.0
  0
LINE
  5
117
330
51
100
AcDbEntity
  8
1
  6
Continuous
 62
     7
100
AcDbLine
 10
686.3714282514029
 20
369.756863639805
 30
0.0
 11
703.8714282514031
 21
369.756863639805
 31
0.0
  0
LINE
  5
118
330
51
100
AcDbEntity
  8
1
  6
Continuous
 62
     7
100
AcDbLine
 10
686.3714282514029
 20
409.1122015809472
 30
0.0
 11
686.3714282514029
 21
394.7568636398049
 31
0.0
  0
LINE
  5
119
330
51
100
AcDbEntity
  8
1
  6
Continuous
 62
     7
100
AcDbLine
 10
686.3714282514029
 20
369.756863639805
 30
0.0
 11
686.3714282514029
 21
371.256863639805
 31
0.0
  0
LINE
  5
11A
330
51
100
AcDbEntity
  8
1
  6
Continuous
 62
     7
100
AcDbLine
 10
703.8714282514029
 20
396.7568636398049
 30
0.0
 11
703.8714282514031
 21
369.756863639805
 31
0.0
  0
LINE
  5
11B
330
51
100
AcDbEntity
  8
1
  6
Continuous
 62
     7
100
AcDbLine
 10
704.8714282514029
 20
370.756863639805
 30
0.0
 11
705.8198140698377
 21
370.756863639805
 31
0.0
  0
LINE
  5
11C
330
51
100
AcDbEntity
  8
1
  6
Continuous
 62
     7
100
AcDbLine
 10
732.2094282514029
 20
391.7343636398049
 30
0.0
 11
732.2094282514029
 21
370.7793636398049
 31
0.0
  0
LINE
  5
11D
330
51
100
AcDbEntity
  8
1
  6
Continuous
 62
     7
100
AcDbLine
 10
696.5623342096757
 20
403.8983018590269
 30
0.0
 11
696.5623342096757
 21
416.6370781033804
 31
0.0
  0
LINE
  5
11E
330
51
100
AcDbEntity
  8
1
  6
Continuous
 62
     7
100
AcDbLine
 10
708.671428251403
 20
370.7793636398049
 30
0.0
 11
707.871428251403
 21
370.7793636398049
 31
0.0
  0
LINE
  5
11F
330
51
100
AcDbEntity
  8
1
  6
Continuous
 62
     2
100
AcDbLine
 10
707.871428251403
 20
371.9413636398046
 30
0.0
 11
705.8587852130078
 21
370.7793636398049
 31
0.0
  0
LINE
  5
120
330
51
100
AcDbEntity
  8
1
  6
Continuous
 62
     7
100
AcDbLine
 10
708.671428251403
 20
391.7343636398049
 30
0.0
 11
707.871428251403
 21
391.7343636398049
 31
0.0
  0
LINE
  5
121
330
51
100
AcDbEntity
  8
1
  6
Continuous
 62
     2
100
AcDbLine
 10
719.3714282514029
 20
390.5723636398048
 30
0.0
 11
733.3714282514029
 21
390.5723636398048
 31
0.0
  0
LINE
  5
122
330
51
100
AcDbEntity
  8
1
  6
Continuous
 62
     7
100
AcDbLine
 10
707.871428251403
 20
391.7343636398049
 30
0.0
 11
707.8714282514032
 21
390.5723636398048
 31
0.0
  0
LINE
  5
123
330
51
100
AcDbEntity
  8
1
  6
Continuous
 62
     7
100
AcDbLine
 10
707.871428251403
 20
370.7793636398049
 30
0.0
 11
705.8587852130078
 21
370.7793636398049
 31
0.0
  0
LINE
  5
124
330
51
100
AcDbEntity
  8
1
  6
Continuous
 62
     7
100
AcDbLine
 10
707.871428251403
 20
391.7343636398049
 30
0.0
 11
705.8587852130078
 21
391.7343636398049
 31
0.0
  0
LINE
  5
125
330
51
100
AcDbEntity
  8
1
  6
Continuous
 62
     2
100
AcDbLine
 10
707.8714282514032
 20
390.5723636398048
 30
0.0
 11
708.671428251403
 21
390.5723636398048
 31
0.0
  0
LINE
  5
126
330
51
100
AcDbEntity
  8
1
  6
Continuous
 62
     7
100
AcDbLine
 10
707.8714282514032
 20
390.5723636398048
 30
0.0
 11
707.871428251403
 21
371.9413636398046
 31
0.0
  0
LINE
  5
127
330
51
100
AcDbEntity
  8
1
  6
Continuous
 62
     2
100
AcDbLine
 10
707.871428251403
 20
371.9413636398046
 30
0.0
 11
708.671428251403
 21
371.9413636398046
 31
0.0
  0
LINE
  5
128
330
51
100
AcDbEntity
  8
1
  6
Continuous
 62
     7
100
AcDbLine
 10
707.871428251403
 20
371.9413636398046
 30
0.0
 11
707.871428251403
 21
370.7793636398049
 31
0.0
  0
ARC
  5
129
330
51
100
AcDbEntity
  8
1
  6
Continuous
 62
     7
100
AcDbCircle
 10
348.5853294226922
 20
820.9590390757389
 30
0.0
 40
13.91854333136382
100
AcDbArc
 50
269.9999999999995
 51
331.6493449074832
  0
ARC
  5
12A
330
51
100
AcDbEntity
  8
1
  6
Continuous
 62
     7
100
AcDbCircle
 10
371.2267663853454
 20
381.2568621232613
 30
0.0
 40
11.50000000000001
100
AcDbArc
 50
224.9999992588453
 51
44.99999925884435
  0
ARC
  5
12B
330
51
100
AcDbEntity
  8
1
  6
Continuous
 62
     7
100
AcDbCircle
 10
348.5853392133711
 20
821.3495897861023
 30
0.0
 40
10.0
100
AcDbArc
 50
270.000000000001
 51
315.5729959991947
  0
ARC
  5
12C
330
51
100
AcDbEntity
  8
1
  6
Continuous
 62
     7
100
AcDbCircle
 10
710.8714282514029
 20
403.8982920683479
 30
0.0
 40
10.0
100
AcDbArc
 50
180.0000000000013
 51
225.5729959991949
  0
ARC
  5
12D
330
51
100
AcDbEntity
  8
1
  6
Continuous
 62
     7
100
AcDbCircle
 10
710.4808775410395
 20
403.8983018590268
 30
0.0
 40
13.91854333136382
100
AcDbArc
 50
179.9999999999995
 51
241.6493449074832
  0
CIRCLE
  5
12E
330
51
100
AcDbEntity
  8
1
  6
Continuous
 62
     7
100
AcDbCircle
 10
371.2267663853454
 20
381.2568621232613
 30
0.0
 40
10.49999999999996
  0
SPLINE
  5
12F
330
51
100
AcDbEntity
  8
1
  6
Continuous
 62
     7
100
AcDbSpline
210
0.0
220
0.0
230
1.0
 70
     8
 71
     3
 72
    13
 73
     9
 74
     7
 42
0.000000001
 43
0.0000000001
 44
0.00000001
 40
0.0
 40
0.0
 40
0.0
 40
0.0
 40
1.24227018229742
 40
2.484557005604477
 40
3.537999184442059
 40
4.591695590798423
 40
8.492417407580197
 40
12.41500542584186
 40
12.41500542584186
 40
12.41500542584186
 40
12.41500542584186
 10
324.3714199100929
 20
811.3495897861021
 30
0.0
 10
324.7190213636222
 20
811.1244901513695
 30
0.0
 10
325.4142289349285
 20
810.67428787891
 30
0.0
 10
326.4256375636846
 20
810.067504116288
 30
0.0
 10
327.3991683538889
 20
809.5198644865822
 30
0.0
 10
329.1763360966964
 20
808.601170753061
 30
0.0
 10
331.9246333066717
 20
807.4010514258699
 30
0.0
 10
334.5368128674776
 20
807.1609047038618
 30
0.0
 10
335.8465531783386
 20
807.0404957443751
 30
0.0
 11
324.3714199100929
 21
811.3495897861021
 31
0.0
 11
325.4179875485214
 21
810.6803130242399
 31
0.0
 11
326.4828398390899
 21
810.0404957443751
 31
0.0
 11
327.4018072890653
 21
809.525481908768
 31
0.0
 11
328.3372561321352
 21
809.040495744375
 31
0.0
 11
331.9651242671962
 21
807.6072464632999
 31
0.0
 11
335.8465531783386
 21
807.0404957443751
 31
0.0
  0
SPLINE
  5
130
330
51
100
AcDbEntity
  8
1
  6
Continuous
 62
     7
100
AcDbSpline
210
0.0
220
0.0
230
1.0
 70
     8
 71
     3
 72
    13
 73
     9
 74
     7
 42
0.000000001
 43
0.0000000001
 44
0.00000001
 40
0.0
 40
0.0
 40
0.0
 40
0.0
 40
1.242270182297372
 40
2.484557005604477
 40
3.537999184442065
 40
4.591695590798426
 40
8.492417407580092
 40
12.41500542584183
 40
12.41500542584183
 40
12.41500542584183
 40
12.41500542584183
 10
700.8714282514027
 20
428.1122113716261
 30
0.0
 10
700.6463286166701
 20
427.7646099180969
 30
0.0
 10
700.1961263442104
 20
427.0694023467906
 30
0.0
 10
699.5893425815889
 20
426.0579937180343
 30
0.0
 10
699.0417029518824
 20
425.0844629278304
 30
0.0
 10
698.1230092183625
 20
423.3072951850222
 30
0.0
 10
696.9228898911706
 20
420.5589979750476
 30
0.0
 10
696.682743169162
 20
417.9468184142416
 30
0.0
 10
696.5623342096757
 20
416.6370781033804
 30
0.0
 11
700.8714282514027
 21
428.1122113716261
 31
0.0
 11
700.2021514895405
 21
427.0656437331977
 31
0.0
 11
699.5623342096757
 21
426.0007914426291
 31
0.0
 11
699.0473203740685
 21
425.0818239926537
 31
0.0
 11
698.5623342096757
 21
424.1463751495838
 31
0.0
 11
697.1290849286006
 21
420.5185070145228
 31
0.0
 11
696.5623342096757
 21
416.6370781033804
 31
0.0
  0
ARC
  5
131
330
51
100
AcDbEntity
  8
1
  6
Continuous
 62
     7
100
AcDbCircle
 10
382.726767641914
 20
815.3495897861023
 30
0.0
 40
1.0
100
AcDbArc
 50
180.0
 51
270.0
  0
ARC
  5
132
330
51
100
AcDbEntity
  8
1
  6
Continuous
 62
     7
100
AcDbCircle
 10
359.726767641914
 20
815.3495897861023
 30
0.0
 40
1.0
100
AcDbArc
 50
270.0
 51
0.0
  0
ARC
  5
133
330
51
100
AcDbEntity
  8
1
  6
Continuous
 62
     7
100
AcDbCircle
 10
704.8714282514029
 20
392.756863639805
 30
0.0
 40
1.0
100
AcDbArc
 50
180.0
 51
270.0
  0
ARC
  5
134
330
51
100
AcDbEntity
  8
1
  6
Continuous
 62
     7
100
AcDbCircle
 10
704.8714282514029
 20
369.756863639805
 30
0.0
 40
1.0
100
AcDbArc
 50
90.0
 51
180.0
  0
ENDBLK
  5
53
330
51
100
AcDbEntity
  8
0
100
AcDbBlockEnd
  0
BLOCK
  5
55
330
54
100
AcDbEntity
  8
0
100
AcDbBlockBegin
  2
35-6A-8K__5
 70
     0
 10
508.0570435692098
 20
1192.039693144835
 30
0.0
  3
35-6A-8K__5
  1

  0
LINE
  5
135
330
54
100
AcDbEntity
  8
1
  6
Continuous
 62
     7
100
AcDbLine
 10
327.4962984442705
 20
796.2301509221979
 30
0.0
 11
327.4962984442705
 21
796.8495897861023
 31
0.0
  0
LINE
  5
136
330
54
100
AcDbEntity
  8
1
  6
Continuous
 62
     7
100
AcDbLine
 10
344.2962984442702
 20
796.8495897861023
 30
0.0
 11
344.2962984442702
 21
796.2301509221979
 31
0.0
  0
LINE
  5
137
330
54
100
AcDbEntity
  8
1
  6
Continuous
 62
     7
100
AcDbLine
 10
685.7519893874985
 20
425.0122022601667
 30
0.0
 11
686.3714282514029
 21
425.0122022601667
 31
0.0
  0
LINE
  5
138
330
54
100
AcDbEntity
  8
1
  6
Continuous
 62
     7
100
AcDbLine
 10
686.3714282514029
 20
408.2122022601669
 30
0.0
 11
685.7519893874985
 21
408.2122022601669
 31
0.0
  0
ENDBLK
  5
56
330
54
100
AcDbEntity
  8
0
100
AcDbBlockEnd
  0
BLOCK
  5
58
330
57
100
AcDbEntity
  8
0
100
AcDbBlockBegin
  2
78-3AK__6
 70
     0
 10
220.656193014381
 20
1122.470714040846
 30
0.0
  3
78-3AK__6
  1

  0
LINE
  5
139
330
57
100
AcDbEntity
  8
1
  6
Continuous
 62
     7
100
AcDbLine
 10
708.8905594419596
 20
394.5307764348462
 30
0.0
 11
716.3711842894461
 21
405.8815574942043
 31
0.0
  0
LINE
  5
13A
330
57
100
AcDbEntity
  8
1
  6
Continuous
 62
     7
100
AcDbLine
 10
719.3714282514027
 20
406.2568624466501
 30
0.0
 11
717.1520530988892
 21
406.2568624466501
 31
0.0
  0
LINE
  5
13B
330
57
100
AcDbEntity
  8
1
  6
Continuous
 62
     7
100
AcDbLine
 10
719.3714282514027
 20
406.2568624466501
 30
0.0
 11
719.3714282514027
 21
356.2568624466501
 31
0.0
  0
LINE
  5
13C
330
57
100
AcDbEntity
  8
1
  6
Continuous
 62
     7
100
AcDbLine
 10
708.6714282514029
 20
393.9060813872917
 30
0.0
 11
708.6714282514029
 21
368.6076435060081
 31
0.0
  0
LINE
  5
13D
330
57
100
AcDbEntity
  8
1
  6
Continuous
 62
     7
100
AcDbLine
 10
717.0078656446434
 20
403.6266612028859
 30
0.0
 11
717.0078656446434
 21
358.8870636904143
 31
0.0
  0
LINE
  5
13E
330
57
100
AcDbEntity
  8
1
  6
Continuous
 62
     7
100
AcDbLine
 10
717.1520530988892
 20
356.2568624466501
 30
0.0
 11
719.3714282514027
 21
356.2568624466501
 31
0.0
  0
LINE
  5
13F
330
57
100
AcDbEntity
  8
1
  6
Continuous
 62
     7
100
AcDbLine
 10
708.8905594419596
 20
367.9829484584537
 30
0.0
 11
716.3711842894461
 21
356.6321673990956
 31
0.0
  0
LINE
  5
140
330
57
100
AcDbEntity
  8
1
  6
Continuous
 62
     7
100
AcDbLine
 10
384.5006816301103
 20
819.3687209766595
 30
0.0
 11
395.8514626894685
 21
826.8493458241458
 31
0.0
  0
LINE
  5
141
330
57
100
AcDbEntity
  8
1
  6
Continuous
 62
     7
100
AcDbLine
 10
396.2267676419143
 20
827.6302146335887
 30
0.0
 11
396.2267676419143
 21
829.8495897861023
 31
0.0
  0
LINE
  5
142
330
57
100
AcDbEntity
  8
1
  6
Continuous
 62
     7
100
AcDbLine
 10
381.7267676419143
 20
829.8495897861023
 30
0.0
 11
396.2267676419143
 21
829.8495897861023
 31
0.0
  0
LINE
  5
143
330
57
100
AcDbEntity
  8
1
  6
Continuous
 62
     7
100
AcDbLine
 10
382.9767676419143
 20
819.1495897861024
 30
0.0
 11
383.8759865825559
 21
819.1495897861024
 31
0.0
  0
LINE
  5
144
330
57
100
AcDbEntity
  8
1
  6
Continuous
 62
     7
100
AcDbLine
 10
346.2267676419142
 20
829.8495897861023
 30
0.0
 11
381.7267676419143
 21
829.8495897861023
 31
0.0
  0
LINE
  5
145
330
57
100
AcDbEntity
  8
1
  6
Continuous
 62
     7
100
AcDbLine
 10
358.5775487012725
 20
819.1495897861024
 30
0.0
 11
359.4767676419143
 21
819.1495897861024
 31
0.0
  0
LINE
  5
146
330
57
100
AcDbEntity
  8
1
  6
Continuous
 62
     7
100
AcDbLine
 10
346.2267676419142
 20
829.8495897861023
 30
0.0
 11
346.2267676419142
 21
827.6302146335887
 31
0.0
  0
LINE
  5
147
330
57
100
AcDbEntity
  8
1
  6
Continuous
 62
     7
100
AcDbLine
 10
357.952853653718
 20
819.3687209766595
 30
0.0
 11
346.6020725943597
 21
826.8493458241458
 31
0.0
  0
LINE
  5
148
330
57
100
AcDbEntity
  8
0
  6
Continuous
 62
     7
100
AcDbLine
 10
359.4767676419143
 20
819.1495897861024
 30
0.0
 11
381.7267676419143
 21
819.1495897861024
 31
0.0
  0
LINE
  5
149
330
57
100
AcDbEntity
  8
0
  6
Continuous
 62
     7
100
AcDbLine
 10
382.9767676419143
 20
819.1495897861024
 30
0.0
 11
381.7267676419143
 21
819.1495897861024
 31
0.0
  0
LINE
  5
14A
330
57
100
AcDbEntity
  8
1
  6
Continuous
 62
     7
100
AcDbLine
 10
348.8569707580529
 20
827.4860271793428
 30
0.0
 11
393.5965682705244
 21
827.4860271793428
 31
0.0
  0
ARC
  5
14B
330
57
100
AcDbEntity
  8
1
  6
Continuous
 62
     7
100
AcDbCircle
 10
371.2267682701979
 20
381.2568624466509
 30
0.0
 40
24.99999999999982
100
AcDbArc
 50
162.3871080267288
 51
107.6128930214206
  0
ARC
  5
14C
330
57
100
AcDbEntity
  8
1
  6
Continuous
 62
     7
100
AcDbCircle
 10
717.1520530988892
 20
357.2568624466501
 30
0.0
 40
1.000000000000071
100
AcDbArc
 50
218.6598082540921
 51
270.0
  0
ARC
  5
14D
330
57
100
AcDbEntity
  8
1
  6
Continuous
 62
     7
100
AcDbCircle
 10
717.1520530988892
 20
405.2568624466498
 30
0.0
 40
1.000000000000284
100
AcDbArc
 50
90.0
 51
141.3401917459079
  0
ARC
  5
14E
330
57
100
AcDbEntity
  8
1
  6
Continuous
 62
     7
100
AcDbCircle
 10
709.6714282514029
 20
368.6076435060081
 30
0.0
 40
1.0
100
AcDbArc
 50
180.0
 51
218.6598082540814
  0
ARC
  5
14F
330
57
100
AcDbEntity
  8
1
  6
Continuous
 62
     7
100
AcDbCircle
 10
709.6714282514029
 20
393.9060813872917
 30
0.0
 40
1.000000000000248
100
AcDbArc
 50
141.340191745916
 51
180.0
  0
ARC
  5
150
330
57
100
AcDbEntity
  8
1
  6
Continuous
 62
     7
100
AcDbCircle
 10
358.5775487012725
 20
820.1495897861024
 30
0.0
 40
0.9999999999999822
100
AcDbArc
 50
231.3401917459038
 51
270.0
  0
ARC
  5
151
330
57
100
AcDbEntity
  8
1
  6
Continuous
 62
     7
100
AcDbCircle
 10
383.8759865825559
 20
820.1495897861024
 30
0.0
 40
1.0
100
AcDbArc
 50
270.0
 51
308.6598082540911
  0
ARC
  5
152
330
57
100
AcDbEntity
  8
1
  6
Continuous
 62
     7
100
AcDbCircle
 10
347.2267676419142
 20
827.6302146335887
 30
0.0
 40
1.0
100
AcDbArc
 50
180.0
 51
231.3401917459038
  0
ARC
  5
153
330
57
100
AcDbEntity
  8
1
  6
Continuous
 62
     7
100
AcDbCircle
 10
395.2267676419143
 20
827.6302146335887
 30
0.0
 40
0.9999999999998047
100
AcDbArc
 50
308.6598082540834
 51
0.0
  0
ENDBLK
  5
59
330
57
100
AcDbEntity
  8
0
100
AcDbBlockEnd
  0
BLOCK
  5
5B
330
5A
100
AcDbEntity
  8
0
100
AcDbBlockBegin
  2
32-3K__7
 70
     0
 10
412.8185520029303
 20
1093.67704893149
 30
0.0
  3
32-3K__7
  1

  0
LINE
  5
154
330
5A
100
AcDbEntity
  8
1
  6
Continuous
 62
     7
100
AcDbLine
 10
685.7519893874979
 20
430.8688646210184
 30
0.0
 11
685.7519893874979
 21
402.3555372083494
 31
0.0
  0
LINE
  5
155
330
5A
100
AcDbEntity
  8
1
  6
Continuous
 62
     7
100
AcDbLine
 10
672.7519893874979
 20
402.2628588378983
 30
0.0
 11
672.7519893874979
 21
430.9615429914693
 31
0.0
  0
LINE
  5
156
330
5A
100
AcDbEntity
  8
1
  6
Continuous
 62
     7
100
AcDbLine
 10
334.8268039075399
 20
399.8948069789488
 30
0.0
 11
330.1201395466656
 21
402.6122009146848
 31
0.0
  0
LINE
  5
157
330
5A
100
AcDbEntity
  8
1
  6
Continuous
 62
     7
100
AcDbLine
 10
336.9160525738645
 20
433.3295948504198
 30
0.0
 11
349.82680390754
 21
425.875569092482
 31
0.0
  0
LINE
  5
158
330
5A
100
AcDbEntity
  8
1
  6
Continuous
 62
     7
100
AcDbLine
 10
350.8714282407022
 20
424.0662266726221
 30
0.0
 11
350.8714282407022
 21
409.1581751567465
 31
0.0
  0
LINE
  5
159
330
5A
100
AcDbEntity
  8
1
  6
Continuous
 62
     7
100
AcDbLine
 10
349.82680390754
 20
407.3488327368866
 30
0.0
 11
336.9160525738645
 21
399.8948069789488
 31
0.0
  0
LINE
  5
15A
330
5A
100
AcDbEntity
  8
1
  6
Continuous
 62
     7
100
AcDbLine
 10
330.1201395466657
 20
430.6122009146839
 30
0.0
 11
334.8268039075399
 21
433.3295948504198
 31
0.0
  0
LINE
  5
15B
330
5A
100
AcDbEntity
  8
1
  6
Continuous
 62
     7
100
AcDbLine
 10
350.1280934071064
 20
783.2301509221979
 30
0.0
 11
349.0924297007718
 21
783.2301509221979
 31
0.0
  0
LINE
  5
15C
330
5A
100
AcDbEntity
  8
1
  6
Continuous
 62
     7
100
AcDbLine
 10
350.1280934071064
 20
796.2301509221979
 30
0.0
 11
344.2714297007716
 21
796.2301509221979
 31
0.0
  0
LINE
  5
15D
330
5A
100
AcDbEntity
  8
1
  6
Continuous
 62
     7
100
AcDbLine
 10
321.6147659944374
 20
796.2301509221979
 30
0.0
 11
344.2714297007716
 21
796.2301509221979
 31
0.0
  0
LINE
  5
15E
330
5A
100
AcDbEntity
  8
1
  6
Continuous
 62
     7
100
AcDbLine
 10
349.0924297007718
 20
783.2301509221979
 30
0.0
 11
321.6147659944374
 21
783.2301509221979
 31
0.0
  0
LINE
  5
15F
330
5A
100
AcDbEntity
  8
1
  6
Continuous
 62
     7
100
AcDbLine
 10
320.871429700772
 20
784.0788236444694
 30
0.0
 11
320.871429700772
 21
795.3814781999265
 31
0.0
  0
LINE
  5
160
330
5A
100
AcDbEntity
  8
1
  6
Continuous
 62
     7
100
AcDbLine
 10
350.871429700772
 20
784.0788236444694
 30
0.0
 11
350.871429700772
 21
795.3814781999265
 31
0.0
  0
ARC
  5
161
330
5A
100
AcDbEntity
  8
1
  6
Continuous
 62
     7
100
AcDbCircle
 10
679.2519893874978
 20
423.3622009146839
 30
0.0
 40
10.00000000000013
100
AcDbArc
 50
49.99479911513942
 51
130.5416018735039
  0
ARC
  5
162
330
5A
100
AcDbEntity
  8
1
  6
Continuous
 62
     7
100
AcDbCircle
 10
679.2519893874978
 20
409.8622009146839
 30
0.0
 40
10.00000000000013
100
AcDbArc
 50
229.4583981264969
 51
310.0052008848606
  0
ARC
  5
163
330
5A
100
AcDbEntity
  8
1
  6
Continuous
 62
     7
100
AcDbCircle
 10
335.8714282407022
 20
416.6122009146843
 30
0.0
 40
16.75000000000004
100
AcDbArc
 50
266.4243920788192
 51
273.5756079211808
  0
ARC
  5
164
330
5A
100
AcDbEntity
  8
1
  6
Continuous
 62
     7
100
AcDbCircle
 10
335.8714282407022
 20
416.6122009146843
 30
0.0
 40
16.75000000000001
100
AcDbArc
 50
26.4243920788191
 51
33.57560792118075
  0
ARC
  5
165
330
5A
100
AcDbEntity
  8
1
  6
Continuous
 62
     7
100
AcDbCircle
 10
335.8714282407022
 20
416.6122009146843
 30
0.0
 40
16.75000000000013
100
AcDbArc
 50
326.4243920788192
 51
333.5756079211809
  0
ARC
  5
166
330
5A
100
AcDbEntity
  8
1
  6
Continuous
 62
     7
100
AcDbCircle
 10
335.8714282407022
 20
416.6122009146843
 30
0.0
 40
16.75000000000004
100
AcDbArc
 50
86.42439207881914
 51
93.57560792118086
  0
ARC
  5
167
330
5A
100
AcDbEntity
  8
1
  6
Continuous
 62
     7
100
AcDbCircle
 10
335.8714282407022
 20
416.6122009146843
 30
0.0
 40
14.34934207678535
100
AcDbArc
 50
257.3312975112975
 51
90.0
  0
ARC
  5
168
330
5A
100
AcDbEntity
  8
1
  6
Continuous
 62
     7
100
AcDbCircle
 10
335.8714282407022
 20
416.6122009146843
 30
0.0
 40
14.34934207678538
100
AcDbArc
 50
90.0
 51
102.6687024887022
  0
ARC
  5
169
330
5A
100
AcDbEntity
  8
1
  6
Continuous
 62
     7
100
AcDbCircle
 10
342.621429700772
 20
789.7301509221979
 30
0.0
 40
9.99999999999995
100
AcDbArc
 50
34.41150866976903
 51
40.00520088485987
  0
ARC
  5
16A
330
5A
100
AcDbEntity
  8
1
  6
Continuous
 62
     7
100
AcDbCircle
 10
329.1214297007719
 20
789.7301509221979
 30
0.0
 40
9.999999999999856
100
AcDbArc
 50
214.4115086697694
 51
220.0052008848601
  0
ARC
  5
16B
330
5A
100
AcDbEntity
  8
1
  6
Continuous
 62
     7
100
AcDbCircle
 10
329.1214297007719
 20
789.7301509221979
 30
0.0
 40
10.00000000000006
100
AcDbArc
 50
139.9947991151399
 51
145.5884913302306
  0
ARC
  5
16C
330
5A
100
AcDbEntity
  8
1
  6
Continuous
 62
     7
100
AcDbCircle
 10
342.621429700772
 20
789.7301509221979
 30
0.0
 40
10.0000000000001
100
AcDbArc
 50
319.9947991151401
 51
325.588491330231
  0
CIRCLE
  5
16D
330
5A
100
AcDbEntity
  8
1
  6
Continuous
 62
     7
100
AcDbCircle
 10
343.3714297007721
 20
789.7301509221982
 30
0.0
 40
5.651024957036952
  0
CIRCLE
  5
16E
330
5A
100
AcDbEntity
  8
1
  6
Continuous
 62
     7
100
AcDbCircle
 10
328.3714297007721
 20
789.7301509221982
 30
0.0
 40
5.651024957036952
  0
SPLINE
  5
16F
330
5A
100
AcDbEntity
  8
1
  6
Continuous
 62
     7
100
AcDbSpline
210
0.0
220
0.0
230
1.0
 70
    11
 71
     3
 72
    79
 73
    75
 74
    73
 42
0.000000001
 43
0.0000000001
 44
0.00000001
 40
0.0
 40
0.0
 40
0.0
 40
0.0
 40
0.3332697328201538
 40
0.6663350034973243
 40
1.01665890904146
 40
1.366684432054182
 40
1.741620076980558
 40
2.11627431223761
 40
2.519409119982672
 40
2.922325502543689
 40
3.353511641304915
 40
3.784543822444245
 40
4.240562441880281
 40
4.696479543664834
 40
5.171803435420517
 40
5.647066349615346
 40
6.134582888118786
 40
6.622070900998312
 40
7.113743628192593
 40
7.605416355385475
 40
8.092904368259559
 40
8.580420906752959
 40
9.055683820931627
 40
9.531007712662246
 40
9.98692481441113
 40
10.44294343379514
 40
10.87397561486468
 40
11.30516175352774
 40
11.70807813596155
 40
12.1112129435321
 40
12.48586717856662
 40
12.86080282318463
 40
13.21082834577563
 40
13.56115225061478
 40
13.89421751931044
 40
14.22748725976627
 40
14.55454894210012
 40
14.88161062443273
 40
15.21488036488497
 40
15.54794563357519
 40
15.89826953840706
 40
16.24829506098927
 40
16.623230705597
 40
16.99788494062101
 40
17.40101974818018
 40
17.80393613060286
 40
18.23512226925388
 40
18.66615445031235
 40
19.12217306968503
 40
19.57809017142313
 40
20.05341406314339
 40
20.5286769773121
 40
21.01619351579593
 40
21.5036815286614
 40
21.99535425584597
 40
22.48702698303284
 40
22.97451499590595
 40
23.46203153440337
 40
23.93729444859318
 40
24.41261834034407
 40
24.86853544212412
 40
25.32455406155585
 40
25.75558624269071
 40
26.18677238144547
 40
26.58968876399774
 40
26.99282357172797
 40
27.36747780695979
 40
27.74241345183606
 40
28.09243897474124
 40
28.44276287998688
 40
28.77582814920765
 40
29.109097890449
 40
29.43615957485265
 40
29.76322124973017
 40
29.76322124973017
 40
29.76322124973017
 40
29.76322124973017
 10
684.8810488333829
 20
403.2954966125492
 30
0.0
 10
684.8622260546392
 20
403.1858437110783
 30
0.0
 10
684.8245920530898
 20
402.9666051790589
 30
0.0
 10
684.71229898073
 20
402.6454108373472
 30
0.0
 10
684.5630938697811
 20
402.3342514564682
 30
0.0
 10
684.3703016064613
 20
402.0311377799007
 30
0.0
 10
684.1416095199284
 20
401.7438640627188
 30
0.0
 10
683.8730019987074
 20
401.4683034940782
 30
0.0
 10
683.573063749103
 20
401.2126512856116
 30
0.0
 10
683.237134761086
 20
400.9726399169699
 30
0.0
 10
682.8751018299218
 20
400.7555175994713
 30
0.0
 10
682.4822147761558
 20
400.5579192939065
 30
0.0
 10
682.0687395231421
 20
400.3854097711384
 30
0.0
 10
681.6308336595924
 20
400.2358719645737
 30
0.0
 10
681.1780603692567
 20
400.1130039214136
 30
0.0
 10
680.7083642172066
 20
400.0157864443719
 30
0.0
 10
680.2296788911257
 20
399.9462732004059
 30
0.0
 10
679.7423383094057
 20
399.9040982971209
 30
0.0
 10
679.2519893974256
 20
399.8901414672085
 30
0.0
 10
678.7616404854317
 20
399.9040982970636
 30
0.0
 10
678.2742999037554
 20
399.9462732002944
 30
0.0
 10
677.7956145775195
 20
400.0157864441709
 30
0.0
 10
677.3259184260376
 20
400.113003921208
 30
0.0
 10
676.8731451336242
 20
400.2358719639903
 30
0.0
 10
676.4352392775284
 20
400.3854097714402
 30
0.0
 10
676.0217639974346
 20
400.5579192904144
 30
0.0
 10
675.6288770394447
 20
400.755517608713
 30
0.0
 10
675.266843762696
 20
400.9726398794191
 30
0.0
 10
674.9309159840572
 20
401.2126514108213
 30
0.0
 10
674.6309733888518
 20
401.468303033232
 30
0.0
 10
674.362381000232
 20
401.7438656412625
 30
0.0
 10
674.133634516361
 20
402.0311320256475
 30
0.0
 10
673.9410325208114
 20
402.3342713482298
 30
0.0
 10
673.7911386848359
 20
402.6453378930561
 30
0.0
 10
673.6812965739826
 20
402.9668626069658
 30
0.0
 10
673.6161922423931
 20
403.2924985740582
 30
0.0
 10
673.5934221210237
 20
403.621819857506
 30
0.0
 10
673.6161922423801
 20
403.9511411409537
 30
0.0
 10
673.6812965739579
 20
404.2767771080445
 30
0.0
 10
673.7911386847991
 20
404.5983018219531
 30
0.0
 10
673.9410325207627
 20
404.9093683667771
 30
0.0
 10
674.1336345163013
 20
405.212507689356
 30
0.0
 10
674.3623810001613
 20
405.4997740737372
 30
0.0
 10
674.6309733887708
 20
405.7753366817628
 30
0.0
 10
674.9309159839663
 20
406.0309883041679
 30
0.0
 10
675.2668437625962
 20
406.2709998355637
 30
0.0
 10
675.6288770393357
 20
406.4881221062622
 30
0.0
 10
676.0217639973175
 20
406.6857204245521
 30
0.0
 10
676.4352392774033
 20
406.8582299435162
 30
0.0
 10
676.8731451334914
 20
407.0077677509551
 30
0.0
 10
677.3259184258977
 20
407.1306357937249
 30
0.0
 10
677.7956145773724
 20
407.2278532707474
 30
0.0
 10
678.2742999036011
 20
407.2973665146075
 30
0.0
 10
678.7616404852711
 20
407.3395414178198
 30
0.0
 10
679.2519893972545
 20
407.3534982476542
 30
0.0
 10
679.7423383092371
 20
407.3395414177204
 30
0.0
 10
680.229678890909
 20
407.2973665144038
 30
0.0
 10
680.7083642171251
 20
407.2278532704327
 30
0.0
 10
681.1780603686366
 20
407.1306357932795
 30
0.0
 10
681.6308336608896
 20
407.0077677503882
 30
0.0
 10
682.0687395174984
 20
406.8582299427135
 30
0.0
 10
682.4822147956451
 20
406.6857204238209
 30
0.0
 10
682.8751017604184
 20
406.4881221043934
 30
0.0
 10
683.2371350125528
 20
406.2709998367565
 30
0.0
 10
683.5730628771512
 20
406.0309882934769
 30
0.0
 10
683.873005163245
 20
405.7753367124
 30
0.0
 10
684.1415986279734
 20
405.4997739589335
 30
0.0
 10
684.3703412431381
 20
405.2125080955872
 30
0.0
 10
684.5629567699029
 20
404.9093669485936
 30
0.0
 10
684.7128016253292
 20
404.5983070053974
 30
0.0
 10
684.8228180421597
 20
404.2767587956099
 30
0.0
 10
684.8872824462309
 20
403.9512090846415
 30
0.0
 10
684.9123992276607
 20
403.6215714903083
 30
0.0
 10
684.8914989618631
 20
403.4041882376411
 30
0.0
 10
684.8810488333829
 20
403.2954966125492
 30
0.0
 11
684.8810488333829
 21
403.2954966125492
 31
0.0
 11
684.8155837967372
 21
402.9687198554554
 31
0.0
 11
684.7086978720756
 21
402.6532711711823
 31
0.0
 11
684.556932671276
 21
402.337527347463
 31
0.0
 11
684.3699208496988
 21
402.0416482418592
 31
0.0
 11
684.1368540798046
 21
401.7479534709623
 31
0.0
 11
683.8758462778221
 21
401.4791771267705
 31
0.0
 11
683.569483433701
 21
401.2171475847769
 31
0.0
 11
683.2419598373535
 21
400.9824778058996
 31
0.0
 11
682.8724964449735
 21
400.7601755613973
 31
0.0
 11
682.4876003728605
 21
400.5661555757662
 31
0.0
 11
682.0669339632907
 21
400.3901079881242
 31
0.0
 11
681.6355642668689
 21
400.2425255071228
 31
0.0
 11
681.1769250559378
 21
400.1176941157804
 31
0.0
 11
680.7115548666277
 21
400.021229487507
 31
0.0
 11
680.229131149459
 21
399.9509462574517
 31
0.0
 11
679.7434602504866
 21
399.908894615466
 31
0.0
 11
679.251989387498
 21
399.8948069789485
 31
0.0
 11
678.7605185245093
 21
399.908894615466
 31
0.0
 11
678.2748476255368
 21
399.9509462574518
 31
0.0
 11
677.7924239083679
 21
400.021229487507
 31
0.0
 11
677.3270537190579
 21
400.1176941157804
 31
0.0
 11
676.8684145081268
 21
400.2425255071227
 31
0.0
 11
676.4370448117049
 21
400.390107988124
 31
0.0
 11
676.0163784021354
 21
400.5661555757662
 31
0.0
 11
675.6314823300222
 21
400.7601755613973
 31
0.0
 11
675.2620189376422
 21
400.9824778058996
 31
0.0
 11
674.9344953412949
 21
401.2171475847768
 31
0.0
 11
674.6281324971735
 21
401.4791771267704
 31
0.0
 11
674.3671246951909
 21
401.7479534709623
 31
0.0
 11
674.1340579252969
 21
402.0416482418594
 31
0.0
 11
673.9470461037196
 21
402.3375273474632
 31
0.0
 11
673.7952809029201
 21
402.6532711711823
 31
0.0
 11
673.6883949782584
 21
402.9687198554553
 31
0.0
 11
673.6229299416129
 21
403.2954966125492
 31
0.0
 11
673.6009644304602
 21
403.6218198579173
 31
0.0
 11
673.6229299416128
 21
403.9481431032854
 31
0.0
 11
673.6883949782584
 21
404.2749198603791
 31
0.0
 11
673.7952809029201
 21
404.5903685446522
 31
0.0
 11
673.9470461037196
 21
404.9061123683715
 31
0.0
 11
674.1340579252968
 21
405.2019914739751
 31
0.0
 11
674.3671246951909
 21
405.495686244872
 31
0.0
 11
674.6281324971735
 21
405.7644625890639
 31
0.0
 11
674.9344953412949
 21
406.0264921310576
 31
0.0
 11
675.2620189376423
 21
406.2611619099348
 31
0.0
 11
675.6314823300221
 21
406.4834641544371
 31
0.0
 11
676.0163784021354
 21
406.6774841400681
 31
0.0
 11
676.437044811705
 21
406.8535317277103
 31
0.0
 11
676.8684145081268
 21
407.0011142087118
 31
0.0
 11
677.3270537190579
 21
407.1259456000543
 31
0.0
 11
677.7924239083679
 21
407.2224102283276
 31
0.0
 11
678.2748476255367
 21
407.2926934583828
 31
0.0
 11
678.7605185245093
 21
407.3347451003685
 31
0.0
 11
679.2519893874978
 21
407.3488327368863
 31
0.0
 11
679.7434602504864
 21
407.3347451003685
 31
0.0
 11
680.2291311494589
 21
407.2926934583827
 31
0.0
 11
680.7115548666277
 21
407.2224102283274
 31
0.0
 11
681.176925055938
 21
407.1259456000539
 31
0.0
 11
681.6355642668691
 21
407.0011142087117
 31
0.0
 11
682.0669339632906
 21
406.8535317277102
 31
0.0
 11
682.4876003728604
 21
406.6774841400682
 31
0.0
 11
682.8724964449735
 21
406.483464154437
 31
0.0
 11
683.2419598373533
 21
406.2611619099347
 31
0.0
 11
683.5694834337008
 21
406.0264921310576
 31
0.0
 11
683.8758462778221
 21
405.7644625890639
 31
0.0
 11
684.1368540798047
 21
405.4956862448721
 31
0.0
 11
684.3699208496987
 21
405.2019914739752
 31
0.0
 11
684.556932671276
 21
404.9061123683715
 31
0.0
 11
684.7086978720754
 21
404.5903685446523
 31
0.0
 11
684.8155837967371
 21
404.2749198603792
 31
0.0
 11
684.8810488333828
 21
403.9481431032854
 31
0.0
 11
684.9030143445354
 21
403.6218198579172
 31
0.0
 11
684.8810488333829
 21
403.2954966125492
 31
0.0
  0
SPLINE
  5
170
330
5A
100
AcDbEntity
  8
1
  6
Continuous
 62
     7
100
AcDbSpline
210
0.0
220
0.0
230
1.0
 70
    11
 71
     3
 72
    79
 73
    75
 74
    73
 42
0.000000001
 43
0.0000000001
 44
0.00000001
 40
0.0
 40
0.0
 40
0.0
 40
0.0
 40
0.3332697328201538
 40
0.6663350034973782
 40
1.016658909041463
 40
1.366684432054184
 40
1.741620076980516
 40
2.11627431223765
 40
2.519409119982675
 40
2.922325502543693
 40
3.353511641304919
 40
3.784543822444248
 40
4.240562441880284
 40
4.696479543664838
 40
5.171803435420491
 40
5.647066349615343
 40
6.134582888118775
 40
6.622070900998307
 40
7.11374362819259
 40
7.605416355385473
 40
8.092904368259546
 40
8.580420906752972
 40
9.055683820931652
 40
9.531007712662271
 40
9.986924814411156
 40
10.44294343379508
 40
10.87397561486467
 40
11.30516175352776
 40
11.70807813596157
 40
12.11121294353212
 40
12.48586717856668
 40
12.86080282318461
 40
13.21082834577575
 40
13.56115225061484
 40
13.89421751931039
 40
14.22748725976612
 40
14.55454894210008
 40
14.88161062443269
 40
15.21488036488488
 40
15.54794563357509
 40
15.89826953840691
 40
16.24829506098922
 40
16.62323070559699
 40
16.99788494062103
 40
17.40101974818017
 40
17.80393613060281
 40
18.23512226925384
 40
18.66615445031233
 40
19.12217306968499
 40
19.5780901714231
 40
20.05341406314331
 40
20.52867697731203
 40
21.01619351579586
 40
21.50368152866134
 40
21.9953542558459
 40
22.48702698303278
 40
22.97451499590588
 40
23.46203153440329
 40
23.93729444859311
 40
24.41261834034401
 40
24.86853544212401
 40
25.32455406155577
 40
25.75558624269063
 40
26.18677238144538
 40
26.58968876399772
 40
26.99282357172787
 40
27.36747780695978
 40
27.74241345183604
 40
28.09243897474127
 40
28.44276287998687
 40
28.77582814920764
 40
29.10909789044904
 40
29.43615957485252
 40
29.7632212497301
 40
29.7632212497301
 40
29.7632212497301
 40
29.7632212497301
 10
684.8810488333829
 20
429.9289052168185
 30
0.0
 10
684.8622260546393
 20
430.0385581182896
 30
0.0
 10
684.8245920530894
 20
430.2577966503086
 30
0.0
 10
684.7122989807305
 20
430.5789909920207
 30
0.0
 10
684.5630938697808
 20
430.8901503728994
 30
0.0
 10
684.3703016064615
 20
431.193264049467
 30
0.0
 10
684.1416095199285
 20
431.4805377666488
 30
0.0
 10
683.8730019987075
 20
431.7560983352898
 30
0.0
 10
683.5730637491029
 20
432.011750543756
 30
0.0
 10
683.237134761086
 20
432.2517619123979
 30
0.0
 10
682.875101829922
 20
432.4688842298964
 30
0.0
 10
682.4822147761558
 20
432.6664825354612
 30
0.0
 10
682.0687395231419
 20
432.8389920582293
 30
0.0
 10
681.6308336595924
 20
432.988529864794
 30
0.0
 10
681.1780603692569
 20
433.111397907954
 30
0.0
 10
680.7083642172066
 20
433.2086153849957
 30
0.0
 10
680.2296788911258
 20
433.2781286289618
 30
0.0
 10
679.7423383094056
 20
433.3203035322468
 30
0.0
 10
679.2519893974259
 20
433.3342603621592
 30
0.0
 10
678.7616404854317
 20
433.3203035323039
 30
0.0
 10
678.2742999037555
 20
433.2781286290734
 30
0.0
 10
677.7956145775194
 20
433.2086153851968
 30
0.0
 10
677.3259184260376
 20
433.1113979081596
 30
0.0
 10
676.873145133624
 20
432.9885298653773
 30
0.0
 10
676.4352392775287
 20
432.8389920579272
 30
0.0
 10
676.0217639974345
 20
432.6664825389535
 30
0.0
 10
675.6288770394448
 20
432.4688842206546
 30
0.0
 10
675.2668437626961
 20
432.2517619499485
 30
0.0
 10
674.9309159840573
 20
432.0117504185464
 30
0.0
 10
674.6309733888515
 20
431.7560987961355
 30
0.0
 10
674.3623810002318
 20
431.4805361881052
 30
0.0
 10
674.1336345163611
 20
431.19326980372
 30
0.0
 10
673.9410325208112
 20
430.8901304811377
 30
0.0
 10
673.7911386848361
 20
430.5790639363115
 30
0.0
 10
673.6812965739826
 20
430.2575392224019
 30
0.0
 10
673.6161922423929
 20
429.9319032553097
 30
0.0
 10
673.5934221210237
 20
429.6025819718618
 30
0.0
 10
673.6161922423801
 20
429.2732606884141
 30
0.0
 10
673.681296573958
 20
428.947624721323
 30
0.0
 10
673.7911386847989
 20
428.6261000074149
 30
0.0
 10
673.9410325207626
 20
428.3150334625907
 30
0.0
 10
674.1336345163013
 20
428.0118941400118
 30
0.0
 10
674.3623810001611
 20
427.7246277556304
 30
0.0
 10
674.6309733887707
 20
427.4490651476049
 30
0.0
 10
674.9309159839664
 20
427.1934135251996
 30
0.0
 10
675.266843762596
 20
426.9534019938041
 30
0.0
 10
675.6288770393357
 20
426.7362797231056
 30
0.0
 10
676.0217639973173
 20
426.5386814048155
 30
0.0
 10
676.4352392774036
 20
426.3661718858516
 30
0.0
 10
676.8731451334911
 20
426.2166340784124
 30
0.0
 10
677.3259184258977
 20
426.0937660356431
 30
0.0
 10
677.7956145773722
 20
425.9965485586204
 30
0.0
 10
678.2742999036013
 20
425.9270353147605
 30
0.0
 10
678.7616404852708
 20
425.8848604115478
 30
0.0
 10
679.2519893972548
 20
425.8709035817137
 30
0.0
 10
679.7423383092371
 20
425.8848604116473
 30
0.0
 10
680.2296788909091
 20
425.9270353149639
 30
0.0
 10
680.7083642171251
 20
425.9965485589349
 30
0.0
 10
681.1780603686366
 20
426.0937660360883
 30
0.0
 10
681.6308336608895
 20
426.2166340789797
 30
0.0
 10
682.0687395174982
 20
426.366171886654
 30
0.0
 10
682.4822147956454
 20
426.5386814055468
 30
0.0
 10
682.8751017604181
 20
426.7362797249743
 30
0.0
 10
683.237135012553
 20
426.9534019926112
 30
0.0
 10
683.573062877151
 20
427.1934135358908
 30
0.0
 10
683.8730051632451
 20
427.4490651169676
 30
0.0
 10
684.1415986279732
 20
427.7246278704344
 30
0.0
 10
684.3703412431385
 20
428.0118937337805
 30
0.0
 10
684.5629567699028
 20
428.315034880774
 30
0.0
 10
684.7128016253295
 20
428.6260948239707
 30
0.0
 10
684.8228180421597
 20
428.9476430337577
 30
0.0
 10
684.8872824462308
 20
429.2731927447262
 30
0.0
 10
684.9123992276609
 20
429.6028303390596
 30
0.0
 10
684.8914989618631
 20
429.8202135917263
 30
0.0
 10
684.8810488333829
 20
429.9289052168185
 30
0.0
 11
684.8810488333829
 21
429.9289052168185
 31
0.0
 11
684.8155837967372
 21
430.2556819739123
 31
0.0
 11
684.7086978720756
 21
430.5711306581855
 31
0.0
 11
684.556932671276
 21
430.8868744819047
 31
0.0
 11
684.3699208496988
 21
431.1827535875085
 31
0.0
 11
684.1368540798046
 21
431.4764483584054
 31
0.0
 11
683.8758462778221
 21
431.7452247025973
 31
0.0
 11
683.569483433701
 21
432.0072542445909
 31
0.0
 11
683.2419598373535
 21
432.2419240234681
 31
0.0
 11
682.8724964449735
 21
432.4642262679704
 31
0.0
 11
682.4876003728605
 21
432.6582462536015
 31
0.0
 11
682.0669339632907
 21
432.8342938412435
 31
0.0
 11
681.6355642668689
 21
432.9818763222449
 31
0.0
 11
681.1769250559378
 21
433.1067077135872
 31
0.0
 11
680.7115548666277
 21
433.2031723418607
 31
0.0
 11
680.229131149459
 21
433.273455571916
 31
0.0
 11
679.7434602504866
 21
433.3155072139017
 31
0.0
 11
679.251989387498
 21
433.3295948504193
 31
0.0
 11
678.7605185245093
 21
433.3155072139017
 31
0.0
 11
678.2748476255368
 21
433.273455571916
 31
0.0
 11
677.7924239083679
 21
433.2031723418607
 31
0.0
 11
677.3270537190579
 21
433.1067077135872
 31
0.0
 11
676.8684145081268
 21
432.9818763222449
 31
0.0
 11
676.4370448117049
 21
432.8342938412436
 31
0.0
 11
676.0163784021354
 21
432.6582462536016
 31
0.0
 11
675.6314823300222
 21
432.4642262679704
 31
0.0
 11
675.2620189376422
 21
432.241924023468
 31
0.0
 11
674.9344953412949
 21
432.0072542445909
 31
0.0
 11
674.6281324971735
 21
431.7452247025972
 31
0.0
 11
674.3671246951909
 21
431.4764483584053
 31
0.0
 11
674.1340579252969
 21
431.1827535875083
 31
0.0
 11
673.9470461037196
 21
430.8868744819043
 31
0.0
 11
673.7952809029201
 21
430.5711306581853
 31
0.0
 11
673.6883949782584
 21
430.2556819739124
 31
0.0
 11
673.6229299416129
 21
429.9289052168186
 31
0.0
 11
673.6009644304602
 21
429.6025819714504
 31
0.0
 11
673.6229299416128
 21
429.2762587260823
 31
0.0
 11
673.6883949782584
 21
428.9494819689887
 31
0.0
 11
673.7952809029201
 21
428.6340332847155
 31
0.0
 11
673.9470461037196
 21
428.3182894609964
 31
0.0
 11
674.1340579252968
 21
428.0224103553926
 31
0.0
 11
674.3671246951909
 21
427.7287155844957
 31
0.0
 11
674.6281324971735
 21
427.4599392403037
 31
0.0
 11
674.9344953412949
 21
427.19790969831
 31
0.0
 11
675.2620189376423
 21
426.9632399194329
 31
0.0
 11
675.6314823300221
 21
426.7409376749306
 31
0.0
 11
676.0163784021354
 21
426.5469176892995
 31
0.0
 11
676.437044811705
 21
426.3708701016574
 31
0.0
 11
676.8684145081268
 21
426.2232876206559
 31
0.0
 11
677.3270537190579
 21
426.0984562293136
 31
0.0
 11
677.7924239083679
 21
426.0019916010402
 31
0.0
 11
678.2748476255367
 21
425.931708370985
 31
0.0
 11
678.7605185245093
 21
425.8896567289992
 31
0.0
 11
679.2519893874978
 21
425.8755690924816
 31
0.0
 11
679.7434602504864
 21
425.8896567289992
 31
0.0
 11
680.2291311494589
 21
425.931708370985
 31
0.0
 11
680.7115548666277
 21
426.0019916010403
 31
0.0
 11
681.176925055938
 21
426.0984562293138
 31
0.0
 11
681.6355642668691
 21
426.223287620656
 31
0.0
 11
682.0669339632906
 21
426.3708701016574
 31
0.0
 11
682.4876003728604
 21
426.5469176892994
 31
0.0
 11
682.8724964449735
 21
426.7409376749306
 31
0.0
 11
683.2419598373533
 21
426.9632399194329
 31
0.0
 11
683.5694834337008
 21
427.1979096983102
 31
0.0
 11
683.8758462778221
 21
427.4599392403038
 31
0.0
 11
684.1368540798047
 21
427.7287155844957
 31
0.0
 11
684.3699208496987
 21
428.0224103553925
 31
0.0
 11
684.556932671276
 21
428.3182894609963
 31
0.0
 11
684.7086978720754
 21
428.6340332847155
 31
0.0
 11
684.8155837967371
 21
428.9494819689886
 31
0.0
 11
684.8810488333828
 21
429.2762587260825
 31
0.0
 11
684.9030143445354
 21
429.6025819714504
 31
0.0
 11
684.8810488333829
 21
429.9289052168185
 31
0.0
  0
SPLINE
  5
171
330
5A
100
AcDbEntity
  8
1
  6
Continuous
 62
     7
100
AcDbSpline
210
0.0
220
0.0
230
1.0
 70
     8
 71
     3
 72
    45
 73
    41
 74
    39
 42
0.000000001
 43
0.0000000001
 44
0.00000001
 40
0.0
 40
0.0
 40
0.0
 40
0.0
 40
0.2470201718472744
 40
0.4948746832726892
 40
0.9949333322478067
 40
1.494852866095077
 40
2.009983894781693
 40
2.524890542396823
 40
3.062273900026414
 40
3.599414772005372
 40
4.162915898463019
 40
4.726201866583681
 40
5.316261253163473
 40
5.906151332241492
 40
6.520147974011421
 40
7.134023401387305
 40
7.766878141838809
 40
8.399655878703225
 40
9.044522983654899
 40
9.689352882057374
 40
10.3383291434247
 40
10.98730540479202
 40
11.6321353031946
 40
12.27700240814624
 40
12.9097801450106
 40
13.54263488546199
 40
14.15651031283787
 40
14.7705069546078
 40
15.36039703368596
 40
15.95045642026566
 40
16.51374238838621
 40
17.07724351484398
 40
17.61438438682306
 40
18.15176774445286
 40
18.6666743920682
 40
19.18180542075517
 40
19.6817249546021
 40
20.18178360357696
 40
20.42963811500218
 40
20.67665828684947
 40
20.67665828684947
 40
20.67665828684947
 40
20.67665828684947
 10
679.2519893874828
 20
424.0662266726216
 30
0.0
 10
679.1696353155914
 20
424.0648402964273
 30
0.0
 10
679.0046490116988
 20
424.0620628490707
 30
0.0
 10
678.6741305157803
 20
424.0320700367461
 30
0.0
 10
678.263318550918
 20
423.9612946600588
 30
0.0
 10
677.778011055882
 20
423.8177265725308
 30
0.0
 10
677.3064744865756
 20
423.6208519481154
 30
0.0
 10
676.8479767681587
 20
423.368398349716
 30
0.0
 10
676.4111885062109
 20
423.0669666891325
 30
0.0
 10
675.9936566381425
 20
422.7138878493598
 30
0.0
 10
675.6043105072882
 20
422.317786310804
 30
0.0
 10
675.2402315538396
 20
421.8753664108418
 30
0.0
 10
674.9094393037752
 20
421.3968208013765
 30
0.0
 10
674.6095069359228
 20
420.8788119091527
 30
0.0
 10
674.346750820687
 20
420.3321772080278
 30
0.0
 10
674.1196885774093
 20
419.7544216398247
 30
0.0
 10
673.9326236692903
 20
419.155946472669
 30
0.0
 10
673.7849791680997
 20
418.5359602321947
 30
0.0
 10
673.6791753310167
 20
417.9034341785124
 30
0.0
 10
673.615138492708
 20
417.2599165315937
 30
0.0
 10
673.593854701983
 20
416.6122009146838
 30
0.0
 10
673.615138492708
 20
415.9644852977742
 30
0.0
 10
673.6791753310165
 20
415.3209676508552
 30
0.0
 10
673.7849791680994
 20
414.688441597173
 30
0.0
 10
673.9326236692905
 20
414.0684553566987
 30
0.0
 10
674.1196885774093
 20
413.4699801895432
 30
0.0
 10
674.3467508206872
 20
412.8922246213401
 30
0.0
 10
674.6095069359228
 20
412.345589920215
 30
0.0
 10
674.909439303775
 20
411.8275810279912
 30
0.0
 10
675.2402315538399
 20
411.3490354185259
 30
0.0
 10
675.604310507288
 20
410.9066155185637
 30
0.0
 10
675.9936566381425
 20
410.5105139800081
 30
0.0
 10
676.411188506211
 20
410.1574351402351
 30
0.0
 10
676.8479767681592
 20
409.8560034796523
 30
0.0
 10
677.3064744865769
 20
409.6035498812531
 30
0.0
 10
677.7780110558834
 20
409.406675256838
 30
0.0
 10
678.2633185509192
 20
409.2631071693102
 30
0.0
 10
678.6741305157816
 20
409.192331792622
 30
0.0
 10
679.0046490116995
 20
409.1623389802974
 30
0.0
 10
679.1696353155919
 20
409.1595615329402
 30
0.0
 10
679.2519893874835
 20
409.158175156746
 30
0.0
 11
679.2519893874828
 21
424.0662266726216
 31
0.0
 11
679.0050736994635
 21
424.0590425595541
 31
0.0
 11
678.758158011444
 21
424.0374902203527
 31
0.0
 11
678.2655004372193
 21
423.9517745958879
 31
0.0
 11
677.7858649794996
 21
423.8108158488617
 31
0.0
 11
677.3104461656546
 21
423.6124804552867
 31
0.0
 11
676.8590135176871
 21
423.3648165292614
 31
0.0
 11
676.4164723015795
 21
423.0599589473674
 31
0.0
 11
676.0058564564237
 21
422.7136715751248
 31
0.0
 11
675.6104399999037
 21
422.3122000997583
 31
0.0
 11
675.2520453948588
 21
421.877637803857
 31
0.0
 11
674.9160658338822
 21
421.3925730511619
 31
0.0
 11
674.6200818105119
 21
420.8823145252793
 31
0.0
 11
674.3536477089488
 21
420.3291375685608
 31
0.0
 11
674.1288055947864
 21
419.7579203912022
 31
0.0
 11
673.9396563288022
 21
419.1539935105575
 31
0.0
 11
673.7928850139746
 21
418.5384727191226
 31
0.0
 11
673.6862682930775
 21
417.9024802215963
 31
0.0
 11
673.6223702500569
 21
417.2608240544548
 31
0.0
 11
673.6009644304602
 21
416.6122009146839
 31
0.0
 11
673.6223702500569
 21
415.9635777749129
 31
0.0
 11
673.6862682930774
 21
415.3219216077713
 31
0.0
 11
673.7928850139746
 21
414.685929110245
 31
0.0
 11
673.9396563288022
 21
414.0704083188102
 31
0.0
 11
674.1288055947864
 21
413.4664814381656
 31
0.0
 11
674.3536477089489
 21
412.895264260807
 31
0.0
 11
674.6200818105119
 21
412.3420873040885
 31
0.0
 11
674.9160658338822
 21
411.8318287782058
 31
0.0
 11
675.2520453948588
 21
411.3467640255108
 31
0.0
 11
675.6104399999036
 21
410.9122017296095
 31
0.0
 11
676.0058564564237
 21
410.510730254243
 31
0.0
 11
676.4164723015796
 21
410.1644428820003
 31
0.0
 11
676.8590135176878
 21
409.8595853001068
 31
0.0
 11
677.3104461656558
 21
409.6119213740818
 31
0.0
 11
677.7858649795012
 21
409.413585980507
 31
0.0
 11
678.2655004372206
 21
409.2726272334809
 31
0.0
 11
678.758158011445
 21
409.1869116090156
 31
0.0
 11
679.0050736994642
 21
409.1653592698138
 31
0.0
 11
679.2519893874835
 21
409.158175156746
 31
0.0
  0
SPLINE
  5
172
330
5A
100
AcDbEntity
  8
1
  6
Continuous
 62
     7
100
AcDbSpline
210
0.0
220
0.0
230
1.0
 70
     8
 71
     3
 72
    45
 73
    41
 74
    39
 42
0.000000001
 43
0.0000000001
 44
0.00000001
 40
0.0
 40
0.0
 40
0.0
 40
0.0
 40
0.2470201718472744
 40
0.494874683272576
 40
0.9949333322478054
 40
1.494852866095076
 40
2.009983894781797
 40
2.524890542396828
 40
3.062273900026418
 40
3.599414772005289
 40
4.162915898463096
 40
4.726201866583613
 40
5.31626125316334
 40
5.906151332241473
 40
6.520147974011303
 40
7.13402340138727
 40
7.766878141838741
 40
8.399655878703182
 40
9.044522983654856
 40
9.689352882057342
 40
10.33832914342466
 40
10.98730540479198
 40
11.63213530319459
 40
12.27700240814619
 40
12.90978014501055
 40
13.54263488546198
 40
14.15651031283781
 40
14.77050695460774
 40
15.36039703368596
 40
15.9504564202656
 40
16.51374238838615
 40
17.07724351484391
 40
17.614384386823
 40
18.1517677444528
 40
18.66667439206813
 40
19.181805420755
 40
19.68172495460193
 40
20.18178360357702
 40
20.42963811500212
 40
20.67665828684918
 40
20.67665828684918
 40
20.67665828684918
 40
20.67665828684918
 10
679.251989387484
 20
424.0662266726216
 30
0.0
 10
679.3343434593753
 20
424.0648402964275
 30
0.0
 10
679.4993297632681
 20
424.0620628490706
 30
0.0
 10
679.8298482591861
 20
424.0320700367463
 30
0.0
 10
680.2406602240487
 20
423.9612946600588
 30
0.0
 10
680.725967719085
 20
423.8177265725308
 30
0.0
 10
681.1975042883911
 20
423.6208519481155
 30
0.0
 10
681.6560020068082
 20
423.3683983497159
 30
0.0
 10
682.0927902687561
 20
423.0669666891325
 30
0.0
 10
682.5103221368239
 20
422.7138878493597
 30
0.0
 10
682.8996682676786
 20
422.3177863108041
 30
0.0
 10
683.263747221127
 20
421.8753664108419
 30
0.0
 10
683.5945394711913
 20
421.3968208013764
 30
0.0
 10
683.8944718390443
 20
420.8788119091528
 30
0.0
 10
684.1572279542792
 20
420.3321772080277
 30
0.0
 10
684.3842901975576
 20
419.7544216398247
 30
0.0
 10
684.5713551056763
 20
419.1559464726691
 30
0.0
 10
684.7189996068672
 20
418.5359602321947
 30
0.0
 10
684.8248034439498
 20
417.9034341785124
 30
0.0
 10
684.8888402822593
 20
417.2599165315937
 30
0.0
 10
684.9101240729833
 20
416.6122009146839
 30
0.0
 10
684.8888402822593
 20
415.964485297774
 30
0.0
 10
684.8248034439497
 20
415.3209676508552
 30
0.0
 10
684.7189996068673
 20
414.688441597173
 30
0.0
 10
684.5713551056762
 20
414.0684553566985
 30
0.0
 10
684.3842901975576
 20
413.4699801895432
 30
0.0
 10
684.1572279542795
 20
412.8922246213402
 30
0.0
 10
683.894471839044
 20
412.345589920215
 30
0.0
 10
683.5945394711914
 20
411.8275810279912
 30
0.0
 10
683.2637472211271
 20
411.349035418526
 30
0.0
 10
682.8996682676786
 20
410.9066155185636
 30
0.0
 10
682.510322136824
 20
410.5105139800081
 30
0.0
 10
682.0927902687561
 20
410.1574351402351
 30
0.0
 10
681.6560020068074
 20
409.8560034796523
 30
0.0
 10
681.19750428839
 20
409.6035498812532
 30
0.0
 10
680.7259677190837
 20
409.4066752568381
 30
0.0
 10
680.2406602240475
 20
409.2631071693099
 30
0.0
 10
679.8298482591852
 20
409.1923317926223
 30
0.0
 10
679.4993297632675
 20
409.1623389802971
 30
0.0
 10
679.3343434593746
 20
409.1595615329404
 30
0.0
 10
679.2519893874835
 20
409.158175156746
 30
0.0
 11
679.251989387484
 21
424.0662266726216
 31
0.0
 11
679.4989050755032
 21
424.0590425595541
 31
0.0
 11
679.7458207635226
 21
424.0374902203527
 31
0.0
 11
680.2384783377474
 21
423.9517745958879
 31
0.0
 11
680.7181137954672
 21
423.8108158488617
 31
0.0
 11
681.1935326093122
 21
423.6124804552867
 31
0.0
 11
681.6449652572796
 21
423.3648165292614
 31
0.0
 11
682.0875064733873
 21
423.0599589473674
 31
0.0
 11
682.498122318543
 21
422.7136715751248
 31
0.0
 11
682.8935387750631
 21
422.3122000997583
 31
0.0
 11
683.2519333801079
 21
421.877637803857
 31
0.0
 11
683.5879129410844
 21
421.3925730511619
 31
0.0
 11
683.8838969644548
 21
420.8823145252793
 31
0.0
 11
684.1503310660178
 21
420.3291375685608
 31
0.0
 11
684.3751731801804
 21
419.7579203912022
 31
0.0
 11
684.5643224461644
 21
419.1539935105575
 31
0.0
 11
684.7110937609922
 21
418.5384727191226
 31
0.0
 11
684.8177104818892
 21
417.9024802215963
 31
0.0
 11
684.88160852491
 21
417.2608240544548
 31
0.0
 11
684.9030143445065
 21
416.6122009146839
 31
0.0
 11
684.88160852491
 21
415.9635777749129
 31
0.0
 11
684.8177104818891
 21
415.3219216077713
 31
0.0
 11
684.7110937609922
 21
414.685929110245
 31
0.0
 11
684.5643224461645
 21
414.0704083188102
 31
0.0
 11
684.3751731801802
 21
413.4664814381656
 31
0.0
 11
684.1503310660179
 21
412.895264260807
 31
0.0
 11
683.8838969644548
 21
412.3420873040885
 31
0.0
 11
683.5879129410845
 21
411.8318287782058
 31
0.0
 11
683.251933380108
 21
411.3467640255108
 31
0.0
 11
682.8935387750631
 21
410.9122017296095
 31
0.0
 11
682.4981223185431
 21
410.510730254243
 31
0.0
 11
682.0875064733872
 21
410.1644428820003
 31
0.0
 11
681.644965257279
 21
409.8595853001068
 31
0.0
 11
681.193532609311
 21
409.6119213740818
 31
0.0
 11
680.7181137954657
 21
409.413585980507
 31
0.0
 11
680.2384783377463
 21
409.2726272334809
 31
0.0
 11
679.7458207635217
 21
409.1869116090156
 31
0.0
 11
679.4989050755025
 21
409.1653592698138
 31
0.0
 11
679.2519893874835
 21
409.158175156746
 31
0.0
  0
ARC
  5
173
330
5A
100
AcDbEntity
  8
1
  6
Continuous
 62
     7
100
AcDbCircle
 10
685.5519893874979
 20
402.3555372083494
 30
0.0
 40
0.2000000000000989
100
AcDbArc
 50
310.0052008848595
 51
0.0
  0
ARC
  5
174
330
5A
100
AcDbEntity
  8
1
  6
Continuous
 62
     7
100
AcDbCircle
 10
350.1280934071064
 20
783.430150922198
 30
0.0
 40
0.2000000000000455
100
AcDbArc
 50
270.0
 51
319.9947991151719
  0
ARC
  5
175
330
5A
100
AcDbEntity
  8
1
  6
Continuous
 62
     7
100
AcDbCircle
 10
350.1280934071064
 20
796.0301509221979
 30
0.0
 40
0.2000000000002295
100
AcDbArc
 50
40.00520088482813
 51
90.0
  0
ARC
  5
176
330
5A
100
AcDbEntity
  8
1
  6
Continuous
 62
     7
100
AcDbCircle
 10
321.6147659944374
 20
783.430150922198
 30
0.0
 40
0.2000000000000989
100
AcDbArc
 50
220.0052008848595
 51
270.0
  0
ARC
  5
177
330
5A
100
AcDbEntity
  8
1
  6
Continuous
 62
     7
100
AcDbCircle
 10
321.6147659944374
 20
796.0301509221979
 30
0.0
 40
0.2000000000000455
100
AcDbArc
 50
90.0
 51
139.9947991151405
  0
ENDBLK
  5
5C
330
5A
100
AcDbEntity
  8
0
100
AcDbBlockEnd
  0
BLOCK
  5
65
330
5D
100
AcDbEntity
  8
0
100
AcDbBlockBegin
  2
U3-48F-50__8
 70
     0
 10
523.3714297007718
 20
638.8495897861023
 30
0.0
  3
U3-48F-50__8
  1

  0
INSERT
  5
5E
330
5D
100
AcDbEntity
  8
1
100
AcDbBlockReference
  2
30-108K__1
 10
435.8714300220256
 20
733.3495923137953
 30
0.0
  0
INSERT
  5
5F
330
5D
100
AcDbEntity
  8
1
100
AcDbBlockReference
  2
78-78K__2
 10
391.7214300220257
 20
640.0495923137952
 30
0.0
  0
INSERT
  5
60
330
5D
100
AcDbEntity
  8
1
100
AcDbBlockReference
  2
36-99K__3
 10
391.1214300220256
 20
655.3495923137953
 30
0.0
  0
INSERT
  5
61
330
5D
100
AcDbEntity
  8
1
100
AcDbBlockReference
  2
03-47-50K__4
 10
365.121429700772
 20
759.7439273533998
 30
0.0
  0
INSERT
  5
62
330
5D
100
AcDbEntity
  8
1
100
AcDbBlockReference
  2
35-6A-8K__5
 10
508.0570435692098
 20
1192.039693144835
 30
0.0
  0
INSERT
  5
63
330
5D
100
AcDbEntity
  8
0
100
AcDbBlockReference
  2
78-3AK__6
 10
220.656193014381
 20
1122.470714040846
 30
0.0
  0
INSERT
  5
64
330
5D
100
AcDbEntity
  8
0
100
AcDbBlockReference
  2
32-3K__7
 10
412.8185520029303
 20
1093.67704893149
 30
0.0
  0
LINE
  5
178
330
5D
100
AcDbEntity
  8
1
  6
PHANTOM
 62
     4
100
AcDbLine
 10
324.0273898452647
 20
404.7681627871515
 30
0.0
 11
347.715467015014
 21
428.4562399569008
 31
0.0
  0
LINE
  5
179
330
5D
100
AcDbEntity
  8
1
  6
PHANTOM
 62
     4
100
AcDbLine
 10
353.5490979598031
 20
363.5791927830352
 30
0.0
 11
388.9044370191303
 21
398.9345318423624
 31
0.0
  0
LINE
  5
17A
330
5D
100
AcDbEntity
  8
1
  6
PHANTOM
 62
     4
100
AcDbLine
 10
388.9044370191303
 20
363.5791927830352
 30
0.0
 11
325.2648267123412
 21
427.2188030898244
 31
0.0
  0
LINE
  5
17B
330
5D
100
AcDbEntity
  8
1
  6
PHANTOM
 62
     4
100
AcDbLine
 10
371.226767641914
 20
843.8495897861023
 30
0.0
 11
371.226767641914
 21
792.8495897861023
 31
0.0
  0
LINE
  5
17C
330
5D
100
AcDbEntity
  8
1
  6
PHANTOM
 62
     4
100
AcDbLine
 10
335.871429700772
 20
783.2301509221979
 30
0.0
 11
335.8714297007719
 21
811.3495897861021
 31
0.0
  0
ENDBLK
  5
66
330
5D
100
AcDbEntity
  8
0
100
AcDbBlockEnd
  0
BLOCK
  5
68
330
67
100
AcDbEntity
  8
0
100
AcDbBlockBegin
  2
開示A4
 70
     0
 10
0.0
 20
0.0
 30
0.0
  3
開示A4
  1

  0
POINT
  5
17D
330
67
100
AcDbEntity
  8
1
 62
     4
100
AcDbPoint
 10
34.0
 20
34.00000000000001
 30
0.0
  0
POINT
  5
17E
330
67
100
AcDbEntity
  8
1
 62
     4
100
AcDbPoint
 10
57.0
 20
12.25
 30
0.0
  0
POINT
  5
17F
330
67
100
AcDbEntity
  8
1
 62
     4
100
AcDbPoint
 10
57.0
 20
20.75000000000001
 30
0.0
  0
POINT
  5
180
330
67
100
AcDbEntity
  8
1
 62
     4
100
AcDbPoint
 10
57.0
 20
24.75000000000001
 30
0.0
  0
POINT
  5
181
330
67
100
AcDbEntity
  8
1
 62
     4
100
AcDbPoint
 10
57.0
 20
16.25
 30
0.0
  0
POINT
  5
182
330
67
100
AcDbEntity
  8
1
 62
     4
100
AcDbPoint
 10
157.5
 20
19.00000000000001
 30
0.0
  0
POINT
  5
183
330
67
100
AcDbEntity
  8
1
 62
     4
100
AcDbPoint
 10
47.5
 20
282.0000000000003
 30
0.0
  0
POINT
  5
184
330
67
100
AcDbEntity
  8
1
 62
     4
100
AcDbPoint
 10
57.0
 20
22.75000000000001
 30
0.0
  0
POINT
  5
185
330
67
100
AcDbEntity
  8
1
 62
     4
100
AcDbPoint
 10
57.0
 20
14.25
 30
0.0
  0
POINT
  5
186
330
67
100
AcDbEntity
  8
1
 62
     4
100
AcDbPoint
 10
157.5
 20
12.5
 30
0.0
  0
POINT
  5
187
330
67
100
AcDbEntity
  8
1
 62
     4
100
AcDbPoint
 10
163.25
 20
12.5
 30
0.0
  0
POINT
  5
188
330
67
100
AcDbEntity
  8
1
 62
     4
100
AcDbPoint
 10
151.75
 20
12.5
 30
0.0
  0
POINT
  5
189
330
67
100
AcDbEntity
  8
1
 62
     4
100
AcDbPoint
 10
134.75
 20
12.5
 30
0.0
  0
POINT
  5
18A
330
67
100
AcDbEntity
  8
1
 62
     4
100
AcDbPoint
 10
146.25
 20
12.5
 30
0.0
  0
POINT
  5
18B
330
67
100
AcDbEntity
  8
1
 62
     4
100
AcDbPoint
 10
140.5
 20
12.5
 30
0.0
  0
POINT
  5
18C
330
67
100
AcDbEntity
  8
1
 62
     4
100
AcDbPoint
 10
140.5
 20
19.00000000000001
 30
0.0
  0
POINT
  5
18D
330
67
100
AcDbEntity
  8
1
 62
     4
100
AcDbPoint
 10
117.75
 20
12.5
 30
0.0
  0
POINT
  5
18E
330
67
100
AcDbEntity
  8
1
 62
     4
100
AcDbPoint
 10
129.25
 20
12.5
 30
0.0
  0
POINT
  5
18F
330
67
100
AcDbEntity
  8
1
 62
     4
100
AcDbPoint
 10
123.5
 20
12.5
 30
0.0
  0
POINT
  5
190
330
67
100
AcDbEntity
  8
1
 62
     4
100
AcDbPoint
 10
123.5
 20
19.00000000000001
 30
0.0
  0
POINT
  5
191
330
67
100
AcDbEntity
  8
1
 62
     4
100
AcDbPoint
 10
100.75
 20
12.5
 30
0.0
  0
POINT
  5
192
330
67
100
AcDbEntity
  8
1
 62
     4
100
AcDbPoint
 10
112.25
 20
12.5
 30
0.0
  0
POINT
  5
193
330
67
100
AcDbEntity
  8
1
 62
     4
100
AcDbPoint
 10
106.5
 20
12.5
 30
0.0
  0
POINT
  5
194
330
67
100
AcDbEntity
  8
1
 62
     4
100
AcDbPoint
 10
106.5
 20
19.00000000000001
 30
0.0
  0
POINT
  5
195
330
67
100
AcDbEntity
  8
1
 62
     4
100
AcDbPoint
 10
85.25
 20
17.0
 30
0.0
  0
POINT
  5
196
330
67
100
AcDbEntity
  8
1
 62
     4
100
AcDbPoint
 10
93.75
 20
17.0
 30
0.0
  0
LINE
  5
197
330
67
100
AcDbEntity
  8
1
  6
Continuous
 62
     2
100
AcDbLine
 10
81.0
 20
27.00000000000001
 30
0.0
 11
81.0
 21
10.0
 31
0.0
  0
LINE
  5
198
330
67
100
AcDbEntity
  8
1
  6
DOT_CENTER
 62
     2
100
AcDbLine
 10
187.0
 20
26.50000000000001
 30
0.0
 11
187.0
 21
20.50000000000001
 31
0.0
  0
LINE
  5
199
330
67
100
AcDbEntity
  8
1
  6
DOT_CENTER
 62
     2
100
AcDbLine
 10
184.0
 20
23.50000000000001
 30
0.0
 11
197.0
 21
23.50000000000001
 31
0.0
  0
LINE
  5
19A
330
67
100
AcDbEntity
  8
1
  6
Continuous
 62
     7
100
AcDbLine
 10
196.0
 20
21.50000000000001
 30
0.0
 11
191.0
 21
22.30000000000001
 31
0.0
  0
LINE
  5
19B
330
67
100
AcDbEntity
  8
1
  6
Continuous
 62
     7
100
AcDbLine
 10
196.0
 20
25.50000000000001
 30
0.0
 11
196.0
 21
21.50000000000001
 31
0.0
  0
LINE
  5
19C
330
67
100
AcDbEntity
  8
1
  6
Continuous
 62
     7
100
AcDbLine
 10
191.0
 20
24.70000000000001
 30
0.0
 11
196.0
 21
25.50000000000001
 31
0.0
  0
LINE
  5
19D
330
67
100
AcDbEntity
  8
1
  6
Continuous
 62
     7
100
AcDbLine
 10
191.0
 20
24.70000000000001
 30
0.0
 11
191.0
 21
22.30000000000001
 31
0.0
  0
LINE
  5
19E
330
67
100
AcDbEntity
  8
1
  6
Continuous
 62
     2
100
AcDbLine
 10
33.0
 20
27.0
 30
0.0
 11
33.0
 21
10.0
 31
0.0
  0
LINE
  5
19F
330
67
100
AcDbEntity
  8
1
  6
Continuous
 62
     2
100
AcDbLine
 10
25.0
 20
18.50000000000001
 30
0.0
 11
81.0
 21
18.50000000000001
 31
0.0
  0
LINE
  5
1A0
330
67
100
AcDbEntity
  8
1
  6
Continuous
 62
     7
100
AcDbLine
 10
200.0
 20
287.0000000000003
 30
0.0
 11
105.0
 21
287.0000000000003
 31
0.0
  0
LINE
  5
1A1
330
67
100
AcDbEntity
  8
1
  6
Continuous
 62
     7
100
AcDbLine
 10
200.0
 20
10.0
 30
0.0
 11
200.0
 21
148.5
 31
0.0
  0
LINE
  5
1A2
330
67
100
AcDbEntity
  8
1
  6
Continuous
 62
     7
100
AcDbLine
 10
25.0
 20
10.0
 30
0.0
 11
105.0
 21
10.0
 31
0.0
  0
LINE
  5
1A3
330
67
100
AcDbEntity
  8
1
  6
PHANTOM
 62
     4
100
AcDbLine
 10
0.0
 20
297.0
 30
0.0
 11
0.0
 21
0.0
 31
0.0
  0
LINE
  5
1A4
330
67
100
AcDbEntity
  8
1
  6
PHANTOM
 62
     4
100
AcDbLine
 10
210.0
 20
297.0
 30
0.0
 11
0.0
 21
297.0
 31
0.0
  0
LINE
  5
1A5
330
67
100
AcDbEntity
  8
1
  6
PHANTOM
 62
     4
100
AcDbLine
 10
210.0
 20
0.0
 30
0.0
 11
210.0
 21
297.0
 31
0.0
  0
LINE
  5
1A6
330
67
100
AcDbEntity
  8
1
  6
PHANTOM
 62
     4
100
AcDbLine
 10
0.0
 20
0.0
 30
0.0
 11
210.0
 21
0.0
 31
0.0
  0
LINE
  5
1A7
330
67
100
AcDbEntity
  8
1
  6
Continuous
 62
     7
100
AcDbLine
 10
25.0
 20
41.0
 30
0.0
 11
200.0
 21
41.0
 31
0.0
  0
LINE
  5
1A8
330
67
100
AcDbEntity
  8
1
  6
Continuous
 62
     7
100
AcDbLine
 10
200.0
 20
27.00000000000001
 30
0.0
 11
25.0
 21
27.00000000000001
 31
0.0
  0
LINE
  5
1A9
330
67
100
AcDbEntity
  8
1
  6
Continuous
 62
     2
100
AcDbLine
 10
33.0
 20
41.00000000000001
 30
0.0
 11
33.0
 21
27.0
 31
0.0
  0
LINE
  5
1AA
330
67
100
AcDbEntity
  8
1
  6
Continuous
 62
     2
100
AcDbLine
 10
55.0
 20
287.0000000000003
 30
0.0
 11
55.0
 21
277.0000000000003
 31
0.0
  0
LINE
  5
1AB
330
67
100
AcDbEntity
  8
1
  6
Continuous
 62
     2
100
AcDbLine
 10
40.0
 20
287.0000000000003
 30
0.0
 11
40.0
 21
277.0000000000003
 31
0.0
  0
LINE
  5
1AC
330
67
100
AcDbEntity
  8
1
  6
Continuous
 62
     7
100
AcDbLine
 10
25.0
 20
10.0
 30
0.0
 11
25.0
 21
148.5
 31
0.0
  0
LINE
  5
1AD
330
67
100
AcDbEntity
  8
1
  6
Continuous
 62
     2
100
AcDbLine
 10
55.0
 20
277.0000000000003
 30
0.0
 11
25.0
 21
277.0000000000003
 31
0.0
  0
LINE
  5
1AE
330
67
100
AcDbEntity
  8
1
  6
Continuous
 62
     2
100
AcDbLine
 10
166.0
 20
27.00000000000001
 30
0.0
 11
166.0
 21
10.0
 31
0.0
  0
LINE
  5
1AF
330
67
100
AcDbEntity
  8
1
  6
Continuous
 62
     2
100
AcDbLine
 10
132.0
 20
27.00000000000001
 30
0.0
 11
132.0
 21
9.99999999999999
 31
0.0
  0
LINE
  5
1B0
330
67
100
AcDbEntity
  8
1
  6
Continuous
 62
     2
100
AcDbLine
 10
149.0
 20
27.00000000000001
 30
0.0
 11
149.0
 21
10.0
 31
0.0
  0
LINE
  5
1B1
330
67
100
AcDbEntity
  8
1
  6
Continuous
 62
     2
100
AcDbLine
 10
115.0
 20
27.00000000000001
 30
0.0
 11
115.0
 21
9.99999999999999
 31
0.0
  0
LINE
  5
1B2
330
67
100
AcDbEntity
  8
1
  6
Continuous
 62
     2
100
AcDbLine
 10
98.0
 20
27.00000000000001
 30
0.0
 11
98.0
 21
9.99999999999999
 31
0.0
  0
LINE
  5
1B3
330
67
100
AcDbEntity
  8
1
  6
Continuous
 62
     2
100
AcDbLine
 10
166.0
 20
20.00000000000001
 30
0.0
 11
200.0
 21
20.00000000000001
 31
0.0
  0
LINE
  5
1B4
330
67
100
AcDbEntity
  8
1
  6
Continuous
 62
     2
100
AcDbLine
 10
105.0
 20
287.0000000000003
 30
0.0
 11
105.0
 21
292.0000000000003
 31
0.0
  0
LINE
  5
1B5
330
67
100
AcDbEntity
  8
1
  6
Continuous
 62
     7
100
AcDbLine
 10
105.0
 20
287.0000000000003
 30
0.0
 11
25.0
 21
287.0000000000003
 31
0.0
  0
LINE
  5
1B6
330
67
100
AcDbEntity
  8
1
  6
Continuous
 62
     2
100
AcDbLine
 10
25.0
 20
148.5
 30
0.0
 11
20.0
 21
148.5
 31
0.0
  0
LINE
  5
1B7
330
67
100
AcDbEntity
  8
1
  6
Continuous
 62
     7
100
AcDbLine
 10
25.0
 20
148.5
 30
0.0
 11
25.0
 21
287.0000000000003
 31
0.0
  0
LINE
  5
1B8
330
67
100
AcDbEntity
  8
1
  6
Continuous
 62
     2
100
AcDbLine
 10
200.0
 20
148.5
 30
0.0
 11
205.0
 21
148.5
 31
0.0
  0
LINE
  5
1B9
330
67
100
AcDbEntity
  8
1
  6
Continuous
 62
     7
100
AcDbLine
 10
200.0
 20
148.5
 30
0.0
 11
200.0
 21
287.0000000000003
 31
0.0
  0
LINE
  5
1BA
330
67
100
AcDbEntity
  8
1
  6
Continuous
 62
     2
100
AcDbLine
 10
105.0
 20
10.0
 30
0.0
 11
105.0
 21
5.0
 31
0.0
  0
LINE
  5
1BB
330
67
100
AcDbEntity
  8
1
  6
Continuous
 62
     7
100
AcDbLine
 10
105.0
 20
10.0
 30
0.0
 11
200.0
 21
10.0
 31
0.0
  0
CIRCLE
  5
1BC
330
67
100
AcDbEntity
  8
1
  6
DOT_CENTER
 62
     7
100
AcDbCircle
 10
89.5
 20
18.0
 30
0.0
 40
0.1000000000000227
  0
CIRCLE
  5
1BD
330
67
100
AcDbEntity
  8
1
  6
DOT_CENTER
 62
     7
100
AcDbCircle
 10
89.5
 20
16.0
 30
0.0
 40
0.1000000000000227
  0
CIRCLE
  5
1BE
330
67
100
AcDbEntity
  8
1
  6
Continuous
 62
     7
100
AcDbCircle
 10
187.0
 20
23.50000000000001
 30
0.0
 40
2.0
  0
CIRCLE
  5
1BF
330
67
100
AcDbEntity
  8
1
  6
Continuous
 62
     7
100
AcDbCircle
 10
187.0
 20
23.50000000000001
 30
0.0
 40
1.200000000000102
  0
CIRCLE
  5
1C0
330
67
100
AcDbEntity
  8
1
  6
Continuous
 62
     7
100
AcDbCircle
 10
154.5
 20
12.5
 30
0.0
 40
0.3000000000000114
  0
CIRCLE
  5
1C1
330
67
100
AcDbEntity
  8
1
  6
Continuous
 62
     7
100
AcDbCircle
 10
160.5
 20
12.5
 30
0.0
 40
0.3000000000000114
  0
CIRCLE
  5
1C2
330
67
100
AcDbEntity
  8
1
  6
Continuous
 62
     7
100
AcDbCircle
 10
143.5
 20
12.5
 30
0.0
 40
0.3000000000000114
  0
CIRCLE
  5
1C3
330
67
100
AcDbEntity
  8
1
  6
Continuous
 62
     7
100
AcDbCircle
 10
137.5
 20
12.5
 30
0.0
 40
0.3000000000000114
  0
CIRCLE
  5
1C4
330
67
100
AcDbEntity
  8
1
  6
Continuous
 62
     7
100
AcDbCircle
 10
126.5
 20
12.5
 30
0.0
 40
0.2999999999999972
  0
CIRCLE
  5
1C5
330
67
100
AcDbEntity
  8
1
  6
Continuous
 62
     7
100
AcDbCircle
 10
120.5
 20
12.5
 30
0.0
 40
0.2999999999999972
  0
CIRCLE
  5
1C6
330
67
100
AcDbEntity
  8
1
  6
Continuous
 62
     7
100
AcDbCircle
 10
109.5
 20
12.5
 30
0.0
 40
0.2999999999999972
  0
CIRCLE
  5
1C7
330
67
100
AcDbEntity
  8
1
  6
Continuous
 62
     7
100
AcDbCircle
 10
103.5
 20
12.5
 30
0.0
 40
0.2999999999999972
  0
MTEXT
  5
1C9
330
67
100
AcDbEntity
  8
1
 62
   250
100
AcDbMText
 10
25.0
 20
5.0
 30
0.0
 40
3.5
 41
0.0
 71
     4
 72
     1
  1
備考欄の文字列 原点位置=4
  7
CONVERTER_11
 73
     1
 44
0.54545454545455
  0
MTEXT
  5
1CA
330
67
100
AcDbEntity
  8
1
 62
     2
100
AcDbMText
 10
89.5
 20
24.00000000000001
 30
0.0
 40
3.5
 41
0.0
 71
     5
 72
     1
  1
尺度
  7
CONVERTER_11
 73
     1
 44
0.54545454545455
  0
MTEXT
  5
1CB
330
67
100
AcDbEntity
  8
1
 62
     2
100
AcDbMText
 10
135.5
 20
25.00000000000001
 30
0.0
 40
3.0
 41
0.0
 71
     5
 72
     1
  1
製図
  7
CONVERTER_11
 73
     1
 44
0.59090909090909
  0
MTEXT
  5
1CC
330
67
100
AcDbEntity
  8
1
 62
     2
100
AcDbMText
 10
152.5
 20
25.00000000000001
 30
0.0
 40
3.0
 41
0.0
 71
     5
 72
     1
  1
設計
  7
CONVERTER_11
 73
     1
 44
0.59090909090909
  0
MTEXT
  5
1CD
330
67
100
AcDbEntity
  8
1
 62
     2
100
AcDbMText
 10
118.5
 20
25.00000000000001
 30
0.0
 40
3.0
 41
0.0
 71
     5
 72
     1
  1
検図
  7
CONVERTER_11
 73
     1
 44
0.59090909090909
  0
MTEXT
  5
1CE
330
67
100
AcDbEntity
  8
1
 62
     2
100
AcDbMText
 10
175.0
 20
23.50000000000001
 30
0.0
 40
3.5
 41
0.0
 71
     5
 72
     1
  1
第三角法
  7
CONVERTER_11
 73
     1
 44
0.54545454545455
  0
MTEXT
  5
1CF
330
67
100
AcDbEntity
  8
1
 62
     2
100
AcDbMText
 10
101.5
 20
25.00000000000001
 30
0.0
 40
3.0
 41
0.0
 71
     5
 72
     1
  1
承認
  7
CONVERTER_11
 73
     1
 44
0.59090909090909
  0
MTEXT
  5
1D0
330
67
100
AcDbEntity
  8
1
 62
     2
100
AcDbMText
 10
29.0
 20
14.25
 30
0.0
 40
3.5
 41
0.0
 71
     5
 72
     1
  1
品番
  7
CONVERTER_11
 73
     1
 44
0.72727272727273
  0
MTEXT
  5
1D1
330
67
100
AcDbEntity
  8
1
 62
     2
100
AcDbMText
 10
29.0
 20
22.75
 30
0.0
 40
3.5
 41
0.0
 71
     5
 72
     1
  1
品名
  7
CONVERTER_11
 73
     1
 44
0.72727272727273
  0
MTEXT
  5
1D2
330
67
100
AcDbEntity
  8
1
 62
     2
100
AcDbMText
 10
29.0
 20
34.00000000000001
 30
0.0
 40
3.5
 41
0.0
 71
     5
 72
     1
  1
備考
  7
CONVERTER_11
 73
     1
 44
0.45454545454545
  0
MTEXT
  5
1D3
330
67
100
AcDbEntity
  8
1
 62
     2
100
AcDbMText
 10
32.5
 20
282.0000000000003
 30
0.0
 40
5.0
 41
0.0
 71
     5
 72
     1
  1
図番
  7
CONVERTER_11
 73
     1
 44
0.45454545454545
  0
MTEXT
  5
1D4
330
67
100
AcDbEntity
  8
1
 62
     7
100
AcDbMText
 10
171.5
 20
15.0
 30
0.0
 40
2.5
 41
0.0
 71
     5
 72
     1
  1
株式会社
  7
CONVERTER_11
 73
     1
 44
1.0
  0
MTEXT
  5
1D5
330
67
100
AcDbEntity
  8
1
 62
     7
100
AcDbMText
 10
188.5
 20
15.0
 30
0.0
 40
3.0
 41
0.0
 71
     5
 72
     1
  1
三栄水栓製作所
  7
CONVERTER_11
 73
     1
 44
1.0
  0
ENDBLK
  5
69
330
67
100
AcDbEntity
  8
0
100
AcDbBlockEnd
  0
BLOCK
  5
6B
330
6A
100
AcDbEntity
  8
0
100
AcDbBlockBegin
  2
84-293
 70
     0
 10
721.500042303149
 20
15.33900429134201
 30
0.0
  3
84-293
  1

  0
LINE
  5
1D6
102
{ACAD_REACTORS
330
1E8
102
}
330
6A
100
AcDbEntity
  8
1
  6
Continuous
 62
     7
100
AcDbLine
 10
276.5785363602178
 20
467.9050941334978
 30
0.0
 11
278.572092995995
 21
465.9115374977206
 31
0.0
  0
LINE
  5
1D7
102
{ACAD_REACTORS
330
1E8
102
}
330
6A
100
AcDbEntity
  8
1
  6
Continuous
 62
     7
100
AcDbLine
 10
276.5785363602178
 20
469.3193076958708
 30
0.0
 11
278.572092995995
 21
471.3128643316482
 31
0.0
  0
LINE
  5
1D8
330
6A
100
AcDbEntity
  8
1
  6
PHANTOM
 62
     4
100
AcDbLine
 10
275.8714295790313
 20
468.6122009146843
 30
0.0
 11
275.8714295790313
 21
473.8622003896844
 31
0.0
  0
LINE
  5
1D9
330
6A
100
AcDbEntity
  8
1
  6
PHANTOM
 62
     4
100
AcDbLine
 10
275.8714295790313
 20
468.6122009146843
 30
0.0
 11
281.1214290540313
 21
468.6122009146843
 31
0.0
  0
LINE
  5
1DA
330
6A
100
AcDbEntity
  8
1
  6
PHANTOM
 62
     4
100
AcDbLine
 10
275.8714295790313
 20
463.3622014396844
 30
0.0
 11
275.8714295790313
 21
468.6122009146843
 31
0.0
  0
LINE
  5
1DB
330
6A
100
AcDbEntity
  8
1
  6
PHANTOM
 62
     4
100
AcDbLine
 10
270.6214301040312
 20
468.6122009146843
 30
0.0
 11
275.8714295790313
 21
468.6122009146843
 31
0.0
  0
LINE
  5
1DC
102
{ACAD_REACTORS
330
1E9
102
}
330
6A
100
AcDbEntity
  8
1
  6
Continuous
 62
     7
100
AcDbLine
 10
273.1707661620675
 20
471.3128643316482
 30
0.0
 11
275.1643227978448
 21
469.3193076958708
 31
0.0
  0
LINE
  5
1DD
102
{ACAD_REACTORS
330
1E9
102
}
330
6A
100
AcDbEntity
  8
1
  6
Continuous
 62
     7
100
AcDbLine
 10
273.1707661620675
 20
465.9115374977206
 30
0.0
 11
275.1643227978448
 21
467.9050941334978
 31
0.0
  0
LINE
  5
1DE
330
6A
100
AcDbEntity
  8
1
  6
Continuous
 62
     7
100
AcDbLine
 10
631.871428301405
 20
464.3266750238947
 30
0.0
 11
632.1837862960075
 21
464.3266750238947
 31
0.0
  0
ARC
  5
1DF
102
{ACAD_REACTORS
330
1E9
102
}
330
6A
100
AcDbEntity
  8
1
  6
Continuous
 62
     7
100
AcDbCircle
 10
276.1214300040314
 20
468.6122009146843
 30
0.0
 40
4.000000000000063
100
AcDbArc
 50
137.5329689375395
 51
180.0
  0
ARC
  5
1E0
102
{ACAD_REACTORS
330
1E8
102
}
330
6A
100
AcDbEntity
  8
1
  6
Continuous
 62
     7
100
AcDbCircle
 10
275.6214291540312
 20
468.6122009146843
 30
0.0
 40
3.999999999999822
100
AcDbArc
 50
317.5329689375396
 51
0.0
  0
ARC
  5
1E1
102
{ACAD_REACTORS
330
1E8
102
}
330
6A
100
AcDbEntity
  8
1
  6
Continuous
 62
     7
100
AcDbCircle
 10
275.6214291540312
 20
468.6122009146843
 30
0.0
 40
4.0
100
AcDbArc
 50
0.0
 51
42.46703106246221
  0
ARC
  5
1E2
102
{ACAD_REACTORS
330
1E9
102
}
330
6A
100
AcDbEntity
  8
1
  6
Continuous
 62
     7
100
AcDbCircle
 10
276.1214300040314
 20
468.6122009146843
 30
0.0
 40
4.0
100
AcDbArc
 50
180.0
 51
222.4670310624587
  0
ARC
  5
1E3
330
6A
100
AcDbEntity
  8
1
  6
Continuous
 62
     7
100
AcDbCircle
 10
643.0936150229192
 20
468.5766745988952
 30
0.0
 40
11.9999988000013
100
AcDbArc
 50
161.8509687026943
 51
180.0000000000038
  0
ARC
  5
1E4
330
6A
100
AcDbEntity
  8
1
  6
Continuous
 62
     7
100
AcDbCircle
 10
643.0936150229192
 20
468.5766745988952
 30
0.0
 40
11.99999880000132
100
AcDbArc
 50
180.0000000000038
 51
200.7423799544871
  0
CIRCLE
  5
1E5
330
6A
100
AcDbEntity
  8
1
  6
Continuous
 62
     7
100
AcDbCircle
 10
275.8714295790313
 20
468.6122009146843
 30
0.0
 40
4.24999957499989
  0
ARC
  5
1E6
102
{ACAD_REACTORS
330
1E8
102
}
330
6A
100
AcDbEntity
  8
1
  6
Continuous
 62
     7
100
AcDbCircle
 10
277.2856431414043
 20
468.6122009146843
 30
0.0
 40
0.9999999999999276
100
AcDbArc
 50
135.0
 51
225.0
  0
ARC
  5
1E7
102
{ACAD_REACTORS
330
1E9
102
}
330
6A
100
AcDbEntity
  8
1
  6
Continuous
 62
     7
100
AcDbCircle
 10
274.4572160166582
 20
468.6122009146843
 30
0.0
 40
1.000000000000008
100
AcDbArc
 50
315.0000000000047
 51
44.9999999999954
  0
HATCH
  5
1E8
330
6A
100
AcDbEntity
  8
1
  6
Continuous
 62
     2
100
AcDbHatch
 10
0.0
 20
0.0
 30
0.0
210
0.0
220
0.0
230
1.0
  2
CUSTOM0
 70
     0
 71
     1
 91
        1
 92
        1
 93
        5
 72
     2
 10
275.6214291540312
 20
468.6122009146843
 40
3.999999999999822
 50
0.0
 51
42.46703106246039
 73
     0
 72
     1
 10
278.572092995995
 20
465.9115374977206
 11
276.5785363602178
 21
467.9050941334978
 72
     2
 10
277.2856431414043
 20
468.6122009146843
 40
0.9999999999999276
 50
135.0
 51
225.0
 73
     0
 72
     1
 10
276.5785363602178
 20
469.3193076958708
 11
278.572092995995
 21
471.3128643316482
 72
     2
 10
275.6214291540312
 20
468.6122009146843
 40
4.0
 50
317.5329689375378
 51
360.0
 73
     0
 97
        5
330
1D7
330
1E6
330
1D6
330
1E0
330
1E1
 75
     1
 76
     2
 52
45.0
 41
0.25
 77
     0
 78
     1
 53
45.0
 43
0.0
 44
0.0
 45
-0.7071067811865475
 46
0.0000000000000001
 79
     0
 98
        1
 10
0.0
 20
0.0
  0
HATCH
  5
1E9
330
6A
100
AcDbEntity
  8
1
  6
Continuous
 62
     2
100
AcDbHatch
 10
0.0
 20
0.0
 30
0.0
210
0.0
220
0.0
230
1.0
  2
SOLID
 70
     1
 71
     1
 91
        1
 92
        1
 93
        5
 72
     1
 10
275.1643227978448
 20
467.9050941334978
 11
273.1707661620675
 21
465.9115374977206
 72
     2
 10
276.1214300040314
 20
468.6122009146843
 40
4.0
 50
137.5329689375413
 51
180.0
 73
     0
 72
     2
 10
276.1214300040314
 20
468.6122009146843
 40
4.000000000000063
 50
180.0
 51
222.4670310624606
 73
     0
 72
     1
 10
273.1707661620675
 20
471.3128643316482
 11
275.1643227978448
 21
469.3193076958708
 72
     2
 10
274.4572160166582
 20
468.6122009146843
 40
1.000000000000008
 50
315.0000000000047
 51
404.9999999999953
 73
     0
 97
        5
330
1DC
330
1DF
330
1E2
330
1DD
330
1E7
 75
     0
 76
     1
 98
        1
 10
0.0
 20
0.0
  0
ENDBLK
  5
6C
330
6A
100
AcDbEntity
  8
0
100
AcDbBlockEnd
  0
BLOCK
  5
6E
330
6D
100
AcDbEntity
  8
0
100
AcDbBlockBegin
  2
27-014-0323
 70
     0
 10
875.0000007569511
 20
584.4
 30
0.0
  3
27-014-0323
  1

  0
LINE
  5
1EA
330
6D
100
AcDbEntity
  8
1
  6
PHANTOM
 62
     5
100
AcDbLine
 10
677.2589266010589
 20
453.4154472674598
 30
0.0
 11
674.7655375278903
 21
453.4154472674599
 31
0.0
  0
LINE
  5
1EB
330
6D
100
AcDbEntity
  8
1
  6
Continuous
 62
     7
100
AcDbLine
 10
632.3628530353828
 20
454.1034747114654
 30
0.0
 11
632.1096022774819
 21
468.6122009146768
 31
0.0
  0
LINE
  5
1EC
330
6D
100
AcDbEntity
  8
1
  6
Continuous
 62
     7
100
AcDbLine
 10
673.8197778173812
 20
462.7064062241024
 30
0.0
 11
654.3171915947948
 21
453.6122009146841
 31
0.0
  0
LINE
  5
1ED
330
6D
100
AcDbEntity
  8
1
  6
Continuous
 62
     7
100
AcDbLine
 10
554.9750213407042
 20
507.7962753435826
 30
0.0
 11
554.7515840862582
 21
505.2423758388889
 31
0.0
  0
LINE
  5
1EE
330
6D
100
AcDbEntity
  8
1
  6
Continuous
 62
     7
100
AcDbLine
 10
674.08909953448
 20
463.2973787955294
 30
0.0
 11
673.8554530515983
 21
464.1122009146845
 31
0.0
  0
LINE
  5
1EF
330
6D
100
AcDbEntity
  8
1
  6
Continuous
 62
     7
100
AcDbLine
 10
654.3171915947948
 20
453.6122009146841
 30
0.0
 11
632.8627768829613
 21
453.6122009146839
 31
0.0
  0
LINE
  5
1F0
330
6D
100
AcDbEntity
  8
1
  6
PHANTOM
 62
     4
100
AcDbLine
 10
654.871428251404
 20
453.6122009146839
 30
0.0
 11
654.871428251404
 21
485.7280650403135
 31
0.0
  0
LINE
  5
1F1
330
6D
100
AcDbEntity
  8
1
  6
PHANTOM
 62
     5
100
AcDbLine
 10
677.6463214116691
 20
453.4154472674601
 30
0.0
 11
677.2589266010589
 21
453.4154472674598
 31
0.0
  0
LINE
  5
1F2
330
6D
100
AcDbEntity
  8
1
  6
PHANTOM
 62
     5
100
AcDbLine
 10
677.8318862583267
 20
453.4154472674601
 30
0.0
 11
677.6463214116691
 21
453.4154472674601
 31
0.0
  0
LINE
  5
1F3
330
6D
100
AcDbEntity
  8
1
  6
PHANTOM
 62
     5
100
AcDbLine
 10
589.1777601244305
 20
544.5067111660782
 30
0.0
 11
587.895932631478
 21
542.2865208217473
 31
0.0
  0
LINE
  5
1F4
330
6D
100
AcDbEntity
  8
1
  6
PHANTOM
 62
     5
100
AcDbLine
 10
678.3257304286246
 20
453.8372300349402
 30
0.0
 11
678.4583335094001
 21
454.6744529370373
 31
0.0
  0
LINE
  5
1F5
330
6D
100
AcDbEntity
  8
1
  6
Continuous
 62
     7
100
AcDbLine
 10
253.3714295790313
 20
464.6122009146843
 30
0.0
 11
253.3714295790313
 21
454.1122009146843
 31
0.0
  0
LINE
  5
1F6
330
6D
100
AcDbEntity
  8
1
  6
PHANTOM
 62
     4
100
AcDbLine
 10
275.8714295790392
 20
509.3622009146843
 30
0.0
 11
275.8714295790284
 21
453.6122009146843
 31
0.0
  0
LINE
  5
1F7
330
6D
100
AcDbEntity
  8
1
  6
Continuous
 62
     7
100
AcDbLine
 10
298.3714295790314
 20
454.1122009146843
 30
0.0
 11
298.3714295790314
 21
464.6122009146843
 31
0.0
  0
LINE
  5
1F8
330
6D
100
AcDbEntity
  8
1
  6
PHANTOM
 62
     4
100
AcDbLine
 10
284.4177416656336
 20
468.5766745988952
 30
0.0
 11
267.3251174924292
 21
468.5766745988952
 31
0.0
  0
LINE
  5
1F9
330
6D
100
AcDbEntity
  8
1
  6
Continuous
 62
     7
100
AcDbLine
 10
297.8714295790313
 20
453.6122009146843
 30
0.0
 11
253.8714295790313
 21
453.6122009146843
 31
0.0
  0
LINE
  5
1FA
330
6D
100
AcDbEntity
  8
0
  6
PHANTOM
 62
     4
100
AcDbLine
 10
292.13488581364
 20
781.61304592708
 30
0.0
 11
203.039431357107
 21
692.517591524602
 31
0.0
  0
LINE
  5
1FB
330
6D
100
AcDbEntity
  8
0
  6
PHANTOM
 62
     4
100
AcDbLine
 10
253.4535622141618
 20
765.3495897861043
 30
0.0
 11
298.2892972087909
 21
765.3495897861005
 31
0.0
  0
LINE
  5
1FC
330
6D
100
AcDbEntity
  8
0
  6
PHANTOM
 62
     4
100
AcDbLine
 10
275.871429711476
 20
784.6849693400752
 30
0.0
 11
275.871429711476
 21
665.2240376680952
 31
0.0
  0
LINE
  5
1FD
330
6D
100
AcDbEntity
  8
0
  6
PHANTOM
 62
     4
100
AcDbLine
 10
348.7034299657828
 20
692.5175934666134
 30
0.0
 11
259.6079728829473
 21
781.6130452427889
 31
0.0
  0
ARC
  5
1FE
330
6D
100
AcDbEntity
  8
1
  6
Continuous
 62
     7
100
AcDbCircle
 10
612.1126483743521
 20
468.2631527859386
 30
0.0
 40
20.00000000000184
100
AcDbArc
 50
0.99999999997856
 51
70.61355756830932
  0
ARC
  5
1FF
330
6D
100
AcDbEntity
  8
1
  6
Continuous
 62
     7
100
AcDbCircle
 10
460.6126996306034
 20
-234.6711471113274
 30
0.0
 40
750.0000000000736
100
AcDbArc
 50
76.90067720599178
 51
82.64221264938965
  0
ARC
  5
200
330
6D
100
AcDbEntity
  8
1
  6
Continuous
 62
     7
100
AcDbCircle
 10
612.4613626405019
 20
417.8945457826565
 30
0.0
 40
79.99999999999993
100
AcDbArc
 50
49.37353995539206
 51
76.9006772059912
  0
ARC
  5
201
330
6D
100
AcDbEntity
  8
1
  6
Continuous
 62
     7
100
AcDbCircle
 10
645.0176021734487
 20
455.843080240174
 30
0.0
 40
30.00000000000011
100
AcDbArc
 50
16.00000000000093
 51
49.37353995539221
  0
ARC
  5
202
330
6D
100
AcDbEntity
  8
1
  6
Continuous
 62
     7
100
AcDbCircle
 10
485.976233729984
 20
109.8086858021029
 30
0.0
 40
400.0000000000023
100
AcDbArc
 50
70.61355756830996
 51
79.92030666364337
  0
ARC
  5
203
330
6D
100
AcDbEntity
  8
1
  6
PHANTOM
 62
     5
100
AcDbCircle
 10
189.876161678717
 20
-88.51805505089737
 30
0.0
 40
750.0000000000736
100
AcDbArc
 50
51.9006772059918
 51
57.64221264938966
  0
ARC
  5
204
330
6D
100
AcDbEntity
  8
1
  6
PHANTOM
 62
     5
100
AcDbCircle
 10
603.2839662181627
 20
438.7332959629948
 30
0.0
 40
79.99999999999994
100
AcDbArc
 50
24.37353995539191
 51
51.90067720599134
  0
ARC
  5
205
330
6D
100
AcDbEntity
  8
1
  6
PHANTOM
 62
     5
100
AcDbCircle
 10
648.8276832915458
 20
459.3674868882433
 30
0.0
 40
30.00000000000001
100
AcDbArc
 50
351.0000000000018
 51
24.37353995539234
  0
ARC
  5
206
330
6D
100
AcDbEntity
  8
1
  6
PHANTOM
 62
     5
100
AcDbCircle
 10
624.2546169013278
 20
484.5301297292624
 30
0.0
 40
19.99999999999994
100
AcDbArc
 50
21.79440242781774
 51
45.61355756830958
  0
ARC
  5
207
330
6D
100
AcDbEntity
  8
1
  6
PHANTOM
 62
     5
100
AcDbCircle
 10
358.4467983303558
 20
212.9676073029474
 30
0.0
 40
400.0000000000021
100
AcDbArc
 50
45.61355756830998
 51
54.92030666364341
  0
ARC
  5
208
330
6D
100
AcDbEntity
  8
1
  6
Continuous
 62
     7
100
AcDbCircle
 10
268.871429579047
 20
506.6122009146841
 30
0.0
 40
2.000000000000147
100
AcDbArc
 50
102.2310071325733
 51
152.1715507417307
  0
ARC
  5
209
330
6D
100
AcDbEntity
  8
1
  6
Continuous
 62
     7
100
AcDbCircle
 10
443.972588942971
 20
414.1806911930246
 30
0.0
 40
200.0000000000395
100
AcDbArc
 50
152.1715507417277
 51
158.8859810512159
  0
ARC
  5
20A
330
6D
100
AcDbEntity
  8
1
  6
Continuous
 62
     7
100
AcDbCircle
 10
238.3714295790312
 20
464.6122009146843
 30
0.0
 40
60.00000000000023
100
AcDbArc
 50
0.0
 51
21.11401894868635
  0
ARC
  5
20B
330
6D
100
AcDbEntity
  8
1
  6
Continuous
 62
     7
100
AcDbCircle
 10
282.8714295790464
 20
506.6122009146847
 30
0.0
 40
2.0
100
AcDbArc
 50
0.0
 51
27.82844925820456
  0
ARC
  5
20C
330
6D
100
AcDbEntity
  8
1
  6
Continuous
 62
     7
100
AcDbCircle
 10
107.770270215065
 20
414.1806911932727
 30
0.0
 40
199.9999999999748
100
AcDbArc
 50
21.11401894868592
 51
27.82844925820133
  0
ARC
  5
20D
330
6D
100
AcDbEntity
  8
1
  6
Continuous
 62
     7
100
AcDbCircle
 10
313.3714295790313
 20
464.6122009146843
 30
0.0
 40
60.00000000000016
100
AcDbArc
 50
158.8859810512164
 51
180.0
  0
ARC
  5
20E
330
6D
100
AcDbEntity
  8
1
  6
Continuous
 62
     7
100
AcDbCircle
 10
268.871429579047
 20
506.6122009146841
 30
0.0
 40
2.000000000000227
100
AcDbArc
 50
152.1715507417307
 51
180.0
  0
ARC
  5
20F
330
6D
100
AcDbEntity
  8
1
  6
Continuous
 62
     7
100
AcDbCircle
 10
282.8714295790464
 20
506.6122009146847
 30
0.0
 40
2.000000000000127
100
AcDbArc
 50
27.82844925820456
 51
77.76899286743573
  0
ARC
  5
210
330
6D
100
AcDbEntity
  8
1
  6
Continuous
 62
     7
100
AcDbCircle
 10
282.8714295790464
 20
506.6122009146847
 30
0.0
 40
1.999999999999036
100
AcDbArc
 50
282.2310071325801
 51
0.0
  0
ARC
  5
211
330
6D
100
AcDbEntity
  8
1
  6
Continuous
 62
     7
100
AcDbCircle
 10
275.8714295790447
 20
538.9038675813135
 30
0.0
 40
35.04166666662843
100
AcDbArc
 50
269.9999999999966
 51
282.2310071325872
  0
ARC
  5
212
330
6D
100
AcDbEntity
  8
1
  6
Continuous
 62
     7
100
AcDbCircle
 10
268.871429579047
 20
506.6122009146841
 30
0.0
 40
2.000000000000114
100
AcDbArc
 50
180.0
 51
257.7689928674263
  0
ARC
  5
213
330
6D
100
AcDbEntity
  8
1
  6
Continuous
 62
     7
100
AcDbCircle
 10
275.8714295790485
 20
474.3205342480129
 30
0.0
 40
35.0416666666714
100
AcDbArc
 50
90.0
 51
102.2310071325718
  0
ARC
  5
214
330
6D
100
AcDbEntity
  8
1
  6
Continuous
 62
     7
100
AcDbCircle
 10
275.8714295790447
 20
538.9038675813135
 30
0.0
 40
35.04166666662908
100
AcDbArc
 50
257.7689928674199
 51
269.9999999999966
  0
ARC
  5
215
330
6D
100
AcDbEntity
  8
1
  6
Continuous
 62
     7
100
AcDbCircle
 10
275.8714295790485
 20
474.3205342480129
 30
0.0
 40
35.04166666667149
100
AcDbArc
 50
77.7689928674347
 51
90.0
  0
ARC
  5
216
330
6D
100
AcDbEntity
  8
1
  6
Continuous
 62
     7
100
AcDbCircle
 10
275.8714295790314
 20
468.5766745988952
 30
0.0
 40
5.546312086602086
100
AcDbArc
 50
0.0
 51
179.9999999999988
  0
ARC
  5
217
330
6D
100
AcDbEntity
  8
1
  6
Continuous
 62
     7
100
AcDbCircle
 10
275.8714295790314
 20
468.5766745988952
 30
0.0
 40
5.546312086602313
100
AcDbArc
 50
179.9999999999988
 51
0.0
  0
ARC
  5
218
330
6D
100
AcDbEntity
  8
1
  6
PHANTOM
 62
     5
100
AcDbCircle
 10
184.6828383894413
 20
811.185278844741
 30
0.0
 40
80.79733078210313
100
AcDbArc
 50
323.5908833991859
 51
325.7490621882856
  0
ARC
  5
219
330
6D
100
AcDbEntity
  8
1
  6
PHANTOM
 62
     5
100
AcDbCircle
 10
-394.1310134621502
 20
1238.065829250673
 30
0.0
 40
799.9999999999999
100
AcDbArc
 50
317.9259336345712
 51
323.5908833991858
  0
ARC
  5
21A
330
6D
100
AcDbEntity
  8
1
  6
PHANTOM
 62
     5
100
AcDbCircle
 10
748.5876687208721
 20
95.34714637435798
 30
0.0
 40
799.9999999999999
100
AcDbArc
 50
127.4941155806917
 51
132.0740663306672
  0
ARC
  5
21B
330
6D
100
AcDbEntity
  8
1
  6
PHANTOM
 62
     5
100
AcDbCircle
 10
251.0732168458193
 20
740.5513769841717
 30
0.0
 40
65.05558298765935
100
AcDbArc
 50
217.7638852464138
 51
232.2361147188241
  0
ARC
  5
21C
330
6D
100
AcDbEntity
  8
1
  6
PHANTOM
 62
     5
100
AcDbCircle
 10
240.3393140760111
 20
729.8174742208761
 30
0.0
 40
49.24999999999956
100
AcDbArc
 50
216.8287664226695
 51
233.1712335425691
  0
ARC
  5
21D
330
6D
100
AcDbEntity
  8
1
  6
Continuous
 62
     7
100
AcDbCircle
 10
275.8714297114739
 20
715.0995897861028
 30
0.0
 40
49.24999999999972
100
AcDbArc
 50
261.8287664400506
 51
278.1712335599503
  0
ARC
  5
21E
330
6D
100
AcDbEntity
  8
1
  6
Continuous
 62
     7
100
AcDbCircle
 10
275.8714297114739
 20
730.2796206557545
 30
0.0
 40
65.05558298765935
100
AcDbArc
 50
262.7638852637969
 51
277.2361147362054
  0
ARC
  5
21F
330
6D
100
AcDbEntity
  8
1
  6
Continuous
 62
     7
100
AcDbCircle
 10
-532.1526996938101
 20
625.8471768455781
 30
0.0
 40
800.0
100
AcDbArc
 50
2.92593365195212
 51
8.59088341656676
  0
ARC
  5
220
330
6D
100
AcDbEntity
  8
1
  6
Continuous
 62
     7
100
AcDbCircle
 10
1083.895559116763
 20
625.8471768455803
 30
0.0
 40
800.0000000000005
100
AcDbArc
 50
171.4091165834334
 51
177.0740663480481
  0
ARC
  5
221
330
6D
100
AcDbEntity
  8
1
  6
Continuous
 62
     7
100
AcDbCircle
 10
372.7622275116906
 20
733.2802448015918
 30
0.0
 40
80.79733078208716
100
AcDbArc
 50
166.3302162721285
 51
171.4091165834335
  0
ARC
  5
222
330
6D
100
AcDbEntity
  8
1
  6
Continuous
 62
     7
100
AcDbCircle
 10
275.871429711476
 20
762.0213934020672
 30
0.0
 40
22.66357593800803
100
AcDbArc
 50
7.43994405499905
 51
172.560055945001
  0
ARC
  5
223
330
6D
100
AcDbEntity
  8
1
  6
Continuous
 62
     7
100
AcDbCircle
 10
275.871429711476
 20
765.3495897861025
 30
0.0
 40
22.50000000000018
100
AcDbArc
 50
324.7840162177568
 51
358.1759149456338
  0
ARC
  5
224
330
6D
100
AcDbEntity
  8
1
  6
Continuous
 62
     7
100
AcDbCircle
 10
178.9806319112459
 20
733.2802448015893
 30
0.0
 40
80.79733078210295
100
AcDbArc
 50
13.6697837278706
 51
21.84874700930297
  0
ARC
  5
225
330
6D
100
AcDbEntity
  8
1
  6
Continuous
 62
     7
100
AcDbCircle
 10
275.871429711476
 20
765.3495897861025
 30
0.0
 40
22.5
100
AcDbArc
 50
181.8240850543663
 51
215.2159837822433
  0
ARC
  5
226
330
6D
100
AcDbEntity
  8
1
  6
Continuous
 62
     7
100
AcDbCircle
 10
178.9806319112459
 20
733.2802448015893
 30
0.0
 40
80.79733078210315
100
AcDbArc
 50
8.59088341656658
 51
13.6697837278706
  0
ARC
  5
227
330
6D
100
AcDbEntity
  8
1
  6
Continuous
 62
     7
100
AcDbCircle
 10
372.7622275116906
 20
733.2802448015918
 30
0.0
 40
80.79733078208734
100
AcDbArc
 50
158.1512529906971
 51
166.3302162721285
  0
ARC
  5
228
330
6D
100
AcDbEntity
  8
1
  6
PHANTOM
 62
     5
100
AcDbCircle
 10
-196.8447897949492
 20
95.34713223502501
 30
0.0
 40
800.0000000000001
100
AcDbArc
 50
47.92593535826346
 51
52.50588617108498
  0
ARC
  5
229
330
6D
100
AcDbEntity
  8
1
  6
PHANTOM
 62
     5
100
AcDbCircle
 10
367.0600194354335
 20
811.1852813278571
 30
0.0
 40
80.79733078210322
100
AcDbArc
 50
214.2509395006446
 51
216.4091182897448
  0
ARC
  5
22A
330
6D
100
AcDbEntity
  8
1
  6
PHANTOM
 62
     5
100
AcDbCircle
 10
311.403546147375
 20
729.8174750633838
 30
0.0
 40
49.24999999999954
100
AcDbArc
 50
306.8287681463616
 51
323.1712352662613
  0
ARC
  5
22B
330
6D
100
AcDbEntity
  8
1
  6
PHANTOM
 62
     5
100
AcDbCircle
 10
300.6696430611593
 20
740.5513775102719
 30
0.0
 40
65.05558298765934
100
AcDbArc
 50
307.7638869701066
 51
322.2361164425168
  0
ARC
  5
22C
330
6D
100
AcDbEntity
  8
1
  6
PHANTOM
 62
     5
100
AcDbCircle
 10
945.8738587036956
 20
1238.065848795717
 30
0.0
 40
800.0000000000003
100
AcDbArc
 50
216.4091182897448
 51
222.0740680543595
  0
ARC
  5
22D
330
6D
100
AcDbEntity
  8
1
  6
Continuous
 62
     7
100
AcDbCircle
 10
556.2458761333958
 20
505.1116422247671
 30
0.0
 40
1.500000000000017
100
AcDbArc
 50
174.9999999999872
 51
259.9203066636454
  0
ARC
  5
22E
330
6D
100
AcDbEntity
  8
1
  6
Continuous
 62
     7
100
AcDbCircle
 10
673.6084686865108
 20
463.1595601176207
 30
0.0
 40
0.4999999999999792
100
AcDbArc
 50
295.000000000008
 51
16.00000000002447
  0
ARC
  5
22F
330
6D
100
AcDbEntity
  8
1
  6
Continuous
 62
     7
100
AcDbCircle
 10
556.4693133878418
 20
507.6655417294612
 30
0.0
 40
1.500000000000004
100
AcDbArc
 50
82.64221264938834
 51
175.0000000000045
  0
ARC
  5
230
330
6D
100
AcDbEntity
  8
1
  6
Continuous
 62
     7
100
AcDbCircle
 10
632.8627768829613
 20
454.1122009146837
 30
0.0
 40
0.5000000000002273
100
AcDbArc
 50
180.9999999999557
 51
270.0
  0
ARC
  5
231
330
6D
100
AcDbEntity
  8
1
  6
PHANTOM
 62
     5
100
AcDbCircle
 10
589.1949707371543
 20
541.5365208217471
 30
0.0
 40
1.499999999999843
100
AcDbArc
 50
149.9999999999865
 51
234.9203066636401
  0
ARC
  5
232
330
6D
100
AcDbEntity
  8
1
  6
PHANTOM
 62
     5
100
AcDbCircle
 10
677.8318862583267
 20
453.9154472674599
 30
0.0
 40
0.4999999999998295
100
AcDbArc
 50
270.0
 51
351.0000000000535
  0
ARC
  5
233
330
6D
100
AcDbEntity
  8
1
  6
PHANTOM
 62
     5
100
AcDbCircle
 10
590.4767982301073
 20
543.7567111660785
 30
0.0
 40
1.499999999999886
100
AcDbArc
 50
90.0
 51
150.000000000014
  0
ARC
  5
234
330
6D
100
AcDbEntity
  8
1
  6
PHANTOM
 62
     5
100
AcDbCircle
 10
590.4767982301073
 20
543.7567111660785
 30
0.0
 40
1.499999999999691
100
AcDbArc
 50
57.64221264938481
 51
90.0
  0
ARC
  5
235
330
6D
100
AcDbEntity
  8
1
  6
Continuous
 62
     7
100
AcDbCircle
 10
297.8714295790313
 20
454.1122009146841
 30
0.0
 40
0.4999999999997726
100
AcDbArc
 50
270.0
 51
0.00000000002606
  0
ARC
  5
236
330
6D
100
AcDbEntity
  8
1
  6
Continuous
 62
     7
100
AcDbCircle
 10
253.8714295790313
 20
454.1122009146841
 30
0.0
 40
0.5
100
AcDbArc
 50
179.9999999999739
 51
270.0
  0
ARC
  5
237
330
6D
100
AcDbEntity
  8
1
  6
PHANTOM
 62
     5
100
AcDbCircle
 10
200.4346404423575
 20
701.3231691265637
 30
0.0
 40
0.999999999999801
100
AcDbArc
 50
180.0
 51
217.7638852464012
  0
ARC
  5
238
330
6D
100
AcDbEntity
  8
1
  6
PHANTOM
 62
     5
100
AcDbCircle
 10
211.8450089574886
 20
689.91280060451
 30
0.0
 40
0.9999999999999148
100
AcDbArc
 50
232.2361147188157
 51
312.07406633066
  0
ARC
  5
239
330
6D
100
AcDbEntity
  8
1
  6
Continuous
 62
     7
100
AcDbCircle
 10
267.8030807561419
 20
666.7342080988758
 30
0.0
 40
0.9999999999999537
100
AcDbArc
 50
182.9259336519345
 51
262.7638852637965
  0
ARC
  5
23A
330
6D
100
AcDbEntity
  8
1
  6
Continuous
 62
     7
100
AcDbCircle
 10
283.9397786668086
 20
666.7342080988763
 30
0.0
 40
0.9999999999999435
100
AcDbArc
 50
277.2361147361971
 51
357.0740663480441
  0
ARC
  5
23B
330
6D
100
AcDbEntity
  8
1
  6
Continuous
 62
     7
100
AcDbCircle
 10
255.3818177150082
 20
764.697056082605
 30
0.0
 40
2.000000000000065
100
AcDbArc
 50
172.5600559449975
 51
181.8240850543648
  0
ARC
  5
23C
330
6D
100
AcDbEntity
  8
1
  6
Continuous
 62
     7
100
AcDbCircle
 10
296.3610417079438
 20
764.6970560826048
 30
0.0
 40
2.000000000000148
100
AcDbArc
 50
358.1759149456385
 51
7.43994405500537
  0
ARC
  5
23D
330
6D
100
AcDbEntity
  8
1
  6
PHANTOM
 62
     5
100
AcDbCircle
 10
339.8978524421837
 20
689.9128022869559
 30
0.0
 40
1.000000000000072
100
AcDbArc
 50
227.9259353582666
 51
307.7638869701137
  0
ARC
  5
23E
330
6D
100
AcDbEntity
  8
1
  6
PHANTOM
 62
     5
100
AcDbCircle
 10
351.3082206209666
 20
701.3231711453575
 30
0.0
 40
1.0
100
AcDbArc
 50
0.0
 51
42.07406805436211
  0
ARC
  5
23F
330
6D
100
AcDbEntity
  8
1
  6
PHANTOM
 62
     5
100
AcDbCircle
 10
200.4346404423575
 20
701.3231691265637
 30
0.0
 40
0.9999999999999936
100
AcDbArc
 50
137.9259336345734
 51
180.0
  0
ARC
  5
240
330
6D
100
AcDbEntity
  8
1
  6
PHANTOM
 62
     5
100
AcDbCircle
 10
351.3082206209666
 20
701.3231711453575
 30
0.0
 40
0.9999999999998002
100
AcDbArc
 50
322.2361164425354
 51
0.0
  0
ENDBLK
  5
6F
330
6D
100
AcDbEntity
  8
0
100
AcDbBlockEnd
  0
BLOCK
  5
71
330
70
100
AcDbEntity
  8
0
100
AcDbBlockBegin
  2
37-302
 70
     0
 10
1189.500000756949
 20
717.5
 30
0.0
  3
37-302
  1

  0
LINE
  5
241
330
70
100
AcDbEntity
  8
1
  6
Continuous
 62
     7
100
AcDbLine
 10
669.8714282514026
 20
452.1122009146843
 30
0.0
 11
633.8714282514028
 21
452.1122009146843
 31
0.0
  0
LINE
  5
242
330
70
100
AcDbEntity
  8
1
  6
Continuous
 62
     7
100
AcDbLine
 10
675.8714282514023
 20
452.1122009146843
 30
0.0
 11
669.8714282514026
 21
452.1122009146843
 31
0.0
  0
LINE
  5
243
330
70
100
AcDbEntity
  8
1
  6
Continuous
 62
     7
100
AcDbLine
 10
633.8714282514028
 20
452.6122009146829
 30
0.0
 11
633.8714282514028
 21
452.1122009146843
 31
0.0
  0
LINE
  5
244
330
70
100
AcDbEntity
  8
1
  6
PHANTOM
 62
     4
100
AcDbLine
 10
654.8714282514026
 20
462.6122009146843
 30
0.0
 11
654.8714282514026
 21
452.1122009146843
 31
0.0
  0
LINE
  5
245
330
70
100
AcDbEntity
  8
1
  6
Continuous
 62
     7
100
AcDbLine
 10
675.8714282514023
 20
452.1122009146843
 30
0.0
 11
675.8714282514023
 21
452.6122009146829
 31
0.0
  0
LINE
  5
246
330
70
100
AcDbEntity
  8
1
  6
Continuous
 62
     7
100
AcDbLine
 10
675.8714282514023
 20
452.6122009146829
 30
0.0
 11
673.8714282514012
 21
454.6122009146844
 31
0.0
  0
LINE
  5
247
330
70
100
AcDbEntity
  8
1
  6
Continuous
 62
     7
100
AcDbLine
 10
254.8714287528437
 20
452.6122009146827
 30
0.0
 11
296.8714287528433
 21
452.6122009146827
 31
0.0
  0
LINE
  5
248
330
70
100
AcDbEntity
  8
1
  6
Continuous
 62
     7
100
AcDbLine
 10
296.8714287528433
 20
452.6122009146827
 30
0.0
 11
295.8714287528418
 21
453.6122009146843
 31
0.0
  0
LINE
  5
249
330
70
100
AcDbEntity
  8
1
  6
Continuous
 62
     7
100
AcDbLine
 10
296.8714287528433
 20
452.1122009146841
 30
0.0
 11
296.8714287528433
 21
452.6122009146827
 31
0.0
  0
LINE
  5
24A
330
70
100
AcDbEntity
  8
1
  6
PHANTOM
 62
     4
100
AcDbLine
 10
275.8714287528434
 20
462.6122009146841
 30
0.0
 11
275.8714287528434
 21
452.1122009146841
 31
0.0
  0
LINE
  5
24B
330
70
100
AcDbEntity
  8
1
  6
Continuous
 62
     7
100
AcDbLine
 10
254.8714287528437
 20
452.6122009146827
 30
0.0
 11
254.8714287528437
 21
452.1122009146841
 31
0.0
  0
LINE
  5
24C
330
70
100
AcDbEntity
  8
1
  6
Continuous
 62
     7
100
AcDbLine
 10
255.8714287528451
 20
453.6122009146843
 30
0.0
 11
254.8714287528437
 21
452.6122009146827
 31
0.0
  0
LINE
  5
24D
330
70
100
AcDbEntity
  8
1
  6
Continuous
 62
     7
100
AcDbLine
 10
634.8714282514039
 20
453.6122009146843
 30
0.0
 11
633.8714282514028
 21
452.6122009146829
 31
0.0
  0
ARC
  5
24E
330
70
100
AcDbEntity
  8
1
  6
Continuous
 62
     7
100
AcDbCircle
 10
657.934033882458
 20
453.1981780263336
 30
0.0
 40
16.00000000000004
100
AcDbArc
 50
5.07021119923545
 51
31.83358454753865
  0
ENDBLK
  5
72
330
70
100
AcDbEntity
  8
0
100
AcDbBlockEnd
  0
BLOCK
  5
74
330
73
100
AcDbEntity
  8
0
100
AcDbBlockBegin
  2
K170-0
 70
     0
 10
705.0
 20
429.0
 30
0.0
  3
K170-0
  1

  0
LINE
  5
24F
330
73
100
AcDbEntity
  8
1
  6
Continuous
 62
     2
100
AcDbLine
 10
641.8714279854398
 20
396.0151620688202
 30
0.0
 11
642.6814279854398
 21
394.6122009146848
 31
0.0
  0
LINE
  5
250
330
73
100
AcDbEntity
  8
0
  6
Continuous
 62
     7
100
AcDbLine
 10
667.87142798544
 20
397.6122009146848
 30
0.0
 11
667.87142798544
 21
396.0151620688202
 31
0.0
  0
LINE
  5
251
330
73
100
AcDbEntity
  8
0
  6
Continuous
 62
     7
100
AcDbLine
 10
641.87142798544
 20
397.6122009146848
 30
0.0
 11
641.8714279854398
 21
396.0151620688202
 31
0.0
  0
LINE
  5
252
330
73
100
AcDbEntity
  8
1
  6
Continuous
 62
     7
100
AcDbLine
 10
641.87142798544
 20
396.0151620688156
 30
0.0
 11
667.87142798544
 21
396.0151620688156
 31
0.0
  0
LINE
  5
253
330
73
100
AcDbEntity
  8
1
  6
Continuous
 62
     7
100
AcDbLine
 10
667.87142798544
 20
396.0151620688156
 30
0.0
 11
667.87142798544
 21
394.6122009146848
 31
0.0
  0
LINE
  5
254
330
73
100
AcDbEntity
  8
1
  6
Continuous
 62
     2
100
AcDbLine
 10
667.061427985439
 20
394.6122009146848
 30
0.0
 11
667.87142798544
 21
396.0151620688202
 31
0.0
  0
LINE
  5
255
330
73
100
AcDbEntity
  8
1
  6
Continuous
 62
     7
100
AcDbLine
 10
641.8714279854398
 20
394.1122027359172
 30
0.0
 11
641.87142798544
 21
394.6122009146848
 31
0.0
  0
LINE
  5
256
330
73
100
AcDbEntity
  8
1
  6
Continuous
 62
     2
100
AcDbLine
 10
667.061427985439
 20
394.6122009146848
 30
0.0
 11
667.061427985439
 21
394.1122027359172
 31
0.0
  0
LINE
  5
257
330
73
100
AcDbEntity
  8
1
  6
Continuous
 62
     2
100
AcDbLine
 10
642.6814279854398
 20
394.6122009146848
 30
0.0
 11
642.6814279854398
 21
394.1122027359172
 31
0.0
  0
LINE
  5
258
330
73
100
AcDbEntity
  8
1
  6
Continuous
 62
     7
100
AcDbLine
 10
641.87142798544
 20
394.6122009146848
 30
0.0
 11
667.87142798544
 21
394.6122009146848
 31
0.0
  0
LINE
  5
259
330
73
100
AcDbEntity
  8
1
  6
Continuous
 62
     7
100
AcDbLine
 10
667.87142798544
 20
394.6122009146848
 30
0.0
 11
667.87142798544
 21
394.1122027359172
 31
0.0
  0
LINE
  5
25A
330
73
100
AcDbEntity
  8
1
  6
Continuous
 62
     7
100
AcDbLine
 10
641.87142798544
 20
394.6122009146848
 30
0.0
 11
641.8714279854398
 21
396.0151620688202
 31
0.0
  0
LINE
  5
25B
330
73
100
AcDbEntity
  8
1
  6
Continuous
 62
     7
100
AcDbLine
 10
262.8714286322186
 20
394.6122009146848
 30
0.0
 11
262.8714286322183
 21
396.0151620688202
 31
0.0
  0
LINE
  5
25C
330
73
100
AcDbEntity
  8
1
  6
Continuous
 62
     7
100
AcDbLine
 10
288.8714286322186
 20
394.6122009146848
 30
0.0
 11
288.8714286322186
 21
394.1122027359172
 31
0.0
  0
LINE
  5
25D
330
73
100
AcDbEntity
  8
1
  6
Continuous
 62
     7
100
AcDbLine
 10
262.8714286322186
 20
394.6122009146848
 30
0.0
 11
288.8714286322186
 21
394.6122009146848
 31
0.0
  0
LINE
  5
25E
330
73
100
AcDbEntity
  8
1
  6
Continuous
 62
     2
100
AcDbLine
 10
263.6814286322183
 20
394.6122009146848
 30
0.0
 11
263.6814286322183
 21
394.1122027359172
 31
0.0
  0
LINE
  5
25F
330
73
100
AcDbEntity
  8
1
  6
Continuous
 62
     2
100
AcDbLine
 10
288.0614286322175
 20
394.6122009146848
 30
0.0
 11
288.0614286322175
 21
394.1122027359172
 31
0.0
  0
LINE
  5
260
330
73
100
AcDbEntity
  8
1
  6
Continuous
 62
     7
100
AcDbLine
 10
262.8714286322183
 20
394.1122027359172
 30
0.0
 11
262.8714286322186
 21
394.6122009146848
 31
0.0
  0
LINE
  5
261
330
73
100
AcDbEntity
  8
1
  6
Continuous
 62
     2
100
AcDbLine
 10
288.0614286322175
 20
394.6122009146848
 30
0.0
 11
288.8714286322186
 21
396.0151620688202
 31
0.0
  0
LINE
  5
262
330
73
100
AcDbEntity
  8
1
  6
Continuous
 62
     7
100
AcDbLine
 10
288.8714286322186
 20
396.0151620688156
 30
0.0
 11
288.8714286322186
 21
394.6122009146848
 31
0.0
  0
LINE
  5
263
330
73
100
AcDbEntity
  8
1
  6
Continuous
 62
     7
100
AcDbLine
 10
262.8714286322186
 20
396.0151620688156
 30
0.0
 11
288.8714286322186
 21
396.0151620688156
 31
0.0
  0
LINE
  5
264
330
73
100
AcDbEntity
  8
0
  6
Continuous
 62
     7
100
AcDbLine
 10
262.8714286322186
 20
397.6122009146848
 30
0.0
 11
262.8714286322183
 21
396.0151620688202
 31
0.0
  0
LINE
  5
265
330
73
100
AcDbEntity
  8
0
  6
Continuous
 62
     7
100
AcDbLine
 10
288.8714286322186
 20
397.6122009146848
 30
0.0
 11
288.8714286322186
 21
396.0151620688202
 31
0.0
  0
LINE
  5
266
330
73
100
AcDbEntity
  8
1
  6
Continuous
 62
     2
100
AcDbLine
 10
262.8714286322183
 20
396.0151620688202
 30
0.0
 11
263.6814286322183
 21
394.6122009146848
 31
0.0
  0
LINE
  5
267
330
73
100
AcDbEntity
  8
1
  6
Continuous
 62
     7
100
AcDbLine
 10
676.8714282514021
 20
432.9827958820379
 30
0.0
 11
676.8714282514021
 21
451.6122009146843
 31
0.0
  0
LINE
  5
268
330
73
100
AcDbEntity
  8
1
  6
Continuous
 62
     7
100
AcDbLine
 10
668.8593463491032
 20
403.3912011705678
 30
0.0
 11
670.8719893874984
 21
403.3912011705678
 31
0.0
  0
LINE
  5
269
330
73
100
AcDbEntity
  8
1
  6
Continuous
 62
     7
100
AcDbLine
 10
668.8593463491032
 20
429.8332011705678
 30
0.0
 11
667.8719893874984
 21
429.8332011705678
 31
0.0
  0
LINE
  5
26A
330
73
100
AcDbEntity
  8
1
  6
Continuous
 62
     7
100
AcDbLine
 10
670.8719893874984
 20
403.3912011705678
 30
0.0
 11
670.8719893874984
 21
429.8332011705678
 31
0.0
  0
LINE
  5
26B
330
73
100
AcDbEntity
  8
1
  6
Continuous
 62
     2
100
AcDbLine
 10
672.752550523594
 20
428.6712011705679
 30
0.0
 11
670.8719893874984
 21
428.6712011705679
 31
0.0
  0
LINE
  5
26C
330
73
100
AcDbEntity
  8
1
  6
Continuous
 62
     2
100
AcDbLine
 10
668.8593463491032
 20
429.8332011705678
 30
0.0
 11
670.8719893874984
 21
428.6712011705679
 31
0.0
  0
LINE
  5
26D
330
73
100
AcDbEntity
  8
1
  6
Continuous
 62
     2
100
AcDbLine
 10
670.8719893874984
 20
404.5532011705677
 30
0.0
 11
668.8593463491032
 21
403.3912011705678
 31
0.0
  0
LINE
  5
26E
330
73
100
AcDbEntity
  8
1
  6
Continuous
 62
     7
100
AcDbLine
 10
672.752550523594
 20
429.8332011705678
 30
0.0
 11
668.8593463491032
 21
429.8332011705678
 31
0.0
  0
LINE
  5
26F
330
73
100
AcDbEntity
  8
1
  6
Continuous
 62
     7
100
AcDbLine
 10
667.8719893874984
 20
403.3912011705678
 30
0.0
 11
668.8593463491032
 21
403.3912011705678
 31
0.0
  0
LINE
  5
270
330
73
100
AcDbEntity
  8
作図レイヤー
  6
Continuous
 62
     7
100
AcDbLine
 10
667.8719893874984
 20
402.6122011705678
 30
0.0
 11
667.8719893874984
 21
403.3912011705678
 31
0.0
  0
LINE
  5
271
330
73
100
AcDbEntity
  8
1
  6
Continuous
 62
     2
100
AcDbLine
 10
670.8719893874984
 20
404.5532011705677
 30
0.0
 11
672.752550523594
 21
404.5532011705677
 31
0.0
  0
LINE
  5
272
330
73
100
AcDbEntity
  8
1
  6
Continuous
 62
     7
100
AcDbLine
 10
670.8719893874984
 20
403.3912011705678
 30
0.0
 11
672.752550523594
 21
403.3912011705678
 31
0.0
  0
LINE
  5
273
330
73
100
AcDbEntity
  8
1
  6
Continuous
 62
     7
100
AcDbLine
 10
667.8719893874979
 20
430.6122009146843
 30
0.0
 11
667.8719893874979
 21
402.6122009146843
 31
0.0
  0
LINE
  5
274
330
73
100
AcDbEntity
  8
1
  6
Continuous
 62
     7
100
AcDbLine
 10
654.8714282514029
 20
430.6122009146843
 30
0.0
 11
667.8719893874979
 21
430.6122009146843
 31
0.0
  0
LINE
  5
275
330
73
100
AcDbEntity
  8
1
  6
Continuous
 62
     7
100
AcDbLine
 10
654.8714282514029
 20
402.6122009146843
 30
0.0
 11
667.8719893874979
 21
402.6122009146843
 31
0.0
  0
LINE
  5
276
330
73
100
AcDbEntity
  8
1
  6
Continuous
 62
     7
100
AcDbLine
 10
335.8714312253721
 20
758.3495897861023
 30
0.0
 11
300.5189447992044
 21
758.3495897861023
 31
0.0
  0
LINE
  5
277
330
73
100
AcDbEntity
  8
1
  6
PHANTOM
 62
     4
100
AcDbLine
 10
654.8714282514029
 20
402.6122009146843
 30
0.0
 11
654.8714282514029
 21
384.0122009146969
 31
0.0
  0
LINE
  5
278
330
73
100
AcDbEntity
  8
1
  6
PHANTOM
 62
     4
100
AcDbLine
 10
654.8714282514029
 20
430.6122009146843
 30
0.0
 11
654.8714282514029
 21
402.6122009146843
 31
0.0
  0
LINE
  5
279
330
73
100
AcDbEntity
  8
1
  6
Continuous
 62
     7
100
AcDbLine
 10
633.3714282514138
 20
452.112200914696
 30
0.0
 11
676.3714282514021
 21
452.1122009146843
 31
0.0
  0
LINE
  5
27A
330
73
100
AcDbEntity
  8
1
  6
Continuous
 62
     7
100
AcDbLine
 10
349.0924304577219
 20
781.3495897861023
 30
0.0
 11
349.0924304577219
 21
783.2301509221979
 31
0.0
  0
LINE
  5
27B
330
73
100
AcDbEntity
  8
1
  6
Continuous
 62
     2
100
AcDbLine
 10
347.930430457722
 20
781.3495897861023
 30
0.0
 11
347.930430457722
 21
783.2301509221979
 31
0.0
  0
LINE
  5
27C
330
73
100
AcDbEntity
  8
作図レイヤー
  6
Continuous
 62
     7
100
AcDbLine
 10
349.8714304577219
 20
778.3495897861023
 30
0.0
 11
349.0924304577219
 21
778.3495897861023
 31
0.0
  0
LINE
  5
27D
330
73
100
AcDbEntity
  8
1
  6
Continuous
 62
     7
100
AcDbLine
 10
349.0924304577219
 20
778.3495897861023
 30
0.0
 11
349.0924304577219
 21
779.3369467477072
 31
0.0
  0
LINE
  5
27E
330
73
100
AcDbEntity
  8
1
  6
Continuous
 62
     7
100
AcDbLine
 10
322.6504304577219
 20
783.2301509221979
 30
0.0
 11
322.6504304577219
 21
779.3369467477072
 31
0.0
  0
LINE
  5
27F
330
73
100
AcDbEntity
  8
1
  6
Continuous
 62
     2
100
AcDbLine
 10
347.930430457722
 20
781.3495897861023
 30
0.0
 11
349.0924304577219
 21
779.3369467477072
 31
0.0
  0
LINE
  5
280
330
73
100
AcDbEntity
  8
1
  6
Continuous
 62
     7
100
AcDbLine
 10
349.0924304577219
 20
781.3495897861023
 30
0.0
 11
323.8124304577219
 21
781.3495897861023
 31
0.0
  0
LINE
  5
281
330
73
100
AcDbEntity
  8
1
  6
Continuous
 62
     2
100
AcDbLine
 10
322.6504304577219
 20
779.3369467477072
 30
0.0
 11
323.8124304577219
 21
781.3495897861023
 31
0.0
  0
LINE
  5
282
330
73
100
AcDbEntity
  8
1
  6
Continuous
 62
     2
100
AcDbLine
 10
323.8124304577219
 20
783.2301509221979
 30
0.0
 11
323.8124304577219
 21
781.3495897861023
 31
0.0
  0
LINE
  5
283
330
73
100
AcDbEntity
  8
1
  6
Continuous
 62
     7
100
AcDbLine
 10
349.8714304577219
 20
778.3495897861023
 30
0.0
 11
349.8714304577219
 21
765.3495897861023
 31
0.0
  0
LINE
  5
284
330
73
100
AcDbEntity
  8
1
  6
Continuous
 62
     7
100
AcDbLine
 10
335.8714312253721
 20
761.0995897861023
 30
0.0
 11
335.8714304577221
 21
761.0995897861023
 31
0.0
  0
LINE
  5
285
330
73
100
AcDbEntity
  8
1
  6
Continuous
 62
     7
100
AcDbLine
 10
323.8124304577219
 20
781.3495897861023
 30
0.0
 11
322.6504304577219
 21
781.3495897861023
 31
0.0
  0
LINE
  5
286
330
73
100
AcDbEntity
  8
作図レイヤー
  6
Continuous
 62
     7
100
AcDbLine
 10
349.0924304577219
 20
778.3495897861023
 30
0.0
 11
311.8714304577219
 21
778.3495897861023
 31
0.0
  0
LINE
  5
287
330
73
100
AcDbEntity
  8
1
  6
Continuous
 62
     7
100
AcDbLine
 10
322.6504304577219
 20
779.3369467477072
 30
0.0
 11
322.6504304577219
 21
778.3495897861023
 31
0.0
  0
LINE
  5
288
330
73
100
AcDbEntity
  8
作図レイヤー
  6
Continuous
 62
     7
100
AcDbLine
 10
311.8714289438216
 20
778.3495897861023
 30
0.0
 11
300.335689356922
 21
778.3495897861023
 31
0.0
  0
LINE
  5
289
330
73
100
AcDbEntity
  8
1
  6
PHANTOM
 62
     4
100
AcDbLine
 10
335.8714313021372
 20
755.3495897861023
 30
0.0
 11
335.8714303809572
 21
791.3495897861023
 31
0.0
  0
LINE
  5
28A
330
73
100
AcDbEntity
  8
1
  6
Continuous
 62
     7
100
AcDbLine
 10
349.0924304577219
 20
779.3369467477072
 30
0.0
 11
349.0924304577219
 21
781.3495897861023
 31
0.0
  0
LINE
  5
28B
330
73
100
AcDbEntity
  8
1
  6
Continuous
 62
     7
100
AcDbLine
 10
249.8448761681055
 20
402.6122009146848
 30
0.0
 11
215.8714289088814
 21
402.6122009146848
 31
0.0
  0
LINE
  5
28C
330
73
100
AcDbEntity
  8
1
  6
Continuous
 62
     7
100
AcDbLine
 10
202.650428965222
 20
781.3495897861023
 30
0.0
 11
202.650428965222
 21
779.3369467477072
 31
0.0
  0
LINE
  5
28D
330
73
100
AcDbEntity
  8
1
  6
PHANTOM
 62
     4
100
AcDbLine
 10
275.8714297114719
 20
765.3495897861023
 30
0.0
 11
352.8714304577219
 21
765.3495897861023
 31
0.0
  0
LINE
  5
28E
330
73
100
AcDbEntity
  8
1
  6
PHANTOM
 62
     4
100
AcDbLine
 10
654.8714282514029
 20
455.1122009146843
 30
0.0
 11
654.8714282514029
 21
430.6122009146843
 31
0.0
  0
LINE
  5
28F
330
73
100
AcDbEntity
  8
1
  6
PHANTOM
 62
     4
100
AcDbLine
 10
198.871428965222
 20
765.3495897861023
 30
0.0
 11
275.8714297114719
 21
765.3495897861023
 31
0.0
  0
LINE
  5
290
330
73
100
AcDbEntity
  8
1
  6
PHANTOM
 62
     4
100
AcDbLine
 10
275.8714297114719
 20
740.3495897861021
 30
0.0
 11
275.8714297114719
 21
790.3495897861021
 31
0.0
  0
LINE
  5
291
330
73
100
AcDbEntity
  8
1
  6
PHANTOM
 62
     4
100
AcDbLine
 10
215.8714290419867
 20
791.3495897861023
 30
0.0
 11
215.8714281208067
 21
755.3495897861023
 31
0.0
  0
LINE
  5
292
330
73
100
AcDbEntity
  8
1
  6
Continuous
 62
     7
100
AcDbLine
 10
632.8714282514021
 20
451.6122009146843
 30
0.0
 11
632.8714282514021
 21
412.1122009146809
 31
0.0
  0
LINE
  5
293
330
73
100
AcDbEntity
  8
1
  6
Continuous
 62
     7
100
AcDbLine
 10
676.8714282514021
 20
451.6122009146843
 30
0.0
 11
676.3714282514021
 21
452.1122009146843
 31
0.0
  0
LINE
  5
294
330
73
100
AcDbEntity
  8
1
  6
Continuous
 62
     7
100
AcDbLine
 10
632.8714282514021
 20
451.6122009146843
 30
0.0
 11
633.3714282514138
 21
452.112200914696
 31
0.0
  0
LINE
  5
295
330
73
100
AcDbEntity
  8
1
  6
Continuous
 62
     7
100
AcDbLine
 10
636.1629149573484
 20
397.6122009146848
 30
0.0
 11
673.5799415454555
 21
397.6122009146848
 31
0.0
  0
LINE
  5
296
330
73
100
AcDbEntity
  8
1
  6
PHANTOM
 62
     7
100
AcDbLine
 10
654.8714282514029
 20
402.5122009146851
 30
0.0
 11
654.8714282514024
 21
402.5122009146839
 31
0.0
  0
LINE
  5
297
330
73
100
AcDbEntity
  8
1
  6
Continuous
 62
     7
100
AcDbLine
 10
251.2239146237395
 20
758.3495897861023
 30
0.0
 11
239.8714304791223
 21
758.3495897861023
 31
0.0
  0
LINE
  5
298
330
73
100
AcDbEntity
  8
作図レイヤー
  6
Continuous
 62
     7
100
AcDbLine
 10
251.4071700660219
 20
778.3495897861023
 30
0.0
 11
239.8714304791223
 21
778.3495897861023
 31
0.0
  0
LINE
  5
299
330
73
100
AcDbEntity
  8
1
  6
Continuous
 62
     7
100
AcDbLine
 10
229.092428965222
 20
778.3495897861023
 30
0.0
 11
229.092428965222
 21
779.3369467477072
 31
0.0
  0
LINE
  5
29A
330
73
100
AcDbEntity
  8
作図レイヤー
  6
Continuous
 62
     7
100
AcDbLine
 10
239.871428965222
 20
778.3495897861023
 30
0.0
 11
202.650428965222
 21
778.3495897861023
 31
0.0
  0
LINE
  5
29B
330
73
100
AcDbEntity
  8
1
  6
Continuous
 62
     7
100
AcDbLine
 10
229.092428965222
 20
781.3495897861023
 30
0.0
 11
227.930428965222
 21
781.3495897861023
 31
0.0
  0
LINE
  5
29C
330
73
100
AcDbEntity
  8
1
  6
Continuous
 62
     7
100
AcDbLine
 10
215.8714289652218
 20
761.0995897861023
 30
0.0
 11
215.8714281975717
 21
761.0995897861023
 31
0.0
  0
LINE
  5
29D
330
73
100
AcDbEntity
  8
1
  6
Continuous
 62
     7
100
AcDbLine
 10
239.871428965222
 20
758.3495897861023
 30
0.0
 11
215.8714281975717
 21
758.3495897861023
 31
0.0
  0
LINE
  5
29E
330
73
100
AcDbEntity
  8
1
  6
Continuous
 62
     7
100
AcDbLine
 10
201.871428965222
 20
765.3495897861023
 30
0.0
 11
201.871428965222
 21
778.3495897861023
 31
0.0
  0
LINE
  5
29F
330
73
100
AcDbEntity
  8
1
  6
Continuous
 62
     2
100
AcDbLine
 10
227.930428965222
 20
781.3495897861023
 30
0.0
 11
227.930428965222
 21
783.2301509221979
 31
0.0
  0
LINE
  5
2A0
330
73
100
AcDbEntity
  8
1
  6
Continuous
 62
     2
100
AcDbLine
 10
227.930428965222
 20
781.3495897861023
 30
0.0
 11
229.092428965222
 21
779.3369467477072
 31
0.0
  0
LINE
  5
2A1
330
73
100
AcDbEntity
  8
1
  6
Continuous
 62
     7
100
AcDbLine
 10
227.930428965222
 20
781.3495897861023
 30
0.0
 11
202.650428965222
 21
781.3495897861023
 31
0.0
  0
LINE
  5
2A2
330
73
100
AcDbEntity
  8
1
  6
Continuous
 62
     2
100
AcDbLine
 10
202.650428965222
 20
779.3369467477072
 30
0.0
 11
203.8124289652219
 21
781.3495897861023
 31
0.0
  0
LINE
  5
2A3
330
73
100
AcDbEntity
  8
1
  6
Continuous
 62
     7
100
AcDbLine
 10
229.092428965222
 20
779.3369467477072
 30
0.0
 11
229.092428965222
 21
783.2301509221979
 31
0.0
  0
LINE
  5
2A4
330
73
100
AcDbEntity
  8
1
  6
Continuous
 62
     7
100
AcDbLine
 10
202.650428965222
 20
779.3369467477072
 30
0.0
 11
202.650428965222
 21
778.3495897861023
 31
0.0
  0
LINE
  5
2A5
330
73
100
AcDbEntity
  8
作図レイヤー
  6
Continuous
 62
     7
100
AcDbLine
 10
202.650428965222
 20
778.3495897861023
 30
0.0
 11
201.871428965222
 21
778.3495897861023
 31
0.0
  0
LINE
  5
2A6
330
73
100
AcDbEntity
  8
1
  6
Continuous
 62
     7
100
AcDbLine
 10
297.8714288981813
 20
412.1122009146843
 30
0.0
 11
297.8714288981813
 21
451.6122009146841
 31
0.0
  0
LINE
  5
2A7
330
73
100
AcDbEntity
  8
1
  6
PHANTOM
 62
     4
100
AcDbLine
 10
335.8714288874813
 20
434.1122009146843
 30
0.0
 11
335.8714288874813
 21
399.1122009146843
 31
0.0
  0
LINE
  5
2A8
330
73
100
AcDbEntity
  8
1
  6
PHANTOM
 62
     4
100
AcDbLine
 10
215.8714289052543
 20
399.1122009146843
 30
0.0
 11
215.8714289052543
 21
434.1122009146843
 31
0.0
  0
LINE
  5
2A9
330
73
100
AcDbEntity
  8
1
  6
Continuous
 62
     7
100
AcDbLine
 10
302.8714288981814
 20
430.612200914684
 30
0.0
 11
335.8714288874814
 21
430.612200914684
 31
0.0
  0
LINE
  5
2AA
330
73
100
AcDbEntity
  8
1
  6
Continuous
 62
     7
100
AcDbLine
 10
335.8714288874814
 20
402.6122009146848
 30
0.0
 11
301.8979816282571
 21
402.6122009146848
 31
0.0
  0
LINE
  5
2AB
330
73
100
AcDbEntity
  8
1
  6
Continuous
 62
     7
100
AcDbLine
 10
215.8714289088814
 20
430.612200914684
 30
0.0
 11
248.8714288981814
 21
430.612200914684
 31
0.0
  0
LINE
  5
2AC
330
73
100
AcDbEntity
  8
1
  6
PHANTOM
 62
     4
100
AcDbLine
 10
275.8714288981813
 20
455.1122009146841
 30
0.0
 11
275.8714288981813
 21
385.6122009146843
 31
0.0
  0
LINE
  5
2AD
330
73
100
AcDbEntity
  8
1
  6
PHANTOM
 62
     4
100
AcDbLine
 10
353.3714288874813
 20
416.6122009146843
 30
0.0
 11
198.3714289088813
 21
416.6122009146843
 31
0.0
  0
LINE
  5
2AE
330
73
100
AcDbEntity
  8
1
  6
Continuous
 62
     7
100
AcDbLine
 10
256.9159439799711
 20
397.6122009146848
 30
0.0
 11
294.8269138163915
 21
397.6122009146848
 31
0.0
  0
LINE
  5
2AF
330
73
100
AcDbEntity
  8
1
  6
Continuous
 62
     7
100
AcDbLine
 10
297.3714288981813
 20
452.1122009146841
 30
0.0
 11
297.8714288981813
 21
451.6122009146841
 31
0.0
  0
LINE
  5
2B0
330
73
100
AcDbEntity
  8
1
  6
Continuous
 62
     7
100
AcDbLine
 10
253.8714288981813
 20
451.6122009146841
 30
0.0
 11
254.3714288981813
 21
452.1122009146841
 31
0.0
  0
LINE
  5
2B1
330
73
100
AcDbEntity
  8
1
  6
Continuous
 62
     7
100
AcDbLine
 10
254.3714288981813
 20
452.1122009146841
 30
0.0
 11
297.3714288981813
 21
452.1122009146841
 31
0.0
  0
LINE
  5
2B2
330
73
100
AcDbEntity
  8
1
  6
Continuous
 62
     7
100
AcDbLine
 10
253.8714288981813
 20
451.6122009146841
 30
0.0
 11
253.8714288981813
 21
412.1122009146843
 31
0.0
  0
LINE
  5
2B3
330
73
100
AcDbEntity
  8
1
  6
Continuous
 62
     7
100
AcDbLine
 10
297.8714288981813
 20
451.6122009146841
 30
0.0
 11
253.8714288981813
 21
451.6122009146841
 31
0.0
  0
LINE
  5
2B4
330
73
100
AcDbEntity
  8
1
  6
PHANTOM
 62
     4
100
AcDbLine
 10
629.8714282514021
 20
416.6122009146848
 30
0.0
 11
683.3714282514039
 21
416.6122009146848
 31
0.0
  0
LINE
  5
2B5
330
73
100
AcDbEntity
  8
1
  6
Continuous
 62
     2
100
AcDbLine
 10
203.8124289652219
 20
783.2301509221979
 30
0.0
 11
203.8124289652219
 21
781.3495897861023
 31
0.0
  0
LINE
  5
2B6
330
73
100
AcDbEntity
  8
1
  6
Continuous
 62
     7
100
AcDbLine
 10
202.650428965222
 20
783.2301509221979
 30
0.0
 11
202.650428965222
 21
781.3495897861023
 31
0.0
  0
ARC
  5
2B7
330
73
100
AcDbEntity
  8
1
  6
Continuous
 62
     7
100
AcDbCircle
 10
665.3714282514013
 20
416.6122009146844
 30
0.0
 40
17.49999999999896
100
AcDbArc
 50
126.8698976458401
 51
233.1301023541604
  0
ARC
  5
2B8
330
73
100
AcDbEntity
  8
1
  6
Continuous
 62
     7
100
AcDbCircle
 10
335.8714312253721
 20
775.8495882508018
 30
0.0
 40
17.4999984646995
100
AcDbArc
 50
270.0
 51
323.1301048674774
  0
ARC
  5
2B9
330
73
100
AcDbEntity
  8
1
  6
Continuous
 62
     7
100
AcDbCircle
 10
275.8714297114719
 20
765.3495897861023
 30
0.0
 40
22.00000000000016
100
AcDbArc
 50
8.2388788900149
 51
57.2816547321714
  0
ARC
  5
2BA
330
73
100
AcDbEntity
  8
1
  6
Continuous
 62
     7
100
AcDbCircle
 10
300.5189447992044
 20
752.5995897861023
 30
0.0
 40
5.75
100
AcDbArc
 50
90.0
 51
131.1259419265482
  0
ARC
  5
2BB
330
73
100
AcDbEntity
  8
1
  6
Continuous
 62
     7
100
AcDbCircle
 10
300.335689356922
 20
794.0995897861023
 30
0.0
 40
15.74999999999996
100
AcDbArc
 50
229.6045172903725
 51
270.0
  0
ARC
  5
2BC
330
73
100
AcDbEntity
  8
1
  6
Continuous
 62
     7
100
AcDbCircle
 10
275.8714297114719
 20
765.3495897861023
 30
0.0
 40
22.00000000000006
100
AcDbArc
 50
57.2816547321714
 51
90.0
  0
ARC
  5
2BD
330
73
100
AcDbEntity
  8
1
  6
Continuous
 62
     7
100
AcDbCircle
 10
275.8714297114719
 20
765.3495897861023
 30
0.0
 40
22.0
100
AcDbArc
 50
90.0
 51
122.7183452678282
  0
ARC
  5
2BE
330
73
100
AcDbEntity
  8
1
  6
Continuous
 62
     7
100
AcDbCircle
 10
249.8448761681055
 20
397.6122009146848
 30
0.0
 40
5.000000000000087
100
AcDbArc
 50
19.47122063449057
 51
90.0
  0
ARC
  5
2BF
330
73
100
AcDbEntity
  8
1
  6
Continuous
 62
     7
100
AcDbCircle
 10
301.8979816282571
 20
397.6122009146848
 30
0.0
 40
5.0
100
AcDbArc
 50
90.0
 51
160.52877936551
  0
ARC
  5
2C0
330
73
100
AcDbEntity
  8
1
  6
Continuous
 62
     7
100
AcDbCircle
 10
251.4071700660219
 20
794.0995897861023
 30
0.0
 40
15.75
100
AcDbArc
 50
270.0
 51
310.3954827096275
  0
ARC
  5
2C1
330
73
100
AcDbEntity
  8
1
  6
Continuous
 62
     7
100
AcDbCircle
 10
251.2239146237395
 20
752.5995897861023
 30
0.0
 40
5.749999999999908
100
AcDbArc
 50
48.87405807345183
 51
90.0
  0
ARC
  5
2C2
330
73
100
AcDbEntity
  8
1
  6
Continuous
 62
     7
100
AcDbCircle
 10
335.8714281305317
 20
416.6122009146843
 30
0.0
 40
13.99999999999951
100
AcDbArc
 50
270.0000030978588
 51
0.0
  0
ARC
  5
2C3
330
73
100
AcDbEntity
  8
1
  6
Continuous
 62
     7
100
AcDbCircle
 10
215.8714296658312
 20
416.6122009146843
 30
0.0
 40
13.99999999999972
100
AcDbArc
 50
90.0
 51
180.0
  0
ARC
  5
2C4
330
73
100
AcDbEntity
  8
1
  6
Continuous
 62
     7
100
AcDbCircle
 10
275.8714297114719
 20
765.3495897861023
 30
0.0
 40
21.99999999999997
100
AcDbArc
 50
122.7183452678282
 51
171.7611211099851
  0
ARC
  5
2C5
330
73
100
AcDbEntity
  8
1
  6
Continuous
 62
     7
100
AcDbCircle
 10
215.8714281975717
 20
775.8495882508018
 30
0.0
 40
17.49999846469947
100
AcDbArc
 50
216.8698951325228
 51
270.0
  0
ARC
  5
2C6
330
73
100
AcDbEntity
  8
1
  6
Continuous
 62
     7
100
AcDbCircle
 10
388.8714288981803
 20
412.1122009146843
 30
0.0
 40
134.999999999999
100
AcDbArc
 50
180.0
 51
185.1961716534133
  0
ARC
  5
2C7
330
73
100
AcDbEntity
  8
1
  6
Continuous
 62
     7
100
AcDbCircle
 10
335.8714281305317
 20
416.6122009146843
 30
0.0
 40
13.99999999999972
100
AcDbArc
 50
0.0
 51
90.0
  0
ARC
  5
2C8
330
73
100
AcDbEntity
  8
1
  6
Continuous
 62
     7
100
AcDbCircle
 10
215.8714296658312
 20
416.6122009146843
 30
0.0
 40
13.99999999999949
100
AcDbArc
 50
180.0
 51
269.9999969021409
  0
ARC
  5
2C9
330
73
100
AcDbEntity
  8
1
  6
Continuous
 62
     7
100
AcDbCircle
 10
162.8714288981827
 20
412.1122009146843
 30
0.0
 40
134.9999999999986
100
AcDbArc
 50
354.8038283465867
 51
0.0
  0
ARC
  5
2CA
330
73
100
AcDbEntity
  8
1
  6
Continuous
 62
     7
100
AcDbCircle
 10
862.8714282513429
 20
412.1122009146809
 30
0.0
 40
229.9999999999408
100
AcDbArc
 50
180.0
 51
182.9038926751749
  0
ARC
  5
2CB
330
73
100
AcDbEntity
  8
1
  6
Continuous
 62
     7
100
AcDbCircle
 10
673.5799415454555
 20
400.6122009146848
 30
0.0
 40
3.0
100
AcDbArc
 50
270.0
 51
352.7292195092147
  0
ARC
  5
2CC
330
73
100
AcDbEntity
  8
1
  6
Continuous
 62
     7
100
AcDbCircle
 10
256.9159439799711
 20
400.1122009146848
 30
0.0
 40
2.499999999999996
100
AcDbArc
 50
185.196171653414
 51
199.4712206344901
  0
ARC
  5
2CD
330
73
100
AcDbEntity
  8
1
  6
Continuous
 62
     7
100
AcDbCircle
 10
294.8269138163915
 20
400.1122009146848
 30
0.0
 40
2.5
100
AcDbArc
 50
270.0
 51
340.5287793655093
  0
ARC
  5
2CE
330
73
100
AcDbEntity
  8
1
  6
Continuous
 62
     7
100
AcDbCircle
 10
302.8714288981814
 20
435.612200914684
 30
0.0
 40
5.0
100
AcDbArc
 50
180.0
 51
270.0
  0
ARC
  5
2CF
330
73
100
AcDbEntity
  8
1
  6
Continuous
 62
     7
100
AcDbCircle
 10
248.8714288981814
 20
435.612200914684
 30
0.0
 40
5.0
100
AcDbArc
 50
270.0
 51
0.0
  0
ARC
  5
2D0
330
73
100
AcDbEntity
  8
1
  6
Continuous
 62
     7
100
AcDbCircle
 10
256.9159439799711
 20
400.1122009146848
 30
0.0
 40
2.50000000000002
100
AcDbArc
 50
199.4712206344901
 51
270.0
  0
ARC
  5
2D1
330
73
100
AcDbEntity
  8
1
  6
Continuous
 62
     7
100
AcDbCircle
 10
294.8269138163915
 20
400.1122009146848
 30
0.0
 40
2.49999999999994
100
AcDbArc
 50
340.5287793655093
 51
354.8038283465861
  0
ARC
  5
2D2
330
73
100
AcDbEntity
  8
1
  6
Continuous
 62
     7
100
AcDbCircle
 10
636.1629149573484
 20
400.6122009146848
 30
0.0
 40
2.999999999999894
100
AcDbArc
 50
182.9038926751768
 51
270.0
  0
ENDBLK
  5
75
330
73
100
AcDbEntity
  8
0
100
AcDbBlockEnd
  0
BLOCK
  5
77
330
76
100
AcDbEntity
  8
0
100
AcDbBlockBegin
  2
30-108K__9
 70
     0
 10
115.8714300220255
 20
733.3495923137953
 30
0.0
  3
30-108K__9
  1

  0
LINE
  5
2D3
330
76
100
AcDbEntity
  8
1
  6
Continuous
 62
     7
100
AcDbLine
 10
189.0160913323859
 20
783.3495897861023
 30
0.0
 11
190.0160913323859
 21
784.3495897861023
 31
0.0
  0
LINE
  5
2D4
330
76
100
AcDbEntity
  8
1
  6
Continuous
 62
     7
100
AcDbLine
 10
190.0160913323859
 20
796.8495897861023
 30
0.0
 11
190.0160913323859
 21
784.3495897861023
 31
0.0
  0
LINE
  5
2D5
330
76
100
AcDbEntity
  8
1
  6
Continuous
 62
     7
100
AcDbLine
 10
189.0160913323859
 20
783.3495897861023
 30
0.0
 11
172.0160913323859
 21
783.3495897861023
 31
0.0
  0
LINE
  5
2D6
330
76
100
AcDbEntity
  8
1
  6
Continuous
 62
     7
100
AcDbLine
 10
171.0160913323859
 20
784.3495897861023
 30
0.0
 11
172.0160913323859
 21
783.3495897861023
 31
0.0
  0
LINE
  5
2D7
330
76
100
AcDbEntity
  8
1
  6
Continuous
 62
     7
100
AcDbLine
 10
171.0160913323859
 20
784.3495897861023
 30
0.0
 11
171.0160913323859
 21
796.8495897861023
 31
0.0
  0
LINE
  5
2D8
330
76
100
AcDbEntity
  8
0
  6
Continuous
 62
     7
100
AcDbLine
 10
171.0160913323859
 20
784.3495897861023
 30
0.0
 11
190.0160913323859
 21
784.3495897861023
 31
0.0
  0
LINE
  5
2D9
330
76
100
AcDbEntity
  8
1
  6
Continuous
 62
     2
100
AcDbLine
 10
171.1604176787699
 20
785.3495897861023
 30
0.0
 11
171.1604176787699
 21
795.8495897861023
 31
0.0
  0
LINE
  5
2DA
330
76
100
AcDbEntity
  8
1
  6
Continuous
 62
     2
100
AcDbLine
 10
178.8664336445501
 20
785.3495897861023
 30
0.0
 11
178.8664336445501
 21
795.8495897861023
 31
0.0
  0
LINE
  5
2DB
330
76
100
AcDbEntity
  8
1
  6
Continuous
 62
     2
100
AcDbLine
 10
177.2668999707921
 20
785.3495897861023
 30
0.0
 11
177.2668999707921
 21
795.8495897861023
 31
0.0
  0
LINE
  5
2DC
330
76
100
AcDbEntity
  8
1
  6
Continuous
 62
     2
100
AcDbLine
 10
175.7660913323859
 20
785.3495897861023
 30
0.0
 11
175.7660913323859
 21
795.8495897861023
 31
0.0
  0
LINE
  5
2DD
330
76
100
AcDbEntity
  8
1
  6
Continuous
 62
     2
100
AcDbLine
 10
174.4096090403638
 20
785.3495897861023
 30
0.0
 11
174.4096090403638
 21
795.8495897861023
 31
0.0
  0
LINE
  5
2DE
330
76
100
AcDbEntity
  8
1
  6
Continuous
 62
     2
100
AcDbLine
 10
173.2386691227556
 20
785.3495897861023
 30
0.0
 11
173.2386691227556
 21
795.8495897861023
 31
0.0
  0
LINE
  5
2DF
330
76
100
AcDbEntity
  8
1
  6
Continuous
 62
     2
100
AcDbLine
 10
172.2888499964338
 20
785.3495897861023
 30
0.0
 11
172.2888499964338
 21
795.8495897861023
 31
0.0
  0
LINE
  5
2E0
330
76
100
AcDbEntity
  8
1
  6
Continuous
 62
     2
100
AcDbLine
 10
171.5890114349198
 20
785.3495897861023
 30
0.0
 11
171.5890114349198
 21
795.8495897861023
 31
0.0
  0
LINE
  5
2E1
330
76
100
AcDbEntity
  8
1
  6
Continuous
 62
     2
100
AcDbLine
 10
189.871764986002
 20
795.8495897861023
 30
0.0
 11
189.871764986002
 21
785.3495897861023
 31
0.0
  0
LINE
  5
2E2
330
76
100
AcDbEntity
  8
1
  6
Continuous
 62
     2
100
AcDbLine
 10
189.4431712298521
 20
795.8495897861023
 30
0.0
 11
189.4431712298521
 21
785.3495897861023
 31
0.0
  0
LINE
  5
2E3
330
76
100
AcDbEntity
  8
1
  6
Continuous
 62
     2
100
AcDbLine
 10
188.7433326683381
 20
795.8495897861023
 30
0.0
 11
188.7433326683381
 21
785.3495897861023
 31
0.0
  0
LINE
  5
2E4
330
76
100
AcDbEntity
  8
1
  6
Continuous
 62
     2
100
AcDbLine
 10
187.7935135420162
 20
795.8495897861023
 30
0.0
 11
187.7935135420162
 21
785.3495897861023
 31
0.0
  0
LINE
  5
2E5
330
76
100
AcDbEntity
  8
1
  6
Continuous
 62
     2
100
AcDbLine
 10
186.622573624408
 20
795.8495897861023
 30
0.0
 11
186.622573624408
 21
785.3495897861023
 31
0.0
  0
LINE
  5
2E6
330
76
100
AcDbEntity
  8
1
  6
Continuous
 62
     2
100
AcDbLine
 10
185.2660913323859
 20
795.8495897861023
 30
0.0
 11
185.2660913323859
 21
785.3495897861023
 31
0.0
  0
LINE
  5
2E7
330
76
100
AcDbEntity
  8
1
  6
Continuous
 62
     2
100
AcDbLine
 10
183.7652826939798
 20
795.8495897861023
 30
0.0
 11
183.7652826939798
 21
785.3495897861023
 31
0.0
  0
LINE
  5
2E8
330
76
100
AcDbEntity
  8
1
  6
Continuous
 62
     2
100
AcDbLine
 10
182.1657490202217
 20
795.8495897861023
 30
0.0
 11
182.1657490202217
 21
785.3495897861023
 31
0.0
  0
CIRCLE
  5
2E9
330
76
100
AcDbEntity
  8
1
  6
Continuous
 62
     7
100
AcDbCircle
 10
180.5160897529786
 20
381.2568622892778
 30
0.0
 40
5.499999999999964
  0
CIRCLE
  5
2EA
330
76
100
AcDbEntity
  8
1
  6
Continuous
 62
     7
100
AcDbCircle
 10
180.5160897529786
 20
381.2568622892778
 30
0.0
 40
8.499999999999828
  0
CIRCLE
  5
2EB
330
76
100
AcDbEntity
  8
1
  6
Continuous
 62
     7
100
AcDbCircle
 10
180.5160897529786
 20
381.2568622892778
 30
0.0
 40
9.499999999999835
  0
ENDBLK
  5
78
330
76
100
AcDbEntity
  8
0
100
AcDbBlockEnd
  0
BLOCK
  5
7A
330
79
100
AcDbEntity
  8
0
100
AcDbBlockBegin
  2
78-78K__10
 70
     0
 10
160.0214300220255
 20
640.0495923137951
 30
0.0
  3
78-78K__10
  1

  0
LINE
  5
2EC
330
79
100
AcDbEntity
  8
1
  6
Continuous
 62
     7
100
AcDbLine
 10
178.4113358230578
 20
376.1755236728533
 30
0.0
 11
178.5452750106531
 21
376.4988815149204
 31
0.0
  0
LINE
  5
2ED
330
79
100
AcDbEntity
  8
1
  6
Continuous
 62
     7
100
AcDbLine
 10
175.4347571458442
 20
379.1521020972477
 30
0.0
 11
175.7581149765349
 21
379.2860413123079
 31
0.0
  0
ARC
  5
2EE
330
79
100
AcDbEntity
  8
1
  6
Continuous
 62
     7
100
AcDbCircle
 10
180.5160944852711
 20
381.2568611910504
 30
0.0
 40
5.149999999999963
100
AcDbArc
 50
247.500002433241
 51
202.5000024332423
  0
ENDBLK
  5
7B
330
79
100
AcDbEntity
  8
0
100
AcDbBlockEnd
  0
BLOCK
  5
7D
330
7C
100
AcDbEntity
  8
0
100
AcDbBlockBegin
  2
36-99K__11
 70
     0
 10
160.6214300220255
 20
655.3495923137953
 30
0.0
  3
36-99K__11
  1

  0
LINE
  5
2EF
330
7C
100
AcDbEntity
  8
1
  6
Continuous
 62
     7
100
AcDbLine
 10
177.2452483338487
 20
385.2348121445615
 30
0.0
 11
184.4940416415891
 21
377.9860194463491
 31
0.0
  0
LINE
  5
2F0
330
7C
100
AcDbEntity
  8
1
  6
Continuous
 62
     7
100
AcDbLine
 10
176.5381415823914
 20
384.5277053336458
 30
0.0
 11
183.7869348901317
 21
377.2789126354334
 31
0.0
  0
ARC
  5
2F1
330
7C
100
AcDbEntity
  8
1
  6
Continuous
 62
     7
100
AcDbCircle
 10
180.5160916119903
 20
381.2568623899974
 30
0.0
 40
4.250000000000005
100
AcDbArc
 50
141.7563294394979
 51
308.2436753783218
  0
ARC
  5
2F2
330
7C
100
AcDbEntity
  8
1
  6
Continuous
 62
     7
100
AcDbCircle
 10
180.5160916119903
 20
381.2568623899974
 30
0.0
 40
4.24999999999997
100
AcDbArc
 50
321.7563294394985
 51
128.2436753783221
  0
ENDBLK
  5
7E
330
7C
100
AcDbEntity
  8
0
100
AcDbBlockEnd
  0
BLOCK
  5
80
330
7F
100
AcDbEntity
  8
0
100
AcDbBlockBegin
  2
35-6A-8K__12
 70
     0
 10
637.6858158537341
 20
1162.039693144835
 30
0.0
  3
35-6A-8K__12
  1

  0
LINE
  5
2F3
330
7F
100
AcDbEntity
  8
1
  6
Continuous
 62
     7
100
AcDbLine
 10
224.296296453926
 20
796.8495897861023
 30
0.0
 11
224.296296453926
 21
796.2301509221979
 31
0.0
  0
LINE
  5
2F4
330
7F
100
AcDbEntity
  8
1
  6
Continuous
 62
     7
100
AcDbLine
 10
207.4962964539263
 20
796.2301509221979
 30
0.0
 11
207.4962964539263
 21
796.8495897861023
 31
0.0
  0
ENDBLK
  5
81
330
7F
100
AcDbEntity
  8
0
100
AcDbBlockEnd
  0
BLOCK
  5
83
330
82
100
AcDbEntity
  8
0
100
AcDbBlockBegin
  2
78-3AK__13
 70
     0
 10
974.2332614578793
 20
724.8274376010753
 30
0.0
  3
78-3AK__13
  1

  0
LINE
  5
2F5
330
82
100
AcDbEntity
  8
1
  6
Continuous
 62
     7
100
AcDbLine
 10
193.1653115044503
 20
819.1495897861024
 30
0.0
 11
167.8668736231668
 21
819.1495897861024
 31
0.0
  0
LINE
  5
2F6
330
82
100
AcDbEntity
  8
0
  6
Continuous
 62
     7
100
AcDbLine
 10
191.0160925638085
 20
819.1495897861024
 30
0.0
 11
192.2660925638085
 21
819.1495897861024
 31
0.0
  0
LINE
  5
2F7
330
82
100
AcDbEntity
  8
1
  6
Continuous
 62
     7
100
AcDbLine
 10
205.140787611363
 20
826.8493458241458
 30
0.0
 11
193.7900065520048
 21
819.3687209766595
 31
0.0
  0
LINE
  5
2F8
330
82
100
AcDbEntity
  8
1
  6
Continuous
 62
     7
100
AcDbLine
 10
205.5160925638085
 20
827.6302146335887
 30
0.0
 11
205.5160925638085
 21
829.8495897861023
 31
0.0
  0
LINE
  5
2F9
330
82
100
AcDbEntity
  8
1
  6
Continuous
 62
     7
100
AcDbLine
 10
155.5160925638085
 20
829.8495897861023
 30
0.0
 11
205.5160925638085
 21
829.8495897861023
 31
0.0
  0
LINE
  5
2FA
330
82
100
AcDbEntity
  8
1
  6
Continuous
 62
     7
100
AcDbLine
 10
155.5160925638085
 20
829.8495897861023
 30
0.0
 11
155.5160925638085
 21
827.6302146335887
 31
0.0
  0
LINE
  5
2FB
330
82
100
AcDbEntity
  8
1
  6
Continuous
 62
     7
100
AcDbLine
 10
155.8913975162542
 20
826.8493458241458
 30
0.0
 11
167.2421785756124
 21
819.3687209766595
 31
0.0
  0
LINE
  5
2FC
330
82
100
AcDbEntity
  8
1
  6
Continuous
 62
     7
100
AcDbLine
 10
158.1462956799475
 20
827.4860271793428
 30
0.0
 11
202.8858931924191
 21
827.4860271793428
 31
0.0
  0
ARC
  5
2FD
330
82
100
AcDbEntity
  8
1
  6
Continuous
 62
     7
100
AcDbCircle
 10
180.51608897518
 20
381.2568627261039
 30
0.0
 40
24.99999999999974
100
AcDbArc
 50
72.38710650485187
 51
17.61289149954346
  0
ARC
  5
2FE
330
82
100
AcDbEntity
  8
1
  6
Continuous
 62
     7
100
AcDbCircle
 10
156.5160925638085
 20
827.6302146335887
 30
0.0
 40
1.0
100
AcDbArc
 50
180.0
 51
231.3401917459114
  0
ARC
  5
2FF
330
82
100
AcDbEntity
  8
1
  6
Continuous
 62
     7
100
AcDbCircle
 10
204.5160925638085
 20
827.6302146335887
 30
0.0
 40
0.9999999999999822
100
AcDbArc
 50
308.6598082540962
 51
0.0
  0
ARC
  5
300
330
82
100
AcDbEntity
  8
1
  6
Continuous
 62
     7
100
AcDbCircle
 10
167.8668736231668
 20
820.1495897861024
 30
0.0
 40
0.999999999999929
100
AcDbArc
 50
231.3401917459076
 51
270.0
  0
ARC
  5
301
330
82
100
AcDbEntity
  8
1
  6
Continuous
 62
     7
100
AcDbCircle
 10
193.1653115044503
 20
820.1495897861024
 30
0.0
 40
1.0
100
AcDbArc
 50
270.0
 51
308.6598082540962
  0
ENDBLK
  5
84
330
82
100
AcDbEntity
  8
0
100
AcDbBlockEnd
  0
BLOCK
  5
86
330
85
100
AcDbEntity
  8
0
100
AcDbBlockBegin
  2
32-3K__14
 70
     0
 10
945.4395963485229
 20
532.665078612526
 30
0.0
  3
32-3K__14
  1

  0
LINE
  5
302
330
85
100
AcDbEntity
  8
1
  6
Continuous
 62
     7
100
AcDbLine
 10
216.9160541091641
 20
433.3295948504198
 30
0.0
 11
221.6227184700382
 21
430.6122009146839
 31
0.0
  0
LINE
  5
303
330
85
100
AcDbEntity
  8
1
  6
Continuous
 62
     7
100
AcDbLine
 10
214.8268054428395
 20
399.8948069789488
 30
0.0
 11
201.9160541091639
 21
407.3488327368866
 31
0.0
  0
LINE
  5
304
330
85
100
AcDbEntity
  8
1
  6
Continuous
 62
     7
100
AcDbLine
 10
200.8714297760018
 20
409.1581751567465
 30
0.0
 11
200.8714297760018
 21
424.0662266726221
 31
0.0
  0
LINE
  5
305
330
85
100
AcDbEntity
  8
1
  6
Continuous
 62
     7
100
AcDbLine
 10
201.9160541091639
 20
425.875569092482
 30
0.0
 11
214.8268054428395
 21
433.3295948504198
 31
0.0
  0
LINE
  5
306
330
85
100
AcDbEntity
  8
1
  6
Continuous
 62
     7
100
AcDbLine
 10
221.6227184700383
 20
402.6122009146848
 30
0.0
 11
216.9160541091641
 21
399.8948069789488
 31
0.0
  0
LINE
  5
307
330
85
100
AcDbEntity
  8
1
  6
Continuous
 62
     7
100
AcDbLine
 10
200.8714297221718
 20
795.3814781999265
 30
0.0
 11
200.8714297221718
 21
784.0788236444694
 31
0.0
  0
LINE
  5
308
330
85
100
AcDbEntity
  8
1
  6
Continuous
 62
     7
100
AcDbLine
 10
230.8714297221718
 20
795.3814781999265
 30
0.0
 11
230.8714297221718
 21
784.0788236444694
 31
0.0
  0
LINE
  5
309
330
85
100
AcDbEntity
  8
1
  6
Continuous
 62
     7
100
AcDbLine
 10
230.1280934285065
 20
783.2301509221979
 30
0.0
 11
201.6147660158374
 21
783.2301509221979
 31
0.0
  0
LINE
  5
30A
330
85
100
AcDbEntity
  8
1
  6
Continuous
 62
     7
100
AcDbLine
 10
230.1280934285065
 20
796.2301509221979
 30
0.0
 11
201.6147660158374
 21
796.2301509221979
 31
0.0
  0
ARC
  5
30B
330
85
100
AcDbEntity
  8
1
  6
Continuous
 62
     7
100
AcDbCircle
 10
215.8714297760018
 20
416.6122009146843
 30
0.0
 40
14.34934207678542
100
AcDbArc
 50
77.3312975112983
 51
90.0
  0
ARC
  5
30C
330
85
100
AcDbEntity
  8
1
  6
Continuous
 62
     7
100
AcDbCircle
 10
215.8714297760018
 20
416.6122009146843
 30
0.0
 40
14.34934207678538
100
AcDbArc
 50
90.0
 51
282.6687024887021
  0
ARC
  5
30D
330
85
100
AcDbEntity
  8
1
  6
Continuous
 62
     7
100
AcDbCircle
 10
215.8714297760018
 20
416.6122009146843
 30
0.0
 40
16.75000000000004
100
AcDbArc
 50
86.42439207881914
 51
93.57560792118096
  0
ARC
  5
30E
330
85
100
AcDbEntity
  8
1
  6
Continuous
 62
     7
100
AcDbCircle
 10
215.8714297760018
 20
416.6122009146843
 30
0.0
 40
16.75000000000001
100
AcDbArc
 50
206.4243920788191
 51
213.5756079211806
  0
ARC
  5
30F
330
85
100
AcDbEntity
  8
1
  6
Continuous
 62
     7
100
AcDbCircle
 10
215.8714297760018
 20
416.6122009146843
 30
0.0
 40
16.7500000000002
100
AcDbArc
 50
146.4243920788194
 51
153.5756079211809
  0
ARC
  5
310
330
85
100
AcDbEntity
  8
1
  6
Continuous
 62
     7
100
AcDbCircle
 10
215.8714297760018
 20
416.6122009146843
 30
0.0
 40
16.75000000000004
100
AcDbArc
 50
266.424392078819
 51
273.5756079211808
  0
ARC
  5
311
330
85
100
AcDbEntity
  8
1
  6
Continuous
 62
     7
100
AcDbCircle
 10
209.1214297221718
 20
789.7301509221979
 30
0.0
 40
9.99999999999995
100
AcDbArc
 50
214.411508669769
 51
220.0052008848601
  0
ARC
  5
312
330
85
100
AcDbEntity
  8
1
  6
Continuous
 62
     7
100
AcDbCircle
 10
222.621429722172
 20
789.7301509221979
 30
0.0
 40
9.999999999999787
100
AcDbArc
 50
34.41150866976968
 51
40.0052008848605
  0
ARC
  5
313
330
85
100
AcDbEntity
  8
1
  6
Continuous
 62
     7
100
AcDbCircle
 10
222.621429722172
 20
789.7301509221979
 30
0.0
 40
9.999999999999968
100
AcDbArc
 50
319.9947991151395
 51
325.5884913302303
  0
ARC
  5
314
330
85
100
AcDbEntity
  8
1
  6
Continuous
 62
     7
100
AcDbCircle
 10
209.1214297221718
 20
789.7301509221979
 30
0.0
 40
10.00000000000006
100
AcDbArc
 50
139.9947991151399
 51
145.588491330231
  0
CIRCLE
  5
315
330
85
100
AcDbEntity
  8
1
  6
Continuous
 62
     7
100
AcDbCircle
 10
223.3714297221718
 20
789.7301509221982
 30
0.0
 40
5.651024957036952
  0
CIRCLE
  5
316
330
85
100
AcDbEntity
  8
1
  6
Continuous
 62
     7
100
AcDbCircle
 10
208.3714297221718
 20
789.7301509221982
 30
0.0
 40
5.651024957036952
  0
ARC
  5
317
330
85
100
AcDbEntity
  8
1
  6
Continuous
 62
     7
100
AcDbCircle
 10
230.1280934285065
 20
796.0301509221979
 30
0.0
 40
0.2000000000000118
100
AcDbArc
 50
40.00520088488047
 51
90.0
  0
ARC
  5
318
330
85
100
AcDbEntity
  8
1
  6
Continuous
 62
     7
100
AcDbCircle
 10
230.1280934285065
 20
783.430150922198
 30
0.0
 40
0.2000000000000455
100
AcDbArc
 50
270.0
 51
319.9947991151195
  0
ARC
  5
319
330
85
100
AcDbEntity
  8
1
  6
Continuous
 62
     7
100
AcDbCircle
 10
201.6147660158374
 20
796.0301509221979
 30
0.0
 40
0.2000000000000455
100
AcDbArc
 50
90.0
 51
139.9947991151614
  0
ARC
  5
31A
330
85
100
AcDbEntity
  8
1
  6
Continuous
 62
     7
100
AcDbCircle
 10
201.6147660158374
 20
783.430150922198
 30
0.0
 40
0.200000000000186
100
AcDbArc
 50
220.0052008848386
 51
270.0
  0
ENDBLK
  5
87
330
85
100
AcDbEntity
  8
0
100
AcDbBlockEnd
  0
BLOCK
  5
89
330
88
100
AcDbEntity
  8
0
100
AcDbBlockBegin
  2
03-47-50K__15
 70
     0
 10
611.506474770433
 20
580.3622009146842
 30
0.0
  3
03-47-50K__15
  1

  0
LINE
  5
31B
330
88
100
AcDbEntity
  8
1
  6
Continuous
 62
     7
100
AcDbLine
 10
190.9935925638088
 20
818.3495897861025
 30
0.0
 11
190.9935925638088
 21
816.3369467477072
 31
0.0
  0
LINE
  5
31C
330
88
100
AcDbEntity
  8
1
  6
Continuous
 62
     2
100
AcDbLine
 10
189.8315925638091
 20
818.3495897861025
 30
0.0
 11
190.9935925638088
 21
816.3369467477072
 31
0.0
  0
LINE
  5
31D
330
88
100
AcDbEntity
  8
1
  6
Continuous
 62
     7
100
AcDbLine
 10
189.8315925638091
 20
818.3495897861025
 30
0.0
 11
190.9935925638088
 21
818.3495897861025
 31
0.0
  0
LINE
  5
31E
330
88
100
AcDbEntity
  8
1
  6
Continuous
 62
     7
100
AcDbLine
 10
190.9935925638088
 20
819.1495897861024
 30
0.0
 11
190.9935925638088
 21
818.3495897861025
 31
0.0
  0
LINE
  5
31F
330
88
100
AcDbEntity
  8
1
  6
Continuous
 62
     2
100
AcDbLine
 10
189.8315925638091
 20
818.3495897861025
 30
0.0
 11
189.8315925638091
 21
819.1495897861024
 31
0.0
  0
LINE
  5
320
330
88
100
AcDbEntity
  8
1
  6
Continuous
 62
     2
100
AcDbLine
 10
170.0385925638088
 20
816.3369467477072
 30
0.0
 11
171.2005925638089
 21
818.3495897861027
 31
0.0
  0
LINE
  5
321
330
88
100
AcDbEntity
  8
1
  6
Continuous
 62
     7
100
AcDbLine
 10
170.0385925638088
 20
818.3495897861025
 30
0.0
 11
171.2005925638089
 21
818.3495897861027
 31
0.0
  0
LINE
  5
322
330
88
100
AcDbEntity
  8
1
  6
Continuous
 62
     2
100
AcDbLine
 10
171.2005925638089
 20
818.3495897861027
 30
0.0
 11
171.2005925638089
 21
819.1495897861024
 31
0.0
  0
LINE
  5
323
330
88
100
AcDbEntity
  8
1
  6
Continuous
 62
     7
100
AcDbLine
 10
170.0385925638088
 20
819.1495897861024
 30
0.0
 11
170.0385925638088
 21
818.3495897861025
 31
0.0
  0
LINE
  5
324
330
88
100
AcDbEntity
  8
1
  6
Continuous
 62
     7
100
AcDbLine
 10
170.0385925638088
 20
818.3495897861025
 30
0.0
 11
170.0385925638088
 21
816.3369467477072
 31
0.0
  0
LINE
  5
325
330
88
100
AcDbEntity
  8
1
  6
Continuous
 62
     7
100
AcDbLine
 10
190.9935928755397
 20
816.3369492754002
 30
0.0
 11
191.0160925638087
 21
816.2979786721638
 31
0.0
  0
LINE
  5
326
330
88
100
AcDbEntity
  8
1
  6
Continuous
 62
     7
100
AcDbLine
 10
170.0160925638087
 20
816.2979775922956
 30
0.0
 11
170.0385928755395
 21
816.3369492753998
 31
0.0
  0
LINE
  5
327
330
88
100
AcDbEntity
  8
1
  6
Continuous
 62
     7
100
AcDbLine
 10
172.3843611331482
 20
389.3885908513627
 30
0.0
 11
200.6110632694485
 21
417.6152920045307
 31
0.0
  0
LINE
  5
328
330
88
100
AcDbEntity
  8
1
  6
Continuous
 62
     7
100
AcDbLine
 10
216.8745189535121
 20
401.3518357540131
 30
0.0
 11
188.6478168172118
 21
373.1251346008451
 31
0.0
  0
LINE
  5
329
330
88
100
AcDbEntity
  8
1
  6
Continuous
 62
     7
100
AcDbLine
 10
223.3714297221718
 20
796.8495897861023
 30
0.0
 11
223.4714297221719
 21
796.8495897861023
 31
0.0
  0
LINE
  5
32A
330
88
100
AcDbEntity
  8
1
  6
Continuous
 62
     7
100
AcDbLine
 10
190.5160925638087
 20
796.8495897861023
 30
0.0
 11
194.0160925638087
 21
796.8495897861023
 31
0.0
  0
LINE
  5
32B
330
88
100
AcDbEntity
  8
1
  6
Continuous
 62
     7
100
AcDbLine
 10
169.0160925638087
 20
796.8495897861023
 30
0.0
 11
227.3714297221718
 21
796.8495897861023
 31
0.0
  0
LINE
  5
32C
330
88
100
AcDbEntity
  8
1
  6
Continuous
 62
     7
100
AcDbLine
 10
191.0160925638087
 20
815.3495897861023
 30
0.0
 11
191.0160925638087
 21
816.2979786721638
 31
0.0
  0
LINE
  5
32D
330
88
100
AcDbEntity
  8
1
  6
Continuous
 62
     7
100
AcDbLine
 10
227.3714297221718
 20
796.8495897861023
 30
0.0
 11
227.3714297221718
 21
811.3495897861021
 31
0.0
  0
LINE
  5
32E
330
88
100
AcDbEntity
  8
1
  6
Continuous
 62
     7
100
AcDbLine
 10
227.3714297221718
 20
811.3495897861021
 30
0.0
 11
203.1575209923514
 21
811.3495897861023
 31
0.0
  0
LINE
  5
32F
330
88
100
AcDbEntity
  8
1
  6
Continuous
 62
     7
100
AcDbLine
 10
171.2005925638084
 20
843.8495897861023
 30
0.0
 11
170.0385925638086
 21
842.6875897861023
 31
0.0
  0
LINE
  5
330
330
88
100
AcDbEntity
  8
1
  6
Continuous
 62
     7
100
AcDbLine
 10
189.8315925638085
 20
843.8495897861023
 30
0.0
 11
190.9935925638086
 21
842.6875897861023
 31
0.0
  0
LINE
  5
331
330
88
100
AcDbEntity
  8
1
  6
Continuous
 62
     2
100
AcDbLine
 10
189.8315925638085
 20
843.8495897861023
 30
0.0
 11
189.8315925638085
 21
829.8495897861023
 31
0.0
  0
LINE
  5
332
330
88
100
AcDbEntity
  8
1
  6
Continuous
 62
     7
100
AcDbLine
 10
171.2005925638084
 20
843.8495897861023
 30
0.0
 11
189.8315925638085
 21
843.8495897861023
 31
0.0
  0
LINE
  5
333
330
88
100
AcDbEntity
  8
1
  6
Continuous
 62
     7
100
AcDbLine
 10
169.0160925638087
 20
814.3495897861026
 30
0.0
 11
169.0160925638087
 21
796.8495897861023
 31
0.0
  0
LINE
  5
334
330
88
100
AcDbEntity
  8
1
  6
Continuous
 62
     7
100
AcDbLine
 10
169.0160925638087
 20
814.3495897861026
 30
0.0
 11
196.0160925638087
 21
814.3495897861023
 31
0.0
  0
LINE
  5
335
330
88
100
AcDbEntity
  8
1
  6
Continuous
 62
     7
100
AcDbLine
 10
170.0385925638086
 20
842.6875897861023
 30
0.0
 11
190.9935925638086
 21
842.6875897861023
 31
0.0
  0
LINE
  5
336
330
88
100
AcDbEntity
  8
1
  6
Continuous
 62
     7
100
AcDbLine
 10
190.9935925638086
 20
829.8495897861023
 30
0.0
 11
190.9935925638086
 21
842.6875897861023
 31
0.0
  0
LINE
  5
337
330
88
100
AcDbEntity
  8
1
  6
Continuous
 62
     7
100
AcDbLine
 10
170.0385925638086
 20
829.8495897861023
 30
0.0
 11
170.0385925638086
 21
842.6875897861023
 31
0.0
  0
LINE
  5
338
330
88
100
AcDbEntity
  8
1
  6
Continuous
 62
     2
100
AcDbLine
 10
171.2005925638084
 20
829.8495897861023
 30
0.0
 11
171.2005925638084
 21
843.8495897861023
 31
0.0
  0
LINE
  5
339
330
88
100
AcDbEntity
  8
1
  6
Continuous
 62
     7
100
AcDbLine
 10
170.0160925638087
 20
816.2979775922956
 30
0.0
 11
170.0160925638087
 21
815.3495897861023
 31
0.0
  0
LINE
  5
33A
330
88
100
AcDbEntity
  8
1
  6
Continuous
 62
     7
100
AcDbLine
 10
215.8962964539261
 20
807.0404957443751
 30
0.0
 11
203.1575209923515
 21
807.0404957443751
 31
0.0
  0
ARC
  5
33B
330
88
100
AcDbEntity
  8
1
  6
Continuous
 62
     7
100
AcDbCircle
 10
180.51608897518
 20
381.2568627261039
 30
0.0
 40
11.50000000000001
100
AcDbArc
 50
134.9999990021979
 51
314.9999990021979
  0
ARC
  5
33C
330
88
100
AcDbEntity
  8
1
  6
Continuous
 62
     7
100
AcDbCircle
 10
203.1575209923514
 20
821.3495897861023
 30
0.0
 40
9.99999999999989
100
AcDbArc
 50
224.4270040008063
 51
270.0
  0
ARC
  5
33D
330
88
100
AcDbEntity
  8
1
  6
Continuous
 62
     7
100
AcDbCircle
 10
203.1575209923514
 20
820.9590390757389
 30
0.0
 40
13.9185433313639
100
AcDbArc
 50
208.3506550925168
 51
270.0000000000003
  0
CIRCLE
  5
33E
330
88
100
AcDbEntity
  8
1
  6
Continuous
 62
     7
100
AcDbCircle
 10
180.51608897518
 20
381.2568627261039
 30
0.0
 40
10.49999999999991
  0
SPLINE
  5
33F
330
88
100
AcDbEntity
  8
1
  6
Continuous
 62
     7
100
AcDbSpline
210
0.0
220
0.0
230
1.0
 70
     8
 71
     3
 72
    13
 73
     9
 74
     7
 42
0.000000001
 43
0.0000000001
 44
0.00000001
 40
0.0
 40
0.0
 40
0.0
 40
0.0
 40
1.24227018229742
 40
2.484557005604525
 40
3.537999184442083
 40
4.591695590798473
 40
8.492417407580273
 40
12.41500542584188
 40
12.41500542584188
 40
12.41500542584188
 40
12.41500542584188
 10
227.3714297221718
 20
811.3495897861021
 30
0.0
 10
227.0238282686426
 20
811.1244901513696
 30
0.0
 10
226.3286206973361
 20
810.6742878789097
 30
0.0
 10
225.3172120685801
 20
810.0675041162884
 30
0.0
 10
224.3436812783759
 20
809.5198644865818
 30
0.0
 10
222.5665135355681
 20
808.6011707530614
 30
0.0
 10
219.818216325593
 20
807.40105142587
 30
0.0
 10
217.2060367647872
 20
807.1609047038614
 30
0.0
 10
215.8962964539261
 20
807.0404957443751
 30
0.0
 11
227.3714297221718
 21
811.3495897861021
 31
0.0
 11
226.3248620837434
 21
810.6803130242399
 31
0.0
 11
225.2600097931747
 21
810.0404957443751
 31
0.0
 11
224.3410423431993
 21
809.525481908768
 31
0.0
 11
223.4055935001295
 21
809.040495744375
 31
0.0
 11
219.7777253650684
 21
807.6072464632999
 31
0.0
 11
215.8962964539261
 21
807.0404957443751
 31
0.0
  0
ARC
  5
340
330
88
100
AcDbEntity
  8
1
  6
Continuous
 62
     7
100
AcDbCircle
 10
192.0160925638087
 20
815.3495897861023
 30
0.0
 40
1.0
100
AcDbArc
 50
180.0
 51
270.0
  0
ARC
  5
341
330
88
100
AcDbEntity
  8
1
  6
Continuous
 62
     7
100
AcDbCircle
 10
169.0160925638087
 20
815.3495897861023
 30
0.0
 40
0.9999999999997726
100
AcDbArc
 50
270.0
 51
0.0
  0
ENDBLK
  5
8A
330
88
100
AcDbEntity
  8
0
100
AcDbBlockEnd
  0
BLOCK
  5
93
330
8B
100
AcDbEntity
  8
0
100
AcDbBlockBegin
  2
U3-48F-50__16
 70
     0
 10
480.5224568377891
 20
422.1122009146843
 30
0.0
  3
U3-48F-50__16
  1

  0
INSERT
  5
8C
330
8B
100
AcDbEntity
  8
1
100
AcDbBlockReference
  2
30-108K__9
 10
115.8714300220255
 20
733.3495923137953
 30
0.0
  0
INSERT
  5
8D
330
8B
100
AcDbEntity
  8
1
100
AcDbBlockReference
  2
78-78K__10
 10
160.0214300220255
 20
640.0495923137951
 30
0.0
  0
INSERT
  5
8E
330
8B
100
AcDbEntity
  8
1
100
AcDbBlockReference
  2
36-99K__11
 10
160.6214300220255
 20
655.3495923137953
 30
0.0
  0
INSERT
  5
8F
330
8B
100
AcDbEntity
  8
1
100
AcDbBlockReference
  2
35-6A-8K__12
 10
637.6858158537341
 20
1162.039693144835
 30
0.0
  0
INSERT
  5
90
330
8B
100
AcDbEntity
  8
0
100
AcDbBlockReference
  2
78-3AK__13
 10
974.2332614578793
 20
724.8274376010753
 30
0.0
  0
INSERT
  5
91
330
8B
100
AcDbEntity
  8
0
100
AcDbBlockReference
  2
32-3K__14
 10
945.4395963485229
 20
532.665078612526
 30
0.0
  0
INSERT
  5
92
330
8B
100
AcDbEntity
  8
1
100
AcDbBlockReference
  2
03-47-50K__15
 10
611.506474770433
 20
580.3622009146842
 30
0.0
  0
LINE
  5
342
330
8B
100
AcDbEntity
  8
1
  6
PHANTOM
 62
     4
100
AcDbLine
 10
215.871429722172
 20
811.3495897861021
 30
0.0
 11
215.8714297221718
 21
783.2301509221979
 31
0.0
  0
LINE
  5
343
330
8B
100
AcDbEntity
  8
1
  6
PHANTOM
 62
     4
100
AcDbLine
 10
180.5160925638087
 20
792.8495897861023
 30
0.0
 11
180.5160925638087
 21
843.8495897861023
 31
0.0
  0
LINE
  5
344
330
8B
100
AcDbEntity
  8
1
  6
PHANTOM
 62
     4
100
AcDbLine
 10
162.8384218027223
 20
398.9345316400566
 30
0.0
 11
198.1937608620495
 21
363.5791925807294
 31
0.0
  0
LINE
  5
345
330
8B
100
AcDbEntity
  8
1
  6
PHANTOM
 62
     4
100
AcDbLine
 10
204.0273918068386
 20
428.4562397545951
 30
0.0
 11
227.7154689765879
 21
404.7681625848457
 31
0.0
  0
LINE
  5
346
330
8B
100
AcDbEntity
  8
1
  6
PHANTOM
 62
     4
100
AcDbLine
 10
226.4780321095115
 20
427.2188028875186
 30
0.0
 11
162.8384218027223
 21
363.5791925807293
 31
0.0
  0
ENDBLK
  5
94
330
8B
100
AcDbEntity
  8
0
100
AcDbBlockEnd
  0
BLOCK
  5
96
330
95
100
AcDbEntity
  8
0
100
AcDbBlockBegin
  2
30-225B-M1K
 70
     0
 10
32.35729077403403
 20
1012.825633770259
 30
0.0
  3
30-225B-M1K
  1

  0
LINE
  5
347
330
95
100
AcDbEntity
  8
0
  6
Continuous
 62
     7
100
AcDbLine
 10
263.3714285606911
 20
360.8092477830017
 30
0.0
 11
288.3714285606911
 21
360.8092477830017
 31
0.0
  0
LINE
  5
348
330
95
100
AcDbEntity
  8
0
  6
Continuous
 62
     7
100
AcDbLine
 10
264.3714285606911
 20
340.3092477830017
 30
0.0
 11
275.8714285606911
 21
340.3092477830017
 31
0.0
  0
LINE
  5
349
330
95
100
AcDbEntity
  8
0
  6
Continuous
 62
     7
100
AcDbLine
 10
263.3714285606911
 20
360.8092477830017
 30
0.0
 11
263.3714285606911
 21
341.3092477830017
 31
0.0
  0
LINE
  5
34A
330
95
100
AcDbEntity
  8
0
  6
PHANTOM
 62
     4
100
AcDbLine
 10
275.8714285606911
 20
338.3092477830017
 30
0.0
 11
275.8714285606911
 21
362.8092477830017
 31
0.0
  0
LINE
  5
34B
330
95
100
AcDbEntity
  8
0
  6
Continuous
 62
     7
100
AcDbLine
 10
275.8714285606911
 20
340.3092477830017
 30
0.0
 11
287.3714285606911
 21
340.3092477830017
 31
0.0
  0
LINE
  5
34C
330
95
100
AcDbEntity
  8
0
  6
Continuous
 62
     7
100
AcDbLine
 10
288.3714285606911
 20
341.3092477830017
 30
0.0
 11
288.3714285606911
 21
360.8092477830017
 31
0.0
  0
LINE
  5
34D
330
95
100
AcDbEntity
  8
0
  6
Continuous
 62
     7
100
AcDbLine
 10
477.371428251402
 20
341.3092477830017
 30
0.0
 11
477.371428251402
 21
360.8092477830017
 31
0.0
  0
LINE
  5
34E
330
95
100
AcDbEntity
  8
0
  6
Continuous
 62
     7
100
AcDbLine
 10
464.871428251402
 20
340.3092477830017
 30
0.0
 11
476.371428251402
 21
340.3092477830017
 31
0.0
  0
LINE
  5
34F
330
95
100
AcDbEntity
  8
0
  6
Continuous
 62
     7
100
AcDbLine
 10
474.871428251402
 20
360.8092477830017
 30
0.0
 11
477.371428251402
 21
360.8092477830017
 31
0.0
  0
LINE
  5
350
330
95
100
AcDbEntity
  8
0
  6
PHANTOM
 62
     4
100
AcDbLine
 10
464.871428251402
 20
338.3092477830017
 30
0.0
 11
464.871428251402
 21
362.8092477830017
 31
0.0
  0
LINE
  5
351
330
95
100
AcDbEntity
  8
0
  6
Continuous
 62
     7
100
AcDbLine
 10
452.371428251402
 20
360.8092477830017
 30
0.0
 11
452.371428251402
 21
341.3092477830017
 31
0.0
  0
LINE
  5
352
330
95
100
AcDbEntity
  8
0
  6
Continuous
 62
     7
100
AcDbLine
 10
453.371428251402
 20
340.3092477830017
 30
0.0
 11
464.871428251402
 21
340.3092477830017
 31
0.0
  0
LINE
  5
353
330
95
100
AcDbEntity
  8
0
  6
Continuous
 62
     7
100
AcDbLine
 10
452.371428251402
 20
360.8092477830017
 30
0.0
 11
474.871428251402
 21
360.8092477830017
 31
0.0
  0
ARC
  5
354
330
95
100
AcDbEntity
  8
0
  6
Continuous
 62
     7
100
AcDbCircle
 10
264.3714285606911
 20
341.3092477830017
 30
0.0
 40
1.0
100
AcDbArc
 50
180.0
 51
270.0
  0
ARC
  5
355
330
95
100
AcDbEntity
  8
0
  6
Continuous
 62
     7
100
AcDbCircle
 10
287.3714285606911
 20
341.3092477830017
 30
0.0
 40
1.0
100
AcDbArc
 50
270.0
 51
0.0
  0
ARC
  5
356
330
95
100
AcDbEntity
  8
0
  6
Continuous
 62
     7
100
AcDbCircle
 10
476.371428251402
 20
341.3092477830017
 30
0.0
 40
1.0
100
AcDbArc
 50
270.0
 51
0.0
  0
ARC
  5
357
330
95
100
AcDbEntity
  8
0
  6
Continuous
 62
     7
100
AcDbCircle
 10
453.371428251402
 20
341.3092477830017
 30
0.0
 40
1.0
100
AcDbArc
 50
180.0
 51
270.0
  0
ENDBLK
  5
97
330
95
100
AcDbEntity
  8
0
100
AcDbBlockEnd
  0
BLOCK
  5
99
330
98
100
AcDbEntity
  8
0
100
AcDbBlockBegin
  2
61-142A-16K
 70
     0
 10
601.8714282514022
 20
598.3961234732442
 30
0.0
  3
61-142A-16K
  1

  0
LINE
  5
358
330
98
100
AcDbEntity
  8
1
  6
PHANTOM
 62
     4
100
AcDbLine
 10
275.8714286762763
 20
384.6121920702257
 30
0.0
 11
275.8714286762763
 21
337.0105526606246
 31
0.0
  0
LINE
  5
359
330
98
100
AcDbEntity
  8
1
  6
Continuous
 62
     7
100
AcDbLine
 10
264.8714286762763
 20
360.7422586636522
 30
0.0
 11
264.8714286762763
 21
361.6122009146714
 31
0.0
  0
LINE
  5
35A
330
98
100
AcDbEntity
  8
1
  6
Continuous
 62
     7
100
AcDbLine
 10
261.8714292023867
 20
361.6122009146714
 30
0.0
 11
261.8675593914034
 21
361.6122009146714
 31
0.0
  0
LINE
  5
35B
330
98
100
AcDbEntity
  8
1
  6
Continuous
 62
     7
100
AcDbLine
 10
283.8214292023865
 20
383.1122027359169
 30
0.0
 11
283.8214292023865
 21
382.6122009146753
 31
0.0
  0
LINE
  5
35C
330
98
100
AcDbEntity
  8
1
  6
Continuous
 62
     7
100
AcDbLine
 10
261.8714292023867
 20
361.6122009146714
 30
0.0
 11
261.8714292023867
 21
381.1122009146753
 31
0.0
  0
LINE
  5
35D
330
98
100
AcDbEntity
  8
1
  6
Continuous
 62
     7
100
AcDbLine
 10
263.3714292023867
 20
382.6122009146753
 30
0.0
 11
283.8214292023865
 21
382.6122009146753
 31
0.0
  0
LINE
  5
35E
330
98
100
AcDbEntity
  8
1
  6
Continuous
 62
     7
100
AcDbLine
 10
267.9214292023867
 20
382.6122009146753
 30
0.0
 11
267.9214292023867
 21
383.1122027359169
 31
0.0
  0
LINE
  5
35F
330
98
100
AcDbEntity
  8
1
  6
Continuous
 62
     7
100
AcDbLine
 10
283.8214292023865
 20
382.6122009146753
 30
0.0
 11
288.3714292023865
 21
382.6122009146753
 31
0.0
  0
LINE
  5
360
330
98
100
AcDbEntity
  8
1
  6
Continuous
 62
     7
100
AcDbLine
 10
289.8714292023865
 20
381.1122009146753
 30
0.0
 11
289.8714292023867
 21
365.6122009146753
 31
0.0
  0
LINE
  5
361
330
98
100
AcDbEntity
  8
1
  6
Continuous
 62
     7
100
AcDbLine
 10
289.8714286762772
 20
370.6121920702257
 30
0.0
 11
289.8714286762763
 21
361.6122009146714
 31
0.0
  0
LINE
  5
362
330
98
100
AcDbEntity
  8
1
  6
Continuous
 62
     7
100
AcDbLine
 10
289.8714286762763
 20
361.6122009146714
 30
0.0
 11
286.8714286762763
 21
361.6122009146714
 31
0.0
  0
LINE
  5
363
330
98
100
AcDbEntity
  8
1
  6
Continuous
 62
     7
100
AcDbLine
 10
286.8714286762763
 20
361.6122009146714
 30
0.0
 11
286.8714286762763
 21
360.7422586636522
 31
0.0
  0
LINE
  5
364
330
98
100
AcDbEntity
  8
1
  6
Continuous
 62
     7
100
AcDbLine
 10
264.8714286762763
 20
361.6122009146714
 30
0.0
 11
261.8714292023867
 21
361.6122009146714
 31
0.0
  0
LINE
  5
365
330
98
100
AcDbEntity
  8
1
  6
Continuous
 62
     7
100
AcDbLine
 10
267.8714286762756
 20
379.6122009146753
 30
0.0
 11
283.8714286762772
 21
379.6122009146753
 31
0.0
  0
LINE
  5
366
330
98
100
AcDbEntity
  8
1
  6
Continuous
 62
     7
100
AcDbLine
 10
286.8714286762763
 20
361.6122009146714
 30
0.0
 11
264.8714286762763
 21
361.6122009146714
 31
0.0
  0
LINE
  5
367
330
98
100
AcDbEntity
  8
1
  6
PHANTOM
 62
     4
100
AcDbLine
 10
258.8714286762756
 20
371.6122009146753
 30
0.0
 11
292.871428676277
 21
371.6122009146753
 31
0.0
  0
LINE
  5
368
330
98
100
AcDbEntity
  8
1
  6
Continuous
 62
     7
100
AcDbLine
 10
662.8214282514023
 20
383.1122009146753
 30
0.0
 11
662.8214282514023
 21
382.6122009146753
 31
0.0
  0
LINE
  5
369
330
98
100
AcDbEntity
  8
1
  6
Continuous
 62
     7
100
AcDbLine
 10
455.8714282514013
 20
379.6122009146753
 30
0.0
 11
640.3714282514022
 21
379.6122009146753
 31
0.0
  0
LINE
  5
36A
330
98
100
AcDbEntity
  8
1
  6
Continuous
 62
     7
100
AcDbLine
 10
478.8752975362759
 20
361.6122009146753
 30
0.0
 11
478.8752975362752
 21
363.1122009146753
 31
0.0
  0
LINE
  5
36B
330
98
100
AcDbEntity
  8
1
  6
Continuous
 62
     7
100
AcDbLine
 10
479.3752975362752
 20
363.6122009146753
 30
0.0
 11
663.8714282514022
 21
363.6122009146753
 31
0.0
  0
LINE
  5
36C
330
98
100
AcDbEntity
  8
1
  6
Continuous
 62
     7
100
AcDbLine
 10
646.9214282514022
 20
382.6122009146753
 30
0.0
 11
646.9214282514022
 21
383.1122009146753
 31
0.0
  0
LINE
  5
36D
330
98
100
AcDbEntity
  8
1
  6
Continuous
 62
     7
100
AcDbLine
 10
640.8714282514022
 20
382.6122009146753
 30
0.0
 11
641.3714282514022
 21
382.6122009146753
 31
0.0
  0
LINE
  5
36E
330
98
100
AcDbEntity
  8
1
  6
Continuous
 62
     7
100
AcDbLine
 10
668.3714282514022
 20
382.6122009146753
 30
0.0
 11
668.8714282514022
 21
382.6122009146753
 31
0.0
  0
LINE
  5
36F
330
98
100
AcDbEntity
  8
1
  6
Continuous
 62
     7
100
AcDbLine
 10
640.8714282514022
 20
382.6122009146753
 30
0.0
 11
668.3714282514022
 21
382.6122009146753
 31
0.0
  0
LINE
  5
370
330
98
100
AcDbEntity
  8
1
  6
Continuous
 62
     7
100
AcDbLine
 10
474.8714282514029
 20
361.6122009146719
 30
0.0
 11
474.8714282514029
 21
360.8122009146711
 31
0.0
  0
LINE
  5
371
330
98
100
AcDbEntity
  8
1
  6
Continuous
 62
     7
100
AcDbLine
 10
454.8714282514029
 20
360.8109189824596
 30
0.0
 11
454.8714282514029
 21
361.6122009146719
 31
0.0
  0
LINE
  5
372
330
98
100
AcDbEntity
  8
1
  6
PHANTOM
 62
     4
100
AcDbLine
 10
275.8714291436313
 20
765.3495893096356
 30
0.0
 11
275.8714291436313
 21
561.3495897861048
 31
0.0
  0
LINE
  5
373
330
98
100
AcDbEntity
  8
1
  6
Continuous
 62
     7
100
AcDbLine
 10
289.8714299005853
 20
575.3495897861051
 30
0.0
 11
289.8714299005853
 21
723.4467783944692
 31
0.0
  0
LINE
  5
374
330
98
100
AcDbEntity
  8
1
  6
Continuous
 62
     7
100
AcDbLine
 10
261.8714299005849
 20
575.3495897861051
 30
0.0
 11
261.8714299005851
 21
723.4467753173597
 31
0.0
  0
LINE
  5
375
330
98
100
AcDbEntity
  8
1
  6
Continuous
 62
     7
100
AcDbLine
 10
668.8714282514022
 20
382.6122009146753
 30
0.0
 11
668.8714282514029
 21
367.6122009146719
 31
0.0
  0
LINE
  5
376
330
98
100
AcDbEntity
  8
1
  6
Continuous
 62
     7
100
AcDbLine
 10
640.8714282514022
 20
380.1122009146753
 30
0.0
 11
640.8714282514022
 21
382.6122009146753
 31
0.0
  0
LINE
  5
377
330
98
100
AcDbEntity
  8
1
  6
Continuous
 62
     7
100
AcDbLine
 10
478.8752975362759
 20
361.6122009146753
 30
0.0
 11
478.8752975362759
 21
362.6122009146719
 31
0.0
  0
LINE
  5
378
330
98
100
AcDbEntity
  8
1
  6
Continuous
 62
     7
100
AcDbLine
 10
478.8752975362759
 20
361.6122009146753
 30
0.0
 11
450.871428251402
 21
361.6122009146714
 31
0.0
  0
LINE
  5
379
330
98
100
AcDbEntity
  8
1
  6
Continuous
 62
     7
100
AcDbLine
 10
450.871428251402
 20
361.6122009146714
 30
0.0
 11
450.8714282514013
 21
374.6122009146753
 31
0.0
  0
ARC
  5
37A
330
98
100
AcDbEntity
  8
1
  6
Continuous
 62
     7
100
AcDbCircle
 10
275.8714299005849
 20
575.3495897861051
 30
0.0
 40
14.0
100
AcDbArc
 50
180.0
 51
0.0
  0
ARC
  5
37B
330
98
100
AcDbEntity
  8
1
  6
Continuous
 62
     7
100
AcDbCircle
 10
267.8714286762756
 20
373.6122009146753
 30
0.0
 40
6.0
100
AcDbArc
 50
90.0
 51
179.9760061049047
  0
ARC
  5
37C
330
98
100
AcDbEntity
  8
1
  6
Continuous
 62
     7
100
AcDbCircle
 10
263.3714292023867
 20
381.1122009146753
 30
0.0
 40
1.5
100
AcDbArc
 50
90.0
 51
180.0
  0
ARC
  5
37D
330
98
100
AcDbEntity
  8
1
  6
Continuous
 62
     7
100
AcDbCircle
 10
288.3714292023865
 20
381.1122009146753
 30
0.0
 40
1.5
100
AcDbArc
 50
0.0
 51
90.0
  0
ARC
  5
37E
330
98
100
AcDbEntity
  8
1
  6
Continuous
 62
     7
100
AcDbCircle
 10
283.8714286762772
 20
373.6122009146753
 30
0.0
 40
6.0
100
AcDbArc
 50
0.0
 51
90.0
  0
ARC
  5
37F
330
98
100
AcDbEntity
  8
1
  6
Continuous
 62
     7
100
AcDbCircle
 10
267.8714286762756
 20
370.6121920702257
 30
0.0
 40
6.000000000000057
100
AcDbArc
 50
179.9760061049031
 51
180.0
  0
ARC
  5
380
330
98
100
AcDbEntity
  8
1
  6
Continuous
 62
     7
100
AcDbCircle
 10
455.8714282514013
 20
374.6122009146753
 30
0.0
 40
5.0
100
AcDbArc
 50
90.0
 51
180.0
  0
ARC
  5
381
330
98
100
AcDbEntity
  8
1
  6
Continuous
 62
     7
100
AcDbCircle
 10
640.3714282514022
 20
380.1122009146753
 30
0.0
 40
0.5
100
AcDbArc
 50
270.0
 51
0.0
  0
ARC
  5
382
330
98
100
AcDbEntity
  8
1
  6
Continuous
 62
     7
100
AcDbCircle
 10
479.3752975362752
 20
363.1122009146753
 30
0.0
 40
0.5
100
AcDbArc
 50
90.0
 51
180.0
  0
ARC
  5
383
330
98
100
AcDbEntity
  8
1
  6
Continuous
 62
     7
100
AcDbCircle
 10
663.8714282514022
 20
368.6122009146753
 30
0.0
 40
5.0
100
AcDbArc
 50
270.0
 51
302.8598803788901
  0
ARC
  5
384
330
98
100
AcDbEntity
  8
1
  6
Continuous
 62
     7
100
AcDbCircle
 10
663.8714282514022
 20
368.6122009146753
 30
0.0
 40
4.999999999999939
100
AcDbArc
 50
327.1401196211129
 51
0.0
  0
ARC
  5
385
330
98
100
AcDbEntity
  8
1
  6
Continuous
 62
     7
100
AcDbCircle
 10
663.8714282514022
 20
368.6122009146753
 30
0.0
 40
4.99999999999984
100
AcDbArc
 50
302.8598803788901
 51
327.1401196211129
  0
ENDBLK
  5
9A
330
98
100
AcDbEntity
  8
0
100
AcDbBlockEnd
  0
BLOCK
  5
9C
330
9B
100
AcDbEntity
  8
0
100
AcDbBlockBegin
  2
32-215K
 70
     0
 10
910.3875714781163
 20
473.0423631257301
 30
0.0
  3
32-215K
  1

  0
LINE
  5
386
330
9B
100
AcDbEntity
  8
0
  6
Continuous
 62
     7
100
AcDbLine
 10
272.8928556618128
 20
392.9122027359171
 30
0.0
 11
278.8500016907533
 21
392.9122027359171
 31
0.0
  0
LINE
  5
387
330
9B
100
AcDbEntity
  8
0
  6
Continuous
 62
     7
100
AcDbLine
 10
278.8500016907401
 20
386.1432916491501
 30
0.0
 11
272.8928556618128
 21
386.1432916491501
 31
0.0
  0
LINE
  5
388
330
9B
100
AcDbEntity
  8
1
  6
Continuous
 62
     7
100
AcDbLine
 10
286.8928556618125
 20
392.9122027359171
 30
0.0
 11
286.8928556618125
 21
386.1432916491627
 31
0.0
  0
LINE
  5
389
330
9B
100
AcDbEntity
  8
1
  6
Continuous
 62
     7
100
AcDbLine
 10
278.8500016907397
 20
386.1432916491627
 30
0.0
 11
278.8500016907397
 21
392.9122027359171
 31
0.0
  0
LINE
  5
38A
330
9B
100
AcDbEntity
  8
0
  6
Continuous
 62
     7
100
AcDbLine
 10
261.8714286762761
 20
394.0246325089814
 30
0.0
 11
261.8714286762761
 21
392.9122027359171
 31
0.0
  0
LINE
  5
38B
330
9B
100
AcDbEntity
  8
0
  6
Continuous
 62
     7
100
AcDbLine
 10
289.8714286762761
 20
394.0246325089815
 30
0.0
 11
289.8714286762761
 21
392.9122027359171
 31
0.0
  0
LINE
  5
38C
330
9B
100
AcDbEntity
  8
1
  6
PHANTOM
 62
     4
100
AcDbLine
 10
275.8714286762763
 20
397.112202735917
 30
0.0
 11
275.8714286762763
 21
380.1122027359172
 31
0.0
  0
LINE
  5
38D
330
9B
100
AcDbEntity
  8
1
  6
Continuous
 62
     7
100
AcDbLine
 10
264.005403272492
 20
383.112202735917
 30
0.0
 11
287.7374540800606
 21
383.112202735917
 31
0.0
  0
LINE
  5
38E
330
9B
100
AcDbEntity
  8
1
  6
Continuous
 62
     7
100
AcDbLine
 10
287.9874540800606
 20
383.1791900340249
 30
0.0
 11
289.3714286762763
 21
383.9782281397016
 31
0.0
  0
LINE
  5
38F
330
9B
100
AcDbEntity
  8
1
  6
Continuous
 62
     7
100
AcDbLine
 10
289.4214286762763
 20
394.112202735917
 30
0.0
 11
262.3214286762764
 21
394.112202735917
 31
0.0
  0
LINE
  5
390
330
9B
100
AcDbEntity
  8
1
  6
Continuous
 62
     7
100
AcDbLine
 10
262.3714286762763
 20
383.9782281397016
 30
0.0
 11
263.755403272492
 21
383.1791900340249
 31
0.0
  0
LINE
  5
391
330
9B
100
AcDbEntity
  8
1
  6
Continuous
 62
     7
100
AcDbLine
 10
264.8500016907399
 20
386.1432916491627
 30
0.0
 11
264.8500016907399
 21
392.9122027359171
 31
0.0
  0
LINE
  5
392
330
9B
100
AcDbEntity
  8
1
  6
Continuous
 62
     7
100
AcDbLine
 10
272.8928556618128
 20
392.9122027359171
 30
0.0
 11
272.8928556618128
 21
386.1432916491627
 31
0.0
  0
LINE
  5
393
330
9B
100
AcDbEntity
  8
1
  6
PHANTOM
 62
     5
100
AcDbLine
 10
263.755403272492
 20
383.1791900340249
 30
0.0
 11
263.8714286762765
 21
383.112202735917
 31
0.0
  0
LINE
  5
394
330
9B
100
AcDbEntity
  8
1
  6
PHANTOM
 62
     5
100
AcDbLine
 10
263.8714286762765
 20
383.112202735917
 30
0.0
 11
264.005403272492
 21
383.112202735917
 31
0.0
  0
LINE
  5
395
330
9B
100
AcDbEntity
  8
1
  6
Continuous
 62
     7
100
AcDbLine
 10
286.8928556618125
 20
386.1432916491627
 30
0.0
 11
289.8714286762761
 21
386.1432916491627
 31
0.0
  0
LINE
  5
396
330
9B
100
AcDbEntity
  8
0
  6
Continuous
 62
     7
100
AcDbLine
 10
289.8714286762761
 20
386.1432916491627
 30
0.0
 11
289.8714286762761
 21
384.3579345420267
 31
0.0
  0
LINE
  5
397
330
9B
100
AcDbEntity
  8
1
  6
Continuous
 62
     7
100
AcDbLine
 10
286.8928556618125
 20
392.9122027359171
 30
0.0
 11
289.8714286762761
 21
392.9122027359171
 31
0.0
  0
LINE
  5
398
330
9B
100
AcDbEntity
  8
0
  6
Continuous
 62
     7
100
AcDbLine
 10
289.8714286762761
 20
392.9122027359171
 30
0.0
 11
289.8714286762761
 21
386.1432916491627
 31
0.0
  0
LINE
  5
399
330
9B
100
AcDbEntity
  8
1
  6
Continuous
 62
     7
100
AcDbLine
 10
264.8500016907399
 20
392.9122027359171
 30
0.0
 11
261.8714286762761
 21
392.9122027359171
 31
0.0
  0
LINE
  5
39A
330
9B
100
AcDbEntity
  8
0
  6
Continuous
 62
     7
100
AcDbLine
 10
261.8714286762761
 20
392.9122027359171
 30
0.0
 11
261.8714286762761
 21
386.1432916491627
 31
0.0
  0
LINE
  5
39B
330
9B
100
AcDbEntity
  8
1
  6
Continuous
 62
     7
100
AcDbLine
 10
264.8500016907399
 20
386.1432916491627
 30
0.0
 11
261.8714286762761
 21
386.1432916491627
 31
0.0
  0
LINE
  5
39C
330
9B
100
AcDbEntity
  8
0
  6
Continuous
 62
     7
100
AcDbLine
 10
261.8714286762761
 20
386.1432916491627
 30
0.0
 11
261.8714286762761
 21
384.3579345420271
 31
0.0
  0
LINE
  5
39D
330
9B
100
AcDbEntity
  8
1
  6
PHANTOM
 62
     5
100
AcDbLine
 10
642.8714282514029
 20
383.1122009146753
 30
0.0
 11
643.0054028476186
 21
383.1122009146753
 31
0.0
  0
LINE
  5
39E
330
9B
100
AcDbEntity
  8
1
  6
PHANTOM
 62
     5
100
AcDbLine
 10
642.7554028476186
 20
383.1791882127831
 30
0.0
 11
642.8714282514029
 21
383.1122009146753
 31
0.0
  0
LINE
  5
39F
330
9B
100
AcDbEntity
  8
1
  6
Continuous
 62
     7
100
AcDbLine
 10
650.2278843461513
 20
392.9122009146752
 30
0.0
 11
650.2278843461513
 21
386.1432898279209
 31
0.0
  0
LINE
  5
3A0
330
9B
100
AcDbEntity
  8
1
  6
Continuous
 62
     7
100
AcDbLine
 10
650.2278843461513
 20
386.1432898279209
 30
0.0
 11
645.0688445510466
 21
386.1432898279209
 31
0.0
  0
LINE
  5
3A1
330
9B
100
AcDbEntity
  8
1
  6
Continuous
 62
     7
100
AcDbLine
 10
640.4253006457948
 20
392.9122009146752
 30
0.0
 11
640.4253006457948
 21
386.1432898279209
 31
0.0
  0
LINE
  5
3A2
330
9B
100
AcDbEntity
  8
1
  6
Continuous
 62
     7
100
AcDbLine
 10
640.4253006457948
 20
386.1432898279209
 30
0.0
 11
640.1214282514029
 21
386.1432898279209
 31
0.0
  0
LINE
  5
3A3
330
9B
100
AcDbEntity
  8
1
  6
Continuous
 62
     7
100
AcDbLine
 10
640.1214282514029
 20
392.9122009146752
 30
0.0
 11
640.4253006457948
 21
392.9122009146752
 31
0.0
  0
LINE
  5
3A4
330
9B
100
AcDbEntity
  8
1
  6
Continuous
 62
     7
100
AcDbLine
 10
645.0688445510466
 20
386.1432898279209
 30
0.0
 11
645.0688445510466
 21
392.9122009146752
 31
0.0
  0
LINE
  5
3A5
330
9B
100
AcDbEntity
  8
1
  6
Continuous
 62
     7
100
AcDbLine
 10
650.2278843461513
 20
392.9122009146752
 30
0.0
 11
645.0688445510466
 21
392.9122009146752
 31
0.0
  0
LINE
  5
3A6
330
9B
100
AcDbEntity
  8
1
  6
Continuous
 62
     7
100
AcDbLine
 10
641.3714282514029
 20
383.9782263184598
 30
0.0
 11
642.7554028476186
 21
383.1791882127831
 31
0.0
  0
LINE
  5
3A7
330
9B
100
AcDbEntity
  8
1
  6
Continuous
 62
     7
100
AcDbLine
 10
640.1214282514029
 20
392.9122009146752
 30
0.0
 11
640.1214282514029
 21
386.1432898279209
 31
0.0
  0
LINE
  5
3A8
330
9B
100
AcDbEntity
  8
1
  6
PHANTOM
 62
     4
100
AcDbLine
 10
654.8714282514029
 20
397.1122009146753
 30
0.0
 11
654.8714282514029
 21
380.1122009146754
 31
0.0
  0
LINE
  5
3A9
330
9B
100
AcDbEntity
  8
1
  6
Continuous
 62
     7
100
AcDbLine
 10
643.0054028476186
 20
383.1122009146753
 30
0.0
 11
654.8714282514029
 21
383.1122009146753
 31
0.0
  0
LINE
  5
3AA
330
9B
100
AcDbEntity
  8
1
  6
Continuous
 62
     7
100
AcDbLine
 10
654.8714282514029
 20
394.1122009146753
 30
0.0
 11
641.321428251403
 21
394.1122009146753
 31
0.0
  0
LINE
  5
3AB
330
9B
100
AcDbEntity
  8
1
  6
Continuous
 62
     7
100
AcDbLine
 10
668.4214282514029
 20
394.1122009146753
 30
0.0
 11
654.8714282514029
 21
394.1122009146753
 31
0.0
  0
LINE
  5
3AC
330
9B
100
AcDbEntity
  8
1
  6
Continuous
 62
     7
100
AcDbLine
 10
654.8714282514029
 20
383.1122009146753
 30
0.0
 11
666.7374536551872
 21
383.1122009146753
 31
0.0
  0
LINE
  5
3AD
330
9B
100
AcDbEntity
  8
1
  6
Continuous
 62
     7
100
AcDbLine
 10
669.6214282514029
 20
386.1432898279209
 30
0.0
 11
669.6214282514029
 21
392.9122009146752
 31
0.0
  0
LINE
  5
3AE
330
9B
100
AcDbEntity
  8
1
  6
Continuous
 62
     7
100
AcDbLine
 10
666.9874536551872
 20
383.1791882127831
 30
0.0
 11
668.3714282514029
 21
383.9782263184598
 31
0.0
  0
LINE
  5
3AF
330
9B
100
AcDbEntity
  8
1
  6
Continuous
 62
     7
100
AcDbLine
 10
664.6740119517592
 20
392.9122009146752
 30
0.0
 11
659.5149721566545
 21
392.9122009146752
 31
0.0
  0
LINE
  5
3B0
330
9B
100
AcDbEntity
  8
1
  6
Continuous
 62
     7
100
AcDbLine
 10
664.6740119517592
 20
392.9122009146752
 30
0.0
 11
664.6740119517592
 21
386.1432898279209
 31
0.0
  0
LINE
  5
3B1
330
9B
100
AcDbEntity
  8
1
  6
Continuous
 62
     7
100
AcDbLine
 10
669.317555857011
 20
392.9122009146752
 30
0.0
 11
669.6214282514029
 21
392.9122009146752
 31
0.0
  0
LINE
  5
3B2
330
9B
100
AcDbEntity
  8
1
  6
Continuous
 62
     7
100
AcDbLine
 10
669.6214282514029
 20
386.1432898279209
 30
0.0
 11
669.317555857011
 21
386.1432898279209
 31
0.0
  0
LINE
  5
3B3
330
9B
100
AcDbEntity
  8
1
  6
Continuous
 62
     7
100
AcDbLine
 10
669.317555857011
 20
386.1432898279209
 30
0.0
 11
669.317555857011
 21
392.9122009146752
 31
0.0
  0
LINE
  5
3B4
330
9B
100
AcDbEntity
  8
1
  6
Continuous
 62
     7
100
AcDbLine
 10
664.6740119517592
 20
386.1432898279209
 30
0.0
 11
659.5149721566545
 21
386.1432898279209
 31
0.0
  0
LINE
  5
3B5
330
9B
100
AcDbEntity
  8
1
  6
Continuous
 62
     7
100
AcDbLine
 10
659.5149721566545
 20
386.1432898279209
 30
0.0
 11
659.5149721566545
 21
392.9122009146752
 31
0.0
  0
LINE
  5
3B6
330
9B
100
AcDbEntity
  8
1
  6
PHANTOM
 62
     5
100
AcDbLine
 10
666.8714282514029
 20
383.1122009146753
 30
0.0
 11
666.9874536551872
 21
383.1791882127831
 31
0.0
  0
LINE
  5
3B7
330
9B
100
AcDbEntity
  8
1
  6
PHANTOM
 62
     5
100
AcDbLine
 10
666.7374536551872
 20
383.1122009146753
 30
0.0
 11
666.8714282514029
 21
383.1122009146753
 31
0.0
  0
LINE
  5
3B8
330
9B
100
AcDbEntity
  8
0
  6
Continuous
 62
     7
100
AcDbLine
 10
278.8500016907533
 20
392.9122027359171
 30
0.0
 11
278.8500016907397
 21
392.9122027359171
 31
0.0
  0
ARC
  5
3B9
330
9B
100
AcDbEntity
  8
0
  6
Continuous
 62
     7
100
AcDbCircle
 10
282.8714286762761
 20
389.8436459823087
 30
0.0
 40
5.464841918200621
100
AcDbArc
 50
222.6190057185525
 51
317.3809942815477
  0
LINE
  5
3BA
330
9B
100
AcDbEntity
  8
0
  6
Continuous
 62
     7
100
AcDbLine
 10
272.8928556618128
 20
386.1432916491501
 30
0.0
 11
272.8928556618128
 21
386.1432916491627
 31
0.0
  0
ARC
  5
3BB
330
9B
100
AcDbEntity
  8
0
  6
Continuous
 62
     7
100
AcDbCircle
 10
282.8714286762761
 20
386.181013700658
 30
0.0
 40
7.840968105303891
100
AcDbArc
 50
59.14455861722487
 51
120.8554413826896
  0
LINE
  5
3BC
330
9B
100
AcDbEntity
  8
0
  6
Continuous
 62
     7
100
AcDbLine
 10
278.8500016907397
 20
386.1432916491627
 30
0.0
 11
278.8500016907401
 21
386.1432916491501
 31
0.0
  0
ARC
  5
3BD
330
9B
100
AcDbEntity
  8
0
  6
Continuous
 62
     7
100
AcDbCircle
 10
268.8714286762763
 20
386.181013700658
 30
0.0
 40
7.84096810530392
100
AcDbArc
 50
59.14455861722451
 51
120.8554413827751
  0
ARC
  5
3BE
330
9B
100
AcDbEntity
  8
0
  6
Continuous
 62
     7
100
AcDbCircle
 10
268.8714286762763
 20
389.8436459823087
 30
0.0
 40
5.464841918192449
100
AcDbArc
 50
222.6190057184523
 51
317.3809942814511
  0
ARC
  5
3BF
330
9B
100
AcDbEntity
  8
1
  6
Continuous
 62
     7
100
AcDbCircle
 10
289.4214286762763
 20
392.9122027359171
 30
0.0
 40
1.199999999999936
100
AcDbArc
 50
67.97568716296891
 51
90.0
  0
ARC
  5
3C0
330
9B
100
AcDbEntity
  8
1
  6
Continuous
 62
     7
100
AcDbCircle
 10
262.3214286762764
 20
392.9122027359171
 30
0.0
 40
1.199999999999875
100
AcDbArc
 50
90.0
 51
112.0243128370573
  0
ARC
  5
3C1
330
9B
100
AcDbEntity
  8
1
  6
Continuous
 62
     7
100
AcDbCircle
 10
654.8714282514029
 20
391.3582023391717
 30
0.0
 40
6.98267946421712
100
AcDbArc
 50
228.3169927455791
 51
270.0
  0
ARC
  5
3C2
330
9B
100
AcDbEntity
  8
1
  6
Continuous
 62
     7
100
AcDbCircle
 10
642.7470725984208
 20
386.7841053483713
 30
0.0
 40
2.408582473416883
100
AcDbArc
 50
195.4296532164872
 51
344.5703467835114
  0
ARC
  5
3C3
330
9B
100
AcDbEntity
  8
1
  6
Continuous
 62
     7
100
AcDbCircle
 10
642.7470725984208
 20
391.0455100454801
 30
0.0
 40
2.979120642259423
100
AcDbArc
 50
38.79907508317016
 51
141.2009249168326
  0
ARC
  5
3C4
330
9B
100
AcDbEntity
  8
1
  6
Continuous
 62
     7
100
AcDbCircle
 10
654.8714282514029
 20
383.7767927782986
 30
0.0
 40
10.24783790944099
100
AcDbArc
 50
90.0
 51
116.9443102168283
  0
ARC
  5
3C5
330
9B
100
AcDbEntity
  8
1
  6
Continuous
 62
     7
100
AcDbCircle
 10
641.321428251403
 20
392.9122009146752
 30
0.0
 40
1.200000000000102
100
AcDbArc
 50
90.0
 51
180.0
  0
ARC
  5
3C6
330
9B
100
AcDbEntity
  8
1
  6
Continuous
 62
     7
100
AcDbCircle
 10
668.4214282514029
 20
392.9122009146752
 30
0.0
 40
1.200000000000045
100
AcDbArc
 50
0.0
 51
90.0
  0
ARC
  5
3C7
330
9B
100
AcDbEntity
  8
1
  6
Continuous
 62
     7
100
AcDbCircle
 10
654.8714282514029
 20
383.7767927782986
 30
0.0
 40
10.24783790944096
100
AcDbArc
 50
63.05568978317174
 51
90.0
  0
ARC
  5
3C8
330
9B
100
AcDbEntity
  8
1
  6
Continuous
 62
     7
100
AcDbCircle
 10
666.995783904385
 20
391.0455100454801
 30
0.0
 40
2.9791206422596
100
AcDbArc
 50
38.79907508316742
 51
141.2009249168298
  0
ARC
  5
3C9
330
9B
100
AcDbEntity
  8
1
  6
Continuous
 62
     7
100
AcDbCircle
 10
666.995783904385
 20
386.7841053483713
 30
0.0
 40
2.408582473416664
100
AcDbArc
 50
195.4296532164886
 51
344.5703467835128
  0
ARC
  5
3CA
330
9B
100
AcDbEntity
  8
1
  6
Continuous
 62
     7
100
AcDbCircle
 10
654.8714282514029
 20
391.3582023391717
 30
0.0
 40
6.982679464217142
100
AcDbArc
 50
270.0
 51
311.6830072544209
  0
ARC
  5
3CB
330
9B
100
AcDbEntity
  8
1
  6
Continuous
 62
     7
100
AcDbCircle
 10
263.6214286762763
 20
386.1432916491627
 30
0.0
 40
2.500000000000045
100
AcDbArc
 50
225.572995999188
 51
239.9999999999994
  0
ARC
  5
3CC
330
9B
100
AcDbEntity
  8
1
  6
Continuous
 62
     7
100
AcDbCircle
 10
287.7374540800606
 20
383.612202735917
 30
0.0
 40
0.5
100
AcDbArc
 50
270.0
 51
300.000000000007
  0
ARC
  5
3CD
330
9B
100
AcDbEntity
  8
1
  6
Continuous
 62
     7
100
AcDbCircle
 10
264.005403272492
 20
383.612202735917
 30
0.0
 40
0.4999999999998934
100
AcDbArc
 50
239.9999999999929
 51
270.0
  0
ARC
  5
3CE
330
9B
100
AcDbEntity
  8
1
  6
Continuous
 62
     7
100
AcDbCircle
 10
288.1214286762763
 20
386.1432916491627
 30
0.0
 40
2.499999999999959
100
AcDbArc
 50
300.0000000000005
 51
314.4270040007981
  0
ARC
  5
3CF
330
9B
100
AcDbEntity
  8
1
  6
Continuous
 62
     7
100
AcDbCircle
 10
642.6214282514029
 20
386.1432898279209
 30
0.0
 40
2.5
100
AcDbArc
 50
180.0
 51
240.0000000000001
  0
ARC
  5
3D0
330
9B
100
AcDbEntity
  8
1
  6
Continuous
 62
     7
100
AcDbCircle
 10
643.0054028476186
 20
383.6122009146753
 30
0.0
 40
0.4999999999999918
100
AcDbArc
 50
239.9999999999994
 51
270.0
  0
ARC
  5
3D1
330
9B
100
AcDbEntity
  8
1
  6
Continuous
 62
     7
100
AcDbCircle
 10
666.7374536551872
 20
383.6122009146753
 30
0.0
 40
0.5
100
AcDbArc
 50
270.0
 51
300.0000000000005
  0
ARC
  5
3D2
330
9B
100
AcDbEntity
  8
1
  6
Continuous
 62
     7
100
AcDbCircle
 10
667.1214282514029
 20
386.1432898279209
 30
0.0
 40
2.500000000000008
100
AcDbArc
 50
299.9999999999998
 51
0.0
  0
ENDBLK
  5
9D
330
9B
100
AcDbEntity
  8
0
100
AcDbBlockEnd
  0
BLOCK
  5
A2
330
9E
100
AcDbEntity
  8
0
100
AcDbBlockBegin
  2
61-142BX1B
 70
     0
 10
1486.487747296382
 20
467.9536522729924
 30
0.0
  3
61-142BX1B
  1

  0
INSERT
  5
9F
330
9E
100
AcDbEntity
  8
0
100
AcDbBlockReference
  2
30-225B-M1K
 10
32.35729077403403
 20
1012.825633770259
 30
0.0
  0
INSERT
  5
A0
330
9E
100
AcDbEntity
  8
1
100
AcDbBlockReference
  2
61-142A-16K
 10
601.8714282514022
 20
598.3961234732442
 30
0.0
  0
INSERT
  5
A1
330
9E
100
AcDbEntity
  8
1
100
AcDbBlockReference
  2
32-215K
 10
910.3875714781163
 20
473.0423631257301
 30
0.0
  0
ENDBLK
  5
A3
330
9E
100
AcDbEntity
  8
0
100
AcDbBlockEnd
  0
BLOCK
  5
408
330
401
100
AcDbEntity
  8
0
100
AcDbBlockBegin
  2
*D26
 70
     1
 10
0.0
 20
0.0
 30
0.0
  3
*D26
  1

  0
LINE
  5
402
330
401
100
AcDbEntity
  8
1
  6
Continuous
 62
     2
100
AcDbLine
 10
654.8714282514026
 20
298.3122009146745
 30
0.0
 11
719.3714282514027
 21
298.3122009146745
 31
0.0
  0
LINE
  5
403
330
401
100
AcDbEntity
  8
1
  6
Continuous
 62
     2
100
AcDbLine
 10
719.3714282514027
 20
356.2568624466501
 30
0.0
 11
719.3714282514027
 21
294.3122009146745
 31
0.0
  0
LINE
  5
404
330
401
100
AcDbEntity
  8
1
  6
Continuous
 62
     2
100
AcDbLine
 10
654.8714282514026
 20
357.6122009146758
 30
0.0
 11
654.8714282514026
 21
294.3122009146745
 31
0.0
  0
SOLID
  5
405
330
401
100
AcDbEntity
  8
1
 62
     2
100
AcDbTrace
 10
668.8714282514026
 20
300.1553358808981
 30
0.0
 11
668.8714282514026
 21
296.469065948451
 31
0.0
 12
654.8714282514026
 22
298.3122009146745
 32
0.0
 13
654.8714282514026
 23
298.3122009146745
 33
0.0
  0
SOLID
  5
406
330
401
100
AcDbEntity
  8
1
 62
     2
100
AcDbTrace
 10
705.3714282514027
 20
296.469065948451
 30
0.0
 11
705.3714282514027
 21
300.1553358808981
 31
0.0
 12
719.3714282514027
 22
298.3122009146745
 32
0.0
 13
719.3714282514027
 23
298.3122009146745
 33
0.0
  0
MTEXT
  5
407
330
401
100
AcDbEntity
  8
1
 62
     7
100
AcDbMText
 10
677.9200312067227
 20
302.3122009146745
 30
0.0
 40
14.0
 41
0.0
 71
     7
 72
     1
  1
65
  7
CONVERTER_12
 11
0.9999999999970619
 21
2.424068405545306E-6
 31
0.0
 73
     1
 44
0.60024009603842
  0
ENDBLK
  5
409
330
401
100
AcDbEntity
  8
0
100
AcDbBlockEnd
  0
BLOCK
  5
413
330
40C
100
AcDbEntity
  8
0
100
AcDbBlockBegin
  2
*D27
 70
     1
 10
0.0
 20
0.0
 30
0.0
  3
*D27
  1

  0
LINE
  5
40D
330
40C
100
AcDbEntity
  8
1
  6
Continuous
 62
     2
100
AcDbLine
 10
141.4620253987037
 20
420.3109272641435
 30
0.0
 11
176.8173610208854
 21
455.6662648682703
 31
0.0
  0
LINE
  5
40E
330
40C
100
AcDbEntity
  8
1
  6
Continuous
 62
     2
100
AcDbLine
 10
215.8714271637594
 20
416.6122009146843
 30
0.0
 11
173.9889338168614
 21
458.4946919137387
 31
0.0
  0
LINE
  5
40F
330
40C
100
AcDbEntity
  8
1
  6
Continuous
 62
     2
100
AcDbLine
 10
154.3531410155535
 20
407.4198123699422
 30
0.0
 11
138.6335981946797
 21
423.1393543096119
 31
0.0
  0
SOLID
  5
410
330
40C
100
AcDbEntity
  8
1
 62
     2
100
AcDbTrace
 10
150.0582267880546
 20
431.5137156749561
 30
0.0
 11
152.6648133276318
 21
428.9071292814984
 31
0.0
 12
141.4620253987037
 22
420.3109272641435
 32
0.0
 13
141.4620253987037
 23
420.3109272641435
 33
0.0
  0
SOLID
  5
411
330
40C
100
AcDbEntity
  8
1
 62
     2
100
AcDbTrace
 10
168.2211596315344
 20
444.4634764574577
 30
0.0
 11
165.6145730919572
 21
447.0700628509153
 31
0.0
 12
176.8173610208854
 22
455.6662648682703
 32
0.0
 13
176.8173610208854
 23
455.6662648682703
 33
0.0
  0
MTEXT
  5
412
330
40C
100
AcDbEntity
  8
1
 62
     7
100
AcDbMText
 10
149.7414512581245
 20
434.2472079957393
 30
0.0
 40
14.0
 41
0.0
 71
     7
 72
     1
  1
50
  7
CONVERTER_12
 11
0.7071067613670945
 21
0.707106801006
 31
0.0
 73
     1
 44
0.60024009603842
  0
ENDBLK
  5
414
330
40C
100
AcDbEntity
  8
0
100
AcDbBlockEnd
  0
BLOCK
  5
41E
330
417
100
AcDbEntity
  8
0
100
AcDbBlockBegin
  2
*D28
 70
     1
 10
0.0
 20
0.0
 30
0.0
  3
*D28
  1

  0
LINE
  5
418
330
417
100
AcDbEntity
  8
1
  6
Continuous
 62
     2
100
AcDbLine
 10
215.871429722172
 20
883.8495897861023
 30
0.0
 11
335.87142965732
 21
883.8495897861023
 31
0.0
  0
LINE
  5
419
330
417
100
AcDbEntity
  8
1
  6
Continuous
 62
     2
100
AcDbLine
 10
335.87142965732
 20
814.3495897861021
 30
0.0
 11
335.87142965732
 21
887.8495897861023
 31
0.0
  0
LINE
  5
41A
330
417
100
AcDbEntity
  8
1
  6
Continuous
 62
     2
100
AcDbLine
 10
215.871429722172
 20
814.3495897861021
 30
0.0
 11
215.871429722172
 21
887.8495897861023
 31
0.0
  0
SOLID
  5
41B
330
417
100
AcDbEntity
  8
1
 62
     2
100
AcDbTrace
 10
229.871429722172
 20
885.6927247523258
 30
0.0
 11
229.871429722172
 21
882.0064548198789
 31
0.0
 12
215.871429722172
 22
883.8495897861023
 32
0.0
 13
215.871429722172
 23
883.8495897861023
 33
0.0
  0
SOLID
  5
41C
330
417
100
AcDbEntity
  8
1
 62
     2
100
AcDbTrace
 10
321.87142965732
 20
882.0064548198789
 30
0.0
 11
321.87142965732
 21
885.6927247523258
 31
0.0
 12
335.87142965732
 22
883.8495897861023
 32
0.0
 13
335.87142965732
 23
883.8495897861023
 33
0.0
  0
MTEXT
  5
41D
330
417
100
AcDbEntity
  8
1
 62
     7
100
AcDbMText
 10
264.712315960783
 20
887.8495897861023
 30
0.0
 40
14.0
 41
0.0
 71
     7
 72
     1
  1
120
  7
CONVERTER_12
 11
0.9999999999970619
 21
2.424068405545306E-6
 31
0.0
 73
     1
 44
0.60024009603842
  0
ENDBLK
  5
41F
330
417
100
AcDbEntity
  8
0
100
AcDbBlockEnd
  0
BLOCK
  5
42A
330
422
100
AcDbEntity
  8
0
100
AcDbBlockBegin
  2
*D29
 70
     1
 10
0.0
 20
0.0
 30
0.0
  3
*D29
  1

  0
LINE
  5
423
330
422
100
AcDbEntity
  8
1
  6
Continuous
 62
     2
100
AcDbLine
 10
155.5160925638085
 20
883.8495897861023
 30
0.0
 11
205.5160925638085
 21
883.8495897861023
 31
0.0
  0
LINE
  5
424
330
422
100
AcDbEntity
  8
1
  6
Continuous
 62
     2
100
AcDbLine
 10
107.168442805147
 20
883.8495897861023
 30
0.0
 11
155.5160925638085
 21
883.8495897861023
 31
0.0
  0
LINE
  5
425
330
422
100
AcDbEntity
  8
1
  6
Continuous
 62
     2
100
AcDbLine
 10
205.5160925638085
 20
829.8495897861023
 30
0.0
 11
205.5160925638085
 21
887.8495897861023
 31
0.0
  0
LINE
  5
426
330
422
100
AcDbEntity
  8
1
  6
Continuous
 62
     2
100
AcDbLine
 10
155.5160925638085
 20
829.8495897861023
 30
0.0
 11
155.5160925638085
 21
887.8495897861023
 31
0.0
  0
SOLID
  5
427
330
422
100
AcDbEntity
  8
1
 62
     2
100
AcDbTrace
 10
169.5160925638085
 20
885.6927247523258
 30
0.0
 11
169.5160925638085
 21
882.0064548198789
 31
0.0
 12
155.5160925638085
 22
883.8495897861023
 32
0.0
 13
155.5160925638085
 23
883.8495897861023
 33
0.0
  0
SOLID
  5
428
330
422
100
AcDbEntity
  8
1
 62
     2
100
AcDbTrace
 10
191.5160925638085
 20
882.0064548198789
 30
0.0
 11
191.5160925638085
 21
885.6927247523258
 31
0.0
 12
205.5160925638085
 22
883.8495897861023
 32
0.0
 13
205.5160925638085
 23
883.8495897861023
 33
0.0
  0
MTEXT
  5
429
330
422
100
AcDbEntity
  8
1
 62
     7
100
AcDbMText
 10
112.4884428051807
 20
887.849561957797
 30
0.0
 40
14.0
 41
0.0
 71
     7
 72
     1
  1
\C7;{\Fgdt;n}\C7;50
  7
CONVERTER_12
 11
0.9999999999970619
 21
2.424068405545306E-6
 31
0.0
 73
     1
 44
0.60024009603842
  0
ENDBLK
  5
42B
330
422
100
AcDbEntity
  8
0
100
AcDbBlockEnd
  0
BLOCK
  5
435
330
42E
100
AcDbEntity
  8
0
100
AcDbBlockBegin
  2
*D30
 70
     1
 10
0.0
 20
0.0
 30
0.0
  3
*D30
  1

  0
LINE
  5
42F
330
42E
100
AcDbEntity
  8
1
  6
Continuous
 62
     2
100
AcDbLine
 10
180.5160925638087
 20
915.8495897861023
 30
0.0
 11
371.226767641914
 21
915.8495897861023
 31
0.0
  0
LINE
  5
430
330
42E
100
AcDbEntity
  8
1
  6
Continuous
 62
     2
100
AcDbLine
 10
371.226767641914
 20
846.8495897861023
 30
0.0
 11
371.226767641914
 21
919.8495897861023
 31
0.0
  0
LINE
  5
431
330
42E
100
AcDbEntity
  8
1
  6
Continuous
 62
     2
100
AcDbLine
 10
180.5160925638087
 20
846.8495897861023
 30
0.0
 11
180.5160925638087
 21
919.8495897861023
 31
0.0
  0
SOLID
  5
432
330
42E
100
AcDbEntity
  8
1
 62
     2
100
AcDbTrace
 10
194.5160925638087
 20
917.6927247523258
 30
0.0
 11
194.5160925638087
 21
914.0064548198789
 31
0.0
 12
180.5160925638087
 22
915.8495897861023
 32
0.0
 13
180.5160925638087
 23
915.8495897861023
 33
0.0
  0
SOLID
  5
433
330
42E
100
AcDbEntity
  8
1
 62
     2
100
AcDbTrace
 10
357.226767641914
 20
914.0064548198789
 30
0.0
 11
357.226767641914
 21
917.6927247523258
 31
0.0
 12
371.226767641914
 22
915.8495897861023
 32
0.0
 13
371.226767641914
 23
915.8495897861023
 33
0.0
  0
MTEXT
  5
434
330
42E
100
AcDbEntity
  8
1
 62
     7
100
AcDbMText
 10
200.90233776365
 20
919.8495897861023
 30
0.0
 40
14.0
 41
0.0
 71
     7
 72
     1
  1
取付寸法120～220
  7
CONVERTER_11
 11
0.9999999999970619
 21
2.424068405545306E-6
 31
0.0
 73
     1
 44
0.45454545454545
  0
ENDBLK
  5
436
330
42E
100
AcDbEntity
  8
0
100
AcDbBlockEnd
  0
BLOCK
  5
440
330
439
100
AcDbEntity
  8
0
100
AcDbBlockBegin
  2
*D31
 70
     1
 10
0.0
 20
0.0
 30
0.0
  3
*D31
  1

  0
LINE
  5
43A
330
439
100
AcDbEntity
  8
1
  6
Continuous
 62
     2
100
AcDbLine
 10
464.871428251402
 20
298.3122009146745
 30
0.0
 11
654.8714282514026
 21
298.3122009146745
 31
0.0
  0
LINE
  5
43B
330
439
100
AcDbEntity
  8
1
  6
Continuous
 62
     2
100
AcDbLine
 10
464.871428251402
 20
328.3092477830017
 30
0.0
 11
464.871428251402
 21
294.3122009146745
 31
0.0
  0
LINE
  5
43C
330
439
100
AcDbEntity
  8
1
  6
Continuous
 62
     2
100
AcDbLine
 10
654.8714282514026
 20
357.6122009146758
 30
0.0
 11
654.8714282514026
 21
294.3122009146745
 31
0.0
  0
SOLID
  5
43D
330
439
100
AcDbEntity
  8
1
 62
     2
100
AcDbTrace
 10
478.871428251402
 20
300.1553358808981
 30
0.0
 11
478.871428251402
 21
296.469065948451
 31
0.0
 12
464.871428251402
 22
298.3122009146745
 32
0.0
 13
464.871428251402
 23
298.3122009146745
 33
0.0
  0
SOLID
  5
43E
330
439
100
AcDbEntity
  8
1
 62
     2
100
AcDbTrace
 10
640.8714282514026
 20
296.469065948451
 30
0.0
 11
640.8714282514026
 21
300.1553358808981
 31
0.0
 12
654.8714282514026
 22
298.3122009146745
 32
0.0
 13
654.8714282514026
 23
298.3122009146745
 33
0.0
  0
MTEXT
  5
43F
330
439
100
AcDbEntity
  8
1
 62
     7
100
AcDbMText
 10
541.7473360774626
 20
302.3122009146745
 30
0.0
 40
14.0
 41
0.0
 71
     7
 72
     1
  1
190
  7
CONVERTER_12
 11
0.9999999999970619
 21
2.424068405545306E-6
 31
0.0
 73
     1
 44
0.60024009603842
  0
ENDBLK
  5
441
330
439
100
AcDbEntity
  8
0
100
AcDbBlockEnd
  0
BLOCK
  5
44B
330
444
100
AcDbEntity
  8
0
100
AcDbBlockBegin
  2
*D32
 70
     1
 10
0.0
 20
0.0
 30
0.0
  3
*D32
  1

  0
LINE
  5
445
330
444
100
AcDbEntity
  8
1
  6
Continuous
 62
     2
100
AcDbLine
 10
128.6116242395431
 20
340.3092477830017
 30
0.0
 11
128.6116242395431
 21
416.6122009146843
 31
0.0
  0
LINE
  5
446
330
444
100
AcDbEntity
  8
1
  6
Continuous
 62
     2
100
AcDbLine
 10
264.3714285606911
 20
340.3092477830017
 30
0.0
 11
124.6116242395431
 21
340.3092477830017
 31
0.0
  0
LINE
  5
447
330
444
100
AcDbEntity
  8
1
  6
Continuous
 62
     2
100
AcDbLine
 10
182.8714297760019
 20
416.6122009146843
 30
0.0
 11
124.6116242395431
 21
416.6122009146843
 31
0.0
  0
SOLID
  5
448
330
444
100
AcDbEntity
  8
1
 62
     2
100
AcDbTrace
 10
126.7684892733196
 20
354.3092477830017
 30
0.0
 11
130.4547592057667
 21
354.3092477830017
 31
0.0
 12
128.6116242395431
 22
340.3092477830017
 32
0.0
 13
128.6116242395431
 23
340.3092477830017
 33
0.0
  0
SOLID
  5
449
330
444
100
AcDbEntity
  8
1
 62
     2
100
AcDbTrace
 10
130.4547592057667
 20
402.6122009146843
 30
0.0
 11
126.7684892733196
 21
402.6122009146843
 31
0.0
 12
128.6116242395431
 22
416.6122009146843
 32
0.0
 13
128.6116242395431
 23
416.6122009146843
 33
0.0
  0
MTEXT
  5
44A
330
444
100
AcDbEntity
  8
1
 62
     7
100
AcDbMText
 10
124.6116242395431
 20
366.9621964924548
 30
0.0
 40
14.0
 41
0.0
 71
     7
 72
     1
  1
76
  7
CONVERTER_12
 11
0.0
 21
1.0
 31
0.0
 73
     1
 44
0.60024009603842
  0
ENDBLK
  5
44C
330
444
100
AcDbEntity
  8
0
100
AcDbBlockEnd
  0
BLOCK
  5
456
330
44F
100
AcDbEntity
  8
0
100
AcDbBlockBegin
  2
*D33
 70
     1
 10
0.0
 20
0.0
 30
0.0
  3
*D33
  1

  0
LINE
  5
450
330
44F
100
AcDbEntity
  8
1
  6
Continuous
 62
     2
100
AcDbLine
 10
783.371428251403
 20
416.6122009146848
 30
0.0
 11
783.371428251403
 21
545.2567111660784
 31
0.0
  0
LINE
  5
451
330
44F
100
AcDbEntity
  8
1
  6
Continuous
 62
     2
100
AcDbLine
 10
590.4767982301073
 20
545.2567111660784
 30
0.0
 11
787.371428251403
 21
545.2567111660784
 31
0.0
  0
LINE
  5
452
330
44F
100
AcDbEntity
  8
1
  6
Continuous
 62
     2
100
AcDbLine
 10
710.5224568377898
 20
416.6122009146848
 30
0.0
 11
787.371428251403
 21
416.6122009146848
 31
0.0
  0
SOLID
  5
453
330
44F
100
AcDbEntity
  8
1
 62
     2
100
AcDbTrace
 10
781.5282932851795
 20
430.6122009146848
 30
0.0
 11
785.2145632176265
 21
430.6122009146848
 31
0.0
 12
783.371428251403
 22
416.6122009146848
 32
0.0
 13
783.371428251403
 23
416.6122009146848
 33
0.0
  0
SOLID
  5
454
330
44F
100
AcDbEntity
  8
1
 62
     2
100
AcDbTrace
 10
785.2145632176265
 20
531.2567111660784
 30
0.0
 11
781.5282932851795
 21
531.2567111660784
 31
0.0
 12
783.371428251403
 22
545.2567111660784
 32
0.0
 13
783.371428251403
 23
545.2567111660784
 33
0.0
  0
MTEXT
  5
455
330
44F
100
AcDbEntity
  8
1
 62
     7
100
AcDbMText
 10
779.371428251403
 20
459.8119560403817
 30
0.0
 40
14.0
 41
0.0
 71
     7
 72
     1
  1
\C7;最大\C7;129
  7
CONVERTER_11
 11
0.0
 21
1.0
 31
0.0
 73
     1
 44
0.45454545454545
  0
ENDBLK
  5
457
330
44F
100
AcDbEntity
  8
0
100
AcDbBlockEnd
  0
BLOCK
  5
461
330
45A
100
AcDbEntity
  8
0
100
AcDbBlockBegin
  2
*D34
 70
     1
 10
0.0
 20
0.0
 30
0.0
  3
*D34
  1

  0
LINE
  5
45B
330
45A
100
AcDbEntity
  8
1
  6
Continuous
 62
     2
100
AcDbLine
 10
753.371428251403
 20
416.6122009146848
 30
0.0
 11
753.371428251403
 21
509.1531904044927
 31
0.0
  0
LINE
  5
45C
330
45A
100
AcDbEntity
  8
1
  6
Continuous
 62
     2
100
AcDbLine
 10
556.661410810201
 20
509.1531904044927
 30
0.0
 11
757.371428251403
 21
509.1531904044927
 31
0.0
  0
LINE
  5
45D
330
45A
100
AcDbEntity
  8
1
  6
Continuous
 62
     2
100
AcDbLine
 10
710.5224568377898
 20
416.6122009146848
 30
0.0
 11
757.371428251403
 21
416.6122009146848
 31
0.0
  0
SOLID
  5
45E
330
45A
100
AcDbEntity
  8
1
 62
     2
100
AcDbTrace
 10
751.5282932851795
 20
430.6122009146848
 30
0.0
 11
755.2145632176265
 21
430.6122009146848
 31
0.0
 12
753.371428251403
 22
416.6122009146848
 32
0.0
 13
753.371428251403
 23
416.6122009146848
 33
0.0
  0
SOLID
  5
45F
330
45A
100
AcDbEntity
  8
1
 62
     2
100
AcDbTrace
 10
755.2145632176265
 20
495.1531904044927
 30
0.0
 11
751.5282932851795
 21
495.1531904044927
 31
0.0
 12
753.371428251403
 22
509.1531904044927
 32
0.0
 13
753.371428251403
 23
509.1531904044927
 33
0.0
  0
MTEXT
  5
460
330
45A
100
AcDbEntity
  8
1
 62
     7
100
AcDbMText
 10
749.371428251403
 20
445.9504734373666
 30
0.0
 40
14.0
 41
0.0
 71
     7
 72
     1
  1
\C7;最小\C7;93
  7
CONVERTER_11
 11
0.0
 21
1.0
 31
0.0
 73
     1
 44
0.45454545454545
  0
ENDBLK
  5
462
330
45A
100
AcDbEntity
  8
0
100
AcDbBlockEnd
  0
BLOCK
  5
46C
330
465
100
AcDbEntity
  8
0
100
AcDbBlockBegin
  2
*D35
 70
     1
 10
0.0
 20
0.0
 30
0.0
  3
*D35
  1

  0
LINE
  5
466
330
465
100
AcDbEntity
  8
1
  6
Continuous
 62
     2
100
AcDbLine
 10
554.7515840862582
 20
585.0800101936899
 30
0.0
 11
654.8714282514032
 21
585.0800101936899
 31
0.0
  0
LINE
  5
467
330
465
100
AcDbEntity
  8
1
  6
Continuous
 62
     2
100
AcDbLine
 10
654.8714282514032
 20
488.1683001377744
 30
0.0
 11
654.8714282514032
 21
589.0800101936899
 31
0.0
  0
LINE
  5
468
330
465
100
AcDbEntity
  8
1
  6
Continuous
 62
     2
100
AcDbLine
 10
554.7515840862582
 20
505.2423758388889
 30
0.0
 11
554.7515840862582
 21
589.0800101936899
 31
0.0
  0
SOLID
  5
469
330
465
100
AcDbEntity
  8
1
 62
     2
100
AcDbTrace
 10
568.7515840862582
 20
586.9231451599134
 30
0.0
 11
568.7515840862582
 21
583.2368752274664
 31
0.0
 12
554.7515840862582
 22
585.0800101936899
 32
0.0
 13
554.7515840862582
 23
585.0800101936899
 33
0.0
  0
SOLID
  5
46A
330
465
100
AcDbEntity
  8
1
 62
     2
100
AcDbTrace
 10
640.8714282514032
 20
583.2368752274664
 30
0.0
 11
640.8714282514032
 21
586.9231451599134
 31
0.0
 12
654.8714282514032
 22
585.0800101936899
 32
0.0
 13
654.8714282514032
 23
585.0800101936899
 33
0.0
  0
MTEXT
  5
46B
330
465
100
AcDbEntity
  8
1
 62
     7
100
AcDbMText
 10
585.19243420492
 20
589.0800101936899
 30
0.0
 40
14.0
 41
0.0
 71
     7
 72
     1
  1
100
  7
CONVERTER_12
 11
0.9999999999970619
 21
2.424068405545306E-6
 31
0.0
 73
     1
 44
0.60024009603842
  0
ENDBLK
  5
46D
330
465
100
AcDbEntity
  8
0
100
AcDbBlockEnd
  0
BLOCK
  5
477
330
470
100
AcDbEntity
  8
0
100
AcDbBlockBegin
  2
*D36
 70
     1
 10
0.0
 20
0.0
 30
0.0
  3
*D36
  1

  0
LINE
  5
471
330
470
100
AcDbEntity
  8
1
  6
Continuous
 62
     2
100
AcDbLine
 10
199.4346404423577
 20
637.0
 30
0.0
 11
275.8714299934187
 21
637.0
 31
0.0
  0
LINE
  5
472
330
470
100
AcDbEntity
  8
1
  6
Continuous
 62
     2
100
AcDbLine
 10
199.4346404423577
 20
701.3231691265637
 30
0.0
 11
199.4346404423577
 21
633.0
 31
0.0
  0
LINE
  5
473
330
470
100
AcDbEntity
  8
1
  6
Continuous
 62
     2
100
AcDbLine
 10
275.8714299934187
 20
549.3495897861023
 30
0.0
 11
275.8714299934187
 21
641.0
 31
0.0
  0
SOLID
  5
474
330
470
100
AcDbEntity
  8
1
 62
     2
100
AcDbTrace
 10
213.4346404423577
 20
638.8431349662235
 30
0.0
 11
213.4346404423577
 21
635.1568650337765
 31
0.0
 12
199.4346404423577
 22
637.0
 32
0.0
 13
199.4346404423577
 23
637.0
 33
0.0
  0
SOLID
  5
475
330
470
100
AcDbEntity
  8
1
 62
     2
100
AcDbTrace
 10
261.8714299934187
 20
635.1568650337765
 30
0.0
 11
261.8714299934187
 21
638.8431349662235
 31
0.0
 12
275.8714299934187
 22
637.0
 32
0.0
 13
275.8714299934187
 23
637.0
 33
0.0
  0
MTEXT
  5
476
330
470
100
AcDbEntity
  8
1
 62
     7
100
AcDbMText
 10
227.1530347929945
 20
641.0
 30
0.0
 40
14.0
 41
0.0
 71
     7
 72
     1
  1
76
  7
CONVERTER_12
 11
0.9999999999970619
 21
2.424068405545306E-6
 31
0.0
 73
     1
 44
0.60024009603842
  0
ENDBLK
  5
478
330
470
100
AcDbEntity
  8
0
100
AcDbBlockEnd
  0
BLOCK
  5
482
330
47B
100
AcDbEntity
  8
0
100
AcDbBlockBegin
  2
*D37
 70
     1
 10
0.0
 20
0.0
 30
0.0
  3
*D37
  1

  0
LINE
  5
47C
330
47B
100
AcDbEntity
  8
1
  6
Continuous
 62
     2
100
AcDbLine
 10
275.8714299934187
 20
637.0
 30
0.0
 11
352.3082206209667
 21
637.0
 31
0.0
  0
LINE
  5
47D
330
47B
100
AcDbEntity
  8
1
  6
Continuous
 62
     2
100
AcDbLine
 10
275.8714299934187
 20
549.3495897861023
 30
0.0
 11
275.8714299934187
 21
641.0
 31
0.0
  0
LINE
  5
47E
330
47B
100
AcDbEntity
  8
1
  6
Continuous
 62
     2
100
AcDbLine
 10
352.3082206209667
 20
701.3231711453575
 30
0.0
 11
352.3082206209667
 21
633.0
 31
0.0
  0
SOLID
  5
47F
330
47B
100
AcDbEntity
  8
1
 62
     2
100
AcDbTrace
 10
289.8714299934187
 20
638.8431349662235
 30
0.0
 11
289.8714299934187
 21
635.1568650337765
 31
0.0
 12
275.8714299934187
 22
637.0
 32
0.0
 13
275.8714299934187
 23
637.0
 33
0.0
  0
SOLID
  5
480
330
47B
100
AcDbEntity
  8
1
 62
     2
100
AcDbTrace
 10
338.3082206209667
 20
635.1568650337765
 30
0.0
 11
338.3082206209667
 21
638.8431349662235
 31
0.0
 12
352.3082206209667
 22
637.0
 32
0.0
 13
352.3082206209667
 23
637.0
 33
0.0
  0
MTEXT
  5
481
330
47B
100
AcDbEntity
  8
1
 62
     7
100
AcDbMText
 10
303.589824882299
 20
641.0
 30
0.0
 40
14.0
 41
0.0
 71
     7
 72
     1
  1
76
  7
CONVERTER_12
 11
0.9999999999970619
 21
2.424068405545306E-6
 31
0.0
 73
     1
 44
0.60024009603842
  0
ENDBLK
  5
483
330
47B
100
AcDbEntity
  8
0
100
AcDbBlockEnd
  0
BLOCK
  5
48F
330
486
100
AcDbEntity
  8
0
100
AcDbBlockBegin
  2
*D38
 70
     1
 10
0.0
 20
0.0
 30
0.0
  3
*D38
  1

  0
LINE
  5
487
330
486
100
AcDbEntity
  8
1
  6
Continuous
 62
     2
100
AcDbLine
 10
556.661410810201
 20
509.6531904044924
 30
0.0
 11
560.8666651964613
 21
509.1101733995208
 31
0.0
  0
LINE
  5
488
330
486
100
AcDbEntity
  8
1
  6
Continuous
 62
     2
100
AcDbLine
 10
587.1557283474883
 20
541.4527767848106
 30
0.0
 11
575.2678505091079
 21
548.9847734478968
 31
0.0
  0
LINE
  5
489
330
486
100
AcDbEntity
  8
1
  6
Continuous
 62
     2
100
AcDbLine
 10
560.8666651964613
 20
509.1101733995208
 30
0.0
 11
564.8337283298787
 21
508.5979136065628
 31
0.0
  0
LINE
  5
48A
330
486
100
AcDbEntity
  8
1
  6
Continuous
 62
     2
100
AcDbLine
 10
575.2678505091079
 20
548.9847734478968
 30
0.0
 11
571.8889606428852
 21
551.1255918129006
 31
0.0
  0
ARC
  5
48B
330
486
100
AcDbEntity
  8
1
  6
Continuous
 62
     2
100
AcDbCircle
 10
657.9986066119727
 20
496.5676988974172
 30
0.0
 40
97.93838731458794
100
AcDbArc
 50
147.6422126493921
 51
172.6422126493864
  0
SOLID
  5
48C
330
486
100
AcDbEntity
  8
1
 62
     2
100
AcDbTrace
 10
570.2620587604027
 20
535.7810165782664
 30
0.0
 11
567.0152432332453
 21
537.5265179238611
 31
0.0
 12
575.2678505091079
 22
548.9847734478968
 32
0.0
 13
575.2678505091079
 23
548.9847734478968
 33
0.0
  0
SOLID
  5
48D
330
486
100
AcDbEntity
  8
1
 62
     2
100
AcDbTrace
 10
561.8401070643766
 20
523.1973859496851
 30
0.0
 11
565.4529767374615
 21
522.4654305274313
 31
0.0
 12
560.8666651964613
 22
509.1101733995208
 32
0.0
 13
560.8666651964613
 23
509.1101733995208
 33
0.0
  0
MTEXT
  5
48E
330
486
100
AcDbEntity
  8
1
 62
     7
100
AcDbMText
 10
561.0502320666669
 20
528.5646906516753
 30
0.0
 40
14.0
 41
0.0
 71
     7
 72
     1
  1
 
  7
CONVERTER_12
 11
0.3650299853136886
 21
0.9309957625155382
 31
0.0
 73
     1
 44
0.60024009603842
  0
ENDBLK
  5
490
330
486
100
AcDbEntity
  8
0
100
AcDbBlockEnd
  0
BLOCK
  5
49A
330
493
100
AcDbEntity
  8
0
100
AcDbBlockBegin
  2
*D39
 70
     1
 10
0.0
 20
0.0
 30
0.0
  3
*D39
  1

  0
LINE
  5
494
330
493
100
AcDbEntity
  8
1
  6
Continuous
 62
     2
100
AcDbLine
 10
397.4937992082752
 20
643.727227130149
 30
0.0
 11
400.3222264172541
 21
640.8988000896354
 31
0.0
  0
LINE
  5
495
330
493
100
AcDbEntity
  8
1
  6
Continuous
 62
     2
100
AcDbLine
 10
355.1561699426659
 20
686.0648538740652
 30
0.0
 11
397.4937992082752
 21
643.727227130149
 31
0.0
  0
ARC
  5
496
330
493
100
AcDbEntity
  8
1
  6
Continuous
 62
     2
100
AcDbCircle
 10
275.8714292221832
 20
765.3495898722292
 30
0.0
 40
172.0
100
AcDbArc
 50
270.0000002045766
 51
315.0000017063116
  0
SOLID
  5
497
330
493
100
AcDbEntity
  8
1
 62
     2
100
AcDbTrace
 10
289.7848467213731
 20
595.7608088764467
 30
0.0
 11
289.9348279377236
 21
592.0775913089379
 31
0.0
 12
275.8714298363151
 22
593.3495898722292
 32
0.0
 13
275.8714298363151
 23
593.3495898722292
 33
0.0
  0
SOLID
  5
498
330
493
100
AcDbEntity
  8
1
 62
     2
100
AcDbTrace
 10
388.4489142156603
 20
632.8834638546949
 30
0.0
 11
385.9505387418233
 21
635.5939446250736
 31
0.0
 12
397.4937992082752
 22
643.727227130149
 32
0.0
 13
397.4937992082752
 23
643.727227130149
 33
0.0
  0
MTEXT
  5
499
330
493
100
AcDbEntity
  8
1
 62
     7
100
AcDbMText
 10
325.9345050990434
 20
604.2445048073942
 30
0.0
 40
14.0
 41
0.0
 71
     7
 72
     1
  1
45{\Fgdt;~}
  7
CONVERTER_12
 11
0.9238795229143379
 21
0.3826834555341729
 31
0.0
 73
     1
 44
0.60024009603842
  0
ENDBLK
  5
49B
330
493
100
AcDbEntity
  8
0
100
AcDbBlockEnd
  0
BLOCK
  5
4A5
330
49E
100
AcDbEntity
  8
0
100
AcDbBlockBegin
  2
*D40
 70
     1
 10
0.0
 20
0.0
 30
0.0
  3
*D40
  1

  0
LINE
  5
49F
330
49E
100
AcDbEntity
  8
1
  6
Continuous
 62
     2
100
AcDbLine
 10
154.2490631653111
 20
643.7272233624077
 30
0.0
 11
151.4206360397069
 21
640.8987962385195
 31
0.0
  0
LINE
  5
4A0
330
49E
100
AcDbEntity
  8
1
  6
Continuous
 62
     2
100
AcDbLine
 10
196.5866915704339
 20
686.0648517418438
 30
0.0
 11
154.2490631653111
 21
643.7272233624077
 31
0.0
  0
ARC
  5
4A1
330
49E
100
AcDbEntity
  8
1
  6
Continuous
 62
     2
100
AcDbCircle
 10
275.8714292221832
 20
765.3495893454901
 30
0.0
 40
171.9999995133566
100
AcDbArc
 50
224.999999982619
 51
270.0000002045766
  0
SOLID
  5
4A2
330
49E
100
AcDbEntity
  8
1
 62
     2
100
AcDbTrace
 10
165.792323872448
 20
635.5939411989275
 30
0.0
 11
163.2939484788211
 21
632.8834603546153
 31
0.0
 12
154.2490631653111
 22
643.7272233624077
 32
0.0
 13
154.2490631653111
 23
643.7272233624077
 33
0.0
  0
SOLID
  5
4A3
330
49E
100
AcDbEntity
  8
1
 62
     2
100
AcDbTrace
 10
261.8080317438437
 20
592.0775911700331
 30
0.0
 11
261.9580129343161
 21
595.7608087385956
 31
0.0
 12
275.8714298363152
 22
593.3495898321336
 32
0.0
 13
275.8714298363152
 23
593.3495898321336
 33
0.0
  0
MTEXT
  5
4A4
330
49E
100
AcDbEntity
  8
1
 62
     7
100
AcDbMText
 10
197.352868129112
 20
616.0311531081607
 30
0.0
 40
14.0
 41
0.0
 71
     7
 72
     1
  1
45{\Fgdt;~}
  7
CONVERTER_12
 11
0.9238795329180326
 21
-0.3826834313831186
 31
0.0
 73
     1
 44
0.60024009603842
  0
ENDBLK
  5
4A6
330
49E
100
AcDbEntity
  8
0
100
AcDbBlockEnd
  0
ENDSEC
  0
SECTION
  2
ENTITIES
  0
INSERT
  5
A4
330
1F
100
AcDbEntity
  8
1
100
AcDbBlockReference
  2
U3-48F-50__8
 10
523.3714297007718
 20
638.8495897861023
 30
0.0
  0
INSERT
  5
A5
330
1F
100
AcDbEntity
  8
1
100
AcDbBlockReference
  2
開示A4
 10
0.0
 20
0.0
 30
0.0
 41
4.0
 42
4.0
 43
4.0
  0
INSERT
  5
A6
330
1F
100
AcDbEntity
  8
1
100
AcDbBlockReference
  2
84-293
 10
721.500042303149
 20
15.33900429134201
 30
0.0
  0
INSERT
  5
A7
330
1F
100
AcDbEntity
  8
1
100
AcDbBlockReference
  2
27-014-0323
 10
875.0000007569511
 20
584.4
 30
0.0
  0
INSERT
  5
A8
330
1F
100
AcDbEntity
  8
1
100
AcDbBlockReference
  2
37-302
 10
1189.500000756949
 20
717.5
 30
0.0
  0
INSERT
  5
A9
330
1F
100
AcDbEntity
  8
1
100
AcDbBlockReference
  2
K170-0
 10
705.0
 20
429.0
 30
0.0
  0
INSERT
  5
AA
330
1F
100
AcDbEntity
  8
1
100
AcDbBlockReference
  2
U3-48F-50__16
 10
480.5224568377891
 20
422.1122009146843
 30
0.0
  0
INSERT
  5
AB
330
1F
100
AcDbEntity
  8
1
100
AcDbBlockReference
  2
61-142BX1B
 10
1486.487747296382
 20
467.9536522729924
 30
0.0
  0
LINE
  5
3D3
330
1F
100
AcDbEntity
  8
1
  6
DASH_CENTER
 62
     2
100
AcDbLine
 10
215.8714271637594
 20
416.6122009146843
 30
0.0
 11
154.3531406663171
 21
355.0939109686573
 31
0.0
  0
LINE
  5
3D4
330
1F
100
AcDbEntity
  8
1
  6
DASH_CENTER
 62
     2
100
AcDbLine
 10
301.8714299005854
 20
575.3495897861056
 30
0.0
 11
249.8714299005843
 21
575.3495897861013
 31
0.0
  0
LINE
  5
3D5
330
1F
100
AcDbEntity
  8
1
  6
DASH_CENTER
 62
     2
100
AcDbLine
 10
264.8427805730964
 20
468.6122009146843
 30
0.0
 11
286.9000785849664
 21
468.6122009146843
 31
0.0
  0
LINE
  5
3D6
330
1F
100
AcDbEntity
  8
1
  6
DASH_CENTER
 62
     2
100
AcDbLine
 10
335.87142965732
 20
814.3495897861021
 30
0.0
 11
335.8714305118739
 21
755.3495897861023
 31
0.0
  0
LINE
  5
3D7
330
1F
100
AcDbEntity
  8
1
  6
DASH_CENTER
 62
     2
100
AcDbLine
 10
335.8714305118739
 20
755.3495897861023
 30
0.0
 11
335.87142965732
 21
814.3495897861021
 31
0.0
  0
LINE
  5
3D8
330
1F
100
AcDbEntity
  8
1
  6
DASH_CENTER
 62
     2
100
AcDbLine
 10
371.226767641914
 20
846.8495897861023
 30
0.0
 11
371.226767641914
 21
777.8495897861023
 31
0.0
  0
LINE
  5
3D9
330
1F
100
AcDbEntity
  8
1
  6
DASH_CENTER
 62
     2
100
AcDbLine
 10
198.871429722172
 20
765.3495897861023
 30
0.0
 11
352.8714297007718
 21
765.3495897861023
 31
0.0
  0
LINE
  5
3DA
330
1F
100
AcDbEntity
  8
1
  6
DASH_CENTER
 62
     2
100
AcDbLine
 10
180.5160925638087
 20
846.8495897861023
 30
0.0
 11
180.5160925638087
 21
777.8495897861023
 31
0.0
  0
LINE
  5
3DB
330
1F
100
AcDbEntity
  8
1
  6
DASH_CENTER
 62
     2
100
AcDbLine
 10
215.871429722172
 20
814.3495897861021
 30
0.0
 11
215.8714297221714
 21
755.3495897861023
 31
0.0
  0
LINE
  5
3DC
330
1F
100
AcDbEntity
  8
1
  6
DASH_CENTER
 62
     2
100
AcDbLine
 10
182.8714297760019
 20
416.6122009146843
 30
0.0
 11
368.871428240702
 21
416.6122009146843
 31
0.0
  0
LINE
  5
3DD
330
1F
100
AcDbEntity
  8
1
  6
DASH_CENTER
 62
     2
100
AcDbLine
 10
215.8714299118997
 20
436.3622009146843
 30
0.0
 11
215.8714281225772
 21
396.8622009146843
 31
0.0
  0
LINE
  5
3DE
330
1F
100
AcDbEntity
  8
1
  6
DASH_CENTER
 62
     2
100
AcDbLine
 10
335.8714282407022
 20
436.3622009146843
 30
0.0
 11
335.8714282407022
 21
396.8622009146843
 31
0.0
  0
LINE
  5
3DF
330
1F
100
AcDbEntity
  8
1
  6
DASH_CENTER
 62
     2
100
AcDbLine
 10
275.871429735386
 20
515.976350619202
 30
0.0
 11
275.871428227488
 21
332.0105526606248
 31
0.0
  0
LINE
  5
3E0
330
1F
100
AcDbEntity
  8
1
  6
DASH_CENTER
 62
     2
100
AcDbLine
 10
628.8268203442103
 20
416.6122009146848
 30
0.0
 11
710.5224568377898
 21
416.6122009146848
 31
0.0
  0
LINE
  5
3E1
330
1F
100
AcDbEntity
  8
0
  6
DASH_CENTER
 62
     2
100
AcDbLine
 10
438.8714282514017
 20
371.6122009146753
 30
0.0
 11
671.8714282514026
 21
371.6122009146753
 31
0.0
  0
LINE
  5
3E2
330
1F
100
AcDbEntity
  8
0
  6
DASH_CENTER
 62
     2
100
AcDbLine
 10
464.8714282514026
 20
391.6122009146753
 30
0.0
 11
464.871428251402
 21
328.3092477830017
 31
0.0
  0
LINE
  5
3E3
330
1F
100
AcDbEntity
  8
1
  6
DASH_CENTER
 62
     2
100
AcDbLine
 10
654.8714282514026
 20
357.6122009146758
 30
0.0
 11
654.8714282514032
 21
488.1683001377744
 31
0.0
  0
LINE
  5
3E4
330
1F
100
AcDbEntity
  8
1
  6
Continuous
 62
     2
100
AcDbLine
 10
501.8714282514035
 20
498.6122009146836
 30
0.0
 11
542.3714282514036
 21
498.6122009146833
 31
0.0
  0
LINE
  5
3E5
330
1F
100
AcDbEntity
  8
1
  6
Continuous
 62
     2
100
AcDbLine
 10
579.8714282514035
 20
552.6122009146834
 30
0.0
 11
621.8714282514035
 21
552.6122009146834
 31
0.0
  0
LINE
  5
3E6
330
1F
100
AcDbEntity
  8
1
  6
Continuous
 62
     2
100
AcDbLine
 10
217.4314295662027
 20
669.0
 30
0.0
 11
259.4314295662027
 21
669.0
 31
0.0
  0
LINE
  5
3E7
330
1F
100
AcDbEntity
  8
1
  6
Continuous
 62
     2
100
AcDbLine
 10
292.3082108302849
 20
669.0
 30
0.0
 11
334.3082108302849
 21
669.0
 31
0.0
  0
LINE
  5
3E8
330
1F
100
AcDbEntity
  8
1
  6
PHANTOM
 62
     4
100
AcDbLine
 10
556.661410810201
 20
509.6531904044924
 30
0.0
 11
555.3990811218215
 21
509.8161927876325
 31
0.0
  0
LINE
  5
3E9
330
1F
100
AcDbEntity
  8
1
  6
PHANTOM
 62
     4
100
AcDbLine
 10
588.0514889476888
 20
540.8852351307526
 30
0.0
 11
587.1557283474883
 21
541.4527767848106
 31
0.0
  0
LINE
  5
3EA
330
1F
100
AcDbEntity
  8
1
  6
DASH_CENTER
 62
     2
100
AcDbLine
 10
275.871429100785
 20
799.3495897861023
 30
0.0
 11
275.8714299934187
 21
549.3495897861023
 31
0.0
  0
LINE
  5
3EB
330
1F
100
AcDbEntity
  8
1
  6
DASH_CENTER
 62
     2
100
AcDbLine
 10
327.3861475864174
 20
425.0974832767814
 30
0.0
 11
397.3897183201942
 21
355.0939113356219
 31
0.0
  0
LINE
  5
3EC
330
1F
100
AcDbEntity
  8
1
  6
DASH_CENTER
 62
     2
100
AcDbLine
 10
345.0638170429062
 20
355.0939118661383
 30
0.0
 11
397.3897183933689
 21
407.419813216601
 31
0.0
  0
LINE
  5
3ED
330
1F
100
AcDbEntity
  8
1
  6
DASH_CENTER
 62
     2
100
AcDbLine
 10
670.3714282514031
 20
381.2568624466509
 30
0.0
 11
745.3714282514029
 21
381.2568624466509
 31
0.0
  0
LINE
  5
3EE
330
1F
100
AcDbEntity
  8
1
  6
DASH_CENTER
 62
     2
100
AcDbLine
 10
206.6790441120639
 20
355.0939118508441
 30
0.0
 11
154.3531410155535
 21
407.4198123699422
 31
0.0
  0
LINE
  5
3EF
330
1F
100
AcDbEntity
  8
1
  6
DASH_CENTER
 62
     2
100
AcDbLine
 10
224.3567100416594
 20
425.0974842682513
 30
0.0
 11
215.8714271637594
 21
416.6122009146843
 31
0.0
  0
LINE
  5
3F0
330
1F
100
AcDbEntity
  8
1
  6
DASH_CENTER
 62
     2
100
AcDbLine
 10
196.5866915704339
 20
686.0648517418438
 30
0.0
 11
298.6315467894706
 21
788.1097068989686
 31
0.0
  0
LINE
  5
3F1
330
1F
100
AcDbEntity
  8
1
  6
DASH_CENTER
 62
     2
100
AcDbLine
 10
253.1113116691299
 20
788.1097060696557
 30
0.0
 11
355.1561699426659
 21
686.0648538740652
 31
0.0
  0
SOLID
  5
3F2
330
1F
100
AcDbEntity
  8
1
 62
     2
100
AcDbTrace
 10
387.1080659385613
 20
848.3145129221962
 30
0.0
 11
390.3004693452672
 21
846.4713779559726
 31
0.0
 12
381.7042676419141
 22
835.2685897861023
 32
0.0
 13
381.7042676419141
 23
835.2685897861023
 33
0.0
  0
LEADER
  5
3F3
330
1F
100
AcDbEntity
  8
1
  6
Continuous
 62
     2
100
AcDbLeader
  3
Standard
 71
     0
 76
     3
 10
381.7042676419141
 20
835.2685897861023
 30
0.0
 10
403.979018377519
 20
873.8495897861023
 30
0.0
 10
460.4672472039022
 20
873.8495897861023
 30
0.0
  0
MTEXT
  5
3F5
330
1F
100
AcDbEntity
  8
1
 62
     7
100
AcDbMText
 10
375.0
 20
68.0
 30
0.0
 40
14.0
 41
0.0
 71
     5
 72
     1
  1
4
  7
CONVERTER_12
 73
     1
 44
0.7202881152461
  0
MTEXT
  5
3F6
330
1F
100
AcDbEntity
  8
1
 62
     7
100
AcDbMText
 10
341.0
 20
68.0
 30
0.0
 40
14.0
 41
0.0
 71
     5
 72
     1
  1
1
  7
CONVERTER_12
 73
     1
 44
0.7202881152461
  0
MTEXT
  5
3F7
330
1F
100
AcDbEntity
  8
1
 62
     7
100
AcDbMText
 10
228.0
 20
57.0
 30
0.0
 40
14.0
 41
0.0
 71
     5
 72
     1
  1
K170K-13
  7
CONVERTER_12
 73
     1
 44
0.7202881152461
  0
MTEXT
  5
3F8
330
1F
100
AcDbEntity
  8
1
 62
     7
100
AcDbMText
 10
228.0
 20
91.00000000000004
 30
0.0
 40
14.0
 41
0.0
 71
     5
 72
     1
  1
シングル混合栓
  7
CONVERTER_11
 73
     1
 44
0.54545454545455
  0
MTEXT
  5
3F9
330
1F
100
AcDbEntity
  8
1
 62
     7
100
AcDbMText
 10
238.4314295662027
 20
683.0
 30
0.0
 40
20.0
 41
0.0
 71
     5
 72
     1
  1
湯側
  7
CONVERTER_11
 73
     1
 44
0.54545454545455
  0
MTEXT
  5
3FA
330
1F
100
AcDbEntity
  8
1
 62
     7
100
AcDbMText
 10
313.3082206209666
 20
683.0
 30
0.0
 40
20.0
 41
0.0
 71
     5
 72
     1
  1
水側
  7
CONVERTER_11
 73
     1
 44
0.54545454545455
  0
MTEXT
  5
3FB
330
1F
100
AcDbEntity
  8
1
 62
     7
100
AcDbMText
 10
521.8714282514035
 20
512.6122009146834
 30
0.0
 40
20.0
 41
0.0
 71
     5
 72
     1
  1
止水
  7
CONVERTER_11
 73
     1
 44
0.54545454545455
  0
MTEXT
  5
3FC
330
1F
100
AcDbEntity
  8
1
 62
     7
100
AcDbMText
 10
600.8714282514035
 20
566.6122009146834
 30
0.0
 40
20.0
 41
0.0
 71
     5
 72
     1
  1
吐水
  7
CONVERTER_11
 73
     1
 44
0.54545454545455
  0
MTEXT
  5
3FD
330
1F
100
AcDbEntity
  8
1
 62
     7
100
AcDbMText
 10
432.2231327907106
 20
885.8495897861023
 30
0.0
 40
14.0
 41
0.0
 71
     5
 72
     1
  1
PJ1/2
  7
CONVERTER_12
 73
     1
 44
0.7202881152461
  0
MTEXT
  5
3FE
330
1F
100
AcDbEntity
  8
1
 62
     7
100
AcDbMText
 10
136.0
 20
150.0
 30
0.0
 40
14.0
 41
0.0
 71
     4
 72
     1
  1
JIS
  7
CONVERTER_12
 73
     1
 44
0.7202881152461
  0
MTEXT
  5
3FF
330
1F
100
AcDbEntity
  8
1
 62
     7
100
AcDbMText
 10
136.0
 20
122.0
 30
0.0
 40
14.0
 41
0.0
 71
     4
 72
     1
  1
吐水口は回転式(角度制限なし)
  7
CONVERTER_11
 73
     1
 44
0.54545454545455
  0
MTEXT
  5
400
330
1F
100
AcDbEntity
  8
1
 62
     7
100
AcDbMText
 10
536.0898250917994
 20
550.0
 30
0.0
 40
14.0
 41
0.0
 71
     5
 72
     1
  1
25{\Fgdt;~}
  7
CONVERTER_12
 73
     1
 44
0.7202881152461
  0
DIMENSION
  5
40B
330
1F
100
AcDbEntity
  8
1
100
AcDbDimension
  2
*D26
 10
654.8714282514026
 20
298.3122009146745
 30
0.0
 11
688.4200312067227
 21
309.3122009146745
 31
0.0
 70
    32
  1
65
 71
     5
 42
-1.0
 53
0.00013888888889
  3
ME10_DIM_10
100
AcDbAlignedDimension
 13
719.3714282514027
 23
356.2568624466501
 33
0.0
 14
654.8714282514026
 24
357.6122009146758
 34
0.0
100
AcDbRotatedDimension
  0
DIMENSION
  5
416
330
1F
100
AcDbEntity
  8
1
100
AcDbDimension
  2
*D27
 10
141.4620253987037
 20
420.3109272641435
 30
0.0
 11
152.216324645437
 21
446.621576735872
 31
0.0
 70
    32
  1
<>
 71
     5
 42
-1.0
 53
45.0000016059399
  3
ME10_DIM_11
100
AcDbAlignedDimension
 13
215.8714271637594
 23
416.6122009146843
 33
0.0
 14
154.3531410155535
 24
407.4198123699422
 34
0.0
 50
45.0000016059399
100
AcDbRotatedDimension
  0
DIMENSION
  5
421
330
1F
100
AcDbEntity
  8
1
100
AcDbDimension
  2
*D28
 10
215.871429722172
 20
883.8495897861023
 30
0.0
 11
279.412315960783
 21
894.8495897861023
 31
0.0
 70
    32
  1
<>
 71
     5
 42
-1.0
 53
0.00013888888889
  3
ME10_DIM_12
100
AcDbAlignedDimension
 13
335.87142965732
 23
814.3495897861021
 33
0.0
 14
215.871429722172
 24
814.3495897861021
 34
0.0
100
AcDbRotatedDimension
  0
DIMENSION
  5
42D
330
1F
100
AcDbEntity
  8
1
100
AcDbDimension
  2
*D29
 10
155.5160925638085
 20
883.8495897861023
 30
0.0
 11
126.068442805147
 21
894.8495897861023
 31
0.0
 70
    32
  1
<>
 71
     5
 42
-1.0
 53
0.00013888888889
  3
ME10_DIM_13
100
AcDbAlignedDimension
 13
205.5160925638085
 23
829.8495897861023
 33
0.0
 14
155.5160925638085
 24
829.8495897861023
 34
0.0
100
AcDbRotatedDimension
  0
DIMENSION
  5
438
330
1F
100
AcDbEntity
  8
1
100
AcDbDimension
  2
*D30
 10
180.5160925638087
 20
915.8495897861023
 30
0.0
 11
269.50233776365
 21
926.8495897861023
 31
0.0
 70
    32
  1
取付寸法120～220
 71
     5
 42
-1.0
 53
0.00013888888889
  3
ME10_DIM_14
100
AcDbAlignedDimension
 13
371.226767641914
 23
846.8495897861023
 33
0.0
 14
180.5160925638087
 24
846.8495897861023
 34
0.0
100
AcDbRotatedDimension
  0
DIMENSION
  5
443
330
1F
100
AcDbEntity
  8
1
100
AcDbDimension
  2
*D31
 10
464.871428251402
 20
298.3122009146745
 30
0.0
 11
556.4473360774626
 21
309.3122009146745
 31
0.0
 70
    32
  1
<>
 71
     5
 42
-1.0
 53
0.00013888888889
  3
ME10_DIM_15
100
AcDbAlignedDimension
 13
654.8714282514026
 23
357.6122009146758
 33
0.0
 14
464.871428251402
 24
328.3092477830017
 34
0.0
100
AcDbRotatedDimension
  0
DIMENSION
  5
44E
330
1F
100
AcDbEntity
  8
1
100
AcDbDimension
  2
*D32
 10
128.6116242395431
 20
340.3092477830017
 30
0.0
 11
117.6116242395431
 21
377.4621964924548
 31
0.0
 70
    32
  1
76
 71
     5
 42
-1.0
 53
90.0
  3
ME10_DIM_16
100
AcDbAlignedDimension
 13
182.8714297760019
 23
416.6122009146843
 33
0.0
 14
264.3714285606911
 24
340.3092477830017
 34
0.0
 50
90.0
100
AcDbRotatedDimension
  0
DIMENSION
  5
459
330
1F
100
AcDbEntity
  8
1
100
AcDbDimension
  2
*D33
 10
783.371428251403
 20
416.6122009146848
 30
0.0
 11
772.371428251403
 21
480.9344560403817
 31
0.0
 70
    32
  1
最大129
 71
     5
 42
-1.0
 53
90.0
  3
ME10_DIM_17
100
AcDbAlignedDimension
 13
590.4767982301073
 23
545.2567111660784
 33
0.0
 14
710.5224568377898
 24
416.6122009146848
 34
0.0
 50
90.0
100
AcDbRotatedDimension
  0
DIMENSION
  5
464
330
1F
100
AcDbEntity
  8
1
100
AcDbDimension
  2
*D34
 10
753.371428251403
 20
416.6122009146848
 30
0.0
 11
742.371428251403
 21
462.8826956595888
 31
0.0
 70
    32
  1
最小93
 71
     5
 42
-1.0
 53
90.0
  3
ME10_DIM_18
100
AcDbAlignedDimension
 13
556.661410810201
 23
509.1531904044927
 33
0.0
 14
710.5224568377898
 24
416.6122009146848
 34
0.0
 50
90.0
100
AcDbRotatedDimension
  0
DIMENSION
  5
46F
330
1F
100
AcDbEntity
  8
1
100
AcDbDimension
  2
*D35
 10
554.7515840862582
 20
585.0800101936899
 30
0.0
 11
599.89243420492
 21
596.0800101936899
 31
0.0
 70
    32
  1
100
 71
     5
 42
-1.0
 53
0.00013888888889
  3
ME10_DIM_19
100
AcDbAlignedDimension
 13
654.8714282514032
 23
488.1683001377744
 33
0.0
 14
554.7515840862582
 24
505.2423758388889
 34
0.0
100
AcDbRotatedDimension
  0
DIMENSION
  5
47A
330
1F
100
AcDbEntity
  8
1
100
AcDbDimension
  2
*D36
 10
199.4346404423577
 20
637.0
 30
0.0
 11
237.6530347929945
 21
648.0
 31
0.0
 70
    32
  1
76
 71
     5
 42
-1.0
 53
0.00013888888889
  3
ME10_DIM_20
100
AcDbAlignedDimension
 13
275.8714299934187
 23
549.3495897861023
 33
0.0
 14
199.4346404423577
 24
701.3231691265637
 34
0.0
100
AcDbRotatedDimension
  0
DIMENSION
  5
485
330
1F
100
AcDbEntity
  8
1
100
AcDbDimension
  2
*D37
 10
275.8714299934187
 20
637.0
 30
0.0
 11
314.089824882299
 21
648.0
 31
0.0
 70
    32
  1
76
 71
     5
 42
-1.0
 53
0.00013888888889
  3
ME10_DIM_21
100
AcDbAlignedDimension
 13
352.3082206209666
 23
701.3231711453575
 33
0.0
 14
275.8714299934187
 24
549.3495897861023
 34
0.0
100
AcDbRotatedDimension
  0
DIMENSION
  5
492
330
1F
100
AcDbEntity
  8
1
100
AcDbDimension
  2
*D38
 10
565.8837683832638
 20
529.8360665742516
 30
0.0
 11
556.5774296468148
 21
536.3334768189582
 31
0.0
 70
    37
  1
 
 71
     5
 42
-1.0
  3
ME10_DIM_22
100
AcDb3PointAngularDimension
 13
588.0514889476888
 23
540.8852351307526
 33
0.0
 14
560.8666651964614
 24
509.1101733995208
 34
0.0
 15
657.9986066119727
 25
496.5676988974172
 35
0.0
  0
DIMENSION
  5
49D
330
1F
100
AcDbEntity
  8
1
100
AcDbDimension
  2
*D39
 10
341.6929822388599
 20
606.4423113779047
 30
0.0
 11
337.483465563185
 21
616.6049866830208
 31
0.0
 70
    37
  1
<>
 71
     5
 42
-1.0
  3
ME10_DIM_23
100
AcDb3PointAngularDimension
 13
275.8714298363151
 23
593.3495898722292
 33
0.0
 14
355.1561699426659
 24
686.0648538740652
 34
0.0
 15
275.8714292221832
 25
765.3495898722292
 35
0.0
  0
DIMENSION
  5
4A8
330
1F
100
AcDbEntity
  8
1
100
AcDbDimension
  2
*D40
 10
210.0498793012075
 20
606.4423100956234
 30
0.0
 11
214.2593969557315
 21
616.6049849952868
 31
0.0
 70
    37
  1
<>
 71
     5
 42
-1.0
  3
ME10_DIM_24
100
AcDb3PointAngularDimension
 13
196.5866915704339
 23
686.0648517418438
 33
0.0
 14
275.8714298363152
 24
593.3495898321336
 34
0.0
 15
275.8714292221832
 25
765.3495893454901
 35
0.0
  0
ENDSEC
  0
SECTION
  2
OBJECTS
  0
DICTIONARY
  5
C
330
0
100
AcDbDictionary
281
     1
  3
ACAD_GROUP
350
D
  3
ACAD_LAYOUT
350
1A
  3
ACAD_MATERIAL
350
3B
  3
ACAD_MLEADERSTYLE
350
4AB
  3
ACAD_MLINESTYLE
350
17
  3
ACAD_PLOTSETTINGS
350
19
  3
ACAD_PLOTSTYLENAME
350
E
  3
ACAD_VISUALSTYLE
350
2A
  3
AcDbVariableDictionary
350
4A9
  0
DICTIONARY
  5
D
102
{ACAD_REACTORS
330
C
102
}
330
C
100
AcDbDictionary
281
     1
  0
DICTIONARY
  5
1A
102
{ACAD_REACTORS
330
C
102
}
330
C
100
AcDbDictionary
281
     1
  3
Layout1
350
1E
  3
Layout2
350
26
  3
Model
350
22
  0
DICTIONARY
  5
3B
102
{ACAD_REACTORS
330
C
102
}
330
C
100
AcDbDictionary
281
     1
  3
ByBlock
350
3D
  3
ByLayer
350
3C
  3
Global
350
3E
  0
DICTIONARY
  5
4AB
102
{ACAD_REACTORS
330
C
102
}
330
C
100
AcDbDictionary
281
     1
  0
DICTIONARY
  5
17
102
{ACAD_REACTORS
330
C
102
}
330
C
100
AcDbDictionary
281
     1
  3
Standard
350
18
  0
DICTIONARY
  5
19
102
{ACAD_REACTORS
330
C
102
}
330
C
100
AcDbDictionary
281
     1
  0
ACDBDICTIONARYWDFLT
  5
E
102
{ACAD_REACTORS
330
C
102
}
330
C
100
AcDbDictionary
281
     1
  3
Normal
350
F
100
AcDbDictionaryWithDefault
340
F
  0
DICTIONARY
  5
2A
102
{ACAD_REACTORS
330
C
102
}
330
C
100
AcDbDictionary
281
     1
  3
2dWireframe
350
2F
  3
3D Hidden
350
31
  3
3dWireframe
350
30
  3
Basic
350
32
  3
Brighten
350
36
  3
ColorChange
350
3A
  3
Conceptual
350
34
  3
Dim
350
35
  3
Facepattern
350
39
  3
Flat
350
2B
  3
FlatWithEdges
350
2C
  3
Gouraud
350
2D
  3
GouraudWithEdges
350
2E
  3
Linepattern
350
38
  3
Realistic
350
33
  3
Thicken
350
37
  0
DICTIONARY
  5
4A9
102
{ACAD_REACTORS
330
C
102
}
330
C
100
AcDbDictionary
281
     1
  3
DIMASSOC
350
4AC
  3
HIDETEXT
350
4AD
  0
LAYOUT
  5
1E
102
{ACAD_REACTORS
330
1A
102
}
330
1A
100
AcDbPlotSettings
  1

  2
none_device
  4

  6

 40
0.0
 41
0.0
 42
0.0
 43
0.0
 44
0.0
 45
0.0
 46
0.0
 47
0.0
 48
0.0
 49
0.0
140
0.0
141
0.0
142
1.0
143
1.0
 70
   688
 72
     0
 73
     0
 74
     5
  7

 75
    16
147
1.0
148
0.0
149
0.0
100
AcDbLayout
  1
Layout1
 70
     1
 71
     1
 10
0.0
 20
0.0
 11
12.0
 21
9.0
 12
0.0
 22
0.0
 32
0.0
 14
1.00000000000000E+20
 24
1.00000000000000E+20
 34
1.00000000000000E+20
 15
-1.00000000000000E+20
 25
-1.00000000000000E+20
 35
-1.00000000000000E+20
146
0.0
 13
0.0
 23
0.0
 33
0.0
 16
1.0
 26
0.0
 36
0.0
 17
0.0
 27
1.0
 37
0.0
 76
     0
330
1B
  0
LAYOUT
  5
26
102
{ACAD_REACTORS
330
1A
102
}
330
1A
100
AcDbPlotSettings
  1

  2
none_device
  4

  6

 40
0.0
 41
0.0
 42
0.0
 43
0.0
 44
0.0
 45
0.0
 46
0.0
 47
0.0
 48
0.0
 49
0.0
140
0.0
141
0.0
142
1.0
143
1.0
 70
   688
 72
     0
 73
     0
 74
     5
  7

 75
    16
147
1.0
148
0.0
149
0.0
100
AcDbLayout
  1
Layout2
 70
     1
 71
     2
 10
0.0
 20
0.0
 11
0.0
 21
0.0
 12
0.0
 22
0.0
 32
0.0
 14
0.0
 24
0.0
 34
0.0
 15
0.0
 25
0.0
 35
0.0
146
0.0
 13
0.0
 23
0.0
 33
0.0
 16
1.0
 26
0.0
 36
0.0
 17
0.0
 27
1.0
 37
0.0
 76
     0
330
23
  0
LAYOUT
  5
22
102
{ACAD_REACTORS
330
1A
102
}
330
1A
100
AcDbPlotSettings
  1

  2
none_device
  4

  6

 40
0.0
 41
0.0
 42
0.0
 43
0.0
 44
0.0
 45
0.0
 46
0.0
 47
0.0
 48
0.0
 49
0.0
140
0.0
141
0.0
142
1.0
143
1.0
 70
  1712
 72
     0
 73
     0
 74
     0
  7

 75
     0
147
1.0
148
0.0
149
0.0
100
AcDbLayout
  1
Model
 70
     1
 71
     0
 10
0.0
 20
0.0
 11
12.0
 21
9.0
 12
0.0
 22
0.0
 32
0.0
 14
0.0
 24
0.0
 34
0.0
 15
840.0
 25
1188.0
 35
0.0
146
0.0
 13
0.0
 23
0.0
 33
0.0
 16
1.0
 26
0.0
 36
0.0
 17
0.0
 27
1.0
 37
0.0
 76
     0
330
1F
331
29
  0
MATERIAL
  5
3D
102
{ACAD_REACTORS
330
3B
102
}
102
{ACAD_XDICTIONARY
360
4D0
102
}
330
3B
100
AcDbMaterial
  1
ByBlock
  0
MATERIAL
  5
3C
102
{ACAD_REACTORS
330
3B
102
}
102
{ACAD_XDICTIONARY
360
4CE
102
}
330
3B
100
AcDbMaterial
  1
ByLayer
  0
MATERIAL
  5
3E
102
{ACAD_REACTORS
330
3B
102
}
102
{ACAD_XDICTIONARY
360
4D2
102
}
330
3B
100
AcDbMaterial
  1
Global
  0
MLINESTYLE
  5
18
102
{ACAD_REACTORS
330
17
102
}
330
17
100
AcDbMlineStyle
  2
Standard
 70
     0
  3

 62
   256
 51
90.0
 52
90.0
 71
     2
 49
0.5
 62
   256
  6
BYLAYER
 49
-0.5
 62
   256
  6
BYLAYER
  0
ACDBPLACEHOLDER
  5
F
102
{ACAD_REACTORS
330
E
102
}
330
E
  0
VISUALSTYLE
  5
2F
102
{ACAD_REACTORS
330
2A
102
}
102
{ACAD_XDICTIONARY
360
4B6
102
}
330
2A
100
AcDbVisualStyle
  2
2dWireframe
 70
     4
 71
     0
 72
     2
 73
     0
 90
        0
 40
-0.6
 41
-30.0
 62
     5
 63
     7
 74
     1
 91
        4
 64
     7
 65
   257
 75
     1
175
     1
 42
1.0
 92
        0
 66
   257
 43
1.0
 76
     1
 77
     6
 78
     2
 67
     7
 79
     5
170
     0
171
     0
290
     0
174
     0
 93
        1
 44
0.0
173
     0
291
     0
 45
0.0
1001
ACAD
1000
AcDbSavedByObjectVersion
1070
     0
  0
VISUALSTYLE
  5
31
102
{ACAD_REACTORS
330
2A
102
}
102
{ACAD_XDICTIONARY
360
4BA
102
}
330
2A
100
AcDbVisualStyle
  2
3D Hidden
 70
     6
 71
     1
 72
     2
 73
     2
 90
        0
 40
-0.6
 41
-30.0
 62
     5
 63
     7
 74
     2
 91
        2
 64
     7
 65
   257
 75
     2
175
     1
 42
40.0
 92
        0
 66
   257
 43
1.0
 76
     1
 77
     6
 78
     2
 67
     7
 79
     3
170
     0
171
     0
290
     0
174
     0
 93
        1
 44
0.0
173
     0
291
     0
 45
0.0
1001
ACAD
1000
AcDbSavedByObjectVersion
1070
     0
  0
VISUALSTYLE
  5
30
102
{ACAD_REACTORS
330
2A
102
}
102
{ACAD_XDICTIONARY
360
4B8
102
}
330
2A
100
AcDbVisualStyle
  2
3dWireframe
 70
     5
 71
     0
 72
     2
 73
     0
 90
        0
 40
-0.6
 41
-30.0
 62
     5
 63
     7
 74
     1
 91
        4
 64
     7
 65
   257
 75
     1
175
     1
 42
1.0
 92
        0
 66
   257
 43
1.0
 76
     1
 77
     6
 78
     2
 67
     7
 79
     5
170
     0
171
     0
290
     0
174
     0
 93
        1
 44
0.0
173
     0
291
     0
 45
0.0
1001
ACAD
1000
AcDbSavedByObjectVersion
1070
     0
  0
VISUALSTYLE
  5
32
102
{ACAD_REACTORS
330
2A
102
}
102
{ACAD_XDICTIONARY
360
4BC
102
}
330
2A
100
AcDbVisualStyle
  2
Basic
 70
     7
 71
     1
 72
     0
 73
     1
 90
        0
 40
-0.6
 41
-30.0
 62
     5
 63
     7
 74
     0
 91
        4
 64
     7
 65
   257
 75
     1
175
     1
 42
1.0
 92
        8
 66
     7
 43
1.0
 76
     1
 77
     6
 78
     2
 67
     7
 79
     5
170
     0
171
     0
290
     0
174
     0
 93
        1
 44
0.0
173
     0
291
     1
 45
0.0
1001
ACAD
1000
AcDbSavedByObjectVersion
1070
     0
  0
VISUALSTYLE
  5
36
102
{ACAD_REACTORS
330
2A
102
}
102
{ACAD_XDICTIONARY
360
4C4
102
}
330
2A
100
AcDbVisualStyle
  2
Brighten
 70
    12
 71
     2
 72
     2
 73
     0
 90
        0
 40
-0.6
 41
-30.0
 62
     5
 63
     7
 74
     1
 91
        4
 64
     7
 65
   257
 75
     1
175
     1
 42
1.0
 92
        8
 66
     7
 43
1.0
 76
     1
 77
     6
 78
     2
 67
     7
 79
     5
170
     0
171
     0
290
     0
174
     0
 93
        1
 44
50.0
173
     0
291
     1
 45
0.0
1001
ACAD
1000
AcDbSavedByObjectVersion
1070
     0
  0
VISUALSTYLE
  5
3A
102
{ACAD_REACTORS
330
2A
102
}
102
{ACAD_XDICTIONARY
360
4CC
102
}
330
2A
100
AcDbVisualStyle
  2
ColorChange
 70
    16
 71
     2
 72
     2
 73
     3
 90
        0
 40
-0.6
 41
-30.0
 62
     5
 63
     8
 74
     1
 91
        4
 64
     7
 65
   257
 75
     1
175
     1
 42
1.0
 92
        8
 66
     8
 43
1.0
 76
     1
 77
     6
 78
     2
 67
     7
 79
     5
170
     0
171
     0
290
     0
174
     0
 93
        1
 44
0.0
173
     0
291
     1
 45
0.0
1001
ACAD
1000
AcDbSavedByObjectVersion
1070
     0
  0
VISUALSTYLE
  5
34
102
{ACAD_REACTORS
330
2A
102
}
102
{ACAD_XDICTIONARY
360
4C0
102
}
330
2A
100
AcDbVisualStyle
  2
Conceptual
 70
     9
 71
     3
 72
     2
 73
     0
 90
        0
 40
-0.6
 41
-30.0
 62
     5
 63
     7
 74
     2
 91
        2
 64
     7
 65
   257
 75
     1
175
     1
 42
40.0
 92
        8
 66
     7
 43
1.0
 76
     1
 77
     6
 78
     2
 67
     7
 79
     3
170
     0
171
     0
290
     0
174
     0
 93
        1
 44
0.0
173
     0
291
     0
 45
0.0
1001
ACAD
1000
AcDbSavedByObjectVersion
1070
     0
  0
VISUALSTYLE
  5
35
102
{ACAD_REACTORS
330
2A
102
}
102
{ACAD_XDICTIONARY
360
4C2
102
}
330
2A
100
AcDbVisualStyle
  2
Dim
 70
    11
 71
     2
 72
     2
 73
     0
 90
        0
 40
-0.6
 41
-30.0
 62
     5
 63
     7
 74
     1
 91
        4
 64
     7
 65
   257
 75
     1
175
     1
 42
1.0
 92
        8
 66
     7
 43
1.0
 76
     1
 77
     6
 78
     2
 67
     7
 79
     5
170
     0
171
     0
290
     0
174
     0
 93
        1
 44
-50.0
173
     0
291
     1
 45
0.0
1001
ACAD
1000
AcDbSavedByObjectVersion
1070
     0
  0
VISUALSTYLE
  5
39
102
{ACAD_REACTORS
330
2A
102
}
102
{ACAD_XDICTIONARY
360
4CA
102
}
330
2A
100
AcDbVisualStyle
  2
Facepattern
 70
    15
 71
     2
 72
     2
 73
     0
 90
        0
 40
-0.6
 41
-30.0
 62
     5
 63
     7
 74
     1
 91
        4
 64
     7
 65
   257
 75
     1
175
     1
 42
1.0
 92
        8
 66
     7
 43
1.0
 76
     1
 77
     6
 78
     2
 67
     7
 79
     5
170
     0
171
     0
290
     0
174
     0
 93
        1
 44
0.0
173
     0
291
     1
 45
0.0
1001
ACAD
1000
AcDbSavedByObjectVersion
1070
     0
  0
VISUALSTYLE
  5
2B
102
{ACAD_REACTORS
330
2A
102
}
102
{ACAD_XDICTIONARY
360
4AE
102
}
330
2A
100
AcDbVisualStyle
  2
Flat
 70
     0
 71
     2
 72
     1
 73
     1
 90
        2
 40
-0.6
 41
30.0
 62
     5
 63
     7
 74
     0
 91
        4
 64
     7
 65
   257
 75
     1
175
     1
 42
1.0
 92
        8
 66
     7
 43
1.0
 76
     1
 77
     6
 78
     2
 67
     7
 79
     5
170
     0
171
     0
290
     0
174
     0
 93
       13
 44
0.0
173
     0
291
     1
 45
0.0
1001
ACAD
1000
AcDbSavedByObjectVersion
1070
     0
  0
VISUALSTYLE
  5
2C
102
{ACAD_REACTORS
330
2A
102
}
102
{ACAD_XDICTIONARY
360
4B0
102
}
330
2A
100
AcDbVisualStyle
  2
FlatWithEdges
 70
     1
 71
     2
 72
     1
 73
     1
 90
        2
 40
-0.6
 41
30.0
 62
     5
 63
     7
 74
     1
 91
        4
 64
     7
 65
   257
 75
     1
175
     1
 42
1.0
 92
        0
 66
   257
 43
1.0
 76
     1
 77
     6
 78
     2
 67
     7
 79
     5
170
     0
171
     0
290
     0
174
     0
 93
       13
 44
0.0
173
     0
291
     1
 45
0.0
1001
ACAD
1000
AcDbSavedByObjectVersion
1070
     0
  0
VISUALSTYLE
  5
2D
102
{ACAD_REACTORS
330
2A
102
}
102
{ACAD_XDICTIONARY
360
4B2
102
}
330
2A
100
AcDbVisualStyle
  2
Gouraud
 70
     2
 71
     2
 72
     2
 73
     1
 90
        2
 40
-0.6
 41
30.0
 62
     5
 63
     7
 74
     0
 91
        4
 64
     7
 65
   257
 75
     1
175
     1
 42
1.0
 92
        0
 66
     7
 43
1.0
 76
     1
 77
     6
 78
     2
 67
     7
 79
     5
170
     0
171
     0
290
     0
174
     0
 93
       13
 44
0.0
173
     0
291
     1
 45
0.0
1001
ACAD
1000
AcDbSavedByObjectVersion
1070
     0
  0
VISUALSTYLE
  5
2E
102
{ACAD_REACTORS
330
2A
102
}
102
{ACAD_XDICTIONARY
360
4B4
102
}
330
2A
100
AcDbVisualStyle
  2
GouraudWithEdges
 70
     3
 71
     2
 72
     2
 73
     1
 90
        2
 40
-0.6
 41
30.0
 62
     5
 63
     7
 74
     1
 91
        4
 64
     7
 65
   257
 75
     1
175
     1
 42
1.0
 92
        0
 66
   257
 43
1.0
 76
     1
 77
     6
 78
     2
 67
     7
 79
     5
170
     0
171
     0
290
     0
174
     0
 93
       13
 44
0.0
173
     0
291
     1
 45
0.0
1001
ACAD
1000
AcDbSavedByObjectVersion
1070
     0
  0
VISUALSTYLE
  5
38
102
{ACAD_REACTORS
330
2A
102
}
102
{ACAD_XDICTIONARY
360
4C8
102
}
330
2A
100
AcDbVisualStyle
  2
Linepattern
 70
    14
 71
     2
 72
     2
 73
     0
 90
        0
 40
-0.6
 41
-30.0
 62
     5
 63
     7
 74
     1
 91
        4
 64
     7
 65
   257
 75
     7
175
     7
 42
1.0
 92
        8
 66
     7
 43
1.0
 76
     1
 77
     6
 78
     2
 67
     7
 79
     5
170
     0
171
     0
290
     0
174
     0
 93
        1
 44
0.0
173
     0
291
     1
 45
0.0
1001
ACAD
1000
AcDbSavedByObjectVersion
1070
     0
  0
VISUALSTYLE
  5
33
102
{ACAD_REACTORS
330
2A
102
}
102
{ACAD_XDICTIONARY
360
4BE
102
}
330
2A
100
AcDbVisualStyle
  2
Realistic
 70
     8
 71
     2
 72
     2
 73
     0
 90
        0
 40
-0.6
 41
-30.0
 62
     5
 63
     7
 74
     1
 91
        0
 64
     7
 65
   257
 75
     1
175
     1
 42
1.0
 92
        8
 66
     8
 43
1.0
 76
     1
 77
     6
 78
     2
 67
     7
 79
     5
170
     0
171
     0
290
     0
174
     0
 93
       13
 44
0.0
173
     0
291
     0
 45
0.0
1001
ACAD
1000
AcDbSavedByObjectVersion
1070
     0
  0
VISUALSTYLE
  5
37
102
{ACAD_REACTORS
330
2A
102
}
102
{ACAD_XDICTIONARY
360
4C6
102
}
330
2A
100
AcDbVisualStyle
  2
Thicken
 70
    13
 71
     2
 72
     2
 73
     0
 90
        0
 40
-0.6
 41
-30.0
 62
     5
 63
     7
 74
     1
 91
        4
 64
     7
 65
   257
 75
     1
175
     1
 42
1.0
 92
       12
 66
     7
 43
1.0
 76
     1
 77
     6
 78
     2
 67
     7
 79
     5
170
     0
171
     0
290
     0
174
     0
 93
        1
 44
0.0
173
     0
291
     1
 45
0.0
1001
ACAD
1000
AcDbSavedByObjectVersion
1070
     0
  0
DICTIONARYVAR
  5
4AC
102
{ACAD_REACTORS
330
4A9
102
}
330
4A9
100
DictionaryVariables
280
     0
  1
2
  0
DICTIONARYVAR
  5
4AD
102
{ACAD_REACTORS
330
4A9
102
}
330
4A9
100
DictionaryVariables
280
     0
  1
1
  0
DICTIONARY
  5
4D0
330
3D
100
AcDbDictionary
280
     1
281
     1
  3
ACAD_XREC_ROUNDTRIP
360
4D1
  0
DICTIONARY
  5
4CE
330
3C
100
AcDbDictionary
280
     1
281
     1
  3
ACAD_XREC_ROUNDTRIP
360
4CF
  0
DICTIONARY
  5
4D2
330
3E
100
AcDbDictionary
280
     1
281
     1
  3
ACAD_XREC_ROUNDTRIP
360
4D3
  0
DICTIONARY
  5
4B6
330
2F
100
AcDbDictionary
280
     1
281
     1
  3
ACAD_XREC_ROUNDTRIP
360
4B7
  0
DICTIONARY
  5
4BA
330
31
100
AcDbDictionary
280
     1
281
     1
  3
ACAD_XREC_ROUNDTRIP
360
4BB
  0
DICTIONARY
  5
4B8
330
30
100
AcDbDictionary
280
     1
281
     1
  3
ACAD_XREC_ROUNDTRIP
360
4B9
  0
DICTIONARY
  5
4BC
330
32
100
AcDbDictionary
280
     1
281
     1
  3
ACAD_XREC_ROUNDTRIP
360
4BD
  0
DICTIONARY
  5
4C4
330
36
100
AcDbDictionary
280
     1
281
     1
  3
ACAD_XREC_ROUNDTRIP
360
4C5
  0
DICTIONARY
  5
4CC
330
3A
100
AcDbDictionary
280
     1
281
     1
  3
ACAD_XREC_ROUNDTRIP
360
4CD
  0
DICTIONARY
  5
4C0
330
34
100
AcDbDictionary
280
     1
281
     1
  3
ACAD_XREC_ROUNDTRIP
360
4C1
  0
DICTIONARY
  5
4C2
330
35
100
AcDbDictionary
280
     1
281
     1
  3
ACAD_XREC_ROUNDTRIP
360
4C3
  0
DICTIONARY
  5
4CA
330
39
100
AcDbDictionary
280
     1
281
     1
  3
ACAD_XREC_ROUNDTRIP
360
4CB
  0
DICTIONARY
  5
4AE
330
2B
100
AcDbDictionary
280
     1
281
     1
  3
ACAD_XREC_ROUNDTRIP
360
4AF
  0
DICTIONARY
  5
4B0
330
2C
100
AcDbDictionary
280
     1
281
     1
  3
ACAD_XREC_ROUNDTRIP
360
4B1
  0
DICTIONARY
  5
4B2
330
2D
100
AcDbDictionary
280
     1
281
     1
  3
ACAD_XREC_ROUNDTRIP
360
4B3
  0
DICTIONARY
  5
4B4
330
2E
100
AcDbDictionary
280
     1
281
     1
  3
ACAD_XREC_ROUNDTRIP
360
4B5
  0
DICTIONARY
  5
4C8
330
38
100
AcDbDictionary
280
     1
281
     1
  3
ACAD_XREC_ROUNDTRIP
360
4C9
  0
DICTIONARY
  5
4BE
330
33
100
AcDbDictionary
280
     1
281
     1
  3
ACAD_XREC_ROUNDTRIP
360
4BF
  0
DICTIONARY
  5
4C6
330
37
100
AcDbDictionary
280
     1
281
     1
  3
ACAD_XREC_ROUNDTRIP
360
4C7
  0
XRECORD
  5
4D1
102
{ACAD_REACTORS
330
4D0
102
}
330
4D0
100
AcDbXrecord
280
     1
102
MATERIAL
148
0.0
149
0.0
149
0.0
 93
        0
 94
      127
282
     0
 72
     1
 77
     1
171
     1
175
     1
179
     1
273
     0
  0
XRECORD
  5
4CF
102
{ACAD_REACTORS
330
4CE
102
}
330
4CE
100
AcDbXrecord
280
     1
102
MATERIAL
148
0.0
149
0.0
149
0.0
 93
        0
 94
      127
282
     0
 72
     1
 77
     1
171
     1
175
     1
179
     1
273
     0
  0
XRECORD
  5
4D3
102
{ACAD_REACTORS
330
4D2
102
}
330
4D2
100
AcDbXrecord
280
     1
102
MATERIAL
148
0.0
149
0.0
149
0.0
 93
        0
 94
      127
282
     0
 72
     1
 77
     1
171
     1
175
     1
179
     1
273
     0
  0
XRECORD
  5
4B7
102
{ACAD_REACTORS
330
4B6
102
}
330
4B6
100
AcDbXrecord
280
     1
102
RTVSPropertyOp0
 70
     1
102
RTVSPropertyOp1
 70
     1
102
RTVSPropertyOp2
 70
     1
102
RTVSPropertyOp3
 70
     1
102
RTVSPropertyOp4
 70
     1
102
RTVSPropertyOp5
 70
     1
102
RTVSPropertyOp6
 70
     1
102
RTVSPropertyOp7
 70
     1
102
RTVSPropertyOp8
 70
     1
102
RTVSPropertyOp9
 70
     1
102
RTVSPropertyOp10
 70
     1
102
RTVSPropertyOp11
 70
     1
102
RTVSPropertyOp12
 70
     1
102
RTVSPropertyOp13
 70
     1
102
RTVSPropertyOp14
 70
     1
102
RTVSPropertyOp15
 70
     1
102
RTVSPropertyOp16
 70
     1
102
RTVSPropertyOp17
 70
     1
102
RTVSPropertyOp18
 70
     1
102
RTVSPropertyOp19
 70
     1
102
RTVSPropertyOp20
 70
     1
102
RTVSPropertyOp21
 70
     1
102
RTVSPropertyOp22
 70
     1
102
RTVSPropertyOp23
 70
     1
102
RTVSPropertyOp24
 70
     1
102
RTVSPropertyOp25
 70
     1
102
RTVSPropertyOp26
 70
     1
102
RTVSPropertyOp27
 70
     1
102
RTVSPropertyOp28
 70
     1
102
RTVSPropertyOp29
 70
     1
102
RTVSPropertyOp30
 70
     1
102
RTVSPropertyOp31
 70
     1
102
RTVSPropertyOp32
 70
     1
  0
XRECORD
  5
4BB
102
{ACAD_REACTORS
330
4BA
102
}
330
4BA
100
AcDbXrecord
280
     1
102
RTVSPropertyOp0
 70
     1
102
RTVSPropertyOp1
 70
     1
102
RTVSPropertyOp2
 70
     1
102
RTVSPropertyOp3
 70
     1
102
RTVSPropertyOp4
 70
     1
102
RTVSPropertyOp5
 70
     1
102
RTVSPropertyOp6
 70
     1
102
RTVSPropertyOp7
 70
     1
102
RTVSPropertyOp8
 70
     1
102
RTVSPropertyOp9
 70
     1
102
RTVSPropertyOp10
 70
     1
102
RTVSPropertyOp11
 70
     1
102
RTVSPropertyOp12
 70
     1
102
RTVSPropertyOp13
 70
     1
102
RTVSPropertyOp14
 70
     1
102
RTVSPropertyOp15
 70
     1
102
RTVSPropertyOp16
 70
     1
102
RTVSPropertyOp17
 70
     1
102
RTVSPropertyOp18
 70
     1
102
RTVSPropertyOp19
 70
     1
102
RTVSPropertyOp20
 70
     1
102
RTVSPropertyOp21
 70
     1
102
RTVSPropertyOp22
 70
     1
102
RTVSPropertyOp23
 70
     1
102
RTVSPropertyOp24
 70
     1
102
RTVSPropertyOp25
 70
     1
102
RTVSPropertyOp26
 70
     1
102
RTVSPropertyOp27
 70
     1
102
RTVSPropertyOp28
 70
     1
102
RTVSPropertyOp29
 70
     1
102
RTVSPropertyOp30
 70
     1
102
RTVSPropertyOp31
 70
     1
102
RTVSPropertyOp32
 70
     1
  0
XRECORD
  5
4B9
102
{ACAD_REACTORS
330
4B8
102
}
330
4B8
100
AcDbXrecord
280
     1
102
RTVSPropertyOp0
 70
     1
102
RTVSPropertyOp1
 70
     1
102
RTVSPropertyOp2
 70
     1
102
RTVSPropertyOp3
 70
     1
102
RTVSPropertyOp4
 70
     1
102
RTVSPropertyOp5
 70
     1
102
RTVSPropertyOp6
 70
     1
102
RTVSPropertyOp7
 70
     1
102
RTVSPropertyOp8
 70
     1
102
RTVSPropertyOp9
 70
     1
102
RTVSPropertyOp10
 70
     1
102
RTVSPropertyOp11
 70
     1
102
RTVSPropertyOp12
 70
     1
102
RTVSPropertyOp13
 70
     1
102
RTVSPropertyOp14
 70
     1
102
RTVSPropertyOp15
 70
     1
102
RTVSPropertyOp16
 70
     1
102
RTVSPropertyOp17
 70
     1
102
RTVSPropertyOp18
 70
     1
102
RTVSPropertyOp19
 70
     1
102
RTVSPropertyOp20
 70
     1
102
RTVSPropertyOp21
 70
     1
102
RTVSPropertyOp22
 70
     1
102
RTVSPropertyOp23
 70
     1
102
RTVSPropertyOp24
 70
     1
102
RTVSPropertyOp25
 70
     1
102
RTVSPropertyOp26
 70
     1
102
RTVSPropertyOp27
 70
     1
102
RTVSPropertyOp28
 70
     1
102
RTVSPropertyOp29
 70
     1
102
RTVSPropertyOp30
 70
     1
102
RTVSPropertyOp31
 70
     1
102
RTVSPropertyOp32
 70
     1
  0
XRECORD
  5
4BD
102
{ACAD_REACTORS
330
4BC
102
}
330
4BC
100
AcDbXrecord
280
     1
102
RTVSPropertyOp0
 70
     1
102
RTVSPropertyOp1
 70
     1
102
RTVSPropertyOp2
 70
     1
102
RTVSPropertyOp3
 70
     1
102
RTVSPropertyOp4
 70
     1
102
RTVSPropertyOp5
 70
     1
102
RTVSPropertyOp6
 70
     1
102
RTVSPropertyOp7
 70
     1
102
RTVSPropertyOp8
 70
     1
102
RTVSPropertyOp9
 70
     1
102
RTVSPropertyOp10
 70
     1
102
RTVSPropertyOp11
 70
     1
102
RTVSPropertyOp12
 70
     1
102
RTVSPropertyOp13
 70
     1
102
RTVSPropertyOp14
 70
     1
102
RTVSPropertyOp15
 70
     1
102
RTVSPropertyOp16
 70
     1
102
RTVSPropertyOp17
 70
     1
102
RTVSPropertyOp18
 70
     1
102
RTVSPropertyOp19
 70
     1
102
RTVSPropertyOp20
 70
     1
102
RTVSPropertyOp21
 70
     1
102
RTVSPropertyOp22
 70
     1
102
RTVSPropertyOp23
 70
     1
102
RTVSPropertyOp24
 70
     1
102
RTVSPropertyOp25
 70
     1
102
RTVSPropertyOp26
 70
     1
102
RTVSPropertyOp27
 70
     1
102
RTVSPropertyOp28
 70
     1
102
RTVSPropertyOp29
 70
     1
102
RTVSPropertyOp30
 70
     1
102
RTVSPropertyOp31
 70
     1
102
RTVSPropertyOp32
 70
     1
  0
XRECORD
  5
4C5
102
{ACAD_REACTORS
330
4C4
102
}
330
4C4
100
AcDbXrecord
280
     1
102
RTVSPropertyOp0
 70
     1
102
RTVSPropertyOp1
 70
     1
102
RTVSPropertyOp2
 70
     1
102
RTVSPropertyOp3
 70
     1
102
RTVSPropertyOp4
 70
     1
102
RTVSPropertyOp5
 70
     1
102
RTVSPropertyOp6
 70
     1
102
RTVSPropertyOp7
 70
     1
102
RTVSPropertyOp8
 70
     1
102
RTVSPropertyOp9
 70
     1
102
RTVSPropertyOp10
 70
     1
102
RTVSPropertyOp11
 70
     1
102
RTVSPropertyOp12
 70
     1
102
RTVSPropertyOp13
 70
     1
102
RTVSPropertyOp14
 70
     1
102
RTVSPropertyOp15
 70
     1
102
RTVSPropertyOp16
 70
     1
102
RTVSPropertyOp17
 70
     1
102
RTVSPropertyOp18
 70
     1
102
RTVSPropertyOp19
 70
     1
102
RTVSPropertyOp20
 70
     1
102
RTVSPropertyOp21
 70
     1
102
RTVSPropertyOp22
 70
     1
102
RTVSPropertyOp23
 70
     1
102
RTVSPropertyOp24
 70
     1
102
RTVSPropertyOp25
 70
     1
102
RTVSPropertyOp26
 70
     1
102
RTVSPropertyOp27
 70
     1
102
RTVSPropertyOp28
 70
     1
102
RTVSPropertyOp29
 70
     1
102
RTVSPropertyOp30
 70
     1
102
RTVSPropertyOp31
 70
     1
102
RTVSPropertyOp32
 70
     1
  0
XRECORD
  5
4CD
102
{ACAD_REACTORS
330
4CC
102
}
330
4CC
100
AcDbXrecord
280
     1
102
RTVSPropertyOp0
 70
     1
102
RTVSPropertyOp1
 70
     1
102
RTVSPropertyOp2
 70
     1
102
RTVSPropertyOp3
 70
     1
102
RTVSPropertyOp4
 70
     1
102
RTVSPropertyOp5
 70
     1
102
RTVSPropertyOp6
 70
     1
102
RTVSPropertyOp7
 70
     1
102
RTVSPropertyOp8
 70
     1
102
RTVSPropertyOp9
 70
     1
102
RTVSPropertyOp10
 70
     1
102
RTVSPropertyOp11
 70
     1
102
RTVSPropertyOp12
 70
     1
102
RTVSPropertyOp13
 70
     1
102
RTVSPropertyOp14
 70
     1
102
RTVSPropertyOp15
 70
     1
102
RTVSPropertyOp16
 70
     1
102
RTVSPropertyOp17
 70
     1
102
RTVSPropertyOp18
 70
     1
102
RTVSPropertyOp19
 70
     1
102
RTVSPropertyOp20
 70
     1
102
RTVSPropertyOp21
 70
     1
102
RTVSPropertyOp22
 70
     1
102
RTVSPropertyOp23
 70
     1
102
RTVSPropertyOp24
 70
     1
102
RTVSPropertyOp25
 70
     1
102
RTVSPropertyOp26
 70
     1
102
RTVSPropertyOp27
 70
     1
102
RTVSPropertyOp28
 70
     1
102
RTVSPropertyOp29
 70
     1
102
RTVSPropertyOp30
 70
     1
102
RTVSPropertyOp31
 70
     1
102
RTVSPropertyOp32
 70
     1
  0
XRECORD
  5
4C1
102
{ACAD_REACTORS
330
4C0
102
}
330
4C0
100
AcDbXrecord
280
     1
102
RTVSPropertyOp0
 70
     1
102
RTVSPropertyOp1
 70
     1
102
RTVSPropertyOp2
 70
     1
102
RTVSPropertyOp3
 70
     1
102
RTVSPropertyOp4
 70
     1
102
RTVSPropertyOp5
 70
     1
102
RTVSPropertyOp6
 70
     1
102
RTVSPropertyOp7
 70
     1
102
RTVSPropertyOp8
 70
     1
102
RTVSPropertyOp9
 70
     1
102
RTVSPropertyOp10
 70
     1
102
RTVSPropertyOp11
 70
     1
102
RTVSPropertyOp12
 70
     1
102
RTVSPropertyOp13
 70
     1
102
RTVSPropertyOp14
 70
     1
102
RTVSPropertyOp15
 70
     1
102
RTVSPropertyOp16
 70
     1
102
RTVSPropertyOp17
 70
     1
102
RTVSPropertyOp18
 70
     1
102
RTVSPropertyOp19
 70
     1
102
RTVSPropertyOp20
 70
     1
102
RTVSPropertyOp21
 70
     1
102
RTVSPropertyOp22
 70
     1
102
RTVSPropertyOp23
 70
     1
102
RTVSPropertyOp24
 70
     1
102
RTVSPropertyOp25
 70
     1
102
RTVSPropertyOp26
 70
     1
102
RTVSPropertyOp27
 70
     1
102
RTVSPropertyOp28
 70
     1
102
RTVSPropertyOp29
 70
     1
102
RTVSPropertyOp30
 70
     1
102
RTVSPropertyOp31
 70
     1
102
RTVSPropertyOp32
 70
     1
  0
XRECORD
  5
4C3
102
{ACAD_REACTORS
330
4C2
102
}
330
4C2
100
AcDbXrecord
280
     1
102
RTVSPropertyOp0
 70
     1
102
RTVSPropertyOp1
 70
     1
102
RTVSPropertyOp2
 70
     1
102
RTVSPropertyOp3
 70
     1
102
RTVSPropertyOp4
 70
     1
102
RTVSPropertyOp5
 70
     1
102
RTVSPropertyOp6
 70
     1
102
RTVSPropertyOp7
 70
     1
102
RTVSPropertyOp8
 70
     1
102
RTVSPropertyOp9
 70
     1
102
RTVSPropertyOp10
 70
     1
102
RTVSPropertyOp11
 70
     1
102
RTVSPropertyOp12
 70
     1
102
RTVSPropertyOp13
 70
     1
102
RTVSPropertyOp14
 70
     1
102
RTVSPropertyOp15
 70
     1
102
RTVSPropertyOp16
 70
     1
102
RTVSPropertyOp17
 70
     1
102
RTVSPropertyOp18
 70
     1
102
RTVSPropertyOp19
 70
     1
102
RTVSPropertyOp20
 70
     1
102
RTVSPropertyOp21
 70
     1
102
RTVSPropertyOp22
 70
     1
102
RTVSPropertyOp23
 70
     1
102
RTVSPropertyOp24
 70
     1
102
RTVSPropertyOp25
 70
     1
102
RTVSPropertyOp26
 70
     1
102
RTVSPropertyOp27
 70
     1
102
RTVSPropertyOp28
 70
     1
102
RTVSPropertyOp29
 70
     1
102
RTVSPropertyOp30
 70
     1
102
RTVSPropertyOp31
 70
     1
102
RTVSPropertyOp32
 70
     1
  0
XRECORD
  5
4CB
102
{ACAD_REACTORS
330
4CA
102
}
330
4CA
100
AcDbXrecord
280
     1
102
RTVSPropertyOp0
 70
     1
102
RTVSPropertyOp1
 70
     1
102
RTVSPropertyOp2
 70
     1
102
RTVSPropertyOp3
 70
     1
102
RTVSPropertyOp4
 70
     1
102
RTVSPropertyOp5
 70
     1
102
RTVSPropertyOp6
 70
     1
102
RTVSPropertyOp7
 70
     1
102
RTVSPropertyOp8
 70
     1
102
RTVSPropertyOp9
 70
     1
102
RTVSPropertyOp10
 70
     1
102
RTVSPropertyOp11
 70
     1
102
RTVSPropertyOp12
 70
     1
102
RTVSPropertyOp13
 70
     1
102
RTVSPropertyOp14
 70
     1
102
RTVSPropertyOp15
 70
     1
102
RTVSPropertyOp16
 70
     1
102
RTVSPropertyOp17
 70
     1
102
RTVSPropertyOp18
 70
     1
102
RTVSPropertyOp19
 70
     1
102
RTVSPropertyOp20
 70
     1
102
RTVSPropertyOp21
 70
     1
102
RTVSPropertyOp22
 70
     1
102
RTVSPropertyOp23
 70
     1
102
RTVSPropertyOp24
 70
     1
102
RTVSPropertyOp25
 70
     1
102
RTVSPropertyOp26
 70
     1
102
RTVSPropertyOp27
 70
     1
102
RTVSPropertyOp28
 70
     1
102
RTVSPropertyOp29
 70
     1
102
RTVSPropertyOp30
 70
     1
102
RTVSPropertyOp31
 70
     1
102
RTVSPropertyOp32
 70
     1
  0
XRECORD
  5
4AF
102
{ACAD_REACTORS
330
4AE
102
}
330
4AE
100
AcDbXrecord
280
     1
102
RTVSPropertyOp0
 70
     1
102
RTVSPropertyOp1
 70
     1
102
RTVSPropertyOp2
 70
     1
102
RTVSPropertyOp3
 70
     1
102
RTVSPropertyOp4
 70
     1
102
RTVSPropertyOp5
 70
     1
102
RTVSPropertyOp6
 70
     1
102
RTVSPropertyOp7
 70
     1
102
RTVSPropertyOp8
 70
     1
102
RTVSPropertyOp9
 70
     1
102
RTVSPropertyOp10
 70
     1
102
RTVSPropertyOp11
 70
     1
102
RTVSPropertyOp12
 70
     1
102
RTVSPropertyOp13
 70
     1
102
RTVSPropertyOp14
 70
     1
102
RTVSPropertyOp15
 70
     1
102
RTVSPropertyOp16
 70
     1
102
RTVSPropertyOp17
 70
     1
102
RTVSPropertyOp18
 70
     1
102
RTVSPropertyOp19
 70
     1
102
RTVSPropertyOp20
 70
     1
102
RTVSPropertyOp21
 70
     1
102
RTVSPropertyOp22
 70
     1
102
RTVSPropertyOp23
 70
     1
102
RTVSPropertyOp24
 70
     1
102
RTVSPropertyOp25
 70
     1
102
RTVSPropertyOp26
 70
     1
102
RTVSPropertyOp27
 70
     1
102
RTVSPropertyOp28
 70
     1
102
RTVSPropertyOp29
 70
     1
102
RTVSPropertyOp30
 70
     1
102
RTVSPropertyOp31
 70
     1
102
RTVSPropertyOp32
 70
     1
  0
XRECORD
  5
4B1
102
{ACAD_REACTORS
330
4B0
102
}
330
4B0
100
AcDbXrecord
280
     1
102
RTVSPropertyOp0
 70
     1
102
RTVSPropertyOp1
 70
     1
102
RTVSPropertyOp2
 70
     1
102
RTVSPropertyOp3
 70
     1
102
RTVSPropertyOp4
 70
     1
102
RTVSPropertyOp5
 70
     1
102
RTVSPropertyOp6
 70
     1
102
RTVSPropertyOp7
 70
     1
102
RTVSPropertyOp8
 70
     1
102
RTVSPropertyOp9
 70
     1
102
RTVSPropertyOp10
 70
     1
102
RTVSPropertyOp11
 70
     1
102
RTVSPropertyOp12
 70
     1
102
RTVSPropertyOp13
 70
     1
102
RTVSPropertyOp14
 70
     1
102
RTVSPropertyOp15
 70
     1
102
RTVSPropertyOp16
 70
     1
102
RTVSPropertyOp17
 70
     1
102
RTVSPropertyOp18
 70
     1
102
RTVSPropertyOp19
 70
     1
102
RTVSPropertyOp20
 70
     1
102
RTVSPropertyOp21
 70
     1
102
RTVSPropertyOp22
 70
     1
102
RTVSPropertyOp23
 70
     1
102
RTVSPropertyOp24
 70
     1
102
RTVSPropertyOp25
 70
     1
102
RTVSPropertyOp26
 70
     1
102
RTVSPropertyOp27
 70
     1
102
RTVSPropertyOp28
 70
     1
102
RTVSPropertyOp29
 70
     1
102
RTVSPropertyOp30
 70
     1
102
RTVSPropertyOp31
 70
     1
102
RTVSPropertyOp32
 70
     1
  0
XRECORD
  5
4B3
102
{ACAD_REACTORS
330
4B2
102
}
330
4B2
100
AcDbXrecord
280
     1
102
RTVSPropertyOp0
 70
     1
102
RTVSPropertyOp1
 70
     1
102
RTVSPropertyOp2
 70
     1
102
RTVSPropertyOp3
 70
     1
102
RTVSPropertyOp4
 70
     1
102
RTVSPropertyOp5
 70
     1
102
RTVSPropertyOp6
 70
     1
102
RTVSPropertyOp7
 70
     1
102
RTVSPropertyOp8
 70
     1
102
RTVSPropertyOp9
 70
     1
102
RTVSPropertyOp10
 70
     1
102
RTVSPropertyOp11
 70
     1
102
RTVSPropertyOp12
 70
     1
102
RTVSPropertyOp13
 70
     1
102
RTVSPropertyOp14
 70
     1
102
RTVSPropertyOp15
 70
     1
102
RTVSPropertyOp16
 70
     1
102
RTVSPropertyOp17
 70
     1
102
RTVSPropertyOp18
 70
     1
102
RTVSPropertyOp19
 70
     1
102
RTVSPropertyOp20
 70
     1
102
RTVSPropertyOp21
 70
     1
102
RTVSPropertyOp22
 70
     1
102
RTVSPropertyOp23
 70
     1
102
RTVSPropertyOp24
 70
     1
102
RTVSPropertyOp25
 70
     1
102
RTVSPropertyOp26
 70
     1
102
RTVSPropertyOp27
 70
     1
102
RTVSPropertyOp28
 70
     1
102
RTVSPropertyOp29
 70
     1
102
RTVSPropertyOp30
 70
     1
102
RTVSPropertyOp31
 70
     1
102
RTVSPropertyOp32
 70
     1
  0
XRECORD
  5
4B5
102
{ACAD_REACTORS
330
4B4
102
}
330
4B4
100
AcDbXrecord
280
     1
102
RTVSPropertyOp0
 70
     1
102
RTVSPropertyOp1
 70
     1
102
RTVSPropertyOp2
 70
     1
102
RTVSPropertyOp3
 70
     1
102
RTVSPropertyOp4
 70
     1
102
RTVSPropertyOp5
 70
     1
102
RTVSPropertyOp6
 70
     1
102
RTVSPropertyOp7
 70
     1
102
RTVSPropertyOp8
 70
     1
102
RTVSPropertyOp9
 70
     1
102
RTVSPropertyOp10
 70
     1
102
RTVSPropertyOp11
 70
     1
102
RTVSPropertyOp12
 70
     1
102
RTVSPropertyOp13
 70
     1
102
RTVSPropertyOp14
 70
     1
102
RTVSPropertyOp15
 70
     1
102
RTVSPropertyOp16
 70
     1
102
RTVSPropertyOp17
 70
     1
102
RTVSPropertyOp18
 70
     1
102
RTVSPropertyOp19
 70
     1
102
RTVSPropertyOp20
 70
     1
102
RTVSPropertyOp21
 70
     1
102
RTVSPropertyOp22
 70
     1
102
RTVSPropertyOp23
 70
     1
102
RTVSPropertyOp24
 70
     1
102
RTVSPropertyOp25
 70
     1
102
RTVSPropertyOp26
 70
     1
102
RTVSPropertyOp27
 70
     1
102
RTVSPropertyOp28
 70
     1
102
RTVSPropertyOp29
 70
     1
102
RTVSPropertyOp30
 70
     1
102
RTVSPropertyOp31
 70
     1
102
RTVSPropertyOp32
 70
     1
  0
XRECORD
  5
4C9
102
{ACAD_REACTORS
330
4C8
102
}
330
4C8
100
AcDbXrecord
280
     1
102
RTVSPropertyOp0
 70
     1
102
RTVSPropertyOp1
 70
     1
102
RTVSPropertyOp2
 70
     1
102
RTVSPropertyOp3
 70
     1
102
RTVSPropertyOp4
 70
     1
102
RTVSPropertyOp5
 70
     1
102
RTVSPropertyOp6
 70
     1
102
RTVSPropertyOp7
 70
     1
102
RTVSPropertyOp8
 70
     1
102
RTVSPropertyOp9
 70
     1
102
RTVSPropertyOp10
 70
     1
102
RTVSPropertyOp11
 70
     1
102
RTVSPropertyOp12
 70
     1
102
RTVSPropertyOp13
 70
     1
102
RTVSPropertyOp14
 70
     1
102
RTVSPropertyOp15
 70
     1
102
RTVSPropertyOp16
 70
     1
102
RTVSPropertyOp17
 70
     1
102
RTVSPropertyOp18
 70
     1
102
RTVSPropertyOp19
 70
     1
102
RTVSPropertyOp20
 70
     1
102
RTVSPropertyOp21
 70
     1
102
RTVSPropertyOp22
 70
     1
102
RTVSPropertyOp23
 70
     1
102
RTVSPropertyOp24
 70
     1
102
RTVSPropertyOp25
 70
     1
102
RTVSPropertyOp26
 70
     1
102
RTVSPropertyOp27
 70
     1
102
RTVSPropertyOp28
 70
     1
102
RTVSPropertyOp29
 70
     1
102
RTVSPropertyOp30
 70
     1
102
RTVSPropertyOp31
 70
     1
102
RTVSPropertyOp32
 70
     1
  0
XRECORD
  5
4BF
102
{ACAD_REACTORS
330
4BE
102
}
330
4BE
100
AcDbXrecord
280
     1
102
RTVSPropertyOp0
 70
     1
102
RTVSPropertyOp1
 70
     1
102
RTVSPropertyOp2
 70
     1
102
RTVSPropertyOp3
 70
     1
102
RTVSPropertyOp4
 70
     1
102
RTVSPropertyOp5
 70
     1
102
RTVSPropertyOp6
 70
     1
102
RTVSPropertyOp7
 70
     1
102
RTVSPropertyOp8
 70
     1
102
RTVSPropertyOp9
 70
     1
102
RTVSPropertyOp10
 70
     1
102
RTVSPropertyOp11
 70
     1
102
RTVSPropertyOp12
 70
     1
102
RTVSPropertyOp13
 70
     1
102
RTVSPropertyOp14
 70
     1
102
RTVSPropertyOp15
 70
     1
102
RTVSPropertyOp16
 70
     1
102
RTVSPropertyOp17
 70
     1
102
RTVSPropertyOp18
 70
     1
102
RTVSPropertyOp19
 70
     1
102
RTVSPropertyOp20
 70
     1
102
RTVSPropertyOp21
 70
     1
102
RTVSPropertyOp22
 70
     1
102
RTVSPropertyOp23
 70
     1
102
RTVSPropertyOp24
 70
     1
102
RTVSPropertyOp25
 70
     1
102
RTVSPropertyOp26
 70
     1
102
RTVSPropertyOp27
 70
     1
102
RTVSPropertyOp28
 70
     1
102
RTVSPropertyOp29
 70
     1
102
RTVSPropertyOp30
 70
     1
102
RTVSPropertyOp31
 70
     1
102
RTVSPropertyOp32
 70
     1
  0
XRECORD
  5
4C7
102
{ACAD_REACTORS
330
4C6
102
}
330
4C6
100
AcDbXrecord
280
     1
102
RTVSPropertyOp0
 70
     1
102
RTVSPropertyOp1
 70
     1
102
RTVSPropertyOp2
 70
     1
102
RTVSPropertyOp3
 70
     1
102
RTVSPropertyOp4
 70
     1
102
RTVSPropertyOp5
 70
     1
102
RTVSPropertyOp6
 70
     1
102
RTVSPropertyOp7
 70
     1
102
RTVSPropertyOp8
 70
     1
102
RTVSPropertyOp9
 70
     1
102
RTVSPropertyOp10
 70
     1
102
RTVSPropertyOp11
 70
     1
102
RTVSPropertyOp12
 70
     1
102
RTVSPropertyOp13
 70
     1
102
RTVSPropertyOp14
 70
     1
102
RTVSPropertyOp15
 70
     1
102
RTVSPropertyOp16
 70
     1
102
RTVSPropertyOp17
 70
     1
102
RTVSPropertyOp18
 70
     1
102
RTVSPropertyOp19
 70
     1
102
RTVSPropertyOp20
 70
     1
102
RTVSPropertyOp21
 70
     1
102
RTVSPropertyOp22
 70
     1
102
RTVSPropertyOp23
 70
     1
102
RTVSPropertyOp24
 70
     1
102
RTVSPropertyOp25
 70
     1
102
RTVSPropertyOp26
 70
     1
102
RTVSPropertyOp27
 70
     1
102
RTVSPropertyOp28
 70
     1
102
RTVSPropertyOp29
 70
     1
102
RTVSPropertyOp30
 70
     1
102
RTVSPropertyOp31
 70
     1
102
RTVSPropertyOp32
 70
     1
  0
ENDSEC
  0
EOF
