  0
SECTION
  2
HEADER
  9
$ACADVER
  1
AC1015
  9
$ACADMAINTVER
 70
     6
  9
$DWGCODEPAGE
  3
ANSI_932
  9
$INSBASE
 10
0.0
 20
0.0
 30
0.0
  9
$EXTMIN
 10
0.0
 20
0.0
 30
0.0
  9
$EXTMAX
 10
840.0
 20
1188.0
 30
0.0
  9
$LIMMIN
 10
0.0
 20
0.0
  9
$LIMMAX
 10
12.0
 20
9.0
  9
$ORTHOMODE
 70
     0
  9
$REGENMODE
 70
     1
  9
$FILLMODE
 70
     1
  9
$QTEXTMODE
 70
     0
  9
$MIRRTEXT
 70
     1
  9
$LTSCALE
 40
1.0
  9
$ATTMODE
 70
     1
  9
$TEXTSIZE
 40
0.2
  9
$TRACEWID
 40
0.05
  9
$TEXTSTYLE
  7
Standard
  9
$CLAYER
  8
0
  9
$CELTYPE
  6
ByLayer
  9
$CECOLOR
 62
   256
  9
$CELTSCALE
 40
1.0
  9
$DISPSILH
 70
     0
  9
$DIMSCALE
 40
1.0
  9
$DIMASZ
 40
0.18
  9
$DIMEXO
 40
0.0625
  9
$DIMDLI
 40
0.38
  9
$DIMRND
 40
0.0
  9
$DIMDLE
 40
0.0
  9
$DIMEXE
 40
0.18
  9
$DIMTP
 40
0.0
  9
$DIMTM
 40
0.0
  9
$DIMTXT
 40
0.18
  9
$DIMCEN
 40
0.09
  9
$DIMTSZ
 40
0.0
  9
$DIMTOL
 70
     0
  9
$DIMLIM
 70
     0
  9
$DIMTIH
 70
     1
  9
$DIMTOH
 70
     1
  9
$DIMSE1
 70
     0
  9
$DIMSE2
 70
     0
  9
$DIMTAD
 70
     0
  9
$DIMZIN
 70
     0
  9
$DIMBLK
  1

  9
$DIMASO
 70
     1
  9
$DIMSHO
 70
     1
  9
$DIMPOST
  1

  9
$DIMAPOST
  1

  9
$DIMALT
 70
     0
  9
$DIMALTD
 70
     2
  9
$DIMALTF
 40
25.4
  9
$DIMLFAC
 40
1.0
  9
$DIMTOFL
 70
     0
  9
$DIMTVP
 40
0.0
  9
$DIMTIX
 70
     0
  9
$DIMSOXD
 70
     0
  9
$DIMSAH
 70
     0
  9
$DIMBLK1
  1

  9
$DIMBLK2
  1

  9
$DIMSTYLE
  2
Standard
  9
$DIMCLRD
 70
     0
  9
$DIMCLRE
 70
     0
  9
$DIMCLRT
 70
     0
  9
$DIMTFAC
 40
1.0
  9
$DIMGAP
 40
0.09
  9
$DIMJUST
 70
     0
  9
$DIMSD1
 70
     0
  9
$DIMSD2
 70
     0
  9
$DIMTOLJ
 70
     1
  9
$DIMTZIN
 70
     0
  9
$DIMALTZ
 70
     0
  9
$DIMALTTZ
 70
     0
  9
$DIMUPT
 70
     0
  9
$DIMDEC
 70
     4
  9
$DIMTDEC
 70
     4
  9
$DIMALTU
 70
     2
  9
$DIMALTTD
 70
     2
  9
$DIMTXSTY
  7
Standard
  9
$DIMAUNIT
 70
     0
  9
$DIMADEC
 70
     0
  9
$DIMALTRND
 40
0.0
  9
$DIMAZIN
 70
     0
  9
$DIMDSEP
 70
    46
  9
$DIMATFIT
 70
     3
  9
$DIMFRAC
 70
     0
  9
$DIMLDRBLK
  1

  9
$DIMLUNIT
 70
     2
  9
$DIMLWD
 70
    -2
  9
$DIMLWE
 70
    -2
  9
$DIMTMOVE
 70
     0
  9
$LUNITS
 70
     2
  9
$LUPREC
 70
     4
  9
$SKETCHINC
 40
0.1
  9
$FILLETRAD
 40
0.5
  9
$AUNITS
 70
     0
  9
$AUPREC
 70
     0
  9
$MENU
  1
.
  9
$ELEVATION
 40
0.0
  9
$PELEVATION
 40
0.0
  9
$THICKNESS
 40
0.0
  9
$LIMCHECK
 70
     0
  9
$CHAMFERA
 40
0.5
  9
$CHAMFERB
 40
0.5
  9
$CHAMFERC
 40
1.0
  9
$CHAMFERD
 40
0.0
  9
$SKPOLY
 70
     0
  9
$TDCREATE
 40
2456556.622463785
  9
$TDUCREATE
 40
2456556.247463785
  9
$TDUPDATE
 40
2456556.622464873
  9
$TDUUPDATE
 40
2456556.247464873
  9
$TDINDWG
 40
0.0000000116
  9
$TDUSRTIMER
 40
0.0000000116
  9
$USRTIMER
 70
     1
  9
$ANGBASE
 50
0.0
  9
$ANGDIR
 70
     0
  9
$PDMODE
 70
     0
  9
$PDSIZE
 40
0.0
  9
$PLINEWID
 40
0.0
  9
$SPLFRAME
 70
     0
  9
$SPLINETYPE
 70
     6
  9
$SPLINESEGS
 70
     8
  9
$HANDSEED
  5
4B0
  9
$SURFTAB1
 70
     6
  9
$SURFTAB2
 70
     6
  9
$SURFTYPE
 70
     6
  9
$SURFU
 70
     6
  9
$SURFV
 70
     6
  9
$UCSBASE
  2

  9
$UCSNAME
  2

  9
$UCSORG
 10
0.0
 20
0.0
 30
0.0
  9
$UCSXDIR
 10
1.0
 20
0.0
 30
0.0
  9
$UCSYDIR
 10
0.0
 20
1.0
 30
0.0
  9
$UCSORTHOREF
  2

  9
$UCSORTHOVIEW
 70
     0
  9
$UCSORGTOP
 10
0.0
 20
0.0
 30
0.0
  9
$UCSORGBOTTOM
 10
0.0
 20
0.0
 30
0.0
  9
$UCSORGLEFT
 10
0.0
 20
0.0
 30
0.0
  9
$UCSORGRIGHT
 10
0.0
 20
0.0
 30
0.0
  9
$UCSORGFRONT
 10
0.0
 20
0.0
 30
0.0
  9
$UCSORGBACK
 10
0.0
 20
0.0
 30
0.0
  9
$PUCSBASE
  2

  9
$PUCSNAME
  2

  9
$PUCSORG
 10
0.0
 20
0.0
 30
0.0
  9
$PUCSXDIR
 10
1.0
 20
0.0
 30
0.0
  9
$PUCSYDIR
 10
0.0
 20
1.0
 30
0.0
  9
$PUCSORTHOREF
  2

  9
$PUCSORTHOVIEW
 70
     0
  9
$PUCSORGTOP
 10
0.0
 20
0.0
 30
0.0
  9
$PUCSORGBOTTOM
 10
0.0
 20
0.0
 30
0.0
  9
$PUCSORGLEFT
 10
0.0
 20
0.0
 30
0.0
  9
$PUCSORGRIGHT
 10
0.0
 20
0.0
 30
0.0
  9
$PUCSORGFRONT
 10
0.0
 20
0.0
 30
0.0
  9
$PUCSORGBACK
 10
0.0
 20
0.0
 30
0.0
  9
$USERI1
 70
     0
  9
$USERI2
 70
     0
  9
$USERI3
 70
     0
  9
$USERI4
 70
     0
  9
$USERI5
 70
     0
  9
$USERR1
 40
18.1
  9
$USERR2
 40
0.0
  9
$USERR3
 40
0.0
  9
$USERR4
 40
0.0
  9
$USERR5
 40
0.0
  9
$WORLDVIEW
 70
     1
  9
$SHADEDGE
 70
     3
  9
$SHADEDIF
 70
    70
  9
$TILEMODE
 70
     1
  9
$MAXACTVP
 70
    64
  9
$PINSBASE
 10
0.0
 20
0.0
 30
0.0
  9
$PLIMCHECK
 70
     0
  9
$PEXTMIN
 10
1.00000000000000E+20
 20
1.00000000000000E+20
 30
1.00000000000000E+20
  9
$PEXTMAX
 10
-1.00000000000000E+20
 20
-1.00000000000000E+20
 30
-1.00000000000000E+20
  9
$PLIMMIN
 10
0.0
 20
0.0
  9
$PLIMMAX
 10
12.0
 20
9.0
  9
$UNITMODE
 70
     0
  9
$VISRETAIN
 70
     1
  9
$PLINEGEN
 70
     0
  9
$PSLTSCALE
 70
     1
  9
$TREEDEPTH
 70
  3020
  9
$CMLSTYLE
  2
Standard
  9
$CMLJUST
 70
     0
  9
$CMLSCALE
 40
1.0
  9
$PROXYGRAPHICS
 70
     1
  9
$MEASUREMENT
 70
     1
  9
$CELWEIGHT
370
    -1
  9
$ENDCAPS
280
     0
  9
$JOINSTYLE
280
     0
  9
$LWDISPLAY
290
     0
  9
$INSUNITS
 70
     4
  9
$HYPERLINKBASE
  1

  9
$STYLESHEET
  1

  9
$XEDIT
290
     1
  9
$CEPSNTYPE
380
     0
  9
$PSTYLEMODE
290
     1
  9
$FINGERPRINTGUID
  2
{46D2D1DA-BBD2-42FC-BE22-C4D8056EFEFD}
  9
$VERSIONGUID
  2
{FAEB1C32-E019-11D5-929B-00C0DF256EC4}
  9
$EXTNAMES
290
     1
  9
$PSVPSCALE
 40
0.0
  9
$OLESTARTUP
290
     0
  0
ENDSEC
  0
SECTION
  2
CLASSES
  0
CLASS
  1
ACDBDICTIONARYWDFLT
  2
AcDbDictionaryWithDefault
  3
ObjectDBX Classes
 90
        0
280
     0
281
     0
  0
CLASS
  1
VISUALSTYLE
  2
AcDbVisualStyle
  3
ObjectDBX Classes
 90
     4095
280
     0
281
     0
  0
CLASS
  1
MATERIAL
  2
AcDbMaterial
  3
ObjectDBX Classes
 90
     1153
280
     0
281
     0
  0
CLASS
  1
DICTIONARYVAR
  2
AcDbDictionaryVar
  3
ObjectDBX Classes
 90
        0
280
     0
281
     0
  0
CLASS
  1
ACDBPLACEHOLDER
  2
AcDbPlaceHolder
  3
ObjectDBX Classes
 90
        0
280
     0
281
     0
  0
CLASS
  1
LAYOUT
  2
AcDbLayout
  3
ObjectDBX Classes
 90
        0
280
     0
281
     0
  0
ENDSEC
  0
SECTION
  2
TABLES
  0
TABLE
  2
VPORT
  5
8
330
0
100
AcDbSymbolTable
 70
     1
  0
VPORT
  5
29
330
8
100
AcDbSymbolTableRecord
100
AcDbViewportTableRecord
  2
*Active
 70
     0
 10
0.0
 20
0.0
 11
1.0
 21
1.0
 12
420.0
 22
594.0
 13
0.0
 23
0.0
 14
0.5
 24
0.5
 15
0.5
 25
0.5
 16
0.0
 26
0.0
 36
1.0
 17
0.0
 27
0.0
 37
0.0
 40
1306.8
 41
1.60267857142857
 42
50.0
 43
0.0
 44
0.0
 50
0.0
 51
0.0
 71
     0
 72
   100
 73
     1
 74
     3
 75
     0
 76
     0
 77
     0
 78
     0
281
     0
 65
     1
110
0.0
120
0.0
130
0.0
111
1.0
121
0.0
131
0.0
112
0.0
122
1.0
132
0.0
 79
     0
146
0.0
  0
ENDTAB
  0
TABLE
  2
LTYPE
  5
5
330
0
100
AcDbSymbolTable
 70
     8
  0
LTYPE
  5
14
330
5
100
AcDbSymbolTableRecord
100
AcDbLinetypeTableRecord
  2
ByBlock
 70
     0
  3

 72
    65
 73
     0
 40
0.0
  0
LTYPE
  5
15
330
5
100
AcDbSymbolTableRecord
100
AcDbLinetypeTableRecord
  2
ByLayer
 70
     0
  3

 72
    65
 73
     0
 40
0.0
  0
LTYPE
  5
16
330
5
100
AcDbSymbolTableRecord
100
AcDbLinetypeTableRecord
  2
Continuous
 70
     0
  3
Solid line
 72
    65
 73
     0
 40
0.0
  0
LTYPE
  5
3F
330
5
100
AcDbSymbolTableRecord
100
AcDbLinetypeTableRecord
  2
DASHED
 70
     0
  3
Dashed
 72
    65
 73
     2
 40
15.0
 49
7.0
 74
     0
 49
-8.0
 74
     0
  0
LTYPE
  5
40
330
5
100
AcDbSymbolTableRecord
100
AcDbLinetypeTableRecord
  2
DOTTED
 70
     0
  3
Dotted
 72
    65
 73
     2
 40
1.0
 49
0.0
 74
     0
 49
-1.0
 74
     0
  0
LTYPE
  5
41
330
5
100
AcDbSymbolTableRecord
100
AcDbLinetypeTableRecord
  2
DOT_CENTER
 70
     0
  3
Dot_Center
 72
    65
 73
     4
 40
14.0
 49
12.0
 74
     0
 49
-1.0
 74
     0
 49
0.0
 74
     0
 49
-1.0
 74
     0
  0
LTYPE
  5
42
330
5
100
AcDbSymbolTableRecord
100
AcDbLinetypeTableRecord
  2
LONG_DASHED
 70
     0
  3
Long_Dashed
 72
    65
 73
     2
 40
15.0
 49
10.0
 74
     0
 49
-5.0
 74
     0
  0
LTYPE
  5
43
330
5
100
AcDbSymbolTableRecord
100
AcDbLinetypeTableRecord
  2
DASH_CENTER
 70
     0
  3
Dash_Center
 72
    65
 73
     4
 40
14.0
 49
11.0
 74
     0
 49
-1.0
 74
     0
 49
1.0
 74
     0
 49
-1.0
 74
     0
  0
LTYPE
  5
44
330
5
100
AcDbSymbolTableRecord
100
AcDbLinetypeTableRecord
  2
PHANTOM
 70
     0
  3
Phantom
 72
    65
 73
     6
 40
13.0
 49
10.0
 74
     0
 49
-1.0
 74
     0
 49
0.0
 74
     0
 49
-1.0
 74
     0
 49
0.0
 74
     0
 49
-1.0
 74
     0
  0
LTYPE
  5
45
330
5
100
AcDbSymbolTableRecord
100
AcDbLinetypeTableRecord
  2
CENTER_DASH_DASH
 70
     0
  3
Center_Dash_Dash
 72
    65
 73
     6
 40
14.0
 49
9.0
 74
     0
 49
-1.0
 74
     0
 49
1.0
 74
     0
 49
-1.0
 74
     0
 49
1.0
 74
     0
 49
-1.0
 74
     0
  0
ENDTAB
  0
TABLE
  2
LAYER
  5
2
330
0
100
AcDbSymbolTable
 70
     3
  0
LAYER
  5
10
330
2
100
AcDbSymbolTableRecord
100
AcDbLayerTableRecord
  2
0
 70
     0
 62
     7
  6
Continuous
370
    -3
390
F
  0
LAYER
  5
46
330
2
100
AcDbSymbolTableRecord
100
AcDbLayerTableRecord
  2
1
 70
     0
 62
     7
  6
Continuous
370
    -3
390
F
  0
LAYER
  5
47
330
2
100
AcDbSymbolTableRecord
100
AcDbLayerTableRecord
  2
11
 70
     0
 62
     7
  6
Continuous
370
    -3
390
F
  0
ENDTAB
  0
TABLE
  2
STYLE
  5
3
330
0
100
AcDbSymbolTable
 70
     3
  0
STYLE
  5
11
330
3
100
AcDbSymbolTableRecord
100
AcDbTextStyleTableRecord
  2
Standard
 70
     0
 40
0.0
 41
1.0
 50
0.0
 71
     0
 42
0.2
  3
txt
  4

  0
STYLE
  5
FF
330
3
100
AcDbSymbolTableRecord
100
AcDbTextStyleTableRecord
  2
CONVERTER_11
 70
     0
 40
0.0
 41
0.89
 50
0.0
 71
     0
 42
0.2
  3
MS Mincho.ttf
  4

1001
ACAD
1000
MS Mincho
1071
    32785
  0
STYLE
  5
3CD
330
3
100
AcDbSymbolTableRecord
100
AcDbTextStyleTableRecord
  2
CONVERTER_12
 70
     0
 40
0.0
 41
0.9
 50
0.0
 71
     0
 42
0.2
  3
txt.shx
  4

  0
ENDTAB
  0
TABLE
  2
VIEW
  5
6
330
0
100
AcDbSymbolTable
 70
     0
  0
ENDTAB
  0
TABLE
  2
UCS
  5
7
330
0
100
AcDbSymbolTable
 70
     0
  0
ENDTAB
  0
TABLE
  2
APPID
  5
9
330
0
100
AcDbSymbolTable
 70
     1
  0
APPID
  5
12
330
9
100
AcDbSymbolTableRecord
100
AcDbRegAppTableRecord
  2
ACAD
 70
     0
  0
ENDTAB
  0
TABLE
  2
DIMSTYLE
  5
A
330
0
100
AcDbSymbolTable
 70
    16
100
AcDbDimStyleTable
  0
DIMSTYLE
105
27
330
A
100
AcDbSymbolTableRecord
100
AcDbDimStyleTableRecord
  2
Standard
 70
     0
178
     0
340
11
  0
DIMSTYLE
105
3E2
102
{ACAD_REACTORS
330
3E3
102
}
330
A
100
AcDbSymbolTableRecord
100
AcDbDimStyleTableRecord
  2
ME10_DIM_10
 70
     0
 41
14.0
 42
0.0
 44
4.0
 73
     0
 74
     0
 77
     1
 78
     8
140
14.0
147
4.0
172
     1
173
     1
174
     1
175
     1
176
     2
177
     2
271
     2
178
     7
271
     2
340
3CD
  0
DIMSTYLE
105
3ED
102
{ACAD_REACTORS
330
3EE
102
}
330
A
100
AcDbSymbolTableRecord
100
AcDbDimStyleTableRecord
  2
ME10_DIM_11
 70
     0
 41
14.0
 42
0.0
 44
4.0
 73
     0
 74
     0
 77
     1
 78
     8
140
14.0
147
4.0
172
     1
173
     1
174
     1
175
     1
176
     2
177
     2
271
     2
178
     7
271
     2
340
3CD
  0
DIMSTYLE
105
3F8
102
{ACAD_REACTORS
330
3F9
102
}
330
A
100
AcDbSymbolTableRecord
100
AcDbDimStyleTableRecord
  2
ME10_DIM_12
 70
     0
 41
14.0
 42
0.0
 44
4.0
 73
     0
 74
     0
 77
     1
 78
     8
140
14.0
147
4.0
172
     1
173
     1
174
     1
175
     1
176
     2
177
     2
271
     2
178
     7
271
     2
340
3CD
  0
DIMSTYLE
105
403
102
{ACAD_REACTORS
330
404
102
}
330
A
100
AcDbSymbolTableRecord
100
AcDbDimStyleTableRecord
  2
ME10_DIM_13
 70
     0
 41
14.0
 42
0.0
 44
4.0
 73
     0
 74
     0
 77
     1
 78
     8
140
14.0
147
4.0
172
     1
173
     1
174
     1
175
     1
176
     2
177
     2
271
     2
178
     7
271
     2
340
3CD
  0
DIMSTYLE
105
40E
102
{ACAD_REACTORS
330
40F
102
}
330
A
100
AcDbSymbolTableRecord
100
AcDbDimStyleTableRecord
  2
ME10_DIM_14
 70
     0
 41
14.0
 42
0.0
 44
4.0
 73
     0
 74
     0
 77
     1
 78
     8
140
14.0
147
4.0
172
     1
173
     1
174
     1
175
     1
176
     2
177
     2
271
     2
178
     7
271
     2
340
FF
  0
DIMSTYLE
105
419
102
{ACAD_REACTORS
330
41A
102
}
330
A
100
AcDbSymbolTableRecord
100
AcDbDimStyleTableRecord
  2
ME10_DIM_15
 70
     0
  3
最大<>
 41
14.0
 42
0.0
 44
4.0
 73
     0
 74
     0
 77
     1
 78
     8
140
14.0
147
4.0
172
     1
173
     1
174
     1
175
     1
176
     2
177
     2
271
     2
178
     7
271
     2
340
FF
  0
DIMSTYLE
105
424
102
{ACAD_REACTORS
330
425
102
}
330
A
100
AcDbSymbolTableRecord
100
AcDbDimStyleTableRecord
  2
ME10_DIM_16
 70
     0
 41
14.0
 42
0.0
 44
4.0
 73
     0
 74
     0
 77
     1
 78
     8
140
14.0
147
4.0
172
     1
173
     1
174
     1
175
     1
176
     2
177
     2
271
     2
178
     7
271
     2
340
3CD
  0
DIMSTYLE
105
42F
102
{ACAD_REACTORS
330
430
102
}
330
A
100
AcDbSymbolTableRecord
100
AcDbDimStyleTableRecord
  2
ME10_DIM_17
 70
     0
 41
14.0
 42
0.0
 44
4.0
 73
     0
 74
     0
 77
     1
 78
     8
140
14.0
147
4.0
172
     1
173
     1
174
     1
175
     1
176
     2
177
     2
271
     2
178
     7
271
     2
340
FF
  0
DIMSTYLE
105
43A
102
{ACAD_REACTORS
330
43B
102
}
330
A
100
AcDbSymbolTableRecord
100
AcDbDimStyleTableRecord
  2
ME10_DIM_18
 70
     0
 41
14.0
 42
0.0
 44
4.0
 73
     0
 74
     0
 77
     1
 78
     8
140
14.0
147
4.0
172
     1
173
     1
174
     1
175
     1
176
     2
177
     2
271
     2
178
     7
271
     2
340
3CD
  0
DIMSTYLE
105
446
102
{ACAD_REACTORS
330
447
102
}
330
A
100
AcDbSymbolTableRecord
100
AcDbDimStyleTableRecord
  2
ME10_DIM_19
 70
     0
  3
{\Fgdt;n}<>
 41
14.0
 42
0.0
 44
4.0
 73
     0
 74
     0
 77
     1
 78
     8
140
14.0
147
4.0
172
     1
173
     1
174
     1
175
     1
176
     2
177
     2
271
     2
178
     7
271
     2
340
3CD
  0
DIMSTYLE
105
453
102
{ACAD_REACTORS
330
454
102
}
330
A
100
AcDbSymbolTableRecord
100
AcDbDimStyleTableRecord
  2
ME10_DIM_20
 70
     0
 41
14.0
 42
0.0
 44
4.0
 73
     0
 74
     0
 77
     1
 78
     8
140
14.0
147
4.0
172
     1
173
     1
174
     1
175
     1
176
     2
177
     2
271
     2
178
     7
271
     2
340
3CD
  0
DIMSTYLE
105
45E
102
{ACAD_REACTORS
330
45F
102
}
330
A
100
AcDbSymbolTableRecord
100
AcDbDimStyleTableRecord
  2
ME10_DIM_21
 70
     0
 41
14.0
 42
0.0
 44
4.0
 73
     0
 74
     0
 77
     1
 78
     8
140
14.0
147
4.0
172
     1
173
     1
174
     1
175
     1
176
     2
177
     2
271
     2
178
     7
271
     2
340
3CD
  0
DIMSTYLE
105
469
102
{ACAD_REACTORS
330
46A
102
}
330
A
100
AcDbSymbolTableRecord
100
AcDbDimStyleTableRecord
  2
ME10_DIM_22
 70
     0
 41
14.0
 42
0.0
 44
4.0
 73
     0
 74
     0
 77
     1
 78
     8
140
14.0
147
4.0
172
     1
173
     1
174
     1
175
     1
176
     2
177
     2
271
     2
178
     7
271
     2
340
3CD
  0
DIMSTYLE
105
476
102
{ACAD_REACTORS
330
477
102
}
330
A
100
AcDbSymbolTableRecord
100
AcDbDimStyleTableRecord
  2
ME10_DIM_23
 70
     0
 41
14.0
 42
0.0
 44
4.0
 73
     0
 74
     0
 77
     1
 78
     8
140
14.0
147
4.0
172
     1
173
     1
174
     1
175
     1
176
     2
177
     2
271
     2
178
     7
271
     2
340
3CD
  0
DIMSTYLE
105
483
102
{ACAD_REACTORS
330
484
102
}
330
A
100
AcDbSymbolTableRecord
100
AcDbDimStyleTableRecord
  2
ME10_DIM_24
 70
     0
 41
14.0
 42
0.0
 44
4.0
 73
     0
 74
     0
 77
     1
 78
     8
140
14.0
147
4.0
172
     1
173
     1
174
     1
175
     1
176
     2
177
     2
271
     2
178
     7
271
     2
340
3CD
  0
ENDTAB
  0
TABLE
  2
BLOCK_RECORD
  5
1
330
0
100
AcDbSymbolTable
 70
    43
  0
BLOCK_RECORD
  5
1F
330
1
100
AcDbSymbolTableRecord
100
AcDbBlockTableRecord
  2
*Model_Space
340
22
  0
BLOCK_RECORD
  5
1B
330
1
100
AcDbSymbolTableRecord
100
AcDbBlockTableRecord
  2
*Paper_Space
340
1E
  0
BLOCK_RECORD
  5
23
330
1
100
AcDbSymbolTableRecord
100
AcDbBlockTableRecord
  2
*Paper_Space0
340
26
  0
BLOCK_RECORD
  5
48
330
1
100
AcDbSymbolTableRecord
100
AcDbBlockTableRecord
  2
開示A4
340
0
102
{BLKREFS
331
AC
102
}
  0
BLOCK_RECORD
  5
4B
330
1
100
AcDbSymbolTableRecord
100
AcDbBlockTableRecord
  2
32-215K
340
0
102
{BLKREFS
331
55
102
}
  0
BLOCK_RECORD
  5
4E
330
1
100
AcDbSymbolTableRecord
100
AcDbBlockTableRecord
  2
82-20-M21K
340
0
102
{BLKREFS
331
56
102
}
  0
BLOCK_RECORD
  5
51
330
1
100
AcDbSymbolTableRecord
100
AcDbBlockTableRecord
  2
61-142-16-M1K
340
0
102
{BLKREFS
331
57
102
}
  0
BLOCK_RECORD
  5
54
330
1
100
AcDbSymbolTableRecord
100
AcDbBlockTableRecord
  2
61-142X
340
0
102
{BLKREFS
331
AD
102
}
  0
BLOCK_RECORD
  5
5A
330
1
100
AcDbSymbolTableRecord
100
AcDbBlockTableRecord
  2
36-140AK__1
340
0
102
{BLKREFS
331
5E
102
}
  0
BLOCK_RECORD
  5
5D
330
1
100
AcDbSymbolTableRecord
100
AcDbBlockTableRecord
  2
36-140AXK
340
0
102
{BLKREFS
331
65
102
}
  0
BLOCK_RECORD
  5
61
330
1
100
AcDbSymbolTableRecord
100
AcDbBlockTableRecord
  2
34-98AK__2
340
0
102
{BLKREFS
331
66
102
}
  0
BLOCK_RECORD
  5
64
330
1
100
AcDbSymbolTableRecord
100
AcDbBlockTableRecord
  2
34-98AXK__3
340
0
102
{BLKREFS
331
76
102
}
  0
BLOCK_RECORD
  5
69
330
1
100
AcDbSymbolTableRecord
100
AcDbBlockTableRecord
  2
35-6A-8-C2K__4
340
0
102
{BLKREFS
331
77
102
}
  0
BLOCK_RECORD
  5
6C
330
1
100
AcDbSymbolTableRecord
100
AcDbBlockTableRecord
  2
32-3-M1K__5
340
0
102
{BLKREFS
331
78
102
}
  0
BLOCK_RECORD
  5
6F
330
1
100
AcDbSymbolTableRecord
100
AcDbBlockTableRecord
  2
03-47-50-M1K__6
340
0
102
{BLKREFS
331
79
102
}
  0
BLOCK_RECORD
  5
72
330
1
100
AcDbSymbolTableRecord
100
AcDbBlockTableRecord
  2
78-3A-C4K__7
340
0
102
{BLKREFS
331
7A
102
}
  0
BLOCK_RECORD
  5
75
330
1
100
AcDbSymbolTableRecord
100
AcDbBlockTableRecord
  2
U3-47F-50__8
340
0
102
{BLKREFS
331
AE
102
}
  0
BLOCK_RECORD
  5
7D
330
1
100
AcDbSymbolTableRecord
100
AcDbBlockTableRecord
  2
35-6A-8-C2K__9
340
0
102
{BLKREFS
331
99
102
}
  0
BLOCK_RECORD
  5
80
330
1
100
AcDbSymbolTableRecord
100
AcDbBlockTableRecord
  2
36-140AK__10
340
0
102
{BLKREFS
331
84
102
}
  0
BLOCK_RECORD
  5
83
330
1
100
AcDbSymbolTableRecord
100
AcDbBlockTableRecord
  2
36-140AX
340
0
102
{BLKREFS
331
8B
102
}
  0
BLOCK_RECORD
  5
87
330
1
100
AcDbSymbolTableRecord
100
AcDbBlockTableRecord
  2
34-98AK__11
340
0
102
{BLKREFS
331
8C
102
}
  0
BLOCK_RECORD
  5
8A
330
1
100
AcDbSymbolTableRecord
100
AcDbBlockTableRecord
  2
34-98AXK__12
340
0
102
{BLKREFS
331
9A
102
}
  0
BLOCK_RECORD
  5
8F
330
1
100
AcDbSymbolTableRecord
100
AcDbBlockTableRecord
  2
03-47-50-M1K__13
340
0
102
{BLKREFS
331
9B
102
}
  0
BLOCK_RECORD
  5
92
330
1
100
AcDbSymbolTableRecord
100
AcDbBlockTableRecord
  2
32-3-M1K__14
340
0
102
{BLKREFS
331
9C
102
}
  0
BLOCK_RECORD
  5
95
330
1
100
AcDbSymbolTableRecord
100
AcDbBlockTableRecord
  2
78-3A-C4K__15
340
0
102
{BLKREFS
331
9D
102
}
  0
BLOCK_RECORD
  5
98
330
1
100
AcDbSymbolTableRecord
100
AcDbBlockTableRecord
  2
U3-47F-50__16
340
0
102
{BLKREFS
331
AF
102
}
  0
BLOCK_RECORD
  5
A0
330
1
100
AcDbSymbolTableRecord
100
AcDbBlockTableRecord
  2
84-293
340
0
102
{BLKREFS
331
B0
102
}
  0
BLOCK_RECORD
  5
A3
330
1
100
AcDbSymbolTableRecord
100
AcDbBlockTableRecord
  2
37-305-M11
340
0
102
{BLKREFS
331
B1
102
}
  0
BLOCK_RECORD
  5
A6
330
1
100
AcDbSymbolTableRecord
100
AcDbBlockTableRecord
  2
27-14-M1
340
0
102
{BLKREFS
331
B2
102
}
  0
BLOCK_RECORD
  5
A9
330
1
100
AcDbSymbolTableRecord
100
AcDbBlockTableRecord
  2
K1711-0-M1
340
0
102
{BLKREFS
331
B3
102
}
  0
BLOCK_RECORD
  5
3D9
330
1
100
AcDbSymbolTableRecord
100
AcDbBlockTableRecord
  2
*D28
340
0
  0
BLOCK_RECORD
  5
3E4
330
1
100
AcDbSymbolTableRecord
100
AcDbBlockTableRecord
  2
*D29
340
0
  0
BLOCK_RECORD
  5
3EF
330
1
100
AcDbSymbolTableRecord
100
AcDbBlockTableRecord
  2
*D30
340
0
  0
BLOCK_RECORD
  5
3FA
330
1
100
AcDbSymbolTableRecord
100
AcDbBlockTableRecord
  2
*D31
340
0
  0
BLOCK_RECORD
  5
405
330
1
100
AcDbSymbolTableRecord
100
AcDbBlockTableRecord
  2
*D32
340
0
  0
BLOCK_RECORD
  5
410
330
1
100
AcDbSymbolTableRecord
100
AcDbBlockTableRecord
  2
*D33
340
0
  0
BLOCK_RECORD
  5
41B
330
1
100
AcDbSymbolTableRecord
100
AcDbBlockTableRecord
  2
*D34
340
0
  0
BLOCK_RECORD
  5
426
330
1
100
AcDbSymbolTableRecord
100
AcDbBlockTableRecord
  2
*D35
340
0
  0
BLOCK_RECORD
  5
431
330
1
100
AcDbSymbolTableRecord
100
AcDbBlockTableRecord
  2
*D36
340
0
  0
BLOCK_RECORD
  5
43C
330
1
100
AcDbSymbolTableRecord
100
AcDbBlockTableRecord
  2
*D37
340
0
  0
BLOCK_RECORD
  5
448
330
1
100
AcDbSymbolTableRecord
100
AcDbBlockTableRecord
  2
*D38
340
0
  0
BLOCK_RECORD
  5
455
330
1
100
AcDbSymbolTableRecord
100
AcDbBlockTableRecord
  2
*D39
340
0
  0
BLOCK_RECORD
  5
460
330
1
100
AcDbSymbolTableRecord
100
AcDbBlockTableRecord
  2
*D40
340
0
  0
BLOCK_RECORD
  5
46B
330
1
100
AcDbSymbolTableRecord
100
AcDbBlockTableRecord
  2
*D41
340
0
  0
BLOCK_RECORD
  5
478
330
1
100
AcDbSymbolTableRecord
100
AcDbBlockTableRecord
  2
*D42
340
0
  0
ENDTAB
  0
ENDSEC
  0
SECTION
  2
BLOCKS
  0
BLOCK
  5
20
330
1F
100
AcDbEntity
  8
0
100
AcDbBlockBegin
  2
*Model_Space
 70
     0
 10
0.0
 20
0.0
 30
0.0
  3
*Model_Space
  1

  0
ENDBLK
  5
21
330
1F
100
AcDbEntity
  8
0
100
AcDbBlockEnd
  0
BLOCK
  5
1C
330
1B
100
AcDbEntity
 67
     1
  8
0
100
AcDbBlockBegin
  2
*Paper_Space
 70
     0
 10
0.0
 20
0.0
 30
0.0
  3
*Paper_Space
  1

  0
ENDBLK
  5
1D
330
1B
100
AcDbEntity
 67
     1
  8
0
100
AcDbBlockEnd
  0
BLOCK
  5
24
330
23
100
AcDbEntity
  8
0
100
AcDbBlockBegin
  2
*Paper_Space0
 70
     0
 10
0.0
 20
0.0
 30
0.0
  3
*Paper_Space0
  1

  0
ENDBLK
  5
25
330
23
100
AcDbEntity
  8
0
100
AcDbBlockEnd
  0
BLOCK
  5
49
330
48
100
AcDbEntity
  8
0
100
AcDbBlockBegin
  2
開示A4
 70
     0
 10
0.0
 20
0.0
 30
0.0
  3
開示A4
  1

  0
POINT
  5
B4
330
48
100
AcDbEntity
  8
1
 62
     4
100
AcDbPoint
 10
93.75
 20
17.0
 30
0.0
  0
POINT
  5
B5
330
48
100
AcDbEntity
  8
1
 62
     4
100
AcDbPoint
 10
85.25
 20
17.0
 30
0.0
  0
POINT
  5
B6
330
48
100
AcDbEntity
  8
1
 62
     4
100
AcDbPoint
 10
106.5
 20
19.00000000000001
 30
0.0
  0
POINT
  5
B7
330
48
100
AcDbEntity
  8
1
 62
     4
100
AcDbPoint
 10
106.5
 20
12.5
 30
0.0
  0
POINT
  5
B8
330
48
100
AcDbEntity
  8
1
 62
     4
100
AcDbPoint
 10
112.25
 20
12.5
 30
0.0
  0
POINT
  5
B9
330
48
100
AcDbEntity
  8
1
 62
     4
100
AcDbPoint
 10
100.75
 20
12.5
 30
0.0
  0
POINT
  5
BA
330
48
100
AcDbEntity
  8
1
 62
     4
100
AcDbPoint
 10
123.5
 20
19.00000000000001
 30
0.0
  0
POINT
  5
BB
330
48
100
AcDbEntity
  8
1
 62
     4
100
AcDbPoint
 10
123.5
 20
12.5
 30
0.0
  0
POINT
  5
BC
330
48
100
AcDbEntity
  8
1
 62
     4
100
AcDbPoint
 10
129.25
 20
12.5
 30
0.0
  0
POINT
  5
BD
330
48
100
AcDbEntity
  8
1
 62
     4
100
AcDbPoint
 10
117.75
 20
12.5
 30
0.0
  0
POINT
  5
BE
330
48
100
AcDbEntity
  8
1
 62
     4
100
AcDbPoint
 10
140.5
 20
19.00000000000001
 30
0.0
  0
POINT
  5
BF
330
48
100
AcDbEntity
  8
1
 62
     4
100
AcDbPoint
 10
140.5
 20
12.5
 30
0.0
  0
POINT
  5
C0
330
48
100
AcDbEntity
  8
1
 62
     4
100
AcDbPoint
 10
146.25
 20
12.5
 30
0.0
  0
POINT
  5
C1
330
48
100
AcDbEntity
  8
1
 62
     4
100
AcDbPoint
 10
134.75
 20
12.5
 30
0.0
  0
POINT
  5
C2
330
48
100
AcDbEntity
  8
1
 62
     4
100
AcDbPoint
 10
151.75
 20
12.5
 30
0.0
  0
POINT
  5
C3
330
48
100
AcDbEntity
  8
1
 62
     4
100
AcDbPoint
 10
163.25
 20
12.5
 30
0.0
  0
POINT
  5
C4
330
48
100
AcDbEntity
  8
1
 62
     4
100
AcDbPoint
 10
157.5
 20
12.5
 30
0.0
  0
POINT
  5
C5
330
48
100
AcDbEntity
  8
1
 62
     4
100
AcDbPoint
 10
57.0
 20
14.25
 30
0.0
  0
POINT
  5
C6
330
48
100
AcDbEntity
  8
1
 62
     4
100
AcDbPoint
 10
57.0
 20
22.75000000000001
 30
0.0
  0
POINT
  5
C7
330
48
100
AcDbEntity
  8
1
 62
     4
100
AcDbPoint
 10
47.5
 20
282.0000000000003
 30
0.0
  0
POINT
  5
C8
330
48
100
AcDbEntity
  8
1
 62
     4
100
AcDbPoint
 10
157.5
 20
19.00000000000001
 30
0.0
  0
POINT
  5
C9
330
48
100
AcDbEntity
  8
1
 62
     4
100
AcDbPoint
 10
57.0
 20
16.25
 30
0.0
  0
POINT
  5
CA
330
48
100
AcDbEntity
  8
1
 62
     4
100
AcDbPoint
 10
57.0
 20
24.75000000000001
 30
0.0
  0
POINT
  5
CB
330
48
100
AcDbEntity
  8
1
 62
     4
100
AcDbPoint
 10
57.0
 20
20.75000000000001
 30
0.0
  0
POINT
  5
CC
330
48
100
AcDbEntity
  8
1
 62
     4
100
AcDbPoint
 10
57.0
 20
12.25
 30
0.0
  0
POINT
  5
CD
330
48
100
AcDbEntity
  8
1
 62
     4
100
AcDbPoint
 10
34.0
 20
34.00000000000001
 30
0.0
  0
LINE
  5
CE
330
48
100
AcDbEntity
  8
1
  6
Continuous
 62
     7
100
AcDbLine
 10
105.0
 20
10.0
 30
0.0
 11
200.0
 21
10.0
 31
0.0
  0
LINE
  5
CF
330
48
100
AcDbEntity
  8
1
  6
Continuous
 62
     2
100
AcDbLine
 10
105.0
 20
10.0
 30
0.0
 11
105.0
 21
5.0
 31
0.0
  0
LINE
  5
D0
330
48
100
AcDbEntity
  8
1
  6
Continuous
 62
     7
100
AcDbLine
 10
200.0
 20
148.5
 30
0.0
 11
200.0
 21
287.0000000000003
 31
0.0
  0
LINE
  5
D1
330
48
100
AcDbEntity
  8
1
  6
Continuous
 62
     2
100
AcDbLine
 10
200.0
 20
148.5
 30
0.0
 11
205.0
 21
148.5
 31
0.0
  0
LINE
  5
D2
330
48
100
AcDbEntity
  8
1
  6
Continuous
 62
     7
100
AcDbLine
 10
25.0
 20
148.5
 30
0.0
 11
25.0
 21
287.0000000000003
 31
0.0
  0
LINE
  5
D3
330
48
100
AcDbEntity
  8
1
  6
Continuous
 62
     2
100
AcDbLine
 10
25.0
 20
148.5
 30
0.0
 11
20.0
 21
148.5
 31
0.0
  0
LINE
  5
D4
330
48
100
AcDbEntity
  8
1
  6
Continuous
 62
     7
100
AcDbLine
 10
105.0
 20
287.0000000000003
 30
0.0
 11
25.0
 21
287.0000000000003
 31
0.0
  0
LINE
  5
D5
330
48
100
AcDbEntity
  8
1
  6
Continuous
 62
     2
100
AcDbLine
 10
105.0
 20
287.0000000000003
 30
0.0
 11
105.0
 21
292.0000000000003
 31
0.0
  0
LINE
  5
D6
330
48
100
AcDbEntity
  8
1
  6
Continuous
 62
     2
100
AcDbLine
 10
166.0
 20
20.00000000000001
 30
0.0
 11
200.0
 21
20.00000000000001
 31
0.0
  0
LINE
  5
D7
330
48
100
AcDbEntity
  8
1
  6
Continuous
 62
     2
100
AcDbLine
 10
98.0
 20
27.00000000000001
 30
0.0
 11
98.0
 21
9.99999999999999
 31
0.0
  0
LINE
  5
D8
330
48
100
AcDbEntity
  8
1
  6
Continuous
 62
     2
100
AcDbLine
 10
115.0
 20
27.00000000000001
 30
0.0
 11
115.0
 21
9.99999999999999
 31
0.0
  0
LINE
  5
D9
330
48
100
AcDbEntity
  8
1
  6
Continuous
 62
     2
100
AcDbLine
 10
149.0
 20
27.00000000000001
 30
0.0
 11
149.0
 21
10.0
 31
0.0
  0
LINE
  5
DA
330
48
100
AcDbEntity
  8
1
  6
Continuous
 62
     2
100
AcDbLine
 10
132.0
 20
27.00000000000001
 30
0.0
 11
132.0
 21
9.99999999999999
 31
0.0
  0
LINE
  5
DB
330
48
100
AcDbEntity
  8
1
  6
Continuous
 62
     2
100
AcDbLine
 10
166.0
 20
27.00000000000001
 30
0.0
 11
166.0
 21
10.0
 31
0.0
  0
LINE
  5
DC
330
48
100
AcDbEntity
  8
1
  6
Continuous
 62
     2
100
AcDbLine
 10
55.0
 20
277.0000000000003
 30
0.0
 11
25.0
 21
277.0000000000003
 31
0.0
  0
LINE
  5
DD
330
48
100
AcDbEntity
  8
1
  6
Continuous
 62
     7
100
AcDbLine
 10
25.0
 20
10.0
 30
0.0
 11
25.0
 21
148.5
 31
0.0
  0
LINE
  5
DE
330
48
100
AcDbEntity
  8
1
  6
Continuous
 62
     2
100
AcDbLine
 10
40.0
 20
287.0000000000003
 30
0.0
 11
40.0
 21
277.0000000000003
 31
0.0
  0
LINE
  5
DF
330
48
100
AcDbEntity
  8
1
  6
Continuous
 62
     2
100
AcDbLine
 10
55.0
 20
287.0000000000003
 30
0.0
 11
55.0
 21
277.0000000000003
 31
0.0
  0
LINE
  5
E0
330
48
100
AcDbEntity
  8
1
  6
Continuous
 62
     2
100
AcDbLine
 10
33.0
 20
41.00000000000001
 30
0.0
 11
33.0
 21
27.0
 31
0.0
  0
LINE
  5
E1
330
48
100
AcDbEntity
  8
1
  6
Continuous
 62
     7
100
AcDbLine
 10
200.0
 20
27.00000000000001
 30
0.0
 11
25.0
 21
27.00000000000001
 31
0.0
  0
LINE
  5
E2
330
48
100
AcDbEntity
  8
1
  6
Continuous
 62
     7
100
AcDbLine
 10
25.0
 20
41.0
 30
0.0
 11
200.0
 21
41.0
 31
0.0
  0
LINE
  5
E3
330
48
100
AcDbEntity
  8
1
  6
PHANTOM
 62
     4
100
AcDbLine
 10
0.0
 20
0.0
 30
0.0
 11
210.0
 21
0.0
 31
0.0
  0
LINE
  5
E4
330
48
100
AcDbEntity
  8
1
  6
PHANTOM
 62
     4
100
AcDbLine
 10
210.0
 20
0.0
 30
0.0
 11
210.0
 21
297.0
 31
0.0
  0
LINE
  5
E5
330
48
100
AcDbEntity
  8
1
  6
PHANTOM
 62
     4
100
AcDbLine
 10
210.0
 20
297.0
 30
0.0
 11
0.0
 21
297.0
 31
0.0
  0
LINE
  5
E6
330
48
100
AcDbEntity
  8
1
  6
PHANTOM
 62
     4
100
AcDbLine
 10
0.0
 20
297.0
 30
0.0
 11
0.0
 21
0.0
 31
0.0
  0
LINE
  5
E7
330
48
100
AcDbEntity
  8
1
  6
Continuous
 62
     7
100
AcDbLine
 10
25.0
 20
10.0
 30
0.0
 11
105.0
 21
10.0
 31
0.0
  0
LINE
  5
E8
330
48
100
AcDbEntity
  8
1
  6
Continuous
 62
     7
100
AcDbLine
 10
200.0
 20
10.0
 30
0.0
 11
200.0
 21
148.5
 31
0.0
  0
LINE
  5
E9
330
48
100
AcDbEntity
  8
1
  6
Continuous
 62
     7
100
AcDbLine
 10
200.0
 20
287.0000000000003
 30
0.0
 11
105.0
 21
287.0000000000003
 31
0.0
  0
LINE
  5
EA
330
48
100
AcDbEntity
  8
1
  6
Continuous
 62
     2
100
AcDbLine
 10
25.0
 20
18.50000000000001
 30
0.0
 11
81.0
 21
18.50000000000001
 31
0.0
  0
LINE
  5
EB
330
48
100
AcDbEntity
  8
1
  6
Continuous
 62
     2
100
AcDbLine
 10
33.0
 20
27.0
 30
0.0
 11
33.0
 21
10.0
 31
0.0
  0
LINE
  5
EC
330
48
100
AcDbEntity
  8
1
  6
Continuous
 62
     7
100
AcDbLine
 10
191.0
 20
24.70000000000001
 30
0.0
 11
191.0
 21
22.30000000000001
 31
0.0
  0
LINE
  5
ED
330
48
100
AcDbEntity
  8
1
  6
Continuous
 62
     7
100
AcDbLine
 10
191.0
 20
24.70000000000001
 30
0.0
 11
196.0
 21
25.50000000000001
 31
0.0
  0
LINE
  5
EE
330
48
100
AcDbEntity
  8
1
  6
Continuous
 62
     7
100
AcDbLine
 10
196.0
 20
25.50000000000001
 30
0.0
 11
196.0
 21
21.50000000000001
 31
0.0
  0
LINE
  5
EF
330
48
100
AcDbEntity
  8
1
  6
Continuous
 62
     7
100
AcDbLine
 10
196.0
 20
21.50000000000001
 30
0.0
 11
191.0
 21
22.30000000000001
 31
0.0
  0
LINE
  5
F0
330
48
100
AcDbEntity
  8
1
  6
DOT_CENTER
 62
     2
100
AcDbLine
 10
184.0
 20
23.50000000000001
 30
0.0
 11
197.0
 21
23.50000000000001
 31
0.0
  0
LINE
  5
F1
330
48
100
AcDbEntity
  8
1
  6
DOT_CENTER
 62
     2
100
AcDbLine
 10
187.0
 20
26.50000000000001
 30
0.0
 11
187.0
 21
20.50000000000001
 31
0.0
  0
LINE
  5
F2
330
48
100
AcDbEntity
  8
1
  6
Continuous
 62
     2
100
AcDbLine
 10
81.0
 20
27.00000000000001
 30
0.0
 11
81.0
 21
10.0
 31
0.0
  0
CIRCLE
  5
F3
330
48
100
AcDbEntity
  8
1
  6
Continuous
 62
     7
100
AcDbCircle
 10
103.5
 20
12.5
 30
0.0
 40
0.2999999999999972
  0
CIRCLE
  5
F4
330
48
100
AcDbEntity
  8
1
  6
Continuous
 62
     7
100
AcDbCircle
 10
109.5
 20
12.5
 30
0.0
 40
0.2999999999999972
  0
CIRCLE
  5
F5
330
48
100
AcDbEntity
  8
1
  6
Continuous
 62
     7
100
AcDbCircle
 10
120.5
 20
12.5
 30
0.0
 40
0.2999999999999972
  0
CIRCLE
  5
F6
330
48
100
AcDbEntity
  8
1
  6
Continuous
 62
     7
100
AcDbCircle
 10
126.5
 20
12.5
 30
0.0
 40
0.2999999999999972
  0
CIRCLE
  5
F7
330
48
100
AcDbEntity
  8
1
  6
Continuous
 62
     7
100
AcDbCircle
 10
137.5
 20
12.5
 30
0.0
 40
0.3000000000000114
  0
CIRCLE
  5
F8
330
48
100
AcDbEntity
  8
1
  6
Continuous
 62
     7
100
AcDbCircle
 10
143.5
 20
12.5
 30
0.0
 40
0.3000000000000114
  0
CIRCLE
  5
F9
330
48
100
AcDbEntity
  8
1
  6
Continuous
 62
     7
100
AcDbCircle
 10
160.5
 20
12.5
 30
0.0
 40
0.3000000000000114
  0
CIRCLE
  5
FA
330
48
100
AcDbEntity
  8
1
  6
Continuous
 62
     7
100
AcDbCircle
 10
154.5
 20
12.5
 30
0.0
 40
0.3000000000000114
  0
CIRCLE
  5
FB
330
48
100
AcDbEntity
  8
1
  6
Continuous
 62
     7
100
AcDbCircle
 10
187.0
 20
23.50000000000001
 30
0.0
 40
1.200000000000102
  0
CIRCLE
  5
FC
330
48
100
AcDbEntity
  8
1
  6
Continuous
 62
     7
100
AcDbCircle
 10
187.0
 20
23.50000000000001
 30
0.0
 40
2.0
  0
CIRCLE
  5
FD
330
48
100
AcDbEntity
  8
1
  6
DOT_CENTER
 62
     7
100
AcDbCircle
 10
89.5
 20
16.0
 30
0.0
 40
0.1000000000000227
  0
CIRCLE
  5
FE
330
48
100
AcDbEntity
  8
1
  6
DOT_CENTER
 62
     7
100
AcDbCircle
 10
89.5
 20
18.0
 30
0.0
 40
0.1000000000000227
  0
MTEXT
  5
100
330
48
100
AcDbEntity
  8
1
 62
     7
100
AcDbMText
 10
188.5
 20
15.0
 30
0.0
 40
3.0
 41
0.0
 71
     5
 72
     1
  1
三栄水栓製作所
  7
CONVERTER_11
 73
     1
 44
1.0
  0
MTEXT
  5
101
330
48
100
AcDbEntity
  8
1
 62
     7
100
AcDbMText
 10
171.5
 20
15.0
 30
0.0
 40
2.5
 41
0.0
 71
     5
 72
     1
  1
株式会社
  7
CONVERTER_11
 73
     1
 44
1.0
  0
MTEXT
  5
102
330
48
100
AcDbEntity
  8
1
 62
     2
100
AcDbMText
 10
32.5
 20
282.0000000000003
 30
0.0
 40
5.0
 41
0.0
 71
     5
 72
     1
  1
図番
  7
CONVERTER_11
 73
     1
 44
0.45454545454545
  0
MTEXT
  5
103
330
48
100
AcDbEntity
  8
1
 62
     2
100
AcDbMText
 10
29.0
 20
34.00000000000001
 30
0.0
 40
3.5
 41
0.0
 71
     5
 72
     1
  1
備考
  7
CONVERTER_11
 73
     1
 44
0.45454545454545
  0
MTEXT
  5
104
330
48
100
AcDbEntity
  8
1
 62
     2
100
AcDbMText
 10
29.0
 20
22.75
 30
0.0
 40
3.5
 41
0.0
 71
     5
 72
     1
  1
品名
  7
CONVERTER_11
 73
     1
 44
0.72727272727273
  0
MTEXT
  5
105
330
48
100
AcDbEntity
  8
1
 62
     2
100
AcDbMText
 10
29.0
 20
14.25
 30
0.0
 40
3.5
 41
0.0
 71
     5
 72
     1
  1
品番
  7
CONVERTER_11
 73
     1
 44
0.72727272727273
  0
MTEXT
  5
106
330
48
100
AcDbEntity
  8
1
 62
     2
100
AcDbMText
 10
101.5
 20
25.00000000000001
 30
0.0
 40
3.0
 41
0.0
 71
     5
 72
     1
  1
承認
  7
CONVERTER_11
 73
     1
 44
0.59090909090909
  0
MTEXT
  5
107
330
48
100
AcDbEntity
  8
1
 62
     2
100
AcDbMText
 10
175.0
 20
23.50000000000001
 30
0.0
 40
3.5
 41
0.0
 71
     5
 72
     1
  1
第三角法
  7
CONVERTER_11
 73
     1
 44
0.54545454545455
  0
MTEXT
  5
108
330
48
100
AcDbEntity
  8
1
 62
     2
100
AcDbMText
 10
118.5
 20
25.00000000000001
 30
0.0
 40
3.0
 41
0.0
 71
     5
 72
     1
  1
検図
  7
CONVERTER_11
 73
     1
 44
0.59090909090909
  0
MTEXT
  5
109
330
48
100
AcDbEntity
  8
1
 62
     2
100
AcDbMText
 10
152.5
 20
25.00000000000001
 30
0.0
 40
3.0
 41
0.0
 71
     5
 72
     1
  1
設計
  7
CONVERTER_11
 73
     1
 44
0.59090909090909
  0
MTEXT
  5
10A
330
48
100
AcDbEntity
  8
1
 62
     2
100
AcDbMText
 10
135.5
 20
25.00000000000001
 30
0.0
 40
3.0
 41
0.0
 71
     5
 72
     1
  1
製図
  7
CONVERTER_11
 73
     1
 44
0.59090909090909
  0
MTEXT
  5
10B
330
48
100
AcDbEntity
  8
1
 62
     2
100
AcDbMText
 10
89.5
 20
24.00000000000001
 30
0.0
 40
3.5
 41
0.0
 71
     5
 72
     1
  1
尺度
  7
CONVERTER_11
 73
     1
 44
0.54545454545455
  0
MTEXT
  5
10C
330
48
100
AcDbEntity
  8
1
 62
   250
100
AcDbMText
 10
25.0
 20
5.0
 30
0.0
 40
3.5
 41
0.0
 71
     4
 72
     1
  1
備考欄の文字列 原点位置=4
  7
CONVERTER_11
 73
     1
 44
0.54545454545455
  0
ENDBLK
  5
4A
330
48
100
AcDbEntity
  8
0
100
AcDbBlockEnd
  0
BLOCK
  5
4C
330
4B
100
AcDbEntity
  8
0
100
AcDbBlockBegin
  2
32-215K
 70
     0
 10
271.999998964804
 20
426.400408899349
 30
0.0
  3
32-215K
  1

  0
LINE
  5
10D
330
4B
100
AcDbEntity
  8
1
  6
PHANTOM
 62
     5
100
AcDbLine
 10
697.999999246241
 20
426.400410213898
 30
0.0
 11
698.116024650025
 21
426.467397512006
 31
0.0
  0
LINE
  5
10E
330
4B
100
AcDbEntity
  8
1
  6
PHANTOM
 62
     5
100
AcDbLine
 10
697.866024650025
 20
426.400410213898
 30
0.0
 11
697.999999246241
 21
426.400410213898
 31
0.0
  0
LINE
  5
10F
330
4B
100
AcDbEntity
  8
1
  6
Continuous
 62
     7
100
AcDbLine
 10
698.116024650025
 20
426.467397512006
 30
0.0
 11
699.499999246241
 21
427.266435617683
 31
0.0
  0
LINE
  5
110
330
4B
100
AcDbEntity
  8
1
  6
Continuous
 62
     7
100
AcDbLine
 10
685.999999246241
 20
426.400410213898
 30
0.0
 11
697.866024650025
 21
426.400410213898
 31
0.0
  0
LINE
  5
111
330
4B
100
AcDbEntity
  8
1
  6
PHANTOM
 62
     5
100
AcDbLine
 10
673.883973842456
 20
426.467397512006
 30
0.0
 11
673.999999246241
 21
426.400410213898
 31
0.0
  0
LINE
  5
112
330
4B
100
AcDbEntity
  8
1
  6
PHANTOM
 62
     5
100
AcDbLine
 10
673.999999246241
 20
426.400410213898
 30
0.0
 11
674.133973842456
 21
426.400410213898
 31
0.0
  0
LINE
  5
113
330
4B
100
AcDbEntity
  8
1
  6
Continuous
 62
     7
100
AcDbLine
 10
674.133973842456
 20
426.400410213898
 30
0.0
 11
685.999999246241
 21
426.400410213898
 31
0.0
  0
LINE
  5
114
330
4B
100
AcDbEntity
  8
1
  6
Continuous
 62
     7
100
AcDbLine
 10
672.499999246241
 20
427.266435617683
 30
0.0
 11
673.883973842456
 21
426.467397512006
 31
0.0
  0
LINE
  5
115
330
4B
100
AcDbEntity
  8
1
  6
Continuous
 62
     7
100
AcDbLine
 10
671.553871640632
 20
429.431499127143
 30
0.0
 11
671.249999246241
 21
429.431499127144
 31
0.0
  0
LINE
  5
116
330
4B
100
AcDbEntity
  8
1
  6
Continuous
 62
     7
100
AcDbLine
 10
681.35645534099
 20
429.431499127144
 30
0.0
 11
676.197415545884
 21
429.431499127143
 31
0.0
  0
LINE
  5
117
330
4B
100
AcDbEntity
  8
1
  6
Continuous
 62
     7
100
AcDbLine
 10
681.356455340989
 20
436.200410213899
 30
0.0
 11
676.197415545883
 21
436.200410213898
 31
0.0
  0
LINE
  5
118
330
4B
100
AcDbEntity
  8
1
  6
Continuous
 62
     7
100
AcDbLine
 10
676.197415545884
 20
429.431499127143
 30
0.0
 11
676.197415545883
 21
436.200410213898
 31
0.0
  0
LINE
  5
119
330
4B
100
AcDbEntity
  8
1
  6
Continuous
 62
     7
100
AcDbLine
 10
671.553871640633
 20
436.200410213898
 30
0.0
 11
671.553871640632
 21
429.431499127143
 31
0.0
  0
LINE
  5
11A
330
4B
100
AcDbEntity
  8
1
  6
Continuous
 62
     7
100
AcDbLine
 10
671.249999246241
 20
436.200410213898
 30
0.0
 11
671.553871640633
 21
436.200410213898
 31
0.0
  0
LINE
  5
11B
330
4B
100
AcDbEntity
  8
1
  6
Continuous
 62
     7
100
AcDbLine
 10
671.249999246241
 20
436.200410213898
 30
0.0
 11
671.249999246241
 21
429.431499127144
 31
0.0
  0
LINE
  5
11C
330
4B
100
AcDbEntity
  8
1
  6
Continuous
 62
     7
100
AcDbLine
 10
685.999999246241
 20
437.400410213898
 30
0.0
 11
672.449999246241
 21
437.400410213898
 31
0.0
  0
LINE
  5
11D
330
4B
100
AcDbEntity
  8
1
  6
Continuous
 62
     7
100
AcDbLine
 10
699.549999246241
 20
437.400410213898
 30
0.0
 11
685.999999246241
 21
437.400410213898
 31
0.0
  0
LINE
  5
11E
330
4B
100
AcDbEntity
  8
1
  6
Continuous
 62
     7
100
AcDbLine
 10
700.446126851849
 20
436.200410213898
 30
0.0
 11
700.749999246241
 21
436.200410213898
 31
0.0
  0
LINE
  5
11F
330
4B
100
AcDbEntity
  8
1
  6
Continuous
 62
     7
100
AcDbLine
 10
700.749999246241
 20
429.431499127144
 30
0.0
 11
700.446126851849
 21
429.431499127144
 31
0.0
  0
LINE
  5
120
330
4B
100
AcDbEntity
  8
1
  6
Continuous
 62
     7
100
AcDbLine
 10
700.749999246241
 20
429.431499127144
 30
0.0
 11
700.749999246241
 21
436.200410213898
 31
0.0
  0
LINE
  5
121
330
4B
100
AcDbEntity
  8
1
  6
Continuous
 62
     7
100
AcDbLine
 10
700.446126851849
 20
429.431499127144
 30
0.0
 11
700.446126851849
 21
436.200410213898
 31
0.0
  0
LINE
  5
122
330
4B
100
AcDbEntity
  8
1
  6
Continuous
 62
     7
100
AcDbLine
 10
695.802582946597
 20
436.200410213898
 30
0.0
 11
695.802582946597
 21
429.431499127143
 31
0.0
  0
LINE
  5
123
330
4B
100
AcDbEntity
  8
1
  6
Continuous
 62
     7
100
AcDbLine
 10
695.802582946597
 20
436.200410213898
 30
0.0
 11
690.643543151493
 21
436.200410213899
 31
0.0
  0
LINE
  5
124
330
4B
100
AcDbEntity
  8
1
  6
Continuous
 62
     7
100
AcDbLine
 10
681.356455340989
 20
436.200410213899
 30
0.0
 11
681.35645534099
 21
429.431499127144
 31
0.0
  0
LINE
  5
125
330
4B
100
AcDbEntity
  8
1
  6
Continuous
 62
     7
100
AcDbLine
 10
690.643543151493
 20
429.431499127144
 30
0.0
 11
690.643543151493
 21
436.200410213899
 31
0.0
  0
LINE
  5
126
330
4B
100
AcDbEntity
  8
1
  6
Continuous
 62
     7
100
AcDbLine
 10
695.802582946597
 20
429.431499127143
 30
0.0
 11
690.643543151493
 21
429.431499127144
 31
0.0
  0
LINE
  5
127
330
4B
100
AcDbEntity
  8
1
  6
PHANTOM
 62
     5
100
AcDbLine
 10
273.999998964805
 20
426.400408899349
 30
0.0
 11
274.13397356102
 21
426.400408899349
 31
0.0
  0
LINE
  5
128
330
4B
100
AcDbEntity
  8
1
  6
PHANTOM
 62
     5
100
AcDbLine
 10
273.88397356102
 20
426.467396197457
 30
0.0
 11
273.999998964805
 21
426.400408899349
 31
0.0
  0
LINE
  5
129
330
4B
100
AcDbEntity
  8
0
  6
Continuous
 62
     7
100
AcDbLine
 10
288.978571979268
 20
429.431497812582
 30
0.0
 11
283.02142595034
 21
429.431497812582
 31
0.0
  0
LINE
  5
12A
330
4B
100
AcDbEntity
  8
0
  6
Continuous
 62
     7
100
AcDbLine
 10
283.021425950341
 20
436.200408899349
 30
0.0
 11
288.978571979281
 21
436.200408899349
 31
0.0
  0
LINE
  5
12B
330
4B
100
AcDbEntity
  8
1
  6
Continuous
 62
     7
100
AcDbLine
 10
297.02142595034
 20
436.200408899349
 30
0.0
 11
299.999998964804
 21
436.200408899349
 31
0.0
  0
LINE
  5
12C
330
4B
100
AcDbEntity
  8
1
  6
Continuous
 62
     7
100
AcDbLine
 10
297.021425950347
 20
429.431497812589
 30
0.0
 11
299.999998964804
 21
429.431497812595
 31
0.0
  0
LINE
  5
12D
330
4B
100
AcDbEntity
  8
1
  6
Continuous
 62
     7
100
AcDbLine
 10
298.116024368589
 20
426.467396197457
 30
0.0
 11
299.499998964804
 21
427.266434303134
 31
0.0
  0
LINE
  5
12E
330
4B
100
AcDbEntity
  8
0
  6
Continuous
 62
     7
100
AcDbLine
 10
299.999998964804
 20
429.431497812595
 30
0.0
 11
299.999998964804
 21
427.646140705459
 31
0.0
  0
LINE
  5
12F
330
4B
100
AcDbEntity
  8
0
  6
Continuous
 62
     7
100
AcDbLine
 10
299.999998964804
 20
437.312838672413
 30
0.0
 11
299.999998964804
 21
436.200408899349
 31
0.0
  0
LINE
  5
130
330
4B
100
AcDbEntity
  8
1
  6
Continuous
 62
     7
100
AcDbLine
 10
299.549998964804
 20
437.400408899349
 30
0.0
 11
272.449998964804
 21
437.400408899349
 31
0.0
  0
LINE
  5
131
330
4B
100
AcDbEntity
  8
0
  6
Continuous
 62
     7
100
AcDbLine
 10
271.999998964804
 20
437.312838672413
 30
0.0
 11
271.999998964804
 21
436.200408899349
 31
0.0
  0
LINE
  5
132
330
4B
100
AcDbEntity
  8
1
  6
Continuous
 62
     7
100
AcDbLine
 10
274.13397356102
 20
426.400408899349
 30
0.0
 11
297.866024368589
 21
426.400408899349
 31
0.0
  0
LINE
  5
133
330
4B
100
AcDbEntity
  8
1
  6
Continuous
 62
     7
100
AcDbLine
 10
272.499998964804
 20
427.266434303134
 30
0.0
 11
273.88397356102
 21
426.467396197457
 31
0.0
  0
LINE
  5
134
330
4B
100
AcDbEntity
  8
0
  6
Continuous
 62
     7
100
AcDbLine
 10
271.999998964804
 20
429.431497812595
 30
0.0
 11
271.999998964804
 21
427.64614070546
 31
0.0
  0
LINE
  5
135
330
4B
100
AcDbEntity
  8
0
  6
Continuous
 62
     7
100
AcDbLine
 10
271.999998964804
 20
436.200408899349
 30
0.0
 11
271.999998964804
 21
429.431497812595
 31
0.0
  0
LINE
  5
136
330
4B
100
AcDbEntity
  8
1
  6
Continuous
 62
     7
100
AcDbLine
 10
274.978571979267
 20
429.431497812594
 30
0.0
 11
271.999998964804
 21
429.431497812595
 31
0.0
  0
LINE
  5
137
330
4B
100
AcDbEntity
  8
1
  6
Continuous
 62
     7
100
AcDbLine
 10
274.978571979267
 20
436.200408899349
 30
0.0
 11
271.999998964804
 21
436.200408899349
 31
0.0
  0
LINE
  5
138
330
4B
100
AcDbEntity
  8
1
  6
Continuous
 62
     7
100
AcDbLine
 10
274.978571979267
 20
429.431497812594
 30
0.0
 11
274.978571979267
 21
436.200408899349
 31
0.0
  0
LINE
  5
139
330
4B
100
AcDbEntity
  8
1
  6
Continuous
 62
     7
100
AcDbLine
 10
283.021425950341
 20
436.200408899349
 30
0.0
 11
283.02142595034
 21
429.431497812582
 31
0.0
  0
LINE
  5
13A
330
4B
100
AcDbEntity
  8
1
  6
Continuous
 62
     7
100
AcDbLine
 10
288.978571979268
 20
429.431497812582
 30
0.0
 11
288.978571979281
 21
436.200408899349
 31
0.0
  0
LINE
  5
13B
330
4B
100
AcDbEntity
  8
1
  6
Continuous
 62
     7
100
AcDbLine
 10
297.02142595034
 20
436.200408899349
 30
0.0
 11
297.021425950347
 21
429.431497812589
 31
0.0
  0
LINE
  5
13C
330
4B
100
AcDbEntity
  8
0
  6
Continuous
 62
     7
100
AcDbLine
 10
299.999998964804
 20
436.200408899349
 30
0.0
 11
299.999998964804
 21
429.431497812595
 31
0.0
  0
ARC
  5
13D
330
4B
100
AcDbEntity
  8
1
  6
Continuous
 62
     7
100
AcDbCircle
 10
697.866024650025
 20
426.900410213898
 30
0.0
 40
0.5
100
AcDbArc
 50
270.0
 51
300.0000000000136
  0
ARC
  5
13E
330
4B
100
AcDbEntity
  8
1
  6
Continuous
 62
     7
100
AcDbCircle
 10
674.133973842456
 20
426.900410213898
 30
0.0
 40
0.4999999999997949
100
AcDbArc
 50
239.9999999999864
 51
270.0
  0
ARC
  5
13F
330
4B
100
AcDbEntity
  8
1
  6
Continuous
 62
     7
100
AcDbCircle
 10
673.749999246241
 20
429.431499127144
 30
0.0
 40
2.5
100
AcDbArc
 50
180.0
 51
239.9999999999988
  0
ARC
  5
140
330
4B
100
AcDbEntity
  8
1
  6
Continuous
 62
     7
100
AcDbCircle
 10
673.875643593258
 20
430.072314647594
 30
0.0
 40
2.408582473417034
100
AcDbArc
 50
195.4296532165002
 51
344.5703467834998
  0
ARC
  5
141
330
4B
100
AcDbEntity
  8
1
  6
Continuous
 62
     7
100
AcDbCircle
 10
673.875643593258
 20
434.333719344703
 30
0.0
 40
2.979120642258732
100
AcDbArc
 50
38.79907508317805
 51
141.2009249168219
  0
ARC
  5
142
330
4B
100
AcDbEntity
  8
1
  6
Continuous
 62
     7
100
AcDbCircle
 10
672.449999246241
 20
436.200410213898
 30
0.0
 40
1.199999999999989
100
AcDbArc
 50
90.0
 51
180.0
  0
ARC
  5
143
330
4B
100
AcDbEntity
  8
1
  6
Continuous
 62
     7
100
AcDbCircle
 10
699.549999246241
 20
436.200410213898
 30
0.0
 40
1.200000000000045
100
AcDbArc
 50
0.0
 51
90.0
  0
ARC
  5
144
330
4B
100
AcDbEntity
  8
1
  6
Continuous
 62
     7
100
AcDbCircle
 10
698.249999246241
 20
429.431499127144
 30
0.0
 40
2.49999999999991
100
AcDbArc
 50
300.0000000000012
 51
0.0
  0
ARC
  5
145
330
4B
100
AcDbEntity
  8
1
  6
Continuous
 62
     7
100
AcDbCircle
 10
698.124354899223
 20
430.072314647594
 30
0.0
 40
2.408582473417034
100
AcDbArc
 50
195.4296532165002
 51
344.5703467835219
  0
ARC
  5
146
330
4B
100
AcDbEntity
  8
1
  6
Continuous
 62
     7
100
AcDbCircle
 10
698.124354899223
 20
434.333719344703
 30
0.0
 40
2.979120642259529
100
AcDbArc
 50
38.79907508316572
 51
141.2009249168343
  0
ARC
  5
147
330
4B
100
AcDbEntity
  8
1
  6
Continuous
 62
     7
100
AcDbCircle
 10
685.999999246241
 20
427.065002077522
 30
0.0
 40
10.24783790944142
100
AcDbArc
 50
63.0556897831709
 51
90.0
  0
ARC
  5
148
330
4B
100
AcDbEntity
  8
1
  6
Continuous
 62
     7
100
AcDbCircle
 10
685.999999246241
 20
427.065002077522
 30
0.0
 40
10.24783790944099
100
AcDbArc
 50
90.0
 51
116.9443102168297
  0
ARC
  5
149
330
4B
100
AcDbEntity
  8
1
  6
Continuous
 62
     7
100
AcDbCircle
 10
685.999999246241
 20
434.646411638395
 30
0.0
 40
6.982679464216911
100
AcDbArc
 50
228.3169927455837
 51
270.0
  0
ARC
  5
14A
330
4B
100
AcDbEntity
  8
1
  6
Continuous
 62
     7
100
AcDbCircle
 10
685.999999246241
 20
434.646411638395
 30
0.0
 40
6.982679464217028
100
AcDbArc
 50
270.0
 51
311.6830072544219
  0
ARC
  5
14B
330
4B
100
AcDbEntity
  8
1
  6
Continuous
 62
     7
100
AcDbCircle
 10
274.13397356102
 20
426.900408899349
 30
0.0
 40
0.4999999999997949
100
AcDbArc
 50
239.9999999999864
 51
270.0
  0
ARC
  5
14C
330
4B
100
AcDbEntity
  8
1
  6
Continuous
 62
     7
100
AcDbCircle
 10
272.449998964804
 20
436.200408899349
 30
0.0
 40
1.199999999999989
100
AcDbArc
 50
90.0
 51
112.0243128370498
  0
ARC
  5
14D
330
4B
100
AcDbEntity
  8
0
  6
Continuous
 62
     7
100
AcDbCircle
 10
292.999998964804
 20
429.46921986409
 30
0.0
 40
7.84096810530359
100
AcDbArc
 50
59.14455861722693
 51
120.8554413826911
  0
ARC
  5
14E
330
4B
100
AcDbEntity
  8
0
  6
Continuous
 62
     7
100
AcDbCircle
 10
292.999998964804
 20
433.131852145741
 30
0.0
 40
5.46484191820089
100
AcDbArc
 50
222.6190057185556
 51
317.3809942815484
  0
ARC
  5
14F
330
4B
100
AcDbEntity
  8
1
  6
Continuous
 62
     7
100
AcDbCircle
 10
297.866024368589
 20
426.900408899349
 30
0.0
 40
0.5
100
AcDbArc
 50
270.0
 51
300.0000000000136
  0
ARC
  5
150
330
4B
100
AcDbEntity
  8
1
  6
Continuous
 62
     7
100
AcDbCircle
 10
298.249998964804
 20
429.431497812595
 30
0.0
 40
2.49999999999991
100
AcDbArc
 50
300.0000000000012
 51
314.427004000801
  0
ARC
  5
151
330
4B
100
AcDbEntity
  8
1
  6
Continuous
 62
     7
100
AcDbCircle
 10
299.549998964804
 20
436.200408899349
 30
0.0
 40
1.199999999999706
100
AcDbArc
 50
67.97568716295274
 51
90.0
  0
ARC
  5
152
330
4B
100
AcDbEntity
  8
0
  6
Continuous
 62
     7
100
AcDbCircle
 10
278.999998964804
 20
429.46921986409
 30
0.0
 40
7.840968105304086
100
AcDbArc
 50
59.14455861722087
 51
120.8554413827791
  0
ARC
  5
153
330
4B
100
AcDbEntity
  8
0
  6
Continuous
 62
     7
100
AcDbCircle
 10
278.999998964804
 20
433.131852145741
 30
0.0
 40
5.464841918193522
100
AcDbArc
 50
222.6190057184558
 51
317.3809942814448
  0
ARC
  5
154
330
4B
100
AcDbEntity
  8
1
  6
Continuous
 62
     7
100
AcDbCircle
 10
273.749998964804
 20
429.431497812595
 30
0.0
 40
2.49999999999948
100
AcDbArc
 50
225.5729959991826
 51
239.9999999999988
  0
ENDBLK
  5
4D
330
4B
100
AcDbEntity
  8
0
100
AcDbBlockEnd
  0
BLOCK
  5
4F
330
4E
100
AcDbEntity
  8
0
100
AcDbBlockBegin
  2
82-20-M21K
 70
     0
 10
273.499999106322
 20
388.900408899349
 30
0.0
  3
82-20-M21K
  1

  0
POINT
  5
155
330
4E
100
AcDbEntity
  8
0
 62
     7
100
AcDbPoint
 10
296.745697693568
 20
388.900408899349
 30
0.0
  0
LINE
  5
156
330
4E
100
AcDbEntity
  8
1
  6
Continuous
 62
     7
100
AcDbLine
 10
275.999999106325
 20
402.400408899349
 30
0.0
 11
275.999999106325
 21
402.900408899349
 31
0.0
  0
LINE
  5
157
330
4E
100
AcDbEntity
  8
1
  6
Continuous
 62
     7
100
AcDbLine
 10
295.999999106325
 20
402.900408899349
 30
0.0
 11
295.999999106325
 21
402.400408899349
 31
0.0
  0
LINE
  5
158
330
4E
100
AcDbEntity
  8
1
  6
Continuous
 62
     7
100
AcDbLine
 10
273.699999106322
 20
402.400408899349
 30
0.0
 11
298.299999106322
 21
402.400408899349
 31
0.0
  0
LINE
  5
159
330
4E
100
AcDbEntity
  8
1
  6
Continuous
 62
     7
100
AcDbLine
 10
298.499999106322
 20
392.400408899349
 30
0.0
 11
298.499999106322
 21
402.200408899349
 31
0.0
  0
LINE
  5
15A
330
4E
100
AcDbEntity
  8
1
  6
Continuous
 62
     7
100
AcDbLine
 10
297.707221641209
 20
389.625687771451
 30
0.0
 11
298.499999106322
 21
392.400408899349
 31
0.0
  0
LINE
  5
15B
330
4E
100
AcDbEntity
  8
1
  6
Continuous
 62
     7
100
AcDbLine
 10
275.254300519077
 20
388.900408899349
 30
0.0
 11
296.745697693568
 21
388.900408899349
 31
0.0
  0
LINE
  5
15C
330
4E
100
AcDbEntity
  8
1
  6
Continuous
 62
     7
100
AcDbLine
 10
274.292776571436
 20
389.625687771452
 30
0.0
 11
273.499999106322
 21
392.400408899349
 31
0.0
  0
LINE
  5
15D
330
4E
100
AcDbEntity
  8
1
  6
Continuous
 62
     7
100
AcDbLine
 10
273.499999106322
 20
392.400408899349
 30
0.0
 11
273.499999106322
 21
402.200408899349
 31
0.0
  0
LINE
  5
15E
330
4E
100
AcDbEntity
  8
1
  6
Continuous
 62
     7
100
AcDbLine
 10
273.499999106322
 20
392.400408899349
 30
0.0
 11
298.499999106322
 21
392.400408899349
 31
0.0
  0
LINE
  5
15F
330
4E
100
AcDbEntity
  8
1
  6
Continuous
 62
     7
100
AcDbLine
 10
485.999999246241
 20
402.400410213899
 30
0.0
 11
485.999999246241
 21
402.900410213899
 31
0.0
  0
LINE
  5
160
330
4E
100
AcDbEntity
  8
1
  6
Continuous
 62
     7
100
AcDbLine
 10
505.999999246241
 20
402.900410213899
 30
0.0
 11
505.999999246241
 21
402.400410213899
 31
0.0
  0
LINE
  5
161
330
4E
100
AcDbEntity
  8
1
  6
Continuous
 62
     7
100
AcDbLine
 10
483.699999246243
 20
402.400410213899
 30
0.0
 11
508.299999246243
 21
402.400410213899
 31
0.0
  0
LINE
  5
162
330
4E
100
AcDbEntity
  8
1
  6
Continuous
 62
     7
100
AcDbLine
 10
508.499999246243
 20
402.200410213899
 30
0.0
 11
508.499999246243
 21
392.400410213898
 31
0.0
  0
LINE
  5
163
330
4E
100
AcDbEntity
  8
1
  6
Continuous
 62
     7
100
AcDbLine
 10
508.499999246243
 20
392.400410213898
 30
0.0
 11
507.70722178113
 21
389.625689086002
 31
0.0
  0
LINE
  5
164
330
4E
100
AcDbEntity
  8
1
  6
Continuous
 62
     7
100
AcDbLine
 10
495.999999246241
 20
388.900410213899
 30
0.0
 11
506.745697833489
 21
388.900410213899
 31
0.0
  0
LINE
  5
165
330
4E
100
AcDbEntity
  8
1
  6
Continuous
 62
     7
100
AcDbLine
 10
485.254300658997
 20
388.900410213899
 30
0.0
 11
495.999999246241
 21
388.900410213899
 31
0.0
  0
LINE
  5
166
330
4E
100
AcDbEntity
  8
1
  6
Continuous
 62
     7
100
AcDbLine
 10
483.499999246243
 20
392.400410213899
 30
0.0
 11
484.292776711356
 21
389.625689086002
 31
0.0
  0
LINE
  5
167
330
4E
100
AcDbEntity
  8
1
  6
Continuous
 62
     7
100
AcDbLine
 10
508.499999246243
 20
392.400410213898
 30
0.0
 11
483.499999246243
 21
392.400410213899
 31
0.0
  0
LINE
  5
168
330
4E
100
AcDbEntity
  8
1
  6
Continuous
 62
     7
100
AcDbLine
 10
483.499999246243
 20
402.200410213899
 30
0.0
 11
483.499999246243
 21
392.400410213899
 31
0.0
  0
ARC
  5
169
330
4E
100
AcDbEntity
  8
1
  6
Continuous
 62
     7
100
AcDbCircle
 10
298.299999106322
 20
402.200408899349
 30
0.0
 40
0.1999999999999886
100
AcDbArc
 50
0.0
 51
90.0
  0
ARC
  5
16A
330
4E
100
AcDbEntity
  8
1
  6
Continuous
 62
     7
100
AcDbCircle
 10
273.699999106322
 20
402.200408899349
 30
0.0
 40
0.1999999999999886
100
AcDbArc
 50
90.0
 51
180.0
  0
ARC
  5
16B
330
4E
100
AcDbEntity
  8
1
  6
Continuous
 62
     7
100
AcDbCircle
 10
296.745697693568
 20
389.900408899349
 30
0.0
 40
1.0
100
AcDbArc
 50
270.0
 51
344.0546040990471
  0
ARC
  5
16C
330
4E
100
AcDbEntity
  8
1
  6
Continuous
 62
     7
100
AcDbCircle
 10
275.254300519077
 20
389.900408899349
 30
0.0
 40
1.000000000000065
100
AcDbArc
 50
195.9453959008964
 51
270.0
  0
ARC
  5
16D
330
4E
100
AcDbEntity
  8
1
  6
Continuous
 62
     7
100
AcDbCircle
 10
483.699999246243
 20
402.200410213899
 30
0.0
 40
0.2000000000000455
100
AcDbArc
 50
90.0
 51
180.0
  0
ARC
  5
16E
330
4E
100
AcDbEntity
  8
1
  6
Continuous
 62
     7
100
AcDbCircle
 10
508.299999246243
 20
402.200410213899
 30
0.0
 40
0.2000000000000455
100
AcDbArc
 50
0.0
 51
90.0
  0
ARC
  5
16F
330
4E
100
AcDbEntity
  8
1
  6
Continuous
 62
     7
100
AcDbCircle
 10
506.745697833489
 20
389.900410213899
 30
0.0
 40
1.0
100
AcDbArc
 50
270.0
 51
344.0546040991004
  0
ARC
  5
170
330
4E
100
AcDbEntity
  8
1
  6
Continuous
 62
     7
100
AcDbCircle
 10
485.254300658997
 20
389.900410213899
 30
0.0
 40
1.000000000000081
100
AcDbArc
 50
195.9453959008996
 51
270.0
  0
ENDBLK
  5
50
330
4E
100
AcDbEntity
  8
0
100
AcDbBlockEnd
  0
BLOCK
  5
52
330
51
100
AcDbEntity
  8
0
100
AcDbBlockBegin
  2
61-142-16-M1K
 70
     0
 10
97.294796284014
 20
915.950225529964
 30
0.0
  3
61-142-16-M1K
  1

  0
LINE
  5
171
330
51
100
AcDbEntity
  8
1
  6
Continuous
 62
     7
100
AcDbLine
 10
507.003868531114
 20
405.614222269109
 30
0.0
 11
500.999999246241
 21
408.044056788549
 31
0.0
  0
LINE
  5
172
330
51
100
AcDbEntity
  8
1
  6
Continuous
 62
     7
100
AcDbLine
 10
485.999999246241
 20
402.900410213899
 30
0.0
 11
505.999999246241
 21
402.900410213899
 31
0.0
  0
LINE
  5
173
330
51
100
AcDbEntity
  8
1
  6
Continuous
 62
     7
100
AcDbLine
 10
674.999999246241
 20
418.614695928184
 30
0.0
 11
680.999999246241
 21
416.043267356756
 31
0.0
  0
LINE
  5
174
330
51
100
AcDbEntity
  8
1
  6
Continuous
 62
     7
100
AcDbLine
 10
699.999999246241
 20
408.900410213899
 30
0.0
 11
699.999999246241
 21
424.400410213899
 31
0.0
  0
LINE
  5
175
330
51
100
AcDbEntity
  8
1
  6
Continuous
 62
     7
100
AcDbLine
 10
678.049999246241
 20
425.900410213899
 30
0.0
 11
693.949999246241
 21
425.900410213899
 31
0.0
  0
LINE
  5
176
330
51
100
AcDbEntity
  8
1
  6
Continuous
 62
     7
100
AcDbLine
 10
293.999999106326
 20
419.900408899349
 30
0.0
 11
277.999999106324
 21
419.900408899349
 31
0.0
  0
LINE
  5
177
330
51
100
AcDbEntity
  8
1
  6
Continuous
 62
     7
100
AcDbLine
 10
295.999999106325
 20
402.900408899349
 30
0.0
 11
275.999999106325
 21
402.900408899349
 31
0.0
  0
LINE
  5
178
330
51
100
AcDbEntity
  8
1
  6
Continuous
 62
     7
100
AcDbLine
 10
299.999999106325
 20
424.400408899349
 30
0.0
 11
299.999999106326
 21
402.900408899349
 31
0.0
  0
LINE
  5
179
330
51
100
AcDbEntity
  8
1
  6
Continuous
 62
     7
100
AcDbLine
 10
271.999999106325
 20
424.400408899349
 30
0.0
 11
271.999999106325
 21
402.900408899349
 31
0.0
  0
LINE
  5
17A
330
51
100
AcDbEntity
  8
1
  6
Continuous
 62
     7
100
AcDbLine
 10
293.949999106325
 20
426.400408899349
 30
0.0
 11
293.949999106325
 21
425.900408899349
 31
0.0
  0
LINE
  5
17B
330
51
100
AcDbEntity
  8
1
  6
Continuous
 62
     7
100
AcDbLine
 10
275.999999106325
 20
402.900408899349
 30
0.0
 11
271.999999106325
 21
402.900408899349
 31
0.0
  0
LINE
  5
17C
330
51
100
AcDbEntity
  8
1
  6
Continuous
 62
     7
100
AcDbLine
 10
299.999999106326
 20
402.900408899349
 30
0.0
 11
295.999999106325
 21
402.900408899349
 31
0.0
  0
LINE
  5
17D
330
51
100
AcDbEntity
  8
1
  6
Continuous
 62
     7
100
AcDbLine
 10
273.499999106325
 20
425.900408899349
 30
0.0
 11
298.499999106325
 21
425.900408899349
 31
0.0
  0
LINE
  5
17E
330
51
100
AcDbEntity
  8
1
  6
Continuous
 62
     7
100
AcDbLine
 10
278.049999106325
 20
425.900408899349
 30
0.0
 11
278.049999106325
 21
426.400408899349
 31
0.0
  0
LINE
  5
17F
330
51
100
AcDbEntity
  8
1
  6
Continuous
 62
     7
100
AcDbLine
 10
693.949999246241
 20
426.400410213898
 30
0.0
 11
693.949999246241
 21
425.900410213899
 31
0.0
  0
LINE
  5
180
330
51
100
AcDbEntity
  8
1
  6
Continuous
 62
     7
100
AcDbLine
 10
693.949999246241
 20
425.900410213899
 30
0.0
 11
698.499999246241
 21
425.900410213899
 31
0.0
  0
LINE
  5
181
330
51
100
AcDbEntity
  8
1
  6
Continuous
 62
     7
100
AcDbLine
 10
510.003868531114
 20
402.900410213899
 30
0.0
 11
505.999999246241
 21
402.900410213899
 31
0.0
  0
LINE
  5
182
330
51
100
AcDbEntity
  8
1
  6
Continuous
 62
     7
100
AcDbLine
 10
485.999999246241
 20
402.900410213899
 30
0.0
 11
482.998064603803
 21
402.900410213899
 31
0.0
  0
LINE
  5
183
330
51
100
AcDbEntity
  8
1
  6
Continuous
 62
     7
100
AcDbLine
 10
481.99999924624
 20
402.900410213898
 30
0.0
 11
481.99999924624
 21
413.900410213899
 31
0.0
  0
LINE
  5
184
330
51
100
AcDbEntity
  8
1
  6
Continuous
 62
     7
100
AcDbLine
 10
482.998064603803
 20
402.900410213899
 30
0.0
 11
481.99999924624
 21
402.900410213898
 31
0.0
  0
LINE
  5
185
330
51
100
AcDbEntity
  8
1
  6
Continuous
 62
     7
100
AcDbLine
 10
510.003868531114
 20
402.900410213899
 30
0.0
 11
510.003868531114
 21
403.900410213899
 31
0.0
  0
LINE
  5
186
330
51
100
AcDbEntity
  8
1
  6
Continuous
 62
     7
100
AcDbLine
 10
510.003868531114
 20
403.900410213899
 30
0.0
 11
694.999999246241
 21
403.900410213899
 31
0.0
  0
LINE
  5
187
330
51
100
AcDbEntity
  8
1
  6
Continuous
 62
     7
100
AcDbLine
 10
671.999999246241
 20
419.900410213899
 30
0.0
 11
671.999999246241
 21
424.400410213899
 31
0.0
  0
LINE
  5
188
330
51
100
AcDbEntity
  8
1
  6
Continuous
 62
     7
100
AcDbLine
 10
673.499999246241
 20
425.900410213899
 30
0.0
 11
678.049999246241
 21
425.900410213899
 31
0.0
  0
LINE
  5
189
330
51
100
AcDbEntity
  8
1
  6
Continuous
 62
     7
100
AcDbLine
 10
678.049999246241
 20
425.900410213899
 30
0.0
 11
678.049999246241
 21
426.400410213898
 31
0.0
  0
LINE
  5
18A
330
51
100
AcDbEntity
  8
1
  6
Continuous
 62
     7
100
AcDbLine
 10
487.99999924624
 20
419.900410213899
 30
0.0
 11
671.999999246241
 21
419.900410213899
 31
0.0
  0
LINE
  5
18B
330
51
100
AcDbEntity
  8
1
  6
Continuous
 62
     7
100
AcDbLine
 10
271.99999924624
 20
592.000000000001
 30
0.0
 11
271.99999924624
 21
728.097212199556
 31
0.0
  0
LINE
  5
18C
330
51
100
AcDbEntity
  8
1
  6
Continuous
 62
     7
100
AcDbLine
 10
299.999999246242
 20
728.097212199556
 30
0.0
 11
299.999999246242
 21
592.000000000001
 31
0.0
  0
ARC
  5
18D
330
51
100
AcDbEntity
  8
1
  6
Continuous
 62
     7
100
AcDbCircle
 10
285.999999246241
 20
592.000000000001
 30
0.0
 40
14.00000000000097
100
AcDbArc
 50
180.0
 51
0.0
  0
ARC
  5
18E
330
51
100
AcDbEntity
  8
1
  6
Continuous
 62
     7
100
AcDbCircle
 10
293.999999106326
 20
413.900408899349
 30
0.0
 40
6.0
100
AcDbArc
 50
0.0
 51
90.0
  0
ARC
  5
18F
330
51
100
AcDbEntity
  8
1
  6
Continuous
 62
     7
100
AcDbCircle
 10
277.999999106324
 20
413.900408899349
 30
0.0
 40
6.0
100
AcDbArc
 50
90.0
 51
180.0
  0
ARC
  5
190
330
51
100
AcDbEntity
  8
1
  6
Continuous
 62
     7
100
AcDbCircle
 10
298.499999106325
 20
424.400408899349
 30
0.0
 40
1.5
100
AcDbArc
 50
0.0
 51
90.0
  0
ARC
  5
191
330
51
100
AcDbEntity
  8
1
  6
Continuous
 62
     7
100
AcDbCircle
 10
273.499999106325
 20
424.400408899349
 30
0.0
 40
1.5
100
AcDbArc
 50
90.0
 51
180.0
  0
ARC
  5
192
330
51
100
AcDbEntity
  8
1
  6
Continuous
 62
     7
100
AcDbCircle
 10
487.99999924624
 20
413.900410213899
 30
0.0
 40
6.0
100
AcDbArc
 50
90.0
 51
180.0
  0
ARC
  5
193
330
51
100
AcDbEntity
  8
1
  6
Continuous
 62
     7
100
AcDbCircle
 10
694.999999246241
 20
408.900410213899
 30
0.0
 40
5.0
100
AcDbArc
 50
270.0
 51
0.0
  0
ARC
  5
194
330
51
100
AcDbEntity
  8
1
  6
Continuous
 62
     7
100
AcDbCircle
 10
673.499999246241
 20
424.400410213899
 30
0.0
 40
1.5
100
AcDbArc
 50
90.0
 51
180.0
  0
ARC
  5
195
330
51
100
AcDbEntity
  8
1
  6
Continuous
 62
     7
100
AcDbCircle
 10
698.499999246241
 20
424.400410213899
 30
0.0
 40
1.5
100
AcDbArc
 50
0.0
 51
90.0
  0
ENDBLK
  5
53
330
51
100
AcDbEntity
  8
0
100
AcDbBlockEnd
  0
BLOCK
  5
58
330
54
100
AcDbEntity
  8
0
100
AcDbBlockBegin
  2
61-142X
 70
     0
 10
271.999998964804
 20
388.900408899349
 30
0.0
  3
61-142X
  1

  0
INSERT
  5
55
330
54
100
AcDbEntity
  8
1
100
AcDbBlockReference
  2
32-215K
 10
271.999998964804
 20
426.400408899349
 30
0.0
  0
INSERT
  5
56
330
54
100
AcDbEntity
  8
1
100
AcDbBlockReference
  2
82-20-M21K
 10
273.499999106322
 20
388.900408899349
 30
0.0
  0
INSERT
  5
57
330
54
100
AcDbEntity
  8
0
100
AcDbBlockReference
  2
61-142-16-M1K
 10
97.294796284014
 20
915.950225529964
 30
0.0
  0
ENDBLK
  5
59
330
54
100
AcDbEntity
  8
0
100
AcDbBlockEnd
  0
BLOCK
  5
5B
330
5A
100
AcDbEntity
  8
0
100
AcDbBlockBegin
  2
36-140AK__1
 70
     0
 10
377.455336253682
 20
416.6450724894462
 30
0.0
  3
36-140AK__1
  1

  0
LINE
  5
196
330
5A
100
AcDbEntity
  8
1
  6
Continuous
 62
     7
100
AcDbLine
 10
383.4854730777342
 20
417.3542754936141
 30
0.0
 11
378.1645392578498
 21
422.6752093134983
 31
0.0
  0
LINE
  5
197
330
5A
100
AcDbEntity
  8
1
  6
Continuous
 62
     7
100
AcDbLine
 10
379.2251994296296
 20
423.7358694852782
 30
0.0
 11
384.546133249514
 21
418.4149356653939
 31
0.0
  0
ARC
  5
198
330
5A
100
AcDbEntity
  8
1
  6
Continuous
 62
     7
100
AcDbCircle
 10
381.355336253682
 20
420.5450724894462
 30
0.0
 40
3.83649167310372
100
AcDbArc
 50
303.7265859457688
 51
326.2734140542281
  0
ARC
  5
199
330
5A
100
AcDbEntity
  8
1
  6
Continuous
 62
     7
100
AcDbCircle
 10
381.355336253682
 20
420.5450724894462
 30
0.0
 40
3.836491673103783
100
AcDbArc
 50
123.7265859457733
 51
146.2734140542329
  0
CIRCLE
  5
19A
330
5A
100
AcDbEntity
  8
1
  6
Continuous
 62
     7
100
AcDbCircle
 10
381.355336253682
 20
420.5450724894462
 30
0.0
 40
3.899999999999967
  0
ENDBLK
  5
5C
330
5A
100
AcDbEntity
  8
0
100
AcDbBlockEnd
  0
BLOCK
  5
5F
330
5D
100
AcDbEntity
  8
0
100
AcDbBlockBegin
  2
36-140AXK
 70
     0
 10
377.455336253682
 20
416.6450724894462
 30
0.0
  3
36-140AXK
  1

  0
INSERT
  5
5E
330
5D
100
AcDbEntity
  8
1
100
AcDbBlockReference
  2
36-140AK__1
 10
377.455336253682
 20
416.6450724894462
 30
0.0
  0
ENDBLK
  5
60
330
5D
100
AcDbEntity
  8
0
100
AcDbBlockEnd
  0
BLOCK
  5
62
330
61
100
AcDbEntity
  8
0
100
AcDbBlockBegin
  2
34-98AK__2
 70
     0
 10
371.3553358366405
 20
410.5450724894462
 30
0.0
  3
34-98AK__2
  1

  0
LINE
  5
19B
330
61
100
AcDbEntity
  8
1
  6
Continuous
 62
     7
100
AcDbLine
 10
721.4999992462406
 20
430.5450729064876
 30
0.0
 11
722.4999992462406
 21
430.5450729064876
 31
0.0
  0
LINE
  5
19C
330
61
100
AcDbEntity
  8
1
  6
Continuous
 62
     7
100
AcDbLine
 10
718.4999992462406
 20
413.5450729064876
 30
0.0
 11
718.4999992462406
 21
427.5450729064876
 31
0.0
  0
LINE
  5
19D
330
61
100
AcDbEntity
  8
1
  6
Continuous
 62
     7
100
AcDbLine
 10
722.4999992462406
 20
410.5450729064876
 30
0.0
 11
721.4999992462406
 21
410.5450729064876
 31
0.0
  0
LINE
  5
19E
330
61
100
AcDbEntity
  8
1
  6
Continuous
 62
     7
100
AcDbLine
 10
387.112179443382
 20
413.7275691279663
 30
0.0
 11
384.3205390313198
 21
416.5192095400283
 31
0.0
  0
LINE
  5
19F
330
61
100
AcDbEntity
  8
1
  6
Continuous
 62
     7
100
AcDbLine
 10
385.3811992030997
 20
417.5798697118082
 30
0.0
 11
388.1728396151618
 21
414.7882292997461
 31
0.0
  0
LINE
  5
1A0
330
61
100
AcDbEntity
  8
1
  6
Continuous
 62
     7
100
AcDbLine
 10
377.3294733042648
 20
423.5102752670834
 30
0.0
 11
374.537832892202
 21
426.3019156791462
 31
0.0
  0
LINE
  5
1A1
330
61
100
AcDbEntity
  8
1
  6
Continuous
 62
     7
100
AcDbLine
 10
375.5984930639818
 20
427.362575850926
 30
0.0
 11
378.3901334760446
 21
424.5709354388632
 31
0.0
  0
LINE
  5
1A2
330
61
100
AcDbEntity
  8
1
  6
Continuous
 62
     7
100
AcDbLine
 10
391.3553358366405
 20
818.500000000001
 30
0.0
 11
391.3553358366405
 21
817.500000000001
 31
0.0
  0
LINE
  5
1A3
330
61
100
AcDbEntity
  8
1
  6
Continuous
 62
     7
100
AcDbLine
 10
388.3553358366405
 20
814.500000000001
 30
0.0
 11
374.3553358366405
 21
814.500000000001
 31
0.0
  0
LINE
  5
1A4
330
61
100
AcDbEntity
  8
1
  6
Continuous
 62
     7
100
AcDbLine
 10
371.3553358366405
 20
817.500000000001
 30
0.0
 11
371.3553358366405
 21
818.500000000001
 31
0.0
  0
ARC
  5
1A5
330
61
100
AcDbEntity
  8
1
  6
Continuous
 62
     7
100
AcDbCircle
 10
721.4999992462406
 20
427.5450729064876
 30
0.0
 40
3.0
100
AcDbArc
 50
90.0
 51
180.0
  0
ARC
  5
1A6
330
61
100
AcDbEntity
  8
1
  6
Continuous
 62
     7
100
AcDbCircle
 10
721.4999992462406
 20
413.5450729064876
 30
0.0
 40
3.0
100
AcDbArc
 50
180.0
 51
270.0
  0
ARC
  5
1A7
330
61
100
AcDbEntity
  8
1
  6
Continuous
 62
     7
100
AcDbCircle
 10
381.355336253682
 20
420.5450724894462
 30
0.0
 40
8.922981317619392
100
AcDbArc
 50
310.178450692659
 51
319.8215493073397
  0
ARC
  5
1A8
330
61
100
AcDbEntity
  8
1
  6
Continuous
 62
     7
100
AcDbCircle
 10
381.355336253682
 20
420.5450724894462
 30
0.0
 40
8.922981317619488
100
AcDbArc
 50
130.1784506926608
 51
139.8215493073415
  0
ARC
  5
1A9
330
61
100
AcDbEntity
  8
1
  6
Continuous
 62
     7
100
AcDbCircle
 10
388.3553358366405
 20
817.500000000001
 30
0.0
 40
3.0
100
AcDbArc
 50
270.0
 51
0.0
  0
ARC
  5
1AA
330
61
100
AcDbEntity
  8
1
  6
Continuous
 62
     7
100
AcDbCircle
 10
374.3553358366405
 20
817.500000000001
 30
0.0
 40
3.0
100
AcDbArc
 50
180.0
 51
270.0
  0
CIRCLE
  5
1AB
330
61
100
AcDbEntity
  8
1
  6
Continuous
 62
     7
100
AcDbCircle
 10
381.355336253682
 20
420.5450724894462
 30
0.0
 40
3.999999999999952
  0
CIRCLE
  5
1AC
330
61
100
AcDbEntity
  8
1
  6
Continuous
 62
     7
100
AcDbCircle
 10
381.355336253682
 20
420.5450724894462
 30
0.0
 40
4.999999999999879
  0
CIRCLE
  5
1AD
330
61
100
AcDbEntity
  8
1
  6
Continuous
 62
     7
100
AcDbCircle
 10
381.355336253682
 20
420.5450724894462
 30
0.0
 40
9.999999999999961
  0
ENDBLK
  5
63
330
61
100
AcDbEntity
  8
0
100
AcDbBlockEnd
  0
BLOCK
  5
67
330
64
100
AcDbEntity
  8
0
100
AcDbBlockBegin
  2
34-98AXK__3
 70
     0
 10
371.3553358366405
 20
410.5450724894462
 30
0.0
  3
34-98AXK__3
  1

  0
INSERT
  5
65
330
64
100
AcDbEntity
  8
1
100
AcDbBlockReference
  2
36-140AXK
 10
377.455336253682
 20
416.6450724894462
 30
0.0
  0
INSERT
  5
66
330
64
100
AcDbEntity
  8
1
100
AcDbBlockReference
  2
34-98AK__2
 10
371.3553358366405
 20
410.5450724894462
 30
0.0
  0
ENDBLK
  5
68
330
64
100
AcDbEntity
  8
0
100
AcDbBlockEnd
  0
BLOCK
  5
6A
330
69
100
AcDbEntity
  8
0
100
AcDbBlockBegin
  2
35-6A-8-C2K__4
 70
     0
 10
337.599996641432
 20
447.5004121016971
 30
0.0
  3
35-6A-8-C2K__4
  1

  0
LINE
  5
1AE
330
69
100
AcDbEntity
  8
1
  6
Continuous
 62
     7
100
AcDbLine
 10
722.4999992462406
 20
447.5004121016971
 30
0.0
 11
721.8805603823356
 21
447.5004121016971
 31
0.0
  0
LINE
  5
1AF
330
69
100
AcDbEntity
  8
1
  6
Continuous
 62
     7
100
AcDbLine
 10
721.8805603823356
 20
464.3004121016961
 30
0.0
 11
722.4999992462406
 21
464.3004121016961
 31
0.0
  0
LINE
  5
1B0
330
69
100
AcDbEntity
  8
1
  6
Continuous
 62
     7
100
AcDbLine
 10
337.599996641432
 20
817.880561136096
 30
0.0
 11
337.599996641432
 21
818.500000000001
 31
0.0
  0
LINE
  5
1B1
330
69
100
AcDbEntity
  8
1
  6
Continuous
 62
     7
100
AcDbLine
 10
354.399996641431
 20
818.500000000001
 30
0.0
 11
354.399996641431
 21
817.880561136096
 31
0.0
  0
ENDBLK
  5
6B
330
69
100
AcDbEntity
  8
0
100
AcDbBlockEnd
  0
BLOCK
  5
6D
330
6C
100
AcDbEntity
  8
0
100
AcDbBlockBegin
  2
32-3-M1K__5
 70
     0
 10
330.999996641431
 20
439.1150614005453
 30
0.0
  3
32-3-M1K__5
  1

  0
LINE
  5
1B2
330
6C
100
AcDbEntity
  8
1
  6
Continuous
 62
     7
100
AcDbLine
 10
708.880560382337
 20
441.643746507564
 30
0.0
 11
708.880560382337
 21
470.157073920232
 31
0.0
  0
LINE
  5
1B3
330
6C
100
AcDbEntity
  8
1
  6
Continuous
 62
     7
100
AcDbLine
 10
721.880560382337
 20
441.643746507564
 30
0.0
 11
721.880560382337
 21
470.157073920232
 31
0.0
  0
LINE
  5
1B4
330
6C
100
AcDbEntity
  8
1
  6
Continuous
 62
     7
100
AcDbLine
 10
344.955372308269
 20
439.183016278163
 30
0.0
 11
341.980758754964
 21
440.900410213898
 31
0.0
  0
LINE
  5
1B5
330
6C
100
AcDbEntity
  8
1
  6
Continuous
 62
     7
100
AcDbLine
 10
359.955372308269
 20
446.6370420361
 30
0.0
 11
347.044620974593
 21
439.183016278163
 31
0.0
  0
LINE
  5
1B6
330
6C
100
AcDbEntity
  8
1
  6
Continuous
 62
     7
100
AcDbLine
 10
360.999996641432
 20
455.900410213898
 30
0.0
 11
360.999996641431
 21
448.44638445596
 31
0.0
  0
LINE
  5
1B7
330
6C
100
AcDbEntity
  8
1
  6
Continuous
 62
     7
100
AcDbLine
 10
360.999996641431
 20
463.354435971836
 30
0.0
 11
360.999996641432
 21
455.900410213898
 31
0.0
  0
LINE
  5
1B8
330
6C
100
AcDbEntity
  8
1
  6
Continuous
 62
     7
100
AcDbLine
 10
347.044620974593
 20
472.617804149633
 30
0.0
 11
359.955372308269
 21
465.163778391696
 31
0.0
  0
LINE
  5
1B9
330
6C
100
AcDbEntity
  8
1
  6
Continuous
 62
     7
100
AcDbLine
 10
341.980758754964
 20
470.900410213898
 30
0.0
 11
344.955372308269
 21
472.617804149633
 31
0.0
  0
LINE
  5
1BA
330
6C
100
AcDbEntity
  8
1
  6
Continuous
 62
     7
100
AcDbLine
 10
360.256660347766
 20
817.880561136096
 30
0.0
 11
331.743332935097
 21
817.880561136096
 31
0.0
  0
LINE
  5
1BB
330
6C
100
AcDbEntity
  8
1
  6
Continuous
 62
     7
100
AcDbLine
 10
360.999996641431
 20
805.729233858367
 30
0.0
 11
360.999996641431
 21
817.031888413825
 31
0.0
  0
LINE
  5
1BC
330
6C
100
AcDbEntity
  8
1
  6
Continuous
 62
     7
100
AcDbLine
 10
331.743332935097
 20
804.880561136096
 30
0.0
 11
360.256660347766
 21
804.880561136097
 31
0.0
  0
LINE
  5
1BD
330
6C
100
AcDbEntity
  8
1
  6
Continuous
 62
     7
100
AcDbLine
 10
330.999996641431
 20
805.729233858367
 30
0.0
 11
330.999996641431
 21
817.031888413825
 31
0.0
  0
ARC
  5
1BE
330
6C
100
AcDbEntity
  8
1
  6
Continuous
 62
     7
100
AcDbCircle
 10
709.080560382337
 20
441.643746507564
 30
0.0
 40
0.2000000000000455
100
AcDbArc
 50
180.0
 51
229.9947991152926
  0
ARC
  5
1BF
330
6C
100
AcDbEntity
  8
1
  6
Continuous
 62
     7
100
AcDbCircle
 10
709.080560382337
 20
470.157073920232
 30
0.0
 40
0.2000000000000243
100
AcDbArc
 50
130.0052008847074
 51
180.0
  0
ARC
  5
1C0
330
6C
100
AcDbEntity
  8
1
  6
Continuous
 62
     7
100
AcDbCircle
 10
721.680560382337
 20
470.157073920232
 30
0.0
 40
0.1999999999999318
100
AcDbArc
 50
0.0
 51
49.99479911531756
  0
ARC
  5
1C1
330
6C
100
AcDbEntity
  8
1
  6
Continuous
 62
     7
100
AcDbCircle
 10
721.680560382337
 20
441.643746507564
 30
0.0
 40
0.200000000000609
100
AcDbArc
 50
310.005200884907
 51
0.0
  0
ARC
  5
1C2
330
6C
100
AcDbEntity
  8
1
  6
Continuous
 62
     7
100
AcDbCircle
 10
715.380560382336
 20
449.150410213898
 30
0.0
 40
9.99999999999893
100
AcDbArc
 50
229.9947991151456
 51
310.0052008848679
  0
ARC
  5
1C3
330
6C
100
AcDbEntity
  8
1
  6
Continuous
 62
     7
100
AcDbCircle
 10
715.380560382336
 20
462.650410213898
 30
0.0
 40
10.00000000000025
100
AcDbArc
 50
49.99479911513659
 51
130.0052008848544
  0
ARC
  5
1C4
330
6C
100
AcDbEntity
  8
1
  6
Continuous
 62
     7
100
AcDbCircle
 10
345.999996641431
 20
455.900410213898
 30
0.0
 40
16.74999999999951
100
AcDbArc
 50
266.4243920788201
 51
273.5756079211799
  0
ARC
  5
1C5
330
6C
100
AcDbEntity
  8
1
  6
Continuous
 62
     7
100
AcDbCircle
 10
345.999996641431
 20
455.900410213898
 30
0.0
 40
16.75000000000043
100
AcDbArc
 50
326.4243920788188
 51
333.5756079211803
  0
ARC
  5
1C6
330
6C
100
AcDbEntity
  8
1
  6
Continuous
 62
     7
100
AcDbCircle
 10
345.999996641431
 20
455.900410213898
 30
0.0
 40
16.75000000000009
100
AcDbArc
 50
26.42439207881963
 51
33.57560792118123
  0
ARC
  5
1C7
330
6C
100
AcDbEntity
  8
1
  6
Continuous
 62
     7
100
AcDbCircle
 10
345.999996641431
 20
455.900410213898
 30
0.0
 40
16.74999999999951
100
AcDbArc
 50
86.42439207882
 51
93.57560792118
  0
ARC
  5
1C8
330
6C
100
AcDbEntity
  8
1
  6
Continuous
 62
     7
100
AcDbCircle
 10
352.749996641431
 20
811.380561136096
 30
0.0
 40
10.00000000000014
100
AcDbArc
 50
34.41150866977064
 51
40.00520088485516
  0
ARC
  5
1C9
330
6C
100
AcDbEntity
  8
1
  6
Continuous
 62
     7
100
AcDbCircle
 10
352.749996641431
 20
811.380561136096
 30
0.0
 40
9.999999999999787
100
AcDbArc
 50
319.9947991151489
 51
325.5884913302288
  0
ARC
  5
1CA
330
6C
100
AcDbEntity
  8
1
  6
Continuous
 62
     7
100
AcDbCircle
 10
339.249996641431
 20
811.380561136096
 30
0.0
 40
10.00000000000021
100
AcDbArc
 50
214.4115086697712
 51
220.0052008848594
  0
ARC
  5
1CB
330
6C
100
AcDbEntity
  8
1
  6
Continuous
 62
     7
100
AcDbCircle
 10
339.249996641431
 20
811.380561136096
 30
0.0
 40
10.00000000000017
100
AcDbArc
 50
139.9947991151371
 51
145.5884913302294
  0
ARC
  5
1CC
330
6C
100
AcDbEntity
  8
1
  6
Continuous
 62
     7
100
AcDbCircle
 10
331.743332935097
 20
817.680561136096
 30
0.0
 40
0.2000000000000455
100
AcDbArc
 50
90.0
 51
139.994799115093
  0
CIRCLE
  5
1CD
330
6C
100
AcDbEntity
  8
1
  6
Continuous
 62
     7
100
AcDbCircle
 10
353.499996641431
 20
811.380561136096
 30
0.0
 40
5.651024957037009
  0
CIRCLE
  5
1CE
330
6C
100
AcDbEntity
  8
1
  6
Continuous
 62
     7
100
AcDbCircle
 10
338.499996641431
 20
811.380561136096
 30
0.0
 40
5.651024957037009
  0
SPLINE
  5
1CF
330
6C
100
AcDbEntity
  8
1
  6
Continuous
 62
     7
100
AcDbSpline
210
0.0
220
0.0
230
1.0
 70
    11
 71
     3
 72
    79
 73
    75
 74
    73
 42
0.000000001
 43
0.0000000001
 44
0.00000001
 40
0.0
 40
0.0
 40
0.0
 40
0.0
 40
0.4985441307032674
 40
0.9969471103215265
 40
1.51070471603359
 40
2.024235060073316
 40
2.560443859181956
 40
3.096407680729757
 40
3.658955325022628
 40
4.221286168050648
 40
4.810604972375338
 40
5.399753564983119
 40
6.013192437053267
 40
6.626509663603937
 40
7.258945224791709
 40
7.891303604507144
 40
8.535837540937479
 40
9.180334212047816
 40
9.829006405477102
 40
10.47767859890139
 40
11.12217526999645
 40
11.76670920640036
 40
12.39906758607716
 40
13.03150314721197
 40
13.64482037369441
 40
14.25825924567596
 40
14.8474078381749
 40
15.43672664236095
 40
15.9990574852221
 40
16.56160512930424
 40
17.09756895059718
 40
17.63377774937674
 40
18.14730809298183
 40
18.66106569800397
 40
19.15946867585521
 40
19.65801281478862
 40
20.15111293389864
 40
20.64421305300749
 40
21.14275719193731
 40
21.64116016978261
 40
22.15491777479665
 40
22.6684481183922
 40
23.2046569171607
 40
23.74062073844141
 40
24.30316838251002
 40
24.86549922535754
 40
25.45481802952896
 40
26.04396662201309
 40
26.65740549397939
 40
27.270722720447
 40
27.9031582815666
 40
28.53551666122853
 40
29.18005059761754
 40
29.82454726869795
 40
30.47321946210773
 40
31.12189165552264
 40
31.7663883266188
 40
32.41092226303524
 40
33.04328064273666
 40
33.67571620391023
 40
34.28903343044654
 40
34.90247230250151
 40
35.49162089509354
 40
36.08093969940001
 40
36.64327054240723
 40
37.20581818667283
 40
37.7417820081828
 40
38.27799080722998
 40
38.79152115115119
 40
39.305278756565
 40
39.80368173491632
 40
40.30222587459352
 40
40.79532599553569
 40
41.28842610649718
 40
41.28842610649718
 40
41.28842610649718
 40
41.28842610649718
 10
714.8701550489614
 20
463.3233196654447
 30
0.0
 10
714.7056131880503
 20
463.2987186898744
 30
0.0
 10
714.3765760512969
 20
463.2495237108014
 30
0.0
 10
713.893128134794
 20
463.1029582990558
 30
0.0
 10
713.4230063467153
 20
462.9069949462742
 30
0.0
 10
712.9659824581619
 20
462.6543950254078
 30
0.0
 10
712.5306084207087
 20
462.3531564005579
 30
0.0
 10
712.1144107628528
 20
462.0001933754663
 30
0.0
 10
711.7263446963449
 20
461.6042828531939
 30
0.0
 10
711.3634364647862
 20
461.16204531439
 30
0.0
 10
711.0337368787606
 20
460.6837354912987
 30
0.0
 10
710.734773618277
 20
460.1659545253025
 30
0.0
 10
710.4728856409631
 20
459.6195926994467
 30
0.0
 10
710.246559296249
 20
459.0421009841621
 30
0.0
 10
710.0601115237308
 20
458.4439237587283
 30
0.0
 10
709.9129463473632
 20
457.8242278944597
 30
0.0
 10
709.8074912004802
 20
457.1920133640258
 30
0.0
 10
709.743661977645
 20
456.5488030227379
 30
0.0
 10
709.722449270376
 20
455.9014018636442
 30
0.0
 10
709.743661977465
 20
455.2540007045336
 30
0.0
 10
709.8074912001232
 20
454.6107903632906
 30
0.0
 10
709.9129463467984
 20
453.9785758326815
 30
0.0
 10
710.0601115230415
 20
453.3588799690333
 30
0.0
 10
710.2465592950803
 20
452.7607027412839
 30
0.0
 10
710.4728856405427
 20
452.1832110343445
 30
0.0
 10
710.7347736140407
 20
451.6368491778805
 30
0.0
 10
711.0337368870771
 20
451.1190683217107
 30
0.0
 10
711.3634364260769
 20
450.6407580982134
 30
0.0
 10
711.7263448241106
 20
450.1985219884881
 30
0.0
 10
712.1144102834053
 20
449.8026062668939
 30
0.0
 10
712.5306101040294
 20
449.4496617751944
 30
0.0
 10
712.9659762599938
 20
449.1483556285481
 30
0.0
 10
713.4230283813935
 20
448.895997602523
 30
0.0
 10
713.8930467598468
 20
448.6991482808831
 30
0.0
 10
714.3768696974279
 20
448.5557959082105
 30
0.0
 10
714.8672659626583
 20
448.4703941034172
 30
0.0
 10
715.3624176373247
 20
448.4409916284196
 30
0.0
 10
715.8575693119901
 20
448.4703941034006
 30
0.0
 10
716.3479655772205
 20
448.5557959081776
 30
0.0
 10
716.8317885147998
 20
448.6991482808337
 30
0.0
 10
717.3018068932516
 20
448.895997602458
 30
0.0
 10
717.7588590146487
 20
449.1483556284672
 30
0.0
 10
718.1942251706107
 20
449.4496617750982
 30
0.0
 10
718.6104249912319
 20
449.8026062667826
 30
0.0
 10
718.9984904505222
 20
450.1985219883625
 30
0.0
 10
719.361398848552
 20
450.6407580980731
 30
0.0
 10
719.6910983875459
 20
451.1190683215568
 30
0.0
 10
719.9900616605762
 20
451.6368491777133
 30
0.0
 10
720.2519496340674
 20
452.1832110341637
 30
0.0
 10
720.4782759795229
 20
452.7607027410901
 30
0.0
 10
720.6647237515526
 20
453.358879968826
 30
0.0
 10
720.8118889277863
 20
453.9785758324617
 30
0.0
 10
720.9173440744503
 20
454.610790363057
 30
0.0
 10
720.9811732970974
 20
455.2540007042875
 30
0.0
 10
721.0023860041732
 20
455.9014018633807
 30
0.0
 10
720.9811732968922
 20
456.5488030224715
 30
0.0
 10
720.9173440740365
 20
457.1920133637007
 30
0.0
 10
720.8118889271598
 20
457.8242278942765
 30
0.0
 10
720.6647237506977
 20
458.4439237579454
 30
0.0
 10
720.4782759784517
 20
459.0421009855006
 30
0.0
 10
720.2519496326767
 20
459.6195926930017
 30
0.0
 10
719.9900616591734
 20
460.1659545472389
 30
0.0
 10
719.6910983849389
 20
460.6837354112002
 30
0.0
 10
719.3613988489719
 20
461.1620456060483
 30
0.0
 10
718.9984904386957
 20
461.604281817735
 30
0.0
 10
718.6104250223725
 20
462.0001971680096
 30
0.0
 10
718.1942250469042
 20
462.3531429828775
 30
0.0
 10
717.7588594532182
 20
462.6544443083533
 30
0.0
 10
717.3018053154792
 20
462.9068196054384
 30
0.0
 10
716.8317943198396
 20
463.1036056689278
 30
0.0
 10
716.3479446052596
 20
463.2471874515727
 30
0.0
 10
715.8576472965876
 20
463.3317414208155
 30
0.0
 10
715.3621300835798
 20
463.3642757145092
 30
0.0
 10
715.0341467262325
 20
463.3369716793337
 30
0.0
 10
714.8701550489614
 20
463.3233196654447
 30
0.0
 11
714.8701550489614
 21
463.3233196654447
 31
0.0
 11
714.3790299842873
 21
463.2376316879965
 31
0.0
 11
713.9009569141341
 21
463.096735740283
 31
0.0
 11
713.4270031318513
 21
462.8984564192907
 31
0.0
 11
712.977069846677
 21
462.6509216685229
 31
0.0
 11
712.5358946704284
 21
462.3461523460996
 31
0.0
 11
712.126655369006
 21
462.0000592776482
 31
0.0
 11
711.7324688461977
 21
461.5987154883373
 31
0.0
 11
711.3752762970394
 21
461.1644005567929
 31
0.0
 11
711.0403515620001
 21
460.6795066767282
 31
0.0
 11
710.7453554577437
 21
460.1695327924947
 31
0.0
 11
710.4797654497536
 21
459.616568781559
 31
0.0
 11
710.2556683841865
 21
459.0456585210376
 31
0.0
 11
710.067123416123
 21
458.4419818409658
 31
0.0
 11
709.9208345751396
 21
457.8267772445929
 31
0.0
 11
709.8145612429811
 21
457.1910650659398
 31
0.0
 11
709.750871440064
 21
456.5497230603851
 31
0.0
 11
709.7295353754082
 21
455.9014018538123
 31
0.0
 11
709.7508714400639
 21
455.2530806472394
 31
0.0
 11
709.814561242981
 21
454.6117386416847
 31
0.0
 11
709.9208345751397
 21
453.9760264630316
 31
0.0
 11
710.0671234161233
 21
453.360821866659
 31
0.0
 11
710.2556683841867
 21
452.7571451865872
 31
0.0
 11
710.4797654497536
 21
452.1862349260659
 31
0.0
 11
710.7453554577435
 21
451.63327091513
 31
0.0
 11
711.0403515620002
 21
451.1232970308965
 31
0.0
 11
711.3752762970394
 21
450.6384031508319
 31
0.0
 11
711.7324688461977
 21
450.2040882192875
 31
0.0
 11
712.1266553690059
 21
449.8027444299765
 31
0.0
 11
712.5358946704282
 21
449.456651361525
 31
0.0
 11
712.9770698466768
 21
449.1518820391017
 31
0.0
 11
713.4270031318512
 21
448.9043472883341
 31
0.0
 11
713.9009569141342
 21
448.7060679673417
 31
0.0
 11
714.3790299842876
 21
448.5651720196282
 31
0.0
 11
714.8701550489616
 21
448.47948404218
 31
0.0
 11
715.3624176378056
 21
448.4507565073523
 31
0.0
 11
715.8546802266496
 21
448.47948404218
 31
0.0
 11
716.3458052913236
 21
448.5651720196282
 31
0.0
 11
716.8238783614768
 21
448.7060679673417
 31
0.0
 11
717.2978321437596
 21
448.9043472883341
 31
0.0
 11
717.7477654289339
 21
449.1518820391017
 31
0.0
 11
718.1889406051827
 21
449.456651361525
 31
0.0
 11
718.598179906605
 21
449.8027444299764
 31
0.0
 11
718.9923664294131
 21
450.2040882192873
 31
0.0
 11
719.3495589785717
 21
450.6384031508317
 31
0.0
 11
719.6844837136109
 21
451.1232970308964
 31
0.0
 11
719.9794798178673
 21
451.63327091513
 31
0.0
 11
720.2450698258574
 21
452.1862349260657
 31
0.0
 11
720.4691668914245
 21
452.7571451865871
 31
0.0
 11
720.6577118594879
 21
453.360821866659
 31
0.0
 11
720.8040007004713
 21
453.9760264630316
 31
0.0
 11
720.9102740326298
 21
454.6117386416848
 31
0.0
 11
720.973963835547
 21
455.2530806472395
 31
0.0
 11
720.9952999002026
 21
455.9014018538123
 31
0.0
 11
720.9739638355468
 21
456.5497230603851
 31
0.0
 11
720.9102740326297
 21
457.1910650659397
 31
0.0
 11
720.8040007004713
 21
457.826777244593
 31
0.0
 11
720.6577118594879
 21
458.4419818409658
 31
0.0
 11
720.4691668914245
 21
459.0456585210377
 31
0.0
 11
720.2450698258576
 21
459.616568781559
 31
0.0
 11
719.9794798178675
 21
460.1695327924947
 31
0.0
 11
719.6844837136109
 21
460.6795066767282
 31
0.0
 11
719.3495589785718
 21
461.1644005567929
 31
0.0
 11
718.9923664294134
 21
461.5987154883373
 31
0.0
 11
718.598179906605
 21
462.0000592776481
 31
0.0
 11
718.1889406051827
 21
462.3461523460995
 31
0.0
 11
717.7477654289339
 21
462.6509216685229
 31
0.0
 11
717.2978321437596
 21
462.8984564192906
 31
0.0
 11
716.8238783614768
 21
463.0967357402828
 31
0.0
 11
716.3458052913235
 21
463.2376316879964
 31
0.0
 11
715.8546802266496
 21
463.3233196654446
 31
0.0
 11
715.3624176378055
 21
463.3520472002725
 31
0.0
 11
714.8701550489614
 21
463.3233196654447
 31
0.0
  0
SPLINE
  5
1D0
330
6C
100
AcDbEntity
  8
1
  6
Continuous
 62
     7
100
AcDbSpline
210
0.0
220
0.0
230
1.0
 70
    11
 71
     3
 72
    79
 73
    75
 74
    73
 42
0.000000001
 43
0.0000000001
 44
0.00000001
 40
0.0
 40
0.0
 40
0.0
 40
0.0
 40
0.3332697328200981
 40
0.6663350034973224
 40
1.016658909041358
 40
1.36668443205414
 40
1.741620076980427
 40
2.116274312237601
 40
2.51940911998275
 40
2.922325502543642
 40
3.35351164130477
 40
3.784543822444202
 40
4.240562441880154
 40
4.696479543664797
 40
5.171803435420465
 40
5.647066349615194
 40
6.134582888118643
 40
6.622070900998278
 40
7.113743628192674
 40
7.605416355385444
 40
8.092904368259635
 40
8.580420906752932
 40
9.055683820931723
 40
9.531007712662124
 40
9.986924814411026
 40
10.44294343379495
 40
10.87397561486464
 40
11.3051617535277
 40
11.70807813596151
 40
12.11121294353202
 40
12.48586717856665
 40
12.86080282318458
 40
13.2108283457756
 40
13.56115225061464
 40
13.89421751931028
 40
14.22748725976606
 40
14.55454894210007
 40
14.88161062443262
 40
15.21488036488481
 40
15.54794563357499
 40
15.89826953840691
 40
16.24829506098915
 40
16.62323070559691
 40
16.99788494062092
 40
17.40101974818005
 40
17.80393613060264
 40
18.23512226925383
 40
18.66615445031215
 40
19.12217306968489
 40
19.57809017142301
 40
20.05341406314301
 40
20.52867697731184
 40
21.01619351579589
 40
21.50368152866103
 40
21.99535425584583
 40
22.48702698303259
 40
22.97451499590569
 40
23.46203153440309
 40
23.93729444859291
 40
24.41261834034382
 40
24.86853544212404
 40
25.32455406155569
 40
25.75558624269055
 40
26.18677238144543
 40
26.58968876399752
 40
26.99282357172767
 40
27.36747780695958
 40
27.74241345183584
 40
28.09243897474107
 40
28.44276287998667
 40
28.77582814920749
 40
29.10909789044882
 40
29.4361595748523
 40
29.76322124972986
 40
29.76322124972986
 40
29.76322124972986
 40
29.76322124972986
 10
721.009619828222
 20
469.2171145160322
 30
0.0
 10
720.9907970494783
 20
469.3267674175032
 30
0.0
 10
720.9531630479287
 20
469.5460059495222
 30
0.0
 10
720.8408699755689
 20
469.867200291234
 30
0.0
 10
720.6916648646204
 20
470.1783596721133
 30
0.0
 10
720.4988726013
 20
470.4814733486801
 30
0.0
 10
720.2701805147677
 20
470.7687470658625
 30
0.0
 10
720.0015729935465
 20
471.0443076345033
 30
0.0
 10
719.7016347439419
 20
471.2999598429697
 30
0.0
 10
719.365705755925
 20
471.5399712116114
 30
0.0
 10
719.003672824761
 20
471.7570935291101
 30
0.0
 10
718.6107857709948
 20
471.9546918346747
 30
0.0
 10
718.1973105179811
 20
472.127201357443
 30
0.0
 10
717.7594046544315
 20
472.2767391640076
 30
0.0
 10
717.3066313640959
 20
472.3996072071676
 30
0.0
 10
716.8369352120457
 20
472.4968246842093
 30
0.0
 10
716.3582498859647
 20
472.5663379281755
 30
0.0
 10
715.8709093042446
 20
472.6085128314604
 30
0.0
 10
715.3805603922648
 20
472.6224696613728
 30
0.0
 10
714.8902114802706
 20
472.6085128315175
 30
0.0
 10
714.4028708985945
 20
472.566337928287
 30
0.0
 10
713.924185572358
 20
472.4968246844104
 30
0.0
 10
713.4544894208767
 20
472.3996072073733
 30
0.0
 10
713.001716128463
 20
472.276739164591
 30
0.0
 10
712.5638102723678
 20
472.1272013571407
 30
0.0
 10
712.1503349922738
 20
471.9546918381673
 30
0.0
 10
711.7574480342838
 20
471.7570935198682
 30
0.0
 10
711.395414757535
 20
471.539971249162
 30
0.0
 10
711.0594869788961
 20
471.29995971776
 30
0.0
 10
710.7595443836909
 20
471.0443080953492
 30
0.0
 10
710.4909519950711
 20
470.7687454873189
 30
0.0
 10
710.2622055112
 20
470.4814791029335
 30
0.0
 10
710.0696035156506
 20
470.1783397803514
 30
0.0
 10
709.9197096796752
 20
469.8672732355251
 30
0.0
 10
709.8098675688217
 20
469.5457485216155
 30
0.0
 10
709.7447632372318
 20
469.2201125545233
 30
0.0
 10
709.721993115863
 20
468.8907912710753
 30
0.0
 10
709.7447632372191
 20
468.5614699876276
 30
0.0
 10
709.8098675687972
 20
468.2358340205367
 30
0.0
 10
709.9197096796379
 20
467.9143093066283
 30
0.0
 10
710.069603515602
 20
467.6032427618044
 30
0.0
 10
710.2622055111405
 20
467.3001034392254
 30
0.0
 10
710.4909519950006
 20
467.0128370548442
 30
0.0
 10
710.7595443836096
 20
466.7372744468184
 30
0.0
 10
711.0594869788056
 20
466.4816228244135
 30
0.0
 10
711.395414757435
 20
466.2416112930175
 30
0.0
 10
711.7574480341751
 20
466.0244890223194
 30
0.0
 10
712.1503349921562
 20
465.826890704029
 30
0.0
 10
712.5638102722426
 20
465.6543811850651
 30
0.0
 10
713.0017161283305
 20
465.5048433776262
 30
0.0
 10
713.4544894207366
 20
465.3819753348565
 30
0.0
 10
713.9241855722112
 20
465.2847578578339
 30
0.0
 10
714.4028708984406
 20
465.2152446139742
 30
0.0
 10
714.8902114801099
 20
465.1730697107615
 30
0.0
 10
715.3805603920939
 20
465.1591128809273
 30
0.0
 10
715.8709093040759
 20
465.1730697108608
 30
0.0
 10
716.3582498857483
 20
465.2152446141775
 30
0.0
 10
716.8369352119639
 20
465.2847578581484
 30
0.0
 10
717.3066313634758
 20
465.3819753353019
 30
0.0
 10
717.7594046557286
 20
465.5048433781934
 30
0.0
 10
718.1973105123373
 20
465.6543811858675
 30
0.0
 10
718.6107857904849
 20
465.8268907047606
 30
0.0
 10
719.0036727552572
 20
466.0244890241879
 30
0.0
 10
719.3657060073922
 20
466.2416112918248
 30
0.0
 10
719.70163387199
 20
466.4816228351044
 30
0.0
 10
720.001576158084
 20
466.7372744161812
 30
0.0
 10
720.2701696228123
 20
467.0128371696479
 30
0.0
 10
720.4989122379775
 20
467.3001030329941
 30
0.0
 10
720.6915277647419
 20
467.6032441799875
 30
0.0
 10
720.8413726201682
 20
467.9143041231842
 30
0.0
 10
720.9513890369989
 20
468.2358523329711
 30
0.0
 10
721.0158534410698
 20
468.5614020439399
 30
0.0
 10
721.0409702224997
 20
468.891039638273
 30
0.0
 10
721.0200699567021
 20
469.10842289094
 30
0.0
 10
721.009619828222
 20
469.2171145160321
 30
0.0
 11
721.009619828222
 21
469.2171145160322
 31
0.0
 11
720.9441547915762
 21
469.5438912731259
 31
0.0
 11
720.8372688669147
 21
469.8593399573991
 31
0.0
 11
720.6855036661151
 21
470.1750837811182
 31
0.0
 11
720.4984918445379
 21
470.4709628867221
 31
0.0
 11
720.2654250746436
 21
470.7646576576189
 31
0.0
 11
720.0044172726612
 21
471.0334340018109
 31
0.0
 11
719.6980544285399
 21
471.2954635438045
 31
0.0
 11
719.3705308321926
 21
471.5301333226816
 31
0.0
 11
719.0010674398127
 21
471.752435567184
 31
0.0
 11
718.6161713676995
 21
471.9464555528151
 31
0.0
 11
718.1955049581298
 21
472.1225031404571
 31
0.0
 11
717.7641352617079
 21
472.2700856214585
 31
0.0
 11
717.3054960507768
 21
472.3949170128008
 31
0.0
 11
716.8401258614668
 21
472.4913816410743
 31
0.0
 11
716.3577021442982
 21
472.5616648711297
 31
0.0
 11
715.8720312453256
 21
472.6037165131153
 31
0.0
 11
715.380560382337
 21
472.6178041496329
 31
0.0
 11
714.8890895193483
 21
472.6037165131153
 31
0.0
 11
714.4034186203758
 21
472.5616648711296
 31
0.0
 11
713.920994903207
 21
472.4913816410743
 31
0.0
 11
713.4556247138968
 21
472.3949170128008
 31
0.0
 11
712.9969855029659
 21
472.2700856214586
 31
0.0
 11
712.5656158065441
 21
472.1225031404571
 31
0.0
 11
712.1449493969745
 21
471.9464555528152
 31
0.0
 11
711.7600533248612
 21
471.752435567184
 31
0.0
 11
711.3905899324812
 21
471.5301333226816
 31
0.0
 11
711.0630663361339
 21
471.2954635438045
 31
0.0
 11
710.7567034920127
 21
471.0334340018108
 31
0.0
 11
710.49569569003
 21
470.7646576576188
 31
0.0
 11
710.262628920136
 21
470.4709628867218
 31
0.0
 11
710.0756170985588
 21
470.1750837811179
 31
0.0
 11
709.9238518977593
 21
469.859339957399
 31
0.0
 11
709.8169659730975
 21
469.5438912731261
 31
0.0
 11
709.751500936452
 21
469.2171145160322
 31
0.0
 11
709.7295354252993
 21
468.890791270664
 31
0.0
 11
709.751500936452
 21
468.5644680252959
 31
0.0
 11
709.8169659730976
 21
468.2376912682022
 31
0.0
 11
709.9238518977592
 21
467.9222425839291
 31
0.0
 11
710.0756170985588
 21
467.6064987602099
 31
0.0
 11
710.262628920136
 21
467.3106196546062
 31
0.0
 11
710.4956956900302
 21
467.0169248837094
 31
0.0
 11
710.7567034920127
 21
466.7481485395173
 31
0.0
 11
711.063066336134
 21
466.4861189975236
 31
0.0
 11
711.3905899324814
 21
466.2514492186465
 31
0.0
 11
711.7600533248614
 21
466.0291469741443
 31
0.0
 11
712.1449493969744
 21
465.8351269885131
 31
0.0
 11
712.5656158065442
 21
465.6590794008711
 31
0.0
 11
712.9969855029659
 21
465.5114969198695
 31
0.0
 11
713.4556247138968
 21
465.3866655285272
 31
0.0
 11
713.920994903207
 21
465.2902009002538
 31
0.0
 11
714.403418620376
 21
465.2199176701986
 31
0.0
 11
714.8890895193482
 21
465.1778660282128
 31
0.0
 11
715.380560382337
 21
465.1637783916951
 31
0.0
 11
715.8720312453254
 21
465.1778660282128
 31
0.0
 11
716.357702144298
 21
465.2199176701987
 31
0.0
 11
716.8401258614667
 21
465.2902009002539
 31
0.0
 11
717.305496050777
 21
465.3866655285274
 31
0.0
 11
717.7641352617081
 21
465.5114969198697
 31
0.0
 11
718.1955049581298
 21
465.6590794008711
 31
0.0
 11
718.6161713676995
 21
465.8351269885131
 31
0.0
 11
719.0010674398127
 21
466.0291469741443
 31
0.0
 11
719.3705308321926
 21
466.2514492186466
 31
0.0
 11
719.6980544285399
 21
466.4861189975238
 31
0.0
 11
720.0044172726612
 21
466.7481485395173
 31
0.0
 11
720.2654250746438
 21
467.0169248837092
 31
0.0
 11
720.4984918445377
 21
467.3106196546061
 31
0.0
 11
720.685503666115
 21
467.6064987602099
 31
0.0
 11
720.8372688669144
 21
467.9222425839291
 31
0.0
 11
720.9441547915761
 21
468.2376912682022
 31
0.0
 11
721.0096198282217
 21
468.564468025296
 31
0.0
 11
721.0315853393744
 21
468.890791270664
 31
0.0
 11
721.009619828222
 21
469.2171145160321
 31
0.0
  0
SPLINE
  5
1D1
330
6C
100
AcDbEntity
  8
1
  6
Continuous
 62
     7
100
AcDbSpline
210
0.0
220
0.0
230
1.0
 70
    11
 71
     3
 72
    79
 73
    75
 74
    73
 42
0.000000001
 43
0.0000000001
 44
0.00000001
 40
0.0
 40
0.0
 40
0.0
 40
0.0
 40
0.3332697328202096
 40
0.6663350034973262
 40
1.016658909041413
 40
1.366684432054099
 40
1.741620076980564
 40
2.116274312237576
 40
2.519409119982761
 40
2.922325502543653
 40
3.353511641304753
 40
3.78454382244421
 40
4.240562441880162
 40
4.696479543664823
 40
5.171803435420477
 40
5.647066349615217
 40
6.134582888118649
 40
6.622070900998294
 40
7.113743628192688
 40
7.605416355385455
 40
8.092904368259651
 40
8.580420906752948
 40
9.055683820931728
 40
9.531007712662115
 40
9.986924814411
 40
10.44294343379499
 40
10.87397561486466
 40
11.30516175352768
 40
11.70807813596153
 40
12.111212943532
 40
12.48586717856659
 40
12.86080282318461
 40
13.21082834577548
 40
13.56115225061473
 40
13.89421751931032
 40
14.22748725976615
 40
14.5545489421001
 40
14.88161062443266
 40
15.2148803648849
 40
15.54794563357508
 40
15.898269538407
 40
16.24829506098915
 40
16.62323070559704
 40
16.99788494062092
 40
17.40101974818006
 40
17.80393613060264
 40
18.23512226925386
 40
18.66615445031218
 40
19.12217306968494
 40
19.57809017142305
 40
20.05341406314308
 40
20.52867697731189
 40
21.01619351579594
 40
21.50368152866108
 40
21.99535425584587
 40
22.48702698303264
 40
22.97451499590573
 40
23.46203153440317
 40
23.93729444859299
 40
24.41261834034388
 40
24.86853544212412
 40
25.32455406155575
 40
25.75558624269058
 40
26.18677238144546
 40
26.58968876399758
 40
26.99282357172777
 40
27.3674778069596
 40
27.74241345183591
 40
28.09243897474109
 40
28.44276287998663
 40
28.77582814920751
 40
29.10909789044883
 40
29.43615957485254
 40
29.76322124973
 40
29.76322124973
 40
29.76322124973
 40
29.76322124973
 10
721.009619828222
 20
442.5837059117628
 30
0.0
 10
720.9907970494783
 20
442.4740530102917
 30
0.0
 10
720.953163047929
 20
442.2548144782726
 30
0.0
 10
720.840869975569
 20
441.9336201365609
 30
0.0
 10
720.6916648646206
 20
441.6224607556816
 30
0.0
 10
720.4988726013003
 20
441.3193470791147
 30
0.0
 10
720.2701805147676
 20
441.0320733619323
 30
0.0
 10
720.0015729935466
 20
440.7565127932917
 30
0.0
 10
719.7016347439417
 20
440.5008605848251
 30
0.0
 10
719.3657057559251
 20
440.2608492161835
 30
0.0
 10
719.003672824761
 20
440.043726898685
 30
0.0
 10
718.6107857709948
 20
439.8461285931202
 30
0.0
 10
718.1973105179811
 20
439.6736190703519
 30
0.0
 10
717.7594046544314
 20
439.5240812637871
 30
0.0
 10
717.3066313640961
 20
439.4012132206274
 30
0.0
 10
716.8369352120454
 20
439.3039957435855
 30
0.0
 10
716.3582498859648
 20
439.2344824996196
 30
0.0
 10
715.8709093042446
 20
439.1923075963344
 30
0.0
 10
715.3805603922649
 20
439.1783507664222
 30
0.0
 10
714.8902114802709
 20
439.1923075962774
 30
0.0
 10
714.4028708985942
 20
439.2344824995079
 30
0.0
 10
713.9241855723585
 20
439.3039957433847
 30
0.0
 10
713.4544894208767
 20
439.4012132204217
 30
0.0
 10
713.001716128463
 20
439.5240812632038
 30
0.0
 10
712.5638102723677
 20
439.673619070654
 30
0.0
 10
712.1503349922735
 20
439.8461285896279
 30
0.0
 10
711.7574480342837
 20
440.0437269079266
 30
0.0
 10
711.3954147575351
 20
440.2608491786327
 30
0.0
 10
711.0594869788962
 20
440.500860710035
 30
0.0
 10
710.7595443836909
 20
440.7565123324457
 30
0.0
 10
710.490951995071
 20
441.0320749404761
 30
0.0
 10
710.2622055112002
 20
441.3193413248611
 30
0.0
 10
710.0696035156506
 20
441.6224806474436
 30
0.0
 10
709.9197096796751
 20
441.9335471922697
 30
0.0
 10
709.8098675688218
 20
442.2550719061795
 30
0.0
 10
709.7447632372318
 20
442.5807078732716
 30
0.0
 10
709.721993115863
 20
442.9100291567196
 30
0.0
 10
709.7447632372189
 20
443.2393504401672
 30
0.0
 10
709.8098675687974
 20
443.5649864072583
 30
0.0
 10
709.9197096796379
 20
443.8865111211666
 30
0.0
 10
710.0696035156019
 20
444.1975776659905
 30
0.0
 10
710.2622055111405
 20
444.5007169885696
 30
0.0
 10
710.4909519950003
 20
444.7879833729507
 30
0.0
 10
710.7595443836101
 20
445.0635459809765
 30
0.0
 10
711.0594869788055
 20
445.3191976033816
 30
0.0
 10
711.3954147574351
 20
445.5592091347773
 30
0.0
 10
711.757448034175
 20
445.7763314054756
 30
0.0
 10
712.1503349921563
 20
445.9739297237658
 30
0.0
 10
712.5638102722428
 20
446.1464392427298
 30
0.0
 10
713.0017161283304
 20
446.2959770501687
 30
0.0
 10
713.4544894207366
 20
446.4188450929386
 30
0.0
 10
713.9241855722114
 20
446.5160625699609
 30
0.0
 10
714.4028708984401
 20
446.585575813821
 30
0.0
 10
714.8902114801101
 20
446.6277507170332
 30
0.0
 10
715.3805603920938
 20
446.641707546868
 30
0.0
 10
715.870909304076
 20
446.6277507169339
 30
0.0
 10
716.3582498857481
 20
446.5855758136175
 30
0.0
 10
716.8369352119643
 20
446.5160625696465
 30
0.0
 10
717.3066313634755
 20
446.418845092493
 30
0.0
 10
717.7594046557288
 20
446.2959770496018
 30
0.0
 10
718.1973105123375
 20
446.1464392419271
 30
0.0
 10
718.6107857904847
 20
445.9739297230346
 30
0.0
 10
719.0036727552572
 20
445.7763314036069
 30
0.0
 10
719.3657060073922
 20
445.5592091359704
 30
0.0
 10
719.7016338719899
 20
445.3191975926903
 30
0.0
 10
720.0015761580844
 20
445.0635460116138
 30
0.0
 10
720.2701696228123
 20
444.7879832581469
 30
0.0
 10
720.4989122379775
 20
444.500717394801
 30
0.0
 10
720.6915277647419
 20
444.1975762478072
 30
0.0
 10
720.8413726201682
 20
443.886516304611
 30
0.0
 10
720.951389036999
 20
443.5649680948235
 30
0.0
 10
721.01585344107
 20
443.2394183838552
 30
0.0
 10
721.0409702224993
 20
442.9097807895218
 30
0.0
 10
721.0200699567023
 20
442.6923975368548
 30
0.0
 10
721.009619828222
 20
442.5837059117628
 30
0.0
 11
721.009619828222
 21
442.5837059117628
 31
0.0
 11
720.9441547915762
 21
442.2569291546689
 31
0.0
 11
720.8372688669147
 21
441.9414804703958
 31
0.0
 11
720.6855036661151
 21
441.6257366466766
 31
0.0
 11
720.4984918445379
 21
441.3298575410729
 31
0.0
 11
720.2654250746436
 21
441.0361627701758
 31
0.0
 11
720.0044172726612
 21
440.7673864259841
 31
0.0
 11
719.6980544285399
 21
440.5053568839904
 31
0.0
 11
719.3705308321926
 21
440.2706871051133
 31
0.0
 11
719.0010674398127
 21
440.048384860611
 31
0.0
 11
718.6161713676995
 21
439.8543648749798
 31
0.0
 11
718.1955049581298
 21
439.6783172873378
 31
0.0
 11
717.7641352617079
 21
439.5307348063363
 31
0.0
 11
717.3054960507768
 21
439.4059034149941
 31
0.0
 11
716.8401258614668
 21
439.3094387867205
 31
0.0
 11
716.3577021442982
 21
439.2391555566653
 31
0.0
 11
715.8720312453256
 21
439.1971039146796
 31
0.0
 11
715.380560382337
 21
439.1830162781621
 31
0.0
 11
714.8890895193483
 21
439.1971039146796
 31
0.0
 11
714.4034186203758
 21
439.2391555566654
 31
0.0
 11
713.920994903207
 21
439.3094387867206
 31
0.0
 11
713.4556247138968
 21
439.4059034149941
 31
0.0
 11
712.9969855029659
 21
439.5307348063363
 31
0.0
 11
712.5656158065441
 21
439.6783172873377
 31
0.0
 11
712.1449493969745
 21
439.8543648749798
 31
0.0
 11
711.7600533248612
 21
440.048384860611
 31
0.0
 11
711.3905899324812
 21
440.2706871051132
 31
0.0
 11
711.0630663361339
 21
440.5053568839904
 31
0.0
 11
710.7567034920127
 21
440.7673864259841
 31
0.0
 11
710.49569569003
 21
441.036162770176
 31
0.0
 11
710.262628920136
 21
441.3298575410731
 31
0.0
 11
710.0756170985588
 21
441.6257366466768
 31
0.0
 11
709.9238518977593
 21
441.941480470396
 31
0.0
 11
709.8169659730975
 21
442.2569291546689
 31
0.0
 11
709.751500936452
 21
442.5837059117628
 31
0.0
 11
709.7295354252993
 21
442.910029157131
 31
0.0
 11
709.751500936452
 21
443.236352402499
 31
0.0
 11
709.8169659730976
 21
443.5631291595927
 31
0.0
 11
709.9238518977592
 21
443.8785778438659
 31
0.0
 11
710.0756170985588
 21
444.194321667585
 31
0.0
 11
710.262628920136
 21
444.4902007731887
 31
0.0
 11
710.4956956900302
 21
444.7838955440857
 31
0.0
 11
710.7567034920127
 21
445.0526718882775
 31
0.0
 11
711.063066336134
 21
445.3147014302712
 31
0.0
 11
711.3905899324814
 21
445.5493712091484
 31
0.0
 11
711.7600533248614
 21
445.7716734536506
 31
0.0
 11
712.1449493969744
 21
445.9656934392818
 31
0.0
 11
712.5656158065442
 21
446.1417410269239
 31
0.0
 11
712.9969855029659
 21
446.2893235079254
 31
0.0
 11
713.4556247138968
 21
446.4141548992679
 31
0.0
 11
713.920994903207
 21
446.5106195275412
 31
0.0
 11
714.403418620376
 21
446.5809027575964
 31
0.0
 11
714.8890895193482
 21
446.6229543995821
 31
0.0
 11
715.380560382337
 21
446.6370420360999
 31
0.0
 11
715.8720312453254
 21
446.6229543995822
 31
0.0
 11
716.357702144298
 21
446.5809027575964
 31
0.0
 11
716.8401258614667
 21
446.510619527541
 31
0.0
 11
717.305496050777
 21
446.4141548992675
 31
0.0
 11
717.7641352617081
 21
446.2893235079252
 31
0.0
 11
718.1955049581298
 21
446.1417410269238
 31
0.0
 11
718.6161713676995
 21
445.9656934392818
 31
0.0
 11
719.0010674398127
 21
445.7716734536507
 31
0.0
 11
719.3705308321926
 21
445.5493712091484
 31
0.0
 11
719.6980544285399
 21
445.3147014302712
 31
0.0
 11
720.0044172726612
 21
445.0526718882775
 31
0.0
 11
720.2654250746438
 21
444.7838955440857
 31
0.0
 11
720.4984918445377
 21
444.4902007731888
 31
0.0
 11
720.685503666115
 21
444.1943216675851
 31
0.0
 11
720.8372688669144
 21
443.878577843866
 31
0.0
 11
720.9441547915761
 21
443.5631291595928
 31
0.0
 11
721.0096198282217
 21
443.2363524024989
 31
0.0
 11
721.0315853393744
 21
442.9100291571307
 31
0.0
 11
721.009619828222
 21
442.5837059117628
 31
0.0
  0
ENDBLK
  5
6E
330
6C
100
AcDbEntity
  8
0
100
AcDbBlockEnd
  0
BLOCK
  5
70
330
6F
100
AcDbEntity
  8
0
100
AcDbBlockBegin
  2
03-47-50-M1K__6
 70
     0
 10
334.4385645947613
 20
409.0450724894462
 30
0.0
  3
03-47-50-M1K__6
  1

  0
LINE
  5
1D2
330
6F
100
AcDbEntity
  8
1
  6
Continuous
 62
     7
100
AcDbLine
 10
768.3379992462405
 20
410.0675729064876
 30
0.0
 11
755.4999992462406
 21
410.0675729064876
 31
0.0
  0
LINE
  5
1D3
330
6F
100
AcDbEntity
  8
1
  6
Continuous
 62
     2
100
AcDbLine
 10
769.4999992462406
 20
411.2295729064875
 30
0.0
 11
755.4999992462406
 21
411.2295729064875
 31
0.0
  0
LINE
  5
1D4
330
6F
100
AcDbEntity
  8
1
  6
Continuous
 62
     7
100
AcDbLine
 10
768.3379992462405
 20
431.0225729064875
 30
0.0
 11
768.3379992462405
 21
410.0675729064876
 31
0.0
  0
LINE
  5
1D5
330
6F
100
AcDbEntity
  8
1
  6
Continuous
 62
     7
100
AcDbLine
 10
769.4999992462406
 20
429.8605729064865
 30
0.0
 11
769.4999992462406
 21
411.2295729064875
 31
0.0
  0
LINE
  5
1D6
330
6F
100
AcDbEntity
  8
1
  6
Continuous
 62
     7
100
AcDbLine
 10
768.3379992462405
 20
410.0675729064876
 30
0.0
 11
769.4999992462406
 21
411.2295729064875
 31
0.0
  0
LINE
  5
1D7
330
6F
100
AcDbEntity
  8
1
  6
Continuous
 62
     2
100
AcDbLine
 10
755.4999992462406
 20
429.8605729064865
 30
0.0
 11
769.4999992462406
 21
429.8605729064865
 31
0.0
  0
LINE
  5
1D8
330
6F
100
AcDbEntity
  8
1
  6
Continuous
 62
     7
100
AcDbLine
 10
768.3379992462405
 20
431.0225729064875
 30
0.0
 11
755.4999992462406
 21
431.0225729064875
 31
0.0
  0
LINE
  5
1D9
330
6F
100
AcDbEntity
  8
1
  6
Continuous
 62
     7
100
AcDbLine
 10
768.3379992462405
 20
431.0225729064875
 30
0.0
 11
769.4999992462406
 21
429.8605729064865
 31
0.0
  0
LINE
  5
1DA
330
6F
100
AcDbEntity
  8
1
  6
Continuous
 62
     7
100
AcDbLine
 10
741.9873562078456
 20
410.0675729064865
 30
0.0
 11
743.9999992462406
 21
410.0675729064865
 31
0.0
  0
LINE
  5
1DB
330
6F
100
AcDbEntity
  8
1
  6
Continuous
 62
     7
100
AcDbLine
 10
743.9999992462406
 20
429.8605729064876
 30
0.0
 11
743.9999992462406
 21
410.0675729064865
 31
0.0
  0
LINE
  5
1DC
330
6F
100
AcDbEntity
  8
0
  6
Continuous
 62
     2
100
AcDbLine
 10
744.7999992462405
 20
429.8605729064876
 30
0.0
 11
743.9999992462406
 21
429.8605729064876
 31
0.0
  0
LINE
  5
1DD
330
6F
100
AcDbEntity
  8
0
  6
Continuous
 62
     7
100
AcDbLine
 10
744.7999992462405
 20
431.0225729064875
 30
0.0
 11
743.9999992462406
 21
431.0225729064875
 31
0.0
  0
LINE
  5
1DE
330
6F
100
AcDbEntity
  8
1
  6
Continuous
 62
     7
100
AcDbLine
 10
743.9999992462406
 20
431.0225729064875
 30
0.0
 11
743.9999992462406
 21
429.8605729064876
 31
0.0
  0
LINE
  5
1DF
330
6F
100
AcDbEntity
  8
1
  6
Continuous
 62
     2
100
AcDbLine
 10
741.9873562078456
 20
431.0225729064875
 30
0.0
 11
743.9999992462406
 21
429.8605729064876
 31
0.0
  0
LINE
  5
1E0
330
6F
100
AcDbEntity
  8
1
  6
Continuous
 62
     7
100
AcDbLine
 10
743.9999992462406
 20
431.0225729064875
 30
0.0
 11
741.9873562078456
 21
431.0225729064875
 31
0.0
  0
LINE
  5
1E1
330
6F
100
AcDbEntity
  8
0
  6
Continuous
 62
     7
100
AcDbLine
 10
744.7999992462405
 20
410.0675729064865
 30
0.0
 11
743.9999992462406
 21
410.0675729064865
 31
0.0
  0
LINE
  5
1E2
330
6F
100
AcDbEntity
  8
0
  6
Continuous
 62
     2
100
AcDbLine
 10
744.7999992462405
 20
411.2295729064875
 30
0.0
 11
743.9999992462406
 21
411.2295729064875
 31
0.0
  0
LINE
  5
1E3
330
6F
100
AcDbEntity
  8
1
  6
Continuous
 62
     2
100
AcDbLine
 10
743.9999992462406
 20
411.2295729064875
 30
0.0
 11
741.9873562078456
 21
410.0675729064865
 31
0.0
  0
LINE
  5
1E4
330
6F
100
AcDbEntity
  8
1
  6
Continuous
 62
     7
100
AcDbLine
 10
740.9999992462406
 20
410.0450729064876
 30
0.0
 11
741.9483850646756
 21
410.0450729064866
 31
0.0
  0
LINE
  5
1E5
330
6F
100
AcDbEntity
  8
1
  6
Continuous
 62
     7
100
AcDbLine
 10
722.4999992462406
 20
409.0450729064876
 30
0.0
 11
739.9999992462406
 21
409.0450729064876
 31
0.0
  0
LINE
  5
1E6
330
6F
100
AcDbEntity
  8
1
  6
Continuous
 62
     7
100
AcDbLine
 10
739.9999992462406
 20
432.0450729064876
 30
0.0
 11
739.9999992462406
 21
409.0450729064876
 31
0.0
  0
LINE
  5
1E7
330
6F
100
AcDbEntity
  8
1
  6
Continuous
 62
     7
100
AcDbLine
 10
741.2999992462405
 20
431.0450729064876
 30
0.0
 11
740.9999992462406
 21
431.0450729064876
 31
0.0
  0
LINE
  5
1E8
330
6F
100
AcDbEntity
  8
1
  6
Continuous
 62
     7
100
AcDbLine
 10
741.9483850646756
 20
431.0450729064876
 30
0.0
 11
740.9999992462406
 21
431.0450729064876
 31
0.0
  0
LINE
  5
1E9
330
6F
100
AcDbEntity
  8
1
  6
Continuous
 62
     7
100
AcDbLine
 10
739.9999992462406
 20
436.0450729064876
 30
0.0
 11
739.9999992462406
 21
432.0450729064876
 31
0.0
  0
LINE
  5
1EA
330
6F
100
AcDbEntity
  8
1
  6
Continuous
 62
     7
100
AcDbLine
 10
736.9999992462406
 20
443.1865013350306
 30
0.0
 11
736.9999992462406
 21
467.4004121016971
 31
0.0
  0
LINE
  5
1EB
330
6F
100
AcDbEntity
  8
1
  6
Continuous
 62
     7
100
AcDbLine
 10
732.6909052045136
 20
443.1865013350306
 30
0.0
 11
732.6909052045136
 21
455.9252788334511
 31
0.0
  0
LINE
  5
1EC
330
6F
100
AcDbEntity
  8
1
  6
Continuous
 62
     7
100
AcDbLine
 10
736.9999992462406
 20
467.4004121016971
 30
0.0
 11
722.4999992462406
 21
467.4004121016971
 31
0.0
  0
LINE
  5
1ED
330
6F
100
AcDbEntity
  8
1
  6
Continuous
 62
     7
100
AcDbLine
 10
722.4999992462406
 20
467.4004121016971
 30
0.0
 11
722.4999992462406
 21
448.4004121016971
 31
0.0
  0
LINE
  5
1EE
330
6F
100
AcDbEntity
  8
1
  6
Continuous
 62
     7
100
AcDbLine
 10
722.4999992462406
 20
448.4004121016971
 30
0.0
 11
722.4999992462406
 21
409.0450729064876
 31
0.0
  0
LINE
  5
1EF
330
6F
100
AcDbEntity
  8
1
  6
Continuous
 62
     7
100
AcDbLine
 10
373.2236082700367
 20
412.4133445058009
 30
0.0
 11
346.4796728178318
 21
439.1572799580057
 31
0.0
  0
LINE
  5
1F0
330
6F
100
AcDbEntity
  8
1
  6
Continuous
 62
     7
100
AcDbLine
 10
360.9999966414312
 20
457.1638680689875
 30
0.0
 11
389.4870642373273
 21
428.6768004730915
 31
0.0
  0
LINE
  5
1F1
330
6F
100
AcDbEntity
  8
1
  6
Continuous
 62
     7
100
AcDbLine
 10
353.499996641431
 20
818.500000000001
 30
0.0
 11
392.8553358366405
 21
818.500000000001
 31
0.0
  0
LINE
  5
1F2
330
6F
100
AcDbEntity
  8
1
  6
Continuous
 62
     7
100
AcDbLine
 10
334.499996641431
 20
818.500000000001
 30
0.0
 11
353.499996641431
 21
818.500000000001
 31
0.0
  0
LINE
  5
1F3
330
6F
100
AcDbEntity
  8
1
  6
Continuous
 62
     7
100
AcDbLine
 10
334.499996641431
 20
833.000000000001
 30
0.0
 11
334.499996641431
 21
818.500000000001
 31
0.0
  0
LINE
  5
1F4
330
6F
100
AcDbEntity
  8
1
  6
Continuous
 62
     7
100
AcDbLine
 10
358.7139074080975
 20
828.690905958274
 30
0.0
 11
345.975129909677
 21
828.690905958274
 31
0.0
  0
LINE
  5
1F5
330
6F
100
AcDbEntity
  8
1
  6
Continuous
 62
     7
100
AcDbLine
 10
358.7139074080975
 20
833.000000000001
 30
0.0
 11
334.499996641431
 21
833.000000000001
 31
0.0
  0
LINE
  5
1F6
330
6F
100
AcDbEntity
  8
1
  6
Continuous
 62
     7
100
AcDbLine
 10
365.8553358366405
 20
836.000000000001
 30
0.0
 11
369.8553358366405
 21
836.000000000001
 31
0.0
  0
LINE
  5
1F7
330
6F
100
AcDbEntity
  8
1
  6
Continuous
 62
     7
100
AcDbLine
 10
370.8553358366405
 20
837.948385818436
 30
0.0
 11
370.8553358366405
 21
837.000000000001
 31
0.0
  0
LINE
  5
1F8
330
6F
100
AcDbEntity
  8
1
  6
Continuous
 62
     7
100
AcDbLine
 10
370.8553358366405
 20
837.300000000001
 30
0.0
 11
370.8553358366405
 21
837.000000000001
 31
0.0
  0
LINE
  5
1F9
330
6F
100
AcDbEntity
  8
1
  6
Continuous
 62
     7
100
AcDbLine
 10
369.8553358366405
 20
836.000000000001
 30
0.0
 11
392.8553358366405
 21
836.000000000001
 31
0.0
  0
LINE
  5
1FA
330
6F
100
AcDbEntity
  8
1
  6
Continuous
 62
     7
100
AcDbLine
 10
392.8553358366405
 20
818.500000000001
 30
0.0
 11
392.8553358366405
 21
836.000000000001
 31
0.0
  0
LINE
  5
1FB
330
6F
100
AcDbEntity
  8
1
  6
Continuous
 62
     7
100
AcDbLine
 10
391.8553358366405
 20
837.000000000001
 30
0.0
 11
391.8553358366415
 21
837.948385818436
 31
0.0
  0
LINE
  5
1FC
330
6F
100
AcDbEntity
  8
1
  6
Continuous
 62
     2
100
AcDbLine
 10
390.6708358366406
 20
840.000000000001
 30
0.0
 11
391.8328358366416
 21
837.987356961606
 31
0.0
  0
LINE
  5
1FD
330
6F
100
AcDbEntity
  8
0
  6
Continuous
 62
     2
100
AcDbLine
 10
390.6708358366406
 20
840.800000000001
 30
0.0
 11
390.6708358366406
 21
840.000000000001
 31
0.0
  0
LINE
  5
1FE
330
6F
100
AcDbEntity
  8
0
  6
Continuous
 62
     7
100
AcDbLine
 10
391.8328358366416
 20
840.800000000001
 30
0.0
 11
391.8328358366416
 21
840.000000000001
 31
0.0
  0
LINE
  5
1FF
330
6F
100
AcDbEntity
  8
1
  6
Continuous
 62
     7
100
AcDbLine
 10
370.8778358366405
 20
840.000000000001
 30
0.0
 11
370.8778358366405
 21
837.987356961606
 31
0.0
  0
LINE
  5
200
330
6F
100
AcDbEntity
  8
1
  6
Continuous
 62
     2
100
AcDbLine
 10
370.8778358366405
 20
837.987356961606
 30
0.0
 11
372.0398358366405
 21
840.000000000001
 31
0.0
  0
LINE
  5
201
330
6F
100
AcDbEntity
  8
1
  6
Continuous
 62
     7
100
AcDbLine
 10
370.8778358366405
 20
840.000000000001
 30
0.0
 11
372.0398358366405
 21
840.000000000001
 31
0.0
  0
LINE
  5
202
330
6F
100
AcDbEntity
  8
0
  6
Continuous
 62
     7
100
AcDbLine
 10
370.8778358366405
 20
840.800000000001
 30
0.0
 11
370.8778358366405
 21
840.000000000001
 31
0.0
  0
LINE
  5
203
330
6F
100
AcDbEntity
  8
0
  6
Continuous
 62
     2
100
AcDbLine
 10
372.0398358366405
 20
840.800000000001
 30
0.0
 11
372.0398358366405
 21
840.000000000001
 31
0.0
  0
LINE
  5
204
330
6F
100
AcDbEntity
  8
1
  6
Continuous
 62
     7
100
AcDbLine
 10
372.0398358366405
 20
840.000000000001
 30
0.0
 11
391.8328358366416
 21
840.000000000001
 31
0.0
  0
LINE
  5
205
330
6F
100
AcDbEntity
  8
1
  6
Continuous
 62
     7
100
AcDbLine
 10
391.8328358366416
 20
837.987356961606
 30
0.0
 11
391.8328358366416
 21
840.000000000001
 31
0.0
  0
LINE
  5
206
330
6F
100
AcDbEntity
  8
1
  6
Continuous
 62
     7
100
AcDbLine
 10
370.8778358366405
 20
864.338000000001
 30
0.0
 11
372.0398358366415
 21
865.500000000001
 31
0.0
  0
LINE
  5
207
330
6F
100
AcDbEntity
  8
1
  6
Continuous
 62
     7
100
AcDbLine
 10
370.8778358366405
 20
864.338000000001
 30
0.0
 11
370.8778358366405
 21
851.500000000001
 31
0.0
  0
LINE
  5
208
330
6F
100
AcDbEntity
  8
1
  6
Continuous
 62
     2
100
AcDbLine
 10
372.0398358366415
 20
851.500000000001
 30
0.0
 11
372.0398358366415
 21
865.500000000001
 31
0.0
  0
LINE
  5
209
330
6F
100
AcDbEntity
  8
1
  6
Continuous
 62
     7
100
AcDbLine
 10
391.8328358366405
 20
864.338000000001
 30
0.0
 11
390.6708358366406
 21
865.500000000001
 31
0.0
  0
LINE
  5
20A
330
6F
100
AcDbEntity
  8
1
  6
Continuous
 62
     7
100
AcDbLine
 10
372.0398358366415
 20
865.500000000001
 30
0.0
 11
390.6708358366406
 21
865.500000000001
 31
0.0
  0
LINE
  5
20B
330
6F
100
AcDbEntity
  8
1
  6
Continuous
 62
     7
100
AcDbLine
 10
370.8778358366405
 20
864.338000000001
 30
0.0
 11
391.8328358366405
 21
864.338000000001
 31
0.0
  0
LINE
  5
20C
330
6F
100
AcDbEntity
  8
1
  6
Continuous
 62
     2
100
AcDbLine
 10
390.6708358366406
 20
865.500000000001
 30
0.0
 11
390.6708358366406
 21
851.500000000001
 31
0.0
  0
LINE
  5
20D
330
6F
100
AcDbEntity
  8
1
  6
Continuous
 62
     7
100
AcDbLine
 10
391.8328358366405
 20
864.338000000001
 30
0.0
 11
391.8328358366405
 21
851.500000000001
 31
0.0
  0
ARC
  5
20E
330
6F
100
AcDbEntity
  8
1
  6
Continuous
 62
     7
100
AcDbCircle
 10
740.9999992462406
 20
409.0450729064876
 30
0.0
 40
1.0
100
AcDbArc
 50
90.0
 51
180.0
  0
ARC
  5
20F
330
6F
100
AcDbEntity
  8
1
  6
Continuous
 62
     7
100
AcDbCircle
 10
740.9999992462406
 20
432.0450729064876
 30
0.0
 40
1.0
100
AcDbArc
 50
180.0
 51
270.0
  0
ARC
  5
210
330
6F
100
AcDbEntity
  8
1
  6
Continuous
 62
     7
100
AcDbCircle
 10
746.9999992462406
 20
443.1865013350306
 30
0.0
 40
10.0
100
AcDbArc
 50
180.0
 51
225.5729959991949
  0
ARC
  5
211
330
6F
100
AcDbEntity
  8
1
  6
Continuous
 62
     7
100
AcDbCircle
 10
746.6094485358775
 20
443.1865013350306
 30
0.0
 40
13.91854333136394
100
AcDbArc
 50
180.0
 51
241.6493449074812
  0
ARC
  5
212
330
6F
100
AcDbEntity
  8
1
  6
Continuous
 62
     7
100
AcDbCircle
 10
381.355336253682
 20
420.5450724894462
 30
0.0
 40
11.50000000000001
100
AcDbArc
 50
225.0
 51
45.0
  0
ARC
  5
213
330
6F
100
AcDbEntity
  8
1
  6
Continuous
 62
     7
100
AcDbCircle
 10
358.7139074080975
 20
842.609449289638
 30
0.0
 40
13.91854333136394
100
AcDbArc
 50
270.0
 51
331.6493449074812
  0
ARC
  5
214
330
6F
100
AcDbEntity
  8
1
  6
Continuous
 62
     7
100
AcDbCircle
 10
358.7139074080975
 20
843.000000000001
 30
0.0
 40
10.0
100
AcDbArc
 50
270.0
 51
315.572995999195
  0
ARC
  5
215
330
6F
100
AcDbEntity
  8
1
  6
Continuous
 62
     7
100
AcDbCircle
 10
369.8553358366405
 20
837.000000000001
 30
0.0
 40
1.0
100
AcDbArc
 50
270.0
 51
0.0
  0
ARC
  5
216
330
6F
100
AcDbEntity
  8
1
  6
Continuous
 62
     7
100
AcDbCircle
 10
392.8553358366405
 20
837.000000000001
 30
0.0
 40
1.0
100
AcDbArc
 50
180.0
 51
270.0
  0
CIRCLE
  5
217
330
6F
100
AcDbEntity
  8
1
  6
Continuous
 62
     7
100
AcDbCircle
 10
381.355336253682
 20
420.5450724894462
 30
0.0
 40
10.49999999999992
  0
SPLINE
  5
218
330
6F
100
AcDbEntity
  8
1
  6
Continuous
 62
     7
100
AcDbSpline
210
0.0
220
0.0
230
1.0
 70
     8
 71
     3
 72
    15
 73
    11
 74
     9
 42
0.000000001
 43
0.0000000001
 44
0.00000001
 40
0.0
 40
0.0
 40
0.0
 40
0.0
 40
1.010591013953114
 40
2.021170126669945
 40
2.936094642415513
 40
3.850986246233526
 40
4.856834999707198
 40
5.863204271545627
 40
9.145271773456345
 40
12.43110767220458
 40
12.43110767220458
 40
12.43110767220458
 40
12.43110767220458
 10
736.9999992462406
 20
467.4004121016971
 30
0.0
 10
736.815847562879
 20
467.1183143122287
 30
0.0
 10
736.4475463770516
 20
466.5541220475361
 30
0.0
 10
735.9407281363366
 20
465.7166682535023
 30
0.0
 10
735.4698371341284
 20
464.8951684250553
 30
0.0
 10
735.0189441818984
 20
464.0644480644098
 30
0.0
 10
734.571261182803
 20
463.1969631206895
 30
0.0
 10
733.8179991505049
 20
461.6032467430113
 30
0.0
 10
732.8774084865063
 20
459.2240915651187
 30
0.0
 10
732.7530967353285
 20
457.0253036030216
 30
0.0
 10
732.6909052045136
 20
455.9252788334511
 30
0.0
 11
736.9999992462406
 21
467.4004121016971
 31
0.0
 11
736.4523977503754
 21
466.551043632754
 31
0.0
 11
735.9278406466015
 21
465.6872670492356
 31
0.0
 11
735.4729313890814
 21
464.8934506742387
 31
0.0
 11
735.0360497231547
 21
464.0896092356494
 31
0.0
 11
734.5767032820764
 21
463.1947726224774
 31
0.0
 11
734.1460553005824
 21
462.2852005092355
 31
0.0
 11
733.0505045937422
 21
459.1913783177757
 31
0.0
 11
732.6909052045136
 21
455.9252788334511
 31
0.0
  0
SPLINE
  5
219
330
6F
100
AcDbEntity
  8
1
  6
Continuous
 62
     7
100
AcDbSpline
210
0.0
220
0.0
230
1.0
 70
     8
 71
     3
 72
    15
 73
    11
 74
     9
 42
0.000000001
 43
0.0000000001
 44
0.00000001
 40
0.0
 40
0.0
 40
0.0
 40
0.0
 40
1.01059101395297
 40
2.021170126669958
 40
2.936094642415526
 40
3.850986246233485
 40
4.856834999707257
 40
5.863204271545634
 40
9.145271773456283
 40
12.43110767220462
 40
12.43110767220462
 40
12.43110767220462
 40
12.43110767220462
 10
334.499996641431
 20
833.000000000001
 30
0.0
 10
334.7820944308993
 20
832.8158483166394
 30
0.0
 10
335.3462866955919
 20
832.4475471308119
 30
0.0
 10
336.1837404896257
 20
831.9407288900968
 30
0.0
 10
337.0052403180728
 20
831.4698378878886
 30
0.0
 10
337.8359606787183
 20
831.0189449356587
 30
0.0
 10
338.7034456224386
 20
830.5712619365635
 30
0.0
 10
340.2971620001169
 20
829.8179999042653
 30
0.0
 10
342.6763171780093
 20
828.8774092402666
 30
0.0
 10
344.8751051401065
 20
828.7530974890888
 30
0.0
 10
345.975129909677
 20
828.690905958274
 30
0.0
 11
334.499996641431
 21
833.000000000001
 31
0.0
 11
335.3493651103739
 21
832.4523985041359
 31
0.0
 11
336.2131416938925
 21
831.9278414003618
 31
0.0
 11
337.0069580688893
 21
831.4729321428417
 31
0.0
 11
337.8107995074786
 21
831.0360504769152
 31
0.0
 11
338.7056361206508
 21
830.5767040358369
 31
0.0
 11
339.6152082338926
 21
830.1460560543428
 31
0.0
 11
342.7090304253522
 21
829.0505053475025
 31
0.0
 11
345.975129909677
 21
828.690905958274
 31
0.0
  0
ENDBLK
  5
71
330
6F
100
AcDbEntity
  8
0
100
AcDbBlockEnd
  0
BLOCK
  5
73
330
72
100
AcDbEntity
  8
0
100
AcDbBlockBegin
  2
78-3A-C4K__7
 70
     0
 10
356.3553358366405
 20
395.5450724894463
 30
0.0
  3
78-3A-C4K__7
  1

  0
LINE
  5
21A
330
72
100
AcDbEntity
  8
1
  6
Continuous
 62
     7
100
AcDbLine
 10
753.1364366394805
 20
442.9148716627225
 30
0.0
 11
753.1364366394805
 21
398.1752741502515
 31
0.0
  0
LINE
  5
21B
330
72
100
AcDbEntity
  8
1
  6
Continuous
 62
     7
100
AcDbLine
 10
755.4999992462406
 20
445.5450729064876
 30
0.0
 11
755.4999992462406
 21
395.5450729064876
 31
0.0
  0
LINE
  5
21C
330
72
100
AcDbEntity
  8
1
  6
Continuous
 62
     7
100
AcDbLine
 10
755.4999992462406
 20
445.5450729064876
 30
0.0
 11
753.2806240937266
 21
445.5450729064876
 31
0.0
  0
LINE
  5
21D
330
72
100
AcDbEntity
  8
1
  6
Continuous
 62
     7
100
AcDbLine
 10
753.2806240937266
 20
395.5450729064876
 30
0.0
 11
755.4999992462406
 21
395.5450729064876
 31
0.0
  0
LINE
  5
21E
330
72
100
AcDbEntity
  8
1
  6
Continuous
 62
     7
100
AcDbLine
 10
745.0191304367976
 20
407.2711589182916
 30
0.0
 11
752.4997552842835
 21
395.9203778589335
 31
0.0
  0
LINE
  5
21F
330
72
100
AcDbEntity
  8
1
  6
Continuous
 62
     7
100
AcDbLine
 10
744.7999992462405
 20
407.8958539658456
 30
0.0
 11
744.7999992462405
 21
433.1942918471286
 31
0.0
  0
LINE
  5
220
330
72
100
AcDbEntity
  8
1
  6
Continuous
 62
     7
100
AcDbLine
 10
745.0191304367976
 20
433.8189868946826
 30
0.0
 11
752.4997552842835
 21
445.1697679540416
 31
0.0
  0
LINE
  5
221
330
72
100
AcDbEntity
  8
1
  6
Continuous
 62
     7
100
AcDbLine
 10
368.0814218484455
 20
841.019131190558
 30
0.0
 11
356.7306407890865
 21
848.499756038044
 31
0.0
  0
LINE
  5
222
330
72
100
AcDbEntity
  8
1
  6
Continuous
 62
     7
100
AcDbLine
 10
394.0045547772825
 20
840.800000000001
 30
0.0
 11
368.7061168959995
 21
840.800000000001
 31
0.0
  0
LINE
  5
223
330
72
100
AcDbEntity
  8
1
  6
Continuous
 62
     7
100
AcDbLine
 10
394.6292498248365
 20
841.019131190558
 30
0.0
 11
405.9800308841946
 21
848.499756038044
 31
0.0
  0
LINE
  5
224
330
72
100
AcDbEntity
  8
1
  6
Continuous
 62
     7
100
AcDbLine
 10
406.3553358366405
 20
849.280624847487
 30
0.0
 11
406.3553358366405
 21
851.500000000001
 31
0.0
  0
LINE
  5
225
330
72
100
AcDbEntity
  8
1
  6
Continuous
 62
     7
100
AcDbLine
 10
356.3553358366405
 20
851.500000000001
 30
0.0
 11
356.3553358366405
 21
849.280624847487
 31
0.0
  0
LINE
  5
226
330
72
100
AcDbEntity
  8
1
  6
Continuous
 62
     7
100
AcDbLine
 10
356.3553358366405
 20
851.500000000001
 30
0.0
 11
406.3553358366405
 21
851.500000000001
 31
0.0
  0
LINE
  5
227
330
72
100
AcDbEntity
  8
1
  6
Continuous
 62
     7
100
AcDbLine
 10
358.9855370804056
 20
849.136437393241
 30
0.0
 11
403.7251345928765
 21
849.136437393241
 31
0.0
  0
ARC
  5
228
330
72
100
AcDbEntity
  8
1
  6
Continuous
 62
     7
100
AcDbCircle
 10
753.2806240937266
 20
396.5450729064876
 30
0.0
 40
0.9999999999998224
100
AcDbArc
 50
218.6598082540743
 51
270.0
  0
ARC
  5
229
330
72
100
AcDbEntity
  8
1
  6
Continuous
 62
     7
100
AcDbCircle
 10
745.7999992462405
 20
407.8958539658456
 30
0.0
 40
1.0
100
AcDbArc
 50
180.0
 51
218.6598082540758
  0
ARC
  5
22A
330
72
100
AcDbEntity
  8
1
  6
Continuous
 62
     7
100
AcDbCircle
 10
745.7999992462405
 20
433.1942918471286
 30
0.0
 40
0.9999999999996626
100
AcDbArc
 50
141.3401917459267
 51
180.0
  0
ARC
  5
22B
330
72
100
AcDbEntity
  8
1
  6
Continuous
 62
     7
100
AcDbCircle
 10
753.2806240937266
 20
444.5450729064876
 30
0.0
 40
1.0
100
AcDbArc
 50
90.0
 51
141.3401917459282
  0
ARC
  5
22C
330
72
100
AcDbEntity
  8
1
  6
Continuous
 62
     7
100
AcDbCircle
 10
381.355336253682
 20
420.5450724894462
 30
0.0
 40
25.00000000000001
100
AcDbArc
 50
162.3871075026543
 51
107.6128924973463
  0
ARC
  5
22D
330
72
100
AcDbEntity
  8
1
  6
Continuous
 62
     7
100
AcDbCircle
 10
357.3553358366405
 20
849.280624847487
 30
0.0
 40
1.0
100
AcDbArc
 50
180.0
 51
231.3401917459308
  0
ARC
  5
22E
330
72
100
AcDbEntity
  8
1
  6
Continuous
 62
     7
100
AcDbCircle
 10
368.7061168959995
 20
841.800000000001
 30
0.0
 40
0.9999999999996981
100
AcDbArc
 50
231.3401917459242
 51
270.0
  0
ARC
  5
22F
330
72
100
AcDbEntity
  8
1
  6
Continuous
 62
     7
100
AcDbCircle
 10
394.0045547772825
 20
841.800000000001
 30
0.0
 40
1.0
100
AcDbArc
 50
270.0
 51
308.6598082540733
  0
ARC
  5
230
330
72
100
AcDbEntity
  8
1
  6
Continuous
 62
     7
100
AcDbCircle
 10
405.3553358366405
 20
849.280624847487
 30
0.0
 40
0.9999999999998224
100
AcDbArc
 50
308.6598082540743
 51
0.0
  0
ENDBLK
  5
74
330
72
100
AcDbEntity
  8
0
100
AcDbBlockEnd
  0
BLOCK
  5
7B
330
75
100
AcDbEntity
  8
0
100
AcDbBlockBegin
  2
U3-47F-50__8
 70
     0
 10
363.499999625446
 20
723.200205106949
 30
0.0
  3
U3-47F-50__8
  1

  0
INSERT
  5
76
330
75
100
AcDbEntity
  8
1
100
AcDbBlockReference
  2
34-98AXK__3
 10
371.3553358366405
 20
410.5450724894462
 30
0.0
  0
INSERT
  5
77
330
75
100
AcDbEntity
  8
1
100
AcDbBlockReference
  2
35-6A-8-C2K__4
 10
337.599996641432
 20
447.5004121016971
 30
0.0
  0
INSERT
  5
78
330
75
100
AcDbEntity
  8
1
100
AcDbBlockReference
  2
32-3-M1K__5
 10
330.999996641431
 20
439.1150614005453
 30
0.0
  0
INSERT
  5
79
330
75
100
AcDbEntity
  8
1
100
AcDbBlockReference
  2
03-47-50-M1K__6
 10
334.4385645947613
 20
409.0450724894462
 30
0.0
  0
INSERT
  5
7A
330
75
100
AcDbEntity
  8
1
100
AcDbBlockReference
  2
78-3A-C4K__7
 10
356.3553358366405
 20
395.5450724894463
 30
0.0
  0
LINE
  5
231
330
75
100
AcDbEntity
  8
1
  6
Continuous
 62
     7
100
AcDbLine
 10
391.8553358366405
 20
837.000000000001
 30
0.0
 11
391.8553358366405
 21
837.300000000001
 31
0.0
  0
LINE
  5
232
330
75
100
AcDbEntity
  8
1
  6
Continuous
 62
     7
100
AcDbLine
 10
370.8553358366405
 20
837.300000000001
 30
0.0
 11
370.8553358366405
 21
837.000000000001
 31
0.0
  0
LINE
  5
233
330
75
100
AcDbEntity
  8
1
  6
Continuous
 62
     7
100
AcDbLine
 10
391.8328358366416
 20
837.987356961606
 30
0.0
 11
391.8553358366415
 21
837.948385818436
 31
0.0
  0
LINE
  5
234
330
75
100
AcDbEntity
  8
1
  6
Continuous
 62
     7
100
AcDbLine
 10
370.8553358366405
 20
837.948385818436
 30
0.0
 11
370.8778358366405
 21
837.987356961606
 31
0.0
  0
ARC
  5
235
330
75
100
AcDbEntity
  8
1
  6
Continuous
 62
     7
100
AcDbCircle
 10
331.743332935097
 20
805.080561136096
 30
0.0
 40
0.2000000000000243
100
AcDbArc
 50
220.0052008847074
 51
270.0
  0
ARC
  5
236
330
75
100
AcDbEntity
  8
1
  6
Continuous
 62
     7
100
AcDbCircle
 10
360.256660347766
 20
817.680561136096
 30
0.0
 40
0.2000000000000243
100
AcDbArc
 50
40.0052008847074
 51
90.0
  0
ARC
  5
237
330
75
100
AcDbEntity
  8
1
  6
Continuous
 62
     7
100
AcDbCircle
 10
360.256660347766
 20
805.080561136097
 30
0.0
 40
0.2000000000000455
100
AcDbArc
 50
270.0
 51
319.9947991152926
  0
ENDBLK
  5
7C
330
75
100
AcDbEntity
  8
0
100
AcDbBlockEnd
  0
BLOCK
  5
7E
330
7D
100
AcDbEntity
  8
0
100
AcDbBlockBegin
  2
35-6A-8-C2K__9
 70
     0
 10
217.600003358569
 20
817.880561136096
 30
0.0
  3
35-6A-8-C2K__9
  1

  0
LINE
  5
238
330
7D
100
AcDbEntity
  8
1
  6
Continuous
 62
     7
100
AcDbLine
 10
234.400003358569
 20
818.500000000001
 30
0.0
 11
234.400003358569
 21
817.880561136096
 31
0.0
  0
LINE
  5
239
330
7D
100
AcDbEntity
  8
1
  6
Continuous
 62
     7
100
AcDbLine
 10
217.600003358569
 20
817.880561136096
 30
0.0
 11
217.600003358569
 21
818.500000000001
 31
0.0
  0
ENDBLK
  5
7F
330
7D
100
AcDbEntity
  8
0
100
AcDbBlockEnd
  0
BLOCK
  5
81
330
80
100
AcDbEntity
  8
0
100
AcDbBlockBegin
  2
36-140AK__10
 70
     0
 10
186.7446615477632
 20
416.6450727478878
 30
0.0
  3
36-140AK__10
  1

  0
LINE
  5
23A
330
80
100
AcDbEntity
  8
1
  6
Continuous
 62
     7
100
AcDbLine
 10
193.8354585435952
 20
422.6752095719398
 30
0.0
 11
188.5145247237109
 21
417.3542757520556
 31
0.0
  0
LINE
  5
23B
330
80
100
AcDbEntity
  8
1
  6
Continuous
 62
     7
100
AcDbLine
 10
187.4538645519311
 20
418.4149359238354
 30
0.0
 11
192.7747983718154
 21
423.7358697437197
 31
0.0
  0
ARC
  5
23C
330
80
100
AcDbEntity
  8
1
  6
Continuous
 62
     7
100
AcDbCircle
 10
190.6446615477631
 20
420.5450727478877
 30
0.0
 40
3.836491673103689
100
AcDbArc
 50
213.7265859457711
 51
236.2734140542304
  0
ARC
  5
23D
330
80
100
AcDbEntity
  8
1
  6
Continuous
 62
     7
100
AcDbCircle
 10
190.6446615477631
 20
420.5450727478877
 30
0.0
 40
3.836491673103689
100
AcDbArc
 50
33.72658594576809
 51
56.27341405422897
  0
CIRCLE
  5
23E
330
80
100
AcDbEntity
  8
1
  6
Continuous
 62
     7
100
AcDbCircle
 10
190.6446615477631
 20
420.5450727478877
 30
0.0
 40
3.900000000000027
  0
ENDBLK
  5
82
330
80
100
AcDbEntity
  8
0
100
AcDbBlockEnd
  0
BLOCK
  5
85
330
83
100
AcDbEntity
  8
0
100
AcDbBlockBegin
  2
36-140AX
 70
     0
 10
186.7446615477632
 20
416.6450727478878
 30
0.0
  3
36-140AX
  1

  0
INSERT
  5
84
330
83
100
AcDbEntity
  8
1
100
AcDbBlockReference
  2
36-140AK__10
 10
186.7446615477632
 20
416.6450727478878
 30
0.0
  0
ENDBLK
  5
86
330
83
100
AcDbEntity
  8
0
100
AcDbBlockEnd
  0
BLOCK
  5
88
330
87
100
AcDbEntity
  8
0
100
AcDbBlockBegin
  2
34-98AK__11
 70
     0
 10
180.644659709173
 20
410.5450709092975
 30
0.0
  3
34-98AK__11
  1

  0
LINE
  5
23F
330
87
100
AcDbEntity
  8
1
  6
Continuous
 62
     7
100
AcDbLine
 10
183.8271563476932
 20
414.7882277195976
 30
0.0
 11
186.6187967597553
 21
417.5798681316596
 31
0.0
  0
LINE
  5
240
330
87
100
AcDbEntity
  8
1
  6
Continuous
 62
     7
100
AcDbLine
 10
187.6794569315351
 20
416.5192079598797
 30
0.0
 11
184.887816519473
 21
413.7275675478177
 31
0.0
  0
LINE
  5
241
330
87
100
AcDbEntity
  8
1
  6
Continuous
 62
     7
100
AcDbLine
 10
197.462163070653
 20
426.3019140989976
 30
0.0
 11
194.6705226585902
 21
423.5102736869349
 31
0.0
  0
LINE
  5
242
330
87
100
AcDbEntity
  8
1
  6
Continuous
 62
     7
100
AcDbLine
 10
193.6098624868104
 20
424.5709338587147
 30
0.0
 11
196.4015028988731
 21
427.3625742707775
 31
0.0
  0
ARC
  5
243
330
87
100
AcDbEntity
  8
1
  6
Continuous
 62
     7
100
AcDbCircle
 10
190.6446597091731
 20
420.5450709092976
 30
0.0
 40
8.922981317619392
100
AcDbArc
 50
220.178450692659
 51
229.8215493073401
  0
ARC
  5
244
330
87
100
AcDbEntity
  8
1
  6
Continuous
 62
     7
100
AcDbCircle
 10
190.6446597091731
 20
420.5450709092976
 30
0.0
 40
8.922981317619406
100
AcDbArc
 50
40.1784506926594
 51
49.82154930734086
  0
CIRCLE
  5
245
330
87
100
AcDbEntity
  8
1
  6
Continuous
 62
     7
100
AcDbCircle
 10
190.6446597091731
 20
420.5450709092976
 30
0.0
 40
3.999999999999952
  0
CIRCLE
  5
246
330
87
100
AcDbEntity
  8
1
  6
Continuous
 62
     7
100
AcDbCircle
 10
190.6446597091731
 20
420.5450709092976
 30
0.0
 40
4.99999999999994
  0
CIRCLE
  5
247
330
87
100
AcDbEntity
  8
1
  6
Continuous
 62
     7
100
AcDbCircle
 10
190.6446597091731
 20
420.5450709092976
 30
0.0
 40
9.99999999999998
  0
ENDBLK
  5
89
330
87
100
AcDbEntity
  8
0
100
AcDbBlockEnd
  0
BLOCK
  5
8D
330
8A
100
AcDbEntity
  8
0
100
AcDbBlockBegin
  2
34-98AXK__12
 70
     0
 10
180.644659709173
 20
410.5450709092975
 30
0.0
  3
34-98AXK__12
  1

  0
INSERT
  5
8B
330
8A
100
AcDbEntity
  8
1
100
AcDbBlockReference
  2
36-140AX
 10
186.7446615477632
 20
416.6450727478878
 30
0.0
  0
INSERT
  5
8C
330
8A
100
AcDbEntity
  8
1
100
AcDbBlockReference
  2
34-98AK__11
 10
180.644659709173
 20
410.5450709092975
 30
0.0
  0
LINE
  5
248
330
8A
100
AcDbEntity
  8
1
  6
Continuous
 62
     7
100
AcDbLine
 10
200.6446601915634
 20
818.500000000001
 30
0.0
 11
200.6446601915634
 21
817.500000000001
 31
0.0
  0
LINE
  5
249
330
8A
100
AcDbEntity
  8
1
  6
Continuous
 62
     7
100
AcDbLine
 10
197.6446601915634
 20
814.500000000001
 30
0.0
 11
183.6446601915634
 21
814.500000000001
 31
0.0
  0
LINE
  5
24A
330
8A
100
AcDbEntity
  8
1
  6
Continuous
 62
     7
100
AcDbLine
 10
180.6446601915634
 20
817.500000000001
 30
0.0
 11
180.6446601915634
 21
818.500000000001
 31
0.0
  0
ARC
  5
24B
330
8A
100
AcDbEntity
  8
1
  6
Continuous
 62
     7
100
AcDbCircle
 10
197.6446601915634
 20
817.500000000001
 30
0.0
 40
3.0
100
AcDbArc
 50
270.0
 51
0.0
  0
ARC
  5
24C
330
8A
100
AcDbEntity
  8
1
  6
Continuous
 62
     7
100
AcDbCircle
 10
183.6446601915634
 20
817.500000000001
 30
0.0
 40
3.0
100
AcDbArc
 50
180.0
 51
270.0
  0
ENDBLK
  5
8E
330
8A
100
AcDbEntity
  8
0
100
AcDbBlockEnd
  0
BLOCK
  5
90
330
8F
100
AcDbEntity
  8
0
100
AcDbBlockBegin
  2
03-47-50-M1K__13
 70
     0
 10
164.499999250891
 20
409.0450709092976
 30
0.0
  3
03-47-50-M1K__13
  1

  0
LINE
  5
24D
330
8F
100
AcDbEntity
  8
1
  6
Continuous
 62
     7
100
AcDbLine
 10
225.5203246791984
 20
439.1572799120323
 30
0.0
 11
198.7763876928184
 21
412.4133429256523
 31
0.0
  0
LINE
  5
24E
330
8F
100
AcDbEntity
  8
0
  6
Continuous
 62
     2
100
AcDbLine
 10
199.9601601915634
 20
840.000000000001
 30
0.0
 11
199.9601601915634
 21
840.800000000001
 31
0.0
  0
LINE
  5
24F
330
8F
100
AcDbEntity
  8
0
  6
Continuous
 62
     7
100
AcDbLine
 10
201.1221601915634
 20
840.000000000001
 30
0.0
 11
201.1221601915634
 21
840.800000000001
 31
0.0
  0
LINE
  5
250
330
8F
100
AcDbEntity
  8
1
  6
Continuous
 62
     7
100
AcDbLine
 10
199.9601601915634
 20
840.000000000001
 30
0.0
 11
201.1221601915634
 21
840.000000000001
 31
0.0
  0
LINE
  5
251
330
8F
100
AcDbEntity
  8
0
  6
Continuous
 62
     2
100
AcDbLine
 10
181.3291601915634
 20
840.000000000001
 30
0.0
 11
181.3291601915634
 21
840.800000000001
 31
0.0
  0
LINE
  5
252
330
8F
100
AcDbEntity
  8
0
  6
Continuous
 62
     7
100
AcDbLine
 10
180.1671601915624
 20
840.000000000001
 30
0.0
 11
180.1671601915624
 21
840.800000000001
 31
0.0
  0
LINE
  5
253
330
8F
100
AcDbEntity
  8
1
  6
Continuous
 62
     2
100
AcDbLine
 10
180.1671601915624
 20
837.987356961606
 30
0.0
 11
181.3291601915634
 21
840.000000000001
 31
0.0
  0
LINE
  5
254
330
8F
100
AcDbEntity
  8
1
  6
Continuous
 62
     7
100
AcDbLine
 10
180.1671601915624
 20
840.000000000001
 30
0.0
 11
180.1671601915624
 21
837.987356961606
 31
0.0
  0
LINE
  5
255
330
8F
100
AcDbEntity
  8
1
  6
Continuous
 62
     7
100
AcDbLine
 10
179.1446601915634
 20
836.000000000001
 30
0.0
 11
179.1446601915634
 21
818.500000000001
 31
0.0
  0
LINE
  5
256
330
8F
100
AcDbEntity
  8
1
  6
Continuous
 62
     7
100
AcDbLine
 10
218.499999250891
 20
818.500000000001
 30
0.0
 11
237.499999250891
 21
818.500000000001
 31
0.0
  0
LINE
  5
257
330
8F
100
AcDbEntity
  8
1
  6
Continuous
 62
     7
100
AcDbLine
 10
179.1446601915634
 20
818.500000000001
 30
0.0
 11
218.499999250891
 21
818.500000000001
 31
0.0
  0
LINE
  5
258
330
8F
100
AcDbEntity
  8
1
  6
Continuous
 62
     7
100
AcDbLine
 10
237.499999250891
 20
818.500000000001
 30
0.0
 11
237.499999250891
 21
833.000000000001
 31
0.0
  0
LINE
  5
259
330
8F
100
AcDbEntity
  8
1
  6
Continuous
 62
     7
100
AcDbLine
 10
226.024865982646
 20
828.690905958274
 30
0.0
 11
213.2860886201064
 21
828.690905958274
 31
0.0
  0
LINE
  5
25A
330
8F
100
AcDbEntity
  8
1
  6
Continuous
 62
     7
100
AcDbLine
 10
237.499999250891
 20
833.000000000001
 30
0.0
 11
213.2860886201064
 21
833.000000000001
 31
0.0
  0
LINE
  5
25B
330
8F
100
AcDbEntity
  8
1
  6
Continuous
 62
     7
100
AcDbLine
 10
202.1446601915634
 20
836.000000000001
 30
0.0
 11
206.1446601915634
 21
836.000000000001
 31
0.0
  0
LINE
  5
25C
330
8F
100
AcDbEntity
  8
1
  6
Continuous
 62
     7
100
AcDbLine
 10
180.1671601915624
 20
840.000000000001
 30
0.0
 11
199.9601601915634
 21
840.000000000001
 31
0.0
  0
LINE
  5
25D
330
8F
100
AcDbEntity
  8
1
  6
Continuous
 62
     7
100
AcDbLine
 10
201.1221601915634
 20
837.987356961606
 30
0.0
 11
201.1221601915634
 21
840.000000000001
 31
0.0
  0
LINE
  5
25E
330
8F
100
AcDbEntity
  8
1
  6
Continuous
 62
     2
100
AcDbLine
 10
199.9601601915634
 20
840.000000000001
 30
0.0
 11
201.1221601915634
 21
837.987356961606
 31
0.0
  0
LINE
  5
25F
330
8F
100
AcDbEntity
  8
1
  6
Continuous
 62
     7
100
AcDbLine
 10
179.1446601915634
 20
836.000000000001
 30
0.0
 11
202.1446601915634
 21
836.000000000001
 31
0.0
  0
LINE
  5
260
330
8F
100
AcDbEntity
  8
1
  6
Continuous
 62
     7
100
AcDbLine
 10
180.1446601915634
 20
837.300000000001
 30
0.0
 11
180.1446601915634
 21
837.000000000001
 31
0.0
  0
LINE
  5
261
330
8F
100
AcDbEntity
  8
1
  6
Continuous
 62
     7
100
AcDbLine
 10
201.1446601915634
 20
837.000000000001
 30
0.0
 11
201.1446601915634
 21
837.300000000001
 31
0.0
  0
LINE
  5
262
330
8F
100
AcDbEntity
  8
1
  6
Continuous
 62
     7
100
AcDbLine
 10
180.1446601915634
 20
837.948385818436
 30
0.0
 11
180.1446601915634
 21
837.000000000001
 31
0.0
  0
LINE
  5
263
330
8F
100
AcDbEntity
  8
1
  6
Continuous
 62
     7
100
AcDbLine
 10
180.1446601915634
 20
837.948385818436
 30
0.0
 11
180.1671601915624
 21
837.987356961606
 31
0.0
  0
LINE
  5
264
330
8F
100
AcDbEntity
  8
1
  6
Continuous
 62
     7
100
AcDbLine
 10
201.1446601915634
 20
837.000000000001
 30
0.0
 11
201.1446601915634
 21
837.300000000001
 31
0.0
  0
LINE
  5
265
330
8F
100
AcDbEntity
  8
1
  6
Continuous
 62
     7
100
AcDbLine
 10
201.1221601915634
 20
837.987356961606
 30
0.0
 11
201.1446601915634
 21
837.948385818436
 31
0.0
  0
LINE
  5
266
330
8F
100
AcDbEntity
  8
1
  6
Continuous
 62
     7
100
AcDbLine
 10
201.1446601915634
 20
837.000000000001
 30
0.0
 11
201.1446601915634
 21
837.948385818436
 31
0.0
  0
LINE
  5
267
330
8F
100
AcDbEntity
  8
1
  6
Continuous
 62
     7
100
AcDbLine
 10
199.9601601915634
 20
865.500000000001
 30
0.0
 11
201.1221601915634
 21
864.338000000001
 31
0.0
  0
LINE
  5
268
330
8F
100
AcDbEntity
  8
1
  6
Continuous
 62
     2
100
AcDbLine
 10
199.9601601915634
 20
865.500000000001
 30
0.0
 11
199.9601601915634
 21
851.500000000001
 31
0.0
  0
LINE
  5
269
330
8F
100
AcDbEntity
  8
1
  6
Continuous
 62
     7
100
AcDbLine
 10
201.1221601915634
 20
851.500000000001
 30
0.0
 11
201.1221601915634
 21
864.338000000001
 31
0.0
  0
LINE
  5
26A
330
8F
100
AcDbEntity
  8
1
  6
Continuous
 62
     7
100
AcDbLine
 10
180.1671601915634
 20
851.500000000001
 30
0.0
 11
180.1671601915634
 21
864.338000000001
 31
0.0
  0
LINE
  5
26B
330
8F
100
AcDbEntity
  8
1
  6
Continuous
 62
     2
100
AcDbLine
 10
181.3291601915634
 20
851.500000000001
 30
0.0
 11
181.3291601915634
 21
865.500000000001
 31
0.0
  0
LINE
  5
26C
330
8F
100
AcDbEntity
  8
1
  6
Continuous
 62
     7
100
AcDbLine
 10
180.1671601915634
 20
864.338000000001
 30
0.0
 11
201.1221601915634
 21
864.338000000001
 31
0.0
  0
LINE
  5
26D
330
8F
100
AcDbEntity
  8
1
  6
Continuous
 62
     7
100
AcDbLine
 10
181.3291601915634
 20
865.500000000001
 30
0.0
 11
199.9601601915634
 21
865.500000000001
 31
0.0
  0
LINE
  5
26E
330
8F
100
AcDbEntity
  8
1
  6
Continuous
 62
     7
100
AcDbLine
 10
181.3291601915634
 20
865.500000000001
 30
0.0
 11
180.1671601915634
 21
864.338000000001
 31
0.0
  0
LINE
  5
26F
330
8F
100
AcDbEntity
  8
1
  6
Continuous
 62
     7
100
AcDbLine
 10
182.5129317255278
 20
428.6767988929429
 30
0.0
 11
210.9999992508902
 21
457.1638664183053
 31
0.0
  0
ARC
  5
270
330
8F
100
AcDbEntity
  8
1
  6
Continuous
 62
     7
100
AcDbCircle
 10
213.2860886201064
 20
843.000000000001
 30
0.0
 40
10.00000000000011
100
AcDbArc
 50
224.4270040008051
 51
270.0
  0
ARC
  5
271
330
8F
100
AcDbEntity
  8
1
  6
Continuous
 62
     7
100
AcDbCircle
 10
213.2860886201064
 20
842.609449289638
 30
0.0
 40
13.91854333136371
100
AcDbArc
 50
208.3506550925188
 51
270.0
  0
ARC
  5
272
330
8F
100
AcDbEntity
  8
1
  6
Continuous
 62
     7
100
AcDbCircle
 10
179.1446601915634
 20
837.000000000001
 30
0.0
 40
1.0
100
AcDbArc
 50
270.0
 51
0.0
  0
ARC
  5
273
330
8F
100
AcDbEntity
  8
1
  6
Continuous
 62
     7
100
AcDbCircle
 10
202.1446601915634
 20
837.000000000001
 30
0.0
 40
1.0
100
AcDbArc
 50
180.0
 51
270.0
  0
ARC
  5
274
330
8F
100
AcDbEntity
  8
1
  6
Continuous
 62
     7
100
AcDbCircle
 10
190.6446597091731
 20
420.5450709092976
 30
0.0
 40
11.50000000000001
100
AcDbArc
 50
135.0
 51
314.9999999999999
  0
CIRCLE
  5
275
330
8F
100
AcDbEntity
  8
1
  6
Continuous
 62
     7
100
AcDbCircle
 10
190.6446597091731
 20
420.5450709092976
 30
0.0
 40
10.49999999999992
  0
SPLINE
  5
276
330
8F
100
AcDbEntity
  8
1
  6
Continuous
 62
     7
100
AcDbSpline
210
0.0
220
0.0
230
1.0
 70
     8
 71
     3
 72
    15
 73
    11
 74
     9
 42
0.000000001
 43
0.0000000001
 44
0.00000001
 40
0.0
 40
0.0
 40
0.0
 40
0.0
 40
1.010591013953141
 40
2.021170126670198
 40
2.936094642415604
 40
3.850986246233513
 40
4.856834999707031
 40
5.863204271545253
 40
9.14527177345632
 40
12.43110767220365
 40
12.43110767220365
 40
12.43110767220365
 40
12.43110767220365
 10
237.499999250891
 20
833.000000000001
 30
0.0
 10
237.2179014614227
 20
832.8158483166394
 30
0.0
 10
236.6537091967302
 20
832.4475471308117
 30
0.0
 10
235.8162554026964
 20
831.9407288900964
 30
0.0
 10
234.9947555742493
 20
831.4698378878884
 30
0.0
 10
234.1640352136038
 20
831.0189449356586
 30
0.0
 10
233.2965502698837
 20
830.5712619365634
 30
0.0
 10
231.7028338922054
 20
829.8179999042651
 30
0.0
 10
229.3236787143131
 20
828.8774092402673
 30
0.0
 10
227.1248907522161
 20
828.7530974890888
 30
0.0
 10
226.024865982646
 20
828.690905958274
 30
0.0
 11
237.499999250891
 21
833.000000000001
 31
0.0
 11
236.6506307819481
 21
832.4523985041357
 31
0.0
 11
235.7868541984295
 21
831.9278414003613
 31
0.0
 11
234.9930378234327
 21
831.4729321428415
 31
0.0
 11
234.1891963848435
 21
831.036050476915
 31
0.0
 11
233.2943597716715
 21
830.5767040358369
 31
0.0
 11
232.3847876584298
 21
830.1460560543428
 31
0.0
 11
229.2909654669697
 21
829.0505053475026
 31
0.0
 11
226.024865982646
 21
828.690905958274
 31
0.0
  0
ENDBLK
  5
91
330
8F
100
AcDbEntity
  8
0
100
AcDbBlockEnd
  0
BLOCK
  5
93
330
92
100
AcDbEntity
  8
0
100
AcDbBlockBegin
  2
32-3-M1K__14
 70
     0
 10
210.99999925089
 20
439.1504102138985
 30
0.0
  3
32-3-M1K__14
  1

  0
LINE
  5
277
330
92
100
AcDbEntity
  8
1
  6
Continuous
 62
     7
100
AcDbLine
 10
230.019237137358
 20
440.900410213898
 30
0.0
 11
227.044623584053
 21
439.183016278163
 31
0.0
  0
LINE
  5
278
330
92
100
AcDbEntity
  8
1
  6
Continuous
 62
     7
100
AcDbLine
 10
224.955374917729
 20
439.183016278163
 30
0.0
 11
212.044623584053
 21
446.6370420361
 31
0.0
  0
LINE
  5
279
330
92
100
AcDbEntity
  8
1
  6
Continuous
 62
     7
100
AcDbLine
 10
210.999999250891
 20
448.44638445596
 30
0.0
 11
210.99999925089
 21
455.900410213898
 31
0.0
  0
LINE
  5
27A
330
92
100
AcDbEntity
  8
1
  6
Continuous
 62
     7
100
AcDbLine
 10
227.044623584053
 20
472.617804149633
 30
0.0
 11
230.019237137358
 21
470.900410213898
 31
0.0
  0
LINE
  5
27B
330
92
100
AcDbEntity
  8
1
  6
Continuous
 62
     7
100
AcDbLine
 10
210.99999925089
 20
455.900410213898
 30
0.0
 11
210.999999250891
 21
463.354435971836
 31
0.0
  0
LINE
  5
27C
330
92
100
AcDbEntity
  8
1
  6
Continuous
 62
     7
100
AcDbLine
 10
212.044623584053
 20
465.163778391696
 30
0.0
 11
224.955374917729
 21
472.617804149633
 31
0.0
  0
LINE
  5
27D
330
92
100
AcDbEntity
  8
1
  6
Continuous
 62
     7
100
AcDbLine
 10
211.743335544556
 20
804.880561136097
 30
0.0
 11
240.256662957225
 21
804.880561136096
 31
0.0
  0
LINE
  5
27E
330
92
100
AcDbEntity
  8
1
  6
Continuous
 62
     7
100
AcDbLine
 10
210.999999250891
 20
817.031888413825
 30
0.0
 11
210.999999250891
 21
805.729233858367
 31
0.0
  0
LINE
  5
27F
330
92
100
AcDbEntity
  8
1
  6
Continuous
 62
     7
100
AcDbLine
 10
240.256662957225
 20
817.880561136096
 30
0.0
 11
211.743335544556
 21
817.880561136096
 31
0.0
  0
LINE
  5
280
330
92
100
AcDbEntity
  8
1
  6
Continuous
 62
     7
100
AcDbLine
 10
240.999999250891
 20
817.031888413825
 30
0.0
 11
240.999999250891
 21
805.729233858367
 31
0.0
  0
ARC
  5
281
330
92
100
AcDbEntity
  8
1
  6
Continuous
 62
     7
100
AcDbCircle
 10
225.999999250891
 20
455.900410213898
 30
0.0
 40
16.74999999999951
100
AcDbArc
 50
266.4243920788201
 51
273.5756079211799
  0
ARC
  5
282
330
92
100
AcDbEntity
  8
1
  6
Continuous
 62
     7
100
AcDbCircle
 10
225.999999250891
 20
455.900410213898
 30
0.0
 40
16.75000000000009
100
AcDbArc
 50
206.4243920788196
 51
213.5756079211812
  0
ARC
  5
283
330
92
100
AcDbEntity
  8
1
  6
Continuous
 62
     7
100
AcDbCircle
 10
225.999999250891
 20
455.900410213898
 30
0.0
 40
16.74999999999951
100
AcDbArc
 50
86.42439207882
 51
93.57560792118
  0
ARC
  5
284
330
92
100
AcDbEntity
  8
1
  6
Continuous
 62
     7
100
AcDbCircle
 10
225.999999250891
 20
455.900410213898
 30
0.0
 40
16.75000000000043
100
AcDbArc
 50
146.4243920788188
 51
153.5756079211804
  0
ARC
  5
285
330
92
100
AcDbEntity
  8
1
  6
Continuous
 62
     7
100
AcDbCircle
 10
232.749999250891
 20
811.380561136096
 30
0.0
 40
9.999999999999684
100
AcDbArc
 50
319.9947991151407
 51
325.5884913302288
  0
ARC
  5
286
330
92
100
AcDbEntity
  8
1
  6
Continuous
 62
     7
100
AcDbCircle
 10
240.256662957225
 20
805.080561136096
 30
0.0
 40
0.1999999999999318
100
AcDbArc
 50
270.0
 51
319.9947991152978
  0
ARC
  5
287
330
92
100
AcDbEntity
  8
1
  6
Continuous
 62
     7
100
AcDbCircle
 10
219.249999250891
 20
811.380561136096
 30
0.0
 40
10.00000000000021
100
AcDbArc
 50
214.4115086697712
 51
220.0052008848512
  0
ARC
  5
288
330
92
100
AcDbEntity
  8
1
  6
Continuous
 62
     7
100
AcDbCircle
 10
211.743335544556
 20
805.080561136097
 30
0.0
 40
0.2000000000000461
100
AcDbArc
 50
220.0052008847022
 51
270.0
  0
ARC
  5
289
330
92
100
AcDbEntity
  8
1
  6
Continuous
 62
     7
100
AcDbCircle
 10
219.249999250891
 20
811.380561136096
 30
0.0
 40
10.00000000000037
100
AcDbArc
 50
139.9947991151448
 51
145.5884913302294
  0
ARC
  5
28A
330
92
100
AcDbEntity
  8
1
  6
Continuous
 62
     7
100
AcDbCircle
 10
211.743335544556
 20
817.680561136096
 30
0.0
 40
0.2000000000000455
100
AcDbArc
 50
90.0
 51
139.9947991152978
  0
ARC
  5
28B
330
92
100
AcDbEntity
  8
1
  6
Continuous
 62
     7
100
AcDbCircle
 10
240.256662957225
 20
817.680561136096
 30
0.0
 40
0.2000000000000461
100
AcDbArc
 50
40.00520088470216
 51
90.0
  0
ARC
  5
28C
330
92
100
AcDbEntity
  8
1
  6
Continuous
 62
     7
100
AcDbCircle
 10
232.749999250891
 20
811.380561136096
 30
0.0
 40
10.00000000000014
100
AcDbArc
 50
34.41150866977064
 51
40.00520088485882
  0
CIRCLE
  5
28D
330
92
100
AcDbEntity
  8
1
  6
Continuous
 62
     7
100
AcDbCircle
 10
218.499999250891
 20
811.380561136096
 30
0.0
 40
5.651024957037009
  0
CIRCLE
  5
28E
330
92
100
AcDbEntity
  8
1
  6
Continuous
 62
     7
100
AcDbCircle
 10
233.499999250891
 20
811.380561136096
 30
0.0
 40
5.651024957037009
  0
ENDBLK
  5
94
330
92
100
AcDbEntity
  8
0
100
AcDbBlockEnd
  0
BLOCK
  5
96
330
95
100
AcDbEntity
  8
0
100
AcDbBlockBegin
  2
78-3A-C4K__15
 70
     0
 10
150.999999250891
 20
395.5450709092976
 30
0.0
  3
78-3A-C4K__15
  1

  0
LINE
  5
28F
330
95
100
AcDbEntity
  8
1
  6
Continuous
 62
     7
100
AcDbLine
 10
165.6446601915634
 20
851.500000000001
 30
0.0
 11
165.6446601915634
 21
849.280624847487
 31
0.0
  0
LINE
  5
290
330
95
100
AcDbEntity
  8
1
  6
Continuous
 62
     7
100
AcDbLine
 10
215.6446601915634
 20
849.280624847487
 30
0.0
 11
215.6446601915634
 21
851.500000000001
 31
0.0
  0
LINE
  5
291
330
95
100
AcDbEntity
  8
1
  6
Continuous
 62
     7
100
AcDbLine
 10
215.2693552391174
 20
848.499756038044
 30
0.0
 11
203.9185741797584
 21
841.019131190558
 31
0.0
  0
LINE
  5
292
330
95
100
AcDbEntity
  8
1
  6
Continuous
 62
     7
100
AcDbLine
 10
203.2938791322044
 20
840.800000000001
 30
0.0
 11
177.9954412509214
 21
840.800000000001
 31
0.0
  0
LINE
  5
293
330
95
100
AcDbEntity
  8
1
  6
Continuous
 62
     7
100
AcDbLine
 10
166.0199651440094
 20
848.499756038044
 30
0.0
 11
177.3707462033674
 21
841.019131190558
 31
0.0
  0
LINE
  5
294
330
95
100
AcDbEntity
  8
1
  6
Continuous
 62
     7
100
AcDbLine
 10
168.2748614353274
 20
849.136437393241
 30
0.0
 11
213.0144589477984
 21
849.136437393241
 31
0.0
  0
LINE
  5
295
330
95
100
AcDbEntity
  8
1
  6
Continuous
 62
     7
100
AcDbLine
 10
165.6446601915634
 20
851.500000000001
 30
0.0
 11
215.6446601915634
 21
851.500000000001
 31
0.0
  0
ARC
  5
296
330
95
100
AcDbEntity
  8
1
  6
Continuous
 62
     7
100
AcDbCircle
 10
203.2938791322044
 20
841.800000000001
 30
0.0
 40
1.0
100
AcDbArc
 50
270.0
 51
308.6598082540733
  0
ARC
  5
297
330
95
100
AcDbEntity
  8
1
  6
Continuous
 62
     7
100
AcDbCircle
 10
177.9954412509214
 20
841.800000000001
 30
0.0
 40
0.9999999999996804
100
AcDbArc
 50
231.3401917459254
 51
270.0
  0
ARC
  5
298
330
95
100
AcDbEntity
  8
1
  6
Continuous
 62
     7
100
AcDbCircle
 10
166.6446601915634
 20
849.280624847487
 30
0.0
 40
1.0
100
AcDbArc
 50
180.0
 51
231.3401917459308
  0
ARC
  5
299
330
95
100
AcDbEntity
  8
1
  6
Continuous
 62
     7
100
AcDbCircle
 10
214.6446601915634
 20
849.280624847487
 30
0.0
 40
0.9999999999997692
100
AcDbArc
 50
308.6598082540705
 51
0.0
  0
ARC
  5
29A
330
95
100
AcDbEntity
  8
1
  6
Continuous
 62
     7
100
AcDbCircle
 10
190.6446597091731
 20
420.5450709092976
 30
0.0
 40
25.00000000000001
100
AcDbArc
 50
72.38710750265435
 51
17.61289249734607
  0
ENDBLK
  5
97
330
95
100
AcDbEntity
  8
0
100
AcDbBlockEnd
  0
BLOCK
  5
9E
330
98
100
AcDbEntity
  8
0
100
AcDbBlockBegin
  2
U3-47F-50__16
 70
     0
 10
38.499999250891
 20
690.500000000001
 30
0.0
  3
U3-47F-50__16
  1

  0
INSERT
  5
99
330
98
100
AcDbEntity
  8
1
100
AcDbBlockReference
  2
35-6A-8-C2K__9
 10
217.600003358569
 20
817.880561136096
 30
0.0
  0
INSERT
  5
9A
330
98
100
AcDbEntity
  8
1
100
AcDbBlockReference
  2
34-98AXK__12
 10
180.644659709173
 20
410.5450709092975
 30
0.0
  0
INSERT
  5
9B
330
98
100
AcDbEntity
  8
1
100
AcDbBlockReference
  2
03-47-50-M1K__13
 10
164.499999250891
 20
409.0450709092976
 30
0.0
  0
INSERT
  5
9C
330
98
100
AcDbEntity
  8
1
100
AcDbBlockReference
  2
32-3-M1K__14
 10
210.99999925089
 20
439.1504102138985
 30
0.0
  0
INSERT
  5
9D
330
98
100
AcDbEntity
  8
1
100
AcDbBlockReference
  2
78-3A-C4K__15
 10
150.999999250891
 20
395.5450709092976
 30
0.0
  0
ENDBLK
  5
9F
330
98
100
AcDbEntity
  8
0
100
AcDbBlockEnd
  0
BLOCK
  5
A1
330
A0
100
AcDbEntity
  8
0
100
AcDbBlockBegin
  2
84-293
 70
     0
 10
731.628612591677
 20
94.98941450524
 30
0.0
  3
84-293
  1

  0
LINE
  5
29B
330
A0
100
AcDbEntity
  8
1
  6
Continuous
 62
     7
100
AcDbLine
 10
286.707106648745
 20
507.693303432711
 30
0.0
 11
288.700663284523
 21
505.699746796934
 31
0.0
  0
LINE
  5
29C
330
A0
100
AcDbEntity
  8
1
  6
Continuous
 62
     7
100
AcDbLine
 10
286.707106648745
 20
509.107516995085
 30
0.0
 11
288.700663284523
 21
511.101073630862
 31
0.0
  0
LINE
  5
29D
330
A0
100
AcDbEntity
  8
1
  6
Continuous
 62
     7
100
AcDbLine
 10
283.299336450596
 20
511.101073630862
 30
0.0
 11
285.292893086373
 21
509.107516995084
 31
0.0
  0
LINE
  5
29E
330
A0
100
AcDbEntity
  8
1
  6
Continuous
 62
     7
100
AcDbLine
 10
283.299336450596
 20
505.699746796934
 30
0.0
 11
285.292893086373
 21
507.693303432711
 31
0.0
  0
LINE
  5
29F
330
A0
100
AcDbEntity
  8
1
  6
Continuous
 62
     7
100
AcDbLine
 10
651.4999992462427
 20
503.650410638898
 30
0.0
 11
650.9999992962428
 21
503.650410638897
 31
0.0
  0
LINE
  5
2A0
330
A0
100
AcDbEntity
  8
1
  6
Continuous
 62
     7
100
AcDbLine
 10
651.4999992462427
 20
512.150409788897
 30
0.0
 11
650.9999992962428
 21
512.150409788897
 31
0.0
  0
LINE
  5
2A1
330
A0
100
AcDbEntity
  8
1
  6
Continuous
 62
     7
100
AcDbLine
 10
651.4999992462427
 20
503.650410638898
 30
0.0
 11
651.4999992462427
 21
512.150409788897
 31
0.0
  0
ARC
  5
2A2
330
A0
100
AcDbEntity
  8
1
  6
Continuous
 62
     7
100
AcDbCircle
 10
286.25000029256
 20
508.400410213898
 30
0.0
 40
4.000000000000182
100
AcDbArc
 50
137.5329689375388
 51
180.0
  0
ARC
  5
2A3
330
A0
100
AcDbEntity
  8
1
  6
Continuous
 62
     7
100
AcDbCircle
 10
285.749999442559
 20
508.400410213898
 30
0.0
 40
4.000000000000182
100
AcDbArc
 50
317.5329689375388
 51
0.0
  0
ARC
  5
2A4
330
A0
100
AcDbEntity
  8
1
  6
Continuous
 62
     7
100
AcDbCircle
 10
285.749999442559
 20
508.400410213898
 30
0.0
 40
4.0
100
AcDbArc
 50
0.0
 51
42.46703106246121
  0
ARC
  5
2A5
330
A0
100
AcDbEntity
  8
1
  6
Continuous
 62
     7
100
AcDbCircle
 10
286.25000029256
 20
508.400410213898
 30
0.0
 40
4.0
100
AcDbArc
 50
180.0
 51
222.4670310624612
  0
ARC
  5
2A6
330
A0
100
AcDbEntity
  8
1
  6
Continuous
 62
     7
100
AcDbCircle
 10
662.2221860177558
 20
507.900410213897
 30
0.0
 40
11.99999880000011
100
AcDbArc
 50
159.2576200455127
 51
200.742379954487
  0
ARC
  5
2A7
330
A0
100
AcDbEntity
  8
1
  6
Continuous
 62
     7
100
AcDbCircle
 10
287.414213429932
 20
508.400410213898
 30
0.0
 40
1.000000000000611
100
AcDbArc
 50
134.9999999999977
 51
225.0000000000023
  0
ARC
  5
2A8
330
A0
100
AcDbEntity
  8
1
  6
Continuous
 62
     7
100
AcDbCircle
 10
284.585786305186
 20
508.400410213898
 30
0.0
 40
1.000000000000651
100
AcDbArc
 50
315.0
 51
44.99999999995855
  0
CIRCLE
  5
2A9
330
A0
100
AcDbEntity
  8
1
  6
Continuous
 62
     7
100
AcDbCircle
 10
285.999999867559
 20
508.400410213898
 30
0.0
 40
4.249999575000004
  0
HATCH
  5
2AC
330
A0
100
AcDbEntity
  8
0
  6
Continuous
 62
     2
100
AcDbHatch
 10
0.0
 20
0.0
 30
0.0
210
0.0
220
0.0
230
1.0
  2
CUSTOM0
 70
     0
 71
     0
 91
        1
 92
        1
 93
       18
 72
     1
 10
289.749999442559
 20
508.400410213898
 11
289.670265753924
 21
507.605732890718
 72
     1
 10
289.670265753924
 20
507.605732890718
 11
289.434243418571
 21
506.842736844663
 72
     1
 10
289.434243418571
 20
506.842736844663
 11
289.051341902198
 21
506.141840320318
 72
     1
 10
289.051341902198
 20
506.141840320318
 11
288.700663284523
 21
505.699746796934
 72
     1
 10
288.700663284523
 20
505.699746796934
 11
286.707106648745
 21
507.693303432711
 72
     1
 10
286.707106648745
 20
507.693303432711
 11
286.580721275708
 21
507.847878921711
 72
     1
 10
286.580721275708
 20
507.847878921711
 11
286.487564604622
 21
508.024482089717
 72
     1
 10
286.487564604622
 20
508.024482089717
 11
286.431350497992
 21
508.216072325724
 72
     1
 10
286.431350497992
 20
508.216072325724
 11
286.414320034854
 21
508.415011531621
 72
     1
 10
286.414320034854
 20
508.415011531621
 11
286.437152166033
 21
508.613368629057
 72
     1
 10
286.437152166033
 20
508.613368629057
 11
286.498936646508
 21
508.80323574651
 72
     1
 10
286.498936646508
 20
508.80323574651
 11
286.597210324015
 21
508.977043481167
 72
     1
 10
286.597210324015
 20
508.977043481167
 11
286.707106648745
 21
509.107516995085
 72
     1
 10
286.707106648745
 20
509.107516995085
 11
288.700663284523
 21
511.101073630862
 72
     1
 10
288.700663284523
 20
511.101073630862
 11
289.178385450264
 21
510.461033755979
 72
     1
 10
289.178385450264
 20
510.461033755979
 11
289.519428684775
 21
509.738843323146
 72
     1
 10
289.519428684775
 20
509.738843323146
 11
289.71019667052
 21
508.963293785918
 72
     1
 10
289.71019667052
 20
508.963293785918
 11
289.749999442559
 21
508.400410213898
 97
        0
 75
     1
 76
     2
 52
45.0
 41
0.25
 77
     0
 78
     1
 53
45.0
 43
0.0
 44
0.0
 45
-0.7071067811865475
 46
0.0000000000000001
 79
     0
 98
        1
 10
0.0
 20
0.0
  0
HATCH
  5
2AD
330
A0
100
AcDbEntity
  8
0
  6
Continuous
 62
     2
100
AcDbHatch
 10
0.0
 20
0.0
 30
0.0
210
0.0
220
0.0
230
1.0
  2
_USER
 70
     0
 71
     0
 91
        1
 92
        1
 93
       18
 72
     1
 10
285.292893086373
 20
507.693303432711
 11
283.299336450596
 21
505.699746796934
 72
     1
 10
283.299336450596
 20
505.699746796934
 11
282.821614284855
 21
506.339786671817
 72
     1
 10
282.821614284855
 20
506.339786671817
 11
282.480571050344
 21
507.06197710465
 72
     1
 10
282.480571050344
 20
507.06197710465
 11
282.289803064599
 21
507.837526641878
 72
     1
 10
282.289803064599
 20
507.837526641878
 11
282.25000029256
 21
508.400410213898
 72
     1
 10
282.25000029256
 20
508.400410213898
 11
282.329733981195
 21
509.195087537078
 72
     1
 10
282.329733981195
 20
509.195087537078
 11
282.565756316548
 21
509.958083583132
 72
     1
 10
282.565756316548
 20
509.958083583132
 11
282.948657832921
 21
510.658980107478
 72
     1
 10
282.948657832921
 20
510.658980107478
 11
283.299336450596
 21
511.101073630862
 72
     1
 10
283.299336450596
 20
511.101073630862
 11
285.292893086373
 21
509.107516995084
 72
     1
 10
285.292893086373
 20
509.107516995084
 11
285.419278459411
 21
508.952941506085
 72
     1
 10
285.419278459411
 20
508.952941506085
 11
285.512435130497
 21
508.776338338079
 72
     1
 10
285.512435130497
 20
508.776338338079
 11
285.568649237127
 21
508.584748102072
 72
     1
 10
285.568649237127
 20
508.584748102072
 11
285.585679700264
 21
508.385808896175
 72
     1
 10
285.585679700264
 20
508.385808896175
 11
285.562847569086
 21
508.187451798738
 72
     1
 10
285.562847569086
 20
508.187451798738
 11
285.501063088611
 21
507.997584681285
 72
     1
 10
285.501063088611
 20
507.997584681285
 11
285.402789411103
 21
507.823776946628
 72
     1
 10
285.402789411103
 20
507.823776946628
 11
285.292893086373
 21
507.693303432711
 97
        0
 75
     1
 76
     0
 52
0.0
 41
0.1
 77
     0
 78
     1
 53
0.0
 43
0.0
 44
0.0
 45
0.0
 46
0.1
 79
     0
 98
        1
 10
0.0
 20
0.0
  0
ENDBLK
  5
A2
330
A0
100
AcDbEntity
  8
0
100
AcDbBlockEnd
  0
BLOCK
  5
A4
330
A3
100
AcDbEntity
  8
0
100
AcDbBlockBegin
  2
37-305-M11
 70
     0
 10
1199.62857104548
 20
797.150410213898
 30
0.0
  3
37-305-M11
  1

  0
LINE
  5
2AE
330
A3
100
AcDbEntity
  8
1
  6
Continuous
 62
     7
100
AcDbLine
 10
652.999999246241
 20
491.900410213897
 30
0.0
 11
694.999999246241
 21
491.900410213897
 31
0.0
  0
LINE
  5
2AF
330
A3
100
AcDbEntity
  8
1
  6
Continuous
 62
     7
100
AcDbLine
 10
692.49999924624
 20
491.400410213898
 30
0.0
 11
655.49999924624
 21
491.400410213898
 31
0.0
  0
LINE
  5
2B0
330
A3
100
AcDbEntity
  8
1
  6
Continuous
 62
     7
100
AcDbLine
 10
653.999999246242
 20
492.900410213898
 30
0.0
 11
652.999999246241
 21
491.900410213897
 31
0.0
  0
LINE
  5
2B1
330
A3
100
AcDbEntity
  8
1
  6
Continuous
 62
     7
100
AcDbLine
 10
304.499999536006
 20
491.400408899317
 30
0.0
 11
267.499999536006
 21
491.4004088993131
 31
0.0
  0
LINE
  5
2B2
330
A3
100
AcDbEntity
  8
1
  6
Continuous
 62
     7
100
AcDbLine
 10
267.499999536006
 20
491.4004088993131
 30
0.0
 11
264.999999041372
 21
491.40040889935
 31
0.0
  0
LINE
  5
2B3
330
A3
100
AcDbEntity
  8
1
  6
Continuous
 62
     7
100
AcDbLine
 10
306.999999041371
 20
491.40040889935
 30
0.0
 11
304.499999536006
 21
491.400408899317
 31
0.0
  0
LINE
  5
2B4
330
A3
100
AcDbEntity
  8
1
  6
Continuous
 62
     7
100
AcDbLine
 10
266.5000003559218
 20
493.4004102138978
 30
0.0
 11
264.999999041372
 21
491.900408899348
 31
0.0
  0
LINE
  5
2B5
330
A3
100
AcDbEntity
  8
1
  6
Continuous
 62
     7
100
AcDbLine
 10
694.999999246241
 20
491.400410213898
 30
0.0
 11
692.49999924624
 21
491.400410213898
 31
0.0
  0
LINE
  5
2B6
330
A3
100
AcDbEntity
  8
1
  6
Continuous
 62
     7
100
AcDbLine
 10
655.49999924624
 20
491.400410213898
 30
0.0
 11
652.999999246241
 21
491.400410213898
 31
0.0
  0
LINE
  5
2B7
330
A3
100
AcDbEntity
  8
1
  6
Continuous
 62
     7
100
AcDbLine
 10
652.999999246241
 20
491.900410213897
 30
0.0
 11
652.999999246241
 21
491.400410213898
 31
0.0
  0
LINE
  5
2B8
330
A3
100
AcDbEntity
  8
1
  6
Continuous
 62
     7
100
AcDbLine
 10
694.999999246241
 20
491.900410213897
 30
0.0
 11
692.999999246239
 21
493.900410213898
 31
0.0
  0
LINE
  5
2B9
330
A3
100
AcDbEntity
  8
1
  6
Continuous
 62
     7
100
AcDbLine
 10
694.999999246241
 20
491.400410213898
 30
0.0
 11
694.999999246241
 21
491.900410213897
 31
0.0
  0
LINE
  5
2BA
330
A3
100
AcDbEntity
  8
1
  6
Continuous
 62
     7
100
AcDbLine
 10
264.999999041372
 20
491.900408899348
 30
0.0
 11
306.999999041371
 21
491.900408899348
 31
0.0
  0
LINE
  5
2BB
330
A3
100
AcDbEntity
  8
1
  6
Continuous
 62
     7
100
AcDbLine
 10
306.999999041371
 20
491.900408899348
 30
0.0
 11
305.4999977268212
 21
493.4004102138978
 31
0.0
  0
LINE
  5
2BC
330
A3
100
AcDbEntity
  8
1
  6
Continuous
 62
     7
100
AcDbLine
 10
306.999999041371
 20
491.40040889935
 30
0.0
 11
306.999999041371
 21
491.900408899348
 31
0.0
  0
LINE
  5
2BD
330
A3
100
AcDbEntity
  8
1
  6
Continuous
 62
     7
100
AcDbLine
 10
264.999999041372
 20
491.900408899348
 30
0.0
 11
264.999999041372
 21
491.40040889935
 31
0.0
  0
LINE
  5
2BE
330
A3
100
AcDbEntity
  8
1
  6
Continuous
 62
     7
100
AcDbLine
 10
692.999999246239
 20
493.900410213898
 30
0.0
 11
675.590269510144
 21
493.900410213898
 31
0.0
  0
ARC
  5
2BF
330
A3
100
AcDbEntity
  8
1
  6
Continuous
 62
     7
100
AcDbCircle
 10
286.0
 20
770.000000000001
 30
0.0
 40
21.00000095862802
100
AcDbArc
 50
26.12922891089221
 51
153.8706868146303
  0
ARC
  5
2C0
330
A3
100
AcDbEntity
  8
1
  6
Continuous
 62
     7
100
AcDbCircle
 10
677.062604877297
 20
492.486387325547
 30
0.0
 40
15.99999999999892
100
AcDbArc
 50
5.07021119923641
 51
31.83358454753712
  0
ENDBLK
  5
A5
330
A3
100
AcDbEntity
  8
0
100
AcDbBlockEnd
  0
BLOCK
  5
A7
330
A6
100
AcDbEntity
  8
0
100
AcDbBlockBegin
  2
27-14-M1
 70
     0
 10
885.128571045479
 20
664.050410213898
 30
0.0
  3
27-14-M1
  1

  0
LINE
  5
2C1
330
A6
100
AcDbEntity
  8
1
  6
Continuous
 62
     7
100
AcDbLine
 10
672.337289276418
 20
492.9004102138974
 30
0.0
 11
651.9913478778
 21
492.9004102138974
 31
0.0
  0
LINE
  5
2C2
330
A6
100
AcDbEntity
  8
1
  6
Continuous
 62
     7
100
AcDbLine
 10
692.94834881222
 20
501.9946155233156
 30
0.0
 11
674.450380585121
 21
493.3688712787144
 31
0.0
  0
LINE
  5
2C3
330
A6
100
AcDbEntity
  8
1
  6
Continuous
 62
     7
100
AcDbLine
 10
574.103592335542
 20
547.0844846427966
 30
0.0
 11
573.880155081096
 21
544.5305851381025
 31
0.0
  0
LINE
  5
2C4
330
A6
100
AcDbEntity
  8
1
  6
Continuous
 62
     7
100
AcDbLine
 10
693.217670529319
 20
502.5855880947426
 30
0.0
 11
692.984024046436
 21
503.4004102138974
 31
0.0
  0
LINE
  5
2C5
330
A6
100
AcDbEntity
  8
1
  6
Continuous
 62
     7
100
AcDbLine
 10
651.491424030222
 20
493.3916840106795
 30
0.0
 11
651.312357290845
 21
503.6504106388976
 31
0.0
  0
LINE
  5
2C6
330
A6
100
AcDbEntity
  8
1
  6
PHANTOM
 62
     5
100
AcDbLine
 10
695.84381647718
 20
492.8241877688724
 30
0.0
 11
694.076221691264
 21
492.8241877688724
 31
0.0
  0
LINE
  5
2C7
330
A6
100
AcDbEntity
  8
1
  6
PHANTOM
 62
     5
100
AcDbLine
 10
696.23121128779
 20
492.8241877688737
 30
0.0
 11
695.84381647718
 21
492.8241877688724
 31
0.0
  0
LINE
  5
2C8
330
A6
100
AcDbEntity
  8
1
  6
PHANTOM
 62
     5
100
AcDbLine
 10
696.416776134448
 20
492.8241877688724
 30
0.0
 11
696.23121128779
 21
492.8241877688737
 31
0.0
  0
LINE
  5
2C9
330
A6
100
AcDbEntity
  8
1
  6
PHANTOM
 62
     5
100
AcDbLine
 10
607.762650000551
 20
583.9154516674914
 30
0.0
 11
606.480822507599
 21
581.6952613231595
 31
0.0
  0
LINE
  5
2CA
330
A6
100
AcDbEntity
  8
1
  6
PHANTOM
 62
     5
100
AcDbLine
 10
696.910620304746
 20
493.2459705363526
 30
0.0
 11
697.043223385521
 21
494.0831934384507
 31
0.0
  0
LINE
  5
2CB
330
A6
100
AcDbEntity
  8
1
  6
Continuous
 62
     7
100
AcDbLine
 10
263.499999867559
 20
504.400410213898
 30
0.0
 11
263.499999867559
 21
493.900410213898
 31
0.0
  0
LINE
  5
2CC
330
A6
100
AcDbEntity
  8
1
  6
Continuous
 62
     7
100
AcDbLine
 10
308.499999867559
 20
493.900410213898
 30
0.0
 11
308.499999867559
 21
504.400410213898
 31
0.0
  0
LINE
  5
2CD
330
A6
100
AcDbEntity
  8
1
  6
Continuous
 62
     7
100
AcDbLine
 10
307.999999867559
 20
493.400410213898
 30
0.0
 11
263.999999867559
 21
493.400410213898
 31
0.0
  0
ARC
  5
2CE
330
A6
100
AcDbEntity
  8
1
  6
PHANTOM
 62
     5
100
AcDbCircle
 10
667.412573167667
 20
498.7762273896564
 30
0.0
 40
29.99999999999962
100
AcDbArc
 50
351.0000000000022
 51
0.10892768463937
  0
ARC
  5
2CF
330
A6
100
AcDbEntity
  8
1
  6
PHANTOM
 62
     5
100
AcDbCircle
 10
210.563208361014
 20
705.973576879608
 30
0.0
 40
0.9999999999998335
100
AcDbArc
 50
137.9259336519666
 51
180.0
  0
ARC
  5
2D0
330
A6
100
AcDbEntity
  8
1
  6
PHANTOM
 62
     5
100
AcDbCircle
 10
361.436787120283
 20
705.973577290634
 30
0.0
 40
0.9999999999999257
100
AcDbArc
 50
322.2361147362265
 51
0.0
  0
ARC
  5
2D1
330
A6
100
AcDbEntity
  8
1
  6
PHANTOM
 62
     5
100
AcDbCircle
 10
-186.716241342052
 20
99.997554704708
 30
0.0
 40
800.0000000000001
100
AcDbArc
 50
47.92593365195228
 51
52.45536947750803
  0
ARC
  5
2D2
330
A6
100
AcDbEntity
  8
1
  6
PHANTOM
 62
     5
100
AcDbCircle
 10
956.00244118761
 20
1242.71623723438
 30
0.0
 40
799.9999999999986
100
AcDbArc
 50
216.4091165834335
 51
222.0740663480482
  0
ARC
  5
2D3
330
A6
100
AcDbEntity
  8
1
  6
PHANTOM
 62
     5
100
AcDbCircle
 10
310.798210728721
 20
745.201785163602
 30
0.0
 40
65.05558298765926
100
AcDbArc
 50
307.7638852637954
 51
322.2361147362064
  0
ARC
  5
2D4
330
A6
100
AcDbEntity
  8
1
  6
PHANTOM
 62
     5
100
AcDbCircle
 10
377.188589206525
 20
815.835687004032
 30
0.0
 40
80.79733078210339
100
AcDbArc
 50
211.33021627213
 51
216.4091165834337
  0
ARC
  5
2D5
330
A6
100
AcDbEntity
  8
1
  6
Continuous
 62
     7
100
AcDbCircle
 10
382.890795352546
 20
737.930652961649
 30
0.0
 40
80.79733078208712
100
AcDbArc
 50
158.151252990697
 51
166.3302162721279
  0
ARC
  5
2D6
330
A6
100
AcDbEntity
  8
1
  6
Continuous
 62
     7
100
AcDbCircle
 10
189.109199752101
 20
737.930652961646
 30
0.0
 40
80.7973307821036
100
AcDbArc
 50
8.59088341656923
 51
13.66978372787006
  0
ARC
  5
2D7
330
A6
100
AcDbEntity
  8
1
  6
Continuous
 62
     7
100
AcDbCircle
 10
285.999997552331
 20
769.999997946159
 30
0.0
 40
22.50000000000037
100
AcDbArc
 50
181.824085054364
 51
215.2159837822449
  0
ARC
  5
2D8
330
A6
100
AcDbEntity
  8
1
  6
Continuous
 62
     7
100
AcDbCircle
 10
189.109199752101
 20
737.930652961646
 30
0.0
 40
80.79733078210276
100
AcDbArc
 50
13.66978372787006
 51
21.84874700930295
  0
ARC
  5
2D9
330
A6
100
AcDbEntity
  8
1
  6
Continuous
 62
     7
100
AcDbCircle
 10
285.999997552331
 20
769.999997946159
 30
0.0
 40
22.50000000000005
100
AcDbArc
 50
324.7840162177608
 51
358.1759149456361
  0
ARC
  5
2DA
330
A6
100
AcDbEntity
  8
1
  6
Continuous
 62
     7
100
AcDbCircle
 10
285.999997552331
 20
766.671801562124
 30
0.0
 40
22.66357593800833
100
AcDbArc
 50
7.43994405500041
 51
172.5600559449996
  0
ARC
  5
2DB
330
A6
100
AcDbEntity
  8
1
  6
Continuous
 62
     7
100
AcDbCircle
 10
382.890795352546
 20
737.930652961649
 30
0.0
 40
80.79733078208696
100
AcDbArc
 50
166.3302162721279
 51
171.4091165834297
  0
ARC
  5
2DC
330
A6
100
AcDbEntity
  8
1
  6
Continuous
 62
     7
100
AcDbCircle
 10
1094.02412695762
 20
630.497585005637
 30
0.0
 40
800.0000000000022
100
AcDbArc
 50
172.5446305127541
 51
177.074226806793
  0
ARC
  5
2DD
330
A6
100
AcDbEntity
  8
1
  6
Continuous
 62
     7
100
AcDbCircle
 10
-522.024131852955
 20
630.497585005635
 30
0.0
 40
800.0000000000074
100
AcDbArc
 50
7.45536944127274
 51
8.59088341656702
  0
ARC
  5
2DE
330
A6
100
AcDbEntity
  8
1
  6
PHANTOM
 62
     5
100
AcDbCircle
 10
194.811406274771
 20
815.835686593007
 30
0.0
 40
80.79733078210302
100
AcDbArc
 50
323.5908834165627
 51
328.66978372787
  0
ARC
  5
2DF
330
A6
100
AcDbEntity
  8
1
  6
PHANTOM
 62
     5
100
AcDbCircle
 10
261.201784752576
 20
745.201784752576
 30
0.0
 40
65.05558298765877
100
AcDbArc
 50
217.7638852637936
 51
232.2361147362046
  0
ARC
  5
2E0
330
A6
100
AcDbEntity
  8
1
  6
PHANTOM
 62
     5
100
AcDbCircle
 10
758.716236823348
 20
99.997554293682
 30
0.0
 40
799.9999999999995
100
AcDbArc
 50
127.544630548989
 51
132.0740663480477
  0
ARC
  5
2E1
330
A6
100
AcDbEntity
  8
1
  6
PHANTOM
 62
     5
100
AcDbCircle
 10
-384.002445706313
 20
1242.71623682336
 30
0.0
 40
800.0000000000018
100
AcDbArc
 50
317.9259336519515
 51
323.5908834165658
  0
ARC
  5
2E2
330
A6
100
AcDbEntity
  8
1
  6
Continuous
 62
     7
100
AcDbCircle
 10
479.741270625442
 20
-195.3829378121154
 30
0.0
 40
750.0000000000749
100
AcDbArc
 50
76.90067720599174
 51
82.6422126493897
  0
ARC
  5
2E3
330
A6
100
AcDbEntity
  8
1
  6
Continuous
 62
     7
100
AcDbCircle
 10
631.589933635341
 20
457.1827550818697
 30
0.0
 40
79.99999999999932
100
AcDbArc
 50
49.37353995539245
 51
76.90067720599103
  0
ARC
  5
2E4
330
A6
100
AcDbEntity
  8
1
  6
Continuous
 62
     7
100
AcDbCircle
 10
664.146173168287
 20
495.1312895393864
 30
0.0
 40
29.99999999999982
100
AcDbArc
 50
16.00000000000211
 51
49.3735399553929
  0
ARC
  5
2E5
330
A6
100
AcDbEntity
  8
1
  6
Continuous
 62
     7
100
AcDbCircle
 10
631.241219369191
 20
507.5513620851516
 30
0.0
 40
19.99999999999972
100
AcDbArc
 50
12.77038819835947
 51
70.6135575683103
  0
ARC
  5
2E6
330
A6
100
AcDbEntity
  8
1
  6
Continuous
 62
     7
100
AcDbCircle
 10
505.104804724823
 20
149.0968951013166
 30
0.0
 40
400.0000000000019
100
AcDbArc
 50
70.61355756831
 51
79.92030666364346
  0
ARC
  5
2E7
330
A6
100
AcDbEntity
  8
1
  6
PHANTOM
 62
     5
100
AcDbCircle
 10
208.461051554838
 20
-49.1093145494844
 30
0.0
 40
750.0000000000738
100
AcDbArc
 50
51.90067720599176
 51
57.64221264938973
  0
ARC
  5
2E8
330
A6
100
AcDbEntity
  8
1
  6
PHANTOM
 62
     5
100
AcDbCircle
 10
667.412573167667
 20
498.7762273896564
 30
0.0
 40
29.99999999999991
100
AcDbArc
 50
0.10892768463937
 51
24.37353995539153
  0
ARC
  5
2E9
330
A6
100
AcDbEntity
  8
1
  6
PHANTOM
 62
     5
100
AcDbCircle
 10
642.839506777449
 20
523.9388702306757
 30
0.0
 40
19.99999999999967
100
AcDbArc
 50
21.98907548421694
 51
45.61355756830912
  0
ARC
  5
2EA
330
A6
100
AcDbEntity
  8
1
  6
PHANTOM
 62
     5
100
AcDbCircle
 10
377.031688206477
 20
252.3763478043604
 30
0.0
 40
400.0000000000022
100
AcDbArc
 50
45.61355756830999
 51
54.92030666364347
  0
ARC
  5
2EB
330
A6
100
AcDbEntity
  8
1
  6
Continuous
 62
     7
100
AcDbCircle
 10
278.999999867575
 20
546.400410213898
 30
0.0
 40
1.999999999999147
100
AcDbArc
 50
102.2310071325795
 51
152.1715507417232
  0
ARC
  5
2EC
330
A6
100
AcDbEntity
  8
1
  6
Continuous
 62
     7
100
AcDbCircle
 10
454.101159231499
 20
453.968900492238
 30
0.0
 40
200.0000000000393
100
AcDbArc
 50
152.1715507417275
 51
158.8859810512158
  0
ARC
  5
2ED
330
A6
100
AcDbEntity
  8
1
  6
Continuous
 62
     7
100
AcDbCircle
 10
248.499999867559
 20
504.400410213898
 30
0.0
 40
59.99999999999997
100
AcDbArc
 50
0.0
 51
21.11401894868645
  0
ARC
  5
2EE
330
A6
100
AcDbEntity
  8
1
  6
Continuous
 62
     7
100
AcDbCircle
 10
292.999999867575
 20
546.400410213898
 30
0.0
 40
1.999999999998977
100
AcDbArc
 50
0.0
 51
27.82844925821497
  0
ARC
  5
2EF
330
A6
100
AcDbEntity
  8
1
  6
Continuous
 62
     7
100
AcDbCircle
 10
117.898840503593
 20
453.968900492486
 30
0.0
 40
199.9999999999751
100
AcDbArc
 50
21.11401894868608
 51
27.82844925820135
  0
ARC
  5
2F0
330
A6
100
AcDbEntity
  8
1
  6
Continuous
 62
     7
100
AcDbCircle
 10
323.499999867559
 20
504.400410213898
 30
0.0
 40
60.00000000000009
100
AcDbArc
 50
158.8859810512162
 51
180.0
  0
ARC
  5
2F1
330
A6
100
AcDbEntity
  8
1
  6
Continuous
 62
     7
100
AcDbCircle
 10
278.999999867575
 20
546.400410213898
 30
0.0
 40
1.999999999999852
100
AcDbArc
 50
152.1715507417232
 51
180.0
  0
ARC
  5
2F2
330
A6
100
AcDbEntity
  8
1
  6
Continuous
 62
     7
100
AcDbCircle
 10
292.999999867575
 20
546.400410213898
 30
0.0
 40
1.999999999999804
100
AcDbArc
 50
27.82844925821497
 51
77.76899286745538
  0
ARC
  5
2F3
330
A6
100
AcDbEntity
  8
1
  6
Continuous
 62
     7
100
AcDbCircle
 10
292.999999867575
 20
546.400410213898
 30
0.0
 40
1.999999999999147
100
AcDbArc
 50
282.2310071325795
 51
0.0
  0
ARC
  5
2F4
330
A6
100
AcDbEntity
  8
1
  6
Continuous
 62
     7
100
AcDbCircle
 10
285.999999867573
 20
578.692076880527
 30
0.0
 40
35.041666666629
100
AcDbArc
 50
269.9999999999966
 51
282.2310071325875
  0
ARC
  5
2F5
330
A6
100
AcDbEntity
  8
1
  6
Continuous
 62
     7
100
AcDbCircle
 10
278.999999867575
 20
546.400410213898
 30
0.0
 40
2.0
100
AcDbArc
 50
180.0
 51
257.7689928674538
  0
ARC
  5
2F6
330
A6
100
AcDbEntity
  8
1
  6
Continuous
 62
     7
100
AcDbCircle
 10
285.999999867577
 20
514.108743547226
 30
0.0
 40
35.04166666667095
100
AcDbArc
 50
90.0
 51
102.2310071325727
  0
ARC
  5
2F7
330
A6
100
AcDbEntity
  8
1
  6
Continuous
 62
     7
100
AcDbCircle
 10
285.999999867573
 20
578.692076880527
 30
0.0
 40
35.04166666662938
100
AcDbArc
 50
257.7689928674207
 51
269.9999999999966
  0
ARC
  5
2F8
330
A6
100
AcDbEntity
  8
1
  6
Continuous
 62
     7
100
AcDbCircle
 10
285.999999867577
 20
514.108743547226
 30
0.0
 40
35.04166666667136
100
AcDbArc
 50
77.7689928674357
 51
90.0
  0
ARC
  5
2F9
330
A6
100
AcDbEntity
  8
1
  6
Continuous
 62
     7
100
AcDbCircle
 10
1094.02412695762
 20
630.497585005637
 30
0.0
 40
800.0000000000023
100
AcDbArc
 50
171.409116583433
 51
172.5446305127541
  0
ARC
  5
2FA
330
A6
100
AcDbEntity
  8
1
  6
PHANTOM
 62
     5
100
AcDbCircle
 10
621.868856094284
 20
478.1420364644075
 30
0.0
 40
79.99999999999979
100
AcDbArc
 50
24.37353995539186
 51
51.9006772059911
  0
ARC
  5
2FB
330
A6
100
AcDbEntity
  8
1
  6
Continuous
 62
     7
100
AcDbCircle
 10
285.999998112787
 20
734.930026471335
 30
0.0
 40
65.05558298765986
100
AcDbArc
 50
262.7638869259006
 51
277.2361163983111
  0
ARC
  5
2FC
330
A6
100
AcDbEntity
  8
1
  6
Continuous
 62
     7
100
AcDbCircle
 10
-522.024126957618
 20
630.497585005637
 30
0.0
 40
800.000000000001
100
AcDbArc
 50
2.92609731478326
 51
7.45536948724502
  0
ARC
  5
2FD
330
A6
100
AcDbEntity
  8
1
  6
Continuous
 62
     7
100
AcDbCircle
 10
672.337289276418
 20
497.9004102138975
 30
0.0
 40
5.000000000000114
100
AcDbArc
 50
270.0
 51
294.9999999999957
  0
ARC
  5
2FE
330
A6
100
AcDbEntity
  8
1
  6
PHANTOM
 62
     5
100
AcDbCircle
 10
361.436787120283
 20
705.973577290634
 30
0.0
 40
0.9999999999999257
100
AcDbArc
 50
322.2361147362265
 51
42.07406634803337
  0
ARC
  5
2FF
330
A6
100
AcDbEntity
  8
1
  6
PHANTOM
 62
     5
100
AcDbCircle
 10
361.436787120283
 20
705.973577290634
 30
0.0
 40
0.9999999999998295
100
AcDbArc
 50
0.0
 51
42.07406634803337
  0
ARC
  5
300
330
A6
100
AcDbEntity
  8
1
  6
PHANTOM
 62
     5
100
AcDbCircle
 10
350.026418601691
 20
694.563208772041
 30
0.0
 40
0.9999999999997913
100
AcDbArc
 50
227.9259336519644
 51
307.763885263776
  0
ARC
  5
301
330
A6
100
AcDbEntity
  8
1
  6
Continuous
 62
     7
100
AcDbCircle
 10
306.489609548799
 20
769.347464242662
 30
0.0
 40
2.000000000000194
100
AcDbArc
 50
358.1759149456483
 51
7.4399440550086
  0
ARC
  5
302
330
A6
100
AcDbEntity
  8
1
  6
Continuous
 62
     7
100
AcDbCircle
 10
265.510385555863
 20
769.347464242662
 30
0.0
 40
2.000000000000235
100
AcDbArc
 50
172.5600559449916
 51
181.8240850543516
  0
ARC
  5
303
330
A6
100
AcDbEntity
  8
1
  6
PHANTOM
 62
     5
100
AcDbCircle
 10
221.973576879606
 20
694.563208361015
 30
0.0
 40
0.9999999999999257
100
AcDbArc
 50
232.2361147362265
 51
312.0740663480379
  0
ARC
  5
304
330
A6
100
AcDbEntity
  8
1
  6
PHANTOM
 62
     5
100
AcDbCircle
 10
210.563208361014
 20
705.973576879608
 30
0.0
 40
0.9999999999999147
100
AcDbArc
 50
180.0
 51
217.7638852637735
  0
ARC
  5
305
330
A6
100
AcDbEntity
  8
1
  6
Continuous
 62
     7
100
AcDbCircle
 10
575.374447128234
 20
544.3998515239805
 30
0.0
 40
1.500000000000489
100
AcDbArc
 50
174.99999999998
 51
259.920306663645
  0
ARC
  5
306
330
A6
100
AcDbEntity
  8
1
  6
Continuous
 62
     7
100
AcDbCircle
 10
692.73703968135
 20
502.4477694168334
 30
0.0
 40
0.4999999999994229
100
AcDbArc
 50
294.9999999999946
 51
16.00000000008174
  0
ARC
  5
307
330
A6
100
AcDbEntity
  8
1
  6
Continuous
 62
     7
100
AcDbCircle
 10
575.59788438268
 20
546.9537510286744
 30
0.0
 40
1.499999999999468
100
AcDbArc
 50
82.64221264939445
 51
174.9999999999757
  0
ARC
  5
308
330
A6
100
AcDbEntity
  8
1
  6
Continuous
 62
     7
100
AcDbCircle
 10
651.9913478778
 20
493.4004102138975
 30
0.0
 40
0.4999999999997676
100
AcDbArc
 50
180.9999999999241
 51
270.0
  0
ARC
  5
309
330
A6
100
AcDbEntity
  8
1
  6
PHANTOM
 62
     5
100
AcDbCircle
 10
607.779860613275
 20
580.9452613231596
 30
0.0
 40
1.499999999999377
100
AcDbArc
 50
149.9999999999913
 51
234.920306663628
  0
ARC
  5
30A
330
A6
100
AcDbEntity
  8
1
  6
PHANTOM
 62
     5
100
AcDbCircle
 10
696.416776134448
 20
493.3241877688725
 30
0.0
 40
0.5000000000001137
100
AcDbArc
 50
270.0
 51
351.0000000000342
  0
ARC
  5
30B
330
A6
100
AcDbEntity
  8
1
  6
PHANTOM
 62
     5
100
AcDbCircle
 10
609.061688106228
 20
583.1654516674915
 30
0.0
 40
1.5
100
AcDbArc
 50
90.0
 51
150.0000000000087
  0
ARC
  5
30C
330
A6
100
AcDbEntity
  8
1
  6
PHANTOM
 62
     5
100
AcDbCircle
 10
609.061688106228
 20
583.1654516674915
 30
0.0
 40
1.500000000000085
100
AcDbArc
 50
57.64221264940976
 51
90.0
  0
ARC
  5
30D
330
A6
100
AcDbEntity
  8
1
  6
Continuous
 62
     7
100
AcDbCircle
 10
307.999999867559
 20
493.900410213898
 30
0.0
 40
0.5
100
AcDbArc
 50
270.0
 51
0.0
  0
ARC
  5
30E
330
A6
100
AcDbEntity
  8
1
  6
Continuous
 62
     7
100
AcDbCircle
 10
263.999999867559
 20
493.900410213898
 30
0.0
 40
0.5
100
AcDbArc
 50
180.0
 51
270.0
  0
ARC
  5
30F
330
A6
100
AcDbEntity
  8
1
  6
Continuous
 62
     7
100
AcDbCircle
 10
277.931651000856
 20
671.3846136804
 30
0.0
 40
0.9999999999996088
100
AcDbArc
 50
182.7948630128755
 51
262.763886925872
  0
ARC
  5
310
330
A6
100
AcDbEntity
  8
1
  6
Continuous
 62
     7
100
AcDbCircle
 10
294.068348911524
 20
671.384614148513
 30
0.0
 40
1.000000000000269
100
AcDbArc
 50
277.2361163983169
 51
356.9458129750168
  0
ENDBLK
  5
A8
330
A6
100
AcDbEntity
  8
0
100
AcDbBlockEnd
  0
BLOCK
  5
AA
330
A9
100
AcDbEntity
  8
0
100
AcDbBlockBegin
  2
K1711-0-M1
 70
     0
 10
705.128570288528
 20
498.650410213898
 30
0.0
  3
K1711-0-M1
  1

  0
LINE
  5
311
330
A9
100
AcDbEntity
  8
1
  6
Continuous
 62
     7
100
AcDbLine
 10
708.499999246241
 20
443.8419102031984
 30
0.0
 11
708.499999246241
 21
442.6799102245979
 31
0.0
  0
LINE
  5
312
330
A9
100
AcDbEntity
  8
1
  6
Continuous
 62
     7
100
AcDbLine
 10
708.499999246241
 20
443.8419102245979
 30
0.0
 11
708.499999246241
 21
443.8419102031984
 31
0.0
  0
LINE
  5
313
330
A9
100
AcDbEntity
  8
1
  6
Continuous
 62
     2
100
AcDbLine
 10
708.8805603823366
 20
443.8419102245979
 30
0.0
 11
708.499999246241
 21
443.8419102245979
 31
0.0
  0
LINE
  5
314
330
A9
100
AcDbEntity
  8
1
  6
Continuous
 62
     7
100
AcDbLine
 10
708.499999246241
 20
467.9589102245978
 30
0.0
 11
708.499999246241
 21
443.8419102245979
 31
0.0
  0
LINE
  5
315
330
A9
100
AcDbEntity
  8
1
  6
Continuous
 62
     2
100
AcDbLine
 10
708.8805603823366
 20
467.9589102245978
 30
0.0
 11
708.499999246241
 21
467.9589102245978
 31
0.0
  0
LINE
  5
316
330
A9
100
AcDbEntity
  8
11
  6
Continuous
 62
     7
100
AcDbLine
 10
708.499999246241
 20
469.1209102138979
 30
0.0
 11
700.999999246241
 21
469.120910213898
 31
0.0
  0
LINE
  5
317
330
A9
100
AcDbEntity
  8
1
  6
Continuous
 62
     2
100
AcDbLine
 10
708.499999246241
 20
469.1209102138979
 30
0.0
 11
708.499999246241
 21
467.9589102245978
 31
0.0
  0
LINE
  5
318
330
A9
100
AcDbEntity
  8
1
  6
Continuous
 62
     7
100
AcDbLine
 10
213.9414999999996
 20
804.5000000000009
 30
0.0
 11
238.0584999999996
 21
804.5000000000009
 31
0.0
  0
LINE
  5
319
330
A9
100
AcDbEntity
  8
1
  6
Continuous
 62
     2
100
AcDbLine
 10
213.9414999999996
 20
804.8805611360966
 30
0.0
 11
213.9414999999996
 21
804.5000000000009
 31
0.0
  0
LINE
  5
31A
330
A9
100
AcDbEntity
  8
1
  6
Continuous
 62
     7
100
AcDbLine
 10
238.0584999999996
 20
804.5000000000009
 30
0.0
 11
239.2204999999997
 21
804.5000000000009
 31
0.0
  0
LINE
  5
31B
330
A9
100
AcDbEntity
  8
1
  6
Continuous
 62
     2
100
AcDbLine
 10
238.0584999999996
 20
804.8805611360962
 30
0.0
 11
238.0584999999996
 21
804.5000000000009
 31
0.0
  0
LINE
  5
31C
330
A9
100
AcDbEntity
  8
11
  6
Continuous
 62
     7
100
AcDbLine
 10
212.7795
 20
804.5000000000009
 30
0.0
 11
212.7795
 21
802.987356961606
 31
0.0
  0
LINE
  5
31D
330
A9
100
AcDbEntity
  8
11
  6
Continuous
 62
     7
100
AcDbLine
 10
239.2204999999997
 20
804.5000000000009
 30
0.0
 11
239.2205
 21
804.880561136096
 31
0.0
  0
LINE
  5
31E
330
A9
100
AcDbEntity
  8
1
  6
Continuous
 62
     7
100
AcDbLine
 10
212.7795
 20
804.5000000000009
 30
0.0
 11
213.9414999999996
 21
804.5000000000009
 31
0.0
  0
LINE
  5
31F
330
A9
100
AcDbEntity
  8
1
  6
Continuous
 62
     7
100
AcDbLine
 10
698.186999246241
 20
437.900410213898
 30
0.0
 11
673.812999246241
 21
437.900410213898
 31
0.0
  0
LINE
  5
320
330
A9
100
AcDbEntity
  8
1
  6
Continuous
 62
     7
100
AcDbLine
 10
671.499999246241
 20
440.900410213898
 30
0.0
 11
693.499999246241
 21
440.900410213898
 31
0.0
  0
LINE
  5
321
330
A9
100
AcDbEntity
  8
1
  6
Continuous
 62
     7
100
AcDbLine
 10
696.499999246241
 20
490.900410213898
 30
0.0
 11
651.499999246241
 21
490.900410213898
 31
0.0
  0
LINE
  5
322
330
A9
100
AcDbEntity
  8
11
  6
Continuous
 62
     7
100
AcDbLine
 10
698.999999246241
 20
437.400410213898
 30
0.0
 11
698.999999246241
 21
437.900410213898
 31
0.0
  0
LINE
  5
323
330
A9
100
AcDbEntity
  8
1
  6
Continuous
 62
     2
100
AcDbLine
 10
673.812999246241
 20
437.400410213898
 30
0.0
 11
673.812999246241
 21
437.900410213898
 31
0.0
  0
LINE
  5
324
330
A9
100
AcDbEntity
  8
11
  6
Continuous
 62
     7
100
AcDbLine
 10
359.2205
 20
797.500000000001
 30
0.0
 11
359.2205
 21
802.987356961606
 31
0.0
  0
LINE
  5
325
330
A9
100
AcDbEntity
  8
11
  6
Continuous
 62
     7
100
AcDbLine
 10
332.7795
 20
804.880561136096
 30
0.0
 11
332.7795
 21
802.987356961606
 31
0.0
  0
LINE
  5
326
330
A9
100
AcDbEntity
  8
1
  6
Continuous
 62
     7
100
AcDbLine
 10
306.000002447669
 20
789.500000000001
 30
0.0
 11
356.0
 21
789.500000000001
 31
0.0
  0
LINE
  5
327
330
A9
100
AcDbEntity
  8
1
  6
Continuous
 62
     7
100
AcDbLine
 10
317.279829267468
 20
766.087159216322
 30
0.0
 11
328.030270966545
 21
770.000000000001
 31
0.0
  0
LINE
  5
328
330
A9
100
AcDbEntity
  8
1
  6
PHANTOM
 62
     4
100
AcDbLine
 10
328.130270966545
 20
770.000000000001
 30
0.0
 11
328.030270966545
 21
770.000000000001
 31
0.0
  0
LINE
  5
329
330
A9
100
AcDbEntity
  8
1
  6
Continuous
 62
     7
100
AcDbLine
 10
355.517866749694
 20
780.004666676608
 30
0.0
 11
361.0
 21
789.500000000001
 31
0.0
  0
LINE
  5
32A
330
A9
100
AcDbEntity
  8
11
  6
Continuous
 62
     7
100
AcDbLine
 10
359.2205
 20
802.987356961606
 30
0.0
 11
359.2205
 21
804.880561136096
 31
0.0
  0
LINE
  5
32B
330
A9
100
AcDbEntity
  8
11
  6
Continuous
 62
     7
100
AcDbLine
 10
332.7795
 20
802.987356961606
 30
0.0
 11
332.7795
 21
797.500000000001
 31
0.0
  0
LINE
  5
32C
330
A9
100
AcDbEntity
  8
1
  6
Continuous
 62
     2
100
AcDbLine
 10
332.7795
 20
802.987356961606
 30
0.0
 11
333.872541939773
 21
804.880561136096
 31
0.0
  0
LINE
  5
32D
330
A9
100
AcDbEntity
  8
1
  6
Continuous
 62
     2
100
AcDbLine
 10
359.2205
 20
802.987356961606
 30
0.0
 11
358.127458060227
 21
804.880561136096
 31
0.0
  0
LINE
  5
32E
330
A9
100
AcDbEntity
  8
1
  6
Continuous
 62
     7
100
AcDbLine
 10
361.0
 20
789.500000000001
 30
0.0
 11
361.0
 21
797.000000000001
 31
0.0
  0
LINE
  5
32F
330
A9
100
AcDbEntity
  8
1
  6
Continuous
 62
     7
100
AcDbLine
 10
328.030270966545
 20
770.000000000001
 30
0.0
 11
355.517866749694
 21
780.004666676608
 31
0.0
  0
LINE
  5
330
330
A9
100
AcDbEntity
  8
1
  6
Continuous
 62
     7
100
AcDbLine
 10
361.0
 20
797.000000000001
 30
0.0
 11
359.7205
 21
797.000000000001
 31
0.0
  0
LINE
  5
331
330
A9
100
AcDbEntity
  8
1
  6
Continuous
 62
     7
100
AcDbLine
 10
359.7205
 20
797.000000000001
 30
0.0
 11
332.2795
 21
797.000000000001
 31
0.0
  0
LINE
  5
332
330
A9
100
AcDbEntity
  8
1
  6
Continuous
 62
     7
100
AcDbLine
 10
332.2795
 20
797.000000000001
 30
0.0
 11
286.0
 21
797.000000000001
 31
0.0
  0
LINE
  5
333
330
A9
100
AcDbEntity
  8
1
  6
Continuous
 62
     7
100
AcDbLine
 10
286.0
 20
797.000000000001
 30
0.0
 11
239.7205
 21
797.000000000001
 31
0.0
  0
LINE
  5
334
330
A9
100
AcDbEntity
  8
11
  6
Continuous
 62
     7
100
AcDbLine
 10
708.880560382336
 20
469.120910213898
 30
0.0
 11
708.499999246241
 21
469.1209102138979
 31
0.0
  0
LINE
  5
335
330
A9
100
AcDbEntity
  8
1
  6
Continuous
 62
     7
100
AcDbLine
 10
304.994141914612
 20
471.183517170876
 30
0.0
 11
306.499999186709
 21
477.504806576571
 31
0.0
  0
LINE
  5
336
330
A9
100
AcDbEntity
  8
1
  6
Continuous
 62
     7
100
AcDbLine
 10
265.499999186709
 20
477.504806576571
 30
0.0
 11
267.005856458806
 21
471.183517170876
 31
0.0
  0
LINE
  5
337
330
A9
100
AcDbEntity
  8
1
  6
Continuous
 62
     7
100
AcDbLine
 10
306.303042144097
 20
466.183517170876
 30
0.0
 11
345.234757664877
 21
466.183517170875
 31
0.0
  0
LINE
  5
338
330
A9
100
AcDbEntity
  8
1
  6
Continuous
 62
     7
100
AcDbLine
 10
239.7205
 20
797.000000000001
 30
0.0
 11
212.2795
 21
797.000000000001
 31
0.0
  0
LINE
  5
339
330
A9
100
AcDbEntity
  8
1
  6
Continuous
 62
     7
100
AcDbLine
 10
212.2795
 20
797.000000000001
 30
0.0
 11
211.0
 21
797.000000000001
 31
0.0
  0
LINE
  5
33A
330
A9
100
AcDbEntity
  8
1
  6
Continuous
 62
     7
100
AcDbLine
 10
216.482133250306
 20
780.004666676608
 30
0.0
 11
243.969729033456
 21
770.000000000001
 31
0.0
  0
LINE
  5
33B
330
A9
100
AcDbEntity
  8
1
  6
Continuous
 62
     7
100
AcDbLine
 10
307.999999186709
 20
491.40040889935
 30
0.0
 11
308.499999186709
 21
490.90040889935
 31
0.0
  0
LINE
  5
33C
330
A9
100
AcDbEntity
  8
1
  6
Continuous
 62
     7
100
AcDbLine
 10
263.499999186709
 20
490.90040889935
 30
0.0
 11
263.999999186709
 21
491.40040889935
 31
0.0
  0
LINE
  5
33D
330
A9
100
AcDbEntity
  8
1
  6
Continuous
 62
     7
100
AcDbLine
 10
298.999999186709
 20
437.900408899349
 30
0.0
 11
298.999999186709
 21
439.400408899349
 31
0.0
  0
LINE
  5
33E
330
A9
100
AcDbEntity
  8
1
  6
Continuous
 62
     7
100
AcDbLine
 10
345.999999186709
 20
470.90040889935
 30
0.0
 11
318.499999186709
 21
470.90040889935
 31
0.0
  0
LINE
  5
33F
330
A9
100
AcDbEntity
  8
1
  6
Continuous
 62
     7
100
AcDbLine
 10
263.999999186709
 20
491.40040889935
 30
0.0
 11
307.999999186709
 21
491.40040889935
 31
0.0
  0
LINE
  5
340
330
A9
100
AcDbEntity
  8
1
  6
Continuous
 62
     7
100
AcDbLine
 10
225.999999186709
 20
440.90040889935
 30
0.0
 11
345.999999186709
 21
440.90040889935
 31
0.0
  0
LINE
  5
341
330
A9
100
AcDbEntity
  8
1
  6
Continuous
 62
     7
100
AcDbLine
 10
298.999999186709
 20
437.400408899349
 30
0.0
 11
298.999999186709
 21
437.900408899349
 31
0.0
  0
LINE
  5
342
330
A9
100
AcDbEntity
  8
1
  6
Continuous
 62
     7
100
AcDbLine
 10
272.999999186709
 20
439.400408899349
 30
0.0
 11
272.999999186709
 21
437.400408899349
 31
0.0
  0
LINE
  5
343
330
A9
100
AcDbEntity
  8
1
  6
Continuous
 62
     7
100
AcDbLine
 10
272.999999186709
 20
437.900408899349
 30
0.0
 11
298.999999186709
 21
437.900408899349
 31
0.0
  0
LINE
  5
344
330
A9
100
AcDbEntity
  8
1
  6
Continuous
 62
     2
100
AcDbLine
 10
298.999999186709
 20
439.308566205902
 30
0.0
 11
298.186999186709
 21
437.900408899349
 31
0.0
  0
LINE
  5
345
330
A9
100
AcDbEntity
  8
1
  6
Continuous
 62
     2
100
AcDbLine
 10
298.186999186709
 20
437.900408899349
 30
0.0
 11
298.186999186709
 21
437.400408899349
 31
0.0
  0
LINE
  5
346
330
A9
100
AcDbEntity
  8
1
  6
Continuous
 62
     2
100
AcDbLine
 10
273.812999186709
 20
437.400408899349
 30
0.0
 11
273.812999186709
 21
437.900408899349
 31
0.0
  0
LINE
  5
347
330
A9
100
AcDbEntity
  8
1
  6
Continuous
 62
     2
100
AcDbLine
 10
273.812999186709
 20
437.900408899349
 30
0.0
 11
272.999999186709
 21
439.308566205902
 31
0.0
  0
LINE
  5
348
330
A9
100
AcDbEntity
  8
1
  6
Continuous
 62
     7
100
AcDbLine
 10
211.0
 20
797.000000000001
 30
0.0
 11
211.0
 21
789.500000000001
 31
0.0
  0
LINE
  5
349
330
A9
100
AcDbEntity
  8
1
  6
Continuous
 62
     2
100
AcDbLine
 10
213.9414999999996
 20
804.5000000000009
 30
0.0
 11
212.7795
 21
802.4873569616055
 31
0.0
  0
LINE
  5
34A
330
A9
100
AcDbEntity
  8
1
  6
Continuous
 62
     2
100
AcDbLine
 10
238.0584999999996
 20
804.5000000000009
 30
0.0
 11
239.2205
 21
802.4873569616055
 31
0.0
  0
LINE
  5
34B
330
A9
100
AcDbEntity
  8
11
  6
Continuous
 62
     7
100
AcDbLine
 10
239.2205
 20
797.500000000001
 30
0.0
 11
239.2205
 21
802.987356961606
 31
0.0
  0
LINE
  5
34C
330
A9
100
AcDbEntity
  8
1
  6
Continuous
 62
     7
100
AcDbLine
 10
308.499999186709
 20
490.90040889935
 30
0.0
 11
308.499999186709
 21
480.90040889935
 31
0.0
  0
LINE
  5
34D
330
A9
100
AcDbEntity
  8
1
  6
Continuous
 62
     7
100
AcDbLine
 10
263.499999186709
 20
490.90040889935
 30
0.0
 11
263.499999186709
 21
480.90040889935
 31
0.0
  0
LINE
  5
34E
330
A9
100
AcDbEntity
  8
1
  6
Continuous
 62
     7
100
AcDbLine
 10
263.499999186709
 20
490.90040889935
 30
0.0
 11
308.499999186709
 21
490.90040889935
 31
0.0
  0
LINE
  5
34F
330
A9
100
AcDbEntity
  8
11
  6
Continuous
 62
     7
100
AcDbLine
 10
212.7795
 20
804.880561136096
 30
0.0
 11
212.7795
 21
804.5000000000009
 31
0.0
  0
LINE
  5
350
330
A9
100
AcDbEntity
  8
1
  6
Continuous
 62
     7
100
AcDbLine
 10
211.0
 20
789.500000000001
 30
0.0
 11
216.482133250306
 21
780.004666676608
 31
0.0
  0
LINE
  5
351
330
A9
100
AcDbEntity
  8
1
  6
PHANTOM
 62
     4
100
AcDbLine
 10
243.969729033456
 20
770.000000000001
 30
0.0
 11
243.869729033456
 21
770.000000000001
 31
0.0
  0
LINE
  5
352
330
A9
100
AcDbEntity
  8
1
  6
Continuous
 62
     7
100
AcDbLine
 10
243.969729033456
 20
770.000000000001
 30
0.0
 11
254.720170732533
 21
766.087159216322
 31
0.0
  0
LINE
  5
353
330
A9
100
AcDbEntity
  8
1
  6
Continuous
 62
     7
100
AcDbLine
 10
253.499999186709
 20
470.90040889935
 30
0.0
 11
225.999999186709
 21
470.90040889935
 31
0.0
  0
LINE
  5
354
330
A9
100
AcDbEntity
  8
1
  6
Continuous
 62
     7
100
AcDbLine
 10
345.234757664877
 20
445.617300627823
 30
0.0
 11
285.999999186709
 21
445.617300627823
 31
0.0
  0
LINE
  5
355
330
A9
100
AcDbEntity
  8
1
  6
Continuous
 62
     7
100
AcDbLine
 10
226.765240708542
 20
466.183517170875
 30
0.0
 11
265.696956229322
 21
466.183517170876
 31
0.0
  0
LINE
  5
356
330
A9
100
AcDbEntity
  8
1
  6
Continuous
 62
     7
100
AcDbLine
 10
285.999999186709
 20
445.617300627823
 30
0.0
 11
226.765240708542
 21
445.617300627823
 31
0.0
  0
LINE
  5
357
330
A9
100
AcDbEntity
  8
11
  6
Continuous
 62
     7
100
AcDbLine
 10
672.999999246241
 20
439.308567520451
 30
0.0
 11
672.999999246241
 21
437.400410213898
 31
0.0
  0
LINE
  5
358
330
A9
100
AcDbEntity
  8
1
  6
Continuous
 62
     7
100
AcDbLine
 10
658.999999246241
 20
440.900410213898
 30
0.0
 11
671.499999246241
 21
440.900410213898
 31
0.0
  0
LINE
  5
359
330
A9
100
AcDbEntity
  8
1
  6
Continuous
 62
     7
100
AcDbLine
 10
695.999999246241
 20
491.400410213898
 30
0.0
 11
696.499999246241
 21
490.900410213898
 31
0.0
  0
LINE
  5
35A
330
A9
100
AcDbEntity
  8
1
  6
Continuous
 62
     7
100
AcDbLine
 10
651.999999246241
 20
491.400410213898
 30
0.0
 11
651.499999246241
 21
490.900410213898
 31
0.0
  0
LINE
  5
35B
330
A9
100
AcDbEntity
  8
1
  6
Continuous
 62
     7
100
AcDbLine
 10
696.499999246241
 20
490.900410213898
 30
0.0
 11
696.499999246241
 21
479.25205675814
 31
0.0
  0
LINE
  5
35C
330
A9
100
AcDbEntity
  8
11
  6
Continuous
 62
     7
100
AcDbLine
 10
698.999999246241
 20
439.308567520451
 30
0.0
 11
698.999999246241
 21
439.400410213898
 31
0.0
  0
LINE
  5
35D
330
A9
100
AcDbEntity
  8
1
  6
Continuous
 62
     7
100
AcDbLine
 10
673.812999246241
 20
437.900410213898
 30
0.0
 11
672.999999246241
 21
437.900410213898
 31
0.0
  0
LINE
  5
35E
330
A9
100
AcDbEntity
  8
11
  6
Continuous
 62
     7
100
AcDbLine
 10
698.999999246241
 20
437.900410213898
 30
0.0
 11
698.999999246241
 21
439.308567520451
 31
0.0
  0
LINE
  5
35F
330
A9
100
AcDbEntity
  8
1
  6
Continuous
 62
     7
100
AcDbLine
 10
698.186999246241
 20
437.900410213898
 30
0.0
 11
698.999999246241
 21
437.900410213898
 31
0.0
  0
LINE
  5
360
330
A9
100
AcDbEntity
  8
1
  6
Continuous
 62
     2
100
AcDbLine
 10
673.812999246241
 20
437.900410213898
 30
0.0
 11
672.999999246241
 21
439.308567520451
 31
0.0
  0
LINE
  5
361
330
A9
100
AcDbEntity
  8
1
  6
Continuous
 62
     2
100
AcDbLine
 10
698.186999246241
 20
437.900410213898
 30
0.0
 11
698.186999246241
 21
437.400410213898
 31
0.0
  0
LINE
  5
362
330
A9
100
AcDbEntity
  8
1
  6
Continuous
 62
     2
100
AcDbLine
 10
698.999999246241
 20
439.308567520451
 30
0.0
 11
698.186999246241
 21
437.900410213898
 31
0.0
  0
LINE
  5
363
330
A9
100
AcDbEntity
  8
11
  6
Continuous
 62
     7
100
AcDbLine
 10
700.999999246241
 20
440.900410213898
 30
0.0
 11
700.999999246241
 21
443.650410213898
 31
0.0
  0
LINE
  5
364
330
A9
100
AcDbEntity
  8
11
  6
Continuous
 62
     7
100
AcDbLine
 10
672.999999246241
 20
439.400410213898
 30
0.0
 11
672.999999246241
 21
439.308567520451
 31
0.0
  0
LINE
  5
365
330
A9
100
AcDbEntity
  8
1
  6
Continuous
 62
     7
100
AcDbLine
 10
695.999999246241
 20
491.400410213898
 30
0.0
 11
651.999999246241
 21
491.400410213898
 31
0.0
  0
LINE
  5
366
330
A9
100
AcDbEntity
  8
1
  6
Continuous
 62
     7
100
AcDbLine
 10
700.499999246241
 20
440.900410213898
 30
0.0
 11
700.999999246241
 21
440.900410213898
 31
0.0
  0
LINE
  5
367
330
A9
100
AcDbEntity
  8
11
  6
Continuous
 62
     7
100
AcDbLine
 10
700.999999246241
 20
442.679910213898
 30
0.0
 11
708.880560382336
 21
442.679910213898
 31
0.0
  0
LINE
  5
368
330
A9
100
AcDbEntity
  8
1
  6
Continuous
 62
     2
100
AcDbLine
 10
706.4873562263788
 20
442.679910213898
 30
0.0
 11
708.499999246241
 21
443.8419102031984
 31
0.0
  0
LINE
  5
369
330
A9
100
AcDbEntity
  8
1
  6
Continuous
 62
     2
100
AcDbLine
 10
706.4873562263788
 20
469.120910213898
 30
0.0
 11
708.499999246241
 21
467.9589102245978
 31
0.0
  0
LINE
  5
36A
330
A9
100
AcDbEntity
  8
1
  6
Continuous
 62
     7
100
AcDbLine
 10
651.499999246241
 20
445.617301942371
 30
0.0
 11
658.999999246241
 21
440.900410213898
 31
0.0
  0
LINE
  5
36B
330
A9
100
AcDbEntity
  8
1
  6
Continuous
 62
     7
100
AcDbLine
 10
216.0
 20
789.500000000001
 30
0.0
 11
265.999997552331
 21
789.500000000001
 31
0.0
  0
LINE
  5
36C
330
A9
100
AcDbEntity
  8
11
  6
Continuous
 62
     7
100
AcDbLine
 10
700.999999246241
 20
443.650410213898
 30
0.0
 11
700.999999246241
 21
470.900410213897
 31
0.0
  0
LINE
  5
36D
330
A9
100
AcDbEntity
  8
11
  6
Continuous
 62
     7
100
AcDbLine
 10
239.2205
 20
802.987356961606
 30
0.0
 11
239.2204999999997
 21
804.5000000000009
 31
0.0
  0
LINE
  5
36E
330
A9
100
AcDbEntity
  8
11
  6
Continuous
 62
     7
100
AcDbLine
 10
212.7795
 20
802.987356961606
 30
0.0
 11
212.7795
 21
797.500000000001
 31
0.0
  0
LINE
  5
36F
330
A9
100
AcDbEntity
  8
1
  6
Continuous
 62
     7
100
AcDbLine
 10
693.499999246241
 20
470.900410213898
 30
0.0
 11
680.540446009449
 21
466.183518586318
 31
0.0
  0
LINE
  5
370
330
A9
100
AcDbEntity
  8
1
  6
Continuous
 62
     7
100
AcDbLine
 10
680.540445732247
 20
445.617301942372
 30
0.0
 11
693.499999246241
 21
440.900410213898
 31
0.0
  0
LINE
  5
371
330
A9
100
AcDbEntity
  8
1
  6
Continuous
 62
     7
100
AcDbLine
 10
700.999999246241
 20
470.900410213897
 30
0.0
 11
693.499999246241
 21
470.900410213898
 31
0.0
  0
LINE
  5
372
330
A9
100
AcDbEntity
  8
1
  6
Continuous
 62
     7
100
AcDbLine
 10
693.499999246241
 20
440.900410213898
 30
0.0
 11
700.499999246241
 21
440.900410213898
 31
0.0
  0
LINE
  5
373
330
A9
100
AcDbEntity
  8
1
  6
Continuous
 62
     7
100
AcDbLine
 10
651.499999246241
 20
445.617301942371
 30
0.0
 11
680.540445732247
 21
445.617301942372
 31
0.0
  0
LINE
  5
374
330
A9
100
AcDbEntity
  8
1
  6
Continuous
 62
     7
100
AcDbLine
 10
680.540445732248
 20
466.183518485425
 30
0.0
 11
666.411777866799
 21
466.183518485425
 31
0.0
  0
LINE
  5
375
330
A9
100
AcDbEntity
  8
1
  6
Continuous
 62
     7
100
AcDbLine
 10
651.499999246241
 20
490.900410213898
 30
0.0
 11
651.499999246241
 21
445.617301942371
 31
0.0
  0
LINE
  5
376
330
A9
100
AcDbEntity
  8
1
  6
Continuous
 62
     7
100
AcDbLine
 10
680.540446009449
 20
466.183518586318
 30
0.0
 11
680.540445732248
 21
466.183518485425
 31
0.0
  0
LINE
  5
377
330
A9
100
AcDbEntity
  8
1
  6
Continuous
 62
     7
100
AcDbLine
 10
693.499999246241
 20
468.900410213898
 30
0.0
 11
693.499999246241
 21
442.900410213898
 31
0.0
  0
LINE
  5
378
330
A9
100
AcDbEntity
  8
1
  6
Continuous
 62
     7
100
AcDbLine
 10
693.499999246241
 20
477.949034744186
 30
0.0
 11
673.318798549195
 21
469.183518485425
 31
0.0
  0
ARC
  5
379
330
A9
100
AcDbEntity
  8
1
  6
Continuous
 62
     7
100
AcDbCircle
 10
327.540433567238
 20
737.896380592745
 30
0.0
 40
29.99999999999972
100
AcDbArc
 50
110.0
 51
140.5887140809863
  0
ARC
  5
37A
330
A9
100
AcDbEntity
  8
1
  6
Continuous
 62
     7
100
AcDbCircle
 10
286.0
 20
770.000000000001
 30
0.0
 40
22.00000000000025
100
AcDbArc
 50
7.60732237810234
 51
90.0
  0
ARC
  5
37B
330
A9
100
AcDbEntity
  8
1
  6
Continuous
 62
     7
100
AcDbCircle
 10
286.0
 20
770.000000000001
 30
0.0
 40
22.50000000000023
100
AcDbArc
 50
358.1759097129188
 51
90.0
  0
ARC
  5
37C
330
A9
100
AcDbEntity
  8
1
  6
Continuous
 62
     7
100
AcDbCircle
 10
286.0
 20
770.000000000001
 30
0.0
 40
22.5
100
AcDbArc
 50
90.0
 51
181.8240902870811
  0
ARC
  5
37D
330
A9
100
AcDbEntity
  8
1
  6
Continuous
 62
     7
100
AcDbCircle
 10
286.0
 20
770.000000000001
 30
0.0
 40
22.0
100
AcDbArc
 50
90.0
 51
172.3926776218977
  0
ARC
  5
37E
330
A9
100
AcDbEntity
  8
1
  6
Continuous
 62
     7
100
AcDbCircle
 10
244.459566432763
 20
737.896380592745
 30
0.0
 40
29.99999999999975
100
AcDbArc
 50
39.41128591901374
 51
69.99999999999996
  0
ARC
  5
37F
330
A9
100
AcDbEntity
  8
1
  6
Continuous
 62
     7
100
AcDbCircle
 10
345.234757664877
 20
455.900408899349
 30
0.0
 40
10.28310827152598
100
AcDbArc
 50
270.0
 51
90.0
  0
ARC
  5
380
330
A9
100
AcDbEntity
  8
1
  6
Continuous
 62
     7
100
AcDbCircle
 10
226.765240708542
 20
455.900408899349
 30
0.0
 40
10.28310827152603
100
AcDbArc
 50
90.0
 51
270.0
  0
ARC
  5
381
330
A9
100
AcDbEntity
  8
1
  6
Continuous
 62
     7
100
AcDbCircle
 10
706.499999246238
 20
479.25205675814
 30
0.0
 40
9.99999999999693
100
AcDbArc
 50
180.0
 51
236.6329870307766
  0
ARC
  5
382
330
A9
100
AcDbEntity
  8
1
  6
Continuous
 62
     7
100
AcDbCircle
 10
667.010488941775
 20
455.900410446708
 30
0.0
 40
16.99417698107172
100
AcDbArc
 50
322.764249764639
 51
37.23574869084088
  0
ARC
  5
383
330
A9
100
AcDbEntity
  8
1
  6
Continuous
 62
     7
100
AcDbCircle
 10
332.2795
 20
797.500000000001
 30
0.0
 40
0.5
100
AcDbArc
 50
270.0
 51
0.0
  0
ARC
  5
384
330
A9
100
AcDbEntity
  8
1
  6
Continuous
 62
     7
100
AcDbCircle
 10
359.7205
 20
797.500000000001
 30
0.0
 40
0.5
100
AcDbArc
 50
180.0
 51
270.0
  0
ARC
  5
385
330
A9
100
AcDbEntity
  8
1
  6
Continuous
 62
     7
100
AcDbCircle
 10
212.2795
 20
797.500000000001
 30
0.0
 40
0.5
100
AcDbArc
 50
270.0
 51
0.0
  0
ARC
  5
386
330
A9
100
AcDbEntity
  8
1
  6
Continuous
 62
     7
100
AcDbCircle
 10
239.7205
 20
797.500000000001
 30
0.0
 40
0.5
100
AcDbArc
 50
180.0
 51
270.0
  0
ARC
  5
387
330
A9
100
AcDbEntity
  8
1
  6
Continuous
 62
     7
100
AcDbCircle
 10
225.999999186709
 20
455.90040889935
 30
0.0
 40
15.0
100
AcDbArc
 50
90.0
 51
180.0
  0
ARC
  5
388
330
A9
100
AcDbEntity
  8
1
  6
Continuous
 62
     7
100
AcDbCircle
 10
345.999999186709
 20
455.90040889935
 30
0.0
 40
15.0
100
AcDbArc
 50
0.0
 51
90.0
  0
ARC
  5
389
330
A9
100
AcDbEntity
  8
1
  6
Continuous
 62
     7
100
AcDbCircle
 10
345.999999186709
 20
455.90040889935
 30
0.0
 40
15.0
100
AcDbArc
 50
270.0
 51
0.0
  0
ARC
  5
38A
330
A9
100
AcDbEntity
  8
1
  6
Continuous
 62
     7
100
AcDbCircle
 10
225.999999186709
 20
455.90040889935
 30
0.0
 40
15.0
100
AcDbArc
 50
180.0
 51
270.0
  0
ARC
  5
38B
330
A9
100
AcDbEntity
  8
1
  6
Continuous
 62
     7
100
AcDbCircle
 10
300.499999186709
 20
439.400408899349
 30
0.0
 40
1.5
100
AcDbArc
 50
90.0
 51
180.0
  0
ARC
  5
38C
330
A9
100
AcDbEntity
  8
1
  6
Continuous
 62
     7
100
AcDbCircle
 10
271.499999186709
 20
439.400408899349
 30
0.0
 40
1.5
100
AcDbArc
 50
0.0
 51
90.0
  0
ARC
  5
38D
330
A9
100
AcDbEntity
  8
1
  6
Continuous
 62
     7
100
AcDbCircle
 10
318.499999186709
 20
480.90040889935
 30
0.0
 40
10.0
100
AcDbArc
 50
180.0
 51
270.0
  0
ARC
  5
38E
330
A9
100
AcDbEntity
  8
1
  6
Continuous
 62
     7
100
AcDbCircle
 10
253.499999186709
 20
480.90040889935
 30
0.0
 40
10.0
100
AcDbArc
 50
270.0
 51
0.0
  0
ARC
  5
38F
330
A9
100
AcDbEntity
  8
1
  6
Continuous
 62
     7
100
AcDbCircle
 10
671.499999246241
 20
439.400410213898
 30
0.0
 40
1.5
100
AcDbArc
 50
0.0
 51
90.0
  0
ARC
  5
390
330
A9
100
AcDbEntity
  8
1
  6
Continuous
 62
     7
100
AcDbCircle
 10
700.499999246241
 20
439.400410213898
 30
0.0
 40
1.5
100
AcDbArc
 50
90.0
 51
180.0
  0
ENDBLK
  5
AB
330
A9
100
AcDbEntity
  8
0
100
AcDbBlockEnd
  0
BLOCK
  5
3E0
330
3D9
100
AcDbEntity
  8
0
100
AcDbBlockBegin
  2
*D28
 70
     1
 10
0.0
 20
0.0
 30
0.0
  3
*D28
  1

  0
LINE
  5
3DA
330
3D9
100
AcDbEntity
  8
1
  6
Continuous
 62
     2
100
AcDbLine
 10
145.0509508533408
 20
466.1387808815326
 30
0.0
 11
180.4062899126682
 21
501.4941204108155
 31
0.0
  0
LINE
  5
3DB
330
3D9
100
AcDbEntity
  8
1
  6
Continuous
 62
     2
100
AcDbLine
 10
226.0000000106999
 20
455.9004109188313
 30
0.0
 11
177.5778627691238
 21
504.3225475167634
 31
0.0
  0
LINE
  5
3DC
330
3D9
100
AcDbEntity
  8
1
  6
Continuous
 62
     2
100
AcDbLine
 10
190.6446609513725
 20
420.5450713895484
 30
0.0
 11
142.2225237097964
 21
468.9672079874805
 31
0.0
  0
SOLID
  5
3DD
330
3D9
100
AcDbEntity
  8
1
 62
     2
100
AcDbTrace
 10
153.6471524822383
 20
477.3415691085347
 30
0.0
 11
156.2537389660795
 21
474.734982659341
 31
0.0
 12
145.0509508533408
 22
466.1387808815326
 32
0.0
 13
145.0509508533408
 23
466.1387808815326
 33
0.0
  0
SOLID
  5
3DE
330
3D9
100
AcDbEntity
  8
1
 62
     2
100
AcDbTrace
 10
171.8100882837707
 20
490.2913321838134
 30
0.0
 11
169.2035017999295
 21
492.897918633007
 31
0.0
 12
180.4062899126682
 22
501.4941204108155
 32
0.0
 13
180.4062899126682
 23
501.4941204108155
 33
0.0
  0
MTEXT
  5
3DF
330
3D9
100
AcDbEntity
  8
1
 62
     7
100
AcDbMText
 10
153.7640163736532
 20
480.5087008047509
 30
0.0
 40
14.0
 41
0.0
 71
     7
 72
     1
  1
50
  7
CONVERTER_12
 11
0.7071067764869924
 21
0.7071067858861028
 31
0.0
 73
     1
 44
0.60024009603842
  0
ENDBLK
  5
3E1
330
3D9
100
AcDbEntity
  8
0
100
AcDbBlockEnd
  0
BLOCK
  5
3EB
330
3E4
100
AcDbEntity
  8
0
100
AcDbBlockBegin
  2
*D29
 70
     1
 10
0.0
 20
0.0
 30
0.0
  3
*D29
  1

  0
LINE
  5
3E5
330
3E4
100
AcDbEntity
  8
1
  6
Continuous
 62
     2
100
AcDbLine
 10
362.4367871202828
 20
623.0
 30
0.0
 11
286.0
 21
623.0
 31
0.0
  0
LINE
  5
3E6
330
3E4
100
AcDbEntity
  8
1
  6
Continuous
 62
     2
100
AcDbLine
 10
362.4367871202828
 20
705.973577290634
 30
0.0
 11
362.4367871202828
 21
619.0
 31
0.0
  0
LINE
  5
3E7
330
3E4
100
AcDbEntity
  8
1
  6
Continuous
 62
     2
100
AcDbLine
 10
286.0
 20
575.0
 30
0.0
 11
286.0
 21
627.0
 31
0.0
  0
SOLID
  5
3E8
330
3E4
100
AcDbEntity
  8
1
 62
     2
100
AcDbTrace
 10
348.4367871202828
 20
621.1568650337765
 30
0.0
 11
348.4367871202828
 21
624.8431349662235
 31
0.0
 12
362.4367871202828
 22
623.0
 32
0.0
 13
362.4367871202828
 23
623.0
 33
0.0
  0
SOLID
  5
3E9
330
3E4
100
AcDbEntity
  8
1
 62
     2
100
AcDbTrace
 10
300.0
 20
624.8431349662235
 30
0.0
 11
300.0
 21
621.1568650337765
 31
0.0
 12
286.0
 22
623.0
 32
0.0
 13
286.0
 23
623.0
 33
0.0
  0
MTEXT
  5
3EA
330
3E4
100
AcDbEntity
  8
1
 62
     7
100
AcDbMText
 10
313.7183935601414
 20
627.0
 30
0.0
 40
14.0
 41
0.0
 71
     7
 72
     1
  1
76
  7
CONVERTER_12
 11
0.9999999999970619
 21
2.424068405545306E-6
 31
0.0
 73
     1
 44
0.60024009603842
  0
ENDBLK
  5
3EC
330
3E4
100
AcDbEntity
  8
0
100
AcDbBlockEnd
  0
BLOCK
  5
3F6
330
3EF
100
AcDbEntity
  8
0
100
AcDbBlockBegin
  2
*D30
 70
     1
 10
0.0
 20
0.0
 30
0.0
  3
*D30
  1

  0
LINE
  5
3F0
330
3EF
100
AcDbEntity
  8
1
  6
Continuous
 62
     2
100
AcDbLine
 10
209.5632083610141
 20
623.0
 30
0.0
 11
286.0
 21
623.0
 31
0.0
  0
LINE
  5
3F1
330
3EF
100
AcDbEntity
  8
1
  6
Continuous
 62
     2
100
AcDbLine
 10
209.5632083610141
 20
705.973576879608
 30
0.0
 11
209.5632083610141
 21
619.0
 31
0.0
  0
LINE
  5
3F2
330
3EF
100
AcDbEntity
  8
1
  6
Continuous
 62
     2
100
AcDbLine
 10
286.0
 20
575.0
 30
0.0
 11
286.0
 21
627.0
 31
0.0
  0
SOLID
  5
3F3
330
3EF
100
AcDbEntity
  8
1
 62
     2
100
AcDbTrace
 10
223.5632083610141
 20
624.8431349662235
 30
0.0
 11
223.5632083610141
 21
621.1568650337765
 31
0.0
 12
209.5632083610141
 22
623.0
 32
0.0
 13
209.5632083610141
 23
623.0
 33
0.0
  0
SOLID
  5
3F4
330
3EF
100
AcDbEntity
  8
1
 62
     2
100
AcDbTrace
 10
272.0
 20
621.1568650337765
 30
0.0
 11
272.0
 21
624.8431349662235
 31
0.0
 12
286.0
 22
623.0
 32
0.0
 13
286.0
 23
623.0
 33
0.0
  0
MTEXT
  5
3F5
330
3EF
100
AcDbEntity
  8
1
 62
     7
100
AcDbMText
 10
237.281604180507
 20
627.0
 30
0.0
 40
14.0
 41
0.0
 71
     7
 72
     1
  1
76
  7
CONVERTER_12
 11
0.9999999999970619
 21
2.424068405545306E-6
 31
0.0
 73
     1
 44
0.60024009603842
  0
ENDBLK
  5
3F7
330
3EF
100
AcDbEntity
  8
0
100
AcDbBlockEnd
  0
BLOCK
  5
401
330
3FA
100
AcDbEntity
  8
0
100
AcDbBlockBegin
  2
*D31
 70
     1
 10
0.0
 20
0.0
 30
0.0
  3
*D31
  1

  0
LINE
  5
3FB
330
3FA
100
AcDbEntity
  8
1
  6
Continuous
 62
     2
100
AcDbLine
 10
573.880155081096
 20
625.091859425356
 30
0.0
 11
673.999999246242
 21
625.091859425356
 31
0.0
  0
LINE
  5
3FC
330
3FA
100
AcDbEntity
  8
1
  6
Continuous
 62
     2
100
AcDbLine
 10
673.999999246242
 20
528.516274339528
 30
0.0
 11
673.999999246242
 21
629.091859425356
 31
0.0
  0
LINE
  5
3FD
330
3FA
100
AcDbEntity
  8
1
  6
Continuous
 62
     2
100
AcDbLine
 10
573.880155081096
 20
544.5305851381025
 30
0.0
 11
573.880155081096
 21
629.091859425356
 31
0.0
  0
SOLID
  5
3FE
330
3FA
100
AcDbEntity
  8
1
 62
     2
100
AcDbTrace
 10
587.880155081096
 20
626.9349943915795
 30
0.0
 11
587.880155081096
 21
623.2487244591325
 31
0.0
 12
573.880155081096
 22
625.091859425356
 32
0.0
 13
573.880155081096
 23
625.091859425356
 33
0.0
  0
SOLID
  5
3FF
330
3FA
100
AcDbEntity
  8
1
 62
     2
100
AcDbTrace
 10
659.999999246242
 20
623.2487244591325
 30
0.0
 11
659.999999246242
 21
626.9349943915795
 31
0.0
 12
673.999999246242
 22
625.091859425356
 32
0.0
 13
673.999999246242
 23
625.091859425356
 33
0.0
  0
MTEXT
  5
400
330
3FA
100
AcDbEntity
  8
1
 62
     7
100
AcDbMText
 10
610.972992279416
 20
629.091859425356
 30
0.0
 40
14.0
 41
0.0
 71
     7
 72
     1
  1
100
  7
CONVERTER_12
 11
0.9999999999970619
 21
2.424068405545306E-6
 31
0.0
 73
     1
 44
0.60024009603842
  0
ENDBLK
  5
402
330
3FA
100
AcDbEntity
  8
0
100
AcDbBlockEnd
  0
BLOCK
  5
40C
330
405
100
AcDbEntity
  8
0
100
AcDbBlockBegin
  2
*D32
 70
     1
 10
0.0
 20
0.0
 30
0.0
  3
*D32
  1

  0
LINE
  5
406
330
405
100
AcDbEntity
  8
1
  6
Continuous
 62
     2
100
AcDbLine
 10
481.99999924624
 20
455.900410213898
 30
0.0
 11
481.99999924624
 21
548.4413997037054
 31
0.0
  0
LINE
  5
407
330
405
100
AcDbEntity
  8
1
  6
Continuous
 62
     2
100
AcDbLine
 10
648.499999246241
 20
455.900410213898
 30
0.0
 11
477.99999924624
 21
455.900410213898
 31
0.0
  0
LINE
  5
408
330
405
100
AcDbEntity
  8
1
  6
Continuous
 62
     2
100
AcDbLine
 10
575.789981805039
 20
548.4413997037054
 30
0.0
 11
477.99999924624
 21
548.4413997037054
 31
0.0
  0
SOLID
  5
409
330
405
100
AcDbEntity
  8
1
 62
     2
100
AcDbTrace
 10
480.1568642800165
 20
469.900410213898
 30
0.0
 11
483.8431342124636
 21
469.900410213898
 31
0.0
 12
481.99999924624
 22
455.900410213898
 32
0.0
 13
481.99999924624
 23
455.900410213898
 33
0.0
  0
SOLID
  5
40A
330
405
100
AcDbEntity
  8
1
 62
     2
100
AcDbTrace
 10
483.8431342124636
 20
534.4413997037054
 30
0.0
 11
480.1568642800165
 21
534.4413997037054
 31
0.0
 12
481.99999924624
 22
548.4413997037054
 32
0.0
 13
481.99999924624
 23
548.4413997037054
 33
0.0
  0
MTEXT
  5
40B
330
405
100
AcDbEntity
  8
1
 62
     7
100
AcDbMText
 10
477.99999924624
 20
480.212494937666
 30
0.0
 40
14.0
 41
0.0
 71
     7
 72
     1
  1
最小93
  7
CONVERTER_11
 11
0.0
 21
1.0
 31
0.0
 73
     1
 44
0.45454545454545
  0
ENDBLK
  5
40D
330
405
100
AcDbEntity
  8
0
100
AcDbBlockEnd
  0
BLOCK
  5
417
330
410
100
AcDbEntity
  8
0
100
AcDbBlockBegin
  2
*D33
 70
     1
 10
0.0
 20
0.0
 30
0.0
  3
*D33
  1

  0
LINE
  5
411
330
410
100
AcDbEntity
  8
1
  6
Continuous
 62
     2
100
AcDbLine
 10
441.99999924624
 20
455.900410213898
 30
0.0
 11
441.99999924624
 21
584.6654516674915
 31
0.0
  0
LINE
  5
412
330
410
100
AcDbEntity
  8
1
  6
Continuous
 62
     2
100
AcDbLine
 10
648.499999246241
 20
455.900410213898
 30
0.0
 11
437.99999924624
 21
455.900410213898
 31
0.0
  0
LINE
  5
413
330
410
100
AcDbEntity
  8
1
  6
Continuous
 62
     2
100
AcDbLine
 10
609.0616881062281
 20
584.6654516674915
 30
0.0
 11
437.99999924624
 21
584.6654516674915
 31
0.0
  0
SOLID
  5
414
330
410
100
AcDbEntity
  8
1
 62
     2
100
AcDbTrace
 10
440.1568642800165
 20
469.900410213898
 30
0.0
 11
443.8431342124636
 21
469.900410213898
 31
0.0
 12
441.99999924624
 22
455.900410213898
 32
0.0
 13
441.99999924624
 23
455.900410213898
 33
0.0
  0
SOLID
  5
415
330
410
100
AcDbEntity
  8
1
 62
     2
100
AcDbTrace
 10
443.8431342124636
 20
570.6654516674915
 30
0.0
 11
440.1568642800165
 21
570.6654516674915
 31
0.0
 12
441.99999924624
 22
584.6654516674915
 32
0.0
 13
441.99999924624
 23
584.6654516674915
 33
0.0
  0
MTEXT
  5
416
330
410
100
AcDbEntity
  8
1
 62
     7
100
AcDbMText
 10
437.99999924624
 20
502.344676432368
 30
0.0
 40
14.0
 41
0.0
 71
     7
 72
     1
  1
\C7;最大\C7;129
  7
CONVERTER_11
 11
0.0
 21
1.0
 31
0.0
 73
     1
 44
0.45454545454545
  0
ENDBLK
  5
418
330
410
100
AcDbEntity
  8
0
100
AcDbBlockEnd
  0
BLOCK
  5
422
330
41B
100
AcDbEntity
  8
0
100
AcDbBlockBegin
  2
*D34
 70
     1
 10
0.0
 20
0.0
 30
0.0
  3
*D34
  1

  0
LINE
  5
41C
330
41B
100
AcDbEntity
  8
1
  6
Continuous
 62
     2
100
AcDbLine
 10
495.999999246241
 20
308.900410213899
 30
0.0
 11
685.999999246241
 21
308.900410213899
 31
0.0
  0
LINE
  5
41D
330
41B
100
AcDbEntity
  8
1
  6
Continuous
 62
     2
100
AcDbLine
 10
495.999999246241
 20
385.900410213898
 30
0.0
 11
495.999999246241
 21
304.900410213899
 31
0.0
  0
LINE
  5
41E
330
41B
100
AcDbEntity
  8
1
  6
Continuous
 62
     2
100
AcDbLine
 10
685.999999246241
 20
400.900410213898
 30
0.0
 11
685.999999246241
 21
304.900410213899
 31
0.0
  0
SOLID
  5
41F
330
41B
100
AcDbEntity
  8
1
 62
     2
100
AcDbTrace
 10
509.999999246241
 20
310.7435451801226
 30
0.0
 11
509.999999246241
 21
307.0572752476755
 31
0.0
 12
495.999999246241
 22
308.900410213899
 32
0.0
 13
495.999999246241
 23
308.900410213899
 33
0.0
  0
SOLID
  5
420
330
41B
100
AcDbEntity
  8
1
 62
     2
100
AcDbTrace
 10
671.999999246241
 20
307.0572752476755
 30
0.0
 11
671.999999246241
 21
310.7435451801226
 31
0.0
 12
685.999999246241
 22
308.900410213899
 32
0.0
 13
685.999999246241
 23
308.900410213899
 33
0.0
  0
MTEXT
  5
421
330
41B
100
AcDbEntity
  8
1
 62
     7
100
AcDbMText
 10
580.8499621137049
 20
312.900410213899
 30
0.0
 40
14.0
 41
0.0
 71
     7
 72
     1
  1
190
  7
CONVERTER_12
 11
0.9999999999970619
 21
2.424068405545306E-6
 31
0.0
 73
     1
 44
0.60024009603842
  0
ENDBLK
  5
423
330
41B
100
AcDbEntity
  8
0
100
AcDbBlockEnd
  0
BLOCK
  5
42D
330
426
100
AcDbEntity
  8
0
100
AcDbBlockBegin
  2
*D35
 70
     1
 10
0.0
 20
0.0
 30
0.0
  3
*D35
  1

  0
LINE
  5
427
330
426
100
AcDbEntity
  8
1
  6
Continuous
 62
     2
100
AcDbLine
 10
190.6446609513724
 20
937.500000000001
 30
0.0
 11
381.3553391845095
 21
937.500000000001
 31
0.0
  0
LINE
  5
428
330
426
100
AcDbEntity
  8
1
  6
Continuous
 62
     2
100
AcDbLine
 10
381.3553391845095
 20
868.500000000001
 30
0.0
 11
381.3553391845095
 21
941.500000000001
 31
0.0
  0
LINE
  5
429
330
426
100
AcDbEntity
  8
1
  6
Continuous
 62
     2
100
AcDbLine
 10
190.6446609513724
 20
868.500000000001
 30
0.0
 11
190.6446609513724
 21
941.500000000001
 31
0.0
  0
SOLID
  5
42A
330
426
100
AcDbEntity
  8
1
 62
     2
100
AcDbTrace
 10
204.6446609513724
 20
939.3431349662245
 30
0.0
 11
204.6446609513724
 21
935.6568650337775
 31
0.0
 12
190.6446609513724
 22
937.500000000001
 32
0.0
 13
190.6446609513724
 23
937.500000000001
 33
0.0
  0
SOLID
  5
42B
330
426
100
AcDbEntity
  8
1
 62
     2
100
AcDbTrace
 10
367.3553391845095
 20
935.6568650337775
 30
0.0
 11
367.3553391845095
 21
939.3431349662245
 31
0.0
 12
381.3553391845095
 22
937.500000000001
 32
0.0
 13
381.3553391845095
 23
937.500000000001
 33
0.0
  0
MTEXT
  5
42C
330
426
100
AcDbEntity
  8
1
 62
     7
100
AcDbMText
 10
218.602539749583
 20
941.500000000001
 30
0.0
 40
14.0
 41
0.0
 71
     7
 72
     1
  1
取付寸法120～220
  7
CONVERTER_11
 11
0.9999999999970619
 21
2.424068405545306E-6
 31
0.0
 73
     1
 44
0.45454545454545
  0
ENDBLK
  5
42E
330
426
100
AcDbEntity
  8
0
100
AcDbBlockEnd
  0
BLOCK
  5
438
330
431
100
AcDbEntity
  8
0
100
AcDbBlockBegin
  2
*D36
 70
     1
 10
0.0
 20
0.0
 30
0.0
  3
*D36
  1

  0
LINE
  5
432
330
431
100
AcDbEntity
  8
1
  6
Continuous
 62
     2
100
AcDbLine
 10
226.0000000107
 20
905.500000000001
 30
0.0
 11
345.999999945848
 21
905.500000000001
 31
0.0
  0
LINE
  5
433
330
431
100
AcDbEntity
  8
1
  6
Continuous
 62
     2
100
AcDbLine
 10
345.999999945848
 20
839.61652990637
 30
0.0
 11
345.999999945848
 21
909.500000000001
 31
0.0
  0
LINE
  5
434
330
431
100
AcDbEntity
  8
1
  6
Continuous
 62
     2
100
AcDbLine
 10
226.0000000107
 20
839.61652990637
 30
0.0
 11
226.0000000107
 21
909.500000000001
 31
0.0
  0
SOLID
  5
435
330
431
100
AcDbEntity
  8
1
 62
     2
100
AcDbTrace
 10
240.0000000107
 20
907.3431349662245
 30
0.0
 11
240.0000000107
 21
903.6568650337775
 31
0.0
 12
226.0000000107
 22
905.500000000001
 32
0.0
 13
226.0000000107
 23
905.500000000001
 33
0.0
  0
SOLID
  5
436
330
431
100
AcDbEntity
  8
1
 62
     2
100
AcDbTrace
 10
331.999999945848
 20
903.6568650337775
 30
0.0
 11
331.999999945848
 21
907.3431349662245
 31
0.0
 12
345.999999945848
 22
905.500000000001
 32
0.0
 13
345.999999945848
 23
905.500000000001
 33
0.0
  0
MTEXT
  5
437
330
431
100
AcDbEntity
  8
1
 62
     7
100
AcDbMText
 10
268.055202996589
 20
909.500000000001
 30
0.0
 40
14.0
 41
0.0
 71
     7
 72
     1
  1
120
  7
CONVERTER_12
 11
0.9999999999970619
 21
2.424068405545306E-6
 31
0.0
 73
     1
 44
0.60024009603842
  0
ENDBLK
  5
439
330
431
100
AcDbEntity
  8
0
100
AcDbBlockEnd
  0
BLOCK
  5
444
330
43C
100
AcDbEntity
  8
0
100
AcDbBlockBegin
  2
*D37
 70
     1
 10
0.0
 20
0.0
 30
0.0
  3
*D37
  1

  0
LINE
  5
43D
330
43C
100
AcDbEntity
  8
1
  6
Continuous
 62
     2
100
AcDbLine
 10
165.6446601915634
 20
905.500000000001
 30
0.0
 11
215.6446601915634
 21
905.500000000001
 31
0.0
  0
LINE
  5
43E
330
43C
100
AcDbEntity
  8
1
  6
Continuous
 62
     2
100
AcDbLine
 10
123.4042129048104
 20
905.500000000001
 30
0.0
 11
165.6446601915634
 21
905.500000000001
 31
0.0
  0
LINE
  5
43F
330
43C
100
AcDbEntity
  8
1
  6
Continuous
 62
     2
100
AcDbLine
 10
215.6446601915634
 20
851.500000000001
 30
0.0
 11
215.6446601915634
 21
909.500000000001
 31
0.0
  0
LINE
  5
440
330
43C
100
AcDbEntity
  8
1
  6
Continuous
 62
     2
100
AcDbLine
 10
165.6446601915634
 20
851.500000000001
 30
0.0
 11
165.6446601915634
 21
909.500000000001
 31
0.0
  0
SOLID
  5
441
330
43C
100
AcDbEntity
  8
1
 62
     2
100
AcDbTrace
 10
179.6446601915634
 20
907.3431349662245
 30
0.0
 11
179.6446601915634
 21
903.6568650337775
 31
0.0
 12
165.6446601915634
 22
905.500000000001
 32
0.0
 13
165.6446601915634
 23
905.500000000001
 33
0.0
  0
SOLID
  5
442
330
43C
100
AcDbEntity
  8
1
 62
     2
100
AcDbTrace
 10
201.6446601915634
 20
903.6568650337775
 30
0.0
 11
201.6446601915634
 21
907.3431349662245
 31
0.0
 12
215.6446601915634
 22
905.500000000001
 32
0.0
 13
215.6446601915634
 23
905.500000000001
 33
0.0
  0
MTEXT
  5
443
330
43C
100
AcDbEntity
  8
1
 62
     7
100
AcDbMText
 10
128.7242129048441
 20
909.4999721716957
 30
0.0
 40
14.0
 41
0.0
 71
     7
 72
     1
  1
\C7;{\Fgdt;n}\C7;50
  7
CONVERTER_12
 11
0.9999999999970619
 21
2.424068405545306E-6
 31
0.0
 73
     1
 44
0.60024009603842
  0
ENDBLK
  5
445
330
43C
100
AcDbEntity
  8
0
100
AcDbBlockEnd
  0
BLOCK
  5
451
330
448
100
AcDbEntity
  8
0
100
AcDbBlockBegin
  2
*D38
 70
     1
 10
0.0
 20
0.0
 30
0.0
  3
*D38
  1

  0
LINE
  5
449
330
448
100
AcDbEntity
  8
1
  6
Continuous
 62
     2
100
AcDbLine
 10
645.999999246241
 20
372.900410213899
 30
0.0
 11
673.999999246241
 21
372.900410213899
 31
0.0
  0
LINE
  5
44A
330
448
100
AcDbEntity
  8
1
  6
Continuous
 62
     2
100
AcDbLine
 10
673.999999246241
 20
372.900410213899
 30
0.0
 11
685.999999246241
 21
372.900410213899
 31
0.0
  0
LINE
  5
44B
330
448
100
AcDbEntity
  8
1
  6
Continuous
 62
     2
100
AcDbLine
 10
685.999999246241
 20
372.900410213899
 30
0.0
 11
723.302239982371
 21
372.900410213899
 31
0.0
  0
LINE
  5
44C
330
448
100
AcDbEntity
  8
1
  6
Continuous
 62
     2
100
AcDbLine
 10
673.999999246241
 20
455.400410213898
 30
0.0
 11
673.999999246241
 21
368.900410213899
 31
0.0
  0
LINE
  5
44D
330
448
100
AcDbEntity
  8
1
  6
Continuous
 62
     2
100
AcDbLine
 10
685.999999246241
 20
400.900410213898
 30
0.0
 11
685.999999246241
 21
368.900410213899
 31
0.0
  0
SOLID
  5
44E
330
448
100
AcDbEntity
  8
1
 62
     2
100
AcDbTrace
 10
659.999999246241
 20
371.0572752476755
 30
0.0
 11
659.999999246241
 21
374.7435451801226
 31
0.0
 12
673.999999246241
 22
372.900410213899
 32
0.0
 13
673.999999246241
 23
372.900410213899
 33
0.0
  0
SOLID
  5
44F
330
448
100
AcDbEntity
  8
1
 62
     2
100
AcDbTrace
 10
699.999999246241
 20
374.7435451801226
 30
0.0
 11
699.999999246241
 21
371.0572752476755
 31
0.0
 12
685.999999246241
 22
372.900410213899
 32
0.0
 13
685.999999246241
 23
372.900410213899
 33
0.0
  0
MTEXT
  5
450
330
448
100
AcDbEntity
  8
1
 62
     7
100
AcDbMText
 10
706.5022399823711
 20
376.900410213899
 30
0.0
 40
14.0
 41
0.0
 71
     7
 72
     1
  1
12
  7
CONVERTER_12
 11
0.9999999999970619
 21
2.424068405545306E-6
 31
0.0
 73
     1
 44
0.60024009603842
  0
ENDBLK
  5
452
330
448
100
AcDbEntity
  8
0
100
AcDbBlockEnd
  0
BLOCK
  5
45C
330
455
100
AcDbEntity
  8
0
100
AcDbBlockBegin
  2
*D39
 70
     1
 10
0.0
 20
0.0
 30
0.0
  3
*D39
  1

  0
LINE
  5
456
330
455
100
AcDbEntity
  8
1
  6
Continuous
 62
     2
100
AcDbLine
 10
441.99999924624
 20
388.900410213899
 30
0.0
 11
441.99999924624
 21
455.900410213898
 31
0.0
  0
LINE
  5
457
330
455
100
AcDbEntity
  8
1
  6
Continuous
 62
     2
100
AcDbLine
 10
485.254300658997
 20
388.900410213899
 30
0.0
 11
437.99999924624
 21
388.900410213899
 31
0.0
  0
LINE
  5
458
330
455
100
AcDbEntity
  8
1
  6
Continuous
 62
     2
100
AcDbLine
 10
648.499999246241
 20
455.900410213898
 30
0.0
 11
437.99999924624
 21
455.900410213898
 31
0.0
  0
SOLID
  5
459
330
455
100
AcDbEntity
  8
1
 62
     2
100
AcDbTrace
 10
440.1568642800165
 20
402.900410213899
 30
0.0
 11
443.8431342124636
 21
402.900410213899
 31
0.0
 12
441.99999924624
 22
388.900410213899
 32
0.0
 13
441.99999924624
 23
388.900410213899
 33
0.0
  0
SOLID
  5
45A
330
455
100
AcDbEntity
  8
1
 62
     2
100
AcDbTrace
 10
443.8431342124636
 20
441.900410213898
 30
0.0
 11
440.1568642800165
 21
441.900410213898
 31
0.0
 12
441.99999924624
 22
455.900410213898
 32
0.0
 13
441.99999924624
 23
455.900410213898
 33
0.0
  0
MTEXT
  5
45B
330
455
100
AcDbEntity
  8
1
 62
     7
100
AcDbMText
 10
437.99999924624
 20
412.670401482442
 30
0.0
 40
14.0
 41
0.0
 71
     7
 72
     1
  1
67
  7
CONVERTER_12
 11
0.0
 21
1.0
 31
0.0
 73
     1
 44
0.60024009603842
  0
ENDBLK
  5
45D
330
455
100
AcDbEntity
  8
0
100
AcDbBlockEnd
  0
BLOCK
  5
467
330
460
100
AcDbEntity
  8
0
100
AcDbBlockBegin
  2
*D40
 70
     1
 10
0.0
 20
0.0
 30
0.0
  3
*D40
  1

  0
LINE
  5
461
330
460
100
AcDbEntity
  8
1
  6
Continuous
 62
     2
100
AcDbLine
 10
673.999999246241
 20
340.900410213899
 30
0.0
 11
755.4999992462406
 21
340.900410213899
 31
0.0
  0
LINE
  5
462
330
460
100
AcDbEntity
  8
1
  6
Continuous
 62
     2
100
AcDbLine
 10
673.999999246241
 20
455.400410213898
 30
0.0
 11
673.999999246241
 21
336.900410213899
 31
0.0
  0
LINE
  5
463
330
460
100
AcDbEntity
  8
1
  6
Continuous
 62
     2
100
AcDbLine
 10
755.4999992462406
 20
395.5450729064876
 30
0.0
 11
755.4999992462406
 21
336.900410213899
 31
0.0
  0
SOLID
  5
464
330
460
100
AcDbEntity
  8
1
 62
     2
100
AcDbTrace
 10
687.999999246241
 20
342.7435451801226
 30
0.0
 11
687.999999246241
 21
339.0572752476755
 31
0.0
 12
673.999999246241
 22
340.900410213899
 32
0.0
 13
673.999999246241
 23
340.900410213899
 33
0.0
  0
SOLID
  5
465
330
460
100
AcDbEntity
  8
1
 62
     2
100
AcDbTrace
 10
741.4999992462406
 20
339.0572752476755
 30
0.0
 11
741.4999992462406
 21
342.7435451801226
 31
0.0
 12
755.4999992462406
 22
340.900410213899
 32
0.0
 13
755.4999992462406
 23
340.900410213899
 33
0.0
  0
MTEXT
  5
466
330
460
100
AcDbEntity
  8
1
 62
     7
100
AcDbMText
 10
703.788603592301
 20
344.900410213899
 30
0.0
 40
14.0
 41
0.0
 71
     7
 72
     1
  1
82
  7
CONVERTER_12
 11
0.9999999999970619
 21
2.424068405545306E-6
 31
0.0
 73
     1
 44
0.60024009603842
  0
ENDBLK
  5
468
330
460
100
AcDbEntity
  8
0
100
AcDbBlockEnd
  0
BLOCK
  5
474
330
46B
100
AcDbEntity
  8
0
100
AcDbBlockBegin
  2
*D41
 70
     1
 10
0.0
 20
0.0
 30
0.0
  3
*D41
  1

  0
LINE
  5
46C
330
46B
100
AcDbEntity
  8
1
  6
Continuous
 62
     2
100
AcDbLine
 10
358.8319962028619
 20
697.167999689462
 30
0.0
 11
429.906491332836
 21
626.0935045594888
 31
0.0
  0
LINE
  5
46D
330
46B
100
AcDbEntity
  8
1
  6
Continuous
 62
     2
100
AcDbLine
 10
285.9999999999999
 20
575.0
 30
0.0
 11
285.9999999999999
 21
566.4854841359013
 31
0.0
  0
LINE
  5
46E
330
46B
100
AcDbEntity
  8
1
  6
Continuous
 62
     2
100
AcDbLine
 10
429.906491332836
 20
626.0935045594888
 30
0.0
 11
432.7349184575822
 21
623.2650774347426
 31
0.0
  0
LINE
  5
46F
330
46B
100
AcDbEntity
  8
1
  6
Continuous
 62
     2
100
AcDbLine
 10
285.9999999999999
 20
566.4854841359013
 30
0.0
 11
285.9999999999999
 21
562.4854841359013
 31
0.0
  0
ARC
  5
470
330
46B
100
AcDbEntity
  8
1
  6
Continuous
 62
     2
100
AcDbCircle
 10
285.9999999999999
 20
769.9999958923232
 30
0.0
 40
203.5145117564219
100
AcDbArc
 50
270.0
 51
315.0000000000003
  0
SOLID
  5
471
330
46B
100
AcDbEntity
  8
1
 62
     2
100
AcDbTrace
 10
299.9283362243726
 20
568.8089721441651
 30
0.0
 11
300.055102623965
 21
565.1248825286972
 31
0.0
 12
285.9999999999999
 22
566.4854841359013
 32
0.0
 13
285.9999999999999
 23
566.4854841359013
 33
0.0
  0
SOLID
  5
472
330
46B
100
AcDbEntity
  8
1
 62
     2
100
AcDbTrace
 10
420.9301235801046
 20
615.1929555608631
 30
0.0
 11
418.4147162112868
 21
617.8876376912378
 31
0.0
 12
429.906491332836
 22
626.0935045594888
 32
0.0
 13
429.906491332836
 23
626.0935045594888
 33
0.0
  0
MTEXT
  5
473
330
46B
100
AcDbEntity
  8
1
 62
     7
100
AcDbMText
 10
348.16081419325
 20
579.7916007562629
 30
0.0
 40
14.0
 41
0.0
 71
     7
 72
     1
  1
45{\Fgdt;~}
  7
CONVERTER_12
 11
0.9238037464076203
 21
0.3828663449864003
 31
0.0
 73
     1
 44
0.60024009603842
  0
ENDBLK
  5
475
330
46B
100
AcDbEntity
  8
0
100
AcDbBlockEnd
  0
BLOCK
  5
481
330
478
100
AcDbEntity
  8
0
100
AcDbBlockBegin
  2
*D42
 70
     1
 10
0.0
 20
0.0
 30
0.0
  3
*D42
  1

  0
LINE
  5
479
330
478
100
AcDbEntity
  8
1
  6
Continuous
 62
     2
100
AcDbLine
 10
286.0
 20
575.0
 30
0.0
 11
286.0
 21
566.5023252491123
 31
0.0
  0
LINE
  5
47A
330
478
100
AcDbEntity
  8
1
  6
Continuous
 62
     2
100
AcDbLine
 10
213.167999278434
 20
697.167999278436
 30
0.0
 11
142.1054142279511
 21
626.1054142279539
 31
0.0
  0
LINE
  5
47B
330
478
100
AcDbEntity
  8
1
  6
Continuous
 62
     2
100
AcDbLine
 10
286.0
 20
566.5023252491123
 30
0.0
 11
286.0
 21
562.5023252491123
 31
0.0
  0
LINE
  5
47C
330
478
100
AcDbEntity
  8
1
  6
Continuous
 62
     2
100
AcDbLine
 10
142.1054142279511
 20
626.1054142279539
 30
0.0
 11
139.2769871032049
 21
623.2769871032078
 31
0.0
  0
ARC
  5
47D
330
478
100
AcDbEntity
  8
1
  6
Continuous
 62
     2
100
AcDbCircle
 10
286.0
 20
770.0000000000013
 30
0.0
 40
203.497674750889
100
AcDbArc
 50
224.9999999999997
 51
270.0
  0
SOLID
  5
47E
330
478
100
AcDbEntity
  8
1
 62
     2
100
AcDbTrace
 10
153.597212701908
 20
617.8995800633074
 30
0.0
 11
151.0818130016919
 21
615.2048907745366
 31
0.0
 12
142.1054142279511
 22
626.1054142279539
 32
0.0
 13
142.1054142279511
 23
626.1054142279539
 33
0.0
  0
SOLID
  5
47F
330
478
100
AcDbEntity
  8
1
 62
     2
100
AcDbTrace
 10
271.9448935040589
 20
565.1417636402643
 30
0.0
 11
272.0716703879221
 21
568.8258528949623
 31
0.0
 12
286.0
 22
566.5023252491123
 32
0.0
 13
286.0
 23
566.5023252491123
 33
0.0
  0
MTEXT
  5
480
330
478
100
AcDbEntity
  8
1
 62
     7
100
AcDbMText
 10
207.4347731685986
 20
585.9782964866876
 30
0.0
 40
14.0
 41
0.0
 71
     7
 72
     1
  1
45{\Fgdt;~}
  7
CONVERTER_12
 11
0.9471812790393872
 21
-0.3206986508192862
 31
0.0
 73
     1
 44
0.60024009603842
  0
ENDBLK
  5
482
330
478
100
AcDbEntity
  8
0
100
AcDbBlockEnd
  0
ENDSEC
  0
SECTION
  2
ENTITIES
  0
INSERT
  5
AC
330
1F
100
AcDbEntity
  8
1
100
AcDbBlockReference
  2
開示A4
 10
0.0
 20
0.0
 30
0.0
 41
4.0
 42
4.0
 43
4.0
  0
INSERT
  5
AD
330
1F
100
AcDbEntity
  8
1
100
AcDbBlockReference
  2
61-142X
 10
271.999998964804
 20
388.900408899349
 30
0.0
  0
INSERT
  5
AE
330
1F
100
AcDbEntity
  8
0
100
AcDbBlockReference
  2
U3-47F-50__8
 10
363.499999625446
 20
723.200205106949
 30
0.0
  0
INSERT
  5
AF
330
1F
100
AcDbEntity
  8
0
100
AcDbBlockReference
  2
U3-47F-50__16
 10
38.499999250891
 20
690.500000000001
 30
0.0
  0
INSERT
  5
B0
330
1F
100
AcDbEntity
  8
0
100
AcDbBlockReference
  2
84-293
 10
731.628612591677
 20
94.98941450524
 30
0.0
  0
INSERT
  5
B1
330
1F
100
AcDbEntity
  8
0
100
AcDbBlockReference
  2
37-305-M11
 10
1199.62857104548
 20
797.150410213898
 30
0.0
  0
INSERT
  5
B2
330
1F
100
AcDbEntity
  8
0
100
AcDbBlockReference
  2
27-14-M1
 10
885.128571045479
 20
664.050410213898
 30
0.0
  0
INSERT
  5
B3
330
1F
100
AcDbEntity
  8
0
100
AcDbBlockReference
  2
K1711-0-M1
 10
705.128570288528
 20
498.650410213898
 30
0.0
  0
POINT
  5
391
330
1F
100
AcDbEntity
  8
0
 62
     7
100
AcDbPoint
 10
648.499999246241
 20
455.900410213898
 30
0.0
  0
POINT
  5
392
330
1F
100
AcDbEntity
  8
0
 62
     7
100
AcDbPoint
 10
648.499999246241
 20
455.900410213898
 30
0.0
  0
POINT
  5
393
330
1F
100
AcDbEntity
  8
0
 62
     7
100
AcDbPoint
 10
685.999999246241
 20
400.900410213898
 30
0.0
  0
POINT
  5
394
330
1F
100
AcDbEntity
  8
0
 62
     7
100
AcDbPoint
 10
673.999999246241
 20
455.400410213898
 30
0.0
  0
POINT
  5
395
330
1F
100
AcDbEntity
  8
0
 62
     7
100
AcDbPoint
 10
685.999999246241
 20
400.900410213898
 30
0.0
  0
POINT
  5
396
330
1F
100
AcDbEntity
  8
0
 62
     7
100
AcDbPoint
 10
495.999999246241
 20
385.900410213898
 30
0.0
  0
POINT
  5
397
330
1F
100
AcDbEntity
  8
0
 62
     7
100
AcDbPoint
 10
685.999999246241
 20
400.900410213898
 30
0.0
  0
POINT
  5
398
330
1F
100
AcDbEntity
  8
0
 62
     7
100
AcDbPoint
 10
345.999999945848
 20
839.61652990637
 30
0.0
  0
POINT
  5
399
330
1F
100
AcDbEntity
  8
0
 62
     7
100
AcDbPoint
 10
395.9999999893
 20
868.500000000001
 30
0.0
  0
POINT
  5
39A
330
1F
100
AcDbEntity
  8
0
 62
     7
100
AcDbPoint
 10
226.0000000107
 20
839.61652990637
 30
0.0
  0
POINT
  5
39B
330
1F
100
AcDbEntity
  8
0
 62
     7
100
AcDbPoint
 10
345.999999945848
 20
839.61652990637
 30
0.0
  0
POINT
  5
39C
330
1F
100
AcDbEntity
  8
0
 62
     7
100
AcDbPoint
 10
395.9999999893
 20
868.500000000001
 30
0.0
  0
POINT
  5
39D
330
1F
100
AcDbEntity
  8
0
 62
     7
100
AcDbPoint
 10
226.0000000107
 20
839.61652990637
 30
0.0
  0
LINE
  5
39E
330
1F
100
AcDbEntity
  8
1
  6
DASH_CENTER
 62
     2
100
AcDbLine
 10
226.0000000106998
 20
455.9004109188313
 30
0.0
 11
234.4852806236104
 21
464.3856916445312
 31
0.0
  0
LINE
  5
39F
330
1F
100
AcDbEntity
  8
1
  6
DASH_CENTER
 62
     2
100
AcDbLine
 10
190.6446609513724
 20
420.5450713895484
 30
0.0
 11
226.0000000106998
 21
455.9004109188313
 31
0.0
  0
LINE
  5
3A0
330
1F
100
AcDbEntity
  8
1
  6
DASH_CENTER
 62
     2
100
AcDbLine
 10
374.2634544965206
 20
455.900410213898
 30
0.0
 11
197.7365430464829
 21
455.900410213898
 31
0.0
  0
LINE
  5
3A1
330
1F
100
AcDbEntity
  8
1
  6
DASH_CENTER
 62
     2
100
AcDbLine
 10
407.5182871575841
 20
394.3821215855439
 30
0.0
 11
337.5147171549914
 21
464.3856915881366
 31
0.0
  0
LINE
  5
3A2
330
1F
100
AcDbEntity
  8
1
  6
DASH_CENTER
 62
     2
100
AcDbLine
 10
355.1923882806076
 20
394.3821186547166
 30
0.0
 11
407.5182900884116
 21
446.7080204625205
 31
0.0
  0
LINE
  5
3A3
330
1F
100
AcDbEntity
  8
1
  6
DASH_CENTER
 62
     2
100
AcDbLine
 10
164.481707953055
 20
446.7080209609838
 30
0.0
 11
216.8076097608593
 21
394.3821191531794
 31
0.0
  0
LINE
  5
3A4
330
1F
100
AcDbEntity
  8
1
  6
DASH_CENTER
 62
     2
100
AcDbLine
 10
164.4817093601287
 20
394.3821194505376
 30
0.0
 11
190.6446609513724
 21
420.5450713895484
 31
0.0
  0
LINE
  5
3A5
330
1F
100
AcDbEntity
  8
1
  6
Continuous
 62
     2
100
AcDbLine
 10
310.9999936186605
 20
653.3999984226367
 30
0.0
 11
349.9999936186605
 21
653.3999984226367
 31
0.0
  0
LINE
  5
3A6
330
1F
100
AcDbEntity
  8
1
  6
Continuous
 62
     2
100
AcDbLine
 10
222.9999936186605
 20
653.3999984226367
 30
0.0
 11
261.9999936186605
 21
653.3999984226367
 31
0.0
  0
LINE
  5
3A7
330
1F
100
AcDbEntity
  8
1
  6
Continuous
 62
     2
100
AcDbLine
 10
583.9999992462415
 20
593.4004102138981
 30
0.0
 11
627.9999992462415
 21
593.4004102138981
 31
0.0
  0
LINE
  5
3A8
330
1F
100
AcDbEntity
  8
1
  6
Continuous
 62
     2
100
AcDbLine
 10
522.9999992462415
 20
556.4004102138981
 30
0.0
 11
566.4999992462413
 21
556.4004102138981
 31
0.0
  0
LINE
  5
3A9
330
1F
100
AcDbEntity
  8
1
  6
DASH_CENTER
 62
     2
100
AcDbLine
 10
656.222186617756
 20
507.9004102138975
 30
0.0
 11
648.999999246243
 21
507.9004102138975
 31
0.0
  0
LINE
  5
3AA
330
1F
100
AcDbEntity
  8
1
  6
DASH_CENTER
 62
     2
100
AcDbLine
 10
685.999999246241
 20
400.900410213898
 30
0.0
 11
685.999999246241
 21
446.650410213898
 31
0.0
  0
LINE
  5
3AB
330
1F
100
AcDbEntity
  8
1
  6
DASH_CENTER
 62
     2
100
AcDbLine
 10
673.999999246241
 20
455.400410213898
 30
0.0
 11
673.999999246242
 21
528.516274339528
 31
0.0
  0
LINE
  5
3AC
330
1F
100
AcDbEntity
  8
1
  6
DASH_CENTER
 62
     2
100
AcDbLine
 10
345.999999945848
 20
839.61652990637
 30
0.0
 11
346.000000800402
 21
773.540446482113
 31
0.0
  0
LINE
  5
3AD
330
1F
100
AcDbEntity
  8
1
  6
DASH_CENTER
 62
     2
100
AcDbLine
 10
381.3553391845096
 20
868.500000000001
 30
0.0
 11
381.3553391845096
 21
811.000000000001
 31
0.0
  0
LINE
  5
3AE
330
1F
100
AcDbEntity
  8
1
  6
DASH_CENTER
 62
     2
100
AcDbLine
 10
226.0000000107
 20
839.61652990637
 30
0.0
 11
226.000000010699
 21
773.540446482113
 31
0.0
  0
LINE
  5
3AF
330
1F
100
AcDbEntity
  8
1
  6
DASH_CENTER
 62
     2
100
AcDbLine
 10
226.000000121154
 20
473.90040889935
 30
0.0
 11
225.999998490379
 21
437.900411528447
 31
0.0
  0
LINE
  5
3B0
330
1F
100
AcDbEntity
  8
1
  6
DASH_CENTER
 62
     2
100
AcDbLine
 10
345.99999852923
 20
473.90040889935
 30
0.0
 11
345.99999852923
 21
437.900411528447
 31
0.0
  0
LINE
  5
3B1
330
1F
100
AcDbEntity
  8
1
  6
DASH_CENTER
 62
     2
100
AcDbLine
 10
286.000000023914
 20
552.150410213898
 30
0.0
 11
285.99999868066
 21
385.900408899349
 31
0.0
  0
LINE
  5
3B2
330
1F
100
AcDbEntity
  8
1
  6
DASH_CENTER
 62
     2
100
AcDbLine
 10
648.499999246241
 20
455.900410213898
 30
0.0
 11
748.9999992462406
 21
455.900410213898
 31
0.0
  0
LINE
  5
3B3
330
1F
100
AcDbEntity
  8
1
  6
DASH_CENTER
 62
     2
100
AcDbLine
 10
286.0
 20
800.000000000001
 30
0.0
 11
286.0
 21
575.0
 31
0.0
  0
LINE
  5
3B4
330
1F
100
AcDbEntity
  8
1
  6
DASH_CENTER
 62
     2
100
AcDbLine
 10
190.6446609513724
 20
868.500000000001
 30
0.0
 11
190.6446609513724
 21
811.000000000001
 31
0.0
  0
LINE
  5
3B5
330
1F
100
AcDbEntity
  8
1
  6
DASH_CENTER
 62
     2
100
AcDbLine
 10
260.5
 20
769.999997946162
 30
0.0
 11
311.5
 21
769.999997946162
 31
0.0
  0
LINE
  5
3B6
330
1F
100
AcDbEntity
  8
1
  6
DASH_CENTER
 62
     2
100
AcDbLine
 10
702.999999246241
 20
411.900410213899
 30
0.0
 11
478.99999924624
 21
411.900410213899
 31
0.0
  0
LINE
  5
3B7
330
1F
100
AcDbEntity
  8
1
  6
DASH_CENTER
 62
     2
100
AcDbLine
 10
495.999999246241
 20
423.250410213898
 30
0.0
 11
495.999999246241
 21
385.900410213898
 31
0.0
  0
LINE
  5
3B8
330
1F
100
AcDbEntity
  8
0
  6
DASH_CENTER
 62
     2
100
AcDbLine
 10
302.26345370794
 20
786.263453707941
 30
0.0
 11
213.167999278434
 21
697.167999278436
 31
0.0
  0
LINE
  5
3B9
330
1F
100
AcDbEntity
  8
0
  6
DASH_CENTER
 62
     2
100
AcDbLine
 10
358.831996202862
 20
697.167999689462
 30
0.0
 11
269.736541773356
 21
786.263454118967
 31
0.0
  0
LINE
  5
3BA
330
1F
100
AcDbEntity
  8
1
  6
DASH_CENTER
 62
     2
100
AcDbLine
 10
294.546311954162
 20
507.9004102138975
 30
0.0
 11
277.453687780957
 21
507.9004102138975
 31
0.0
  0
LINE
  5
3BB
330
1F
100
AcDbEntity
  8
1
  6
DASH_CENTER
 62
     2
100
AcDbLine
 10
676.0859719081237
 20
492.7702521471343
 30
0.0
 11
689.6587225791977
 21
521.8771098916034
 31
0.0
  0
LINE
  5
3BC
330
1F
100
AcDbEntity
  8
1
  6
DASH_CENTER
 62
     2
100
AcDbLine
 10
268.999999106325
 20
592.000000000001
 30
0.0
 11
302.999999386157
 21
592.000000000001
 31
0.0
  0
LINE
  5
3BD
330
1F
100
AcDbEntity
  8
1
  6
DASH_CENTER
 62
     2
100
AcDbLine
 10
781.4999992462406
 20
420.5450729064876
 30
0.0
 11
706.4999992462406
 21
420.5450729064876
 31
0.0
  0
LINE
  5
3BE
330
1F
100
AcDbEntity
  8
1
  6
DASH_CENTER
 62
     2
100
AcDbLine
 10
167.1446601915634
 20
825.750000000001
 30
0.0
 11
249.499999250891
 21
825.750000000001
 31
0.0
  0
LINE
  5
3BF
330
1F
100
AcDbEntity
  8
1
  6
DASH_CENTER
 62
     2
100
AcDbLine
 10
322.499996641431
 20
825.750000000001
 30
0.0
 11
404.8553358366405
 21
825.750000000001
 31
0.0
  0
ARC
  5
3C0
330
1F
100
AcDbEntity
  8
1
  6
Continuous
 62
     2
100
AcDbCircle
 10
673.9999992462415
 20
490.0868693377348
 30
0.0
 40
110.0
100
AcDbArc
 50
128.0
 51
146.0
  0
ARC
  5
3C1
330
1F
100
AcDbEntity
  8
1
  6
Continuous
 62
     2
100
AcDbCircle
 10
285.9999979461609
 20
806.2542012284703
 30
0.0
 40
120.0000000000001
100
AcDbArc
 50
254.927693903789
 51
285.0
  0
SOLID
  5
3C2
330
1F
100
AcDbEntity
  8
1
 62
     2
100
AcDbTrace
 10
589.392193681649
 20
564.0887827621583
 30
0.0
 11
592.4005995219276
 21
561.958505710918
 31
0.0
 12
582.8058662651869
 22
551.598088719517
 32
0.0
 13
582.8058662651869
 23
551.598088719517
 33
0.0
  0
LEADER
  5
3C3
330
1F
100
AcDbEntity
  8
1
  6
Continuous
 62
     2
100
AcDbLeader
  3
Standard
 71
     0
 76
     2
 10
582.8058662651869
 20
551.598088719517
 30
0.0
 10
585.696088309517
 20
555.6796990775701
 30
0.0
  0
SOLID
  5
3C4
330
1F
100
AcDbEntity
  8
1
 62
     2
100
AcDbTrace
 10
596.6113521826014
 20
566.4739851098791
 30
0.0
 11
594.2764085961817
 21
569.3264620095403
 31
0.0
 12
606.277236960419
 22
576.7680522344742
 32
0.0
 13
606.277236960419
 23
576.7680522344742
 33
0.0
  0
LEADER
  5
3C5
330
1F
100
AcDbEntity
  8
1
  6
Continuous
 62
     2
100
AcDbLeader
  3
Standard
 71
     0
 76
     2
 10
606.277236960419
 20
576.7680522344742
 30
0.0
 10
602.4071808982071
 20
573.6001518800068
 30
0.0
  0
SOLID
  5
3C6
330
1F
100
AcDbEntity
  8
1
 62
     2
100
AcDbTrace
 10
259.8553058572327
 20
690.3917558600474
 30
0.0
 11
258.6778225179093
 21
686.8986026998668
 31
0.0
 12
245.9999979461609
 22
693.1171162386227
 32
0.0
 13
245.9999979461609
 23
693.1171162386227
 33
0.0
  0
LEADER
  5
3C7
330
1F
100
AcDbEntity
  8
1
  6
Continuous
 62
     2
100
AcDbLeader
  3
Standard
 71
     0
 76
     2
 10
245.9999979461609
 20
693.1171162386227
 30
0.0
 10
249.3465214850995
 20
691.9890592851881
 30
0.0
  0
SOLID
  5
3C8
330
1F
100
AcDbEntity
  8
1
 62
     2
100
AcDbTrace
 10
313.3170999885346
 20
686.9089566159846
 30
0.0
 11
312.1424693113255
 21
690.4030700639172
 31
0.0
 12
325.9999979461609
 22
693.1171162386227
 32
0.0
 13
325.9999979461609
 23
693.1171162386227
 33
0.0
  0
LEADER
  5
3C9
330
1F
100
AcDbEntity
  8
1
  6
Continuous
 62
     2
100
AcDbLeader
  3
Standard
 71
     0
 76
     2
 10
325.9999979461609
 20
693.1171162386227
 30
0.0
 10
322.4668234186624
 20
691.9293542355348
 30
0.0
  0
SOLID
  5
3CA
330
1F
100
AcDbEntity
  8
1
 62
     2
100
AcDbTrace
 10
397.2366341332877
 20
870.9649231360949
 30
0.0
 11
400.4290375399936
 21
869.1217881698713
 31
0.0
 12
391.8328358366405
 22
857.919000000001
 32
0.0
 13
391.8328358366405
 23
857.919000000001
 33
0.0
  0
LEADER
  5
3CB
330
1F
100
AcDbEntity
  8
1
  6
Continuous
 62
     2
100
AcDbLeader
  3
Standard
 71
     0
 76
     3
 10
391.8328358366405
 20
857.919000000001
 30
0.0
 10
419.3037389949521
 20
905.500000000001
 30
0.0
 10
477.9904928592445
 20
905.500000000001
 30
0.0
  0
MTEXT
  5
3CC
330
1F
100
AcDbEntity
  8
1
 62
     7
100
AcDbMText
 10
136.0
 20
122.0
 30
0.0
 40
14.0
 41
0.0
 71
     4
 72
     1
  1
吐水口は回転式(角度制限なし)
  7
CONVERTER_11
 73
     1
 44
0.54545454545455
  0
MTEXT
  5
3CE
330
1F
100
AcDbEntity
  8
1
 62
     7
100
AcDbMText
 10
136.0
 20
150.0
 30
0.0
 40
14.0
 41
0.0
 71
     4
 72
     1
  1
JIS
  7
CONVERTER_12
 73
     1
 44
0.7202881152461
  0
MTEXT
  5
3CF
330
1F
100
AcDbEntity
  8
1
 62
     7
100
AcDbMText
 10
228.0
 20
57.0
 30
0.0
 40
14.0
 41
0.0
 71
     5
 72
     1
  1
K1711-13
  7
CONVERTER_12
 73
     1
 44
0.7202881152461
  0
MTEXT
  5
3D0
330
1F
100
AcDbEntity
  8
1
 62
     7
100
AcDbMText
 10
604.9999992462415
 20
607.4004102138981
 30
0.0
 40
20.0
 41
0.0
 71
     5
 72
     1
  1
吐水
  7
CONVERTER_11
 73
     1
 44
0.54545454545455
  0
MTEXT
  5
3D1
330
1F
100
AcDbEntity
  8
1
 62
     7
100
AcDbMText
 10
543.9999992462413
 20
570.4004102138981
 30
0.0
 40
20.0
 41
0.0
 71
     5
 72
     1
  1
止水
  7
CONVERTER_11
 73
     1
 44
0.54545454545455
  0
MTEXT
  5
3D2
330
1F
100
AcDbEntity
  8
1
 62
     7
100
AcDbMText
 10
330.0000034093421
 20
667.3999984226367
 30
0.0
 40
20.0
 41
0.0
 71
     5
 72
     1
  1
水側
  7
CONVERTER_11
 73
     1
 44
0.54545454545455
  0
MTEXT
  5
3D3
330
1F
100
AcDbEntity
  8
1
 62
     7
100
AcDbMText
 10
241.9999936186605
 20
667.3999984226367
 30
0.0
 40
20.0
 41
0.0
 71
     5
 72
     1
  1
湯側
  7
CONVERTER_11
 73
     1
 44
0.54545454545455
  0
MTEXT
  5
3D4
330
1F
100
AcDbEntity
  8
1
 62
     7
100
AcDbMText
 10
228.0
 20
91.00000000000004
 30
0.0
 40
14.0
 41
0.0
 71
     5
 72
     1
  1
シングル混合栓
  7
CONVERTER_11
 73
     1
 44
0.54545454545455
  0
MTEXT
  5
3D5
330
1F
100
AcDbEntity
  8
1
 62
     7
100
AcDbMText
 10
452.5819574706345
 20
917.500000000001
 30
0.0
 40
14.0
 41
0.0
 71
     5
 72
     1
  1
PJ1/2
  7
CONVERTER_12
 73
     1
 44
0.7202881152461
  0
MTEXT
  5
3D6
330
1F
100
AcDbEntity
  8
1
 62
     7
100
AcDbMText
 10
341.0
 20
68.0
 30
0.0
 40
14.0
 41
0.0
 71
     5
 72
     1
  1
1
  7
CONVERTER_12
 73
     1
 44
0.7202881152461
  0
MTEXT
  5
3D7
330
1F
100
AcDbEntity
  8
1
 62
     7
100
AcDbMText
 10
375.0
 20
68.0
 30
0.0
 40
14.0
 41
0.0
 71
     5
 72
     1
  1
4
  7
CONVERTER_12
 73
     1
 44
0.7202881152461
  0
MTEXT
  5
3D8
330
1F
100
AcDbEntity
  8
1
 62
     7
100
AcDbMText
 10
610.946241095746
 20
555.885938091152
 30
0.0
 40
14.0
 41
0.0
 71
     5
 72
     1
  1
25{\Fgdt;~}
  7
CONVERTER_12
 73
     1
 44
0.7202881152461
  0
DIMENSION
  5
3E3
330
1F
100
AcDbEntity
  8
1
100
AcDbDimension
  2
*D28
 10
145.0509508533408
 20
466.1387808815326
 30
0.0
 11
156.2388900255639
 21
492.8830694919639
 31
0.0
 70
    32
  1
<>
 71
     5
 42
-1.0
 53
45.00000038079774
  3
ME10_DIM_10
100
AcDbAlignedDimension
 13
226.0000000106998
 23
455.9004109188313
 33
0.0
 14
190.6446609513724
 24
420.5450713895484
 34
0.0
 50
45.00000038079774
100
AcDbRotatedDimension
  0
DIMENSION
  5
3EE
330
1F
100
AcDbEntity
  8
1
100
AcDbDimension
  2
*D29
 10
362.4367871202828
 20
623.0
 30
0.0
 11
324.2183935601414
 21
634.0
 31
0.0
 70
    32
  1
76
 71
     5
 42
-1.0
 53
0.00013888888889
  3
ME10_DIM_11
100
AcDbAlignedDimension
 13
286.0
 23
575.0
 33
0.0
 14
362.4367871202828
 24
705.973577290634
 34
0.0
100
AcDbRotatedDimension
  0
DIMENSION
  5
3F9
330
1F
100
AcDbEntity
  8
1
100
AcDbDimension
  2
*D30
 10
209.5632083610141
 20
623.0
 30
0.0
 11
247.781604180507
 21
634.0
 31
0.0
 70
    32
  1
76
 71
     5
 42
-1.0
 53
0.00013888888889
  3
ME10_DIM_12
100
AcDbAlignedDimension
 13
286.0
 23
575.0
 33
0.0
 14
209.5632083610141
 24
705.973576879608
 34
0.0
100
AcDbRotatedDimension
  0
DIMENSION
  5
404
330
1F
100
AcDbEntity
  8
1
100
AcDbDimension
  2
*D31
 10
573.880155081096
 20
625.091859425356
 30
0.0
 11
625.672992279416
 21
636.091859425356
 31
0.0
 70
    32
  1
100
 71
     5
 42
-1.0
 53
0.00013888888889
  3
ME10_DIM_13
100
AcDbAlignedDimension
 13
673.999999246242
 23
528.516274339528
 33
0.0
 14
573.880155081096
 24
544.5305851381025
 34
0.0
100
AcDbRotatedDimension
  0
DIMENSION
  5
40F
330
1F
100
AcDbEntity
  8
1
100
AcDbDimension
  2
*D32
 10
481.99999924624
 20
455.900410213898
 30
0.0
 11
470.99999924624
 21
504.712494937666
 31
0.0
 70
    32
  1
最小93
 71
     5
 42
-1.0
 53
90.0
  3
ME10_DIM_14
100
AcDbAlignedDimension
 13
575.789981805039
 23
548.4413997037054
 33
0.0
 14
648.499999246241
 24
455.900410213898
 34
0.0
 50
90.0
100
AcDbRotatedDimension
  0
DIMENSION
  5
41A
330
1F
100
AcDbEntity
  8
1
100
AcDbDimension
  2
*D33
 10
441.99999924624
 20
455.900410213898
 30
0.0
 11
430.99999924624
 21
523.467176432368
 31
0.0
 70
    32
  1
最大129
 71
     5
 42
-1.0
 53
90.0
  3
ME10_DIM_15
100
AcDbAlignedDimension
 13
609.061688106228
 23
584.6654516674915
 33
0.0
 14
648.499999246241
 24
455.900410213898
 34
0.0
 50
90.0
100
AcDbRotatedDimension
  0
DIMENSION
  5
425
330
1F
100
AcDbEntity
  8
1
100
AcDbDimension
  2
*D34
 10
495.999999246241
 20
308.900410213899
 30
0.0
 11
595.549962113705
 21
319.900410213899
 31
0.0
 70
    32
  1
<>
 71
     5
 42
-1.0
 53
0.00013888888889
  3
ME10_DIM_16
100
AcDbAlignedDimension
 13
685.999999246241
 23
400.900410213898
 33
0.0
 14
495.999999246241
 24
385.900410213898
 34
0.0
100
AcDbRotatedDimension
  0
DIMENSION
  5
430
330
1F
100
AcDbEntity
  8
1
100
AcDbDimension
  2
*D35
 10
190.6446609513724
 20
937.500000000001
 30
0.0
 11
286.502539749583
 21
948.500000000001
 31
0.0
 70
    32
  1
取付寸法120～220
 71
     5
 42
-1.0
 53
0.00013888888889
  3
ME10_DIM_17
100
AcDbAlignedDimension
 13
381.3553391845096
 23
868.500000000001
 33
0.0
 14
190.6446609513724
 24
868.500000000001
 34
0.0
100
AcDbRotatedDimension
  0
DIMENSION
  5
43B
330
1F
100
AcDbEntity
  8
1
100
AcDbDimension
  2
*D36
 10
226.0000000107
 20
905.500000000001
 30
0.0
 11
282.755202996589
 21
916.500000000001
 31
0.0
 70
    32
  1
<>
 71
     5
 42
-1.0
 53
0.00013888888889
  3
ME10_DIM_18
100
AcDbAlignedDimension
 13
345.999999945848
 23
839.61652990637
 33
0.0
 14
226.0000000107
 24
839.61652990637
 34
0.0
100
AcDbRotatedDimension
  0
DIMENSION
  5
447
330
1F
100
AcDbEntity
  8
1
100
AcDbDimension
  2
*D37
 10
165.6446601915634
 20
905.500000000001
 30
0.0
 11
142.3042129048104
 21
916.500000000001
 31
0.0
 70
    32
  1
<>
 71
     5
 42
-1.0
 53
0.00013888888889
  3
ME10_DIM_19
100
AcDbAlignedDimension
 13
215.6446601915634
 23
851.500000000001
 33
0.0
 14
165.6446601915634
 24
851.500000000001
 34
0.0
100
AcDbRotatedDimension
  0
DIMENSION
  5
454
330
1F
100
AcDbEntity
  8
1
100
AcDbDimension
  2
*D38
 10
673.999999246241
 20
372.900410213899
 30
0.0
 11
714.902239982371
 21
383.900410213899
 31
0.0
 70
    32
  1
<>
 71
     5
 42
-1.0
 53
0.00013888888889
  3
ME10_DIM_20
100
AcDbAlignedDimension
 13
685.999999246241
 23
400.900410213898
 33
0.0
 14
673.999999246241
 24
455.400410213898
 34
0.0
100
AcDbRotatedDimension
  0
DIMENSION
  5
45F
330
1F
100
AcDbEntity
  8
1
100
AcDbDimension
  2
*D39
 10
441.99999924624
 20
388.900410213899
 30
0.0
 11
430.99999924624
 21
423.170401482442
 31
0.0
 70
    32
  1
<>
 71
     5
 42
-1.0
 53
90.0
  3
ME10_DIM_21
100
AcDbAlignedDimension
 13
648.499999246241
 23
455.900410213898
 33
0.0
 14
485.254300658997
 24
388.900410213899
 34
0.0
 50
90.0
100
AcDbRotatedDimension
  0
DIMENSION
  5
46A
330
1F
100
AcDbEntity
  8
1
100
AcDbDimension
  2
*D40
 10
673.999999246241
 20
340.900410213899
 30
0.0
 11
714.288603592301
 21
351.900410213899
 31
0.0
 70
    32
  1
82
 71
     5
 42
-1.0
 53
0.00013888888889
  3
ME10_DIM_22
100
AcDbAlignedDimension
 13
755.4999992462406
 23
395.5450729064876
 33
0.0
 14
673.999999246241
 24
455.400410213898
 34
0.0
100
AcDbRotatedDimension
  0
DIMENSION
  5
477
330
1F
100
AcDbEntity
  8
1
100
AcDbDimension
  2
*D41
 10
363.8816318950535
 20
581.9771039115376
 30
0.0
 11
359.7073274730226
 21
592.1543686939068
 31
0.0
 70
    37
  1
<>
 71
     5
 42
-1.0
  3
ME10_DIM_23
100
AcDb3PointAngularDimension
 13
286.0
 23
575.0
 33
0.0
 14
358.831996202862
 24
697.167999689462
 34
0.0
 15
285.9999999999999
 25
769.9999958923232
 35
0.0
  0
DIMENSION
  5
484
330
1F
100
AcDbEntity
  8
1
100
AcDbDimension
  2
*D42
 10
208.1248113480146
 20
581.9926633840163
 30
0.0
 11
224.2662554215401
 21
587.6698062173463
 31
0.0
 70
    37
  1
<>
 71
     5
 42
-1.0
  3
ME10_DIM_24
100
AcDb3PointAngularDimension
 13
213.167999278434
 23
697.167999278436
 33
0.0
 14
286.0
 24
575.0
 34
0.0
 15
286.0
 25
770.0000000000013
 35
0.0
  0
ENDSEC
  0
SECTION
  2
OBJECTS
  0
DICTIONARY
  5
C
330
0
100
AcDbDictionary
281
     1
  3
ACAD_GROUP
350
D
  3
ACAD_LAYOUT
350
1A
  3
ACAD_MATERIAL
350
3B
  3
ACAD_MLEADERSTYLE
350
487
  3
ACAD_MLINESTYLE
350
17
  3
ACAD_PLOTSETTINGS
350
19
  3
ACAD_PLOTSTYLENAME
350
E
  3
ACAD_VISUALSTYLE
350
2A
  3
AcDbVariableDictionary
350
485
  0
DICTIONARY
  5
D
102
{ACAD_REACTORS
330
C
102
}
330
C
100
AcDbDictionary
281
     1
  0
DICTIONARY
  5
1A
102
{ACAD_REACTORS
330
C
102
}
330
C
100
AcDbDictionary
281
     1
  3
Layout1
350
1E
  3
Layout2
350
26
  3
Model
350
22
  0
DICTIONARY
  5
3B
102
{ACAD_REACTORS
330
C
102
}
330
C
100
AcDbDictionary
281
     1
  3
ByBlock
350
3D
  3
ByLayer
350
3C
  3
Global
350
3E
  0
DICTIONARY
  5
487
102
{ACAD_REACTORS
330
C
102
}
330
C
100
AcDbDictionary
281
     1
  0
DICTIONARY
  5
17
102
{ACAD_REACTORS
330
C
102
}
330
C
100
AcDbDictionary
281
     1
  3
Standard
350
18
  0
DICTIONARY
  5
19
102
{ACAD_REACTORS
330
C
102
}
330
C
100
AcDbDictionary
281
     1
  0
ACDBDICTIONARYWDFLT
  5
E
102
{ACAD_REACTORS
330
C
102
}
330
C
100
AcDbDictionary
281
     1
  3
Normal
350
F
100
AcDbDictionaryWithDefault
340
F
  0
DICTIONARY
  5
2A
102
{ACAD_REACTORS
330
C
102
}
330
C
100
AcDbDictionary
281
     1
  3
2dWireframe
350
2F
  3
3D Hidden
350
31
  3
3dWireframe
350
30
  3
Basic
350
32
  3
Brighten
350
36
  3
ColorChange
350
3A
  3
Conceptual
350
34
  3
Dim
350
35
  3
Facepattern
350
39
  3
Flat
350
2B
  3
FlatWithEdges
350
2C
  3
Gouraud
350
2D
  3
GouraudWithEdges
350
2E
  3
Linepattern
350
38
  3
Realistic
350
33
  3
Thicken
350
37
  0
DICTIONARY
  5
485
102
{ACAD_REACTORS
330
C
102
}
330
C
100
AcDbDictionary
281
     1
  3
DIMASSOC
350
488
  3
HIDETEXT
350
489
  0
LAYOUT
  5
1E
102
{ACAD_REACTORS
330
1A
102
}
330
1A
100
AcDbPlotSettings
  1

  2
none_device
  4

  6

 40
0.0
 41
0.0
 42
0.0
 43
0.0
 44
0.0
 45
0.0
 46
0.0
 47
0.0
 48
0.0
 49
0.0
140
0.0
141
0.0
142
1.0
143
1.0
 70
   688
 72
     0
 73
     0
 74
     5
  7

 75
    16
147
1.0
148
0.0
149
0.0
100
AcDbLayout
  1
Layout1
 70
     1
 71
     1
 10
0.0
 20
0.0
 11
12.0
 21
9.0
 12
0.0
 22
0.0
 32
0.0
 14
1.00000000000000E+20
 24
1.00000000000000E+20
 34
1.00000000000000E+20
 15
-1.00000000000000E+20
 25
-1.00000000000000E+20
 35
-1.00000000000000E+20
146
0.0
 13
0.0
 23
0.0
 33
0.0
 16
1.0
 26
0.0
 36
0.0
 17
0.0
 27
1.0
 37
0.0
 76
     0
330
1B
  0
LAYOUT
  5
26
102
{ACAD_REACTORS
330
1A
102
}
330
1A
100
AcDbPlotSettings
  1

  2
none_device
  4

  6

 40
0.0
 41
0.0
 42
0.0
 43
0.0
 44
0.0
 45
0.0
 46
0.0
 47
0.0
 48
0.0
 49
0.0
140
0.0
141
0.0
142
1.0
143
1.0
 70
   688
 72
     0
 73
     0
 74
     5
  7

 75
    16
147
1.0
148
0.0
149
0.0
100
AcDbLayout
  1
Layout2
 70
     1
 71
     2
 10
0.0
 20
0.0
 11
0.0
 21
0.0
 12
0.0
 22
0.0
 32
0.0
 14
0.0
 24
0.0
 34
0.0
 15
0.0
 25
0.0
 35
0.0
146
0.0
 13
0.0
 23
0.0
 33
0.0
 16
1.0
 26
0.0
 36
0.0
 17
0.0
 27
1.0
 37
0.0
 76
     0
330
23
  0
LAYOUT
  5
22
102
{ACAD_REACTORS
330
1A
102
}
330
1A
100
AcDbPlotSettings
  1

  2
none_device
  4

  6

 40
0.0
 41
0.0
 42
0.0
 43
0.0
 44
0.0
 45
0.0
 46
0.0
 47
0.0
 48
0.0
 49
0.0
140
0.0
141
0.0
142
1.0
143
1.0
 70
  1712
 72
     0
 73
     0
 74
     0
  7

 75
     0
147
1.0
148
0.0
149
0.0
100
AcDbLayout
  1
Model
 70
     1
 71
     0
 10
0.0
 20
0.0
 11
12.0
 21
9.0
 12
0.0
 22
0.0
 32
0.0
 14
0.0
 24
0.0
 34
0.0
 15
840.0
 25
1188.0
 35
0.0
146
0.0
 13
0.0
 23
0.0
 33
0.0
 16
1.0
 26
0.0
 36
0.0
 17
0.0
 27
1.0
 37
0.0
 76
     0
330
1F
331
29
  0
MATERIAL
  5
3D
102
{ACAD_REACTORS
330
3B
102
}
102
{ACAD_XDICTIONARY
360
4AC
102
}
330
3B
100
AcDbMaterial
  1
ByBlock
  0
MATERIAL
  5
3C
102
{ACAD_REACTORS
330
3B
102
}
102
{ACAD_XDICTIONARY
360
4AA
102
}
330
3B
100
AcDbMaterial
  1
ByLayer
  0
MATERIAL
  5
3E
102
{ACAD_REACTORS
330
3B
102
}
102
{ACAD_XDICTIONARY
360
4AE
102
}
330
3B
100
AcDbMaterial
  1
Global
  0
MLINESTYLE
  5
18
102
{ACAD_REACTORS
330
17
102
}
330
17
100
AcDbMlineStyle
  2
Standard
 70
     0
  3

 62
   256
 51
90.0
 52
90.0
 71
     2
 49
0.5
 62
   256
  6
BYLAYER
 49
-0.5
 62
   256
  6
BYLAYER
  0
ACDBPLACEHOLDER
  5
F
102
{ACAD_REACTORS
330
E
102
}
330
E
  0
VISUALSTYLE
  5
2F
102
{ACAD_REACTORS
330
2A
102
}
102
{ACAD_XDICTIONARY
360
492
102
}
330
2A
100
AcDbVisualStyle
  2
2dWireframe
 70
     4
 71
     0
 72
     2
 73
     0
 90
        0
 40
-0.6
 41
-30.0
 62
     5
 63
     7
 74
     1
 91
        4
 64
     7
 65
   257
 75
     1
175
     1
 42
1.0
 92
        0
 66
   257
 43
1.0
 76
     1
 77
     6
 78
     2
 67
     7
 79
     5
170
     0
171
     0
290
     0
174
     0
 93
        1
 44
0.0
173
     0
291
     0
 45
0.0
1001
ACAD
1000
AcDbSavedByObjectVersion
1070
     0
  0
VISUALSTYLE
  5
31
102
{ACAD_REACTORS
330
2A
102
}
102
{ACAD_XDICTIONARY
360
496
102
}
330
2A
100
AcDbVisualStyle
  2
3D Hidden
 70
     6
 71
     1
 72
     2
 73
     2
 90
        0
 40
-0.6
 41
-30.0
 62
     5
 63
     7
 74
     2
 91
        2
 64
     7
 65
   257
 75
     2
175
     1
 42
40.0
 92
        0
 66
   257
 43
1.0
 76
     1
 77
     6
 78
     2
 67
     7
 79
     3
170
     0
171
     0
290
     0
174
     0
 93
        1
 44
0.0
173
     0
291
     0
 45
0.0
1001
ACAD
1000
AcDbSavedByObjectVersion
1070
     0
  0
VISUALSTYLE
  5
30
102
{ACAD_REACTORS
330
2A
102
}
102
{ACAD_XDICTIONARY
360
494
102
}
330
2A
100
AcDbVisualStyle
  2
3dWireframe
 70
     5
 71
     0
 72
     2
 73
     0
 90
        0
 40
-0.6
 41
-30.0
 62
     5
 63
     7
 74
     1
 91
        4
 64
     7
 65
   257
 75
     1
175
     1
 42
1.0
 92
        0
 66
   257
 43
1.0
 76
     1
 77
     6
 78
     2
 67
     7
 79
     5
170
     0
171
     0
290
     0
174
     0
 93
        1
 44
0.0
173
     0
291
     0
 45
0.0
1001
ACAD
1000
AcDbSavedByObjectVersion
1070
     0
  0
VISUALSTYLE
  5
32
102
{ACAD_REACTORS
330
2A
102
}
102
{ACAD_XDICTIONARY
360
498
102
}
330
2A
100
AcDbVisualStyle
  2
Basic
 70
     7
 71
     1
 72
     0
 73
     1
 90
        0
 40
-0.6
 41
-30.0
 62
     5
 63
     7
 74
     0
 91
        4
 64
     7
 65
   257
 75
     1
175
     1
 42
1.0
 92
        8
 66
     7
 43
1.0
 76
     1
 77
     6
 78
     2
 67
     7
 79
     5
170
     0
171
     0
290
     0
174
     0
 93
        1
 44
0.0
173
     0
291
     1
 45
0.0
1001
ACAD
1000
AcDbSavedByObjectVersion
1070
     0
  0
VISUALSTYLE
  5
36
102
{ACAD_REACTORS
330
2A
102
}
102
{ACAD_XDICTIONARY
360
4A0
102
}
330
2A
100
AcDbVisualStyle
  2
Brighten
 70
    12
 71
     2
 72
     2
 73
     0
 90
        0
 40
-0.6
 41
-30.0
 62
     5
 63
     7
 74
     1
 91
        4
 64
     7
 65
   257
 75
     1
175
     1
 42
1.0
 92
        8
 66
     7
 43
1.0
 76
     1
 77
     6
 78
     2
 67
     7
 79
     5
170
     0
171
     0
290
     0
174
     0
 93
        1
 44
50.0
173
     0
291
     1
 45
0.0
1001
ACAD
1000
AcDbSavedByObjectVersion
1070
     0
  0
VISUALSTYLE
  5
3A
102
{ACAD_REACTORS
330
2A
102
}
102
{ACAD_XDICTIONARY
360
4A8
102
}
330
2A
100
AcDbVisualStyle
  2
ColorChange
 70
    16
 71
     2
 72
     2
 73
     3
 90
        0
 40
-0.6
 41
-30.0
 62
     5
 63
     8
 74
     1
 91
        4
 64
     7
 65
   257
 75
     1
175
     1
 42
1.0
 92
        8
 66
     8
 43
1.0
 76
     1
 77
     6
 78
     2
 67
     7
 79
     5
170
     0
171
     0
290
     0
174
     0
 93
        1
 44
0.0
173
     0
291
     1
 45
0.0
1001
ACAD
1000
AcDbSavedByObjectVersion
1070
     0
  0
VISUALSTYLE
  5
34
102
{ACAD_REACTORS
330
2A
102
}
102
{ACAD_XDICTIONARY
360
49C
102
}
330
2A
100
AcDbVisualStyle
  2
Conceptual
 70
     9
 71
     3
 72
     2
 73
     0
 90
        0
 40
-0.6
 41
-30.0
 62
     5
 63
     7
 74
     2
 91
        2
 64
     7
 65
   257
 75
     1
175
     1
 42
40.0
 92
        8
 66
     7
 43
1.0
 76
     1
 77
     6
 78
     2
 67
     7
 79
     3
170
     0
171
     0
290
     0
174
     0
 93
        1
 44
0.0
173
     0
291
     0
 45
0.0
1001
ACAD
1000
AcDbSavedByObjectVersion
1070
     0
  0
VISUALSTYLE
  5
35
102
{ACAD_REACTORS
330
2A
102
}
102
{ACAD_XDICTIONARY
360
49E
102
}
330
2A
100
AcDbVisualStyle
  2
Dim
 70
    11
 71
     2
 72
     2
 73
     0
 90
        0
 40
-0.6
 41
-30.0
 62
     5
 63
     7
 74
     1
 91
        4
 64
     7
 65
   257
 75
     1
175
     1
 42
1.0
 92
        8
 66
     7
 43
1.0
 76
     1
 77
     6
 78
     2
 67
     7
 79
     5
170
     0
171
     0
290
     0
174
     0
 93
        1
 44
-50.0
173
     0
291
     1
 45
0.0
1001
ACAD
1000
AcDbSavedByObjectVersion
1070
     0
  0
VISUALSTYLE
  5
39
102
{ACAD_REACTORS
330
2A
102
}
102
{ACAD_XDICTIONARY
360
4A6
102
}
330
2A
100
AcDbVisualStyle
  2
Facepattern
 70
    15
 71
     2
 72
     2
 73
     0
 90
        0
 40
-0.6
 41
-30.0
 62
     5
 63
     7
 74
     1
 91
        4
 64
     7
 65
   257
 75
     1
175
     1
 42
1.0
 92
        8
 66
     7
 43
1.0
 76
     1
 77
     6
 78
     2
 67
     7
 79
     5
170
     0
171
     0
290
     0
174
     0
 93
        1
 44
0.0
173
     0
291
     1
 45
0.0
1001
ACAD
1000
AcDbSavedByObjectVersion
1070
     0
  0
VISUALSTYLE
  5
2B
102
{ACAD_REACTORS
330
2A
102
}
102
{ACAD_XDICTIONARY
360
48A
102
}
330
2A
100
AcDbVisualStyle
  2
Flat
 70
     0
 71
     2
 72
     1
 73
     1
 90
        2
 40
-0.6
 41
30.0
 62
     5
 63
     7
 74
     0
 91
        4
 64
     7
 65
   257
 75
     1
175
     1
 42
1.0
 92
        8
 66
     7
 43
1.0
 76
     1
 77
     6
 78
     2
 67
     7
 79
     5
170
     0
171
     0
290
     0
174
     0
 93
       13
 44
0.0
173
     0
291
     1
 45
0.0
1001
ACAD
1000
AcDbSavedByObjectVersion
1070
     0
  0
VISUALSTYLE
  5
2C
102
{ACAD_REACTORS
330
2A
102
}
102
{ACAD_XDICTIONARY
360
48C
102
}
330
2A
100
AcDbVisualStyle
  2
FlatWithEdges
 70
     1
 71
     2
 72
     1
 73
     1
 90
        2
 40
-0.6
 41
30.0
 62
     5
 63
     7
 74
     1
 91
        4
 64
     7
 65
   257
 75
     1
175
     1
 42
1.0
 92
        0
 66
   257
 43
1.0
 76
     1
 77
     6
 78
     2
 67
     7
 79
     5
170
     0
171
     0
290
     0
174
     0
 93
       13
 44
0.0
173
     0
291
     1
 45
0.0
1001
ACAD
1000
AcDbSavedByObjectVersion
1070
     0
  0
VISUALSTYLE
  5
2D
102
{ACAD_REACTORS
330
2A
102
}
102
{ACAD_XDICTIONARY
360
48E
102
}
330
2A
100
AcDbVisualStyle
  2
Gouraud
 70
     2
 71
     2
 72
     2
 73
     1
 90
        2
 40
-0.6
 41
30.0
 62
     5
 63
     7
 74
     0
 91
        4
 64
     7
 65
   257
 75
     1
175
     1
 42
1.0
 92
        0
 66
     7
 43
1.0
 76
     1
 77
     6
 78
     2
 67
     7
 79
     5
170
     0
171
     0
290
     0
174
     0
 93
       13
 44
0.0
173
     0
291
     1
 45
0.0
1001
ACAD
1000
AcDbSavedByObjectVersion
1070
     0
  0
VISUALSTYLE
  5
2E
102
{ACAD_REACTORS
330
2A
102
}
102
{ACAD_XDICTIONARY
360
490
102
}
330
2A
100
AcDbVisualStyle
  2
GouraudWithEdges
 70
     3
 71
     2
 72
     2
 73
     1
 90
        2
 40
-0.6
 41
30.0
 62
     5
 63
     7
 74
     1
 91
        4
 64
     7
 65
   257
 75
     1
175
     1
 42
1.0
 92
        0
 66
   257
 43
1.0
 76
     1
 77
     6
 78
     2
 67
     7
 79
     5
170
     0
171
     0
290
     0
174
     0
 93
       13
 44
0.0
173
     0
291
     1
 45
0.0
1001
ACAD
1000
AcDbSavedByObjectVersion
1070
     0
  0
VISUALSTYLE
  5
38
102
{ACAD_REACTORS
330
2A
102
}
102
{ACAD_XDICTIONARY
360
4A4
102
}
330
2A
100
AcDbVisualStyle
  2
Linepattern
 70
    14
 71
     2
 72
     2
 73
     0
 90
        0
 40
-0.6
 41
-30.0
 62
     5
 63
     7
 74
     1
 91
        4
 64
     7
 65
   257
 75
     7
175
     7
 42
1.0
 92
        8
 66
     7
 43
1.0
 76
     1
 77
     6
 78
     2
 67
     7
 79
     5
170
     0
171
     0
290
     0
174
     0
 93
        1
 44
0.0
173
     0
291
     1
 45
0.0
1001
ACAD
1000
AcDbSavedByObjectVersion
1070
     0
  0
VISUALSTYLE
  5
33
102
{ACAD_REACTORS
330
2A
102
}
102
{ACAD_XDICTIONARY
360
49A
102
}
330
2A
100
AcDbVisualStyle
  2
Realistic
 70
     8
 71
     2
 72
     2
 73
     0
 90
        0
 40
-0.6
 41
-30.0
 62
     5
 63
     7
 74
     1
 91
        0
 64
     7
 65
   257
 75
     1
175
     1
 42
1.0
 92
        8
 66
     8
 43
1.0
 76
     1
 77
     6
 78
     2
 67
     7
 79
     5
170
     0
171
     0
290
     0
174
     0
 93
       13
 44
0.0
173
     0
291
     0
 45
0.0
1001
ACAD
1000
AcDbSavedByObjectVersion
1070
     0
  0
VISUALSTYLE
  5
37
102
{ACAD_REACTORS
330
2A
102
}
102
{ACAD_XDICTIONARY
360
4A2
102
}
330
2A
100
AcDbVisualStyle
  2
Thicken
 70
    13
 71
     2
 72
     2
 73
     0
 90
        0
 40
-0.6
 41
-30.0
 62
     5
 63
     7
 74
     1
 91
        4
 64
     7
 65
   257
 75
     1
175
     1
 42
1.0
 92
       12
 66
     7
 43
1.0
 76
     1
 77
     6
 78
     2
 67
     7
 79
     5
170
     0
171
     0
290
     0
174
     0
 93
        1
 44
0.0
173
     0
291
     1
 45
0.0
1001
ACAD
1000
AcDbSavedByObjectVersion
1070
     0
  0
DICTIONARYVAR
  5
488
102
{ACAD_REACTORS
330
485
102
}
330
485
100
DictionaryVariables
280
     0
  1
2
  0
DICTIONARYVAR
  5
489
102
{ACAD_REACTORS
330
485
102
}
330
485
100
DictionaryVariables
280
     0
  1
1
  0
DICTIONARY
  5
4AC
330
3D
100
AcDbDictionary
280
     1
281
     1
  3
ACAD_XREC_ROUNDTRIP
360
4AD
  0
DICTIONARY
  5
4AA
330
3C
100
AcDbDictionary
280
     1
281
     1
  3
ACAD_XREC_ROUNDTRIP
360
4AB
  0
DICTIONARY
  5
4AE
330
3E
100
AcDbDictionary
280
     1
281
     1
  3
ACAD_XREC_ROUNDTRIP
360
4AF
  0
DICTIONARY
  5
492
330
2F
100
AcDbDictionary
280
     1
281
     1
  3
ACAD_XREC_ROUNDTRIP
360
493
  0
DICTIONARY
  5
496
330
31
100
AcDbDictionary
280
     1
281
     1
  3
ACAD_XREC_ROUNDTRIP
360
497
  0
DICTIONARY
  5
494
330
30
100
AcDbDictionary
280
     1
281
     1
  3
ACAD_XREC_ROUNDTRIP
360
495
  0
DICTIONARY
  5
498
330
32
100
AcDbDictionary
280
     1
281
     1
  3
ACAD_XREC_ROUNDTRIP
360
499
  0
DICTIONARY
  5
4A0
330
36
100
AcDbDictionary
280
     1
281
     1
  3
ACAD_XREC_ROUNDTRIP
360
4A1
  0
DICTIONARY
  5
4A8
330
3A
100
AcDbDictionary
280
     1
281
     1
  3
ACAD_XREC_ROUNDTRIP
360
4A9
  0
DICTIONARY
  5
49C
330
34
100
AcDbDictionary
280
     1
281
     1
  3
ACAD_XREC_ROUNDTRIP
360
49D
  0
DICTIONARY
  5
49E
330
35
100
AcDbDictionary
280
     1
281
     1
  3
ACAD_XREC_ROUNDTRIP
360
49F
  0
DICTIONARY
  5
4A6
330
39
100
AcDbDictionary
280
     1
281
     1
  3
ACAD_XREC_ROUNDTRIP
360
4A7
  0
DICTIONARY
  5
48A
330
2B
100
AcDbDictionary
280
     1
281
     1
  3
ACAD_XREC_ROUNDTRIP
360
48B
  0
DICTIONARY
  5
48C
330
2C
100
AcDbDictionary
280
     1
281
     1
  3
ACAD_XREC_ROUNDTRIP
360
48D
  0
DICTIONARY
  5
48E
330
2D
100
AcDbDictionary
280
     1
281
     1
  3
ACAD_XREC_ROUNDTRIP
360
48F
  0
DICTIONARY
  5
490
330
2E
100
AcDbDictionary
280
     1
281
     1
  3
ACAD_XREC_ROUNDTRIP
360
491
  0
DICTIONARY
  5
4A4
330
38
100
AcDbDictionary
280
     1
281
     1
  3
ACAD_XREC_ROUNDTRIP
360
4A5
  0
DICTIONARY
  5
49A
330
33
100
AcDbDictionary
280
     1
281
     1
  3
ACAD_XREC_ROUNDTRIP
360
49B
  0
DICTIONARY
  5
4A2
330
37
100
AcDbDictionary
280
     1
281
     1
  3
ACAD_XREC_ROUNDTRIP
360
4A3
  0
XRECORD
  5
4AD
102
{ACAD_REACTORS
330
4AC
102
}
330
4AC
100
AcDbXrecord
280
     1
102
MATERIAL
148
0.0
149
0.0
149
0.0
 93
        0
 94
      127
282
     0
 72
     1
 77
     1
171
     1
175
     1
179
     1
273
     0
  0
XRECORD
  5
4AB
102
{ACAD_REACTORS
330
4AA
102
}
330
4AA
100
AcDbXrecord
280
     1
102
MATERIAL
148
0.0
149
0.0
149
0.0
 93
        0
 94
      127
282
     0
 72
     1
 77
     1
171
     1
175
     1
179
     1
273
     0
  0
XRECORD
  5
4AF
102
{ACAD_REACTORS
330
4AE
102
}
330
4AE
100
AcDbXrecord
280
     1
102
MATERIAL
148
0.0
149
0.0
149
0.0
 93
        0
 94
      127
282
     0
 72
     1
 77
     1
171
     1
175
     1
179
     1
273
     0
  0
XRECORD
  5
493
102
{ACAD_REACTORS
330
492
102
}
330
492
100
AcDbXrecord
280
     1
102
RTVSPropertyOp0
 70
     1
102
RTVSPropertyOp1
 70
     1
102
RTVSPropertyOp2
 70
     1
102
RTVSPropertyOp3
 70
     1
102
RTVSPropertyOp4
 70
     1
102
RTVSPropertyOp5
 70
     1
102
RTVSPropertyOp6
 70
     1
102
RTVSPropertyOp7
 70
     1
102
RTVSPropertyOp8
 70
     1
102
RTVSPropertyOp9
 70
     1
102
RTVSPropertyOp10
 70
     1
102
RTVSPropertyOp11
 70
     1
102
RTVSPropertyOp12
 70
     1
102
RTVSPropertyOp13
 70
     1
102
RTVSPropertyOp14
 70
     1
102
RTVSPropertyOp15
 70
     1
102
RTVSPropertyOp16
 70
     1
102
RTVSPropertyOp17
 70
     1
102
RTVSPropertyOp18
 70
     1
102
RTVSPropertyOp19
 70
     1
102
RTVSPropertyOp20
 70
     1
102
RTVSPropertyOp21
 70
     1
102
RTVSPropertyOp22
 70
     1
102
RTVSPropertyOp23
 70
     1
102
RTVSPropertyOp24
 70
     1
102
RTVSPropertyOp25
 70
     1
102
RTVSPropertyOp26
 70
     1
102
RTVSPropertyOp27
 70
     1
102
RTVSPropertyOp28
 70
     1
102
RTVSPropertyOp29
 70
     1
102
RTVSPropertyOp30
 70
     1
102
RTVSPropertyOp31
 70
     1
102
RTVSPropertyOp32
 70
     1
  0
XRECORD
  5
497
102
{ACAD_REACTORS
330
496
102
}
330
496
100
AcDbXrecord
280
     1
102
RTVSPropertyOp0
 70
     1
102
RTVSPropertyOp1
 70
     1
102
RTVSPropertyOp2
 70
     1
102
RTVSPropertyOp3
 70
     1
102
RTVSPropertyOp4
 70
     1
102
RTVSPropertyOp5
 70
     1
102
RTVSPropertyOp6
 70
     1
102
RTVSPropertyOp7
 70
     1
102
RTVSPropertyOp8
 70
     1
102
RTVSPropertyOp9
 70
     1
102
RTVSPropertyOp10
 70
     1
102
RTVSPropertyOp11
 70
     1
102
RTVSPropertyOp12
 70
     1
102
RTVSPropertyOp13
 70
     1
102
RTVSPropertyOp14
 70
     1
102
RTVSPropertyOp15
 70
     1
102
RTVSPropertyOp16
 70
     1
102
RTVSPropertyOp17
 70
     1
102
RTVSPropertyOp18
 70
     1
102
RTVSPropertyOp19
 70
     1
102
RTVSPropertyOp20
 70
     1
102
RTVSPropertyOp21
 70
     1
102
RTVSPropertyOp22
 70
     1
102
RTVSPropertyOp23
 70
     1
102
RTVSPropertyOp24
 70
     1
102
RTVSPropertyOp25
 70
     1
102
RTVSPropertyOp26
 70
     1
102
RTVSPropertyOp27
 70
     1
102
RTVSPropertyOp28
 70
     1
102
RTVSPropertyOp29
 70
     1
102
RTVSPropertyOp30
 70
     1
102
RTVSPropertyOp31
 70
     1
102
RTVSPropertyOp32
 70
     1
  0
XRECORD
  5
495
102
{ACAD_REACTORS
330
494
102
}
330
494
100
AcDbXrecord
280
     1
102
RTVSPropertyOp0
 70
     1
102
RTVSPropertyOp1
 70
     1
102
RTVSPropertyOp2
 70
     1
102
RTVSPropertyOp3
 70
     1
102
RTVSPropertyOp4
 70
     1
102
RTVSPropertyOp5
 70
     1
102
RTVSPropertyOp6
 70
     1
102
RTVSPropertyOp7
 70
     1
102
RTVSPropertyOp8
 70
     1
102
RTVSPropertyOp9
 70
     1
102
RTVSPropertyOp10
 70
     1
102
RTVSPropertyOp11
 70
     1
102
RTVSPropertyOp12
 70
     1
102
RTVSPropertyOp13
 70
     1
102
RTVSPropertyOp14
 70
     1
102
RTVSPropertyOp15
 70
     1
102
RTVSPropertyOp16
 70
     1
102
RTVSPropertyOp17
 70
     1
102
RTVSPropertyOp18
 70
     1
102
RTVSPropertyOp19
 70
     1
102
RTVSPropertyOp20
 70
     1
102
RTVSPropertyOp21
 70
     1
102
RTVSPropertyOp22
 70
     1
102
RTVSPropertyOp23
 70
     1
102
RTVSPropertyOp24
 70
     1
102
RTVSPropertyOp25
 70
     1
102
RTVSPropertyOp26
 70
     1
102
RTVSPropertyOp27
 70
     1
102
RTVSPropertyOp28
 70
     1
102
RTVSPropertyOp29
 70
     1
102
RTVSPropertyOp30
 70
     1
102
RTVSPropertyOp31
 70
     1
102
RTVSPropertyOp32
 70
     1
  0
XRECORD
  5
499
102
{ACAD_REACTORS
330
498
102
}
330
498
100
AcDbXrecord
280
     1
102
RTVSPropertyOp0
 70
     1
102
RTVSPropertyOp1
 70
     1
102
RTVSPropertyOp2
 70
     1
102
RTVSPropertyOp3
 70
     1
102
RTVSPropertyOp4
 70
     1
102
RTVSPropertyOp5
 70
     1
102
RTVSPropertyOp6
 70
     1
102
RTVSPropertyOp7
 70
     1
102
RTVSPropertyOp8
 70
     1
102
RTVSPropertyOp9
 70
     1
102
RTVSPropertyOp10
 70
     1
102
RTVSPropertyOp11
 70
     1
102
RTVSPropertyOp12
 70
     1
102
RTVSPropertyOp13
 70
     1
102
RTVSPropertyOp14
 70
     1
102
RTVSPropertyOp15
 70
     1
102
RTVSPropertyOp16
 70
     1
102
RTVSPropertyOp17
 70
     1
102
RTVSPropertyOp18
 70
     1
102
RTVSPropertyOp19
 70
     1
102
RTVSPropertyOp20
 70
     1
102
RTVSPropertyOp21
 70
     1
102
RTVSPropertyOp22
 70
     1
102
RTVSPropertyOp23
 70
     1
102
RTVSPropertyOp24
 70
     1
102
RTVSPropertyOp25
 70
     1
102
RTVSPropertyOp26
 70
     1
102
RTVSPropertyOp27
 70
     1
102
RTVSPropertyOp28
 70
     1
102
RTVSPropertyOp29
 70
     1
102
RTVSPropertyOp30
 70
     1
102
RTVSPropertyOp31
 70
     1
102
RTVSPropertyOp32
 70
     1
  0
XRECORD
  5
4A1
102
{ACAD_REACTORS
330
4A0
102
}
330
4A0
100
AcDbXrecord
280
     1
102
RTVSPropertyOp0
 70
     1
102
RTVSPropertyOp1
 70
     1
102
RTVSPropertyOp2
 70
     1
102
RTVSPropertyOp3
 70
     1
102
RTVSPropertyOp4
 70
     1
102
RTVSPropertyOp5
 70
     1
102
RTVSPropertyOp6
 70
     1
102
RTVSPropertyOp7
 70
     1
102
RTVSPropertyOp8
 70
     1
102
RTVSPropertyOp9
 70
     1
102
RTVSPropertyOp10
 70
     1
102
RTVSPropertyOp11
 70
     1
102
RTVSPropertyOp12
 70
     1
102
RTVSPropertyOp13
 70
     1
102
RTVSPropertyOp14
 70
     1
102
RTVSPropertyOp15
 70
     1
102
RTVSPropertyOp16
 70
     1
102
RTVSPropertyOp17
 70
     1
102
RTVSPropertyOp18
 70
     1
102
RTVSPropertyOp19
 70
     1
102
RTVSPropertyOp20
 70
     1
102
RTVSPropertyOp21
 70
     1
102
RTVSPropertyOp22
 70
     1
102
RTVSPropertyOp23
 70
     1
102
RTVSPropertyOp24
 70
     1
102
RTVSPropertyOp25
 70
     1
102
RTVSPropertyOp26
 70
     1
102
RTVSPropertyOp27
 70
     1
102
RTVSPropertyOp28
 70
     1
102
RTVSPropertyOp29
 70
     1
102
RTVSPropertyOp30
 70
     1
102
RTVSPropertyOp31
 70
     1
102
RTVSPropertyOp32
 70
     1
  0
XRECORD
  5
4A9
102
{ACAD_REACTORS
330
4A8
102
}
330
4A8
100
AcDbXrecord
280
     1
102
RTVSPropertyOp0
 70
     1
102
RTVSPropertyOp1
 70
     1
102
RTVSPropertyOp2
 70
     1
102
RTVSPropertyOp3
 70
     1
102
RTVSPropertyOp4
 70
     1
102
RTVSPropertyOp5
 70
     1
102
RTVSPropertyOp6
 70
     1
102
RTVSPropertyOp7
 70
     1
102
RTVSPropertyOp8
 70
     1
102
RTVSPropertyOp9
 70
     1
102
RTVSPropertyOp10
 70
     1
102
RTVSPropertyOp11
 70
     1
102
RTVSPropertyOp12
 70
     1
102
RTVSPropertyOp13
 70
     1
102
RTVSPropertyOp14
 70
     1
102
RTVSPropertyOp15
 70
     1
102
RTVSPropertyOp16
 70
     1
102
RTVSPropertyOp17
 70
     1
102
RTVSPropertyOp18
 70
     1
102
RTVSPropertyOp19
 70
     1
102
RTVSPropertyOp20
 70
     1
102
RTVSPropertyOp21
 70
     1
102
RTVSPropertyOp22
 70
     1
102
RTVSPropertyOp23
 70
     1
102
RTVSPropertyOp24
 70
     1
102
RTVSPropertyOp25
 70
     1
102
RTVSPropertyOp26
 70
     1
102
RTVSPropertyOp27
 70
     1
102
RTVSPropertyOp28
 70
     1
102
RTVSPropertyOp29
 70
     1
102
RTVSPropertyOp30
 70
     1
102
RTVSPropertyOp31
 70
     1
102
RTVSPropertyOp32
 70
     1
  0
XRECORD
  5
49D
102
{ACAD_REACTORS
330
49C
102
}
330
49C
100
AcDbXrecord
280
     1
102
RTVSPropertyOp0
 70
     1
102
RTVSPropertyOp1
 70
     1
102
RTVSPropertyOp2
 70
     1
102
RTVSPropertyOp3
 70
     1
102
RTVSPropertyOp4
 70
     1
102
RTVSPropertyOp5
 70
     1
102
RTVSPropertyOp6
 70
     1
102
RTVSPropertyOp7
 70
     1
102
RTVSPropertyOp8
 70
     1
102
RTVSPropertyOp9
 70
     1
102
RTVSPropertyOp10
 70
     1
102
RTVSPropertyOp11
 70
     1
102
RTVSPropertyOp12
 70
     1
102
RTVSPropertyOp13
 70
     1
102
RTVSPropertyOp14
 70
     1
102
RTVSPropertyOp15
 70
     1
102
RTVSPropertyOp16
 70
     1
102
RTVSPropertyOp17
 70
     1
102
RTVSPropertyOp18
 70
     1
102
RTVSPropertyOp19
 70
     1
102
RTVSPropertyOp20
 70
     1
102
RTVSPropertyOp21
 70
     1
102
RTVSPropertyOp22
 70
     1
102
RTVSPropertyOp23
 70
     1
102
RTVSPropertyOp24
 70
     1
102
RTVSPropertyOp25
 70
     1
102
RTVSPropertyOp26
 70
     1
102
RTVSPropertyOp27
 70
     1
102
RTVSPropertyOp28
 70
     1
102
RTVSPropertyOp29
 70
     1
102
RTVSPropertyOp30
 70
     1
102
RTVSPropertyOp31
 70
     1
102
RTVSPropertyOp32
 70
     1
  0
XRECORD
  5
49F
102
{ACAD_REACTORS
330
49E
102
}
330
49E
100
AcDbXrecord
280
     1
102
RTVSPropertyOp0
 70
     1
102
RTVSPropertyOp1
 70
     1
102
RTVSPropertyOp2
 70
     1
102
RTVSPropertyOp3
 70
     1
102
RTVSPropertyOp4
 70
     1
102
RTVSPropertyOp5
 70
     1
102
RTVSPropertyOp6
 70
     1
102
RTVSPropertyOp7
 70
     1
102
RTVSPropertyOp8
 70
     1
102
RTVSPropertyOp9
 70
     1
102
RTVSPropertyOp10
 70
     1
102
RTVSPropertyOp11
 70
     1
102
RTVSPropertyOp12
 70
     1
102
RTVSPropertyOp13
 70
     1
102
RTVSPropertyOp14
 70
     1
102
RTVSPropertyOp15
 70
     1
102
RTVSPropertyOp16
 70
     1
102
RTVSPropertyOp17
 70
     1
102
RTVSPropertyOp18
 70
     1
102
RTVSPropertyOp19
 70
     1
102
RTVSPropertyOp20
 70
     1
102
RTVSPropertyOp21
 70
     1
102
RTVSPropertyOp22
 70
     1
102
RTVSPropertyOp23
 70
     1
102
RTVSPropertyOp24
 70
     1
102
RTVSPropertyOp25
 70
     1
102
RTVSPropertyOp26
 70
     1
102
RTVSPropertyOp27
 70
     1
102
RTVSPropertyOp28
 70
     1
102
RTVSPropertyOp29
 70
     1
102
RTVSPropertyOp30
 70
     1
102
RTVSPropertyOp31
 70
     1
102
RTVSPropertyOp32
 70
     1
  0
XRECORD
  5
4A7
102
{ACAD_REACTORS
330
4A6
102
}
330
4A6
100
AcDbXrecord
280
     1
102
RTVSPropertyOp0
 70
     1
102
RTVSPropertyOp1
 70
     1
102
RTVSPropertyOp2
 70
     1
102
RTVSPropertyOp3
 70
     1
102
RTVSPropertyOp4
 70
     1
102
RTVSPropertyOp5
 70
     1
102
RTVSPropertyOp6
 70
     1
102
RTVSPropertyOp7
 70
     1
102
RTVSPropertyOp8
 70
     1
102
RTVSPropertyOp9
 70
     1
102
RTVSPropertyOp10
 70
     1
102
RTVSPropertyOp11
 70
     1
102
RTVSPropertyOp12
 70
     1
102
RTVSPropertyOp13
 70
     1
102
RTVSPropertyOp14
 70
     1
102
RTVSPropertyOp15
 70
     1
102
RTVSPropertyOp16
 70
     1
102
RTVSPropertyOp17
 70
     1
102
RTVSPropertyOp18
 70
     1
102
RTVSPropertyOp19
 70
     1
102
RTVSPropertyOp20
 70
     1
102
RTVSPropertyOp21
 70
     1
102
RTVSPropertyOp22
 70
     1
102
RTVSPropertyOp23
 70
     1
102
RTVSPropertyOp24
 70
     1
102
RTVSPropertyOp25
 70
     1
102
RTVSPropertyOp26
 70
     1
102
RTVSPropertyOp27
 70
     1
102
RTVSPropertyOp28
 70
     1
102
RTVSPropertyOp29
 70
     1
102
RTVSPropertyOp30
 70
     1
102
RTVSPropertyOp31
 70
     1
102
RTVSPropertyOp32
 70
     1
  0
XRECORD
  5
48B
102
{ACAD_REACTORS
330
48A
102
}
330
48A
100
AcDbXrecord
280
     1
102
RTVSPropertyOp0
 70
     1
102
RTVSPropertyOp1
 70
     1
102
RTVSPropertyOp2
 70
     1
102
RTVSPropertyOp3
 70
     1
102
RTVSPropertyOp4
 70
     1
102
RTVSPropertyOp5
 70
     1
102
RTVSPropertyOp6
 70
     1
102
RTVSPropertyOp7
 70
     1
102
RTVSPropertyOp8
 70
     1
102
RTVSPropertyOp9
 70
     1
102
RTVSPropertyOp10
 70
     1
102
RTVSPropertyOp11
 70
     1
102
RTVSPropertyOp12
 70
     1
102
RTVSPropertyOp13
 70
     1
102
RTVSPropertyOp14
 70
     1
102
RTVSPropertyOp15
 70
     1
102
RTVSPropertyOp16
 70
     1
102
RTVSPropertyOp17
 70
     1
102
RTVSPropertyOp18
 70
     1
102
RTVSPropertyOp19
 70
     1
102
RTVSPropertyOp20
 70
     1
102
RTVSPropertyOp21
 70
     1
102
RTVSPropertyOp22
 70
     1
102
RTVSPropertyOp23
 70
     1
102
RTVSPropertyOp24
 70
     1
102
RTVSPropertyOp25
 70
     1
102
RTVSPropertyOp26
 70
     1
102
RTVSPropertyOp27
 70
     1
102
RTVSPropertyOp28
 70
     1
102
RTVSPropertyOp29
 70
     1
102
RTVSPropertyOp30
 70
     1
102
RTVSPropertyOp31
 70
     1
102
RTVSPropertyOp32
 70
     1
  0
XRECORD
  5
48D
102
{ACAD_REACTORS
330
48C
102
}
330
48C
100
AcDbXrecord
280
     1
102
RTVSPropertyOp0
 70
     1
102
RTVSPropertyOp1
 70
     1
102
RTVSPropertyOp2
 70
     1
102
RTVSPropertyOp3
 70
     1
102
RTVSPropertyOp4
 70
     1
102
RTVSPropertyOp5
 70
     1
102
RTVSPropertyOp6
 70
     1
102
RTVSPropertyOp7
 70
     1
102
RTVSPropertyOp8
 70
     1
102
RTVSPropertyOp9
 70
     1
102
RTVSPropertyOp10
 70
     1
102
RTVSPropertyOp11
 70
     1
102
RTVSPropertyOp12
 70
     1
102
RTVSPropertyOp13
 70
     1
102
RTVSPropertyOp14
 70
     1
102
RTVSPropertyOp15
 70
     1
102
RTVSPropertyOp16
 70
     1
102
RTVSPropertyOp17
 70
     1
102
RTVSPropertyOp18
 70
     1
102
RTVSPropertyOp19
 70
     1
102
RTVSPropertyOp20
 70
     1
102
RTVSPropertyOp21
 70
     1
102
RTVSPropertyOp22
 70
     1
102
RTVSPropertyOp23
 70
     1
102
RTVSPropertyOp24
 70
     1
102
RTVSPropertyOp25
 70
     1
102
RTVSPropertyOp26
 70
     1
102
RTVSPropertyOp27
 70
     1
102
RTVSPropertyOp28
 70
     1
102
RTVSPropertyOp29
 70
     1
102
RTVSPropertyOp30
 70
     1
102
RTVSPropertyOp31
 70
     1
102
RTVSPropertyOp32
 70
     1
  0
XRECORD
  5
48F
102
{ACAD_REACTORS
330
48E
102
}
330
48E
100
AcDbXrecord
280
     1
102
RTVSPropertyOp0
 70
     1
102
RTVSPropertyOp1
 70
     1
102
RTVSPropertyOp2
 70
     1
102
RTVSPropertyOp3
 70
     1
102
RTVSPropertyOp4
 70
     1
102
RTVSPropertyOp5
 70
     1
102
RTVSPropertyOp6
 70
     1
102
RTVSPropertyOp7
 70
     1
102
RTVSPropertyOp8
 70
     1
102
RTVSPropertyOp9
 70
     1
102
RTVSPropertyOp10
 70
     1
102
RTVSPropertyOp11
 70
     1
102
RTVSPropertyOp12
 70
     1
102
RTVSPropertyOp13
 70
     1
102
RTVSPropertyOp14
 70
     1
102
RTVSPropertyOp15
 70
     1
102
RTVSPropertyOp16
 70
     1
102
RTVSPropertyOp17
 70
     1
102
RTVSPropertyOp18
 70
     1
102
RTVSPropertyOp19
 70
     1
102
RTVSPropertyOp20
 70
     1
102
RTVSPropertyOp21
 70
     1
102
RTVSPropertyOp22
 70
     1
102
RTVSPropertyOp23
 70
     1
102
RTVSPropertyOp24
 70
     1
102
RTVSPropertyOp25
 70
     1
102
RTVSPropertyOp26
 70
     1
102
RTVSPropertyOp27
 70
     1
102
RTVSPropertyOp28
 70
     1
102
RTVSPropertyOp29
 70
     1
102
RTVSPropertyOp30
 70
     1
102
RTVSPropertyOp31
 70
     1
102
RTVSPropertyOp32
 70
     1
  0
XRECORD
  5
491
102
{ACAD_REACTORS
330
490
102
}
330
490
100
AcDbXrecord
280
     1
102
RTVSPropertyOp0
 70
     1
102
RTVSPropertyOp1
 70
     1
102
RTVSPropertyOp2
 70
     1
102
RTVSPropertyOp3
 70
     1
102
RTVSPropertyOp4
 70
     1
102
RTVSPropertyOp5
 70
     1
102
RTVSPropertyOp6
 70
     1
102
RTVSPropertyOp7
 70
     1
102
RTVSPropertyOp8
 70
     1
102
RTVSPropertyOp9
 70
     1
102
RTVSPropertyOp10
 70
     1
102
RTVSPropertyOp11
 70
     1
102
RTVSPropertyOp12
 70
     1
102
RTVSPropertyOp13
 70
     1
102
RTVSPropertyOp14
 70
     1
102
RTVSPropertyOp15
 70
     1
102
RTVSPropertyOp16
 70
     1
102
RTVSPropertyOp17
 70
     1
102
RTVSPropertyOp18
 70
     1
102
RTVSPropertyOp19
 70
     1
102
RTVSPropertyOp20
 70
     1
102
RTVSPropertyOp21
 70
     1
102
RTVSPropertyOp22
 70
     1
102
RTVSPropertyOp23
 70
     1
102
RTVSPropertyOp24
 70
     1
102
RTVSPropertyOp25
 70
     1
102
RTVSPropertyOp26
 70
     1
102
RTVSPropertyOp27
 70
     1
102
RTVSPropertyOp28
 70
     1
102
RTVSPropertyOp29
 70
     1
102
RTVSPropertyOp30
 70
     1
102
RTVSPropertyOp31
 70
     1
102
RTVSPropertyOp32
 70
     1
  0
XRECORD
  5
4A5
102
{ACAD_REACTORS
330
4A4
102
}
330
4A4
100
AcDbXrecord
280
     1
102
RTVSPropertyOp0
 70
     1
102
RTVSPropertyOp1
 70
     1
102
RTVSPropertyOp2
 70
     1
102
RTVSPropertyOp3
 70
     1
102
RTVSPropertyOp4
 70
     1
102
RTVSPropertyOp5
 70
     1
102
RTVSPropertyOp6
 70
     1
102
RTVSPropertyOp7
 70
     1
102
RTVSPropertyOp8
 70
     1
102
RTVSPropertyOp9
 70
     1
102
RTVSPropertyOp10
 70
     1
102
RTVSPropertyOp11
 70
     1
102
RTVSPropertyOp12
 70
     1
102
RTVSPropertyOp13
 70
     1
102
RTVSPropertyOp14
 70
     1
102
RTVSPropertyOp15
 70
     1
102
RTVSPropertyOp16
 70
     1
102
RTVSPropertyOp17
 70
     1
102
RTVSPropertyOp18
 70
     1
102
RTVSPropertyOp19
 70
     1
102
RTVSPropertyOp20
 70
     1
102
RTVSPropertyOp21
 70
     1
102
RTVSPropertyOp22
 70
     1
102
RTVSPropertyOp23
 70
     1
102
RTVSPropertyOp24
 70
     1
102
RTVSPropertyOp25
 70
     1
102
RTVSPropertyOp26
 70
     1
102
RTVSPropertyOp27
 70
     1
102
RTVSPropertyOp28
 70
     1
102
RTVSPropertyOp29
 70
     1
102
RTVSPropertyOp30
 70
     1
102
RTVSPropertyOp31
 70
     1
102
RTVSPropertyOp32
 70
     1
  0
XRECORD
  5
49B
102
{ACAD_REACTORS
330
49A
102
}
330
49A
100
AcDbXrecord
280
     1
102
RTVSPropertyOp0
 70
     1
102
RTVSPropertyOp1
 70
     1
102
RTVSPropertyOp2
 70
     1
102
RTVSPropertyOp3
 70
     1
102
RTVSPropertyOp4
 70
     1
102
RTVSPropertyOp5
 70
     1
102
RTVSPropertyOp6
 70
     1
102
RTVSPropertyOp7
 70
     1
102
RTVSPropertyOp8
 70
     1
102
RTVSPropertyOp9
 70
     1
102
RTVSPropertyOp10
 70
     1
102
RTVSPropertyOp11
 70
     1
102
RTVSPropertyOp12
 70
     1
102
RTVSPropertyOp13
 70
     1
102
RTVSPropertyOp14
 70
     1
102
RTVSPropertyOp15
 70
     1
102
RTVSPropertyOp16
 70
     1
102
RTVSPropertyOp17
 70
     1
102
RTVSPropertyOp18
 70
     1
102
RTVSPropertyOp19
 70
     1
102
RTVSPropertyOp20
 70
     1
102
RTVSPropertyOp21
 70
     1
102
RTVSPropertyOp22
 70
     1
102
RTVSPropertyOp23
 70
     1
102
RTVSPropertyOp24
 70
     1
102
RTVSPropertyOp25
 70
     1
102
RTVSPropertyOp26
 70
     1
102
RTVSPropertyOp27
 70
     1
102
RTVSPropertyOp28
 70
     1
102
RTVSPropertyOp29
 70
     1
102
RTVSPropertyOp30
 70
     1
102
RTVSPropertyOp31
 70
     1
102
RTVSPropertyOp32
 70
     1
  0
XRECORD
  5
4A3
102
{ACAD_REACTORS
330
4A2
102
}
330
4A2
100
AcDbXrecord
280
     1
102
RTVSPropertyOp0
 70
     1
102
RTVSPropertyOp1
 70
     1
102
RTVSPropertyOp2
 70
     1
102
RTVSPropertyOp3
 70
     1
102
RTVSPropertyOp4
 70
     1
102
RTVSPropertyOp5
 70
     1
102
RTVSPropertyOp6
 70
     1
102
RTVSPropertyOp7
 70
     1
102
RTVSPropertyOp8
 70
     1
102
RTVSPropertyOp9
 70
     1
102
RTVSPropertyOp10
 70
     1
102
RTVSPropertyOp11
 70
     1
102
RTVSPropertyOp12
 70
     1
102
RTVSPropertyOp13
 70
     1
102
RTVSPropertyOp14
 70
     1
102
RTVSPropertyOp15
 70
     1
102
RTVSPropertyOp16
 70
     1
102
RTVSPropertyOp17
 70
     1
102
RTVSPropertyOp18
 70
     1
102
RTVSPropertyOp19
 70
     1
102
RTVSPropertyOp20
 70
     1
102
RTVSPropertyOp21
 70
     1
102
RTVSPropertyOp22
 70
     1
102
RTVSPropertyOp23
 70
     1
102
RTVSPropertyOp24
 70
     1
102
RTVSPropertyOp25
 70
     1
102
RTVSPropertyOp26
 70
     1
102
RTVSPropertyOp27
 70
     1
102
RTVSPropertyOp28
 70
     1
102
RTVSPropertyOp29
 70
     1
102
RTVSPropertyOp30
 70
     1
102
RTVSPropertyOp31
 70
     1
102
RTVSPropertyOp32
 70
     1
  0
ENDSEC
  0
EOF
