  0
SECTION
  2
HEADER
  9
$ACADVER
  1
AC1015
  9
$ACADMAINTVER
 70
     6
  9
$DWGCODEPAGE
  3
ANSI_932
  9
$INSBASE
 10
0.0
 20
0.0
 30
0.0
  9
$EXTMIN
 10
0.0
 20
0.0
 30
0.0
  9
$EXTMAX
 10
840.0
 20
1188.0
 30
0.0
  9
$LIMMIN
 10
0.0
 20
0.0
  9
$LIMMAX
 10
12.0
 20
9.0
  9
$ORTHOMODE
 70
     0
  9
$REGENMODE
 70
     1
  9
$FILLMODE
 70
     1
  9
$QTEXTMODE
 70
     0
  9
$MIRRTEXT
 70
     1
  9
$LTSCALE
 40
1.0
  9
$ATTMODE
 70
     1
  9
$TEXTSIZE
 40
0.2
  9
$TRACEWID
 40
0.05
  9
$TEXTSTYLE
  7
Standard
  9
$CLAYER
  8
0
  9
$CELTYPE
  6
ByLayer
  9
$CECOLOR
 62
   256
  9
$CELTSCALE
 40
1.0
  9
$DISPSILH
 70
     0
  9
$DIMSCALE
 40
1.0
  9
$DIMASZ
 40
0.18
  9
$DIMEXO
 40
0.0625
  9
$DIMDLI
 40
0.38
  9
$DIMRND
 40
0.0
  9
$DIMDLE
 40
0.0
  9
$DIMEXE
 40
0.18
  9
$DIMTP
 40
0.0
  9
$DIMTM
 40
0.0
  9
$DIMTXT
 40
0.18
  9
$DIMCEN
 40
0.09
  9
$DIMTSZ
 40
0.0
  9
$DIMTOL
 70
     0
  9
$DIMLIM
 70
     0
  9
$DIMTIH
 70
     1
  9
$DIMTOH
 70
     1
  9
$DIMSE1
 70
     0
  9
$DIMSE2
 70
     0
  9
$DIMTAD
 70
     0
  9
$DIMZIN
 70
     0
  9
$DIMBLK
  1

  9
$DIMASO
 70
     1
  9
$DIMSHO
 70
     1
  9
$DIMPOST
  1

  9
$DIMAPOST
  1

  9
$DIMALT
 70
     0
  9
$DIMALTD
 70
     2
  9
$DIMALTF
 40
25.4
  9
$DIMLFAC
 40
1.0
  9
$DIMTOFL
 70
     0
  9
$DIMTVP
 40
0.0
  9
$DIMTIX
 70
     0
  9
$DIMSOXD
 70
     0
  9
$DIMSAH
 70
     0
  9
$DIMBLK1
  1

  9
$DIMBLK2
  1

  9
$DIMSTYLE
  2
Standard
  9
$DIMCLRD
 70
     0
  9
$DIMCLRE
 70
     0
  9
$DIMCLRT
 70
     0
  9
$DIMTFAC
 40
1.0
  9
$DIMGAP
 40
0.09
  9
$DIMJUST
 70
     0
  9
$DIMSD1
 70
     0
  9
$DIMSD2
 70
     0
  9
$DIMTOLJ
 70
     1
  9
$DIMTZIN
 70
     0
  9
$DIMALTZ
 70
     0
  9
$DIMALTTZ
 70
     0
  9
$DIMUPT
 70
     0
  9
$DIMDEC
 70
     4
  9
$DIMTDEC
 70
     4
  9
$DIMALTU
 70
     2
  9
$DIMALTTD
 70
     2
  9
$DIMTXSTY
  7
Standard
  9
$DIMAUNIT
 70
     0
  9
$DIMADEC
 70
     0
  9
$DIMALTRND
 40
0.0
  9
$DIMAZIN
 70
     0
  9
$DIMDSEP
 70
    46
  9
$DIMATFIT
 70
     3
  9
$DIMFRAC
 70
     0
  9
$DIMLDRBLK
  1

  9
$DIMLUNIT
 70
     2
  9
$DIMLWD
 70
    -2
  9
$DIMLWE
 70
    -2
  9
$DIMTMOVE
 70
     0
  9
$LUNITS
 70
     2
  9
$LUPREC
 70
     4
  9
$SKETCHINC
 40
0.1
  9
$FILLETRAD
 40
0.5
  9
$AUNITS
 70
     0
  9
$AUPREC
 70
     0
  9
$MENU
  1
.
  9
$ELEVATION
 40
0.0
  9
$PELEVATION
 40
0.0
  9
$THICKNESS
 40
0.0
  9
$LIMCHECK
 70
     0
  9
$CHAMFERA
 40
0.5
  9
$CHAMFERB
 40
0.5
  9
$CHAMFERC
 40
1.0
  9
$CHAMFERD
 40
0.0
  9
$SKPOLY
 70
     0
  9
$TDCREATE
 40
2456570.491854062
  9
$TDUCREATE
 40
2456570.116854062
  9
$TDUPDATE
 40
2456570.491855324
  9
$TDUUPDATE
 40
2456570.116855324
  9
$TDINDWG
 40
0.0000000116
  9
$TDUSRTIMER
 40
0.0000000116
  9
$USRTIMER
 70
     1
  9
$ANGBASE
 50
0.0
  9
$ANGDIR
 70
     0
  9
$PDMODE
 70
     0
  9
$PDSIZE
 40
0.0
  9
$PLINEWID
 40
0.0
  9
$SPLFRAME
 70
     0
  9
$SPLINETYPE
 70
     6
  9
$SPLINESEGS
 70
     8
  9
$HANDSEED
  5
4C1
  9
$SURFTAB1
 70
     6
  9
$SURFTAB2
 70
     6
  9
$SURFTYPE
 70
     6
  9
$SURFU
 70
     6
  9
$SURFV
 70
     6
  9
$UCSBASE
  2

  9
$UCSNAME
  2

  9
$UCSORG
 10
0.0
 20
0.0
 30
0.0
  9
$UCSXDIR
 10
1.0
 20
0.0
 30
0.0
  9
$UCSYDIR
 10
0.0
 20
1.0
 30
0.0
  9
$UCSORTHOREF
  2

  9
$UCSORTHOVIEW
 70
     0
  9
$UCSORGTOP
 10
0.0
 20
0.0
 30
0.0
  9
$UCSORGBOTTOM
 10
0.0
 20
0.0
 30
0.0
  9
$UCSORGLEFT
 10
0.0
 20
0.0
 30
0.0
  9
$UCSORGRIGHT
 10
0.0
 20
0.0
 30
0.0
  9
$UCSORGFRONT
 10
0.0
 20
0.0
 30
0.0
  9
$UCSORGBACK
 10
0.0
 20
0.0
 30
0.0
  9
$PUCSBASE
  2

  9
$PUCSNAME
  2

  9
$PUCSORG
 10
0.0
 20
0.0
 30
0.0
  9
$PUCSXDIR
 10
1.0
 20
0.0
 30
0.0
  9
$PUCSYDIR
 10
0.0
 20
1.0
 30
0.0
  9
$PUCSORTHOREF
  2

  9
$PUCSORTHOVIEW
 70
     0
  9
$PUCSORGTOP
 10
0.0
 20
0.0
 30
0.0
  9
$PUCSORGBOTTOM
 10
0.0
 20
0.0
 30
0.0
  9
$PUCSORGLEFT
 10
0.0
 20
0.0
 30
0.0
  9
$PUCSORGRIGHT
 10
0.0
 20
0.0
 30
0.0
  9
$PUCSORGFRONT
 10
0.0
 20
0.0
 30
0.0
  9
$PUCSORGBACK
 10
0.0
 20
0.0
 30
0.0
  9
$USERI1
 70
     0
  9
$USERI2
 70
     0
  9
$USERI3
 70
     0
  9
$USERI4
 70
     0
  9
$USERI5
 70
     0
  9
$USERR1
 40
18.1
  9
$USERR2
 40
0.0
  9
$USERR3
 40
0.0
  9
$USERR4
 40
0.0
  9
$USERR5
 40
0.0
  9
$WORLDVIEW
 70
     1
  9
$SHADEDGE
 70
     3
  9
$SHADEDIF
 70
    70
  9
$TILEMODE
 70
     1
  9
$MAXACTVP
 70
    64
  9
$PINSBASE
 10
0.0
 20
0.0
 30
0.0
  9
$PLIMCHECK
 70
     0
  9
$PEXTMIN
 10
1.00000000000000E+20
 20
1.00000000000000E+20
 30
1.00000000000000E+20
  9
$PEXTMAX
 10
-1.00000000000000E+20
 20
-1.00000000000000E+20
 30
-1.00000000000000E+20
  9
$PLIMMIN
 10
0.0
 20
0.0
  9
$PLIMMAX
 10
12.0
 20
9.0
  9
$UNITMODE
 70
     0
  9
$VISRETAIN
 70
     1
  9
$PLINEGEN
 70
     0
  9
$PSLTSCALE
 70
     1
  9
$TREEDEPTH
 70
  3020
  9
$CMLSTYLE
  2
Standard
  9
$CMLJUST
 70
     0
  9
$CMLSCALE
 40
1.0
  9
$PROXYGRAPHICS
 70
     1
  9
$MEASUREMENT
 70
     1
  9
$CELWEIGHT
370
    -1
  9
$ENDCAPS
280
     0
  9
$JOINSTYLE
280
     0
  9
$LWDISPLAY
290
     0
  9
$INSUNITS
 70
     4
  9
$HYPERLINKBASE
  1

  9
$STYLESHEET
  1

  9
$XEDIT
290
     1
  9
$CEPSNTYPE
380
     0
  9
$PSTYLEMODE
290
     1
  9
$FINGERPRINTGUID
  2
{DE4CC62D-F5A5-45AA-9A6E-23D7B6523576}
  9
$VERSIONGUID
  2
{FAEB1C32-E019-11D5-929B-00C0DF256EC4}
  9
$EXTNAMES
290
     1
  9
$PSVPSCALE
 40
0.0
  9
$OLESTARTUP
290
     0
  0
ENDSEC
  0
SECTION
  2
CLASSES
  0
CLASS
  1
ACDBDICTIONARYWDFLT
  2
AcDbDictionaryWithDefault
  3
ObjectDBX Classes
 90
        0
280
     0
281
     0
  0
CLASS
  1
VISUALSTYLE
  2
AcDbVisualStyle
  3
ObjectDBX Classes
 90
     4095
280
     0
281
     0
  0
CLASS
  1
MATERIAL
  2
AcDbMaterial
  3
ObjectDBX Classes
 90
     1153
280
     0
281
     0
  0
CLASS
  1
DICTIONARYVAR
  2
AcDbDictionaryVar
  3
ObjectDBX Classes
 90
        0
280
     0
281
     0
  0
CLASS
  1
ACDBPLACEHOLDER
  2
AcDbPlaceHolder
  3
ObjectDBX Classes
 90
        0
280
     0
281
     0
  0
CLASS
  1
LAYOUT
  2
AcDbLayout
  3
ObjectDBX Classes
 90
        0
280
     0
281
     0
  0
ENDSEC
  0
SECTION
  2
TABLES
  0
TABLE
  2
VPORT
  5
8
330
0
100
AcDbSymbolTable
 70
     1
  0
VPORT
  5
29
330
8
100
AcDbSymbolTableRecord
100
AcDbViewportTableRecord
  2
*Active
 70
     0
 10
0.0
 20
0.0
 11
1.0
 21
1.0
 12
420.0
 22
594.0
 13
0.0
 23
0.0
 14
0.5
 24
0.5
 15
0.5
 25
0.5
 16
0.0
 26
0.0
 36
1.0
 17
0.0
 27
0.0
 37
0.0
 40
1306.8
 41
1.60267857142857
 42
50.0
 43
0.0
 44
0.0
 50
0.0
 51
0.0
 71
     0
 72
   100
 73
     1
 74
     3
 75
     0
 76
     0
 77
     0
 78
     0
281
     0
 65
     1
110
0.0
120
0.0
130
0.0
111
1.0
121
0.0
131
0.0
112
0.0
122
1.0
132
0.0
 79
     0
146
0.0
  0
ENDTAB
  0
TABLE
  2
LTYPE
  5
5
330
0
100
AcDbSymbolTable
 70
     8
  0
LTYPE
  5
14
330
5
100
AcDbSymbolTableRecord
100
AcDbLinetypeTableRecord
  2
ByBlock
 70
     0
  3

 72
    65
 73
     0
 40
0.0
  0
LTYPE
  5
15
330
5
100
AcDbSymbolTableRecord
100
AcDbLinetypeTableRecord
  2
ByLayer
 70
     0
  3

 72
    65
 73
     0
 40
0.0
  0
LTYPE
  5
16
330
5
100
AcDbSymbolTableRecord
100
AcDbLinetypeTableRecord
  2
Continuous
 70
     0
  3
Solid line
 72
    65
 73
     0
 40
0.0
  0
LTYPE
  5
3F
330
5
100
AcDbSymbolTableRecord
100
AcDbLinetypeTableRecord
  2
DASHED
 70
     0
  3
Dashed
 72
    65
 73
     2
 40
15.0
 49
7.0
 74
     0
 49
-8.0
 74
     0
  0
LTYPE
  5
40
330
5
100
AcDbSymbolTableRecord
100
AcDbLinetypeTableRecord
  2
DOTTED
 70
     0
  3
Dotted
 72
    65
 73
     2
 40
1.0
 49
0.0
 74
     0
 49
-1.0
 74
     0
  0
LTYPE
  5
41
330
5
100
AcDbSymbolTableRecord
100
AcDbLinetypeTableRecord
  2
DOT_CENTER
 70
     0
  3
Dot_Center
 72
    65
 73
     4
 40
14.0
 49
12.0
 74
     0
 49
-1.0
 74
     0
 49
0.0
 74
     0
 49
-1.0
 74
     0
  0
LTYPE
  5
42
330
5
100
AcDbSymbolTableRecord
100
AcDbLinetypeTableRecord
  2
LONG_DASHED
 70
     0
  3
Long_Dashed
 72
    65
 73
     2
 40
15.0
 49
10.0
 74
     0
 49
-5.0
 74
     0
  0
LTYPE
  5
43
330
5
100
AcDbSymbolTableRecord
100
AcDbLinetypeTableRecord
  2
DASH_CENTER
 70
     0
  3
Dash_Center
 72
    65
 73
     4
 40
14.0
 49
11.0
 74
     0
 49
-1.0
 74
     0
 49
1.0
 74
     0
 49
-1.0
 74
     0
  0
LTYPE
  5
44
330
5
100
AcDbSymbolTableRecord
100
AcDbLinetypeTableRecord
  2
PHANTOM
 70
     0
  3
Phantom
 72
    65
 73
     6
 40
13.0
 49
10.0
 74
     0
 49
-1.0
 74
     0
 49
0.0
 74
     0
 49
-1.0
 74
     0
 49
0.0
 74
     0
 49
-1.0
 74
     0
  0
LTYPE
  5
45
330
5
100
AcDbSymbolTableRecord
100
AcDbLinetypeTableRecord
  2
CENTER_DASH_DASH
 70
     0
  3
Center_Dash_Dash
 72
    65
 73
     6
 40
14.0
 49
9.0
 74
     0
 49
-1.0
 74
     0
 49
1.0
 74
     0
 49
-1.0
 74
     0
 49
1.0
 74
     0
 49
-1.0
 74
     0
  0
ENDTAB
  0
TABLE
  2
LAYER
  5
2
330
0
100
AcDbSymbolTable
 70
     3
  0
LAYER
  5
10
330
2
100
AcDbSymbolTableRecord
100
AcDbLayerTableRecord
  2
0
 70
     0
 62
     7
  6
Continuous
370
    -3
390
F
  0
LAYER
  5
46
330
2
100
AcDbSymbolTableRecord
100
AcDbLayerTableRecord
  2
1
 70
     0
 62
     7
  6
Continuous
370
    -3
390
F
  0
LAYER
  5
47
330
2
100
AcDbSymbolTableRecord
100
AcDbLayerTableRecord
  2
11
 70
     0
 62
     7
  6
Continuous
370
    -3
390
F
  0
ENDTAB
  0
TABLE
  2
STYLE
  5
3
330
0
100
AcDbSymbolTable
 70
     3
  0
STYLE
  5
11
330
3
100
AcDbSymbolTableRecord
100
AcDbTextStyleTableRecord
  2
Standard
 70
     0
 40
0.0
 41
1.0
 50
0.0
 71
     0
 42
0.2
  3
txt
  4

  0
STYLE
  5
23F
330
3
100
AcDbSymbolTableRecord
100
AcDbTextStyleTableRecord
  2
CONVERTER_11
 70
     0
 40
0.0
 41
0.89
 50
0.0
 71
     0
 42
0.2
  3
MS Mincho.ttf
  4

1001
ACAD
1000
MS Mincho
1071
    32785
  0
STYLE
  5
3DD
330
3
100
AcDbSymbolTableRecord
100
AcDbTextStyleTableRecord
  2
CONVERTER_12
 70
     0
 40
0.0
 41
0.9
 50
0.0
 71
     0
 42
0.2
  3
txt.shx
  4

  0
ENDTAB
  0
TABLE
  2
VIEW
  5
6
330
0
100
AcDbSymbolTable
 70
     0
  0
ENDTAB
  0
TABLE
  2
UCS
  5
7
330
0
100
AcDbSymbolTable
 70
     0
  0
ENDTAB
  0
TABLE
  2
APPID
  5
9
330
0
100
AcDbSymbolTable
 70
     1
  0
APPID
  5
12
330
9
100
AcDbSymbolTableRecord
100
AcDbRegAppTableRecord
  2
ACAD
 70
     0
  0
ENDTAB
  0
TABLE
  2
DIMSTYLE
  5
A
330
0
100
AcDbSymbolTable
 70
    16
100
AcDbDimStyleTable
  0
DIMSTYLE
105
27
330
A
100
AcDbSymbolTableRecord
100
AcDbDimStyleTableRecord
  2
Standard
 70
     0
178
     0
340
11
  0
DIMSTYLE
105
3F3
102
{ACAD_REACTORS
330
3F4
102
}
330
A
100
AcDbSymbolTableRecord
100
AcDbDimStyleTableRecord
  2
ME10_DIM_10
 70
     0
  3
最小<>
 41
14.0
 42
0.0
 44
4.0
 73
     0
 74
     0
 77
     1
 78
     8
140
14.0
147
4.0
172
     1
173
     1
174
     1
175
     1
176
     2
177
     2
271
     2
178
     7
271
     2
340
23F
  0
DIMSTYLE
105
3FE
102
{ACAD_REACTORS
330
3FF
102
}
330
A
100
AcDbSymbolTableRecord
100
AcDbDimStyleTableRecord
  2
ME10_DIM_11
 70
     0
  3
最大<>
 41
14.0
 42
0.0
 44
4.0
 73
     0
 74
     0
 77
     1
 78
     8
140
14.0
147
4.0
172
     1
173
     1
174
     1
175
     1
176
     2
177
     2
271
     2
178
     7
271
     2
340
23F
  0
DIMSTYLE
105
40B
102
{ACAD_REACTORS
330
40C
102
}
330
A
100
AcDbSymbolTableRecord
100
AcDbDimStyleTableRecord
  2
ME10_DIM_12
 70
     0
 41
14.0
 42
0.0
 44
4.0
 73
     0
 74
     0
 77
     1
 78
     8
140
14.0
147
4.0
172
     1
173
     1
174
     1
175
     1
176
     2
177
     2
271
     2
178
     7
271
     2
340
3DD
  0
DIMSTYLE
105
416
102
{ACAD_REACTORS
330
417
102
}
330
A
100
AcDbSymbolTableRecord
100
AcDbDimStyleTableRecord
  2
ME10_DIM_13
 70
     0
 41
14.0
 42
0.0
 44
4.0
 73
     0
 74
     0
 77
     1
 78
     8
140
14.0
147
4.0
172
     1
173
     1
174
     1
175
     1
176
     2
177
     2
271
     2
178
     7
271
     2
340
3DD
  0
DIMSTYLE
105
421
102
{ACAD_REACTORS
330
422
102
}
330
A
100
AcDbSymbolTableRecord
100
AcDbDimStyleTableRecord
  2
ME10_DIM_14
 70
     0
 41
14.0
 42
0.0
 44
4.0
 73
     0
 74
     0
 77
     1
 78
     8
140
14.0
147
4.0
172
     1
173
     1
174
     1
175
     1
176
     2
177
     2
271
     2
178
     7
271
     2
340
3DD
  0
DIMSTYLE
105
42C
102
{ACAD_REACTORS
330
42D
102
}
330
A
100
AcDbSymbolTableRecord
100
AcDbDimStyleTableRecord
  2
ME10_DIM_15
 70
     0
 41
14.0
 42
0.0
 44
4.0
 73
     0
 74
     0
 77
     1
 78
     8
140
14.0
147
4.0
172
     1
173
     1
174
     1
175
     1
176
     2
177
     2
271
     2
178
     7
271
     2
340
3DD
  0
DIMSTYLE
105
437
102
{ACAD_REACTORS
330
438
102
}
330
A
100
AcDbSymbolTableRecord
100
AcDbDimStyleTableRecord
  2
ME10_DIM_16
 70
     0
  3
取付寸法<>
 41
14.0
 42
0.0
 44
4.0
 73
     0
 74
     0
 77
     1
 78
     8
140
14.0
147
4.0
172
     1
173
     1
174
     1
175
     1
176
     2
177
     2
271
     2
178
     7
271
     2
340
23F
  0
DIMSTYLE
105
443
102
{ACAD_REACTORS
330
444
102
}
330
A
100
AcDbSymbolTableRecord
100
AcDbDimStyleTableRecord
  2
ME10_DIM_17
 70
     0
  3
{\Fgdt;n}<>
 41
14.0
 42
0.0
 44
4.0
 73
     0
 74
     0
 77
     1
 78
     8
140
14.0
147
4.0
172
     1
173
     1
174
     1
175
     1
176
     2
177
     2
271
     2
178
     7
271
     2
340
3DD
  0
DIMSTYLE
105
44E
102
{ACAD_REACTORS
330
44F
102
}
330
A
100
AcDbSymbolTableRecord
100
AcDbDimStyleTableRecord
  2
ME10_DIM_18
 70
     0
 41
14.0
 42
0.0
 44
4.0
 73
     0
 74
     0
 77
     1
 78
     8
140
14.0
147
4.0
172
     1
173
     1
174
     1
175
     1
176
     2
177
     2
271
     2
178
     7
271
     2
340
3DD
  0
DIMSTYLE
105
459
102
{ACAD_REACTORS
330
45A
102
}
330
A
100
AcDbSymbolTableRecord
100
AcDbDimStyleTableRecord
  2
ME10_DIM_19
 70
     0
 41
14.0
 42
0.0
 44
4.0
 73
     0
 74
     0
 77
     1
 78
     8
140
14.0
147
4.0
172
     1
173
     1
174
     1
175
     1
176
     2
177
     2
271
     2
178
     7
271
     2
340
3DD
  0
DIMSTYLE
105
464
102
{ACAD_REACTORS
330
465
102
}
330
A
100
AcDbSymbolTableRecord
100
AcDbDimStyleTableRecord
  2
ME10_DIM_20
 70
     0
 41
14.0
 42
0.0
 44
4.0
 73
     0
 74
     0
 77
     1
 78
     8
140
14.0
147
4.0
172
     1
173
     1
174
     1
175
     1
176
     2
177
     2
271
     2
178
     7
271
     2
340
3DD
  0
DIMSTYLE
105
46F
102
{ACAD_REACTORS
330
470
102
}
330
A
100
AcDbSymbolTableRecord
100
AcDbDimStyleTableRecord
  2
ME10_DIM_21
 70
     0
 41
14.0
 42
0.0
 44
4.0
 73
     0
 74
     0
 77
     1
 78
     8
140
14.0
147
4.0
172
     1
173
     1
174
     1
175
     1
176
     2
177
     2
271
     2
178
     7
271
     2
340
3DD
  0
DIMSTYLE
105
47A
102
{ACAD_REACTORS
330
47B
102
}
330
A
100
AcDbSymbolTableRecord
100
AcDbDimStyleTableRecord
  2
ME10_DIM_22
 70
     0
 41
14.0
 42
0.0
 44
4.0
 73
     0
 74
     0
 77
     1
 78
     8
140
14.0
147
4.0
172
     1
173
     1
174
     1
175
     1
176
     2
177
     2
271
     2
178
     7
271
     2
340
3DD
  0
DIMSTYLE
105
487
102
{ACAD_REACTORS
330
488
102
}
330
A
100
AcDbSymbolTableRecord
100
AcDbDimStyleTableRecord
  2
ME10_DIM_23
 70
     0
 41
14.0
 42
0.0
 44
4.0
 73
     0
 74
     0
 77
     1
 78
     8
140
14.0
147
4.0
172
     1
173
     1
174
     1
175
     1
176
     2
177
     2
271
     2
178
     7
271
     2
340
3DD
  0
DIMSTYLE
105
494
102
{ACAD_REACTORS
330
495
102
}
330
A
100
AcDbSymbolTableRecord
100
AcDbDimStyleTableRecord
  2
ME10_DIM_24
 70
     0
 41
14.0
 42
0.0
 44
4.0
 73
     0
 74
     0
 77
     1
 78
     8
140
14.0
147
4.0
172
     1
173
     1
174
     1
175
     1
176
     2
177
     2
271
     2
178
     7
271
     2
340
3DD
  0
ENDTAB
  0
TABLE
  2
BLOCK_RECORD
  5
1
330
0
100
AcDbSymbolTable
 70
    44
  0
BLOCK_RECORD
  5
1F
330
1
100
AcDbSymbolTableRecord
100
AcDbBlockTableRecord
  2
*Model_Space
340
22
  0
BLOCK_RECORD
  5
1B
330
1
100
AcDbSymbolTableRecord
100
AcDbBlockTableRecord
  2
*Paper_Space
340
1E
  0
BLOCK_RECORD
  5
23
330
1
100
AcDbSymbolTableRecord
100
AcDbBlockTableRecord
  2
*Paper_Space0
340
26
  0
BLOCK_RECORD
  5
48
330
1
100
AcDbSymbolTableRecord
100
AcDbBlockTableRecord
  2
36-99K__1
340
0
102
{BLKREFS
331
52
102
}
  0
BLOCK_RECORD
  5
4B
330
1
100
AcDbSymbolTableRecord
100
AcDbBlockTableRecord
  2
78-78K__2
340
0
102
{BLKREFS
331
53
102
}
  0
BLOCK_RECORD
  5
4E
330
1
100
AcDbSymbolTableRecord
100
AcDbBlockTableRecord
  2
30-108K__3
340
0
102
{BLKREFS
331
54
102
}
  0
BLOCK_RECORD
  5
51
330
1
100
AcDbSymbolTableRecord
100
AcDbBlockTableRecord
  2
30-108XK__4
340
0
102
{BLKREFS
331
64
102
}
  0
BLOCK_RECORD
  5
57
330
1
100
AcDbSymbolTableRecord
100
AcDbBlockTableRecord
  2
35-6A-8-C2K__5
340
0
102
{BLKREFS
331
65
102
}
  0
BLOCK_RECORD
  5
5A
330
1
100
AcDbSymbolTableRecord
100
AcDbBlockTableRecord
  2
32-3-M1K__6
340
0
102
{BLKREFS
331
66
102
}
  0
BLOCK_RECORD
  5
5D
330
1
100
AcDbSymbolTableRecord
100
AcDbBlockTableRecord
  2
03-47-50-M1K__7
340
0
102
{BLKREFS
331
67
102
}
  0
BLOCK_RECORD
  5
60
330
1
100
AcDbSymbolTableRecord
100
AcDbBlockTableRecord
  2
78-3A-C4K__8
340
0
102
{BLKREFS
331
68
102
}
  0
BLOCK_RECORD
  5
63
330
1
100
AcDbSymbolTableRecord
100
AcDbBlockTableRecord
  2
U3-48F-50__9
340
0
102
{BLKREFS
331
B0
102
}
  0
BLOCK_RECORD
  5
6B
330
1
100
AcDbSymbolTableRecord
100
AcDbBlockTableRecord
  2
32-1-16-M2K
340
0
102
{BLKREFS
331
78
102
}
  0
BLOCK_RECORD
  5
6E
330
1
100
AcDbSymbolTableRecord
100
AcDbBlockTableRecord
  2
84-26BK
340
0
102
{BLKREFS
331
79
102
}
  0
BLOCK_RECORD
  5
71
330
1
100
AcDbSymbolTableRecord
100
AcDbBlockTableRecord
  2
87-76BK
340
0
102
{BLKREFS
331
7A
102
}
  0
BLOCK_RECORD
  5
74
330
1
100
AcDbSymbolTableRecord
100
AcDbBlockTableRecord
  2
60-7-190-M2K
340
0
102
{BLKREFS
331
7B
102
}
  0
BLOCK_RECORD
  5
77
330
1
100
AcDbSymbolTableRecord
100
AcDbBlockTableRecord
  2
60-7X2-190-LHLH
340
0
102
{BLKREFS
331
B1
102
}
  0
BLOCK_RECORD
  5
7E
330
1
100
AcDbSymbolTableRecord
100
AcDbBlockTableRecord
  2
開示A4
340
0
102
{BLKREFS
331
B2
102
}
  0
BLOCK_RECORD
  5
81
330
1
100
AcDbSymbolTableRecord
100
AcDbBlockTableRecord
  2
K1711-0-M1
340
0
102
{BLKREFS
331
B3
102
}
  0
BLOCK_RECORD
  5
84
330
1
100
AcDbSymbolTableRecord
100
AcDbBlockTableRecord
  2
27-14-M1
340
0
102
{BLKREFS
331
B4
102
}
  0
BLOCK_RECORD
  5
87
330
1
100
AcDbSymbolTableRecord
100
AcDbBlockTableRecord
  2
37-379-M11
340
0
102
{BLKREFS
331
B5
102
}
  0
BLOCK_RECORD
  5
8A
330
1
100
AcDbSymbolTableRecord
100
AcDbBlockTableRecord
  2
84-293
340
0
102
{BLKREFS
331
B6
102
}
  0
BLOCK_RECORD
  5
8D
330
1
100
AcDbSymbolTableRecord
100
AcDbBlockTableRecord
  2
36-99K__10
340
0
102
{BLKREFS
331
97
102
}
  0
BLOCK_RECORD
  5
90
330
1
100
AcDbSymbolTableRecord
100
AcDbBlockTableRecord
  2
78-78K__11
340
0
102
{BLKREFS
331
98
102
}
  0
BLOCK_RECORD
  5
93
330
1
100
AcDbSymbolTableRecord
100
AcDbBlockTableRecord
  2
30-108K__12
340
0
102
{BLKREFS
331
99
102
}
  0
BLOCK_RECORD
  5
96
330
1
100
AcDbSymbolTableRecord
100
AcDbBlockTableRecord
  2
30-108XK__13
340
0
102
{BLKREFS
331
A9
102
}
  0
BLOCK_RECORD
  5
9C
330
1
100
AcDbSymbolTableRecord
100
AcDbBlockTableRecord
  2
35-6A-8-C2K__14
340
0
102
{BLKREFS
331
AA
102
}
  0
BLOCK_RECORD
  5
9F
330
1
100
AcDbSymbolTableRecord
100
AcDbBlockTableRecord
  2
03-47-50-M1K__15
340
0
102
{BLKREFS
331
AB
102
}
  0
BLOCK_RECORD
  5
A2
330
1
100
AcDbSymbolTableRecord
100
AcDbBlockTableRecord
  2
32-3-M1K__16
340
0
102
{BLKREFS
331
AC
102
}
  0
BLOCK_RECORD
  5
A5
330
1
100
AcDbSymbolTableRecord
100
AcDbBlockTableRecord
  2
78-3A-C4K__17
340
0
102
{BLKREFS
331
AD
102
}
  0
BLOCK_RECORD
  5
A8
330
1
100
AcDbSymbolTableRecord
100
AcDbBlockTableRecord
  2
U3-48F-50__18
340
0
102
{BLKREFS
331
B7
102
}
  0
BLOCK_RECORD
  5
3EA
330
1
100
AcDbSymbolTableRecord
100
AcDbBlockTableRecord
  2
*D29
340
0
  0
BLOCK_RECORD
  5
3F5
330
1
100
AcDbSymbolTableRecord
100
AcDbBlockTableRecord
  2
*D30
340
0
  0
BLOCK_RECORD
  5
400
330
1
100
AcDbSymbolTableRecord
100
AcDbBlockTableRecord
  2
*D31
340
0
  0
BLOCK_RECORD
  5
40D
330
1
100
AcDbSymbolTableRecord
100
AcDbBlockTableRecord
  2
*D32
340
0
  0
BLOCK_RECORD
  5
418
330
1
100
AcDbSymbolTableRecord
100
AcDbBlockTableRecord
  2
*D33
340
0
  0
BLOCK_RECORD
  5
423
330
1
100
AcDbSymbolTableRecord
100
AcDbBlockTableRecord
  2
*D34
340
0
  0
BLOCK_RECORD
  5
42E
330
1
100
AcDbSymbolTableRecord
100
AcDbBlockTableRecord
  2
*D35
340
0
  0
BLOCK_RECORD
  5
439
330
1
100
AcDbSymbolTableRecord
100
AcDbBlockTableRecord
  2
*D36
340
0
  0
BLOCK_RECORD
  5
445
330
1
100
AcDbSymbolTableRecord
100
AcDbBlockTableRecord
  2
*D37
340
0
  0
BLOCK_RECORD
  5
450
330
1
100
AcDbSymbolTableRecord
100
AcDbBlockTableRecord
  2
*D38
340
0
  0
BLOCK_RECORD
  5
45B
330
1
100
AcDbSymbolTableRecord
100
AcDbBlockTableRecord
  2
*D39
340
0
  0
BLOCK_RECORD
  5
466
330
1
100
AcDbSymbolTableRecord
100
AcDbBlockTableRecord
  2
*D40
340
0
  0
BLOCK_RECORD
  5
471
330
1
100
AcDbSymbolTableRecord
100
AcDbBlockTableRecord
  2
*D41
340
0
  0
BLOCK_RECORD
  5
47C
330
1
100
AcDbSymbolTableRecord
100
AcDbBlockTableRecord
  2
*D42
340
0
  0
BLOCK_RECORD
  5
489
330
1
100
AcDbSymbolTableRecord
100
AcDbBlockTableRecord
  2
*D43
340
0
  0
ENDTAB
  0
ENDSEC
  0
SECTION
  2
BLOCKS
  0
BLOCK
  5
20
330
1F
100
AcDbEntity
  8
0
100
AcDbBlockBegin
  2
*Model_Space
 70
     0
 10
0.0
 20
0.0
 30
0.0
  3
*Model_Space
  1

  0
ENDBLK
  5
21
330
1F
100
AcDbEntity
  8
0
100
AcDbBlockEnd
  0
BLOCK
  5
1C
330
1B
100
AcDbEntity
 67
     1
  8
0
100
AcDbBlockBegin
  2
*Paper_Space
 70
     0
 10
0.0
 20
0.0
 30
0.0
  3
*Paper_Space
  1

  0
ENDBLK
  5
1D
330
1B
100
AcDbEntity
 67
     1
  8
0
100
AcDbBlockEnd
  0
BLOCK
  5
24
330
23
100
AcDbEntity
  8
0
100
AcDbBlockBegin
  2
*Paper_Space0
 70
     0
 10
0.0
 20
0.0
 30
0.0
  3
*Paper_Space0
  1

  0
ENDBLK
  5
25
330
23
100
AcDbEntity
  8
0
100
AcDbBlockEnd
  0
BLOCK
  5
49
330
48
100
AcDbEntity
  8
0
100
AcDbBlockBegin
  2
36-99K__1
 70
     0
 10
2057.105339184509
 20
415.4193988707964
 30
0.0
  3
36-99K__1
  1

  0
LINE
  5
B8
330
48
100
AcDbEntity
  8
1
  6
Continuous
 62
     7
100
AcDbLine
 10
385.3332901306765
 20
423.8159098654134
 30
0.0
 11
378.0844971277002
 21
416.5671168624374
 31
0.0
  0
LINE
  5
B9
330
48
100
AcDbEntity
  8
1
  6
Continuous
 62
     7
100
AcDbLine
 10
384.62618334949
 20
424.5230166466
 30
0.0
 11
377.3773903465137
 21
417.2742236436239
 31
0.0
  0
ARC
  5
BA
330
48
100
AcDbEntity
  8
1
  6
Continuous
 62
     7
100
AcDbCircle
 10
381.3553402385951
 20
420.5450667545186
 30
0.0
 40
4.250000000000408
100
AcDbArc
 50
51.75632703058941
 51
218.2436729694121
  0
ARC
  5
BB
330
48
100
AcDbEntity
  8
1
  6
Continuous
 62
     7
100
AcDbCircle
 10
381.3553402385951
 20
420.5450667545186
 30
0.0
 40
4.250000000000424
100
AcDbArc
 50
231.7563270305867
 51
38.24367296941455
  0
ENDBLK
  5
4A
330
48
100
AcDbEntity
  8
0
100
AcDbBlockEnd
  0
BLOCK
  5
4C
330
4B
100
AcDbEntity
  8
0
100
AcDbBlockBegin
  2
78-78K__2
 70
     0
 10
2056.274001755697
 20
415.3950695586186
 30
0.0
  3
78-78K__2
  1

  0
LINE
  5
BC
330
4B
100
AcDbEntity
  8
1
  6
Continuous
 62
     7
100
AcDbLine
 10
386.4366776674081
 20
418.4403159596035
 30
0.0
 11
386.1133198310281
 21
418.5742551609319
 31
0.0
  0
LINE
  5
BD
330
4B
100
AcDbEntity
  8
1
  6
Continuous
 62
     7
100
AcDbLine
 10
383.4600991166039
 20
415.4637374087995
 30
0.0
 11
383.3261599152752
 21
415.7870952451793
 31
0.0
  0
ARC
  5
BE
330
4B
100
AcDbEntity
  8
1
  6
Continuous
 62
     7
100
AcDbCircle
 10
381.3553402385951
 20
420.5450748376122
 30
0.0
 40
5.149999999999928
100
AcDbArc
 50
337.4999999999984
 51
292.4999999999995
  0
ENDBLK
  5
4D
330
4B
100
AcDbEntity
  8
0
100
AcDbBlockEnd
  0
BLOCK
  5
4F
330
4E
100
AcDbEntity
  8
0
100
AcDbBlockBegin
  2
30-108K__3
 70
     0
 10
2883.499999625446
 20
723.2002051069489
 30
0.0
  3
30-108K__3
  1

  0
LINE
  5
BF
330
4E
100
AcDbEntity
  8
1
  6
Continuous
 62
     7
100
AcDbLine
 10
389.8610153344037
 20
804.9999952807067
 30
0.0
 11
390.8610153344037
 21
805.9999952807067
 31
0.0
  0
LINE
  5
C0
330
4E
100
AcDbEntity
  8
1
  6
Continuous
 62
     7
100
AcDbLine
 10
390.8610153344037
 20
818.4999952807067
 30
0.0
 11
390.8610153344037
 21
805.9999952807067
 31
0.0
  0
LINE
  5
C1
330
4E
100
AcDbEntity
  8
1
  6
Continuous
 62
     7
100
AcDbLine
 10
389.8610153344037
 20
804.9999952807067
 30
0.0
 11
372.8610153344037
 21
804.9999952807067
 31
0.0
  0
LINE
  5
C2
330
4E
100
AcDbEntity
  8
1
  6
Continuous
 62
     7
100
AcDbLine
 10
371.8610153344037
 20
805.9999952807067
 30
0.0
 11
372.8610153344037
 21
804.9999952807067
 31
0.0
  0
LINE
  5
C3
330
4E
100
AcDbEntity
  8
1
  6
Continuous
 62
     7
100
AcDbLine
 10
371.8610153344037
 20
805.9999952807067
 30
0.0
 11
371.8610153344037
 21
818.4999952807067
 31
0.0
  0
LINE
  5
C4
330
4E
100
AcDbEntity
  8
0
  6
Continuous
 62
     7
100
AcDbLine
 10
371.8610153344037
 20
805.9999952807067
 30
0.0
 11
390.8610153344037
 21
805.9999952807067
 31
0.0
  0
LINE
  5
C5
330
4E
100
AcDbEntity
  8
1
  6
Continuous
 62
     2
100
AcDbLine
 10
372.0053416807878
 20
806.9999952807067
 30
0.0
 11
372.0053416807878
 21
817.4999952807067
 31
0.0
  0
LINE
  5
C6
330
4E
100
AcDbEntity
  8
1
  6
Continuous
 62
     2
100
AcDbLine
 10
379.7113576465677
 20
806.9999952807067
 30
0.0
 11
379.7113576465677
 21
817.4999952807067
 31
0.0
  0
LINE
  5
C7
330
4E
100
AcDbEntity
  8
1
  6
Continuous
 62
     2
100
AcDbLine
 10
378.1118239728096
 20
806.9999952807067
 30
0.0
 11
378.1118239728096
 21
817.4999952807067
 31
0.0
  0
LINE
  5
C8
330
4E
100
AcDbEntity
  8
1
  6
Continuous
 62
     2
100
AcDbLine
 10
376.6110153344037
 20
806.9999952807067
 30
0.0
 11
376.6110153344037
 21
817.4999952807067
 31
0.0
  0
LINE
  5
C9
330
4E
100
AcDbEntity
  8
1
  6
Continuous
 62
     2
100
AcDbLine
 10
375.2545330423816
 20
806.9999952807067
 30
0.0
 11
375.2545330423816
 21
817.4999952807067
 31
0.0
  0
LINE
  5
CA
330
4E
100
AcDbEntity
  8
1
  6
Continuous
 62
     2
100
AcDbLine
 10
374.0835931247736
 20
806.9999952807067
 30
0.0
 11
374.0835931247736
 21
817.4999952807067
 31
0.0
  0
LINE
  5
CB
330
4E
100
AcDbEntity
  8
1
  6
Continuous
 62
     2
100
AcDbLine
 10
373.1337739984515
 20
806.9999952807067
 30
0.0
 11
373.1337739984515
 21
817.4999952807067
 31
0.0
  0
LINE
  5
CC
330
4E
100
AcDbEntity
  8
1
  6
Continuous
 62
     2
100
AcDbLine
 10
372.4339354369377
 20
806.9999952807067
 30
0.0
 11
372.4339354369377
 21
817.4999952807067
 31
0.0
  0
LINE
  5
CD
330
4E
100
AcDbEntity
  8
1
  6
Continuous
 62
     2
100
AcDbLine
 10
390.7166889880195
 20
817.4999952807067
 30
0.0
 11
390.7166889880195
 21
806.9999952807067
 31
0.0
  0
LINE
  5
CE
330
4E
100
AcDbEntity
  8
1
  6
Continuous
 62
     2
100
AcDbLine
 10
390.2880952318697
 20
817.4999952807067
 30
0.0
 11
390.2880952318697
 21
806.9999952807067
 31
0.0
  0
LINE
  5
CF
330
4E
100
AcDbEntity
  8
1
  6
Continuous
 62
     2
100
AcDbLine
 10
389.5882566703556
 20
817.4999952807067
 30
0.0
 11
389.5882566703556
 21
806.9999952807067
 31
0.0
  0
LINE
  5
D0
330
4E
100
AcDbEntity
  8
1
  6
Continuous
 62
     2
100
AcDbLine
 10
388.6384375440337
 20
817.4999952807067
 30
0.0
 11
388.6384375440337
 21
806.9999952807067
 31
0.0
  0
LINE
  5
D1
330
4E
100
AcDbEntity
  8
1
  6
Continuous
 62
     2
100
AcDbLine
 10
387.4674976264255
 20
817.4999952807067
 30
0.0
 11
387.4674976264255
 21
806.9999952807067
 31
0.0
  0
LINE
  5
D2
330
4E
100
AcDbEntity
  8
1
  6
Continuous
 62
     2
100
AcDbLine
 10
386.1110153344037
 20
817.4999952807067
 30
0.0
 11
386.1110153344037
 21
806.9999952807067
 31
0.0
  0
LINE
  5
D3
330
4E
100
AcDbEntity
  8
1
  6
Continuous
 62
     2
100
AcDbLine
 10
384.6102066959977
 20
817.4999952807067
 30
0.0
 11
384.6102066959977
 21
806.9999952807067
 31
0.0
  0
LINE
  5
D4
330
4E
100
AcDbEntity
  8
1
  6
Continuous
 62
     2
100
AcDbLine
 10
383.0106730222396
 20
817.4999952807067
 30
0.0
 11
383.0106730222396
 21
806.9999952807067
 31
0.0
  0
LINE
  5
D5
330
4E
100
AcDbEntity
  8
1
  6
Continuous
 62
     2
100
AcDbLine
 10
721.500001537773
 20
418.895414162316
 30
0.0
 11
711.000001537773
 21
418.895414162316
 31
0.0
  0
LINE
  5
D6
330
4E
100
AcDbEntity
  8
1
  6
Continuous
 62
     2
100
AcDbLine
 10
721.500001537773
 20
417.295880488558
 30
0.0
 11
711.000001537773
 21
417.295880488558
 31
0.0
  0
LINE
  5
D7
330
4E
100
AcDbEntity
  8
1
  6
Continuous
 62
     2
100
AcDbLine
 10
721.500001537773
 20
415.795071850152
 30
0.0
 11
711.000001537773
 21
415.795071850152
 31
0.0
  0
LINE
  5
D8
330
4E
100
AcDbEntity
  8
1
  6
Continuous
 62
     2
100
AcDbLine
 10
721.500001537773
 20
414.43858955813
 30
0.0
 11
711.000001537773
 21
414.43858955813
 31
0.0
  0
LINE
  5
D9
330
4E
100
AcDbEntity
  8
1
  6
Continuous
 62
     2
100
AcDbLine
 10
721.500001537773
 20
413.267649640521
 30
0.0
 11
711.000001537773
 21
413.267649640521
 31
0.0
  0
LINE
  5
DA
330
4E
100
AcDbEntity
  8
1
  6
Continuous
 62
     2
100
AcDbLine
 10
721.500001537773
 20
412.317830514199
 30
0.0
 11
711.000001537773
 21
412.317830514199
 31
0.0
  0
LINE
  5
DB
330
4E
100
AcDbEntity
  8
1
  6
Continuous
 62
     2
100
AcDbLine
 10
721.500001537773
 20
411.617991952685
 30
0.0
 11
711.000001537773
 21
411.617991952685
 31
0.0
  0
LINE
  5
DC
330
4E
100
AcDbEntity
  8
1
  6
Continuous
 62
     2
100
AcDbLine
 10
721.500001537773
 20
411.189398196535
 30
0.0
 11
711.000001537773
 21
411.189398196535
 31
0.0
  0
LINE
  5
DD
330
4E
100
AcDbEntity
  8
1
  6
Continuous
 62
     2
100
AcDbLine
 10
711.000001537773
 20
429.472151747617
 30
0.0
 11
721.500001537773
 21
429.472151747617
 31
0.0
  0
LINE
  5
DE
330
4E
100
AcDbEntity
  8
1
  6
Continuous
 62
     2
100
AcDbLine
 10
711.000001537773
 20
428.772313186104
 30
0.0
 11
721.500001537773
 21
428.772313186104
 31
0.0
  0
LINE
  5
DF
330
4E
100
AcDbEntity
  8
1
  6
Continuous
 62
     2
100
AcDbLine
 10
711.000001537773
 20
427.822494059782
 30
0.0
 11
721.500001537773
 21
427.822494059782
 31
0.0
  0
LINE
  5
E0
330
4E
100
AcDbEntity
  8
1
  6
Continuous
 62
     2
100
AcDbLine
 10
711.000001537773
 20
426.651554142174
 30
0.0
 11
721.500001537773
 21
426.651554142174
 31
0.0
  0
LINE
  5
E1
330
4E
100
AcDbEntity
  8
1
  6
Continuous
 62
     2
100
AcDbLine
 10
711.000001537773
 20
425.295071850152
 30
0.0
 11
721.500001537773
 21
425.295071850152
 31
0.0
  0
LINE
  5
E2
330
4E
100
AcDbEntity
  8
1
  6
Continuous
 62
     2
100
AcDbLine
 10
711.000001537773
 20
423.794263211745
 30
0.0
 11
721.500001537773
 21
423.794263211745
 31
0.0
  0
LINE
  5
E3
330
4E
100
AcDbEntity
  8
1
  6
Continuous
 62
     2
100
AcDbLine
 10
711.000001537773
 20
422.194729537987
 30
0.0
 11
721.500001537773
 21
422.194729537987
 31
0.0
  0
LINE
  5
E4
330
4E
100
AcDbEntity
  8
1
  6
Continuous
 62
     2
100
AcDbLine
 10
711.000001537773
 20
429.900745503767
 30
0.0
 11
721.500001537773
 21
429.900745503767
 31
0.0
  0
LINE
  5
E5
330
4E
100
AcDbEntity
  8
0
  6
Continuous
 62
     7
100
AcDbLine
 10
710.000001537773
 20
430.045071850152
 30
0.0
 11
710.000001537773
 21
411.045071850152
 31
0.0
  0
LINE
  5
E6
330
4E
100
AcDbEntity
  8
1
  6
Continuous
 62
     7
100
AcDbLine
 10
710.000001537773
 20
430.045071850152
 30
0.0
 11
721.8805626738679
 21
430.045071850152
 31
0.0
  0
LINE
  5
E7
330
4E
100
AcDbEntity
  8
1
  6
Continuous
 62
     7
100
AcDbLine
 10
710.000001537773
 20
430.045071850152
 30
0.0
 11
709.000001537773
 21
429.045071850152
 31
0.0
  0
LINE
  5
E8
330
4E
100
AcDbEntity
  8
1
  6
Continuous
 62
     7
100
AcDbLine
 10
709.000001537773
 20
412.045071850152
 30
0.0
 11
709.000001537773
 21
429.045071850152
 31
0.0
  0
LINE
  5
E9
330
4E
100
AcDbEntity
  8
1
  6
Continuous
 62
     7
100
AcDbLine
 10
722.500001537773
 20
411.045071850152
 30
0.0
 11
710.000001537773
 21
411.045071850152
 31
0.0
  0
LINE
  5
EA
330
4E
100
AcDbEntity
  8
1
  6
Continuous
 62
     7
100
AcDbLine
 10
709.000001537773
 20
412.045071850152
 30
0.0
 11
710.000001537773
 21
411.045071850152
 31
0.0
  0
LINE
  5
EB
330
4E
100
AcDbEntity
  8
1
  6
Continuous
 62
     7
100
AcDbLine
 10
721.8805626738679
 20
430.045071850152
 30
0.0
 11
722.500001537773
 21
430.045071850152
 31
0.0
  0
CIRCLE
  5
EC
330
4E
100
AcDbEntity
  8
1
  6
Continuous
 62
     7
100
AcDbCircle
 10
381.355341476042
 20
420.5450718501509
 30
0.0
 40
9.5
  0
CIRCLE
  5
ED
330
4E
100
AcDbEntity
  8
1
  6
Continuous
 62
     7
100
AcDbCircle
 10
381.355341476042
 20
420.5450718501509
 30
0.0
 40
8.5
  0
CIRCLE
  5
EE
330
4E
100
AcDbEntity
  8
1
  6
Continuous
 62
     7
100
AcDbCircle
 10
381.355341476042
 20
420.5450718501509
 30
0.0
 40
5.5
  0
ENDBLK
  5
50
330
4E
100
AcDbEntity
  8
0
100
AcDbBlockEnd
  0
BLOCK
  5
55
330
51
100
AcDbEntity
  8
0
100
AcDbBlockBegin
  2
30-108XK__4
 70
     0
 10
2051.85533918451
 20
411.0450695586184
 30
0.0
  3
30-108XK__4
  1

  0
INSERT
  5
52
330
51
100
AcDbEntity
  8
1
100
AcDbBlockReference
  2
36-99K__1
 10
2057.105339184509
 20
415.4193988707964
 30
0.0
  0
INSERT
  5
53
330
51
100
AcDbEntity
  8
1
100
AcDbBlockReference
  2
78-78K__2
 10
2056.274001755697
 20
415.3950695586186
 30
0.0
  0
INSERT
  5
54
330
51
100
AcDbEntity
  8
0
100
AcDbBlockReference
  2
30-108K__3
 10
2883.499999625446
 20
723.2002051069489
 30
0.0
  0
ENDBLK
  5
56
330
51
100
AcDbEntity
  8
0
100
AcDbBlockEnd
  0
BLOCK
  5
58
330
57
100
AcDbEntity
  8
0
100
AcDbBlockBegin
  2
35-6A-8-C2K__5
 70
     0
 10
2017.599996641432
 20
447.5004121016971
 30
0.0
  3
35-6A-8-C2K__5
  1

  0
LINE
  5
EF
330
57
100
AcDbEntity
  8
1
  6
Continuous
 62
     7
100
AcDbLine
 10
354.3999966023341
 20
818.4999952807068
 30
0.0
 11
354.3999966023341
 21
817.8805564168018
 31
0.0
  0
LINE
  5
F0
330
57
100
AcDbEntity
  8
1
  6
Continuous
 62
     7
100
AcDbLine
 10
337.5999966023351
 20
817.8805564168018
 30
0.0
 11
337.5999966023351
 21
818.4999952807068
 31
0.0
  0
LINE
  5
F1
330
57
100
AcDbEntity
  8
1
  6
Continuous
 62
     7
100
AcDbLine
 10
721.8805626738681
 20
464.3004098101637
 30
0.0
 11
722.500001537773
 21
464.3004098101637
 31
0.0
  0
LINE
  5
F2
330
57
100
AcDbEntity
  8
1
  6
Continuous
 62
     7
100
AcDbLine
 10
722.500001537773
 20
447.5004098101647
 30
0.0
 11
721.8805626738681
 21
447.5004098101647
 31
0.0
  0
ENDBLK
  5
59
330
57
100
AcDbEntity
  8
0
100
AcDbBlockEnd
  0
BLOCK
  5
5B
330
5A
100
AcDbEntity
  8
0
100
AcDbBlockBegin
  2
32-3-M1K__6
 70
     0
 10
2010.999996641431
 20
439.1150614005453
 30
0.0
  3
32-3-M1K__6
  1

  0
LINE
  5
F3
330
5A
100
AcDbEntity
  8
1
  6
Continuous
 62
     7
100
AcDbLine
 10
330.999996602334
 20
805.7292291390728
 30
0.0
 11
330.999996602334
 21
817.0318836945307
 31
0.0
  0
LINE
  5
F4
330
5A
100
AcDbEntity
  8
1
  6
Continuous
 62
     7
100
AcDbLine
 10
331.7433328960001
 20
804.8805564168018
 30
0.0
 11
360.2566603086691
 21
804.8805564168027
 31
0.0
  0
LINE
  5
F5
330
5A
100
AcDbEntity
  8
1
  6
Continuous
 62
     7
100
AcDbLine
 10
360.999996602334
 20
805.7292291390728
 30
0.0
 11
360.999996602334
 21
817.0318836945307
 31
0.0
  0
LINE
  5
F6
330
5A
100
AcDbEntity
  8
1
  6
Continuous
 62
     7
100
AcDbLine
 10
360.2566603086691
 20
817.8805564168018
 30
0.0
 11
331.7433328960001
 21
817.8805564168018
 31
0.0
  0
LINE
  5
F7
330
5A
100
AcDbEntity
  8
1
  6
Continuous
 62
     7
100
AcDbLine
 10
341.9807610464964
 20
470.9004079223656
 30
0.0
 11
344.9553745998014
 21
472.6178018581006
 31
0.0
  0
LINE
  5
F8
330
5A
100
AcDbEntity
  8
1
  6
Continuous
 62
     7
100
AcDbLine
 10
347.0446232661254
 20
472.6178018581006
 30
0.0
 11
359.9553745998014
 21
465.1637761001636
 31
0.0
  0
LINE
  5
F9
330
5A
100
AcDbEntity
  8
1
  6
Continuous
 62
     7
100
AcDbLine
 10
360.9999989329633
 20
463.3544336803035
 30
0.0
 11
360.9999989329644
 21
455.9004079223656
 31
0.0
  0
LINE
  5
FA
330
5A
100
AcDbEntity
  8
1
  6
Continuous
 62
     7
100
AcDbLine
 10
360.9999989329644
 20
455.9004079223656
 30
0.0
 11
360.9999989329633
 21
448.4463821644276
 31
0.0
  0
LINE
  5
FB
330
5A
100
AcDbEntity
  8
1
  6
Continuous
 62
     7
100
AcDbLine
 10
359.9553745998014
 20
446.6370397445676
 30
0.0
 11
347.0446232661254
 21
439.1830139866306
 31
0.0
  0
LINE
  5
FC
330
5A
100
AcDbEntity
  8
1
  6
Continuous
 62
     7
100
AcDbLine
 10
344.9553745998014
 20
439.1830139866306
 30
0.0
 11
341.9807610464964
 21
440.9004079223656
 31
0.0
  0
LINE
  5
FD
330
5A
100
AcDbEntity
  8
1
  6
Continuous
 62
     7
100
AcDbLine
 10
721.880560382337
 20
441.6437465075639
 30
0.0
 11
721.880560382337
 21
470.1570739202319
 31
0.0
  0
LINE
  5
FE
330
5A
100
AcDbEntity
  8
1
  6
Continuous
 62
     7
100
AcDbLine
 10
708.880560382337
 20
441.6437465075639
 30
0.0
 11
708.880560382337
 21
470.1570739202319
 31
0.0
  0
ARC
  5
FF
330
5A
100
AcDbEntity
  8
1
  6
Continuous
 62
     7
100
AcDbCircle
 10
331.7433328960001
 20
817.6805564168018
 30
0.0
 40
0.2000000000000455
100
AcDbArc
 50
90.0
 51
139.994799115114
  0
ARC
  5
100
330
5A
100
AcDbEntity
  8
1
  6
Continuous
 62
     7
100
AcDbCircle
 10
339.249996602334
 20
811.3805564168018
 30
0.0
 40
10.00000000000022
100
AcDbArc
 50
139.9947991151373
 51
145.5884913302294
  0
ARC
  5
101
330
5A
100
AcDbEntity
  8
1
  6
Continuous
 62
     7
100
AcDbCircle
 10
339.249996602334
 20
811.3805564168018
 30
0.0
 40
10.00000000000021
100
AcDbArc
 50
214.4115086697712
 51
220.0052008848592
  0
ARC
  5
102
330
5A
100
AcDbEntity
  8
1
  6
Continuous
 62
     7
100
AcDbCircle
 10
352.749996602334
 20
811.3805564168018
 30
0.0
 40
9.999999999999787
100
AcDbArc
 50
319.9947991151489
 51
325.5884913302288
  0
ARC
  5
103
330
5A
100
AcDbEntity
  8
1
  6
Continuous
 62
     7
100
AcDbCircle
 10
352.749996602334
 20
811.3805564168018
 30
0.0
 40
10.00000000000014
100
AcDbArc
 50
34.41150866977064
 51
40.00520088485516
  0
ARC
  5
104
330
5A
100
AcDbEntity
  8
1
  6
Continuous
 62
     7
100
AcDbCircle
 10
345.9999989329633
 20
455.9004079223656
 30
0.0
 40
16.74999999999952
100
AcDbArc
 50
86.42439207881962
 51
93.57560792117961
  0
ARC
  5
105
330
5A
100
AcDbEntity
  8
1
  6
Continuous
 62
     7
100
AcDbCircle
 10
345.9999989329633
 20
455.9004079223656
 30
0.0
 40
16.75000000000004
100
AcDbArc
 50
26.42439207881928
 51
33.57560792118102
  0
ARC
  5
106
330
5A
100
AcDbEntity
  8
1
  6
Continuous
 62
     7
100
AcDbCircle
 10
345.9999989329633
 20
455.9004079223656
 30
0.0
 40
16.75000000000055
100
AcDbArc
 50
326.4243920788188
 51
333.5756079211802
  0
ARC
  5
107
330
5A
100
AcDbEntity
  8
1
  6
Continuous
 62
     7
100
AcDbCircle
 10
345.9999989329633
 20
455.9004079223656
 30
0.0
 40
16.74999999999951
100
AcDbArc
 50
266.4243920788204
 51
273.5756079211804
  0
ARC
  5
108
330
5A
100
AcDbEntity
  8
1
  6
Continuous
 62
     7
100
AcDbCircle
 10
715.3805603823358
 20
462.6504102138979
 30
0.0
 40
10.00000000000029
100
AcDbArc
 50
49.99479911513679
 51
130.0052008848542
  0
ARC
  5
109
330
5A
100
AcDbEntity
  8
1
  6
Continuous
 62
     7
100
AcDbCircle
 10
715.3805603823358
 20
449.1504102138979
 30
0.0
 40
9.99999999999893
100
AcDbArc
 50
229.9947991151456
 51
310.0052008848684
  0
ARC
  5
10A
330
5A
100
AcDbEntity
  8
1
  6
Continuous
 62
     7
100
AcDbCircle
 10
721.6805603823369
 20
441.6437465075639
 30
0.0
 40
0.200000000000682
100
AcDbArc
 50
310.0052008849319
 51
0.0
  0
ARC
  5
10B
330
5A
100
AcDbEntity
  8
1
  6
Continuous
 62
     7
100
AcDbCircle
 10
721.6805603823369
 20
470.1570739202319
 30
0.0
 40
0.2000000000000455
100
AcDbArc
 50
0.0
 51
49.99479911532802
  0
ARC
  5
10C
330
5A
100
AcDbEntity
  8
1
  6
Continuous
 62
     7
100
AcDbCircle
 10
709.0805603823368
 20
470.1570739202319
 30
0.0
 40
0.1999999999999947
100
AcDbArc
 50
130.005200884672
 51
180.0
  0
ARC
  5
10D
330
5A
100
AcDbEntity
  8
1
  6
Continuous
 62
     7
100
AcDbCircle
 10
709.0805603823368
 20
441.6437465075639
 30
0.0
 40
0.1999999999998181
100
AcDbArc
 50
180.0
 51
229.9947991153175
  0
CIRCLE
  5
10E
330
5A
100
AcDbEntity
  8
1
  6
Continuous
 62
     7
100
AcDbCircle
 10
338.499996602334
 20
811.3805564168018
 30
0.0
 40
5.65102495703718
  0
CIRCLE
  5
10F
330
5A
100
AcDbEntity
  8
1
  6
Continuous
 62
     7
100
AcDbCircle
 10
353.499996602334
 20
811.3805564168018
 30
0.0
 40
5.65102495703718
  0
SPLINE
  5
110
330
5A
100
AcDbEntity
  8
1
  6
Continuous
 62
     7
100
AcDbSpline
210
0.0
220
0.0
230
1.0
 70
    11
 71
     3
 72
    79
 73
    75
 74
    73
 42
0.000000001
 43
0.0000000001
 44
0.00000001
 40
0.0
 40
0.0
 40
0.0
 40
0.0
 40
0.3332697328201315
 40
0.6663350034973385
 40
1.016658909041376
 40
1.366684432054062
 40
1.741620076980482
 40
2.116274312237535
 40
2.519409119982597
 40
2.922325502543647
 40
3.353511641304815
 40
3.784543822444145
 40
4.240562441879971
 40
4.696479543664776
 40
5.17180343542032
 40
5.647066349615172
 40
6.134582888118724
 40
6.622070900998138
 40
7.113743628192533
 40
7.605416355385416
 40
8.092904368259495
 40
8.5804209067528
 40
9.055683820931579
 40
9.531007712662074
 40
9.986924814410958
 40
10.44294343379495
 40
10.87397561486462
 40
11.30516175352764
 40
11.70807813596139
 40
12.11121294353183
 40
12.48586717856642
 40
12.86080282318448
 40
13.21082834577546
 40
13.56115225061471
 40
13.89421751931032
 40
14.22748725976612
 40
14.5545489421
 40
14.88161062443261
 40
15.21488036488488
 40
15.54794563357506
 40
15.89826953840697
 40
16.24829506098918
 40
16.623230705597
 40
16.99788494062097
 40
17.40101974818002
 40
17.8039361306026
 40
18.23512226925385
 40
18.66615445031214
 40
19.12217306968482
 40
19.57809017142304
 40
20.05341406314317
 40
20.52867697731187
 40
21.01619351579581
 40
21.50368152866105
 40
21.99535425584562
 40
22.48702698303272
 40
22.97451499590571
 40
23.46203153440324
 40
23.93729444859295
 40
24.41261834034385
 40
24.8685354421241
 40
25.32455406155573
 40
25.75558624269049
 40
26.18677238144544
 40
26.58968876399762
 40
26.99282357172767
 40
27.36747780695958
 40
27.74241345183596
 40
28.09243897474114
 40
28.44276287998669
 40
28.77582814920758
 40
29.10909789044887
 40
29.43615957485258
 40
29.76322124973005
 40
29.76322124973005
 40
29.76322124973005
 40
29.76322124973005
 10
721.0096198282217
 20
442.5837059117626
 30
0.0
 10
720.990797049478
 20
442.4740530102918
 30
0.0
 10
720.9531630479289
 20
442.2548144782724
 30
0.0
 10
720.8408699755684
 20
441.9336201365608
 30
0.0
 10
720.6916648646206
 20
441.6224607556815
 30
0.0
 10
720.4988726013
 20
441.3193470791144
 30
0.0
 10
720.2701805147675
 20
441.0320733619324
 30
0.0
 10
720.0015729935463
 20
440.7565127932915
 30
0.0
 10
719.7016347439419
 20
440.5008605848252
 30
0.0
 10
719.365705755925
 20
440.2608492161833
 30
0.0
 10
719.0036728247608
 20
440.043726898685
 30
0.0
 10
718.6107857709948
 20
439.8461285931201
 30
0.0
 10
718.1973105179811
 20
439.673619070352
 30
0.0
 10
717.7594046544315
 20
439.5240812637872
 30
0.0
 10
717.3066313640959
 20
439.4012132206273
 30
0.0
 10
716.8369352120457
 20
439.3039957435854
 30
0.0
 10
716.3582498859646
 20
439.2344824996194
 30
0.0
 10
715.8709093042446
 20
439.1923075963343
 30
0.0
 10
715.3805603922649
 20
439.1783507664221
 30
0.0
 10
714.8902114802706
 20
439.1923075962771
 30
0.0
 10
714.4028708985945
 20
439.2344824995079
 30
0.0
 10
713.924185572358
 20
439.3039957433843
 30
0.0
 10
713.4544894208768
 20
439.4012132204215
 30
0.0
 10
713.0017161284629
 20
439.5240812632038
 30
0.0
 10
712.5638102723676
 20
439.6736190706538
 30
0.0
 10
712.1503349922735
 20
439.8461285896278
 30
0.0
 10
711.7574480342837
 20
440.0437269079266
 30
0.0
 10
711.3954147575351
 20
440.2608491786326
 30
0.0
 10
711.0594869788963
 20
440.5008607100349
 30
0.0
 10
710.7595443836909
 20
440.7565123324456
 30
0.0
 10
710.4909519950708
 20
441.0320749404758
 30
0.0
 10
710.2622055112005
 20
441.3193413248613
 30
0.0
 10
710.0696035156503
 20
441.6224806474432
 30
0.0
 10
709.9197096796747
 20
441.9335471922697
 30
0.0
 10
709.809867568822
 20
442.2550719061794
 30
0.0
 10
709.7447632372314
 20
442.5807078732714
 30
0.0
 10
709.7219931158631
 20
442.9100291567195
 30
0.0
 10
709.7447632372186
 20
443.2393504401672
 30
0.0
 10
709.8098675687972
 20
443.5649864072581
 30
0.0
 10
709.9197096796379
 20
443.8865111211666
 30
0.0
 10
710.0696035156018
 20
444.1975776659905
 30
0.0
 10
710.2622055111403
 20
444.5007169885694
 30
0.0
 10
710.4909519950004
 20
444.7879833729507
 30
0.0
 10
710.7595443836101
 20
445.0635459809764
 30
0.0
 10
711.0594869788054
 20
445.3191976033814
 30
0.0
 10
711.395414757435
 20
445.5592091347772
 30
0.0
 10
711.7574480341749
 20
445.7763314054756
 30
0.0
 10
712.1503349921561
 20
445.9739297237657
 30
0.0
 10
712.5638102722423
 20
446.1464392427297
 30
0.0
 10
713.0017161283303
 20
446.2959770501686
 30
0.0
 10
713.4544894207368
 20
446.4188450929385
 30
0.0
 10
713.9241855722113
 20
446.5160625699609
 30
0.0
 10
714.40287089844
 20
446.585575813821
 30
0.0
 10
714.8902114801099
 20
446.6277507170332
 30
0.0
 10
715.3805603920936
 20
446.6417075468677
 30
0.0
 10
715.8709093040761
 20
446.6277507169339
 30
0.0
 10
716.3582498857479
 20
446.5855758136174
 30
0.0
 10
716.8369352119641
 20
446.5160625696464
 30
0.0
 10
717.3066313634755
 20
446.418845092493
 30
0.0
 10
717.7594046557283
 20
446.2959770496014
 30
0.0
 10
718.1973105123373
 20
446.1464392419271
 30
0.0
 10
718.6107857904844
 20
445.9739297230345
 30
0.0
 10
719.0036727552572
 20
445.7763314036068
 30
0.0
 10
719.3657060073922
 20
445.5592091359701
 30
0.0
 10
719.70163387199
 20
445.3191975926904
 30
0.0
 10
720.0015761580839
 20
445.0635460116134
 30
0.0
 10
720.2701696228122
 20
444.787983258147
 30
0.0
 10
720.4989122379773
 20
444.5007173948007
 30
0.0
 10
720.6915277647419
 20
444.197576247807
 30
0.0
 10
720.8413726201682
 20
443.8865163046108
 30
0.0
 10
720.951389036999
 20
443.5649680948236
 30
0.0
 10
721.0158534410698
 20
443.2394183838549
 30
0.0
 10
721.0409702224996
 20
442.9097807895217
 30
0.0
 10
721.0200699567022
 20
442.6923975368547
 30
0.0
 10
721.0096198282217
 20
442.5837059117626
 30
0.0
 11
721.0096198282217
 21
442.5837059117626
 31
0.0
 11
720.9441547915761
 21
442.2569291546689
 31
0.0
 11
720.8372688669144
 21
441.9414804703957
 31
0.0
 11
720.685503666115
 21
441.6257366466765
 31
0.0
 11
720.4984918445377
 21
441.3298575410728
 31
0.0
 11
720.2654250746435
 21
441.0361627701758
 31
0.0
 11
720.004417272661
 21
440.767386425984
 31
0.0
 11
719.6980544285399
 21
440.5053568839904
 31
0.0
 11
719.3705308321925
 21
440.2706871051131
 31
0.0
 11
719.0010674398125
 21
440.0483848606109
 31
0.0
 11
718.6161713676994
 21
439.8543648749798
 31
0.0
 11
718.1955049581298
 21
439.6783172873378
 31
0.0
 11
717.7641352617078
 21
439.5307348063362
 31
0.0
 11
717.3054960507768
 21
439.405903414994
 31
0.0
 11
716.8401258614667
 21
439.3094387867204
 31
0.0
 11
716.357702144298
 21
439.2391555566651
 31
0.0
 11
715.8720312453256
 21
439.1971039146795
 31
0.0
 11
715.380560382337
 21
439.1830162781619
 31
0.0
 11
714.8890895193482
 21
439.1971039146795
 31
0.0
 11
714.4034186203758
 21
439.2391555566653
 31
0.0
 11
713.920994903207
 21
439.3094387867205
 31
0.0
 11
713.4556247138968
 21
439.405903414994
 31
0.0
 11
712.9969855029658
 21
439.5307348063362
 31
0.0
 11
712.565615806544
 21
439.6783172873376
 31
0.0
 11
712.1449493969744
 21
439.8543648749796
 31
0.0
 11
711.7600533248611
 21
440.0483848606108
 31
0.0
 11
711.3905899324811
 21
440.2706871051131
 31
0.0
 11
711.0630663361339
 21
440.5053568839903
 31
0.0
 11
710.7567034920127
 21
440.7673864259839
 31
0.0
 11
710.49569569003
 21
441.0361627701758
 31
0.0
 11
710.262628920136
 21
441.329857541073
 31
0.0
 11
710.0756170985587
 21
441.6257366466768
 31
0.0
 11
709.923851897759
 21
441.9414804703958
 31
0.0
 11
709.8169659730974
 21
442.2569291546688
 31
0.0
 11
709.7515009364517
 21
442.5837059117626
 31
0.0
 11
709.7295354252992
 21
442.9100291571308
 31
0.0
 11
709.7515009364517
 21
443.2363524024989
 31
0.0
 11
709.8169659730975
 21
443.5631291595926
 31
0.0
 11
709.923851897759
 21
443.8785778438657
 31
0.0
 11
710.0756170985587
 21
444.1943216675849
 31
0.0
 11
710.262628920136
 21
444.4902007731886
 31
0.0
 11
710.4956956900301
 21
444.7838955440856
 31
0.0
 11
710.7567034920127
 21
445.0526718882774
 31
0.0
 11
711.0630663361339
 21
445.3147014302711
 31
0.0
 11
711.3905899324812
 21
445.5493712091483
 31
0.0
 11
711.7600533248612
 21
445.7716734536506
 31
0.0
 11
712.1449493969743
 21
445.9656934392817
 31
0.0
 11
712.565615806544
 21
446.1417410269239
 31
0.0
 11
712.9969855029658
 21
446.2893235079254
 31
0.0
 11
713.4556247138968
 21
446.4141548992678
 31
0.0
 11
713.9209949032069
 21
446.5106195275411
 31
0.0
 11
714.4034186203758
 21
446.5809027575963
 31
0.0
 11
714.8890895193481
 21
446.622954399582
 31
0.0
 11
715.3805603823366
 21
446.6370420360997
 31
0.0
 11
715.8720312453254
 21
446.6229543995821
 31
0.0
 11
716.3577021442978
 21
446.5809027575963
 31
0.0
 11
716.8401258614667
 21
446.5106195275409
 31
0.0
 11
717.3054960507769
 21
446.4141548992674
 31
0.0
 11
717.764135261708
 21
446.2893235079252
 31
0.0
 11
718.1955049581297
 21
446.1417410269237
 31
0.0
 11
718.6161713676994
 21
445.9656934392817
 31
0.0
 11
719.0010674398125
 21
445.7716734536505
 31
0.0
 11
719.3705308321925
 21
445.5493712091483
 31
0.0
 11
719.6980544285399
 21
445.3147014302711
 31
0.0
 11
720.0044172726609
 21
445.0526718882774
 31
0.0
 11
720.2654250746436
 21
444.7838955440856
 31
0.0
 11
720.4984918445377
 21
444.4902007731887
 31
0.0
 11
720.685503666115
 21
444.194321667585
 31
0.0
 11
720.8372688669144
 21
443.8785778438659
 31
0.0
 11
720.944154791576
 21
443.5631291595926
 31
0.0
 11
721.0096198282217
 21
443.2363524024988
 31
0.0
 11
721.0315853393744
 21
442.9100291571306
 31
0.0
 11
721.0096198282217
 21
442.5837059117626
 31
0.0
  0
SPLINE
  5
111
330
5A
100
AcDbEntity
  8
1
  6
Continuous
 62
     7
100
AcDbSpline
210
0.0
220
0.0
230
1.0
 70
    11
 71
     3
 72
    79
 73
    75
 74
    73
 42
0.000000001
 43
0.0000000001
 44
0.00000001
 40
0.0
 40
0.0
 40
0.0
 40
0.0
 40
0.3332697328201315
 40
0.6663350034973385
 40
1.016658909041376
 40
1.36668443205411
 40
1.741620076980441
 40
2.116274312237575
 40
2.519409119982674
 40
2.922325502543625
 40
3.353511641304822
 40
3.784543822444177
 40
4.240562441880048
 40
4.696479543664799
 40
5.171803435420342
 40
5.647066349615183
 40
6.134582888118735
 40
6.622070900998149
 40
7.113743628192547
 40
7.605416355385432
 40
8.092904368259505
 40
8.58042090675281
 40
9.05568382093159
 40
9.531007712662115
 40
9.986924814411017
 40
10.44294343379494
 40
10.87397561486464
 40
11.30516175352769
 40
11.70807813596144
 40
12.11121294353191
 40
12.48586717856655
 40
12.86080282318447
 40
13.2108283457755
 40
13.56115225061465
 40
13.89421751931031
 40
14.22748725976605
 40
14.55454894209999
 40
14.8816106244326
 40
15.21488036488475
 40
15.54794563357499
 40
15.89826953840696
 40
16.24829506098921
 40
16.62323070559699
 40
16.99788494062095
 40
17.40101974818
 40
17.80393613060262
 40
18.23512226925381
 40
18.66615445031212
 40
19.12217306968474
 40
19.57809017142299
 40
20.05341406314311
 40
20.52867697731182
 40
21.01619351579575
 40
21.50368152866101
 40
21.99535425584557
 40
22.48702698303267
 40
22.97451499590565
 40
23.46203153440319
 40
23.93729444859288
 40
24.41261834034382
 40
24.86853544212403
 40
25.32455406155567
 40
25.75558624269042
 40
26.1867723814454
 40
26.58968876399759
 40
26.99282357172757
 40
27.3674778069596
 40
27.74241345183589
 40
28.09243897474116
 40
28.44276287998671
 40
28.7758281492075
 40
29.10909789044884
 40
29.43615957485238
 40
29.76322124972991
 40
29.76322124972991
 40
29.76322124972991
 40
29.76322124972991
 10
721.0096198282217
 20
469.217114516032
 30
0.0
 10
720.990797049478
 20
469.326767417503
 30
0.0
 10
720.9531630479289
 20
469.5460059495224
 30
0.0
 10
720.8408699755684
 20
469.8672002912337
 30
0.0
 10
720.6916648646205
 20
470.1783596721132
 30
0.0
 10
720.4988726013001
 20
470.4814733486803
 30
0.0
 10
720.2701805147674
 20
470.7687470658623
 30
0.0
 10
720.0015729935462
 20
471.0443076345031
 30
0.0
 10
719.701634743942
 20
471.2999598429698
 30
0.0
 10
719.3657057559251
 20
471.5399712116113
 30
0.0
 10
719.0036728247608
 20
471.7570935291098
 30
0.0
 10
718.6107857709945
 20
471.9546918346745
 30
0.0
 10
718.1973105179811
 20
472.127201357443
 30
0.0
 10
717.7594046544314
 20
472.2767391640076
 30
0.0
 10
717.3066313640959
 20
472.3996072071677
 30
0.0
 10
716.8369352120455
 20
472.4968246842092
 30
0.0
 10
716.3582498859646
 20
472.5663379281752
 30
0.0
 10
715.8709093042445
 20
472.6085128314602
 30
0.0
 10
715.3805603922647
 20
472.6224696613728
 30
0.0
 10
714.8902114802709
 20
472.6085128315175
 30
0.0
 10
714.4028708985945
 20
472.5663379282869
 30
0.0
 10
713.9241855723583
 20
472.4968246844104
 30
0.0
 10
713.4544894208767
 20
472.3996072073732
 30
0.0
 10
713.001716128463
 20
472.2767391645908
 30
0.0
 10
712.5638102723676
 20
472.1272013571406
 30
0.0
 10
712.1503349922735
 20
471.9546918381672
 30
0.0
 10
711.7574480342837
 20
471.757093519868
 30
0.0
 10
711.3954147575349
 20
471.5399712491621
 30
0.0
 10
711.0594869788962
 20
471.2999597177597
 30
0.0
 10
710.7595443836908
 20
471.044308095349
 30
0.0
 10
710.4909519950711
 20
470.7687454873188
 30
0.0
 10
710.2622055112
 20
470.4814791029334
 30
0.0
 10
710.0696035156506
 20
470.1783397803512
 30
0.0
 10
709.9197096796748
 20
469.8672732355251
 30
0.0
 10
709.8098675688216
 20
469.5457485216152
 30
0.0
 10
709.7447632372314
 20
469.2201125545232
 30
0.0
 10
709.7219931158631
 20
468.8907912710753
 30
0.0
 10
709.7447632372189
 20
468.5614699876275
 30
0.0
 10
709.8098675687975
 20
468.2358340205367
 30
0.0
 10
709.9197096796378
 20
467.9143093066282
 30
0.0
 10
710.0696035156018
 20
467.6032427618043
 30
0.0
 10
710.2622055111403
 20
467.300103439225
 30
0.0
 10
710.4909519950005
 20
467.012837054844
 30
0.0
 10
710.7595443836098
 20
466.7372744468184
 30
0.0
 10
711.0594869788055
 20
466.4816228244132
 30
0.0
 10
711.395414757435
 20
466.2416112930175
 30
0.0
 10
711.757448034175
 20
466.0244890223192
 30
0.0
 10
712.1503349921561
 20
465.8268907040289
 30
0.0
 10
712.5638102722429
 20
465.6543811850653
 30
0.0
 10
713.0017161283301
 20
465.504843377626
 30
0.0
 10
713.4544894207366
 20
465.3819753348566
 30
0.0
 10
713.9241855722112
 20
465.2847578578337
 30
0.0
 10
714.4028708984401
 20
465.2152446139742
 30
0.0
 10
714.8902114801099
 20
465.1730697107613
 30
0.0
 10
715.3805603920937
 20
465.1591128809272
 30
0.0
 10
715.8709093040761
 20
465.1730697108608
 30
0.0
 10
716.358249885748
 20
465.2152446141773
 30
0.0
 10
716.8369352119639
 20
465.2847578581483
 30
0.0
 10
717.3066313634756
 20
465.3819753353016
 30
0.0
 10
717.7594046557285
 20
465.5048433781934
 30
0.0
 10
718.1973105123375
 20
465.6543811858676
 30
0.0
 10
718.6107857904841
 20
465.8268907047601
 30
0.0
 10
719.0036727552573
 20
466.024489024188
 30
0.0
 10
719.3657060073917
 20
466.2416112918245
 30
0.0
 10
719.7016338719902
 20
466.4816228351043
 30
0.0
 10
720.0015761580839
 20
466.7372744161811
 30
0.0
 10
720.2701696228121
 20
467.0128371696479
 30
0.0
 10
720.4989122379773
 20
467.3001030329939
 30
0.0
 10
720.6915277647421
 20
467.6032441799877
 30
0.0
 10
720.8413726201684
 20
467.9143041231841
 30
0.0
 10
720.9513890369989
 20
468.2358523329712
 30
0.0
 10
721.0158534410698
 20
468.5614020439398
 30
0.0
 10
721.0409702224997
 20
468.8910396382731
 30
0.0
 10
721.0200699567021
 20
469.1084228909399
 30
0.0
 10
721.0096198282217
 20
469.217114516032
 30
0.0
 11
721.0096198282217
 21
469.217114516032
 31
0.0
 11
720.9441547915761
 21
469.5438912731258
 31
0.0
 11
720.8372688669144
 21
469.859339957399
 31
0.0
 11
720.685503666115
 21
470.1750837811182
 31
0.0
 11
720.4984918445377
 21
470.470962886722
 31
0.0
 11
720.2654250746435
 21
470.7646576576188
 31
0.0
 11
720.004417272661
 21
471.0334340018107
 31
0.0
 11
719.6980544285399
 21
471.2954635438044
 31
0.0
 11
719.3705308321925
 21
471.5301333226815
 31
0.0
 11
719.0010674398125
 21
471.7524355671838
 31
0.0
 11
718.6161713676994
 21
471.946455552815
 31
0.0
 11
718.1955049581298
 21
472.1225031404571
 31
0.0
 11
717.7641352617078
 21
472.2700856214585
 31
0.0
 11
717.3054960507768
 21
472.3949170128007
 31
0.0
 11
716.8401258614667
 21
472.4913816410742
 31
0.0
 11
716.357702144298
 21
472.5616648711295
 31
0.0
 11
715.8720312453256
 21
472.6037165131152
 31
0.0
 11
715.380560382337
 21
472.6178041496328
 31
0.0
 11
714.8890895193482
 21
472.6037165131152
 31
0.0
 11
714.4034186203758
 21
472.5616648711295
 31
0.0
 11
713.920994903207
 21
472.4913816410742
 31
0.0
 11
713.4556247138968
 21
472.3949170128008
 31
0.0
 11
712.9969855029658
 21
472.2700856214585
 31
0.0
 11
712.565615806544
 21
472.122503140457
 31
0.0
 11
712.1449493969744
 21
471.9464555528151
 31
0.0
 11
711.7600533248611
 21
471.7524355671839
 31
0.0
 11
711.3905899324811
 21
471.5301333226815
 31
0.0
 11
711.0630663361339
 21
471.2954635438043
 31
0.0
 11
710.7567034920127
 21
471.0334340018107
 31
0.0
 11
710.49569569003
 21
470.7646576576187
 31
0.0
 11
710.262628920136
 21
470.4709628867217
 31
0.0
 11
710.0756170985587
 21
470.1750837811178
 31
0.0
 11
709.923851897759
 21
469.8593399573989
 31
0.0
 11
709.8169659730974
 21
469.5438912731259
 31
0.0
 11
709.7515009364517
 21
469.2171145160321
 31
0.0
 11
709.7295354252992
 21
468.8907912706639
 31
0.0
 11
709.7515009364517
 21
468.5644680252958
 31
0.0
 11
709.8169659730975
 21
468.2376912682022
 31
0.0
 11
709.923851897759
 21
467.922242583929
 31
0.0
 11
710.0756170985587
 21
467.6064987602098
 31
0.0
 11
710.262628920136
 21
467.3106196546061
 31
0.0
 11
710.4956956900301
 21
467.0169248837091
 31
0.0
 11
710.7567034920127
 21
466.7481485395173
 31
0.0
 11
711.0630663361339
 21
466.4861189975236
 31
0.0
 11
711.3905899324812
 21
466.2514492186464
 31
0.0
 11
711.7600533248612
 21
466.0291469741442
 31
0.0
 11
712.1449493969743
 21
465.835126988513
 31
0.0
 11
712.565615806544
 21
465.659079400871
 31
0.0
 11
712.9969855029658
 21
465.5114969198694
 31
0.0
 11
713.4556247138968
 21
465.386665528527
 31
0.0
 11
713.9209949032069
 21
465.2902009002536
 31
0.0
 11
714.4034186203758
 21
465.2199176701985
 31
0.0
 11
714.8890895193481
 21
465.1778660282127
 31
0.0
 11
715.3805603823366
 21
465.163778391695
 31
0.0
 11
715.8720312453254
 21
465.1778660282127
 31
0.0
 11
716.3577021442978
 21
465.2199176701985
 31
0.0
 11
716.8401258614667
 21
465.2902009002538
 31
0.0
 11
717.3054960507769
 21
465.3866655285272
 31
0.0
 11
717.764135261708
 21
465.5114969198696
 31
0.0
 11
718.1955049581297
 21
465.659079400871
 31
0.0
 11
718.6161713676994
 21
465.835126988513
 31
0.0
 11
719.0010674398125
 21
466.0291469741442
 31
0.0
 11
719.3705308321925
 21
466.2514492186465
 31
0.0
 11
719.6980544285399
 21
466.4861189975236
 31
0.0
 11
720.0044172726609
 21
466.7481485395172
 31
0.0
 11
720.2654250746436
 21
467.0169248837092
 31
0.0
 11
720.4984918445377
 21
467.310619654606
 31
0.0
 11
720.685503666115
 21
467.6064987602098
 31
0.0
 11
720.8372688669144
 21
467.9222425839289
 31
0.0
 11
720.944154791576
 21
468.2376912682021
 31
0.0
 11
721.0096198282217
 21
468.5644680252959
 31
0.0
 11
721.0315853393744
 21
468.890791270664
 31
0.0
 11
721.0096198282217
 21
469.217114516032
 31
0.0
  0
SPLINE
  5
112
330
5A
100
AcDbEntity
  8
1
  6
Continuous
 62
     7
100
AcDbSpline
210
0.0
220
0.0
230
1.0
 70
    11
 71
     3
 72
    79
 73
    75
 74
    73
 42
0.000000001
 43
0.0000000001
 44
0.00000001
 40
0.0
 40
0.0
 40
0.0
 40
0.0
 40
0.4985441307033696
 40
0.9969471103217539
 40
1.510704716033795
 40
2.024235060073295
 40
2.560443859182247
 40
3.096407680729825
 40
3.658955325022655
 40
4.221286168050748
 40
4.81060497237542
 40
5.399753564983209
 40
6.013192437053458
 40
6.626509663604002
 40
7.258945224791808
 40
7.89130360450727
 40
8.535837540937587
 40
9.180334212047912
 40
9.829006405477202
 40
10.47767859890149
 40
11.12217526999655
 40
11.76670920640044
 40
12.39906758607721
 40
13.03150314721205
 40
13.64482037369458
 40
14.25825924567608
 40
14.8474078381749
 40
15.43672664236102
 40
15.99905748522227
 40
16.56160512930437
 40
17.09756895059723
 40
17.63377774937683
 40
18.14730809298185
 40
18.66106569800399
 40
19.15946867585522
 40
19.65801281478875
 40
20.15111293389889
 40
20.64421305300774
 40
21.14275719193757
 40
21.64116016978285
 40
22.15491777479676
 40
22.66844811839236
 40
23.20465691716096
 40
23.74062073844162
 40
24.30316838251023
 40
24.86549922535772
 40
25.45481802952907
 40
26.04396662201327
 40
26.65740549397957
 40
27.27072272044714
 40
27.90315828156668
 40
28.53551666122866
 40
29.18005059761773
 40
29.82454726869807
 40
30.47321946210785
 40
31.12189165552276
 40
31.76638832661892
 40
32.4109222630354
 40
33.04328064273682
 40
33.67571620391038
 40
34.28903343044668
 40
34.90247230250165
 40
35.49162089509363
 40
36.08093969940015
 40
36.64327054240728
 40
37.20581818667299
 40
37.74178200818309
 40
38.27799080723025
 40
38.79152115115138
 40
39.30527875656527
 40
39.80368173491647
 40
40.30222587459379
 40
40.79532599553585
 40
41.28842610649735
 40
41.28842610649735
 40
41.28842610649735
 40
41.28842610649735
 10
714.8701550489612
 20
463.3233196654446
 30
0.0
 10
714.7056131880502
 20
463.2987186898744
 30
0.0
 10
714.3765760512965
 20
463.2495237108013
 30
0.0
 10
713.893128134794
 20
463.1029582990558
 30
0.0
 10
713.423006346715
 20
462.9069949462743
 30
0.0
 10
712.9659824581618
 20
462.6543950254076
 30
0.0
 10
712.5306084207084
 20
462.353156400558
 30
0.0
 10
712.1144107628525
 20
462.0001933754659
 30
0.0
 10
711.7263446963448
 20
461.6042828531938
 30
0.0
 10
711.3634364647857
 20
461.1620453143899
 30
0.0
 10
711.0337368787608
 20
460.6837354912986
 30
0.0
 10
710.7347736182764
 20
460.1659545253023
 30
0.0
 10
710.4728856409627
 20
459.6195926994467
 30
0.0
 10
710.2465592962492
 20
459.0421009841619
 30
0.0
 10
710.0601115237308
 20
458.4439237587283
 30
0.0
 10
709.9129463473628
 20
457.8242278944595
 30
0.0
 10
709.8074912004801
 20
457.1920133640256
 30
0.0
 10
709.7436619776452
 20
456.548803022738
 30
0.0
 10
709.7224492703756
 20
455.9014018636439
 30
0.0
 10
709.7436619774649
 20
455.2540007045334
 30
0.0
 10
709.8074912001231
 20
454.6107903632904
 30
0.0
 10
709.912946346798
 20
453.9785758326813
 30
0.0
 10
710.0601115230417
 20
453.3588799690334
 30
0.0
 10
710.2465592950798
 20
452.7607027412837
 30
0.0
 10
710.4728856405426
 20
452.1832110343443
 30
0.0
 10
710.7347736140407
 20
451.6368491778805
 30
0.0
 10
711.0337368870767
 20
451.1190683217105
 30
0.0
 10
711.3634364260765
 20
450.640758098213
 30
0.0
 10
711.7263448241109
 20
450.1985219884884
 30
0.0
 10
712.1144102834048
 20
449.8026062668933
 30
0.0
 10
712.5306101040294
 20
449.4496617751945
 30
0.0
 10
712.9659762599938
 20
449.148355628548
 30
0.0
 10
713.4230283813932
 20
448.8959976025229
 30
0.0
 10
713.8930467598466
 20
448.6991482808829
 30
0.0
 10
714.3768696974277
 20
448.5557959082104
 30
0.0
 10
714.8672659626584
 20
448.4703941034172
 30
0.0
 10
715.3624176373244
 20
448.4409916284192
 30
0.0
 10
715.8575693119906
 20
448.4703941034006
 30
0.0
 10
716.3479655772201
 20
448.5557959081774
 30
0.0
 10
716.8317885147999
 20
448.6991482808337
 30
0.0
 10
717.3018068932514
 20
448.8959976024577
 30
0.0
 10
717.7588590146486
 20
449.1483556284672
 30
0.0
 10
718.1942251706107
 20
449.449661775098
 30
0.0
 10
718.6104249912315
 20
449.8026062667827
 30
0.0
 10
718.9984904505222
 20
450.1985219883622
 30
0.0
 10
719.3613988485516
 20
450.640758098073
 30
0.0
 10
719.6910983875459
 20
451.1190683215568
 30
0.0
 10
719.9900616605762
 20
451.6368491777131
 30
0.0
 10
720.2519496340675
 20
452.1832110341635
 30
0.0
 10
720.4782759795226
 20
452.7607027410899
 30
0.0
 10
720.6647237515527
 20
453.3588799688261
 30
0.0
 10
720.811888927786
 20
453.9785758324613
 30
0.0
 10
720.91734407445
 20
454.6107903630569
 30
0.0
 10
720.9811732970971
 20
455.2540007042873
 30
0.0
 10
721.0023860041731
 20
455.9014018633806
 30
0.0
 10
720.9811732968923
 20
456.5488030224714
 30
0.0
 10
720.9173440740362
 20
457.1920133637006
 30
0.0
 10
720.81188892716
 20
457.8242278942766
 30
0.0
 10
720.6647237506975
 20
458.443923757945
 30
0.0
 10
720.4782759784517
 20
459.0421009855007
 30
0.0
 10
720.2519496326765
 20
459.6195926930014
 30
0.0
 10
719.9900616591733
 20
460.1659545472388
 30
0.0
 10
719.6910983849389
 20
460.6837354112001
 30
0.0
 10
719.3613988489719
 20
461.1620456060482
 30
0.0
 10
718.9984904386957
 20
461.6042818177349
 30
0.0
 10
718.6104250223725
 20
462.0001971680094
 30
0.0
 10
718.1942250469043
 20
462.3531429828777
 30
0.0
 10
717.7588594532178
 20
462.654444308353
 30
0.0
 10
717.3018053154793
 20
462.9068196054384
 30
0.0
 10
716.8317943198392
 20
463.1036056689275
 30
0.0
 10
716.3479446052595
 20
463.2471874515725
 30
0.0
 10
715.8576472965874
 20
463.3317414208154
 30
0.0
 10
715.3621300835795
 20
463.3642757145089
 30
0.0
 10
715.0341467262326
 20
463.3369716793337
 30
0.0
 10
714.8701550489612
 20
463.3233196654446
 30
0.0
 11
714.8701550489612
 21
463.3233196654446
 31
0.0
 11
714.3790299842871
 21
463.2376316879964
 31
0.0
 11
713.9009569141338
 21
463.0967357402828
 31
0.0
 11
713.4270031318509
 21
462.8984564192906
 31
0.0
 11
712.9770698466768
 21
462.6509216685229
 31
0.0
 11
712.535894670428
 21
462.3461523460996
 31
0.0
 11
712.1266553690059
 21
462.0000592776481
 31
0.0
 11
711.7324688461975
 21
461.5987154883372
 31
0.0
 11
711.3752762970391
 21
461.1644005567929
 31
0.0
 11
711.040351562
 21
460.6795066767281
 31
0.0
 11
710.7453554577435
 21
460.1695327924947
 31
0.0
 11
710.4797654497532
 21
459.6165687815588
 31
0.0
 11
710.2556683841865
 21
459.0456585210375
 31
0.0
 11
710.0671234161229
 21
458.4419818409656
 31
0.0
 11
709.9208345751393
 21
457.8267772445928
 31
0.0
 11
709.814561242981
 21
457.1910650659397
 31
0.0
 11
709.750871440064
 21
456.549723060385
 31
0.0
 11
709.7295353754081
 21
455.9014018538122
 31
0.0
 11
709.7508714400637
 21
455.2530806472393
 31
0.0
 11
709.8145612429809
 21
454.6117386416846
 31
0.0
 11
709.9208345751395
 21
453.9760264630315
 31
0.0
 11
710.0671234161232
 21
453.360821866659
 31
0.0
 11
710.2556683841865
 21
452.7571451865871
 31
0.0
 11
710.4797654497535
 21
452.1862349260657
 31
0.0
 11
710.7453554577434
 21
451.6332709151299
 31
0.0
 11
711.0403515619998
 21
451.1232970308964
 31
0.0
 11
711.3752762970391
 21
450.6384031508318
 31
0.0
 11
711.7324688461977
 21
450.2040882192874
 31
0.0
 11
712.1266553690058
 21
449.8027444299764
 31
0.0
 11
712.5358946704281
 21
449.456651361525
 31
0.0
 11
712.9770698466767
 21
449.1518820391017
 31
0.0
 11
713.4270031318509
 21
448.904347288334
 31
0.0
 11
713.900956914134
 21
448.7060679673416
 31
0.0
 11
714.3790299842874
 21
448.5651720196281
 31
0.0
 11
714.8701550489615
 21
448.4794840421799
 31
0.0
 11
715.3624176378056
 21
448.4507565073521
 31
0.0
 11
715.8546802266496
 21
448.4794840421799
 31
0.0
 11
716.3458052913236
 21
448.5651720196281
 31
0.0
 11
716.8238783614768
 21
448.7060679673416
 31
0.0
 11
717.2978321437595
 21
448.9043472883339
 31
0.0
 11
717.7477654289338
 21
449.1518820391017
 31
0.0
 11
718.1889406051827
 21
449.456651361525
 31
0.0
 11
718.5981799066049
 21
449.8027444299764
 31
0.0
 11
718.9923664294131
 21
450.2040882192872
 31
0.0
 11
719.3495589785716
 21
450.6384031508317
 31
0.0
 11
719.6844837136107
 21
451.1232970308964
 31
0.0
 11
719.9794798178673
 21
451.6332709151299
 31
0.0
 11
720.2450698258574
 21
452.1862349260656
 31
0.0
 11
720.4691668914244
 21
452.757145186587
 31
0.0
 11
720.6577118594878
 21
453.3608218666588
 31
0.0
 11
720.8040007004712
 21
453.9760264630315
 31
0.0
 11
720.9102740326297
 21
454.6117386416847
 31
0.0
 11
720.9739638355468
 21
455.2530806472394
 31
0.0
 11
720.9952999002024
 21
455.9014018538122
 31
0.0
 11
720.9739638355467
 21
456.549723060385
 31
0.0
 11
720.9102740326296
 21
457.1910650659396
 31
0.0
 11
720.8040007004713
 21
457.826777244593
 31
0.0
 11
720.6577118594879
 21
458.4419818409658
 31
0.0
 11
720.4691668914244
 21
459.0456585210376
 31
0.0
 11
720.2450698258575
 21
459.6165687815588
 31
0.0
 11
719.9794798178675
 21
460.1695327924946
 31
0.0
 11
719.6844837136109
 21
460.6795066767281
 31
0.0
 11
719.3495589785718
 21
461.1644005567928
 31
0.0
 11
718.9923664294134
 21
461.5987154883372
 31
0.0
 11
718.5981799066049
 21
462.000059277648
 31
0.0
 11
718.1889406051824
 21
462.3461523460995
 31
0.0
 11
717.7477654289337
 21
462.6509216685228
 31
0.0
 11
717.2978321437595
 21
462.8984564192905
 31
0.0
 11
716.8238783614765
 21
463.0967357402827
 31
0.0
 11
716.3458052913234
 21
463.2376316879962
 31
0.0
 11
715.8546802266494
 21
463.3233196654445
 31
0.0
 11
715.3624176378054
 21
463.3520472002724
 31
0.0
 11
714.8701550489612
 21
463.3233196654446
 31
0.0
  0
ENDBLK
  5
5C
330
5A
100
AcDbEntity
  8
0
100
AcDbBlockEnd
  0
BLOCK
  5
5E
330
5D
100
AcDbEntity
  8
0
100
AcDbBlockBegin
  2
03-47-50-M1K__7
 70
     0
 10
2014.438564594761
 20
409.0450724894462
 30
0.0
  3
03-47-50-M1K__7
  1

  0
LINE
  5
113
330
5D
100
AcDbEntity
  8
1
  6
Continuous
 62
     7
100
AcDbLine
 10
391.8328352806805
 20
864.3379952807068
 30
0.0
 11
391.8328352806805
 21
851.4999952807068
 31
0.0
  0
LINE
  5
114
330
5D
100
AcDbEntity
  8
1
  6
Continuous
 62
     2
100
AcDbLine
 10
390.6708352806807
 20
865.4999952807068
 30
0.0
 11
390.6708352806807
 21
851.4999952807068
 31
0.0
  0
LINE
  5
115
330
5D
100
AcDbEntity
  8
1
  6
Continuous
 62
     7
100
AcDbLine
 10
370.8778352806805
 20
864.3379952807068
 30
0.0
 11
391.8328352806805
 21
864.3379952807068
 31
0.0
  0
LINE
  5
116
330
5D
100
AcDbEntity
  8
1
  6
Continuous
 62
     7
100
AcDbLine
 10
372.0398352806815
 20
865.4999952807068
 30
0.0
 11
390.6708352806807
 21
865.4999952807068
 31
0.0
  0
LINE
  5
117
330
5D
100
AcDbEntity
  8
1
  6
Continuous
 62
     7
100
AcDbLine
 10
391.8328352806805
 20
864.3379952807068
 30
0.0
 11
390.6708352806807
 21
865.4999952807068
 31
0.0
  0
LINE
  5
118
330
5D
100
AcDbEntity
  8
1
  6
Continuous
 62
     2
100
AcDbLine
 10
372.0398352806815
 20
851.4999952807068
 30
0.0
 11
372.0398352806815
 21
865.4999952807068
 31
0.0
  0
LINE
  5
119
330
5D
100
AcDbEntity
  8
1
  6
Continuous
 62
     7
100
AcDbLine
 10
370.8778352806805
 20
864.3379952807068
 30
0.0
 11
370.8778352806805
 21
851.4999952807068
 31
0.0
  0
LINE
  5
11A
330
5D
100
AcDbEntity
  8
1
  6
Continuous
 62
     7
100
AcDbLine
 10
370.8778352806805
 20
864.3379952807068
 30
0.0
 11
372.0398352806815
 21
865.4999952807068
 31
0.0
  0
LINE
  5
11B
330
5D
100
AcDbEntity
  8
1
  6
Continuous
 62
     7
100
AcDbLine
 10
391.8328352806816
 20
837.9873522423118
 30
0.0
 11
391.8328352806816
 21
839.9999952807068
 31
0.0
  0
LINE
  5
11C
330
5D
100
AcDbEntity
  8
1
  6
Continuous
 62
     7
100
AcDbLine
 10
372.0398352806806
 20
839.9999952807068
 30
0.0
 11
391.8328352806816
 21
839.9999952807068
 31
0.0
  0
LINE
  5
11D
330
5D
100
AcDbEntity
  8
0
  6
Continuous
 62
     2
100
AcDbLine
 10
372.0398352806806
 20
840.7999952807068
 30
0.0
 11
372.0398352806806
 21
839.9999952807068
 31
0.0
  0
LINE
  5
11E
330
5D
100
AcDbEntity
  8
0
  6
Continuous
 62
     7
100
AcDbLine
 10
370.8778352806805
 20
840.7999952807068
 30
0.0
 11
370.8778352806805
 21
839.9999952807068
 31
0.0
  0
LINE
  5
11F
330
5D
100
AcDbEntity
  8
1
  6
Continuous
 62
     7
100
AcDbLine
 10
370.8778352806805
 20
839.9999952807068
 30
0.0
 11
372.0398352806806
 21
839.9999952807068
 31
0.0
  0
LINE
  5
120
330
5D
100
AcDbEntity
  8
1
  6
Continuous
 62
     2
100
AcDbLine
 10
370.8778352806805
 20
837.9873522423118
 30
0.0
 11
372.0398352806806
 21
839.9999952807068
 31
0.0
  0
LINE
  5
121
330
5D
100
AcDbEntity
  8
1
  6
Continuous
 62
     7
100
AcDbLine
 10
370.8778352806805
 20
839.9999952807068
 30
0.0
 11
370.8778352806805
 21
837.9873522423118
 31
0.0
  0
LINE
  5
122
330
5D
100
AcDbEntity
  8
0
  6
Continuous
 62
     7
100
AcDbLine
 10
391.8328352806816
 20
840.7999952807068
 30
0.0
 11
391.8328352806816
 21
839.9999952807068
 31
0.0
  0
LINE
  5
123
330
5D
100
AcDbEntity
  8
0
  6
Continuous
 62
     2
100
AcDbLine
 10
390.6708352806807
 20
840.7999952807068
 30
0.0
 11
390.6708352806807
 21
839.9999952807068
 31
0.0
  0
LINE
  5
124
330
5D
100
AcDbEntity
  8
1
  6
Continuous
 62
     2
100
AcDbLine
 10
390.6708352806807
 20
839.9999952807068
 30
0.0
 11
391.8328352806816
 21
837.9873522423118
 31
0.0
  0
LINE
  5
125
330
5D
100
AcDbEntity
  8
1
  6
Continuous
 62
     7
100
AcDbLine
 10
391.8553352806805
 20
836.9999952807068
 30
0.0
 11
391.8553352806814
 21
837.9483810991418
 31
0.0
  0
LINE
  5
126
330
5D
100
AcDbEntity
  8
1
  6
Continuous
 62
     7
100
AcDbLine
 10
392.8553352806805
 20
818.4999952807068
 30
0.0
 11
392.8553352806805
 21
835.9999952807068
 31
0.0
  0
LINE
  5
127
330
5D
100
AcDbEntity
  8
1
  6
Continuous
 62
     7
100
AcDbLine
 10
369.8553352806805
 20
835.9999952807068
 30
0.0
 11
392.8553352806805
 21
835.9999952807068
 31
0.0
  0
LINE
  5
128
330
5D
100
AcDbEntity
  8
1
  6
Continuous
 62
     7
100
AcDbLine
 10
370.8553352806805
 20
837.2999952807068
 30
0.0
 11
370.8553352806805
 21
836.9999952807068
 31
0.0
  0
LINE
  5
129
330
5D
100
AcDbEntity
  8
1
  6
Continuous
 62
     7
100
AcDbLine
 10
370.8553352806805
 20
837.9483810991418
 30
0.0
 11
370.8553352806805
 21
836.9999952807068
 31
0.0
  0
LINE
  5
12A
330
5D
100
AcDbEntity
  8
1
  6
Continuous
 62
     7
100
AcDbLine
 10
365.8553352806805
 20
835.9999952807068
 30
0.0
 11
369.8553352806805
 21
835.9999952807068
 31
0.0
  0
LINE
  5
12B
330
5D
100
AcDbEntity
  8
1
  6
Continuous
 62
     7
100
AcDbLine
 10
358.7139068521374
 20
832.9999952807068
 30
0.0
 11
334.4999960854709
 21
832.9999952807068
 31
0.0
  0
LINE
  5
12C
330
5D
100
AcDbEntity
  8
1
  6
Continuous
 62
     7
100
AcDbLine
 10
358.7139068521374
 20
828.6909012389798
 30
0.0
 11
345.975129353717
 21
828.6909012389798
 31
0.0
  0
LINE
  5
12D
330
5D
100
AcDbEntity
  8
1
  6
Continuous
 62
     7
100
AcDbLine
 10
334.4999960854709
 20
832.9999952807068
 30
0.0
 11
334.4999960854709
 21
818.4999952807068
 31
0.0
  0
LINE
  5
12E
330
5D
100
AcDbEntity
  8
1
  6
Continuous
 62
     7
100
AcDbLine
 10
334.4999960854709
 20
818.4999952807068
 30
0.0
 11
353.4999960854709
 21
818.4999952807068
 31
0.0
  0
LINE
  5
12F
330
5D
100
AcDbEntity
  8
1
  6
Continuous
 62
     7
100
AcDbLine
 10
353.4999960854709
 20
818.4999952807068
 30
0.0
 11
392.8553352806805
 21
818.4999952807068
 31
0.0
  0
LINE
  5
130
330
5D
100
AcDbEntity
  8
1
  6
Continuous
 62
     7
100
AcDbLine
 10
360.9999989329635
 20
457.16387036052
 30
0.0
 11
389.4870665288597
 21
428.676802764624
 31
0.0
  0
LINE
  5
131
330
5D
100
AcDbEntity
  8
1
  6
Continuous
 62
     7
100
AcDbLine
 10
373.2236105615691
 20
412.4133467973334
 30
0.0
 11
346.4796751093641
 21
439.1572822495382
 31
0.0
  0
LINE
  5
132
330
5D
100
AcDbEntity
  8
1
  6
Continuous
 62
     7
100
AcDbLine
 10
722.4999992462405
 20
448.400412101697
 30
0.0
 11
722.4999992462405
 21
409.0450729064875
 31
0.0
  0
LINE
  5
133
330
5D
100
AcDbEntity
  8
1
  6
Continuous
 62
     7
100
AcDbLine
 10
722.4999992462405
 20
467.400412101697
 30
0.0
 11
722.4999992462405
 21
448.400412101697
 31
0.0
  0
LINE
  5
134
330
5D
100
AcDbEntity
  8
1
  6
Continuous
 62
     7
100
AcDbLine
 10
736.9999992462405
 20
467.400412101697
 30
0.0
 11
722.4999992462405
 21
467.400412101697
 31
0.0
  0
LINE
  5
135
330
5D
100
AcDbEntity
  8
1
  6
Continuous
 62
     7
100
AcDbLine
 10
732.6909052045133
 20
443.1865013350305
 30
0.0
 11
732.6909052045133
 21
455.925278833451
 31
0.0
  0
LINE
  5
136
330
5D
100
AcDbEntity
  8
1
  6
Continuous
 62
     7
100
AcDbLine
 10
736.9999992462405
 20
443.1865013350305
 30
0.0
 11
736.9999992462405
 21
467.400412101697
 31
0.0
  0
LINE
  5
137
330
5D
100
AcDbEntity
  8
1
  6
Continuous
 62
     7
100
AcDbLine
 10
739.9999992462405
 20
436.0450729064875
 30
0.0
 11
739.9999992462405
 21
432.0450729064875
 31
0.0
  0
LINE
  5
138
330
5D
100
AcDbEntity
  8
1
  6
Continuous
 62
     7
100
AcDbLine
 10
741.9483850646756
 20
431.0450729064875
 30
0.0
 11
740.9999992462405
 21
431.0450729064875
 31
0.0
  0
LINE
  5
139
330
5D
100
AcDbEntity
  8
1
  6
Continuous
 62
     7
100
AcDbLine
 10
741.2999992462404
 20
431.0450729064875
 30
0.0
 11
740.9999992462405
 21
431.0450729064875
 31
0.0
  0
LINE
  5
13A
330
5D
100
AcDbEntity
  8
1
  6
Continuous
 62
     7
100
AcDbLine
 10
739.9999992462405
 20
432.0450729064875
 30
0.0
 11
739.9999992462405
 21
409.0450729064875
 31
0.0
  0
LINE
  5
13B
330
5D
100
AcDbEntity
  8
1
  6
Continuous
 62
     7
100
AcDbLine
 10
722.4999992462405
 20
409.0450729064875
 30
0.0
 11
739.9999992462405
 21
409.0450729064875
 31
0.0
  0
LINE
  5
13C
330
5D
100
AcDbEntity
  8
1
  6
Continuous
 62
     7
100
AcDbLine
 10
740.9999992462405
 20
410.0450729064875
 30
0.0
 11
741.9483850646756
 21
410.0450729064865
 31
0.0
  0
LINE
  5
13D
330
5D
100
AcDbEntity
  8
1
  6
Continuous
 62
     2
100
AcDbLine
 10
743.9999992462405
 20
411.2295729064874
 30
0.0
 11
741.9873562078454
 21
410.0675729064864
 31
0.0
  0
LINE
  5
13E
330
5D
100
AcDbEntity
  8
0
  6
Continuous
 62
     2
100
AcDbLine
 10
744.7999992462404
 20
411.2295729064874
 30
0.0
 11
743.9999992462405
 21
411.2295729064874
 31
0.0
  0
LINE
  5
13F
330
5D
100
AcDbEntity
  8
0
  6
Continuous
 62
     7
100
AcDbLine
 10
744.7999992462404
 20
410.0675729064864
 30
0.0
 11
743.9999992462405
 21
410.0675729064864
 31
0.0
  0
LINE
  5
140
330
5D
100
AcDbEntity
  8
1
  6
Continuous
 62
     7
100
AcDbLine
 10
743.9999992462405
 20
431.0225729064874
 30
0.0
 11
741.9873562078454
 21
431.0225729064874
 31
0.0
  0
LINE
  5
141
330
5D
100
AcDbEntity
  8
1
  6
Continuous
 62
     2
100
AcDbLine
 10
741.9873562078454
 20
431.0225729064874
 30
0.0
 11
743.9999992462405
 21
429.8605729064875
 31
0.0
  0
LINE
  5
142
330
5D
100
AcDbEntity
  8
1
  6
Continuous
 62
     7
100
AcDbLine
 10
743.9999992462405
 20
431.0225729064874
 30
0.0
 11
743.9999992462405
 21
429.8605729064875
 31
0.0
  0
LINE
  5
143
330
5D
100
AcDbEntity
  8
0
  6
Continuous
 62
     7
100
AcDbLine
 10
744.7999992462404
 20
431.0225729064874
 30
0.0
 11
743.9999992462405
 21
431.0225729064874
 31
0.0
  0
LINE
  5
144
330
5D
100
AcDbEntity
  8
0
  6
Continuous
 62
     2
100
AcDbLine
 10
744.7999992462404
 20
429.8605729064875
 30
0.0
 11
743.9999992462405
 21
429.8605729064875
 31
0.0
  0
LINE
  5
145
330
5D
100
AcDbEntity
  8
1
  6
Continuous
 62
     7
100
AcDbLine
 10
743.9999992462405
 20
429.8605729064875
 30
0.0
 11
743.9999992462405
 21
410.0675729064864
 31
0.0
  0
LINE
  5
146
330
5D
100
AcDbEntity
  8
1
  6
Continuous
 62
     7
100
AcDbLine
 10
741.9873562078454
 20
410.0675729064864
 30
0.0
 11
743.9999992462405
 21
410.0675729064864
 31
0.0
  0
LINE
  5
147
330
5D
100
AcDbEntity
  8
1
  6
Continuous
 62
     7
100
AcDbLine
 10
768.3379992462404
 20
431.0225729064874
 30
0.0
 11
769.4999992462405
 21
429.8605729064864
 31
0.0
  0
LINE
  5
148
330
5D
100
AcDbEntity
  8
1
  6
Continuous
 62
     7
100
AcDbLine
 10
768.3379992462404
 20
431.0225729064874
 30
0.0
 11
755.4999992462405
 21
431.0225729064874
 31
0.0
  0
LINE
  5
149
330
5D
100
AcDbEntity
  8
1
  6
Continuous
 62
     2
100
AcDbLine
 10
755.4999992462405
 20
429.8605729064864
 30
0.0
 11
769.4999992462405
 21
429.8605729064864
 31
0.0
  0
LINE
  5
14A
330
5D
100
AcDbEntity
  8
1
  6
Continuous
 62
     7
100
AcDbLine
 10
768.3379992462404
 20
410.0675729064875
 30
0.0
 11
769.4999992462405
 21
411.2295729064874
 31
0.0
  0
LINE
  5
14B
330
5D
100
AcDbEntity
  8
1
  6
Continuous
 62
     7
100
AcDbLine
 10
769.4999992462405
 20
429.8605729064864
 30
0.0
 11
769.4999992462405
 21
411.2295729064874
 31
0.0
  0
LINE
  5
14C
330
5D
100
AcDbEntity
  8
1
  6
Continuous
 62
     7
100
AcDbLine
 10
768.3379992462404
 20
431.0225729064874
 30
0.0
 11
768.3379992462404
 21
410.0675729064875
 31
0.0
  0
LINE
  5
14D
330
5D
100
AcDbEntity
  8
1
  6
Continuous
 62
     2
100
AcDbLine
 10
769.4999992462405
 20
411.2295729064874
 30
0.0
 11
755.4999992462405
 21
411.2295729064874
 31
0.0
  0
LINE
  5
14E
330
5D
100
AcDbEntity
  8
1
  6
Continuous
 62
     7
100
AcDbLine
 10
768.3379992462404
 20
410.0675729064875
 30
0.0
 11
755.4999992462405
 21
410.0675729064875
 31
0.0
  0
LINE
  5
14F
330
5D
100
AcDbEntity
  8
1
  6
Continuous
 62
     7
100
AcDbLine
 10
391.8328352806816
 20
837.9873522423118
 30
0.0
 11
391.8553352806814
 21
837.9483810991418
 31
0.0
  0
LINE
  5
150
330
5D
100
AcDbEntity
  8
1
  6
Continuous
 62
     7
100
AcDbLine
 10
370.8778352806805
 20
837.9873522423118
 30
0.0
 11
370.8553352806805
 21
837.9483810991418
 31
0.0
  0
ARC
  5
151
330
5D
100
AcDbEntity
  8
1
  6
Continuous
 62
     7
100
AcDbCircle
 10
392.8553352806805
 20
836.9999952807068
 30
0.0
 40
1.0
100
AcDbArc
 50
180.0
 51
270.0
  0
ARC
  5
152
330
5D
100
AcDbEntity
  8
1
  6
Continuous
 62
     7
100
AcDbCircle
 10
369.8553352806805
 20
836.9999952807068
 30
0.0
 40
1.0
100
AcDbArc
 50
270.0
 51
0.0
  0
ARC
  5
153
330
5D
100
AcDbEntity
  8
1
  6
Continuous
 62
     7
100
AcDbCircle
 10
358.7139068521374
 20
842.9999952807068
 30
0.0
 40
10.0
100
AcDbArc
 50
270.0
 51
315.5729959991951
  0
ARC
  5
154
330
5D
100
AcDbEntity
  8
1
  6
Continuous
 62
     7
100
AcDbCircle
 10
358.7139068521374
 20
842.6094445703437
 30
0.0
 40
13.91854333136394
100
AcDbArc
 50
270.0
 51
331.6493449074815
  0
ARC
  5
155
330
5D
100
AcDbEntity
  8
1
  6
Continuous
 62
     7
100
AcDbCircle
 10
381.3553385452144
 20
420.5450747809787
 30
0.0
 40
11.50000000000001
100
AcDbArc
 50
225.0
 51
44.99999999999981
  0
ARC
  5
156
330
5D
100
AcDbEntity
  8
1
  6
Continuous
 62
     7
100
AcDbCircle
 10
746.6094485358775
 20
443.1865013350305
 30
0.0
 40
13.91854333136416
100
AcDbArc
 50
180.0
 51
241.6493449074808
  0
ARC
  5
157
330
5D
100
AcDbEntity
  8
1
  6
Continuous
 62
     7
100
AcDbCircle
 10
746.9999992462405
 20
443.1865013350305
 30
0.0
 40
10.0
100
AcDbArc
 50
180.0
 51
225.5729959991949
  0
ARC
  5
158
330
5D
100
AcDbEntity
  8
1
  6
Continuous
 62
     7
100
AcDbCircle
 10
740.9999992462405
 20
432.0450729064875
 30
0.0
 40
1.0
100
AcDbArc
 50
180.0
 51
270.0
  0
ARC
  5
159
330
5D
100
AcDbEntity
  8
1
  6
Continuous
 62
     7
100
AcDbCircle
 10
740.9999992462405
 20
409.0450729064875
 30
0.0
 40
1.0
100
AcDbArc
 50
90.0
 51
180.0
  0
CIRCLE
  5
15A
330
5D
100
AcDbEntity
  8
1
  6
Continuous
 62
     7
100
AcDbCircle
 10
381.3553385452144
 20
420.5450747809787
 30
0.0
 40
10.5
  0
SPLINE
  5
15B
330
5D
100
AcDbEntity
  8
1
  6
Continuous
 62
     7
100
AcDbSpline
210
0.0
220
0.0
230
1.0
 70
     8
 71
     3
 72
    15
 73
    11
 74
     9
 42
0.000000001
 43
0.0000000001
 44
0.00000001
 40
0.0
 40
0.0
 40
0.0
 40
0.0
 40
1.010591013953114
 40
2.021170126669956
 40
2.936094642415474
 40
3.850986246233533
 40
4.856834999707305
 40
5.863204271545731
 40
9.145271773456344
 40
12.43110767220473
 40
12.43110767220473
 40
12.43110767220473
 40
12.43110767220473
 10
334.4999960854709
 20
832.9999952807068
 30
0.0
 10
334.7820938749393
 20
832.8158435973453
 30
0.0
 10
335.3462861396318
 20
832.4475424115179
 30
0.0
 10
336.1837399336657
 20
831.9407241708026
 30
0.0
 10
337.0052397621127
 20
831.4698331685943
 30
0.0
 10
337.8359601227583
 20
831.0189402163646
 30
0.0
 10
338.7034450664786
 20
830.5712572172694
 30
0.0
 10
340.2971614441568
 20
829.817995184971
 30
0.0
 10
342.6763166220493
 20
828.8774045209723
 30
0.0
 10
344.8751045841466
 20
828.7530927697949
 30
0.0
 10
345.975129353717
 20
828.6909012389798
 30
0.0
 11
334.4999960854709
 21
832.9999952807068
 31
0.0
 11
335.349364554414
 21
832.4523937848417
 31
0.0
 11
336.2131411379324
 21
831.9278366810676
 31
0.0
 11
337.0069575129292
 21
831.4729274235475
 31
0.0
 11
337.8107989515186
 21
831.036045757621
 31
0.0
 11
338.7056355646907
 21
830.5766993165427
 31
0.0
 11
339.6152076779326
 21
830.1460513350485
 31
0.0
 11
342.7090298693922
 21
829.0505006282083
 31
0.0
 11
345.975129353717
 21
828.6909012389798
 31
0.0
  0
SPLINE
  5
15C
330
5D
100
AcDbEntity
  8
1
  6
Continuous
 62
     7
100
AcDbSpline
210
0.0
220
0.0
230
1.0
 70
     8
 71
     3
 72
    15
 73
    11
 74
     9
 42
0.000000001
 43
0.0000000001
 44
0.00000001
 40
0.0
 40
0.0
 40
0.0
 40
0.0
 40
1.010591013953066
 40
2.021170126669956
 40
2.936094642415573
 40
3.850986246233532
 40
4.856834999707153
 40
5.863204271545682
 40
9.145271773456217
 40
12.43110767220459
 40
12.43110767220459
 40
12.43110767220459
 40
12.43110767220459
 10
736.9999992462405
 20
467.400412101697
 30
0.0
 10
736.8158475628788
 20
467.1183143122287
 30
0.0
 10
736.4475463770518
 20
466.5541220475362
 30
0.0
 10
735.9407281363358
 20
465.716668253502
 30
0.0
 10
735.4698371341282
 20
464.8951684250553
 30
0.0
 10
735.0189441818984
 20
464.0644480644096
 30
0.0
 10
734.5712611828028
 20
463.1969631206895
 30
0.0
 10
733.8179991505048
 20
461.6032467430113
 30
0.0
 10
732.8774084865063
 20
459.2240915651185
 30
0.0
 10
732.7530967353284
 20
457.0253036030215
 30
0.0
 10
732.6909052045133
 20
455.925278833451
 30
0.0
 11
736.9999992462405
 21
467.400412101697
 31
0.0
 11
736.4523977503753
 21
466.551043632754
 31
0.0
 11
735.9278406466012
 21
465.6872670492355
 31
0.0
 11
735.4729313890812
 21
464.8934506742386
 31
0.0
 11
735.0360497231546
 21
464.0896092356493
 31
0.0
 11
734.5767032820763
 21
463.1947726224773
 31
0.0
 11
734.1460553005821
 21
462.2852005092354
 31
0.0
 11
733.0505045937422
 21
459.1913783177757
 31
0.0
 11
732.6909052045133
 21
455.925278833451
 31
0.0
  0
ENDBLK
  5
5F
330
5D
100
AcDbEntity
  8
0
100
AcDbBlockEnd
  0
BLOCK
  5
61
330
60
100
AcDbEntity
  8
0
100
AcDbBlockBegin
  2
78-3A-C4K__8
 70
     0
 10
2036.355335836641
 20
395.5450724894463
 30
0.0
  3
78-3A-C4K__8
  1

  0
LINE
  5
15D
330
60
100
AcDbEntity
  8
1
  6
Continuous
 62
     7
100
AcDbLine
 10
358.9855365244457
 20
849.1364326739467
 30
0.0
 11
403.7251340369164
 21
849.1364326739467
 31
0.0
  0
LINE
  5
15E
330
60
100
AcDbEntity
  8
1
  6
Continuous
 62
     7
100
AcDbLine
 10
356.3553352806805
 20
851.4999952807068
 30
0.0
 11
406.3553352806805
 21
851.4999952807068
 31
0.0
  0
LINE
  5
15F
330
60
100
AcDbEntity
  8
1
  6
Continuous
 62
     7
100
AcDbLine
 10
356.3553352806805
 20
851.4999952807068
 30
0.0
 11
356.3553352806805
 21
849.2806201281928
 31
0.0
  0
LINE
  5
160
330
60
100
AcDbEntity
  8
1
  6
Continuous
 62
     7
100
AcDbLine
 10
406.3553352806805
 20
849.2806201281928
 30
0.0
 11
406.3553352806805
 21
851.4999952807068
 31
0.0
  0
LINE
  5
161
330
60
100
AcDbEntity
  8
1
  6
Continuous
 62
     7
100
AcDbLine
 10
394.6292492688765
 20
841.0191264712638
 30
0.0
 11
405.9800303282345
 21
848.4997513187498
 31
0.0
  0
LINE
  5
162
330
60
100
AcDbEntity
  8
1
  6
Continuous
 62
     7
100
AcDbLine
 10
394.0045542213225
 20
840.7999952807068
 30
0.0
 11
368.7061163400394
 21
840.7999952807068
 31
0.0
  0
LINE
  5
163
330
60
100
AcDbEntity
  8
1
  6
Continuous
 62
     7
100
AcDbLine
 10
368.0814212924854
 20
841.0191264712638
 30
0.0
 11
356.7306402331265
 21
848.4997513187498
 31
0.0
  0
LINE
  5
164
330
60
100
AcDbEntity
  8
1
  6
Continuous
 62
     7
100
AcDbLine
 10
745.0191304367976
 20
433.8189868946825
 30
0.0
 11
752.4997552842834
 21
445.1697679540415
 31
0.0
  0
LINE
  5
165
330
60
100
AcDbEntity
  8
1
  6
Continuous
 62
     7
100
AcDbLine
 10
744.7999992462404
 20
407.8958539658455
 30
0.0
 11
744.7999992462404
 21
433.1942918471285
 31
0.0
  0
LINE
  5
166
330
60
100
AcDbEntity
  8
1
  6
Continuous
 62
     7
100
AcDbLine
 10
745.0191304367976
 20
407.2711589182914
 30
0.0
 11
752.4997552842834
 21
395.9203778589333
 31
0.0
  0
LINE
  5
167
330
60
100
AcDbEntity
  8
1
  6
Continuous
 62
     7
100
AcDbLine
 10
753.2806240937265
 20
395.5450729064874
 30
0.0
 11
755.4999992462405
 21
395.5450729064874
 31
0.0
  0
LINE
  5
168
330
60
100
AcDbEntity
  8
1
  6
Continuous
 62
     7
100
AcDbLine
 10
755.4999992462405
 20
445.5450729064874
 30
0.0
 11
753.2806240937265
 21
445.5450729064874
 31
0.0
  0
LINE
  5
169
330
60
100
AcDbEntity
  8
1
  6
Continuous
 62
     7
100
AcDbLine
 10
755.4999992462405
 20
445.5450729064874
 30
0.0
 11
755.4999992462405
 21
395.5450729064874
 31
0.0
  0
LINE
  5
16A
330
60
100
AcDbEntity
  8
1
  6
Continuous
 62
     7
100
AcDbLine
 10
753.1364366394804
 20
442.9148716627223
 30
0.0
 11
753.1364366394804
 21
398.1752741502513
 31
0.0
  0
ARC
  5
16B
330
60
100
AcDbEntity
  8
1
  6
Continuous
 62
     7
100
AcDbCircle
 10
405.3553352806805
 20
849.2806201281928
 30
0.0
 40
0.9999999999997514
100
AcDbArc
 50
308.6598082540692
 51
0.0
  0
ARC
  5
16C
330
60
100
AcDbEntity
  8
1
  6
Continuous
 62
     7
100
AcDbCircle
 10
394.0045542213225
 20
841.7999952807068
 30
0.0
 40
1.0
100
AcDbArc
 50
270.0
 51
308.6598082540733
  0
ARC
  5
16D
330
60
100
AcDbEntity
  8
1
  6
Continuous
 62
     7
100
AcDbCircle
 10
368.7061163400394
 20
841.7999952807068
 30
0.0
 40
0.9999999999996626
100
AcDbArc
 50
231.3401917459267
 51
270.0
  0
ARC
  5
16E
330
60
100
AcDbEntity
  8
1
  6
Continuous
 62
     7
100
AcDbCircle
 10
357.3553352806805
 20
849.2806201281928
 30
0.0
 40
1.0
100
AcDbArc
 50
180.0
 51
231.3401917459308
  0
ARC
  5
16F
330
60
100
AcDbEntity
  8
1
  6
Continuous
 62
     7
100
AcDbCircle
 10
381.3553362536819
 20
420.5450724894461
 30
0.0
 40
25.00000000000001
100
AcDbArc
 50
162.3871075026543
 51
107.6128924973461
  0
ARC
  5
170
330
60
100
AcDbEntity
  8
1
  6
Continuous
 62
     7
100
AcDbCircle
 10
753.2806240937265
 20
444.5450729064874
 30
0.0
 40
1.0
100
AcDbArc
 50
90.0
 51
141.3401917459257
  0
ARC
  5
171
330
60
100
AcDbEntity
  8
1
  6
Continuous
 62
     7
100
AcDbCircle
 10
745.7999992462404
 20
433.1942918471285
 30
0.0
 40
0.9999999999995738
100
AcDbArc
 50
141.3401917459226
 51
180.0
  0
ARC
  5
172
330
60
100
AcDbEntity
  8
1
  6
Continuous
 62
     7
100
AcDbCircle
 10
745.7999992462404
 20
407.8958539658455
 30
0.0
 40
1.0
100
AcDbArc
 50
180.0
 51
218.6598082540824
  0
ARC
  5
173
330
60
100
AcDbEntity
  8
1
  6
Continuous
 62
     7
100
AcDbCircle
 10
753.2806240937265
 20
396.5450729064874
 30
0.0
 40
0.9999999999998224
100
AcDbArc
 50
218.6598082540743
 51
270.0
  0
ENDBLK
  5
62
330
60
100
AcDbEntity
  8
0
100
AcDbBlockEnd
  0
BLOCK
  5
69
330
63
100
AcDbEntity
  8
0
100
AcDbBlockBegin
  2
U3-48F-50__9
 70
     0
 10
2043.499999625446
 20
723.200205106949
 30
0.0
  3
U3-48F-50__9
  1

  0
INSERT
  5
64
330
63
100
AcDbEntity
  8
1
100
AcDbBlockReference
  2
30-108XK__4
 10
2051.85533918451
 20
411.0450695586184
 30
0.0
  0
INSERT
  5
65
330
63
100
AcDbEntity
  8
1
100
AcDbBlockReference
  2
35-6A-8-C2K__5
 10
2017.599996641432
 20
447.5004121016971
 30
0.0
  0
INSERT
  5
66
330
63
100
AcDbEntity
  8
1
100
AcDbBlockReference
  2
32-3-M1K__6
 10
2010.999996641431
 20
439.1150614005453
 30
0.0
  0
INSERT
  5
67
330
63
100
AcDbEntity
  8
1
100
AcDbBlockReference
  2
03-47-50-M1K__7
 10
2014.438564594761
 20
409.0450724894462
 30
0.0
  0
INSERT
  5
68
330
63
100
AcDbEntity
  8
1
100
AcDbBlockReference
  2
78-3A-C4K__8
 10
2036.355335836641
 20
395.5450724894463
 30
0.0
  0
ENDBLK
  5
6A
330
63
100
AcDbEntity
  8
0
100
AcDbBlockEnd
  0
BLOCK
  5
6C
330
6B
100
AcDbEntity
  8
0
100
AcDbBlockBegin
  2
32-1-16-M2K
 70
     0
 10
271.9999991939369
 20
426.4004068455112
 30
0.0
  3
32-1-16-M2K
  1

  0
LINE
  5
174
330
6B
100
AcDbEntity
  8
1
  6
Continuous
 62
     7
100
AcDbLine
 10
699.299999246241
 20
436.4004081600602
 30
0.0
 11
685.999999246241
 21
436.4004081600592
 31
0.0
  0
LINE
  5
175
330
6B
100
AcDbEntity
  8
1
  6
Continuous
 62
     7
100
AcDbLine
 10
685.999999246241
 20
436.4004081600592
 30
0.0
 11
672.6999992462411
 21
436.4004081600602
 31
0.0
  0
LINE
  5
176
330
6B
100
AcDbEntity
  8
1
  6
Continuous
 62
     7
100
AcDbLine
 10
677.999999246241
 20
426.4004081600592
 30
0.0
 11
685.999999246241
 21
426.4004081600592
 31
0.0
  0
LINE
  5
177
330
6B
100
AcDbEntity
  8
1
  6
Continuous
 62
     7
100
AcDbLine
 10
685.999999246241
 20
426.4004081600592
 30
0.0
 11
693.999999246241
 21
426.4004081600592
 31
0.0
  0
LINE
  5
178
330
6B
100
AcDbEntity
  8
1
  6
Continuous
 62
     7
100
AcDbLine
 10
674.499999246241
 20
427.4004081600592
 30
0.0
 11
674.4419781845099
 21
427.4004081600592
 31
0.0
  0
LINE
  5
179
330
6B
100
AcDbEntity
  8
1
  6
Continuous
 62
     7
100
AcDbLine
 10
676.2320500538101
 20
426.4004081600582
 30
0.0
 11
677.799999246241
 21
426.4004081600592
 31
0.0
  0
LINE
  5
17A
330
6B
100
AcDbEntity
  8
1
  6
Continuous
 62
     7
100
AcDbLine
 10
677.799999246241
 20
426.4004081600592
 30
0.0
 11
677.999999246241
 21
426.4004081600592
 31
0.0
  0
LINE
  5
17B
330
6B
100
AcDbEntity
  8
1
  6
Continuous
 62
     7
100
AcDbLine
 10
697.558020307971
 20
427.4004081600592
 30
0.0
 11
697.4999992462399
 21
427.4004081600582
 31
0.0
  0
LINE
  5
17C
330
6B
100
AcDbEntity
  8
1
  6
Continuous
 62
     7
100
AcDbLine
 10
694.1999992462411
 20
426.4004081600592
 30
0.0
 11
695.767948438672
 21
426.4004081600592
 31
0.0
  0
LINE
  5
17D
330
6B
100
AcDbEntity
  8
1
  6
Continuous
 62
     7
100
AcDbLine
 10
693.999999246241
 20
426.4004081600592
 30
0.0
 11
694.1999992462411
 21
426.4004081600592
 31
0.0
  0
LINE
  5
17E
330
6B
100
AcDbEntity
  8
1
  6
Continuous
 62
     7
100
AcDbLine
 10
285.9999991939369
 20
436.4004068455112
 30
0.0
 11
272.699999193937
 21
436.4004068455112
 31
0.0
  0
LINE
  5
17F
330
6B
100
AcDbEntity
  8
1
  6
Continuous
 62
     7
100
AcDbLine
 10
274.4999991939369
 20
427.4004068455112
 30
0.0
 11
274.441978132206
 21
427.4004068455112
 31
0.0
  0
LINE
  5
180
330
6B
100
AcDbEntity
  8
1
  6
Continuous
 62
     7
100
AcDbLine
 10
271.9999991939369
 20
428.6872295957982
 30
0.0
 11
271.9999991939369
 21
435.8286580243402
 31
0.0
  0
LINE
  5
181
330
6B
100
AcDbEntity
  8
1
  6
Continuous
 62
     7
100
AcDbLine
 10
299.2999991939371
 20
436.4004068455112
 30
0.0
 11
285.9999991939369
 21
436.4004068455112
 31
0.0
  0
LINE
  5
182
330
6B
100
AcDbEntity
  8
1
  6
Continuous
 62
     7
100
AcDbLine
 10
299.9999991939369
 20
435.8286580243402
 30
0.0
 11
299.9999991939369
 21
428.6872295957982
 31
0.0
  0
LINE
  5
183
330
6B
100
AcDbEntity
  8
1
  6
Continuous
 62
     7
100
AcDbLine
 10
297.5580202556671
 20
427.4004068455112
 30
0.0
 11
297.4999991939369
 21
427.4004068455112
 31
0.0
  0
LINE
  5
184
330
6B
100
AcDbEntity
  8
1
  6
Continuous
 62
     7
100
AcDbLine
 10
294.199999193937
 20
426.4004068455112
 30
0.0
 11
295.7679483863681
 21
426.4004068455112
 31
0.0
  0
LINE
  5
185
330
6B
100
AcDbEntity
  8
1
  6
Continuous
 62
     7
100
AcDbLine
 10
285.9999991939369
 20
426.4004068455112
 30
0.0
 11
294.199999193937
 21
426.4004068455112
 31
0.0
  0
LINE
  5
186
330
6B
100
AcDbEntity
  8
1
  6
Continuous
 62
     7
100
AcDbLine
 10
277.7999991939371
 20
426.4004068455112
 30
0.0
 11
285.9999991939369
 21
426.4004068455112
 31
0.0
  0
LINE
  5
187
330
6B
100
AcDbEntity
  8
1
  6
Continuous
 62
     7
100
AcDbLine
 10
276.232050001506
 20
426.4004068455112
 30
0.0
 11
277.7999991939371
 21
426.4004068455112
 31
0.0
  0
ARC
  5
188
330
6B
100
AcDbEntity
  8
1
  6
Continuous
 62
     7
100
AcDbCircle
 10
675.499999246241
 20
432.2579451246182
 30
0.0
 40
5.000000000000314
100
AcDbArc
 50
124.0557977425648
 51
254.6624423304394
  0
ARC
  5
189
330
6B
100
AcDbEntity
  8
1
  6
Continuous
 62
     7
100
AcDbCircle
 10
695.767948438672
 20
427.4004081600582
 30
0.0
 40
0.9999999999989768
100
AcDbArc
 50
270.0
 51
317.0585971351334
  0
ARC
  5
18A
330
6B
100
AcDbEntity
  8
1
  6
Continuous
 62
     7
100
AcDbCircle
 10
676.2320500538101
 20
427.4004081600582
 30
0.0
 40
0.9999999999999809
100
AcDbArc
 50
222.9414028648628
 51
270.0
  0
ARC
  5
18B
330
6B
100
AcDbEntity
  8
1
  6
Continuous
 62
     7
100
AcDbCircle
 10
676.2320500538101
 20
427.4004081600582
 30
0.0
 40
0.9999999999999643
100
AcDbArc
 50
209.9999999999335
 51
222.9414028648628
  0
ARC
  5
18C
330
6B
100
AcDbEntity
  8
1
  6
Continuous
 62
     7
100
AcDbCircle
 10
674.499999246241
 20
426.4004081600592
 30
0.0
 40
0.9999999999996882
100
AcDbArc
 50
30.00000000001031
 51
90.0
  0
ARC
  5
18D
330
6B
100
AcDbEntity
  8
1
  6
Continuous
 62
     7
100
AcDbCircle
 10
674.4419781845099
 20
428.4004081600582
 30
0.0
 40
0.9999999999994861
100
AcDbArc
 50
254.6624423304196
 51
270.0
  0
ARC
  5
18E
330
6B
100
AcDbEntity
  8
1
  6
Continuous
 62
     7
100
AcDbCircle
 10
697.558020307971
 20
428.4004081600582
 30
0.0
 40
0.9999999999989768
100
AcDbArc
 50
270.0
 51
285.3375576695804
  0
ARC
  5
18F
330
6B
100
AcDbEntity
  8
1
  6
Continuous
 62
     7
100
AcDbCircle
 10
697.4999992462399
 20
426.4004081600592
 30
0.0
 40
0.9999999999989768
100
AcDbArc
 50
90.0
 51
150.0000000000079
  0
ARC
  5
190
330
6B
100
AcDbEntity
  8
1
  6
Continuous
 62
     7
100
AcDbCircle
 10
696.499999246241
 20
432.2579451246182
 30
0.0
 40
5.000000000000841
100
AcDbArc
 50
285.337557669548
 51
55.94420225743515
  0
ARC
  5
191
330
6B
100
AcDbEntity
  8
1
  6
Continuous
 62
     7
100
AcDbCircle
 10
695.767948438672
 20
427.4004081600582
 30
0.0
 40
0.9999999999984903
100
AcDbArc
 50
317.0585971351334
 51
330.0000000000158
  0
ARC
  5
192
330
6B
100
AcDbEntity
  8
1
  6
Continuous
 62
     7
100
AcDbCircle
 10
275.4999991939369
 20
432.2579438100692
 30
0.0
 40
4.999999999999691
100
AcDbArc
 50
225.5729959991908
 51
254.6624423304389
  0
ARC
  5
193
330
6B
100
AcDbEntity
  8
1
  6
Continuous
 62
     7
100
AcDbCircle
 10
274.4999991939369
 20
426.4004068455112
 30
0.0
 40
1.000000000000476
100
AcDbArc
 50
29.99999999998426
 51
90.0
  0
ARC
  5
194
330
6B
100
AcDbEntity
  8
1
  6
Continuous
 62
     7
100
AcDbCircle
 10
276.232050001506
 20
427.4004068455112
 30
0.0
 40
0.9999999999997374
100
AcDbArc
 50
210.0000000000087
 51
222.941402864863
  0
ARC
  5
195
330
6B
100
AcDbEntity
  8
1
  6
Continuous
 62
     7
100
AcDbCircle
 10
274.441978132206
 20
428.4004068455112
 30
0.0
 40
1.000000000000458
100
AcDbArc
 50
254.6624423304383
 51
270.0
  0
ARC
  5
196
330
6B
100
AcDbEntity
  8
1
  6
Continuous
 62
     7
100
AcDbCircle
 10
275.4999991939369
 20
432.2579438100692
 30
0.0
 40
5.000000000000282
100
AcDbArc
 50
124.0557977425643
 51
134.4270040008092
  0
ARC
  5
197
330
6B
100
AcDbEntity
  8
1
  6
Continuous
 62
     7
100
AcDbCircle
 10
296.4999991939369
 20
432.2579438100692
 30
0.0
 40
4.999999999999691
100
AcDbArc
 50
45.57299599919083
 51
55.94420225743301
  0
ARC
  5
198
330
6B
100
AcDbEntity
  8
1
  6
Continuous
 62
     7
100
AcDbCircle
 10
296.4999991939369
 20
432.2579438100692
 30
0.0
 40
4.999999999998968
100
AcDbArc
 50
285.337557669556
 51
314.4270040008092
  0
ARC
  5
199
330
6B
100
AcDbEntity
  8
1
  6
Continuous
 62
     7
100
AcDbCircle
 10
297.4999991939369
 20
426.4004068455112
 30
0.0
 40
1.0
100
AcDbArc
 50
90.0
 51
150.0000000000157
  0
ARC
  5
19A
330
6B
100
AcDbEntity
  8
1
  6
Continuous
 62
     7
100
AcDbCircle
 10
295.7679483863681
 20
427.4004068455112
 30
0.0
 40
1.0
100
AcDbArc
 50
270.0
 51
317.0585971351238
  0
ARC
  5
19B
330
6B
100
AcDbEntity
  8
1
  6
Continuous
 62
     7
100
AcDbCircle
 10
295.7679483863681
 20
427.4004068455112
 30
0.0
 40
0.9999999999998116
100
AcDbArc
 50
317.0585971351238
 51
329.9999999999816
  0
ARC
  5
19C
330
6B
100
AcDbEntity
  8
1
  6
Continuous
 62
     7
100
AcDbCircle
 10
297.5580202556671
 20
428.4004068455112
 30
0.0
 40
1.0
100
AcDbArc
 50
270.0
 51
285.3375576695772
  0
ARC
  5
19D
330
6B
100
AcDbEntity
  8
1
  6
Continuous
 62
     7
100
AcDbCircle
 10
276.232050001506
 20
427.4004068455112
 30
0.0
 40
1.000000000000061
100
AcDbArc
 50
222.941402864863
 51
270.0
  0
SPLINE
  5
19E
330
6B
100
AcDbEntity
  8
1
  6
Continuous
 62
     7
100
AcDbSpline
210
0.0
220
0.0
230
1.0
 70
     8
 71
     3
 72
    43
 73
    39
 74
    37
 42
0.000000001
 43
0.0000000001
 44
0.00000001
 40
0.0
 40
0.0
 40
0.0
 40
0.0
 40
0.5012710843395625
 40
1.001984463930124
 40
1.493602126605766
 40
1.985705219749952
 40
2.512425576728961
 40
3.038783438875788
 40
3.434645311125553
 40
3.83070317835996
 40
4.329133498961666
 40
4.827210800366759
 40
5.1319646057808
 40
5.436749649743429
 40
5.790243650595727
 40
6.143721605026325
 40
6.471929713740256
 40
6.80002063957044
 40
7.113894033178837
 40
7.427712066034222
 40
7.741528922243642
 40
8.055403652995356
 40
8.383501446702489
 40
8.711702486329543
 40
9.065150480971255
 40
9.418674341681946
 40
9.80367479268871
 40
10.18871462779228
 40
10.60671039657438
 40
11.02475419730995
 40
11.47339317430693
 40
11.92198654484692
 40
12.39577734700018
 40
12.86975782266776
 40
13.36182386353906
 40
13.85347801461043
 40
14.35420362164848
 40
14.85546263509442
 40
14.85546263509442
 40
14.85546263509442
 40
14.85546263509442
 10
292.9999992955936
 20
435.8286600781795
 30
0.0
 10
292.8329897672414
 20
435.823488023989
 30
0.0
 10
292.4991565226161
 20
435.8131496583466
 30
0.0
 10
292.0021033457602
 20
435.780409196132
 30
0.0
 10
291.5113924816653
 20
435.7138103760649
 30
0.0
 10
291.0173473911704
 20
435.6154748843564
 30
0.0
 10
290.5184344549964
 20
435.4862160485677
 30
0.0
 10
290.0596244855709
 20
435.3339741088606
 30
0.0
 10
289.6523217512462
 20
435.1683959293911
 30
0.0
 10
289.2642267135221
 20
434.9823481347745
 30
0.0
 10
288.8610587058653
 20
434.7510933726699
 30
0.0
 10
288.5063886917699
 20
434.4999642973774
 30
0.0
 10
288.2248776955182
 20
434.2606351340394
 30
0.0
 10
287.9963244573486
 20
434.0347616771335
 30
0.0
 10
287.7781784809049
 20
433.7767894318302
 30
0.0
 10
287.5849900234216
 20
433.4899199097638
 30
0.0
 10
287.431185237859
 20
433.1896231893376
 30
0.0
 10
287.3208975213897
 20
432.8845751804944
 30
0.0
 10
287.2543071453417
 20
432.5720193043637
 30
0.0
 10
287.2315575372238
 20
432.2579462945152
 30
0.0
 10
287.2543054099118
 20
431.9438726100283
 30
0.0
 10
287.3208976743717
 20
431.6313146170599
 30
0.0
 10
287.4311887221773
 20
431.3262672733615
 30
0.0
 10
287.5849854320119
 20
431.0259790505959
 30
0.0
 10
287.7781752499023
 20
430.7391079335072
 30
0.0
 10
288.0136069216703
 20
430.4606971828166
 30
0.0
 10
288.2832590443309
 20
430.1999011793795
 30
0.0
 10
288.5924346464358
 20
429.9516770250631
 30
0.0
 10
288.9304939641747
 20
429.7241446259104
 30
0.0
 10
289.3036608489165
 20
429.5133209505852
 30
0.0
 10
289.700173994553
 20
429.3253823407424
 30
0.0
 10
290.1258236012157
 20
429.1581319747305
 30
0.0
 10
290.5693821380441
 20
429.0160213036354
 30
0.0
 10
291.034582843751
 20
428.8969908714448
 30
0.0
 10
291.5113835492521
 20
428.8020961969139
 30
0.0
 10
292.0020945731875
 20
428.735481078945
 30
0.0
 10
292.4991603738949
 20
428.7027355282844
 30
0.0
 10
292.8329937494967
 20
428.6924014391039
 30
0.0
 10
292.9999992955936
 20
428.6872316496366
 30
0.0
 11
292.9999992955936
 21
435.8286600781795
 31
0.0
 11
292.4990669688165
 21
435.8102342738059
 31
0.0
 11
291.9996365744598
 21
435.7744129059134
 31
0.0
 11
291.5124090077563
 21
435.7088596818543
 31
0.0
 11
291.0296693683999
 21
435.6133196619943
 31
0.0
 11
290.5199589573185
 21
435.4805430385381
 31
0.0
 11
290.0206117565717
 21
435.3140949308826
 31
0.0
 11
289.654004649383
 21
435.1647434960794
 31
0.0
 11
289.2969903093988
 21
434.9932716457166
 31
0.0
 11
288.8651836716368
 21
434.7443222282628
 31
0.0
 11
288.4593822140982
 21
434.4555209546535
 31
0.0
 11
288.2274504274187
 21
434.2578279390804
 31
0.0
 11
288.0109487847246
 21
434.0433029710438
 31
0.0
 11
287.7832986680887
 21
433.7728710326685
 31
0.0
 11
287.5865623117536
 21
433.4792020512481
 31
0.0
 11
287.4375090207028
 21
433.1867919294687
 31
0.0
 11
287.3266603822051
 21
432.8779938801857
 31
0.0
 11
287.2614458032971
 21
432.5709701576685
 31
0.0
 11
287.239139984692
 21
432.2579458639081
 31
0.0
 11
287.2614444760496
 21
431.9449226552014
 31
0.0
 11
287.3266603822053
 21
431.6378978476304
 31
0.0
 11
287.4375132493104
 21
431.3290940193255
 31
0.0
 11
287.5865623117536
 21
431.0366896765678
 31
0.0
 11
287.7832813897125
 21
430.7430451813574
 31
0.0
 11
288.0109487847246
 21
430.4725887567723
 31
0.0
 11
288.2871463267643
 21
430.2043719315606
 31
0.0
 11
288.5869250328874
 21
429.9627350092427
 31
0.0
 11
288.9333274744332
 21
429.7287995235027
 31
0.0
 11
289.2969903093988
 21
429.5226200820995
 31
0.0
 11
289.7022052951694
 21
429.3300642531215
 31
0.0
 11
290.1195696401428
 21
429.1656166446948
 31
0.0
 11
290.5706103746632
 21
429.0205649975876
 31
0.0
 11
291.0296693683999
 21
428.9025720658218
 31
0.0
 11
291.5123742161306
 21
428.8070471001096
 31
0.0
 11
291.9996365744598
 21
428.7414788219027
 31
0.0
 11
292.4990788586584
 21
428.7056523093401
 31
0.0
 11
292.9999992955936
 21
428.6872316496366
 31
0.0
  0
SPLINE
  5
19F
330
6B
100
AcDbEntity
  8
1
  6
Continuous
 62
     7
100
AcDbSpline
210
0.0
220
0.0
230
1.0
 70
     8
 71
     3
 72
    43
 73
    39
 74
    37
 42
0.000000001
 43
0.0000000001
 44
0.00000001
 40
0.0
 40
0.0
 40
0.0
 40
0.0
 40
0.5012710843394488
 40
1.001984463929897
 40
1.493602126605482
 40
1.985705219749669
 40
2.512425576728678
 40
3.038783438875558
 40
3.434645311125271
 40
3.830703178359678
 40
4.329133498961434
 40
4.82721080036648
 40
5.131964605780521
 40
5.43674964974315
 40
5.790243650595448
 40
6.143721605026078
 40
6.471929713740035
 40
6.800020639570181
 40
7.11389403317859
 40
7.42771206603398
 40
7.741528922243335
 40
8.055403652995103
 40
8.383501446702256
 40
8.711702486329362
 40
9.06515048097106
 40
9.418674341681795
 40
9.803674792688355
 40
10.18871462779175
 40
10.60671039657403
 40
11.02475419730986
 40
11.47339317430678
 40
11.92198654484677
 40
12.39577734700011
 40
12.86975782266767
 40
13.36182386353886
 40
13.85347801461028
 40
14.35420362164822
 40
14.85546263509405
 40
14.85546263509405
 40
14.85546263509405
 40
14.85546263509405
 10
292.9999992955936
 20
435.8286600781795
 30
0.0
 10
293.1670088239459
 20
435.8234880239888
 30
0.0
 10
293.5008420685712
 20
435.8131496583468
 30
0.0
 10
293.9978952454268
 20
435.780409196132
 30
0.0
 10
294.4886061095218
 20
435.7138103760652
 30
0.0
 10
294.9826512000166
 20
435.6154748843563
 30
0.0
 10
295.4815641361906
 20
435.4862160485679
 30
0.0
 10
295.9403741056161
 20
435.3339741088606
 30
0.0
 10
296.3476768399408
 20
435.1683959293911
 30
0.0
 10
296.7357718776649
 20
434.9823481347744
 30
0.0
 10
297.1389398853216
 20
434.7510933726698
 30
0.0
 10
297.4936098994171
 20
434.4999642973773
 30
0.0
 10
297.7751208956688
 20
434.2606351340395
 30
0.0
 10
298.0036741338383
 20
434.0347616771334
 30
0.0
 10
298.2218201102821
 20
433.7767894318303
 30
0.0
 10
298.4150085677655
 20
433.4899199097637
 30
0.0
 10
298.5688133533279
 20
433.1896231893376
 30
0.0
 10
298.6791010697972
 20
432.8845751804946
 30
0.0
 10
298.7456914458454
 20
432.5720193043637
 30
0.0
 10
298.7684410539633
 20
432.2579462945152
 30
0.0
 10
298.7456931812754
 20
431.9438726100284
 30
0.0
 10
298.6791009168155
 20
431.6313146170598
 30
0.0
 10
298.5688098690098
 20
431.3262672733615
 30
0.0
 10
298.4150131591751
 20
431.0259790505959
 30
0.0
 10
298.2218233412845
 20
430.7391079335073
 30
0.0
 10
297.9863916695168
 20
430.4606971828167
 30
0.0
 10
297.7167395468563
 20
430.1999011793795
 30
0.0
 10
297.4075639447516
 20
429.9516770250628
 30
0.0
 10
297.0695046270125
 20
429.7241446259104
 30
0.0
 10
296.6963377422705
 20
429.5133209505852
 30
0.0
 10
296.299824596634
 20
429.3253823407424
 30
0.0
 10
295.8741749899713
 20
429.1581319747305
 30
0.0
 10
295.4306164531429
 20
429.0160213036355
 30
0.0
 10
294.9654157474359
 20
428.8969908714448
 30
0.0
 10
294.4886150419349
 20
428.8020961969139
 30
0.0
 10
293.9979040179996
 20
428.735481078945
 30
0.0
 10
293.5008382172921
 20
428.7027355282844
 30
0.0
 10
293.1670048416907
 20
428.6924014391039
 30
0.0
 10
292.9999992955936
 20
428.6872316496366
 30
0.0
 11
292.9999992955936
 21
435.8286600781795
 31
0.0
 11
293.5009316223707
 21
435.8102342738059
 31
0.0
 11
294.0003620167272
 21
435.7744129059134
 31
0.0
 11
294.4875895834307
 21
435.7088596818543
 31
0.0
 11
294.9703292227871
 21
435.6133196619943
 31
0.0
 11
295.4800396338685
 21
435.4805430385381
 31
0.0
 11
295.9793868346153
 21
435.3140949308826
 31
0.0
 11
296.345993941804
 21
435.1647434960794
 31
0.0
 11
296.7030082817882
 21
434.9932716457166
 31
0.0
 11
297.1348149195502
 21
434.7443222282628
 31
0.0
 11
297.5406163770888
 21
434.4555209546535
 31
0.0
 11
297.7725481637683
 21
434.2578279390804
 31
0.0
 11
297.9890498064624
 21
434.0433029710438
 31
0.0
 11
298.2166999230982
 21
433.7728710326685
 31
0.0
 11
298.4134362794334
 21
433.4792020512481
 31
0.0
 11
298.5624895704843
 21
433.1867919294687
 31
0.0
 11
298.6733382089819
 21
432.8779938801857
 31
0.0
 11
298.7385527878899
 21
432.5709701576685
 31
0.0
 11
298.7608586064951
 21
432.2579458639081
 31
0.0
 11
298.7385541151376
 21
431.9449226552015
 31
0.0
 11
298.6733382089819
 21
431.6378978476304
 31
0.0
 11
298.5624853418767
 21
431.3290940193255
 31
0.0
 11
298.4134362794334
 21
431.0366896765678
 31
0.0
 11
298.2167172014745
 21
430.7430451813575
 31
0.0
 11
297.9890498064624
 21
430.4725887567723
 31
0.0
 11
297.712852264423
 21
430.2043719315606
 31
0.0
 11
297.4130735583001
 21
429.9627350092427
 31
0.0
 11
297.066671116754
 21
429.7287995235027
 31
0.0
 11
296.7030082817882
 21
429.5226200820995
 31
0.0
 11
296.2977932960176
 21
429.3300642531215
 31
0.0
 11
295.8804289510442
 21
429.1656166446948
 31
0.0
 11
295.4293882165238
 21
429.0205649975875
 31
0.0
 11
294.9703292227871
 21
428.9025720658218
 31
0.0
 11
294.4876243750565
 21
428.8070471001096
 31
0.0
 11
294.0003620167272
 21
428.7414788219027
 31
0.0
 11
293.5009197325287
 21
428.7056523093401
 31
0.0
 11
292.9999992955936
 21
428.6872316496366
 31
0.0
  0
SPLINE
  5
1A0
330
6B
100
AcDbEntity
  8
1
  6
Continuous
 62
     7
100
AcDbSpline
210
0.0
220
0.0
230
1.0
 70
     8
 71
     3
 72
    43
 73
    39
 74
    37
 42
0.000000001
 43
0.0000000001
 44
0.00000001
 40
0.0
 40
0.0
 40
0.0
 40
0.0
 40
0.5012710843395056
 40
1.001984463930124
 40
1.493602126605709
 40
1.985705219749895
 40
2.512425576728905
 40
3.038783438875785
 40
3.434645311125498
 40
3.830703178359905
 40
4.329133498961471
 40
4.827210800366312
 40
5.131964605780563
 40
5.436749649743314
 40
5.790243650595649
 40
6.143721605026247
 40
6.471929713740204
 40
6.80002063957035
 40
7.113894033178735
 40
7.427712066034112
 40
7.741528922243528
 40
8.055403652995206
 40
8.38350144670234
 40
8.711702486329393
 40
9.065150480971138
 40
9.418674341681829
 40
9.803674792688634
 40
10.18871462779216
 40
10.60671039657426
 40
11.02475419730983
 40
11.47339317430676
 40
11.92198654484675
 40
12.39577734700007
 40
12.86975782266764
 40
13.36182386353883
 40
13.85347801461025
 40
14.35420362164831
 40
14.85546263509425
 40
14.85546263509425
 40
14.85546263509425
 40
14.85546263509425
 10
278.9999992955934
 20
435.8286600781795
 30
0.0
 10
279.1670088239457
 20
435.8234880239888
 30
0.0
 10
279.500842068571
 20
435.8131496583467
 30
0.0
 10
279.9978952454267
 20
435.780409196132
 30
0.0
 10
280.4886061095217
 20
435.713810376065
 30
0.0
 10
280.9826512000165
 20
435.6154748843563
 30
0.0
 10
281.4815641361906
 20
435.4862160485678
 30
0.0
 10
281.9403741056161
 20
435.3339741088606
 30
0.0
 10
282.3476768399408
 20
435.1683959293911
 30
0.0
 10
282.7357718776648
 20
434.9823481347746
 30
0.0
 10
283.1389398853213
 20
434.7510933726696
 30
0.0
 10
283.4936098994167
 20
434.4999642973772
 30
0.0
 10
283.7751208956685
 20
434.2606351340394
 30
0.0
 10
284.0036741338384
 20
434.0347616771336
 30
0.0
 10
284.2218201102821
 20
433.77678943183
 30
0.0
 10
284.4150085677654
 20
433.4899199097638
 30
0.0
 10
284.568813353328
 20
433.1896231893376
 30
0.0
 10
284.6791010697972
 20
432.8845751804946
 30
0.0
 10
284.7456914458453
 20
432.5720193043637
 30
0.0
 10
284.7684410539631
 20
432.2579462945152
 30
0.0
 10
284.7456931812749
 20
431.9438726100282
 30
0.0
 10
284.6791009168153
 20
431.6313146170599
 30
0.0
 10
284.5688098690097
 20
431.3262672733614
 30
0.0
 10
284.4150131591751
 20
431.0259790505961
 30
0.0
 10
284.2218233412846
 20
430.7391079335072
 30
0.0
 10
283.9863916695167
 20
430.4606971828166
 30
0.0
 10
283.716739546856
 20
430.1999011793795
 30
0.0
 10
283.4075639447511
 20
429.951677025063
 30
0.0
 10
283.0695046270123
 20
429.7241446259105
 30
0.0
 10
282.6963377422704
 20
429.513320950585
 30
0.0
 10
282.299824596634
 20
429.3253823407424
 30
0.0
 10
281.8741749899713
 20
429.1581319747305
 30
0.0
 10
281.4306164531429
 20
429.0160213036356
 30
0.0
 10
280.9654157474359
 20
428.8969908714446
 30
0.0
 10
280.4886150419349
 20
428.8020961969138
 30
0.0
 10
279.9979040179995
 20
428.7354810789452
 30
0.0
 10
279.500838217292
 20
428.7027355282843
 30
0.0
 10
279.1670048416904
 20
428.692401439104
 30
0.0
 10
278.9999992955934
 20
428.6872316496366
 30
0.0
 11
278.9999992955934
 21
435.8286600781795
 31
0.0
 11
279.5009316223705
 21
435.8102342738059
 31
0.0
 11
280.0003620167272
 21
435.7744129059134
 31
0.0
 11
280.4875895834307
 21
435.7088596818543
 31
0.0
 11
280.9703292227871
 21
435.6133196619943
 31
0.0
 11
281.4800396338685
 21
435.4805430385381
 31
0.0
 11
281.9793868346153
 21
435.3140949308826
 31
0.0
 11
282.345993941804
 21
435.1647434960794
 31
0.0
 11
282.7030082817882
 21
434.9932716457166
 31
0.0
 11
283.1348149195499
 21
434.7443222282627
 31
0.0
 11
283.5406163770883
 21
434.4555209546535
 31
0.0
 11
283.7725481637681
 21
434.2578279390803
 31
0.0
 11
283.9890498064624
 21
434.0433029710438
 31
0.0
 11
284.2166999230983
 21
433.7728710326685
 31
0.0
 11
284.4134362794334
 21
433.4792020512481
 31
0.0
 11
284.5624895704843
 21
433.1867919294687
 31
0.0
 11
284.6733382089819
 21
432.8779938801857
 31
0.0
 11
284.7385527878898
 21
432.5709701576685
 31
0.0
 11
284.7608586064948
 21
432.2579458639081
 31
0.0
 11
284.7385541151373
 21
431.9449226552014
 31
0.0
 11
284.6733382089817
 21
431.6378978476304
 31
0.0
 11
284.5624853418766
 21
431.3290940193255
 31
0.0
 11
284.4134362794334
 21
431.0366896765678
 31
0.0
 11
284.2167172014745
 21
430.7430451813574
 31
0.0
 11
283.9890498064624
 21
430.4725887567723
 31
0.0
 11
283.7128522644226
 21
430.2043719315606
 31
0.0
 11
283.4130735582996
 21
429.9627350092427
 31
0.0
 11
283.0666711167538
 21
429.7287995235027
 31
0.0
 11
282.7030082817882
 21
429.5226200820995
 31
0.0
 11
282.2977932960176
 21
429.3300642531215
 31
0.0
 11
281.8804289510442
 21
429.1656166446948
 31
0.0
 11
281.4293882165238
 21
429.0205649975876
 31
0.0
 11
280.9703292227871
 21
428.9025720658218
 31
0.0
 11
280.4876243750565
 21
428.8070471001096
 31
0.0
 11
280.0003620167272
 21
428.7414788219027
 31
0.0
 11
279.5009197325286
 21
428.7056523093401
 31
0.0
 11
278.9999992955934
 21
428.6872316496366
 31
0.0
  0
SPLINE
  5
1A1
330
6B
100
AcDbEntity
  8
1
  6
Continuous
 62
     7
100
AcDbSpline
210
0.0
220
0.0
230
1.0
 70
     8
 71
     3
 72
    43
 73
    39
 74
    37
 42
0.000000001
 43
0.0000000001
 44
0.00000001
 40
0.0
 40
0.0
 40
0.0
 40
0.0
 40
0.5012710843394488
 40
1.001984463929897
 40
1.493602126605539
 40
1.985705219749724
 40
2.512425576728734
 40
3.03878343887556
 40
3.434645311125326
 40
3.830703178359733
 40
4.329133498961439
 40
4.827210800366531
 40
5.131964605780572
 40
5.436749649743201
 40
5.790243650595543
 40
6.143721605026094
 40
6.471929713740025
 40
6.800020639570209
 40
7.11389403317863
 40
7.42771206603402
 40
7.741528922243375
 40
8.055403652995157
 40
8.38350144670233
 40
8.711702486329434
 40
9.06515048097113
 40
9.418674341681829
 40
9.80367479268843
 40
10.18871462779178
 40
10.60671039657411
 40
11.02475419730989
 40
11.47339317430691
 40
11.92198654484685
 40
12.39577734700006
 40
12.86975782266769
 40
13.36182386353899
 40
13.85347801461036
 40
14.35420362164841
 40
14.85546263509412
 40
14.85546263509412
 40
14.85546263509412
 40
14.85546263509412
 10
278.9999992955934
 20
435.8286600781795
 30
0.0
 10
278.8329897672411
 20
435.8234880239888
 30
0.0
 10
278.499156522616
 20
435.8131496583468
 30
0.0
 10
278.0021033457601
 20
435.7804091961319
 30
0.0
 10
277.5113924816653
 20
435.7138103760651
 30
0.0
 10
277.0173473911703
 20
435.6154748843564
 30
0.0
 10
276.5184344549964
 20
435.4862160485678
 30
0.0
 10
276.0596244855709
 20
435.3339741088606
 30
0.0
 10
275.6523217512462
 20
435.1683959293911
 30
0.0
 10
275.2642267135222
 20
434.9823481347745
 30
0.0
 10
274.8610587058653
 20
434.7510933726699
 30
0.0
 10
274.50638869177
 20
434.4999642973773
 30
0.0
 10
274.2248776955181
 20
434.2606351340395
 30
0.0
 10
273.9963244573486
 20
434.0347616771334
 30
0.0
 10
273.7781784809049
 20
433.7767894318301
 30
0.0
 10
273.5849900234215
 20
433.4899199097637
 30
0.0
 10
273.4311852378592
 20
433.1896231893377
 30
0.0
 10
273.3208975213897
 20
432.8845751804943
 30
0.0
 10
273.2543071453416
 20
432.5720193043638
 30
0.0
 10
273.2315575372236
 20
432.2579462945152
 30
0.0
 10
273.2543054099115
 20
431.9438726100283
 30
0.0
 10
273.3208976743715
 20
431.6313146170598
 30
0.0
 10
273.4311887221772
 20
431.3262672733614
 30
0.0
 10
273.5849854320119
 20
431.025979050596
 30
0.0
 10
273.7781752499025
 20
430.7391079335074
 30
0.0
 10
274.0136069216702
 20
430.4606971828167
 30
0.0
 10
274.2832590443307
 20
430.1999011793796
 30
0.0
 10
274.5924346464354
 20
429.951677025063
 30
0.0
 10
274.9304939641745
 20
429.7241446259104
 30
0.0
 10
275.3036608489164
 20
429.513320950585
 30
0.0
 10
275.700173994553
 20
429.3253823407425
 30
0.0
 10
276.1258236012156
 20
429.1581319747303
 30
0.0
 10
276.5693821380442
 20
429.0160213036356
 30
0.0
 10
277.034582843751
 20
428.8969908714448
 30
0.0
 10
277.5113835492521
 20
428.8020961969137
 30
0.0
 10
278.0020945731876
 20
428.7354810789452
 30
0.0
 10
278.4991603738948
 20
428.7027355282842
 30
0.0
 10
278.8329937494964
 20
428.6924014391038
 30
0.0
 10
278.9999992955934
 20
428.6872316496366
 30
0.0
 11
278.9999992955934
 21
435.8286600781795
 31
0.0
 11
278.4990669688164
 21
435.8102342738059
 31
0.0
 11
277.9996365744598
 21
435.7744129059134
 31
0.0
 11
277.5124090077563
 21
435.7088596818543
 31
0.0
 11
277.0296693683999
 21
435.6133196619943
 31
0.0
 11
276.5199589573185
 21
435.4805430385381
 31
0.0
 11
276.0206117565717
 21
435.3140949308826
 31
0.0
 11
275.654004649383
 21
435.1647434960794
 31
0.0
 11
275.2969903093988
 21
434.9932716457166
 31
0.0
 11
274.8651836716368
 21
434.7443222282628
 31
0.0
 11
274.4593822140982
 21
434.4555209546535
 31
0.0
 11
274.2274504274187
 21
434.2578279390804
 31
0.0
 11
274.0109487847246
 21
434.0433029710438
 31
0.0
 11
273.7832986680887
 21
433.7728710326685
 31
0.0
 11
273.5865623117536
 21
433.4792020512481
 31
0.0
 11
273.4375090207028
 21
433.1867919294687
 31
0.0
 11
273.3266603822051
 21
432.8779938801857
 31
0.0
 11
273.261445803297
 21
432.5709701576685
 31
0.0
 11
273.2391399846918
 21
432.2579458639081
 31
0.0
 11
273.2614444760493
 21
431.9449226552015
 31
0.0
 11
273.3266603822051
 21
431.6378978476304
 31
0.0
 11
273.4375132493103
 21
431.3290940193255
 31
0.0
 11
273.5865623117536
 21
431.0366896765678
 31
0.0
 11
273.7832813897126
 21
430.7430451813575
 31
0.0
 11
274.0109487847246
 21
430.4725887567723
 31
0.0
 11
274.2871463267641
 21
430.2043719315606
 31
0.0
 11
274.5869250328869
 21
429.9627350092427
 31
0.0
 11
274.933327474433
 21
429.7287995235027
 31
0.0
 11
275.2969903093988
 21
429.5226200820995
 31
0.0
 11
275.7022052951694
 21
429.3300642531215
 31
0.0
 11
276.1195696401428
 21
429.1656166446948
 31
0.0
 11
276.5706103746631
 21
429.0205649975876
 31
0.0
 11
277.0296693683999
 21
428.9025720658218
 31
0.0
 11
277.5123742161306
 21
428.8070471001096
 31
0.0
 11
277.9996365744598
 21
428.7414788219027
 31
0.0
 11
278.4990788586584
 21
428.7056523093401
 31
0.0
 11
278.9999992955934
 21
428.6872316496366
 31
0.0
  0
SPLINE
  5
1A2
330
6B
100
AcDbEntity
  8
1
  6
Continuous
 62
     7
100
AcDbSpline
210
0.0
220
0.0
230
1.0
 70
    11
 71
     3
 72
    79
 73
    75
 74
    73
 42
0.000000001
 43
0.0000000001
 44
0.00000001
 40
0.0
 40
0.0
 40
0.0
 40
0.0
 40
0.2910229063172753
 40
0.5820342199792627
 40
0.8749339259799911
 40
1.167812540311991
 40
1.463561181730202
 40
1.759282799554147
 40
2.058487804327088
 40
2.357663878866275
 40
2.660503334663186
 40
2.963315618548596
 40
3.269530819654402
 40
3.57572346223148
 40
3.884662737575987
 40
4.193586021288383
 40
4.504289078952812
 40
4.814983875318929
 40
5.12629442422491
 40
5.4376049731197
 40
5.748299769452619
 40
6.059002827061676
 40
6.367926110696176
 40
6.67686538593949
 40
6.98305802839229
 40
7.289273229348437
 40
7.592085513060206
 40
7.894924968655369
 40
8.194101042965304
 40
8.493306047475523
 40
8.789027664999585
 40
9.084776306065
 40
9.377654919958943
 40
9.670554625325874
 40
9.961565937617666
 40
10.25258885279487
 40
10.54295309049526
 40
10.8333173281946
 40
11.12434024336885
 40
11.4153515556552
 40
11.70825126101454
 40
12.00112987489969
 40
12.29687851595419
 40
12.59260013346553
 40
12.89180513796124
 40
13.19098121225556
 40
13.49382066783371
 40
13.79663295152724
 40
14.10284815246381
 40
14.40904079489627
 40
14.71798007011838
 40
15.02690335373095
 40
15.33760641131726
 40
15.64830120762702
 40
15.959611756498
 40
16.27092230537965
 40
16.58161710172107
 40
16.89232015936044
 40
17.20124344304725
 40
17.51018271836578
 40
17.8163753609164
 40
18.12259056199468
 40
18.4254028458519
 40
18.72824230161884
 40
19.02741837612514
 40
19.32662338086
 40
19.62234499863642
 40
19.91809363998722
 40
20.2109722542035
 40
20.50387195994425
 40
20.79488327269425
 40
21.08590618852173
 40
21.37627042760963
 40
21.66663465646178
 40
21.66663465646178
 40
21.66663465646178
 40
21.66663465646178
 10
697.8343114444729
 20
435.8150143760209
 30
0.0
 10
697.7379363887578
 20
435.8033387085833
 30
0.0
 10
697.54519011569
 20
435.7799878439973
 30
0.0
 10
697.2612536083602
 20
435.7106318522315
 30
0.0
 10
696.9839893417349
 20
435.6171890951163
 30
0.0
 10
696.7152369574425
 20
435.497282109382
 30
0.0
 10
696.457591573608
 20
435.3532366043894
 30
0.0
 10
696.2123646261036
 20
435.185170003701
 30
0.0
 10
695.9821012698083
 20
434.9953352707598
 30
0.0
 10
695.7678690610685
 20
434.784199142211
 30
0.0
 10
695.5719146320954
 20
434.5544195386823
 30
0.0
 10
695.3951572882721
 20
434.3066910065545
 30
0.0
 10
695.2393864541086
 20
434.0439587668087
 30
0.0
 10
695.1054180365471
 20
433.7672077552484
 30
0.0
 10
694.994495005074
 20
433.4794757775601
 30
0.0
 10
694.907318212516
 20
433.1821223312076
 30
0.0
 10
694.844570202239
 20
432.8780763351301
 30
0.0
 10
694.8067698228435
 20
432.5691347394369
 30
0.0
 10
694.7940927491729
 20
432.2579451341916
 30
0.0
 10
694.8067698224781
 20
431.9467555289368
 30
0.0
 10
694.8445702015086
 20
431.6378139332492
 30
0.0
 10
694.9073182114121
 20
431.3337679370909
 30
0.0
 10
694.9944950036195
 20
431.0364144909398
 30
0.0
 10
695.1054180346383
 20
430.7486825123647
 30
0.0
 10
695.2393864521149
 20
430.4719315039085
 30
0.0
 10
695.3951572847919
 20
430.2091992524171
 30
0.0
 10
695.57191463228
 20
429.9614707633878
 30
0.0
 10
695.767869045789
 20
429.7316909996927
 30
0.0
 10
695.9821013096628
 20
429.5205554616065
 30
0.0
 10
696.2123644594983
 20
429.3307185384969
 30
0.0
 10
696.4575921668928
 20
429.1626600204164
 30
0.0
 10
696.7152347283696
 20
429.0185845186334
 30
0.0
 10
696.9839975460571
 20
428.89878844816
 30
0.0
 10
697.2612230315439
 20
428.8049334513204
 30
0.0
 10
697.545303384841
 20
428.7371065447289
 30
0.0
 10
697.833670865147
 20
428.6964115830986
 30
0.0
 10
698.1243548986196
 20
428.6826457895232
 30
0.0
 10
698.4150389320927
 20
428.6964115830735
 30
0.0
 10
698.7034064123993
 20
428.7371065446783
 30
0.0
 10
698.9874867656963
 20
428.8049334512451
 30
0.0
 10
699.2647122511842
 20
428.8987884480595
 30
0.0
 10
699.5334750688727
 20
429.0185845185083
 30
0.0
 10
699.7911176303512
 20
429.1626600202663
 30
0.0
 10
700.036345337747
 20
429.3307185383225
 30
0.0
 10
700.266608487584
 20
429.5205554614076
 30
0.0
 10
700.4808407514604
 20
429.7316909994694
 30
0.0
 10
700.6767951649705
 20
429.9614707631407
 30
0.0
 10
700.8535525124615
 20
430.2091992521455
 30
0.0
 10
701.0093233451408
 20
430.4719315036133
 30
0.0
 10
701.1432917626198
 20
430.7486825120453
 30
0.0
 10
701.2542147936415
 20
431.0364144905971
 30
0.0
 10
701.3413915858524
 20
431.3337679367241
 30
0.0
 10
701.4041395957588
 20
431.6378139328588
 30
0.0
 10
701.4419399747935
 20
431.9467555285225
 30
0.0
 10
701.4546170481024
 20
432.2579451337524
 30
0.0
 10
701.4419399744372
 20
432.5691347389781
 30
0.0
 10
701.4041395950455
 20
432.8780763346313
 30
0.0
 10
701.341391584781
 20
433.1821223307419
 30
0.0
 10
701.2542147922077
 20
433.4794757768573
 30
0.0
 10
701.1432917608286
 20
433.7672077553111
 30
0.0
 10
701.0093233429599
 20
434.0439587639231
 30
0.0
 10
700.853552509988
 20
434.3066910144963
 30
0.0
 10
700.6767951618283
 20
434.5544195065301
 30
0.0
 10
700.4808407490152
 20
434.7841992586421
 30
0.0
 10
700.2666084807643
 20
434.9953348389632
 30
0.0
 10
700.036345345304
 20
435.1851716048825
 30
0.0
 10
699.7911175829679
 20
435.3532307024639
 30
0.0
 10
699.533475223433
 20
435.4973040528747
 30
0.0
 10
699.2647116570183
 20
435.6171080774187
 30
0.0
 10
698.9874889521504
 20
435.7109335103652
 30
0.0
 10
698.703398282493
 20
435.7788700747084
 30
0.0
 10
698.4150692207438
 20
435.819156631019
 30
0.0
 10
698.1242421102818
 20
435.8344433754134
 30
0.0
 10
697.930954998715
 20
435.8214907073225
 30
0.0
 10
697.8343114444727
 20
435.8150143760209
 30
0.0
 11
697.8343114444729
 21
435.8150143760209
 31
0.0
 11
697.5461519481979
 21
435.7742904029344
 31
0.0
 11
697.2630697418153
 21
435.706821532869
 31
0.0
 11
696.9856456992713
 21
435.6128740042302
 31
0.0
 11
696.7180839471541
 21
435.4937581304308
 31
0.0
 11
696.459951578439
 21
435.3494150009735
 31
0.0
 11
696.2159389258277
 21
435.1823548305578
 31
0.0
 11
695.9850594202968
 21
434.9920437989568
 31
0.0
 11
695.7718841253454
 21
434.7821328246013
 31
0.0
 11
695.5753498013373
 21
434.5517288414747
 31
0.0
 11
695.399376265538
 21
434.3052971187869
 31
0.0
 11
695.243179125065
 21
434.0419148819489
 31
0.0
 11
695.1096834371008
 21
433.7663557491709
 31
0.0
 11
694.9985335115438
 21
433.4781038282736
 31
0.0
 11
694.9115568575173
 21
433.181677350233
 31
0.0
 11
694.8487517831957
 21
432.87738815769
 31
0.0
 11
694.8109764215242
 21
432.5689983417692
 31
0.0
 11
694.7983212253106
 21
432.2579451246181
 31
0.0
 11
694.8109764215242
 21
431.9468919074671
 31
0.0
 11
694.8487517831957
 21
431.6385020915465
 31
0.0
 11
694.9115568575172
 21
431.3342128990034
 31
0.0
 11
694.9985335115437
 21
431.0377864209628
 31
0.0
 11
695.1096834371008
 21
430.7495345000654
 31
0.0
 11
695.243179125065
 21
430.4739753672874
 31
0.0
 11
695.3993762655379
 21
430.2105931304495
 31
0.0
 11
695.5753498013374
 21
429.9641614077616
 31
0.0
 11
695.7718841253457
 21
429.7337574246351
 31
0.0
 11
695.9850594202969
 21
429.5238464502795
 31
0.0
 11
696.2159389258277
 21
429.3335354186786
 31
0.0
 11
696.4599515784389
 21
429.1664752482628
 31
0.0
 11
696.7180839471541
 21
429.0221321188056
 31
0.0
 11
696.9856456992713
 21
428.9030162450061
 31
0.0
 11
697.2630697418153
 21
428.8090687163673
 31
0.0
 11
697.5461519481979
 21
428.741599846302
 31
0.0
 11
697.8343114444726
 21
428.7008758732155
 31
0.0
 11
698.1243548992231
 21
428.6872309103452
 31
0.0
 11
698.4143983539736
 21
428.7008758732155
 31
0.0
 11
698.7025578502486
 21
428.741599846302
 31
0.0
 11
698.9856400566309
 21
428.8090687163673
 31
0.0
 11
699.2630640991746
 21
428.9030162450061
 31
0.0
 11
699.5306258512921
 21
429.0221321188056
 31
0.0
 11
699.7887582200075
 21
429.1664752482629
 31
0.0
 11
700.0327708726186
 21
429.3335354186787
 31
0.0
 11
700.2636503781492
 21
429.5238464502795
 31
0.0
 11
700.4768256731006
 21
429.7337574246351
 31
0.0
 11
700.6733599971088
 21
429.9641614077617
 31
0.0
 11
700.8493335329085
 21
430.2105931304495
 31
0.0
 11
701.0055306733814
 21
430.4739753672874
 31
0.0
 11
701.1390263613455
 21
430.7495345000654
 31
0.0
 11
701.2501762869026
 21
431.0377864209628
 31
0.0
 11
701.3371529409291
 21
431.3342128990034
 31
0.0
 11
701.3999580152506
 21
431.6385020915465
 31
0.0
 11
701.4377333769222
 21
431.9468919074671
 31
0.0
 11
701.4503885731357
 21
432.2579451246181
 31
0.0
 11
701.4377333769221
 21
432.5689983417692
 31
0.0
 11
701.3999580152506
 21
432.8773881576899
 31
0.0
 11
701.3371529409292
 21
433.1816773502331
 31
0.0
 11
701.2501762869027
 21
433.4781038282736
 31
0.0
 11
701.1390263613456
 21
433.766355749171
 31
0.0
 11
701.0055306733814
 21
434.041914881949
 31
0.0
 11
700.8493335329085
 21
434.3052971187869
 31
0.0
 11
700.673359997109
 21
434.5517288414748
 31
0.0
 11
700.4768256731006
 21
434.7821328246013
 31
0.0
 11
700.2636503781494
 21
434.9920437989568
 31
0.0
 11
700.0327708726186
 21
435.1823548305577
 31
0.0
 11
699.7887582200075
 21
435.3494150009735
 31
0.0
 11
699.5306258512923
 21
435.4937581304308
 31
0.0
 11
699.2630640991749
 21
435.6128740042303
 31
0.0
 11
698.9856400566309
 21
435.7068215328691
 31
0.0
 11
698.7025578502482
 21
435.7742904029344
 31
0.0
 11
698.4143983539734
 21
435.8150143760209
 31
0.0
 11
698.1243548992231
 21
435.8286593388913
 31
0.0
 11
697.8343114444727
 21
435.8150143760209
 31
0.0
  0
SPLINE
  5
1A3
330
6B
100
AcDbEntity
  8
1
  6
Continuous
 62
     7
100
AcDbSpline
210
0.0
220
0.0
230
1.0
 70
    11
 71
     3
 72
    79
 73
    75
 74
    73
 42
0.000000001
 43
0.0000000001
 44
0.00000001
 40
0.0
 40
0.0
 40
0.0
 40
0.0
 40
0.3261203158614724
 40
0.6517268992112184
 40
1.007574524592728
 40
1.3627914940106
 40
1.759892088123323
 40
2.156523347989832
 40
2.599217247328427
 40
3.041611472075533
 40
3.528315442596095
 40
4.014835475855479
 40
4.539625164047762
 40
5.064304581540896
 40
5.618242807293567
 40
6.172118715246219
 40
6.7442902776574
 40
7.316433663835525
 40
7.894796392040836
 40
8.473159120249344
 40
9.04530250643579
 40
9.617474068859378
 40
10.1713499768267
 40
10.72528820259411
 40
11.24996762009745
 40
11.77475730829084
 40
12.26127734153635
 40
12.74798131201882
 40
13.19037553669813
 40
13.63306943591905
 40
14.02970069561569
 40
14.42680128946005
 40
14.78201825849279
 40
15.13786588318635
 40
15.46347246440812
 40
15.78959278675728
 40
16.10450984639741
 40
16.41942690603634
 40
16.74554722838241
 40
17.0711538095995
 40
17.42700143428695
 40
17.78221840331307
 40
18.17931899714984
 40
18.57595025683929
 40
19.01864415605237
 40
19.46103838072464
 40
19.94774235119979
 40
20.43426238443903
 40
20.95905207262611
 40
21.48373149012421
 40
22.03766971588688
 40
22.59154562385066
 40
23.16371718627135
 40
23.73586057245646
 40
24.31422330066491
 40
24.89258602887208
 40
25.46472941505399
 40
26.03690097747072
 40
26.59077688543167
 40
27.14471511119491
 40
27.669394528701
 40
28.19418421690818
 40
28.68070425018349
 40
29.16740822072065
 40
29.60980244548228
 40
30.05249634483123
 40
30.44912760469849
 40
30.8462281987891
 40
31.20144516813177
 40
31.5572927932527
 40
31.88289937502687
 40
32.20901969818431
 40
32.52393676002145
 40
32.83885381361124
 40
32.83885381361124
 40
32.83885381361124
 40
32.83885381361124
 10
692.625778414769
 20
431.9441272058212
 30
0.0
 10
692.6032211520605
 20
431.8375369939882
 30
0.0
 10
692.5581421706432
 20
431.6245244779795
 30
0.0
 10
692.4236144548266
 20
431.3147045883053
 30
0.0
 10
692.2468703906419
 20
431.0169193357906
 30
0.0
 10
692.0179890168749
 20
430.7257719457427
 30
0.0
 10
691.7487711014038
 20
430.4523784020856
 30
0.0
 10
691.4315010027799
 20
430.1884174391884
 30
0.0
 10
691.0794485544163
 20
429.9454100584597
 30
0.0
 10
690.6835751914475
 20
429.7157547292351
 30
0.0
 10
690.2588667435612
 20
429.5092027750905
 30
0.0
 10
689.7963493686236
 20
429.3201991319831
 30
0.0
 10
689.3111088361915
 20
429.1558845517654
 30
0.0
 10
688.7958673426622
 20
429.0128683782071
 30
0.0
 10
688.2642020563203
 20
428.8957153855388
 30
0.0
 10
687.7117529980122
 20
428.8027410579548
 30
0.0
 10
687.1493621376626
 20
428.7364216846333
 30
0.0
 10
686.5763454753809
 20
428.6960752374352
 30
0.0
 10
685.9999992562359
 20
428.6827848422636
 30
0.0
 10
685.4236530370681
 20
428.6960752375512
 30
0.0
 10
684.8506363748533
 20
428.7364216848736
 30
0.0
 10
684.2882455142637
 20
428.8027410582568
 30
0.0
 10
683.7357964568255
 20
428.895715386075
 30
0.0
 10
683.2041311673192
 20
429.0128683782742
 30
0.0
 10
682.688889685011
 20
429.1558845537635
 30
0.0
 10
682.2036491121946
 20
429.3201991271763
 30
0.0
 10
681.7411318775332
 20
429.5092027938992
 30
0.0
 10
681.3164229301076
 20
429.7157546637382
 30
0.0
 10
680.9205512705711
 20
429.9454102800229
 30
0.0
 10
680.5684928081525
 20
430.1884166465727
 30
0.0
 10
680.251242948723
 20
430.4523810215246
 30
0.0
 10
679.9819538139934
 20
430.7257625571689
 30
0.0
 10
679.7533118606599
 20
431.0169503131077
 30
0.0
 10
679.575719161794
 20
431.3145924839585
 30
0.0
 10
679.4441061462708
 20
431.6249037952796
 30
0.0
 10
679.3666811911528
 20
431.9390637803057
 30
0.0
 10
679.3387211054907
 20
432.257945124301
 30
0.0
 10
679.3666811911451
 20
432.576826468296
 30
0.0
 10
679.4441061462549
 20
432.890986453321
 30
0.0
 10
679.5757191617706
 20
433.2012977646403
 30
0.0
 10
679.7533118606295
 20
433.4989399354887
 30
0.0
 10
679.9819538139566
 20
433.7901276914243
 30
0.0
 10
680.2512429486801
 20
434.0635092270638
 30
0.0
 10
680.5684928081048
 20
434.3274736020106
 30
0.0
 10
680.9205512705184
 20
434.5704799685542
 30
0.0
 10
681.316422930051
 20
434.8001355848314
 30
0.0
 10
681.7411318774733
 20
435.0066874546615
 30
0.0
 10
682.2036491121319
 20
435.1956911213742
 30
0.0
 10
682.6888896849459
 20
435.3600056947748
 30
0.0
 10
683.2041311672529
 20
435.5030218702496
 30
0.0
 10
683.735796456758
 20
435.620174862432
 30
0.0
 10
684.2882455141961
 20
435.7131491902301
 30
0.0
 10
684.8506363747853
 20
435.7794685635897
 30
0.0
 10
685.4236530370022
 20
435.8198150108851
 30
0.0
 10
685.9999992561661
 20
435.8331054061404
 30
0.0
 10
686.5763454753292
 20
435.8198150109361
 30
0.0
 10
687.149362137551
 20
435.7794685636851
 30
0.0
 10
687.7117529981244
 20
435.7131491903614
 30
0.0
 10
688.2642020556242
 20
435.6201748625692
 30
0.0
 10
688.7958673449075
 20
435.5030218704169
 30
0.0
 10
689.3111088280057
 20
435.3600056947725
 30
0.0
 10
689.7963493979703
 20
435.1956911217806
 30
0.0
 10
690.2588666425204
 20
435.006687453287
 30
0.0
 10
690.6835755547003
 20
434.8001355892385
 30
0.0
 10
691.0794473343734
 20
434.5704799524892
 30
0.0
 10
691.4315053725578
 20
434.3274736571958
 30
0.0
 10
691.7487566595372
 20
434.0635090412136
 30
0.0
 10
692.018040770685
 20
433.7901283521346
 30
0.0
 10
692.2466996116773
 20
433.4989377484092
 30
0.0
 10
692.4242324511217
 20
433.2013056693005
 30
0.0
 10
692.556051057789
 20
432.890959694367
 30
0.0
 10
692.6327308971265
 20
432.5769253351236
 30
0.0
 10
692.6633827697242
 20
432.2575901544209
 30
0.0
 10
692.6383131960843
 20
432.0486148547769
 30
0.0
 10
692.625778414769
 20
431.9441272058213
 30
0.0
 11
692.625778414769
 21
431.9441272058212
 31
0.0
 11
692.5476057815586
 21
431.6275146600456
 31
0.0
 11
692.4218995208217
 21
431.3271522426004
 31
0.0
 11
692.2403432090489
 21
431.021105125766
 31
0.0
 11
692.0219811023412
 21
430.7409318124461
 31
0.0
 11
691.7442336275748
 21
430.4571269112478
 31
0.0
 11
691.4399340063987
 21
430.2027293940441
 31
0.0
 11
691.0762864419443
 21
429.950264867213
 31
0.0
 11
690.6939533660902
 21
429.7277023610245
 31
0.0
 11
690.2566848504824
 21
429.5139805788901
 31
0.0
 11
689.8064893646599
 21
429.3295198315658
 31
0.0
 11
689.3096496737628
 21
429.1605389498465
 31
0.0
 11
688.8041629615439
 21
429.0199271618625
 31
0.0
 11
688.2633051722659
 21
428.9002592474568
 31
0.0
 11
687.7171348335014
 21
428.8081914329192
 31
0.0
 11
687.1489348721635
 21
428.7408928387705
 31
0.0
 11
686.5782051761794
 21
428.7006974600284
 31
0.0
 11
685.999999246241
 21
428.6872309103452
 31
0.0
 11
685.4217933163025
 21
428.7006974600284
 31
0.0
 11
684.8510636203183
 21
428.7408928387705
 31
0.0
 11
684.2828636589807
 21
428.8081914329191
 31
0.0
 11
683.7366933202164
 21
428.9002592474567
 31
0.0
 11
683.1958355309383
 21
429.0199271618624
 31
0.0
 11
682.6903488187193
 21
429.1605389498465
 31
0.0
 11
682.193509127822
 21
429.3295198315658
 31
0.0
 11
681.7433136419995
 21
429.51398057889
 31
0.0
 11
681.3060451263916
 21
429.7277023610245
 31
0.0
 11
680.9237120505377
 21
429.9502648672129
 31
0.0
 11
680.5600644860833
 21
430.202729394044
 31
0.0
 11
680.2557648649075
 21
430.4571269112477
 31
0.0
 11
679.9780173901411
 21
430.7409318124461
 31
0.0
 11
679.7596552834333
 21
431.0211051257659
 31
0.0
 11
679.5780989716603
 21
431.3271522426002
 31
0.0
 11
679.4523927109234
 21
431.6275146600453
 31
0.0
 11
679.3742200777131
 21
431.9441272058211
 31
0.0
 11
679.347931898416
 21
432.2579451246182
 31
0.0
 11
679.3742200777132
 21
432.5717630434151
 31
0.0
 11
679.4523927109235
 21
432.8883755891908
 31
0.0
 11
679.5780989716602
 21
433.188738006636
 31
0.0
 11
679.7596552834332
 21
433.4947851234704
 31
0.0
 11
679.9780173901408
 21
433.7749584367903
 31
0.0
 11
680.2557648649074
 21
434.0587633379886
 31
0.0
 11
680.5600644860834
 21
434.3131608551922
 31
0.0
 11
680.9237120505378
 21
434.5656253820233
 31
0.0
 11
681.3060451263918
 21
434.7881878882118
 31
0.0
 11
681.7433136419996
 21
435.0019096703462
 31
0.0
 11
682.1935091278222
 21
435.1863704176706
 31
0.0
 11
682.6903488187193
 21
435.3553512993899
 31
0.0
 11
683.1958355309383
 21
435.495963087374
 31
0.0
 11
683.7366933202164
 21
435.6156310017797
 31
0.0
 11
684.2828636589808
 21
435.7076988163171
 31
0.0
 11
684.8510636203183
 21
435.7749974104657
 31
0.0
 11
685.4217933163025
 21
435.8151927892079
 31
0.0
 11
685.999999246241
 21
435.8286593388912
 31
0.0
 11
686.5782051761796
 21
435.815192789208
 31
0.0
 11
687.1489348721637
 21
435.7749974104658
 31
0.0
 11
687.7171348335014
 21
435.7076988163172
 31
0.0
 11
688.263305172266
 21
435.6156310017797
 31
0.0
 11
688.8041629615437
 21
435.495963087374
 31
0.0
 11
689.3096496737629
 21
435.3553512993899
 31
0.0
 11
689.8064893646599
 21
435.1863704176706
 31
0.0
 11
690.2566848504824
 21
435.0019096703462
 31
0.0
 11
690.6939533660902
 21
434.7881878882118
 31
0.0
 11
691.0762864419441
 21
434.5656253820233
 31
0.0
 11
691.4399340063985
 21
434.3131608551922
 31
0.0
 11
691.7442336275745
 21
434.0587633379885
 31
0.0
 11
692.0219811023412
 21
433.7749584367903
 31
0.0
 11
692.2403432090489
 21
433.4947851234704
 31
0.0
 11
692.4218995208219
 21
433.1887380066361
 31
0.0
 11
692.5476057815584
 21
432.8883755891909
 31
0.0
 11
692.625778414769
 21
432.5717630434152
 31
0.0
 11
692.6520665940661
 21
432.2579451246182
 31
0.0
 11
692.625778414769
 21
431.9441272058213
 31
0.0
  0
SPLINE
  5
1A4
330
6B
100
AcDbEntity
  8
1
  6
Continuous
 62
     7
100
AcDbSpline
210
0.0
220
0.0
230
1.0
 70
    11
 71
     3
 72
    79
 73
    75
 74
    73
 42
0.000000001
 43
0.0000000001
 44
0.00000001
 40
0.0
 40
0.0
 40
0.0
 40
0.0
 40
0.2910229063171627
 40
0.5820342199791502
 40
0.8749339259796631
 40
1.167812540311767
 40
1.463561181730078
 40
1.759282799553929
 40
2.058487804327044
 40
2.357663878865988
 40
2.660503334662973
 40
2.963315618548449
 40
3.26953081965414
 40
3.575723462231267
 40
3.884662737575856
 40
4.19358602128822
 40
4.504289078952649
 40
4.814983875318766
 40
5.126294424224747
 40
5.437604973119532
 40
5.748299769452466
 40
6.059002827061546
 40
6.367926110696013
 40
6.676865385939328
 40
6.983058028392128
 40
7.289273229348275
 40
7.59208551306011
 40
7.894924968655199
 40
8.194101042964972
 40
8.493306047475366
 40
8.789027664999429
 40
9.084776306064844
 40
9.377654919958786
 40
9.670554625325718
 40
9.96156593761751
 40
10.25258885279471
 40
10.54295309049511
 40
10.83331732819444
 40
11.12434024336869
 40
11.41535155565504
 40
11.70825126101449
 40
12.00112987489954
 40
12.29687851595403
 40
12.59260013346538
 40
12.89180513796109
 40
13.19098121225541
 40
13.49382066783356
 40
13.79663295152708
 40
14.10284815246366
 40
14.40904079489612
 40
14.71798007011827
 40
15.02690335373081
 40
15.33760641131711
 40
15.64830120762686
 40
15.95961175649786
 40
16.27092230537951
 40
16.58161710172093
 40
16.8923201593603
 40
17.20124344304707
 40
17.51018271836564
 40
17.81637536091626
 40
18.12259056199454
 40
18.42540284585182
 40
18.72824230161862
 40
19.02741837612484
 40
19.32662338085987
 40
19.62234499863629
 40
19.91809363998709
 40
20.21097225420348
 40
20.50387195994411
 40
20.7948832726939
 40
21.08590618852149
 40
21.37627042760962
 40
21.66663465646166
 40
21.66663465646166
 40
21.66663465646166
 40
21.66663465646166
 10
674.1656870480093
 20
435.8150143760209
 30
0.0
 10
674.2620621037244
 20
435.8033387085832
 30
0.0
 10
674.4548083767924
 20
435.7799878439972
 30
0.0
 10
674.7387448841215
 20
435.7106318522316
 30
0.0
 10
675.0160091507471
 20
435.6171890951164
 30
0.0
 10
675.2847615350398
 20
435.4972821093821
 30
0.0
 10
675.542406918874
 20
435.3532366043895
 30
0.0
 10
675.7876338663782
 20
435.1851700037007
 30
0.0
 10
676.0178972226744
 20
434.9953352707601
 30
0.0
 10
676.2321294314131
 20
434.7841991422108
 30
0.0
 10
676.4280838603866
 20
434.5544195386825
 30
0.0
 10
676.6048412042103
 20
434.3066910065545
 30
0.0
 10
676.760612038373
 20
434.0439587668085
 30
0.0
 10
676.8945804559348
 20
433.7672077552485
 30
0.0
 10
677.0055034874085
 20
433.4794757775601
 30
0.0
 10
677.0926802799661
 20
433.1821223312077
 30
0.0
 10
677.1554282902432
 20
432.8780763351302
 30
0.0
 10
677.1932286696382
 20
432.5691347394369
 30
0.0
 10
677.2059057433091
 20
432.2579451341916
 30
0.0
 10
677.193228670004
 20
431.9467555289368
 30
0.0
 10
677.1554282909733
 20
431.6378139332493
 30
0.0
 10
677.0926802810699
 20
431.3337679370908
 30
0.0
 10
677.0055034888625
 20
431.0364144909398
 30
0.0
 10
676.894580457844
 20
430.7486825123646
 30
0.0
 10
676.760612040367
 20
430.4719315039086
 30
0.0
 10
676.6048412076905
 20
430.209199252417
 30
0.0
 10
676.4280838602016
 20
429.961470763388
 30
0.0
 10
676.2321294466932
 20
429.7316909996926
 30
0.0
 10
676.0178971828193
 20
429.5205554616064
 30
0.0
 10
675.7876340329836
 20
429.330718538497
 30
0.0
 10
675.5424063255895
 20
429.1626600204161
 30
0.0
 10
675.2847637641123
 20
429.0185845186336
 30
0.0
 10
675.0160009464254
 20
428.8987884481599
 30
0.0
 10
674.7387754609377
 20
428.8049334513205
 30
0.0
 10
674.4546951076416
 20
428.7371065447289
 30
0.0
 10
674.1663276273351
 20
428.6964115830986
 30
0.0
 10
673.8756435938622
 20
428.6826457895232
 30
0.0
 10
673.5849595603897
 20
428.6964115830735
 30
0.0
 10
673.2965920800825
 20
428.7371065446783
 30
0.0
 10
673.0125117267856
 20
428.8049334512452
 30
0.0
 10
672.7352862412977
 20
428.8987884480595
 30
0.0
 10
672.4665234236094
 20
429.0185845185083
 30
0.0
 10
672.2088808621307
 20
429.1626600202663
 30
0.0
 10
671.9636531547352
 20
429.3307185383225
 30
0.0
 10
671.7333900048977
 20
429.5205554614078
 30
0.0
 10
671.5191577410221
 20
429.7316909994693
 30
0.0
 10
671.3232033275112
 20
429.9614707631407
 30
0.0
 10
671.1464459800204
 20
430.2091992521455
 30
0.0
 10
670.9906751473413
 20
430.4719315036133
 30
0.0
 10
670.856706729862
 20
430.7486825120454
 30
0.0
 10
670.7457836988403
 20
431.0364144905971
 30
0.0
 10
670.6586069066298
 20
431.3337679367241
 30
0.0
 10
670.5958588967231
 20
431.6378139328588
 30
0.0
 10
670.5580585176887
 20
431.9467555285225
 30
0.0
 10
670.5453814443792
 20
432.2579451337525
 30
0.0
 10
670.5580585180451
 20
432.569134738978
 30
0.0
 10
670.5958588974364
 20
432.8780763346313
 30
0.0
 10
670.6586069077011
 20
433.182122330742
 30
0.0
 10
670.7457837002743
 20
433.4794757768573
 30
0.0
 10
670.8567067316537
 20
433.7672077553112
 30
0.0
 10
670.9906751495221
 20
434.043958763923
 30
0.0
 10
671.1464459824941
 20
434.3066910144964
 30
0.0
 10
671.3232033306539
 20
434.5544195065302
 30
0.0
 10
671.5191577434666
 20
434.7841992586421
 30
0.0
 10
671.7333900117175
 20
434.9953348389631
 30
0.0
 10
671.9636531471785
 20
435.1851716048824
 30
0.0
 10
672.2088809095138
 20
435.3532307024639
 30
0.0
 10
672.466523269049
 20
435.4973040528747
 30
0.0
 10
672.7352868354636
 20
435.6171080774186
 30
0.0
 10
673.0125095403316
 20
435.7109335103652
 30
0.0
 10
673.2966002099887
 20
435.7788700747084
 30
0.0
 10
673.5849292717385
 20
435.8191566310192
 30
0.0
 10
673.8757563821999
 20
435.8344433754132
 30
0.0
 10
674.0690434937674
 20
435.8214907073227
 30
0.0
 10
674.1656870480093
 20
435.8150143760209
 30
0.0
 11
674.1656870480093
 21
435.8150143760209
 31
0.0
 11
674.4538465442841
 21
435.7742904029344
 31
0.0
 11
674.7369287506667
 21
435.706821532869
 31
0.0
 11
675.0143527932105
 21
435.6128740042302
 31
0.0
 11
675.2819145453278
 21
435.4937581304308
 31
0.0
 11
675.540046914043
 21
435.3494150009735
 31
0.0
 11
675.7840595666543
 21
435.1823548305578
 31
0.0
 11
676.0149390721854
 21
434.9920437989568
 31
0.0
 11
676.2281143671364
 21
434.7821328246013
 31
0.0
 11
676.4246486911446
 21
434.5517288414747
 31
0.0
 11
676.6006222269441
 21
434.3052971187869
 31
0.0
 11
676.7568193674168
 21
434.0419148819489
 31
0.0
 11
676.8903150553812
 21
433.7663557491709
 31
0.0
 11
677.0014649809384
 21
433.4781038282736
 31
0.0
 11
677.0884416349647
 21
433.181677350233
 31
0.0
 11
677.1512467092864
 21
432.87738815769
 31
0.0
 11
677.1890220709579
 21
432.5689983417692
 31
0.0
 11
677.2016772671715
 21
432.2579451246181
 31
0.0
 11
677.189022070958
 21
431.9468919074671
 31
0.0
 11
677.1512467092864
 21
431.6385020915465
 31
0.0
 11
677.0884416349647
 21
431.3342128990034
 31
0.0
 11
677.0014649809384
 21
431.0377864209628
 31
0.0
 11
676.8903150553813
 21
430.7495345000654
 31
0.0
 11
676.756819367417
 21
430.4739753672874
 31
0.0
 11
676.6006222269442
 21
430.2105931304495
 31
0.0
 11
676.4246486911445
 21
429.9641614077616
 31
0.0
 11
676.2281143671364
 21
429.7337574246351
 31
0.0
 11
676.0149390721854
 21
429.5238464502795
 31
0.0
 11
675.7840595666544
 21
429.3335354186786
 31
0.0
 11
675.5400469140432
 21
429.1664752482628
 31
0.0
 11
675.2819145453279
 21
429.0221321188056
 31
0.0
 11
675.0143527932107
 21
428.9030162450061
 31
0.0
 11
674.7369287506667
 21
428.8090687163673
 31
0.0
 11
674.4538465442841
 21
428.741599846302
 31
0.0
 11
674.1656870480094
 21
428.7008758732155
 31
0.0
 11
673.8756435932589
 21
428.6872309103452
 31
0.0
 11
673.5856001385084
 21
428.7008758732155
 31
0.0
 11
673.2974406422335
 21
428.741599846302
 31
0.0
 11
673.0143584358511
 21
428.8090687163673
 31
0.0
 11
672.7369343933074
 21
428.9030162450061
 31
0.0
 11
672.4693726411899
 21
429.0221321188056
 31
0.0
 11
672.2112402724746
 21
429.1664752482629
 31
0.0
 11
671.9672276198635
 21
429.3335354186787
 31
0.0
 11
671.7363481143328
 21
429.5238464502795
 31
0.0
 11
671.5231728193814
 21
429.7337574246351
 31
0.0
 11
671.3266384953732
 21
429.9641614077617
 31
0.0
 11
671.1506649595735
 21
430.2105931304495
 31
0.0
 11
670.9944678191007
 21
430.4739753672874
 31
0.0
 11
670.8609721311366
 21
430.7495345000654
 31
0.0
 11
670.7498222055793
 21
431.0377864209628
 31
0.0
 11
670.662845551553
 21
431.3342128990034
 31
0.0
 11
670.6000404772315
 21
431.6385020915465
 31
0.0
 11
670.56226511556
 21
431.9468919074671
 31
0.0
 11
670.5496099193463
 21
432.2579451246181
 31
0.0
 11
670.56226511556
 21
432.5689983417692
 31
0.0
 11
670.6000404772315
 21
432.8773881576899
 31
0.0
 11
670.6628455515529
 21
433.1816773502331
 31
0.0
 11
670.7498222055792
 21
433.4781038282736
 31
0.0
 11
670.8609721311365
 21
433.766355749171
 31
0.0
 11
670.9944678191007
 21
434.041914881949
 31
0.0
 11
671.1506649595735
 21
434.3052971187869
 31
0.0
 11
671.3266384953732
 21
434.5517288414748
 31
0.0
 11
671.5231728193813
 21
434.7821328246013
 31
0.0
 11
671.7363481143325
 21
434.9920437989568
 31
0.0
 11
671.9672276198635
 21
435.1823548305577
 31
0.0
 11
672.2112402724746
 21
435.3494150009735
 31
0.0
 11
672.4693726411898
 21
435.4937581304308
 31
0.0
 11
672.7369343933073
 21
435.6128740042303
 31
0.0
 11
673.0143584358511
 21
435.7068215328691
 31
0.0
 11
673.2974406422336
 21
435.7742904029344
 31
0.0
 11
673.5856001385085
 21
435.8150143760209
 31
0.0
 11
673.875643593259
 21
435.8286593388913
 31
0.0
 11
674.1656870480093
 21
435.8150143760209
 31
0.0
  0
ENDBLK
  5
6D
330
6B
100
AcDbEntity
  8
0
100
AcDbBlockEnd
  0
BLOCK
  5
6F
330
6E
100
AcDbEntity
  8
0
100
AcDbBlockBegin
  2
84-26BK
 70
     0
 10
273.7499991939366
 20
380.4004068455112
 30
0.0
  3
84-26BK
  1

  0
LINE
  5
1A5
330
6E
100
AcDbEntity
  8
1
  6
Continuous
 62
     7
100
AcDbLine
 10
274.57550375814
 20
395.7160451078942
 30
0.0
 11
273.7828272653301
 21
388.8327480549712
 31
0.0
  0
LINE
  5
1A6
330
6E
100
AcDbEntity
  8
1
  6
Continuous
 62
     7
100
AcDbLine
 10
298.2171711225451
 20
388.8327480549712
 30
0.0
 11
297.424494629734
 21
395.7160451078942
 31
0.0
  0
LINE
  5
1A7
330
6E
100
AcDbEntity
  8
1
  6
Continuous
 62
     7
100
AcDbLine
 10
298.2499991939369
 20
380.4004068455112
 30
0.0
 11
298.2499991939369
 21
388.2607314191522
 31
0.0
  0
LINE
  5
1A8
330
6E
100
AcDbEntity
  8
1
  6
Continuous
 62
     7
100
AcDbLine
 10
273.7499991939369
 20
388.2607314191522
 30
0.0
 11
273.7499991939369
 21
380.4004068455112
 31
0.0
  0
LINE
  5
1A9
330
6E
100
AcDbEntity
  8
1
  6
Continuous
 62
     7
100
AcDbLine
 10
521.023301858743
 20
405.9004081600592
 30
0.0
 11
487.176270410763
 21
405.9004081600592
 31
0.0
  0
LINE
  5
1AA
330
6E
100
AcDbEntity
  8
1
  6
Continuous
 62
     7
100
AcDbLine
 10
524.023301858743
 20
405.4004081600592
 30
0.0
 11
521.023301858743
 21
405.9004081600592
 31
0.0
  0
LINE
  5
1AB
330
6E
100
AcDbEntity
  8
1
  6
Continuous
 62
     7
100
AcDbLine
 10
524.023301858743
 20
382.4004081600592
 30
0.0
 11
524.023301858743
 21
405.4004081600592
 31
0.0
  0
LINE
  5
1AC
330
6E
100
AcDbEntity
  8
1
  6
Continuous
 62
     7
100
AcDbLine
 10
524.023301858743
 20
382.4004081600592
 30
0.0
 11
521.023301858743
 21
381.9004081600592
 31
0.0
  0
LINE
  5
1AD
330
6E
100
AcDbEntity
  8
1
  6
Continuous
 62
     7
100
AcDbLine
 10
521.023301858743
 20
381.9004081600592
 30
0.0
 11
509.523301858743
 21
381.9004081600592
 31
0.0
  0
LINE
  5
1AE
330
6E
100
AcDbEntity
  8
1
  6
Continuous
 62
     7
100
AcDbLine
 10
474.487275574887
 20
388.4373333116502
 30
0.0
 11
484.640244126907
 21
404.5030842619562
 31
0.0
  0
LINE
  5
1AF
330
6E
100
AcDbEntity
  8
1
  6
Continuous
 62
     7
100
AcDbLine
 10
474.023301858743
 20
386.8346572097532
 30
0.0
 11
474.023301858743
 21
386.4004081600592
 31
0.0
  0
LINE
  5
1B0
330
6E
100
AcDbEntity
  8
1
  6
Continuous
 62
     7
100
AcDbLine
 10
478.523301858743
 20
381.9004081600592
 30
0.0
 11
482.523301858743
 21
381.9004081600592
 31
0.0
  0
LINE
  5
1B1
330
6E
100
AcDbEntity
  8
1
  6
Continuous
 62
     7
100
AcDbLine
 10
490.1273124128941
 20
385.2607327337002
 30
0.0
 11
485.4883689854651
 21
382.9004081600592
 31
0.0
  0
LINE
  5
1B2
330
6E
100
AcDbEntity
  8
1
  6
Continuous
 62
     7
100
AcDbLine
 10
506.5585579988499
 20
382.9004081600592
 30
0.0
 11
501.9196145714211
 21
385.2607327337002
 31
0.0
  0
LINE
  5
1B3
330
6E
100
AcDbEntity
  8
1
  6
Continuous
 62
     7
100
AcDbLine
 10
483.523301858743
 20
380.9004081600592
 30
0.0
 11
483.523301858743
 21
380.4004081600592
 31
0.0
  0
LINE
  5
1B4
330
6E
100
AcDbEntity
  8
1
  6
Continuous
 62
     7
100
AcDbLine
 10
483.523301858743
 20
380.4004081600592
 30
0.0
 11
483.7226944119859
 21
380.4004081600592
 31
0.0
  0
LINE
  5
1B5
330
6E
100
AcDbEntity
  8
1
  6
Continuous
 62
     7
100
AcDbLine
 10
508.523301858743
 20
380.9004081600592
 30
0.0
 11
508.523301858743
 21
380.4004081600592
 31
0.0
  0
LINE
  5
1B6
330
6E
100
AcDbEntity
  8
1
  6
Continuous
 62
     7
100
AcDbLine
 10
508.523301858743
 20
380.4004081600592
 30
0.0
 11
508.32423257233
 21
380.4004081600592
 31
0.0
  0
ARC
  5
1B7
330
6E
100
AcDbEntity
  8
1
  6
Continuous
 62
     7
100
AcDbCircle
 10
285.9999991939369
 20
394.4004068455112
 30
0.0
 40
11.49999999999978
100
AcDbArc
 50
6.56921108019153
 51
90.0
  0
ARC
  5
1B8
330
6E
100
AcDbEntity
  8
1
  6
Continuous
 62
     7
100
AcDbCircle
 10
285.9999991939369
 20
394.4004068455112
 30
0.0
 40
11.5
100
AcDbArc
 50
90.0
 51
173.4307889198084
  0
ARC
  5
1B9
330
6E
100
AcDbEntity
  8
1
  6
Continuous
 62
     7
100
AcDbCircle
 10
278.7499991939369
 20
388.2607314191522
 30
0.0
 40
4.999999999999284
100
AcDbArc
 50
173.430788919804
 51
248.7461908146415
  0
ARC
  5
1BA
330
6E
100
AcDbEntity
  8
1
  6
Continuous
 62
     7
100
AcDbCircle
 10
285.9999991939369
 20
406.9004068455112
 30
0.0
 40
25.00000000000058
100
AcDbArc
 50
248.7461908146408
 51
291.2538091853592
  0
ARC
  5
1BB
330
6E
100
AcDbEntity
  8
1
  6
Continuous
 62
     7
100
AcDbCircle
 10
293.2499991939369
 20
388.2607314191522
 30
0.0
 40
5.000000000000275
100
AcDbArc
 50
291.2538091853585
 51
6.5692110801941
  0
ARC
  5
1BC
330
6E
100
AcDbEntity
  8
1
  6
Continuous
 62
     2
100
AcDbCircle
 10
285.9999991939369
 20
406.9004068455112
 30
0.0
 40
20.49999999999998
100
AcDbArc
 50
247.5252729531309
 51
292.4747270468698
  0
ARC
  5
1BD
330
6E
100
AcDbEntity
  8
1
  6
Continuous
 62
     7
100
AcDbCircle
 10
478.523301858743
 20
386.4004081600592
 30
0.0
 40
4.5
100
AcDbArc
 50
180.0
 51
270.0
  0
ARC
  5
1BE
330
6E
100
AcDbEntity
  8
1
  6
Continuous
 62
     7
100
AcDbCircle
 10
477.023301858743
 20
386.8346572097532
 30
0.0
 40
3.000000000000071
100
AcDbArc
 50
147.7086070282279
 51
180.0
  0
ARC
  5
1BF
330
6E
100
AcDbEntity
  8
1
  6
Continuous
 62
     7
100
AcDbCircle
 10
482.523301858743
 20
380.9004081600592
 30
0.0
 40
1.0
100
AcDbArc
 50
0.0
 51
90.0
  0
ARC
  5
1C0
330
6E
100
AcDbEntity
  8
1
  6
Continuous
 62
     7
100
AcDbCircle
 10
509.523301858743
 20
380.9004081600592
 30
0.0
 40
1.0
100
AcDbArc
 50
90.0
 51
180.0
  0
ARC
  5
1C1
330
6E
100
AcDbEntity
  8
1
  6
Continuous
 62
     7
100
AcDbCircle
 10
487.176270410763
 20
402.9004081600592
 30
0.0
 40
3.0
100
AcDbArc
 50
90.0
 51
147.7086070282282
  0
ENDBLK
  5
70
330
6E
100
AcDbEntity
  8
0
100
AcDbBlockEnd
  0
BLOCK
  5
72
330
71
100
AcDbEntity
  8
0
100
AcDbBlockBegin
  2
87-76BK
 70
     0
 10
273.5007682799652
 20
367.4004068455112
 30
0.0
  3
87-76BK
  1

  0
LINE
  5
1C2
330
71
100
AcDbEntity
  8
1
  6
Continuous
 62
     7
100
AcDbLine
 10
508.5258238781239
 20
370.9004081600592
 30
0.0
 11
508.5242325694021
 21
380.2004423816262
 31
0.0
  0
LINE
  5
1C3
330
71
100
AcDbEntity
  8
1
  6
Continuous
 62
     7
100
AcDbLine
 10
508.5258238781239
 20
370.9004081600592
 30
0.0
 11
483.521103106192
 21
370.9004081600592
 31
0.0
  0
LINE
  5
1C4
330
71
100
AcDbEntity
  8
1
  6
Continuous
 62
     7
100
AcDbLine
 10
508.5258238781239
 20
370.9004081600592
 30
0.0
 11
507.73304641301
 21
368.1256870321612
 31
0.0
  0
LINE
  5
1C5
330
71
100
AcDbEntity
  8
1
  6
Continuous
 62
     7
100
AcDbLine
 10
496.0258238781239
 20
367.4004081600592
 30
0.0
 11
506.7715224653689
 21
367.4004081600592
 31
0.0
  0
LINE
  5
1C6
330
71
100
AcDbEntity
  8
1
  6
Continuous
 62
     7
100
AcDbLine
 10
485.2754045189461
 20
367.4004081600592
 30
0.0
 11
496.021103106192
 21
367.4004081600592
 31
0.0
  0
LINE
  5
1C7
330
71
100
AcDbEntity
  8
1
  6
Continuous
 62
     7
100
AcDbLine
 10
484.3138805713049
 20
368.1256870321612
 30
0.0
 11
483.521103106192
 21
370.9004081600592
 31
0.0
  0
LINE
  5
1C8
330
71
100
AcDbEntity
  8
1
  6
Continuous
 62
     7
100
AcDbLine
 10
483.522694414914
 20
380.2004423816262
 30
0.0
 11
483.521103106192
 21
370.9004081600592
 31
0.0
  0
LINE
  5
1C9
330
71
100
AcDbEntity
  8
1
  6
Continuous
 62
     7
100
AcDbLine
 10
274.295137045016
 20
368.1256857176142
 30
0.0
 11
273.502359579903
 21
370.9004068455112
 31
0.0
  0
LINE
  5
1CA
330
71
100
AcDbEntity
  8
1
  6
Continuous
 62
     7
100
AcDbLine
 10
273.500768282893
 20
380.2003726239452
 30
0.0
 11
273.502359579903
 21
370.9004068455112
 31
0.0
  0
LINE
  5
1CB
330
71
100
AcDbEntity
  8
1
  6
Continuous
 62
     7
100
AcDbLine
 10
273.502359579903
 20
370.9004068455112
 30
0.0
 11
298.497638807971
 21
370.9004068455112
 31
0.0
  0
LINE
  5
1CC
330
71
100
AcDbEntity
  8
1
  6
Continuous
 62
     7
100
AcDbLine
 10
275.2566609926571
 20
367.4004068455112
 30
0.0
 11
296.743337395216
 21
367.4004068455112
 31
0.0
  0
LINE
  5
1CD
330
71
100
AcDbEntity
  8
1
  6
Continuous
 62
     7
100
AcDbLine
 10
298.497638807971
 20
370.9004068455112
 30
0.0
 11
298.4992301049811
 21
380.2003726239452
 31
0.0
  0
LINE
  5
1CE
330
71
100
AcDbEntity
  8
1
  6
Continuous
 62
     7
100
AcDbLine
 10
298.497638807971
 20
370.9004068455112
 30
0.0
 11
297.7048613428569
 21
368.1256857176142
 31
0.0
  0
LINE
  5
1CF
330
71
100
AcDbEntity
  8
1
  6
Continuous
 62
     7
100
AcDbLine
 10
273.7007682799649
 20
380.4004068455112
 30
0.0
 11
298.2992301079089
 21
380.4004068455112
 31
0.0
  0
LINE
  5
1D0
330
71
100
AcDbEntity
  8
1
  6
Continuous
 62
     7
100
AcDbLine
 10
483.7226944119859
 20
380.4004081600592
 30
0.0
 11
508.32423257233
 21
380.4004081600592
 31
0.0
  0
ARC
  5
1D1
330
71
100
AcDbEntity
  8
1
  6
Continuous
 62
     7
100
AcDbCircle
 10
506.7715224653689
 20
368.4004081600592
 30
0.0
 40
1.0
100
AcDbArc
 50
270.0
 51
318.9643661455079
  0
ARC
  5
1D2
330
71
100
AcDbEntity
  8
1
  6
Continuous
 62
     7
100
AcDbCircle
 10
506.7715224653689
 20
368.4004081600592
 30
0.0
 40
1.000000000000054
100
AcDbArc
 50
318.9643661455079
 51
344.0546040990458
  0
ARC
  5
1D3
330
71
100
AcDbEntity
  8
1
  6
Continuous
 62
     7
100
AcDbCircle
 10
485.2754045189461
 20
368.4004081600592
 30
0.0
 40
1.000000000000054
100
AcDbArc
 50
221.0356338544921
 51
270.0
  0
ARC
  5
1D4
330
71
100
AcDbEntity
  8
1
  6
Continuous
 62
     7
100
AcDbCircle
 10
485.2754045189461
 20
368.4004081600592
 30
0.0
 40
1.00000000000058
100
AcDbArc
 50
195.9453959009524
 51
221.0356338544921
  0
ARC
  5
1D5
330
71
100
AcDbEntity
  8
1
  6
Continuous
 62
     7
100
AcDbCircle
 10
483.7226944119859
 20
380.2004081600592
 30
0.0
 40
0.1999999999999886
100
AcDbArc
 50
90.0
 51
179.9901962431715
  0
ARC
  5
1D6
330
71
100
AcDbEntity
  8
1
  6
Continuous
 62
     7
100
AcDbCircle
 10
508.32423257233
 20
380.2004081600592
 30
0.0
 40
0.199999999999887
100
AcDbArc
 50
0.00980375682853
 51
90.0
  0
ARC
  5
1D7
330
71
100
AcDbEntity
  8
1
  6
Continuous
 62
     7
100
AcDbCircle
 10
296.743337395216
 20
368.4004068455112
 30
0.0
 40
1.0
100
AcDbArc
 50
270.0
 51
318.9643661455016
  0
ARC
  5
1D8
330
71
100
AcDbEntity
  8
1
  6
Continuous
 62
     7
100
AcDbCircle
 10
296.743337395216
 20
368.4004068455112
 30
0.0
 40
0.9999999999999257
100
AcDbArc
 50
318.9643661455016
 51
344.0546040990986
  0
ARC
  5
1D9
330
71
100
AcDbEntity
  8
1
  6
Continuous
 62
     7
100
AcDbCircle
 10
275.2566609926571
 20
368.4004068455112
 30
0.0
 40
1.000000000000135
100
AcDbArc
 50
195.9453959008987
 51
221.0356338544921
  0
ARC
  5
1DA
330
71
100
AcDbEntity
  8
1
  6
Continuous
 62
     7
100
AcDbCircle
 10
275.2566609926571
 20
368.4004068455112
 30
0.0
 40
1.000000000000054
100
AcDbArc
 50
221.0356338544921
 51
270.0
  0
ARC
  5
1DB
330
71
100
AcDbEntity
  8
1
  6
Continuous
 62
     7
100
AcDbCircle
 10
273.7007682799649
 20
380.2004068455112
 30
0.0
 40
0.1999999999999886
100
AcDbArc
 50
90.0
 51
180.0098037565517
  0
ARC
  5
1DC
330
71
100
AcDbEntity
  8
1
  6
Continuous
 62
     7
100
AcDbCircle
 10
298.2992301079089
 20
380.2004068455112
 30
0.0
 40
0.2000000000000005
100
AcDbArc
 50
359.9901962434483
 51
90.0
  0
ENDBLK
  5
73
330
71
100
AcDbEntity
  8
0
100
AcDbBlockEnd
  0
BLOCK
  5
75
330
74
100
AcDbEntity
  8
0
100
AcDbBlockBegin
  2
60-7-190-M2K
 70
     0
 10
615.067049553649
 20
536.9264239294993
 30
0.0
  3
60-7-190-M2K
  1

  0
LINE
  5
1DD
330
74
100
AcDbEntity
  8
1
  6
Continuous
 62
     7
100
AcDbLine
 10
294.0
 20
620.0233005586642
 30
0.0
 11
298.0
 21
620.0233005586642
 31
0.0
  0
LINE
  5
1DE
330
74
100
AcDbEntity
  8
1
  6
Continuous
 62
     7
100
AcDbLine
 10
294.0
 20
620.0233005586642
 30
0.0
 11
294.0
 21
670.3682025126832
 31
0.0
  0
LINE
  5
1DF
330
74
100
AcDbEntity
  8
1
  6
Continuous
 62
     7
100
AcDbLine
 10
278.0
 20
620.0233005586642
 30
0.0
 11
294.0
 21
620.0233005586642
 31
0.0
  0
LINE
  5
1E0
330
74
100
AcDbEntity
  8
1
  6
Continuous
 62
     7
100
AcDbLine
 10
278.0
 20
620.0233005586642
 30
0.0
 11
278.0
 21
670.3682020449852
 31
0.0
  0
LINE
  5
1E1
330
74
100
AcDbEntity
  8
1
  6
Continuous
 62
     7
100
AcDbLine
 10
677.999999246241
 20
420.9004081600592
 30
0.0
 11
677.999999246241
 21
426.4004081600592
 31
0.0
  0
LINE
  5
1E2
330
74
100
AcDbEntity
  8
1
  6
Continuous
 62
     7
100
AcDbLine
 10
693.999999246241
 20
420.9004081600592
 30
0.0
 11
693.999999246241
 21
426.4004081600592
 31
0.0
  0
LINE
  5
1E3
330
74
100
AcDbEntity
  8
1
  6
Continuous
 62
     7
100
AcDbLine
 10
298.5
 20
617.0233005586642
 30
0.0
 11
273.5
 21
617.0233005586642
 31
0.0
  0
LINE
  5
1E4
330
74
100
AcDbEntity
  8
1
  6
Continuous
 62
     7
100
AcDbLine
 10
274.0
 20
620.0233005586642
 30
0.0
 11
278.0
 21
620.0233005586642
 31
0.0
  0
LINE
  5
1E5
330
74
100
AcDbEntity
  8
1
  6
Continuous
 62
     7
100
AcDbLine
 10
273.5
 20
617.0233005586642
 30
0.0
 11
273.5
 21
577.1697294873072
 31
0.0
  0
LINE
  5
1E6
330
74
100
AcDbEntity
  8
1
  6
Continuous
 62
     7
100
AcDbLine
 10
274.0
 20
620.0233005586642
 30
0.0
 11
273.5
 21
617.0233005586642
 31
0.0
  0
LINE
  5
1E7
330
74
100
AcDbEntity
  8
1
  6
Continuous
 62
     7
100
AcDbLine
 10
298.5
 20
617.0233005586642
 30
0.0
 11
298.5
 21
577.1697294873072
 31
0.0
  0
LINE
  5
1E8
330
74
100
AcDbEntity
  8
1
  6
Continuous
 62
     7
100
AcDbLine
 10
298.0
 20
620.0233005586642
 30
0.0
 11
298.5
 21
617.0233005586642
 31
0.0
  0
LINE
  5
1E9
330
74
100
AcDbEntity
  8
1
  6
Continuous
 62
     7
100
AcDbLine
 10
524.023301858743
 20
385.9004081600592
 30
0.0
 11
658.999999246241
 21
385.9004081600592
 31
0.0
  0
LINE
  5
1EA
330
74
100
AcDbEntity
  8
1
  6
Continuous
 62
     7
100
AcDbLine
 10
524.023301858743
 20
401.9004081600592
 30
0.0
 11
658.999999246241
 21
401.9004081600592
 31
0.0
  0
LINE
  5
1EB
330
74
100
AcDbEntity
  8
1
  6
Continuous
 62
     7
100
AcDbLine
 10
294.024999193937
 20
426.4004068455112
 30
0.0
 11
294.024999193937
 21
402.6374800514502
 31
0.0
  0
LINE
  5
1EC
330
74
100
AcDbEntity
  8
1
  6
Continuous
 62
     7
100
AcDbLine
 10
278.024999193937
 20
402.6858986836582
 30
0.0
 11
278.024999193937
 21
426.4004068455112
 31
0.0
  0
ARC
  5
1ED
330
74
100
AcDbEntity
  8
1
  6
Continuous
 62
     7
100
AcDbCircle
 10
286.0
 20
595.0233005586642
 30
0.0
 40
25.0
100
AcDbArc
 50
270.0
 51
290.0051900881587
  0
ARC
  5
1EE
330
74
100
AcDbEntity
  8
1
  6
Continuous
 62
     7
100
AcDbCircle
 10
286.0
 20
595.0233005586642
 30
0.0
 40
25.00000000000027
100
AcDbArc
 50
249.9948099118413
 51
270.0
  0
ARC
  5
1EF
330
74
100
AcDbEntity
  8
1
  6
Continuous
 62
     7
100
AcDbCircle
 10
286.0
 20
560.7182228310232
 30
0.0
 40
20.66160863199556
100
AcDbArc
 50
59.45673211631997
 51
120.54326788368
  0
ARC
  5
1F0
330
74
100
AcDbEntity
  8
1
  6
Continuous
 62
     7
100
AcDbCircle
 10
658.999999246241
 20
420.9004081600592
 30
0.0
 40
19.0
100
AcDbArc
 50
270.0
 51
0.0
  0
ARC
  5
1F1
330
74
100
AcDbEntity
  8
1
  6
Continuous
 62
     7
100
AcDbCircle
 10
658.999999246241
 20
420.9004081600592
 30
0.0
 40
35.0
100
AcDbArc
 50
270.0
 51
0.0
  0
ARC
  5
1F2
330
74
100
AcDbEntity
  8
1
  6
Continuous
 62
     7
100
AcDbCircle
 10
292.5
 20
577.1697294873072
 30
0.0
 40
6.000000000000379
100
AcDbArc
 50
290.0051900881556
 51
0.0
  0
ARC
  5
1F3
330
74
100
AcDbEntity
  8
1
  6
Continuous
 62
     7
100
AcDbCircle
 10
279.5
 20
577.1697294873072
 30
0.0
 40
6.0
100
AcDbArc
 50
180.0
 51
249.9948099118444
  0
ENDBLK
  5
76
330
74
100
AcDbEntity
  8
0
100
AcDbBlockEnd
  0
BLOCK
  5
7C
330
77
100
AcDbEntity
  8
0
100
AcDbBlockBegin
  2
60-7X2-190-LHLH
 70
     0
 10
271.9999991939369
 20
367.4004068455112
 30
0.0
  3
60-7X2-190-LHLH
  1

  0
INSERT
  5
78
330
77
100
AcDbEntity
  8
1
100
AcDbBlockReference
  2
32-1-16-M2K
 10
271.9999991939369
 20
426.4004068455112
 30
0.0
  0
INSERT
  5
79
330
77
100
AcDbEntity
  8
1
100
AcDbBlockReference
  2
84-26BK
 10
273.7499991939366
 20
380.4004068455112
 30
0.0
  0
INSERT
  5
7A
330
77
100
AcDbEntity
  8
1
100
AcDbBlockReference
  2
87-76BK
 10
273.5007682799652
 20
367.4004068455112
 30
0.0
  0
INSERT
  5
7B
330
77
100
AcDbEntity
  8
0
100
AcDbBlockReference
  2
60-7-190-M2K
 10
615.067049553649
 20
536.9264239294993
 30
0.0
  0
ENDBLK
  5
7D
330
77
100
AcDbEntity
  8
0
100
AcDbBlockEnd
  0
BLOCK
  5
7F
330
7E
100
AcDbEntity
  8
0
100
AcDbBlockBegin
  2
開示A4
 70
     0
 10
0.0
 20
0.0
 30
0.0
  3
開示A4
  1

  0
POINT
  5
1F4
330
7E
100
AcDbEntity
  8
1
 62
     4
100
AcDbPoint
 10
34.0
 20
34.00000000000001
 30
0.0
  0
POINT
  5
1F5
330
7E
100
AcDbEntity
  8
1
 62
     4
100
AcDbPoint
 10
57.0
 20
12.25
 30
0.0
  0
POINT
  5
1F6
330
7E
100
AcDbEntity
  8
1
 62
     4
100
AcDbPoint
 10
57.0
 20
20.75000000000001
 30
0.0
  0
POINT
  5
1F7
330
7E
100
AcDbEntity
  8
1
 62
     4
100
AcDbPoint
 10
57.0
 20
24.75000000000001
 30
0.0
  0
POINT
  5
1F8
330
7E
100
AcDbEntity
  8
1
 62
     4
100
AcDbPoint
 10
57.0
 20
16.25
 30
0.0
  0
POINT
  5
1F9
330
7E
100
AcDbEntity
  8
1
 62
     4
100
AcDbPoint
 10
157.5
 20
19.00000000000001
 30
0.0
  0
POINT
  5
1FA
330
7E
100
AcDbEntity
  8
1
 62
     4
100
AcDbPoint
 10
47.5
 20
282.0000000000003
 30
0.0
  0
POINT
  5
1FB
330
7E
100
AcDbEntity
  8
1
 62
     4
100
AcDbPoint
 10
57.0
 20
22.75000000000001
 30
0.0
  0
POINT
  5
1FC
330
7E
100
AcDbEntity
  8
1
 62
     4
100
AcDbPoint
 10
57.0
 20
14.25
 30
0.0
  0
POINT
  5
1FD
330
7E
100
AcDbEntity
  8
1
 62
     4
100
AcDbPoint
 10
157.5
 20
12.5
 30
0.0
  0
POINT
  5
1FE
330
7E
100
AcDbEntity
  8
1
 62
     4
100
AcDbPoint
 10
163.25
 20
12.5
 30
0.0
  0
POINT
  5
1FF
330
7E
100
AcDbEntity
  8
1
 62
     4
100
AcDbPoint
 10
151.75
 20
12.5
 30
0.0
  0
POINT
  5
200
330
7E
100
AcDbEntity
  8
1
 62
     4
100
AcDbPoint
 10
134.75
 20
12.5
 30
0.0
  0
POINT
  5
201
330
7E
100
AcDbEntity
  8
1
 62
     4
100
AcDbPoint
 10
146.25
 20
12.5
 30
0.0
  0
POINT
  5
202
330
7E
100
AcDbEntity
  8
1
 62
     4
100
AcDbPoint
 10
140.5
 20
12.5
 30
0.0
  0
POINT
  5
203
330
7E
100
AcDbEntity
  8
1
 62
     4
100
AcDbPoint
 10
140.5
 20
19.00000000000001
 30
0.0
  0
POINT
  5
204
330
7E
100
AcDbEntity
  8
1
 62
     4
100
AcDbPoint
 10
117.75
 20
12.5
 30
0.0
  0
POINT
  5
205
330
7E
100
AcDbEntity
  8
1
 62
     4
100
AcDbPoint
 10
129.25
 20
12.5
 30
0.0
  0
POINT
  5
206
330
7E
100
AcDbEntity
  8
1
 62
     4
100
AcDbPoint
 10
123.5
 20
12.5
 30
0.0
  0
POINT
  5
207
330
7E
100
AcDbEntity
  8
1
 62
     4
100
AcDbPoint
 10
123.5
 20
19.00000000000001
 30
0.0
  0
POINT
  5
208
330
7E
100
AcDbEntity
  8
1
 62
     4
100
AcDbPoint
 10
100.75
 20
12.5
 30
0.0
  0
POINT
  5
209
330
7E
100
AcDbEntity
  8
1
 62
     4
100
AcDbPoint
 10
112.25
 20
12.5
 30
0.0
  0
POINT
  5
20A
330
7E
100
AcDbEntity
  8
1
 62
     4
100
AcDbPoint
 10
106.5
 20
12.5
 30
0.0
  0
POINT
  5
20B
330
7E
100
AcDbEntity
  8
1
 62
     4
100
AcDbPoint
 10
106.5
 20
19.00000000000001
 30
0.0
  0
POINT
  5
20C
330
7E
100
AcDbEntity
  8
1
 62
     4
100
AcDbPoint
 10
85.25
 20
17.0
 30
0.0
  0
POINT
  5
20D
330
7E
100
AcDbEntity
  8
1
 62
     4
100
AcDbPoint
 10
93.75
 20
17.0
 30
0.0
  0
LINE
  5
20E
330
7E
100
AcDbEntity
  8
1
  6
Continuous
 62
     2
100
AcDbLine
 10
81.0
 20
27.00000000000001
 30
0.0
 11
81.0
 21
10.0
 31
0.0
  0
LINE
  5
20F
330
7E
100
AcDbEntity
  8
1
  6
DOT_CENTER
 62
     2
100
AcDbLine
 10
187.0
 20
26.50000000000001
 30
0.0
 11
187.0
 21
20.50000000000001
 31
0.0
  0
LINE
  5
210
330
7E
100
AcDbEntity
  8
1
  6
DOT_CENTER
 62
     2
100
AcDbLine
 10
184.0
 20
23.50000000000001
 30
0.0
 11
197.0
 21
23.50000000000001
 31
0.0
  0
LINE
  5
211
330
7E
100
AcDbEntity
  8
1
  6
Continuous
 62
     7
100
AcDbLine
 10
196.0
 20
21.50000000000001
 30
0.0
 11
191.0
 21
22.30000000000001
 31
0.0
  0
LINE
  5
212
330
7E
100
AcDbEntity
  8
1
  6
Continuous
 62
     7
100
AcDbLine
 10
196.0
 20
25.50000000000001
 30
0.0
 11
196.0
 21
21.50000000000001
 31
0.0
  0
LINE
  5
213
330
7E
100
AcDbEntity
  8
1
  6
Continuous
 62
     7
100
AcDbLine
 10
191.0
 20
24.70000000000001
 30
0.0
 11
196.0
 21
25.50000000000001
 31
0.0
  0
LINE
  5
214
330
7E
100
AcDbEntity
  8
1
  6
Continuous
 62
     7
100
AcDbLine
 10
191.0
 20
24.70000000000001
 30
0.0
 11
191.0
 21
22.30000000000001
 31
0.0
  0
LINE
  5
215
330
7E
100
AcDbEntity
  8
1
  6
Continuous
 62
     2
100
AcDbLine
 10
33.0
 20
27.0
 30
0.0
 11
33.0
 21
10.0
 31
0.0
  0
LINE
  5
216
330
7E
100
AcDbEntity
  8
1
  6
Continuous
 62
     2
100
AcDbLine
 10
25.0
 20
18.50000000000001
 30
0.0
 11
81.0
 21
18.50000000000001
 31
0.0
  0
LINE
  5
217
330
7E
100
AcDbEntity
  8
1
  6
Continuous
 62
     7
100
AcDbLine
 10
200.0
 20
287.0000000000003
 30
0.0
 11
105.0
 21
287.0000000000003
 31
0.0
  0
LINE
  5
218
330
7E
100
AcDbEntity
  8
1
  6
Continuous
 62
     7
100
AcDbLine
 10
200.0
 20
10.0
 30
0.0
 11
200.0
 21
148.5
 31
0.0
  0
LINE
  5
219
330
7E
100
AcDbEntity
  8
1
  6
Continuous
 62
     7
100
AcDbLine
 10
25.0
 20
10.0
 30
0.0
 11
105.0
 21
10.0
 31
0.0
  0
LINE
  5
21A
330
7E
100
AcDbEntity
  8
1
  6
PHANTOM
 62
     4
100
AcDbLine
 10
0.0
 20
297.0
 30
0.0
 11
0.0
 21
0.0
 31
0.0
  0
LINE
  5
21B
330
7E
100
AcDbEntity
  8
1
  6
PHANTOM
 62
     4
100
AcDbLine
 10
210.0
 20
297.0
 30
0.0
 11
0.0
 21
297.0
 31
0.0
  0
LINE
  5
21C
330
7E
100
AcDbEntity
  8
1
  6
PHANTOM
 62
     4
100
AcDbLine
 10
210.0
 20
0.0
 30
0.0
 11
210.0
 21
297.0
 31
0.0
  0
LINE
  5
21D
330
7E
100
AcDbEntity
  8
1
  6
PHANTOM
 62
     4
100
AcDbLine
 10
0.0
 20
0.0
 30
0.0
 11
210.0
 21
0.0
 31
0.0
  0
LINE
  5
21E
330
7E
100
AcDbEntity
  8
1
  6
Continuous
 62
     7
100
AcDbLine
 10
25.0
 20
41.0
 30
0.0
 11
200.0
 21
41.0
 31
0.0
  0
LINE
  5
21F
330
7E
100
AcDbEntity
  8
1
  6
Continuous
 62
     7
100
AcDbLine
 10
200.0
 20
27.00000000000001
 30
0.0
 11
25.0
 21
27.00000000000001
 31
0.0
  0
LINE
  5
220
330
7E
100
AcDbEntity
  8
1
  6
Continuous
 62
     2
100
AcDbLine
 10
33.0
 20
41.00000000000001
 30
0.0
 11
33.0
 21
27.0
 31
0.0
  0
LINE
  5
221
330
7E
100
AcDbEntity
  8
1
  6
Continuous
 62
     2
100
AcDbLine
 10
55.0
 20
287.0000000000003
 30
0.0
 11
55.0
 21
277.0000000000003
 31
0.0
  0
LINE
  5
222
330
7E
100
AcDbEntity
  8
1
  6
Continuous
 62
     2
100
AcDbLine
 10
40.0
 20
287.0000000000003
 30
0.0
 11
40.0
 21
277.0000000000003
 31
0.0
  0
LINE
  5
223
330
7E
100
AcDbEntity
  8
1
  6
Continuous
 62
     7
100
AcDbLine
 10
25.0
 20
10.0
 30
0.0
 11
25.0
 21
148.5
 31
0.0
  0
LINE
  5
224
330
7E
100
AcDbEntity
  8
1
  6
Continuous
 62
     2
100
AcDbLine
 10
55.0
 20
277.0000000000003
 30
0.0
 11
25.0
 21
277.0000000000003
 31
0.0
  0
LINE
  5
225
330
7E
100
AcDbEntity
  8
1
  6
Continuous
 62
     2
100
AcDbLine
 10
166.0
 20
27.00000000000001
 30
0.0
 11
166.0
 21
10.0
 31
0.0
  0
LINE
  5
226
330
7E
100
AcDbEntity
  8
1
  6
Continuous
 62
     2
100
AcDbLine
 10
132.0
 20
27.00000000000001
 30
0.0
 11
132.0
 21
9.99999999999999
 31
0.0
  0
LINE
  5
227
330
7E
100
AcDbEntity
  8
1
  6
Continuous
 62
     2
100
AcDbLine
 10
149.0
 20
27.00000000000001
 30
0.0
 11
149.0
 21
10.0
 31
0.0
  0
LINE
  5
228
330
7E
100
AcDbEntity
  8
1
  6
Continuous
 62
     2
100
AcDbLine
 10
115.0
 20
27.00000000000001
 30
0.0
 11
115.0
 21
9.99999999999999
 31
0.0
  0
LINE
  5
229
330
7E
100
AcDbEntity
  8
1
  6
Continuous
 62
     2
100
AcDbLine
 10
98.0
 20
27.00000000000001
 30
0.0
 11
98.0
 21
9.99999999999999
 31
0.0
  0
LINE
  5
22A
330
7E
100
AcDbEntity
  8
1
  6
Continuous
 62
     2
100
AcDbLine
 10
166.0
 20
20.00000000000001
 30
0.0
 11
200.0
 21
20.00000000000001
 31
0.0
  0
LINE
  5
22B
330
7E
100
AcDbEntity
  8
1
  6
Continuous
 62
     2
100
AcDbLine
 10
105.0
 20
287.0000000000003
 30
0.0
 11
105.0
 21
292.0000000000003
 31
0.0
  0
LINE
  5
22C
330
7E
100
AcDbEntity
  8
1
  6
Continuous
 62
     7
100
AcDbLine
 10
105.0
 20
287.0000000000003
 30
0.0
 11
25.0
 21
287.0000000000003
 31
0.0
  0
LINE
  5
22D
330
7E
100
AcDbEntity
  8
1
  6
Continuous
 62
     2
100
AcDbLine
 10
25.0
 20
148.5
 30
0.0
 11
20.0
 21
148.5
 31
0.0
  0
LINE
  5
22E
330
7E
100
AcDbEntity
  8
1
  6
Continuous
 62
     7
100
AcDbLine
 10
25.0
 20
148.5
 30
0.0
 11
25.0
 21
287.0000000000003
 31
0.0
  0
LINE
  5
22F
330
7E
100
AcDbEntity
  8
1
  6
Continuous
 62
     2
100
AcDbLine
 10
200.0
 20
148.5
 30
0.0
 11
205.0
 21
148.5
 31
0.0
  0
LINE
  5
230
330
7E
100
AcDbEntity
  8
1
  6
Continuous
 62
     7
100
AcDbLine
 10
200.0
 20
148.5
 30
0.0
 11
200.0
 21
287.0000000000003
 31
0.0
  0
LINE
  5
231
330
7E
100
AcDbEntity
  8
1
  6
Continuous
 62
     2
100
AcDbLine
 10
105.0
 20
10.0
 30
0.0
 11
105.0
 21
5.0
 31
0.0
  0
LINE
  5
232
330
7E
100
AcDbEntity
  8
1
  6
Continuous
 62
     7
100
AcDbLine
 10
105.0
 20
10.0
 30
0.0
 11
200.0
 21
10.0
 31
0.0
  0
CIRCLE
  5
233
330
7E
100
AcDbEntity
  8
1
  6
DOT_CENTER
 62
     7
100
AcDbCircle
 10
89.5
 20
18.0
 30
0.0
 40
0.1000000000000227
  0
CIRCLE
  5
234
330
7E
100
AcDbEntity
  8
1
  6
DOT_CENTER
 62
     7
100
AcDbCircle
 10
89.5
 20
16.0
 30
0.0
 40
0.1000000000000227
  0
CIRCLE
  5
235
330
7E
100
AcDbEntity
  8
1
  6
Continuous
 62
     7
100
AcDbCircle
 10
187.0
 20
23.50000000000001
 30
0.0
 40
2.0
  0
CIRCLE
  5
236
330
7E
100
AcDbEntity
  8
1
  6
Continuous
 62
     7
100
AcDbCircle
 10
187.0
 20
23.50000000000001
 30
0.0
 40
1.200000000000102
  0
CIRCLE
  5
237
330
7E
100
AcDbEntity
  8
1
  6
Continuous
 62
     7
100
AcDbCircle
 10
154.5
 20
12.5
 30
0.0
 40
0.3000000000000114
  0
CIRCLE
  5
238
330
7E
100
AcDbEntity
  8
1
  6
Continuous
 62
     7
100
AcDbCircle
 10
160.5
 20
12.5
 30
0.0
 40
0.3000000000000114
  0
CIRCLE
  5
239
330
7E
100
AcDbEntity
  8
1
  6
Continuous
 62
     7
100
AcDbCircle
 10
143.5
 20
12.5
 30
0.0
 40
0.3000000000000114
  0
CIRCLE
  5
23A
330
7E
100
AcDbEntity
  8
1
  6
Continuous
 62
     7
100
AcDbCircle
 10
137.5
 20
12.5
 30
0.0
 40
0.3000000000000114
  0
CIRCLE
  5
23B
330
7E
100
AcDbEntity
  8
1
  6
Continuous
 62
     7
100
AcDbCircle
 10
126.5
 20
12.5
 30
0.0
 40
0.2999999999999972
  0
CIRCLE
  5
23C
330
7E
100
AcDbEntity
  8
1
  6
Continuous
 62
     7
100
AcDbCircle
 10
120.5
 20
12.5
 30
0.0
 40
0.2999999999999972
  0
CIRCLE
  5
23D
330
7E
100
AcDbEntity
  8
1
  6
Continuous
 62
     7
100
AcDbCircle
 10
109.5
 20
12.5
 30
0.0
 40
0.2999999999999972
  0
CIRCLE
  5
23E
330
7E
100
AcDbEntity
  8
1
  6
Continuous
 62
     7
100
AcDbCircle
 10
103.5
 20
12.5
 30
0.0
 40
0.2999999999999972
  0
MTEXT
  5
240
330
7E
100
AcDbEntity
  8
1
 62
   250
100
AcDbMText
 10
25.0
 20
5.0
 30
0.0
 40
3.5
 41
0.0
 71
     4
 72
     1
  1
備考欄の文字列 原点位置=4
  7
CONVERTER_11
 73
     1
 44
0.54545454545455
  0
MTEXT
  5
241
330
7E
100
AcDbEntity
  8
1
 62
     2
100
AcDbMText
 10
89.5
 20
24.00000000000001
 30
0.0
 40
3.5
 41
0.0
 71
     5
 72
     1
  1
尺度
  7
CONVERTER_11
 73
     1
 44
0.54545454545455
  0
MTEXT
  5
242
330
7E
100
AcDbEntity
  8
1
 62
     2
100
AcDbMText
 10
135.5
 20
25.00000000000001
 30
0.0
 40
3.0
 41
0.0
 71
     5
 72
     1
  1
製図
  7
CONVERTER_11
 73
     1
 44
0.59090909090909
  0
MTEXT
  5
243
330
7E
100
AcDbEntity
  8
1
 62
     2
100
AcDbMText
 10
152.5
 20
25.00000000000001
 30
0.0
 40
3.0
 41
0.0
 71
     5
 72
     1
  1
設計
  7
CONVERTER_11
 73
     1
 44
0.59090909090909
  0
MTEXT
  5
244
330
7E
100
AcDbEntity
  8
1
 62
     2
100
AcDbMText
 10
118.5
 20
25.00000000000001
 30
0.0
 40
3.0
 41
0.0
 71
     5
 72
     1
  1
検図
  7
CONVERTER_11
 73
     1
 44
0.59090909090909
  0
MTEXT
  5
245
330
7E
100
AcDbEntity
  8
1
 62
     2
100
AcDbMText
 10
175.0
 20
23.50000000000001
 30
0.0
 40
3.5
 41
0.0
 71
     5
 72
     1
  1
第三角法
  7
CONVERTER_11
 73
     1
 44
0.54545454545455
  0
MTEXT
  5
246
330
7E
100
AcDbEntity
  8
1
 62
     2
100
AcDbMText
 10
101.5
 20
25.00000000000001
 30
0.0
 40
3.0
 41
0.0
 71
     5
 72
     1
  1
承認
  7
CONVERTER_11
 73
     1
 44
0.59090909090909
  0
MTEXT
  5
247
330
7E
100
AcDbEntity
  8
1
 62
     2
100
AcDbMText
 10
29.0
 20
14.25
 30
0.0
 40
3.5
 41
0.0
 71
     5
 72
     1
  1
品番
  7
CONVERTER_11
 73
     1
 44
0.72727272727273
  0
MTEXT
  5
248
330
7E
100
AcDbEntity
  8
1
 62
     2
100
AcDbMText
 10
29.0
 20
22.75
 30
0.0
 40
3.5
 41
0.0
 71
     5
 72
     1
  1
品名
  7
CONVERTER_11
 73
     1
 44
0.72727272727273
  0
MTEXT
  5
249
330
7E
100
AcDbEntity
  8
1
 62
     2
100
AcDbMText
 10
29.0
 20
34.00000000000001
 30
0.0
 40
3.5
 41
0.0
 71
     5
 72
     1
  1
備考
  7
CONVERTER_11
 73
     1
 44
0.45454545454545
  0
MTEXT
  5
24A
330
7E
100
AcDbEntity
  8
1
 62
     2
100
AcDbMText
 10
32.5
 20
282.0000000000003
 30
0.0
 40
5.0
 41
0.0
 71
     5
 72
     1
  1
図番
  7
CONVERTER_11
 73
     1
 44
0.45454545454545
  0
MTEXT
  5
24B
330
7E
100
AcDbEntity
  8
1
 62
     7
100
AcDbMText
 10
171.5
 20
15.0
 30
0.0
 40
2.5
 41
0.0
 71
     5
 72
     1
  1
株式会社
  7
CONVERTER_11
 73
     1
 44
1.0
  0
MTEXT
  5
24C
330
7E
100
AcDbEntity
  8
1
 62
     7
100
AcDbMText
 10
188.5
 20
15.0
 30
0.0
 40
3.0
 41
0.0
 71
     5
 72
     1
  1
三栄水栓製作所
  7
CONVERTER_11
 73
     1
 44
1.0
  0
ENDBLK
  5
80
330
7E
100
AcDbEntity
  8
0
100
AcDbBlockEnd
  0
BLOCK
  5
82
330
81
100
AcDbEntity
  8
0
100
AcDbBlockBegin
  2
K1711-0-M1
 70
     0
 10
705.128570288528
 20
498.650410213898
 30
0.0
  3
K1711-0-M1
  1

  0
LINE
  5
24D
330
81
100
AcDbEntity
  8
1
  6
Continuous
 62
     2
100
AcDbLine
 10
358.0584999999996
 20
804.8805564168026
 30
0.0
 11
358.0584999999996
 21
804.5000000000013
 31
0.0
  0
LINE
  5
24E
330
81
100
AcDbEntity
  8
1
  6
Continuous
 62
     2
100
AcDbLine
 10
333.9414999999999
 20
804.8805564168019
 30
0.0
 11
333.9414999999999
 21
804.5000000000005
 31
0.0
  0
LINE
  5
24F
330
81
100
AcDbEntity
  8
11
  6
Continuous
 62
     7
100
AcDbLine
 10
332.7794999999994
 20
804.8805564168024
 30
0.0
 11
332.7795
 21
802.487356961606
 31
0.0
  0
LINE
  5
250
330
81
100
AcDbEntity
  8
1
  6
Continuous
 62
     2
100
AcDbLine
 10
238.0584999999995
 20
804.8805564168024
 30
0.0
 11
238.0584999999996
 21
804.5000041076786
 31
0.0
  0
LINE
  5
251
330
81
100
AcDbEntity
  8
1
  6
Continuous
 62
     2
100
AcDbLine
 10
213.9414999999999
 20
804.8805564168026
 30
0.0
 11
213.9414999999999
 21
804.5000041076775
 31
0.0
  0
LINE
  5
252
330
81
100
AcDbEntity
  8
11
  6
Continuous
 62
     7
100
AcDbLine
 10
212.7795
 20
804.8805564168027
 30
0.0
 11
212.7795
 21
802.487356961606
 31
0.0
  0
LINE
  5
253
330
81
100
AcDbEntity
  8
1
  6
Continuous
 62
     2
100
AcDbLine
 10
708.8805603823364
 20
443.841910710901
 30
0.0
 11
708.5000001070748
 21
443.841910710901
 31
0.0
  0
LINE
  5
254
330
81
100
AcDbEntity
  8
1
  6
Continuous
 62
     2
100
AcDbLine
 10
708.880560382337
 20
467.9589107109007
 30
0.0
 11
708.4999983854067
 21
467.9589107109007
 31
0.0
  0
LINE
  5
255
330
81
100
AcDbEntity
  8
11
  6
Continuous
 62
     7
100
AcDbLine
 10
708.8805603823364
 20
469.1209102138978
 30
0.0
 11
700.999999246241
 21
469.120910213898
 31
0.0
  0
LINE
  5
256
330
81
100
AcDbEntity
  8
1
  6
Continuous
 62
     7
100
AcDbLine
 10
708.4999992462409
 20
442.6799107109007
 30
0.0
 11
708.4999992462409
 21
469.1209107109007
 31
0.0
  0
LINE
  5
257
330
81
100
AcDbEntity
  8
1
  6
Continuous
 62
     7
100
AcDbLine
 10
359.2204999999999
 20
804.5000000000009
 30
0.0
 11
332.7794999999999
 21
804.5000000000009
 31
0.0
  0
LINE
  5
258
330
81
100
AcDbEntity
  8
1
  6
Continuous
 62
     7
100
AcDbLine
 10
239.2204999999999
 20
804.5000000000009
 30
0.0
 11
212.7794999999999
 21
804.5000000000009
 31
0.0
  0
LINE
  5
259
330
81
100
AcDbEntity
  8
1
  6
Continuous
 62
     7
100
AcDbLine
 10
698.186999246241
 20
437.900410213898
 30
0.0
 11
673.812999246241
 21
437.900410213898
 31
0.0
  0
LINE
  5
25A
330
81
100
AcDbEntity
  8
1
  6
Continuous
 62
     7
100
AcDbLine
 10
671.499999246241
 20
440.900410213898
 30
0.0
 11
693.499999246241
 21
440.900410213898
 31
0.0
  0
LINE
  5
25B
330
81
100
AcDbEntity
  8
1
  6
Continuous
 62
     7
100
AcDbLine
 10
696.499999246241
 20
490.900410213898
 30
0.0
 11
651.499999246241
 21
490.900410213898
 31
0.0
  0
LINE
  5
25C
330
81
100
AcDbEntity
  8
11
  6
Continuous
 62
     7
100
AcDbLine
 10
698.999999246241
 20
436.4004081600592
 30
0.0
 11
698.999999246241
 21
437.900410213898
 31
0.0
  0
LINE
  5
25D
330
81
100
AcDbEntity
  8
1
  6
Continuous
 62
     2
100
AcDbLine
 10
673.8129992462411
 20
436.4004081600592
 30
0.0
 11
673.812999246241
 21
437.900410213898
 31
0.0
  0
LINE
  5
25E
330
81
100
AcDbEntity
  8
11
  6
Continuous
 62
     7
100
AcDbLine
 10
359.2205
 20
797.500000000001
 30
0.0
 11
359.2205
 21
802.487356961606
 31
0.0
  0
LINE
  5
25F
330
81
100
AcDbEntity
  8
1
  6
Continuous
 62
     7
100
AcDbLine
 10
306.000002447669
 20
789.500000000001
 30
0.0
 11
356.0
 21
789.500000000001
 31
0.0
  0
LINE
  5
260
330
81
100
AcDbEntity
  8
1
  6
Continuous
 62
     7
100
AcDbLine
 10
317.279829267468
 20
766.087159216322
 30
0.0
 11
328.030270966545
 21
770.000000000001
 31
0.0
  0
LINE
  5
261
330
81
100
AcDbEntity
  8
1
  6
PHANTOM
 62
     4
100
AcDbLine
 10
328.130270966545
 20
770.000000000001
 30
0.0
 11
328.030270966545
 21
770.000000000001
 31
0.0
  0
LINE
  5
262
330
81
100
AcDbEntity
  8
1
  6
Continuous
 62
     7
100
AcDbLine
 10
355.517866749694
 20
780.004666676608
 30
0.0
 11
361.0
 21
789.500000000001
 31
0.0
  0
LINE
  5
263
330
81
100
AcDbEntity
  8
11
  6
Continuous
 62
     7
100
AcDbLine
 10
359.2205
 20
802.487356961606
 30
0.0
 11
359.2205
 21
804.8805564168027
 31
0.0
  0
LINE
  5
264
330
81
100
AcDbEntity
  8
11
  6
Continuous
 62
     7
100
AcDbLine
 10
332.7795
 20
802.487356961606
 30
0.0
 11
332.7795
 21
797.500000000001
 31
0.0
  0
LINE
  5
265
330
81
100
AcDbEntity
  8
1
  6
Continuous
 62
     2
100
AcDbLine
 10
332.7795
 20
802.487356961606
 30
0.0
 11
333.9414999999999
 21
804.5000000000005
 31
0.0
  0
LINE
  5
266
330
81
100
AcDbEntity
  8
1
  6
Continuous
 62
     2
100
AcDbLine
 10
359.2205
 20
802.487356961606
 30
0.0
 11
358.0584999999996
 21
804.5000000000013
 31
0.0
  0
LINE
  5
267
330
81
100
AcDbEntity
  8
1
  6
Continuous
 62
     7
100
AcDbLine
 10
361.0
 20
789.500000000001
 30
0.0
 11
361.0
 21
797.000000000001
 31
0.0
  0
LINE
  5
268
330
81
100
AcDbEntity
  8
1
  6
Continuous
 62
     7
100
AcDbLine
 10
328.030270966545
 20
770.000000000001
 30
0.0
 11
355.517866749694
 21
780.004666676608
 31
0.0
  0
LINE
  5
269
330
81
100
AcDbEntity
  8
1
  6
Continuous
 62
     7
100
AcDbLine
 10
361.0
 20
797.000000000001
 30
0.0
 11
359.7205
 21
797.000000000001
 31
0.0
  0
LINE
  5
26A
330
81
100
AcDbEntity
  8
1
  6
Continuous
 62
     7
100
AcDbLine
 10
359.7205
 20
797.000000000001
 30
0.0
 11
332.2795
 21
797.000000000001
 31
0.0
  0
LINE
  5
26B
330
81
100
AcDbEntity
  8
1
  6
Continuous
 62
     7
100
AcDbLine
 10
332.2795
 20
797.000000000001
 30
0.0
 11
286.0
 21
797.000000000001
 31
0.0
  0
LINE
  5
26C
330
81
100
AcDbEntity
  8
1
  6
Continuous
 62
     7
100
AcDbLine
 10
286.0
 20
797.000000000001
 30
0.0
 11
239.7205
 21
797.000000000001
 31
0.0
  0
LINE
  5
26D
330
81
100
AcDbEntity
  8
1
  6
Continuous
 62
     7
100
AcDbLine
 10
304.994141914612
 20
471.183517170876
 30
0.0
 11
306.499999186709
 21
477.504806576571
 31
0.0
  0
LINE
  5
26E
330
81
100
AcDbEntity
  8
1
  6
Continuous
 62
     7
100
AcDbLine
 10
265.499999186709
 20
477.504806576571
 30
0.0
 11
267.005856458806
 21
471.183517170876
 31
0.0
  0
LINE
  5
26F
330
81
100
AcDbEntity
  8
1
  6
Continuous
 62
     7
100
AcDbLine
 10
306.303042144097
 20
466.183517170876
 30
0.0
 11
345.234757664877
 21
466.183517170875
 31
0.0
  0
LINE
  5
270
330
81
100
AcDbEntity
  8
1
  6
Continuous
 62
     7
100
AcDbLine
 10
239.7205
 20
797.000000000001
 30
0.0
 11
212.2795
 21
797.000000000001
 31
0.0
  0
LINE
  5
271
330
81
100
AcDbEntity
  8
1
  6
Continuous
 62
     7
100
AcDbLine
 10
212.2795
 20
797.000000000001
 30
0.0
 11
211.0
 21
797.000000000001
 31
0.0
  0
LINE
  5
272
330
81
100
AcDbEntity
  8
1
  6
Continuous
 62
     7
100
AcDbLine
 10
216.482133250306
 20
780.004666676608
 30
0.0
 11
243.969729033456
 21
770.000000000001
 31
0.0
  0
LINE
  5
273
330
81
100
AcDbEntity
  8
1
  6
Continuous
 62
     7
100
AcDbLine
 10
307.999999186709
 20
491.40040889935
 30
0.0
 11
308.499999186709
 21
490.90040889935
 31
0.0
  0
LINE
  5
274
330
81
100
AcDbEntity
  8
1
  6
Continuous
 62
     7
100
AcDbLine
 10
263.499999186709
 20
490.90040889935
 30
0.0
 11
263.999999186709
 21
491.40040889935
 31
0.0
  0
LINE
  5
275
330
81
100
AcDbEntity
  8
1
  6
Continuous
 62
     7
100
AcDbLine
 10
298.999999186709
 20
437.900408899349
 30
0.0
 11
298.999999186709
 21
439.400408899349
 31
0.0
  0
LINE
  5
276
330
81
100
AcDbEntity
  8
1
  6
Continuous
 62
     7
100
AcDbLine
 10
345.999999186709
 20
470.90040889935
 30
0.0
 11
318.499999186709
 21
470.90040889935
 31
0.0
  0
LINE
  5
277
330
81
100
AcDbEntity
  8
1
  6
Continuous
 62
     7
100
AcDbLine
 10
263.999999186709
 20
491.40040889935
 30
0.0
 11
307.999999186709
 21
491.40040889935
 31
0.0
  0
LINE
  5
278
330
81
100
AcDbEntity
  8
1
  6
Continuous
 62
     7
100
AcDbLine
 10
225.999999186709
 20
440.90040889935
 30
0.0
 11
345.999999186709
 21
440.90040889935
 31
0.0
  0
LINE
  5
279
330
81
100
AcDbEntity
  8
1
  6
Continuous
 62
     7
100
AcDbLine
 10
298.9999991867089
 20
436.4004068455113
 30
0.0
 11
298.999999186709
 21
437.900408899349
 31
0.0
  0
LINE
  5
27A
330
81
100
AcDbEntity
  8
1
  6
Continuous
 62
     7
100
AcDbLine
 10
272.999999186709
 20
439.400408899349
 30
0.0
 11
272.999999186709
 21
436.4004068455112
 31
0.0
  0
LINE
  5
27B
330
81
100
AcDbEntity
  8
1
  6
Continuous
 62
     7
100
AcDbLine
 10
272.999999186709
 20
437.900408899349
 30
0.0
 11
298.999999186709
 21
437.900408899349
 31
0.0
  0
LINE
  5
27C
330
81
100
AcDbEntity
  8
1
  6
Continuous
 62
     2
100
AcDbLine
 10
298.999999186709
 20
439.308566205902
 30
0.0
 11
298.186999186709
 21
437.900408899349
 31
0.0
  0
LINE
  5
27D
330
81
100
AcDbEntity
  8
1
  6
Continuous
 62
     2
100
AcDbLine
 10
298.186999186709
 20
437.900408899349
 30
0.0
 11
298.1869991867089
 21
436.4004068455113
 31
0.0
  0
LINE
  5
27E
330
81
100
AcDbEntity
  8
1
  6
Continuous
 62
     2
100
AcDbLine
 10
273.812999186709
 20
436.4004068455113
 30
0.0
 11
273.812999186709
 21
437.900408899349
 31
0.0
  0
LINE
  5
27F
330
81
100
AcDbEntity
  8
1
  6
Continuous
 62
     2
100
AcDbLine
 10
273.812999186709
 20
437.900408899349
 30
0.0
 11
272.999999186709
 21
439.308566205902
 31
0.0
  0
LINE
  5
280
330
81
100
AcDbEntity
  8
1
  6
Continuous
 62
     7
100
AcDbLine
 10
211.0
 20
797.000000000001
 30
0.0
 11
211.0
 21
789.500000000001
 31
0.0
  0
LINE
  5
281
330
81
100
AcDbEntity
  8
1
  6
Continuous
 62
     2
100
AcDbLine
 10
213.9414999999999
 20
804.5000041076775
 30
0.0
 11
212.7795
 21
802.487361069283
 31
0.0
  0
LINE
  5
282
330
81
100
AcDbEntity
  8
1
  6
Continuous
 62
     2
100
AcDbLine
 10
238.0584999999996
 20
804.5000041076786
 30
0.0
 11
239.2205
 21
802.487361069283
 31
0.0
  0
LINE
  5
283
330
81
100
AcDbEntity
  8
11
  6
Continuous
 62
     7
100
AcDbLine
 10
239.2205
 20
797.500000000001
 30
0.0
 11
239.2205
 21
802.487356961606
 31
0.0
  0
LINE
  5
284
330
81
100
AcDbEntity
  8
1
  6
Continuous
 62
     7
100
AcDbLine
 10
308.499999186709
 20
490.90040889935
 30
0.0
 11
308.499999186709
 21
480.90040889935
 31
0.0
  0
LINE
  5
285
330
81
100
AcDbEntity
  8
1
  6
Continuous
 62
     7
100
AcDbLine
 10
263.499999186709
 20
490.90040889935
 30
0.0
 11
263.499999186709
 21
480.90040889935
 31
0.0
  0
LINE
  5
286
330
81
100
AcDbEntity
  8
1
  6
Continuous
 62
     7
100
AcDbLine
 10
263.499999186709
 20
490.90040889935
 30
0.0
 11
308.499999186709
 21
490.90040889935
 31
0.0
  0
LINE
  5
287
330
81
100
AcDbEntity
  8
1
  6
Continuous
 62
     7
100
AcDbLine
 10
211.0
 20
789.500000000001
 30
0.0
 11
216.482133250306
 21
780.004666676608
 31
0.0
  0
LINE
  5
288
330
81
100
AcDbEntity
  8
1
  6
PHANTOM
 62
     4
100
AcDbLine
 10
243.969729033456
 20
770.000000000001
 30
0.0
 11
243.869729033456
 21
770.000000000001
 31
0.0
  0
LINE
  5
289
330
81
100
AcDbEntity
  8
1
  6
Continuous
 62
     7
100
AcDbLine
 10
243.969729033456
 20
770.000000000001
 30
0.0
 11
254.720170732533
 21
766.087159216322
 31
0.0
  0
LINE
  5
28A
330
81
100
AcDbEntity
  8
1
  6
Continuous
 62
     7
100
AcDbLine
 10
253.499999186709
 20
470.90040889935
 30
0.0
 11
225.999999186709
 21
470.90040889935
 31
0.0
  0
LINE
  5
28B
330
81
100
AcDbEntity
  8
1
  6
Continuous
 62
     7
100
AcDbLine
 10
345.234757664877
 20
445.617300627823
 30
0.0
 11
285.999999186709
 21
445.617300627823
 31
0.0
  0
LINE
  5
28C
330
81
100
AcDbEntity
  8
1
  6
Continuous
 62
     7
100
AcDbLine
 10
226.765240708542
 20
466.183517170875
 30
0.0
 11
265.696956229322
 21
466.183517170876
 31
0.0
  0
LINE
  5
28D
330
81
100
AcDbEntity
  8
1
  6
Continuous
 62
     7
100
AcDbLine
 10
285.999999186709
 20
445.617300627823
 30
0.0
 11
226.765240708542
 21
445.617300627823
 31
0.0
  0
LINE
  5
28E
330
81
100
AcDbEntity
  8
11
  6
Continuous
 62
     7
100
AcDbLine
 10
672.999999246241
 20
439.308567520451
 30
0.0
 11
672.999999246241
 21
436.4004081600592
 31
0.0
  0
LINE
  5
28F
330
81
100
AcDbEntity
  8
1
  6
Continuous
 62
     7
100
AcDbLine
 10
658.999999246241
 20
440.900410213898
 30
0.0
 11
671.499999246241
 21
440.900410213898
 31
0.0
  0
LINE
  5
290
330
81
100
AcDbEntity
  8
1
  6
Continuous
 62
     7
100
AcDbLine
 10
695.999999246241
 20
491.400410213898
 30
0.0
 11
696.499999246241
 21
490.900410213898
 31
0.0
  0
LINE
  5
291
330
81
100
AcDbEntity
  8
1
  6
Continuous
 62
     7
100
AcDbLine
 10
651.999999246241
 20
491.400410213898
 30
0.0
 11
651.499999246241
 21
490.900410213898
 31
0.0
  0
LINE
  5
292
330
81
100
AcDbEntity
  8
1
  6
Continuous
 62
     7
100
AcDbLine
 10
696.499999246241
 20
490.900410213898
 30
0.0
 11
696.499999246241
 21
479.25205675814
 31
0.0
  0
LINE
  5
293
330
81
100
AcDbEntity
  8
11
  6
Continuous
 62
     7
100
AcDbLine
 10
698.999999246241
 20
439.308567520451
 30
0.0
 11
698.999999246241
 21
439.400410213898
 31
0.0
  0
LINE
  5
294
330
81
100
AcDbEntity
  8
1
  6
Continuous
 62
     7
100
AcDbLine
 10
673.812999246241
 20
437.900410213898
 30
0.0
 11
672.999999246241
 21
437.900410213898
 31
0.0
  0
LINE
  5
295
330
81
100
AcDbEntity
  8
11
  6
Continuous
 62
     7
100
AcDbLine
 10
698.999999246241
 20
437.900410213898
 30
0.0
 11
698.999999246241
 21
439.308567520451
 31
0.0
  0
LINE
  5
296
330
81
100
AcDbEntity
  8
1
  6
Continuous
 62
     7
100
AcDbLine
 10
698.186999246241
 20
437.900410213898
 30
0.0
 11
698.999999246241
 21
437.900410213898
 31
0.0
  0
LINE
  5
297
330
81
100
AcDbEntity
  8
1
  6
Continuous
 62
     2
100
AcDbLine
 10
673.812999246241
 20
437.900410213898
 30
0.0
 11
672.999999246241
 21
439.308567520451
 31
0.0
  0
LINE
  5
298
330
81
100
AcDbEntity
  8
1
  6
Continuous
 62
     2
100
AcDbLine
 10
698.186999246241
 20
437.900410213898
 30
0.0
 11
698.1869992462412
 21
436.4004081600591
 31
0.0
  0
LINE
  5
299
330
81
100
AcDbEntity
  8
1
  6
Continuous
 62
     2
100
AcDbLine
 10
698.999999246241
 20
439.308567520451
 30
0.0
 11
698.186999246241
 21
437.900410213898
 31
0.0
  0
LINE
  5
29A
330
81
100
AcDbEntity
  8
11
  6
Continuous
 62
     7
100
AcDbLine
 10
700.999999246241
 20
440.900410213898
 30
0.0
 11
700.999999246241
 21
443.650410213898
 31
0.0
  0
LINE
  5
29B
330
81
100
AcDbEntity
  8
11
  6
Continuous
 62
     7
100
AcDbLine
 10
672.999999246241
 20
439.400410213898
 30
0.0
 11
672.999999246241
 21
439.308567520451
 31
0.0
  0
LINE
  5
29C
330
81
100
AcDbEntity
  8
1
  6
Continuous
 62
     7
100
AcDbLine
 10
695.999999246241
 20
491.400410213898
 30
0.0
 11
651.999999246241
 21
491.400410213898
 31
0.0
  0
LINE
  5
29D
330
81
100
AcDbEntity
  8
1
  6
Continuous
 62
     7
100
AcDbLine
 10
700.499999246241
 20
440.900410213898
 30
0.0
 11
700.999999246241
 21
440.900410213898
 31
0.0
  0
LINE
  5
29E
330
81
100
AcDbEntity
  8
11
  6
Continuous
 62
     7
100
AcDbLine
 10
700.999999246241
 20
442.679910213898
 30
0.0
 11
708.8805603823364
 21
442.679910213898
 31
0.0
  0
LINE
  5
29F
330
81
100
AcDbEntity
  8
1
  6
Continuous
 62
     2
100
AcDbLine
 10
706.487356207846
 20
442.679910213898
 30
0.0
 11
708.5000001070748
 21
443.841910710901
 31
0.0
  0
LINE
  5
2A0
330
81
100
AcDbEntity
  8
1
  6
Continuous
 62
     2
100
AcDbLine
 10
706.487356207846
 20
469.120910213898
 30
0.0
 11
708.4999983854067
 21
467.9589107109007
 31
0.0
  0
LINE
  5
2A1
330
81
100
AcDbEntity
  8
1
  6
Continuous
 62
     7
100
AcDbLine
 10
651.499999246241
 20
445.617301942371
 30
0.0
 11
658.999999246241
 21
440.900410213898
 31
0.0
  0
LINE
  5
2A2
330
81
100
AcDbEntity
  8
1
  6
Continuous
 62
     7
100
AcDbLine
 10
216.0
 20
789.500000000001
 30
0.0
 11
265.999997552331
 21
789.500000000001
 31
0.0
  0
LINE
  5
2A3
330
81
100
AcDbEntity
  8
11
  6
Continuous
 62
     7
100
AcDbLine
 10
700.999999246241
 20
443.650410213898
 30
0.0
 11
700.999999246241
 21
470.900410213897
 31
0.0
  0
LINE
  5
2A4
330
81
100
AcDbEntity
  8
11
  6
Continuous
 62
     7
100
AcDbLine
 10
239.2205
 20
802.487356961606
 30
0.0
 11
239.2204999999995
 21
804.8805564168024
 31
0.0
  0
LINE
  5
2A5
330
81
100
AcDbEntity
  8
11
  6
Continuous
 62
     7
100
AcDbLine
 10
212.7795
 20
802.487356961606
 30
0.0
 11
212.7795
 21
797.500000000001
 31
0.0
  0
LINE
  5
2A6
330
81
100
AcDbEntity
  8
1
  6
Continuous
 62
     7
100
AcDbLine
 10
693.499999246241
 20
470.900410213898
 30
0.0
 11
680.540446009449
 21
466.183518586318
 31
0.0
  0
LINE
  5
2A7
330
81
100
AcDbEntity
  8
1
  6
Continuous
 62
     7
100
AcDbLine
 10
680.540445732247
 20
445.617301942372
 30
0.0
 11
693.499999246241
 21
440.900410213898
 31
0.0
  0
LINE
  5
2A8
330
81
100
AcDbEntity
  8
1
  6
Continuous
 62
     7
100
AcDbLine
 10
700.999999246241
 20
470.900410213897
 30
0.0
 11
693.499999246241
 21
470.900410213898
 31
0.0
  0
LINE
  5
2A9
330
81
100
AcDbEntity
  8
1
  6
Continuous
 62
     7
100
AcDbLine
 10
693.499999246241
 20
440.900410213898
 30
0.0
 11
700.499999246241
 21
440.900410213898
 31
0.0
  0
LINE
  5
2AA
330
81
100
AcDbEntity
  8
1
  6
Continuous
 62
     7
100
AcDbLine
 10
651.499999246241
 20
445.617301942371
 30
0.0
 11
680.540445732247
 21
445.617301942372
 31
0.0
  0
LINE
  5
2AB
330
81
100
AcDbEntity
  8
1
  6
Continuous
 62
     7
100
AcDbLine
 10
680.540445732248
 20
466.183518485425
 30
0.0
 11
666.411777866799
 21
466.183518485425
 31
0.0
  0
LINE
  5
2AC
330
81
100
AcDbEntity
  8
1
  6
Continuous
 62
     7
100
AcDbLine
 10
651.499999246241
 20
490.900410213898
 30
0.0
 11
651.499999246241
 21
445.617301942371
 31
0.0
  0
LINE
  5
2AD
330
81
100
AcDbEntity
  8
1
  6
Continuous
 62
     7
100
AcDbLine
 10
680.540446009449
 20
466.183518586318
 30
0.0
 11
680.540445732248
 21
466.183518485425
 31
0.0
  0
LINE
  5
2AE
330
81
100
AcDbEntity
  8
1
  6
Continuous
 62
     7
100
AcDbLine
 10
693.499999246241
 20
468.900410213898
 30
0.0
 11
693.499999246241
 21
442.900410213898
 31
0.0
  0
LINE
  5
2AF
330
81
100
AcDbEntity
  8
1
  6
Continuous
 62
     7
100
AcDbLine
 10
693.499999246241
 20
477.949034744186
 30
0.0
 11
673.318798549195
 21
469.183518485425
 31
0.0
  0
ARC
  5
2B0
330
81
100
AcDbEntity
  8
1
  6
Continuous
 62
     7
100
AcDbCircle
 10
327.540433567238
 20
737.896380592745
 30
0.0
 40
29.99999999999972
100
AcDbArc
 50
110.0
 51
140.5887140809863
  0
ARC
  5
2B1
330
81
100
AcDbEntity
  8
1
  6
Continuous
 62
     7
100
AcDbCircle
 10
286.0
 20
770.000000000001
 30
0.0
 40
22.00000000000025
100
AcDbArc
 50
7.60732237810234
 51
90.0
  0
ARC
  5
2B2
330
81
100
AcDbEntity
  8
1
  6
Continuous
 62
     7
100
AcDbCircle
 10
286.0
 20
770.000000000001
 30
0.0
 40
22.50000000000023
100
AcDbArc
 50
358.1759097129188
 51
90.0
  0
ARC
  5
2B3
330
81
100
AcDbEntity
  8
1
  6
Continuous
 62
     7
100
AcDbCircle
 10
286.0
 20
770.000000000001
 30
0.0
 40
22.5
100
AcDbArc
 50
90.0
 51
181.8240902870811
  0
ARC
  5
2B4
330
81
100
AcDbEntity
  8
1
  6
Continuous
 62
     7
100
AcDbCircle
 10
286.0
 20
770.000000000001
 30
0.0
 40
22.0
100
AcDbArc
 50
90.0
 51
172.3926776218977
  0
ARC
  5
2B5
330
81
100
AcDbEntity
  8
1
  6
Continuous
 62
     7
100
AcDbCircle
 10
244.459566432763
 20
737.896380592745
 30
0.0
 40
29.99999999999975
100
AcDbArc
 50
39.41128591901374
 51
69.99999999999996
  0
ARC
  5
2B6
330
81
100
AcDbEntity
  8
1
  6
Continuous
 62
     7
100
AcDbCircle
 10
345.234757664877
 20
455.900408899349
 30
0.0
 40
10.28310827152598
100
AcDbArc
 50
270.0
 51
90.0
  0
ARC
  5
2B7
330
81
100
AcDbEntity
  8
1
  6
Continuous
 62
     7
100
AcDbCircle
 10
226.765240708542
 20
455.900408899349
 30
0.0
 40
10.28310827152603
100
AcDbArc
 50
90.0
 51
270.0
  0
ARC
  5
2B8
330
81
100
AcDbEntity
  8
1
  6
Continuous
 62
     7
100
AcDbCircle
 10
706.499999246238
 20
479.25205675814
 30
0.0
 40
9.99999999999693
100
AcDbArc
 50
180.0
 51
236.6329870307766
  0
ARC
  5
2B9
330
81
100
AcDbEntity
  8
1
  6
Continuous
 62
     7
100
AcDbCircle
 10
667.010488941775
 20
455.900410446708
 30
0.0
 40
16.99417698107172
100
AcDbArc
 50
322.764249764639
 51
37.23574869084088
  0
ARC
  5
2BA
330
81
100
AcDbEntity
  8
1
  6
Continuous
 62
     7
100
AcDbCircle
 10
332.2795
 20
797.500000000001
 30
0.0
 40
0.5
100
AcDbArc
 50
270.0
 51
0.0
  0
ARC
  5
2BB
330
81
100
AcDbEntity
  8
1
  6
Continuous
 62
     7
100
AcDbCircle
 10
359.7205
 20
797.500000000001
 30
0.0
 40
0.5
100
AcDbArc
 50
180.0
 51
270.0
  0
ARC
  5
2BC
330
81
100
AcDbEntity
  8
1
  6
Continuous
 62
     7
100
AcDbCircle
 10
212.2795
 20
797.500000000001
 30
0.0
 40
0.5
100
AcDbArc
 50
270.0
 51
0.0
  0
ARC
  5
2BD
330
81
100
AcDbEntity
  8
1
  6
Continuous
 62
     7
100
AcDbCircle
 10
239.7205
 20
797.500000000001
 30
0.0
 40
0.5
100
AcDbArc
 50
180.0
 51
270.0
  0
ARC
  5
2BE
330
81
100
AcDbEntity
  8
1
  6
Continuous
 62
     7
100
AcDbCircle
 10
225.999999186709
 20
455.90040889935
 30
0.0
 40
15.0
100
AcDbArc
 50
90.0
 51
180.0
  0
ARC
  5
2BF
330
81
100
AcDbEntity
  8
1
  6
Continuous
 62
     7
100
AcDbCircle
 10
345.999999186709
 20
455.90040889935
 30
0.0
 40
15.0
100
AcDbArc
 50
0.0
 51
90.0
  0
ARC
  5
2C0
330
81
100
AcDbEntity
  8
1
  6
Continuous
 62
     7
100
AcDbCircle
 10
345.999999186709
 20
455.90040889935
 30
0.0
 40
15.0
100
AcDbArc
 50
270.0
 51
0.0
  0
ARC
  5
2C1
330
81
100
AcDbEntity
  8
1
  6
Continuous
 62
     7
100
AcDbCircle
 10
225.999999186709
 20
455.90040889935
 30
0.0
 40
15.0
100
AcDbArc
 50
180.0
 51
270.0
  0
ARC
  5
2C2
330
81
100
AcDbEntity
  8
1
  6
Continuous
 62
     7
100
AcDbCircle
 10
300.499999186709
 20
439.400408899349
 30
0.0
 40
1.5
100
AcDbArc
 50
90.0
 51
180.0
  0
ARC
  5
2C3
330
81
100
AcDbEntity
  8
1
  6
Continuous
 62
     7
100
AcDbCircle
 10
271.499999186709
 20
439.400408899349
 30
0.0
 40
1.5
100
AcDbArc
 50
0.0
 51
90.0
  0
ARC
  5
2C4
330
81
100
AcDbEntity
  8
1
  6
Continuous
 62
     7
100
AcDbCircle
 10
318.499999186709
 20
480.90040889935
 30
0.0
 40
10.0
100
AcDbArc
 50
180.0
 51
270.0
  0
ARC
  5
2C5
330
81
100
AcDbEntity
  8
1
  6
Continuous
 62
     7
100
AcDbCircle
 10
253.499999186709
 20
480.90040889935
 30
0.0
 40
10.0
100
AcDbArc
 50
270.0
 51
0.0
  0
ARC
  5
2C6
330
81
100
AcDbEntity
  8
1
  6
Continuous
 62
     7
100
AcDbCircle
 10
671.499999246241
 20
439.400410213898
 30
0.0
 40
1.5
100
AcDbArc
 50
0.0
 51
90.0
  0
ARC
  5
2C7
330
81
100
AcDbEntity
  8
1
  6
Continuous
 62
     7
100
AcDbCircle
 10
700.499999246241
 20
439.400410213898
 30
0.0
 40
1.5
100
AcDbArc
 50
90.0
 51
180.0
  0
ENDBLK
  5
83
330
81
100
AcDbEntity
  8
0
100
AcDbBlockEnd
  0
BLOCK
  5
85
330
84
100
AcDbEntity
  8
0
100
AcDbBlockBegin
  2
27-14-M1
 70
     0
 10
885.128571045479
 20
664.050410213898
 30
0.0
  3
27-14-M1
  1

  0
LINE
  5
2C8
330
84
100
AcDbEntity
  8
1
  6
Continuous
 62
     7
100
AcDbLine
 10
672.337289276418
 20
492.9004102138974
 30
0.0
 11
651.9913478778
 21
492.9004102138974
 31
0.0
  0
LINE
  5
2C9
330
84
100
AcDbEntity
  8
1
  6
Continuous
 62
     7
100
AcDbLine
 10
692.94834881222
 20
501.9946155233154
 30
0.0
 11
674.450380585121
 21
493.3688712787144
 31
0.0
  0
LINE
  5
2CA
330
84
100
AcDbEntity
  8
1
  6
Continuous
 62
     7
100
AcDbLine
 10
574.103592335542
 20
547.0844846427964
 30
0.0
 11
573.880155081096
 21
544.5305851381024
 31
0.0
  0
LINE
  5
2CB
330
84
100
AcDbEntity
  8
1
  6
Continuous
 62
     7
100
AcDbLine
 10
693.217670529319
 20
502.5855880947424
 30
0.0
 11
692.984024046436
 21
503.4004102138974
 31
0.0
  0
LINE
  5
2CC
330
84
100
AcDbEntity
  8
1
  6
Continuous
 62
     7
100
AcDbLine
 10
651.491424030222
 20
493.3916840106795
 30
0.0
 11
651.312357290845
 21
503.6504106388974
 31
0.0
  0
LINE
  5
2CD
330
84
100
AcDbEntity
  8
1
  6
PHANTOM
 62
     5
100
AcDbLine
 10
695.84381647718
 20
492.8241877688724
 30
0.0
 11
694.076221691264
 21
492.8241877688724
 31
0.0
  0
LINE
  5
2CE
330
84
100
AcDbEntity
  8
1
  6
PHANTOM
 62
     5
100
AcDbLine
 10
696.23121128779
 20
492.8241877688735
 30
0.0
 11
695.84381647718
 21
492.8241877688724
 31
0.0
  0
LINE
  5
2CF
330
84
100
AcDbEntity
  8
1
  6
PHANTOM
 62
     5
100
AcDbLine
 10
696.416776134448
 20
492.8241877688724
 30
0.0
 11
696.23121128779
 21
492.8241877688735
 31
0.0
  0
LINE
  5
2D0
330
84
100
AcDbEntity
  8
1
  6
PHANTOM
 62
     5
100
AcDbLine
 10
607.762650000551
 20
583.9154516674914
 30
0.0
 11
606.480822507599
 21
581.6952613231595
 31
0.0
  0
LINE
  5
2D1
330
84
100
AcDbEntity
  8
1
  6
PHANTOM
 62
     5
100
AcDbLine
 10
696.910620304746
 20
493.2459705363524
 30
0.0
 11
697.043223385521
 21
494.0831934384505
 31
0.0
  0
LINE
  5
2D2
330
84
100
AcDbEntity
  8
1
  6
Continuous
 62
     7
100
AcDbLine
 10
263.499999867559
 20
503.9004102138977
 30
0.0
 11
263.499999867559
 21
493.4004102138977
 31
0.0
  0
LINE
  5
2D3
330
84
100
AcDbEntity
  8
1
  6
Continuous
 62
     7
100
AcDbLine
 10
308.499999867559
 20
493.4004102138977
 30
0.0
 11
308.499999867559
 21
503.9004102138977
 31
0.0
  0
LINE
  5
2D4
330
84
100
AcDbEntity
  8
1
  6
Continuous
 62
     7
100
AcDbLine
 10
307.999999867559
 20
492.9004102138977
 30
0.0
 11
263.999999867559
 21
492.9004102138977
 31
0.0
  0
ARC
  5
2D5
330
84
100
AcDbEntity
  8
1
  6
PHANTOM
 62
     5
100
AcDbCircle
 10
667.412573167667
 20
498.7762273896564
 30
0.0
 40
29.99999999999965
100
AcDbArc
 50
351.0000000000019
 51
0.0
  0
ARC
  5
2D6
330
84
100
AcDbEntity
  8
1
  6
PHANTOM
 62
     5
100
AcDbCircle
 10
210.563208361014
 20
705.973576879608
 30
0.0
 40
0.9999999999998335
100
AcDbArc
 50
137.9259336519666
 51
180.0
  0
ARC
  5
2D7
330
84
100
AcDbEntity
  8
1
  6
PHANTOM
 62
     5
100
AcDbCircle
 10
361.436787120283
 20
705.973577290634
 30
0.0
 40
0.9999999999999257
100
AcDbArc
 50
322.2361147362265
 51
0.0
  0
ARC
  5
2D8
330
84
100
AcDbEntity
  8
1
  6
PHANTOM
 62
     5
100
AcDbCircle
 10
-186.716241342052
 20
99.997554704708
 30
0.0
 40
800.0000000000001
100
AcDbArc
 50
47.92593365195228
 51
52.45536947750803
  0
ARC
  5
2D9
330
84
100
AcDbEntity
  8
1
  6
PHANTOM
 62
     5
100
AcDbCircle
 10
956.00244118761
 20
1242.71623723438
 30
0.0
 40
799.9999999999986
100
AcDbArc
 50
216.4091165834335
 51
222.0740663480482
  0
ARC
  5
2DA
330
84
100
AcDbEntity
  8
1
  6
PHANTOM
 62
     5
100
AcDbCircle
 10
310.798210728721
 20
745.201785163602
 30
0.0
 40
65.05558298765926
100
AcDbArc
 50
307.7638852637954
 51
322.2361147362064
  0
ARC
  5
2DB
330
84
100
AcDbEntity
  8
1
  6
PHANTOM
 62
     5
100
AcDbCircle
 10
377.188589206525
 20
815.835687004032
 30
0.0
 40
80.79733078210339
100
AcDbArc
 50
211.33021627213
 51
216.4091165834337
  0
ARC
  5
2DC
330
84
100
AcDbEntity
  8
1
  6
Continuous
 62
     7
100
AcDbCircle
 10
382.890795352546
 20
737.930652961649
 30
0.0
 40
80.79733078208712
100
AcDbArc
 50
158.151252990697
 51
166.3302162721279
  0
ARC
  5
2DD
330
84
100
AcDbEntity
  8
1
  6
Continuous
 62
     7
100
AcDbCircle
 10
189.109199752101
 20
737.930652961646
 30
0.0
 40
80.7973307821036
100
AcDbArc
 50
8.59088341656923
 51
13.66978372787006
  0
ARC
  5
2DE
330
84
100
AcDbEntity
  8
1
  6
Continuous
 62
     7
100
AcDbCircle
 10
285.999997552331
 20
769.999997946159
 30
0.0
 40
22.50000000000037
100
AcDbArc
 50
181.824085054364
 51
215.2159837822449
  0
ARC
  5
2DF
330
84
100
AcDbEntity
  8
1
  6
Continuous
 62
     7
100
AcDbCircle
 10
189.109199752101
 20
737.930652961646
 30
0.0
 40
80.79733078210276
100
AcDbArc
 50
13.66978372787006
 51
21.84874700930295
  0
ARC
  5
2E0
330
84
100
AcDbEntity
  8
1
  6
Continuous
 62
     7
100
AcDbCircle
 10
285.999997552331
 20
769.999997946159
 30
0.0
 40
22.50000000000005
100
AcDbArc
 50
324.7840162177608
 51
358.1759149456361
  0
ARC
  5
2E1
330
84
100
AcDbEntity
  8
1
  6
Continuous
 62
     7
100
AcDbCircle
 10
285.999997552331
 20
766.671801562124
 30
0.0
 40
22.66357593800833
100
AcDbArc
 50
7.43994405500041
 51
172.5600559449996
  0
ARC
  5
2E2
330
84
100
AcDbEntity
  8
1
  6
Continuous
 62
     7
100
AcDbCircle
 10
382.890795352546
 20
737.930652961649
 30
0.0
 40
80.79733078208696
100
AcDbArc
 50
166.3302162721279
 51
171.4091165834297
  0
ARC
  5
2E3
330
84
100
AcDbEntity
  8
1
  6
Continuous
 62
     7
100
AcDbCircle
 10
1094.02412695762
 20
630.497585005637
 30
0.0
 40
800.0000000000022
100
AcDbArc
 50
172.5446305127541
 51
177.074226806793
  0
ARC
  5
2E4
330
84
100
AcDbEntity
  8
1
  6
Continuous
 62
     7
100
AcDbCircle
 10
-522.024131852955
 20
630.497585005635
 30
0.0
 40
800.0000000000074
100
AcDbArc
 50
7.45536944127274
 51
8.59088341656702
  0
ARC
  5
2E5
330
84
100
AcDbEntity
  8
1
  6
PHANTOM
 62
     5
100
AcDbCircle
 10
194.811406274771
 20
815.835686593007
 30
0.0
 40
80.79733078210302
100
AcDbArc
 50
323.5908834165627
 51
328.66978372787
  0
ARC
  5
2E6
330
84
100
AcDbEntity
  8
1
  6
PHANTOM
 62
     5
100
AcDbCircle
 10
261.201784752576
 20
745.201784752576
 30
0.0
 40
65.05558298765877
100
AcDbArc
 50
217.7638852637936
 51
232.2361147362046
  0
ARC
  5
2E7
330
84
100
AcDbEntity
  8
1
  6
PHANTOM
 62
     5
100
AcDbCircle
 10
758.716236823348
 20
99.997554293682
 30
0.0
 40
799.9999999999995
100
AcDbArc
 50
127.544630548989
 51
132.0740663480477
  0
ARC
  5
2E8
330
84
100
AcDbEntity
  8
1
  6
PHANTOM
 62
     5
100
AcDbCircle
 10
-384.002445706313
 20
1242.71623682336
 30
0.0
 40
800.0000000000018
100
AcDbArc
 50
317.9259336519515
 51
323.5908834165658
  0
ARC
  5
2E9
330
84
100
AcDbEntity
  8
1
  6
Continuous
 62
     7
100
AcDbCircle
 10
479.741270625442
 20
-195.3829378121156
 30
0.0
 40
750.0000000000751
100
AcDbArc
 50
76.90067720599174
 51
82.6422126493897
  0
ARC
  5
2EA
330
84
100
AcDbEntity
  8
1
  6
Continuous
 62
     7
100
AcDbCircle
 10
631.589933635341
 20
457.1827550818695
 30
0.0
 40
79.99999999999936
100
AcDbArc
 50
49.37353995539247
 51
76.90067720599104
  0
ARC
  5
2EB
330
84
100
AcDbEntity
  8
1
  6
Continuous
 62
     7
100
AcDbCircle
 10
664.146173168287
 20
495.1312895393864
 30
0.0
 40
29.99999999999982
100
AcDbArc
 50
16.00000000000211
 51
49.37353995539275
  0
ARC
  5
2EC
330
84
100
AcDbEntity
  8
1
  6
Continuous
 62
     7
100
AcDbCircle
 10
631.241219369191
 20
507.5513620851514
 30
0.0
 40
20.00000000000041
100
AcDbArc
 50
11.79123029804534
 51
70.61355756831047
  0
ARC
  5
2ED
330
84
100
AcDbEntity
  8
1
  6
Continuous
 62
     7
100
AcDbCircle
 10
505.104804724823
 20
149.0968951013164
 30
0.0
 40
400.000000000002
100
AcDbArc
 50
70.61355756831001
 51
79.92030666364349
  0
ARC
  5
2EE
330
84
100
AcDbEntity
  8
1
  6
PHANTOM
 62
     5
100
AcDbCircle
 10
208.461051554838
 20
-49.10931454948457
 30
0.0
 40
750.0000000000739
100
AcDbArc
 50
51.90067720599176
 51
57.64221264938973
  0
ARC
  5
2EF
330
84
100
AcDbEntity
  8
1
  6
PHANTOM
 62
     5
100
AcDbCircle
 10
667.412573167667
 20
498.7762273896564
 30
0.0
 40
29.99999999999989
100
AcDbArc
 50
0.0
 51
24.37353995539153
  0
ARC
  5
2F0
330
84
100
AcDbEntity
  8
1
  6
PHANTOM
 62
     5
100
AcDbCircle
 10
642.839506777449
 20
523.9388702306754
 30
0.0
 40
19.99999999999967
100
AcDbArc
 50
21.98907548421694
 51
45.61355756830957
  0
ARC
  5
2F1
330
84
100
AcDbEntity
  8
1
  6
PHANTOM
 62
     5
100
AcDbCircle
 10
377.031688206477
 20
252.3763478043604
 30
0.0
 40
400.0000000000022
100
AcDbArc
 50
45.61355756830999
 51
54.92030666364346
  0
ARC
  5
2F2
330
84
100
AcDbEntity
  8
1
  6
Continuous
 62
     7
100
AcDbCircle
 10
278.999999867575
 20
545.9004102138977
 30
0.0
 40
1.999999999999147
100
AcDbArc
 50
102.2310071325795
 51
152.1715507417232
  0
ARC
  5
2F3
330
84
100
AcDbEntity
  8
1
  6
Continuous
 62
     7
100
AcDbCircle
 10
454.101159231499
 20
453.4689004922377
 30
0.0
 40
200.0000000000393
100
AcDbArc
 50
152.1715507417275
 51
158.8859810512158
  0
ARC
  5
2F4
330
84
100
AcDbEntity
  8
1
  6
Continuous
 62
     7
100
AcDbCircle
 10
248.499999867559
 20
503.9004102138977
 30
0.0
 40
59.99999999999997
100
AcDbArc
 50
0.0
 51
21.1140189486864
  0
ARC
  5
2F5
330
84
100
AcDbEntity
  8
1
  6
Continuous
 62
     7
100
AcDbCircle
 10
292.999999867575
 20
545.9004102138977
 30
0.0
 40
1.999999999998977
100
AcDbArc
 50
0.0
 51
27.82844925821497
  0
ARC
  5
2F6
330
84
100
AcDbEntity
  8
1
  6
Continuous
 62
     7
100
AcDbCircle
 10
117.898840503593
 20
453.4689004924857
 30
0.0
 40
199.9999999999751
100
AcDbArc
 50
21.11401894868606
 51
27.82844925820133
  0
ARC
  5
2F7
330
84
100
AcDbEntity
  8
1
  6
Continuous
 62
     7
100
AcDbCircle
 10
323.499999867559
 20
503.9004102138977
 30
0.0
 40
60.00000000000006
100
AcDbArc
 50
158.8859810512162
 51
180.0
  0
ARC
  5
2F8
330
84
100
AcDbEntity
  8
1
  6
Continuous
 62
     7
100
AcDbCircle
 10
278.999999867575
 20
545.9004102138977
 30
0.0
 40
1.999999999999852
100
AcDbArc
 50
152.1715507417232
 51
180.0
  0
ARC
  5
2F9
330
84
100
AcDbEntity
  8
1
  6
Continuous
 62
     7
100
AcDbCircle
 10
292.999999867575
 20
545.9004102138977
 30
0.0
 40
1.999999999999804
100
AcDbArc
 50
27.82844925821497
 51
77.76899286745538
  0
ARC
  5
2FA
330
84
100
AcDbEntity
  8
1
  6
Continuous
 62
     7
100
AcDbCircle
 10
292.999999867575
 20
545.9004102138977
 30
0.0
 40
1.999999999999147
100
AcDbArc
 50
282.2310071325795
 51
0.0
  0
ARC
  5
2FB
330
84
100
AcDbEntity
  8
1
  6
Continuous
 62
     7
100
AcDbCircle
 10
285.999999867573
 20
578.1920768805267
 30
0.0
 40
35.041666666629
100
AcDbArc
 50
269.9999999999966
 51
282.2310071325875
  0
ARC
  5
2FC
330
84
100
AcDbEntity
  8
1
  6
Continuous
 62
     7
100
AcDbCircle
 10
278.999999867575
 20
545.9004102138977
 30
0.0
 40
2.0
100
AcDbArc
 50
180.0
 51
257.7689928674538
  0
ARC
  5
2FD
330
84
100
AcDbEntity
  8
1
  6
Continuous
 62
     7
100
AcDbCircle
 10
285.999999867577
 20
513.6087435472257
 30
0.0
 40
35.04166666667095
100
AcDbArc
 50
90.0
 51
102.2310071325727
  0
ARC
  5
2FE
330
84
100
AcDbEntity
  8
1
  6
Continuous
 62
     7
100
AcDbCircle
 10
285.999999867573
 20
578.1920768805267
 30
0.0
 40
35.04166666662938
100
AcDbArc
 50
257.7689928674207
 51
269.9999999999966
  0
ARC
  5
2FF
330
84
100
AcDbEntity
  8
1
  6
Continuous
 62
     7
100
AcDbCircle
 10
285.999999867577
 20
513.6087435472257
 30
0.0
 40
35.04166666667136
100
AcDbArc
 50
77.7689928674357
 51
90.0
  0
ARC
  5
300
330
84
100
AcDbEntity
  8
1
  6
Continuous
 62
     7
100
AcDbCircle
 10
1094.02412695762
 20
630.497585005637
 30
0.0
 40
800.0000000000023
100
AcDbArc
 50
171.409116583433
 51
172.5446305127541
  0
ARC
  5
301
330
84
100
AcDbEntity
  8
1
  6
PHANTOM
 62
     5
100
AcDbCircle
 10
621.868856094284
 20
478.1420364644075
 30
0.0
 40
79.99999999999979
100
AcDbArc
 50
24.37353995539186
 51
51.9006772059911
  0
ARC
  5
302
330
84
100
AcDbEntity
  8
1
  6
Continuous
 62
     7
100
AcDbCircle
 10
285.999998112787
 20
734.930026471335
 30
0.0
 40
65.05558298765986
100
AcDbArc
 50
262.7638869259006
 51
277.2361163983111
  0
ARC
  5
303
330
84
100
AcDbEntity
  8
1
  6
Continuous
 62
     7
100
AcDbCircle
 10
-522.024126957618
 20
630.497585005637
 30
0.0
 40
800.000000000001
100
AcDbArc
 50
2.92609731478326
 51
7.45536948724502
  0
ARC
  5
304
330
84
100
AcDbEntity
  8
1
  6
Continuous
 62
     7
100
AcDbCircle
 10
672.337289276418
 20
497.9004102138974
 30
0.0
 40
5.0
100
AcDbArc
 50
270.0
 51
294.9999999999963
  0
ARC
  5
305
330
84
100
AcDbEntity
  8
1
  6
PHANTOM
 62
     5
100
AcDbCircle
 10
361.436787120283
 20
705.973577290634
 30
0.0
 40
0.9999999999999257
100
AcDbArc
 50
322.2361147362265
 51
42.07406634803337
  0
ARC
  5
306
330
84
100
AcDbEntity
  8
1
  6
PHANTOM
 62
     5
100
AcDbCircle
 10
361.436787120283
 20
705.973577290634
 30
0.0
 40
0.9999999999998295
100
AcDbArc
 50
0.0
 51
42.07406634803337
  0
ARC
  5
307
330
84
100
AcDbEntity
  8
1
  6
PHANTOM
 62
     5
100
AcDbCircle
 10
350.026418601691
 20
694.563208772041
 30
0.0
 40
0.9999999999997913
100
AcDbArc
 50
227.9259336519644
 51
307.763885263776
  0
ARC
  5
308
330
84
100
AcDbEntity
  8
1
  6
Continuous
 62
     7
100
AcDbCircle
 10
306.489609548799
 20
769.347464242662
 30
0.0
 40
2.000000000000194
100
AcDbArc
 50
358.1759149456483
 51
7.4399440550086
  0
ARC
  5
309
330
84
100
AcDbEntity
  8
1
  6
Continuous
 62
     7
100
AcDbCircle
 10
265.510385555863
 20
769.347464242662
 30
0.0
 40
2.000000000000235
100
AcDbArc
 50
172.5600559449916
 51
181.8240850543516
  0
ARC
  5
30A
330
84
100
AcDbEntity
  8
1
  6
PHANTOM
 62
     5
100
AcDbCircle
 10
221.973576879606
 20
694.563208361015
 30
0.0
 40
0.9999999999999257
100
AcDbArc
 50
232.2361147362265
 51
312.0740663480379
  0
ARC
  5
30B
330
84
100
AcDbEntity
  8
1
  6
PHANTOM
 62
     5
100
AcDbCircle
 10
210.563208361014
 20
705.973576879608
 30
0.0
 40
0.9999999999999147
100
AcDbArc
 50
180.0
 51
217.7638852637735
  0
ARC
  5
30C
330
84
100
AcDbEntity
  8
1
  6
Continuous
 62
     7
100
AcDbCircle
 10
575.374447128234
 20
544.3998515239805
 30
0.0
 40
1.500000000000479
100
AcDbArc
 50
174.9999999999844
 51
259.920306663645
  0
ARC
  5
30D
330
84
100
AcDbEntity
  8
1
  6
Continuous
 62
     7
100
AcDbCircle
 10
692.73703968135
 20
502.4477694168334
 30
0.0
 40
0.4999999999995775
100
AcDbArc
 50
294.9999999999863
 51
16.00000000005669
  0
ARC
  5
30E
330
84
100
AcDbEntity
  8
1
  6
Continuous
 62
     7
100
AcDbCircle
 10
575.59788438268
 20
546.9537510286744
 30
0.0
 40
1.499999999999468
100
AcDbArc
 50
82.64221264939445
 51
174.9999999999844
  0
ARC
  5
30F
330
84
100
AcDbEntity
  8
1
  6
Continuous
 62
     7
100
AcDbCircle
 10
651.9913478778
 20
493.400410213898
 30
0.0
 40
0.4999999999997765
100
AcDbArc
 50
180.9999999999827
 51
270.0
  0
ARC
  5
310
330
84
100
AcDbEntity
  8
1
  6
PHANTOM
 62
     5
100
AcDbCircle
 10
607.779860613275
 20
580.9452613231595
 30
0.0
 40
1.499999999999434
100
AcDbArc
 50
149.9999999999875
 51
234.920306663628
  0
ARC
  5
311
330
84
100
AcDbEntity
  8
1
  6
PHANTOM
 62
     5
100
AcDbCircle
 10
696.416776134448
 20
493.324187768873
 30
0.0
 40
0.5000000000006253
100
AcDbArc
 50
270.0
 51
350.9999999999505
  0
ARC
  5
312
330
84
100
AcDbEntity
  8
1
  6
PHANTOM
 62
     5
100
AcDbCircle
 10
609.061688106228
 20
583.1654516674914
 30
0.0
 40
1.5
100
AcDbArc
 50
90.0
 51
150.0000000000049
  0
ARC
  5
313
330
84
100
AcDbEntity
  8
1
  6
PHANTOM
 62
     5
100
AcDbCircle
 10
609.061688106228
 20
583.1654516674914
 30
0.0
 40
1.500000000000181
100
AcDbArc
 50
57.64221264941207
 51
90.0
  0
ARC
  5
314
330
84
100
AcDbEntity
  8
1
  6
Continuous
 62
     7
100
AcDbCircle
 10
307.999999867559
 20
493.400410213898
 30
0.0
 40
0.5000000000002842
100
AcDbArc
 50
270.0
 51
359.9999999999674
  0
ARC
  5
315
330
84
100
AcDbEntity
  8
1
  6
Continuous
 62
     7
100
AcDbCircle
 10
263.999999867559
 20
493.400410213898
 30
0.0
 40
0.5
100
AcDbArc
 50
180.0000000000326
 51
270.0
  0
ARC
  5
316
330
84
100
AcDbEntity
  8
1
  6
Continuous
 62
     7
100
AcDbCircle
 10
277.931651000856
 20
671.3846136804
 30
0.0
 40
0.9999999999996088
100
AcDbArc
 50
182.7948630128755
 51
262.763886925872
  0
ARC
  5
317
330
84
100
AcDbEntity
  8
1
  6
Continuous
 62
     7
100
AcDbCircle
 10
294.068348911524
 20
671.384614148513
 30
0.0
 40
1.000000000000269
100
AcDbArc
 50
277.2361163983169
 51
356.9458129750168
  0
ENDBLK
  5
86
330
84
100
AcDbEntity
  8
0
100
AcDbBlockEnd
  0
BLOCK
  5
88
330
87
100
AcDbEntity
  8
0
100
AcDbBlockBegin
  2
37-379-M11
 70
     0
 10
1199.62857104548
 20
797.150410213898
 30
0.0
  3
37-379-M11
  1

  0
LINE
  5
318
330
87
100
AcDbEntity
  8
1
  6
Continuous
 62
     7
100
AcDbLine
 10
652.999999246241
 20
491.900410213897
 30
0.0
 11
694.999999246241
 21
491.900410213897
 31
0.0
  0
LINE
  5
319
330
87
100
AcDbEntity
  8
1
  6
Continuous
 62
     7
100
AcDbLine
 10
692.49999924624
 20
491.400410213898
 30
0.0
 11
655.49999924624
 21
491.400410213898
 31
0.0
  0
LINE
  5
31A
330
87
100
AcDbEntity
  8
1
  6
Continuous
 62
     7
100
AcDbLine
 10
304.499999536006
 20
491.4004115284133
 30
0.0
 11
267.499999536006
 21
491.4004115284093
 31
0.0
  0
LINE
  5
31B
330
87
100
AcDbEntity
  8
1
  6
Continuous
 62
     7
100
AcDbLine
 10
267.499999536006
 20
491.4004115284093
 30
0.0
 11
264.999999041372
 21
491.4004115284463
 31
0.0
  0
LINE
  5
31C
330
87
100
AcDbEntity
  8
1
  6
Continuous
 62
     7
100
AcDbLine
 10
306.999999041371
 20
491.4004115284463
 30
0.0
 11
304.499999536006
 21
491.4004115284133
 31
0.0
  0
LINE
  5
31D
330
87
100
AcDbEntity
  8
1
  6
Continuous
 62
     7
100
AcDbLine
 10
265.999999041375
 20
492.9004115284473
 30
0.0
 11
264.999999041372
 21
491.9004115284443
 31
0.0
  0
LINE
  5
31E
330
87
100
AcDbEntity
  8
1
  6
Continuous
 62
     7
100
AcDbLine
 10
694.999999246241
 20
491.400410213898
 30
0.0
 11
692.49999924624
 21
491.400410213898
 31
0.0
  0
LINE
  5
31F
330
87
100
AcDbEntity
  8
1
  6
Continuous
 62
     7
100
AcDbLine
 10
655.49999924624
 20
491.400410213898
 30
0.0
 11
652.999999246241
 21
491.400410213898
 31
0.0
  0
LINE
  5
320
330
87
100
AcDbEntity
  8
1
  6
Continuous
 62
     7
100
AcDbLine
 10
652.999999246241
 20
491.900410213897
 30
0.0
 11
652.999999246241
 21
491.400410213898
 31
0.0
  0
LINE
  5
321
330
87
100
AcDbEntity
  8
1
  6
Continuous
 62
     7
100
AcDbLine
 10
694.999999246241
 20
491.900410213897
 30
0.0
 11
692.999999246239
 21
493.900410213898
 31
0.0
  0
LINE
  5
322
330
87
100
AcDbEntity
  8
1
  6
Continuous
 62
     7
100
AcDbLine
 10
694.999999246241
 20
491.400410213898
 30
0.0
 11
694.999999246241
 21
491.900410213897
 31
0.0
  0
LINE
  5
323
330
87
100
AcDbEntity
  8
1
  6
Continuous
 62
     7
100
AcDbLine
 10
264.999999041372
 20
491.9004115284443
 30
0.0
 11
306.999999041371
 21
491.9004115284443
 31
0.0
  0
LINE
  5
324
330
87
100
AcDbEntity
  8
1
  6
Continuous
 62
     7
100
AcDbLine
 10
306.999999041371
 20
491.9004115284443
 30
0.0
 11
305.999999041369
 21
492.9004115284463
 31
0.0
  0
LINE
  5
325
330
87
100
AcDbEntity
  8
1
  6
Continuous
 62
     7
100
AcDbLine
 10
306.999999041371
 20
491.4004115284463
 30
0.0
 11
306.999999041371
 21
491.9004115284443
 31
0.0
  0
LINE
  5
326
330
87
100
AcDbEntity
  8
1
  6
Continuous
 62
     7
100
AcDbLine
 10
264.999999041372
 20
491.9004115284443
 30
0.0
 11
264.999999041372
 21
491.4004115284463
 31
0.0
  0
LINE
  5
327
330
87
100
AcDbEntity
  8
1
  6
Continuous
 62
     7
100
AcDbLine
 10
692.999999246239
 20
493.900410213898
 30
0.0
 11
675.590269510144
 21
493.900410213898
 31
0.0
  0
LINE
  5
328
330
87
100
AcDbEntity
  8
1
  6
Continuous
 62
     7
100
AcDbLine
 10
653.9999992462415
 20
492.9004102138974
 30
0.0
 11
652.999999246241
 21
491.900410213897
 31
0.0
  0
ARC
  5
329
330
87
100
AcDbEntity
  8
1
  6
Continuous
 62
     7
100
AcDbCircle
 10
286.0
 20
770.000000000001
 30
0.0
 40
21.00000095862802
100
AcDbArc
 50
26.12922891089221
 51
153.8706868146303
  0
ARC
  5
32A
330
87
100
AcDbEntity
  8
1
  6
Continuous
 62
     7
100
AcDbCircle
 10
677.062604877297
 20
492.486387325547
 30
0.0
 40
15.99999999999892
100
AcDbArc
 50
5.07021119923641
 51
31.83358454753712
  0
ENDBLK
  5
89
330
87
100
AcDbEntity
  8
0
100
AcDbBlockEnd
  0
BLOCK
  5
8B
330
8A
100
AcDbEntity
  8
0
100
AcDbBlockBegin
  2
84-293
 70
     0
 10
731.628612591677
 20
94.98941450524
 30
0.0
  3
84-293
  1

  0
LINE
  5
32B
330
8A
100
AcDbEntity
  8
1
  6
Continuous
 62
     7
100
AcDbLine
 10
286.707106648745
 20
507.1933034327104
 30
0.0
 11
288.700663284523
 21
505.1997467969334
 31
0.0
  0
LINE
  5
32C
330
8A
100
AcDbEntity
  8
1
  6
Continuous
 62
     7
100
AcDbLine
 10
286.707106648745
 20
508.6075169950844
 30
0.0
 11
288.700663284523
 21
510.6010736308614
 31
0.0
  0
LINE
  5
32D
330
8A
100
AcDbEntity
  8
1
  6
Continuous
 62
     7
100
AcDbLine
 10
283.299336450596
 20
510.6010736308614
 30
0.0
 11
285.292893086373
 21
508.6075169950834
 31
0.0
  0
LINE
  5
32E
330
8A
100
AcDbEntity
  8
1
  6
Continuous
 62
     7
100
AcDbLine
 10
283.299336450596
 20
505.1997467969334
 30
0.0
 11
285.292893086373
 21
507.1933034327104
 31
0.0
  0
LINE
  5
32F
330
8A
100
AcDbEntity
  8
1
  6
Continuous
 62
     7
100
AcDbLine
 10
651.4999992462426
 20
503.6504106388979
 30
0.0
 11
650.9999992962427
 21
503.6504106388969
 31
0.0
  0
LINE
  5
330
330
8A
100
AcDbEntity
  8
1
  6
Continuous
 62
     7
100
AcDbLine
 10
651.4999992462426
 20
512.1504097888969
 30
0.0
 11
650.9999992962427
 21
512.1504097888969
 31
0.0
  0
LINE
  5
331
330
8A
100
AcDbEntity
  8
1
  6
Continuous
 62
     7
100
AcDbLine
 10
651.4999992462426
 20
503.6504106388979
 30
0.0
 11
651.4999992462426
 21
512.1504097888969
 31
0.0
  0
ARC
  5
332
330
8A
100
AcDbEntity
  8
1
  6
Continuous
 62
     7
100
AcDbCircle
 10
286.25000029256
 20
507.9004102138974
 30
0.0
 40
4.000000000000182
100
AcDbArc
 50
137.5329689375388
 51
180.0
  0
ARC
  5
333
330
8A
100
AcDbEntity
  8
1
  6
Continuous
 62
     7
100
AcDbCircle
 10
285.749999442559
 20
507.9004102138974
 30
0.0
 40
4.000000000000143
100
AcDbArc
 50
317.5329689375394
 51
0.0
  0
ARC
  5
334
330
8A
100
AcDbEntity
  8
1
  6
Continuous
 62
     7
100
AcDbCircle
 10
285.749999442559
 20
507.9004102138974
 30
0.0
 40
4.0
100
AcDbArc
 50
0.0
 51
42.46703106246121
  0
ARC
  5
335
330
8A
100
AcDbEntity
  8
1
  6
Continuous
 62
     7
100
AcDbCircle
 10
286.25000029256
 20
507.9004102138974
 30
0.0
 40
4.0
100
AcDbArc
 50
180.0
 51
222.4670310624606
  0
ARC
  5
336
330
8A
100
AcDbEntity
  8
1
  6
Continuous
 62
     7
100
AcDbCircle
 10
662.2221860177557
 20
507.9004102138969
 30
0.0
 40
11.99999880000009
100
AcDbArc
 50
159.257620045513
 51
200.742379954487
  0
ARC
  5
337
330
8A
100
AcDbEntity
  8
1
  6
Continuous
 62
     7
100
AcDbCircle
 10
287.414213429932
 20
507.9004102138974
 30
0.0
 40
1.000000000000611
100
AcDbArc
 50
134.9999999999977
 51
225.0
  0
ARC
  5
338
330
8A
100
AcDbEntity
  8
1
  6
Continuous
 62
     7
100
AcDbCircle
 10
284.585786305186
 20
507.9004102138974
 30
0.0
 40
1.000000000000611
100
AcDbArc
 50
315.0000000000023
 51
44.99999999996085
  0
CIRCLE
  5
339
330
8A
100
AcDbEntity
  8
1
  6
Continuous
 62
     7
100
AcDbCircle
 10
285.999999867559
 20
507.9004102138974
 30
0.0
 40
4.249999575000004
  0
HATCH
  5
33C
330
8A
100
AcDbEntity
  8
0
  6
Continuous
 62
     2
100
AcDbHatch
 10
0.0
 20
0.0
 30
0.0
210
0.0
220
0.0
230
1.0
  2
CUSTOM0
 70
     0
 71
     0
 91
        1
 92
        1
 93
       18
 72
     1
 10
289.749999442559
 20
507.9004102138974
 11
289.670265753924
 21
507.1057328907174
 72
     1
 10
289.670265753924
 20
507.1057328907174
 11
289.434243418571
 21
506.3427368446625
 72
     1
 10
289.434243418571
 20
506.3427368446625
 11
289.051341902198
 21
505.6418403203174
 72
     1
 10
289.051341902198
 20
505.6418403203174
 11
288.700663284523
 21
505.1997467969334
 72
     1
 10
288.700663284523
 20
505.1997467969334
 11
286.707106648745
 21
507.1933034327104
 72
     1
 10
286.707106648745
 20
507.1933034327104
 11
286.580721275708
 21
507.3478789217105
 72
     1
 10
286.580721275708
 20
507.3478789217105
 11
286.487564604622
 21
507.5244820897165
 72
     1
 10
286.487564604622
 20
507.5244820897165
 11
286.431350497992
 21
507.7160723257234
 72
     1
 10
286.431350497992
 20
507.7160723257234
 11
286.414320034854
 21
507.9150115316205
 72
     1
 10
286.414320034854
 20
507.9150115316205
 11
286.437152166033
 21
508.1133686290564
 72
     1
 10
286.437152166033
 20
508.1133686290564
 11
286.498936646508
 21
508.3032357465094
 72
     1
 10
286.498936646508
 20
508.3032357465094
 11
286.597210324015
 21
508.4770434811665
 72
     1
 10
286.597210324015
 20
508.4770434811665
 11
286.707106648745
 21
508.6075169950844
 72
     1
 10
286.707106648745
 20
508.6075169950844
 11
288.700663284523
 21
510.6010736308614
 72
     1
 10
288.700663284523
 20
510.6010736308614
 11
289.178385450264
 21
509.9610337559784
 72
     1
 10
289.178385450264
 20
509.9610337559784
 11
289.519428684775
 21
509.2388433231454
 72
     1
 10
289.519428684775
 20
509.2388433231454
 11
289.71019667052
 21
508.4632937859174
 72
     1
 10
289.71019667052
 20
508.4632937859174
 11
289.749999442559
 21
507.9004102138974
 97
        0
 75
     1
 76
     2
 52
45.0
 41
0.25
 77
     0
 78
     1
 53
45.0
 43
0.0
 44
0.0
 45
-0.7071067811865475
 46
0.0000000000000001
 79
     0
 98
        1
 10
0.0
 20
0.0
  0
HATCH
  5
33D
330
8A
100
AcDbEntity
  8
0
  6
Continuous
 62
     2
100
AcDbHatch
 10
0.0
 20
0.0
 30
0.0
210
0.0
220
0.0
230
1.0
  2
_USER
 70
     0
 71
     0
 91
        1
 92
        1
 93
       18
 72
     1
 10
285.292893086373
 20
507.1933034327104
 11
283.299336450596
 21
505.1997467969334
 72
     1
 10
283.299336450596
 20
505.1997467969334
 11
282.821614284855
 21
505.8397866718165
 72
     1
 10
282.821614284855
 20
505.8397866718165
 11
282.480571050344
 21
506.5619771046494
 72
     1
 10
282.480571050344
 20
506.5619771046494
 11
282.289803064599
 21
507.3375266418775
 72
     1
 10
282.289803064599
 20
507.3375266418775
 11
282.25000029256
 21
507.9004102138974
 72
     1
 10
282.25000029256
 20
507.9004102138974
 11
282.329733981195
 21
508.6950875370774
 72
     1
 10
282.329733981195
 20
508.6950875370774
 11
282.565756316548
 21
509.4580835831314
 72
     1
 10
282.565756316548
 20
509.4580835831314
 11
282.948657832921
 21
510.1589801074774
 72
     1
 10
282.948657832921
 20
510.1589801074774
 11
283.299336450596
 21
510.6010736308614
 72
     1
 10
283.299336450596
 20
510.6010736308614
 11
285.292893086373
 21
508.6075169950834
 72
     1
 10
285.292893086373
 20
508.6075169950834
 11
285.419278459411
 21
508.4529415060844
 72
     1
 10
285.419278459411
 20
508.4529415060844
 11
285.512435130497
 21
508.2763383380784
 72
     1
 10
285.512435130497
 20
508.2763383380784
 11
285.568649237127
 21
508.0847481020714
 72
     1
 10
285.568649237127
 20
508.0847481020714
 11
285.585679700264
 21
507.8858088961744
 72
     1
 10
285.585679700264
 20
507.8858088961744
 11
285.562847569086
 21
507.6874517987374
 72
     1
 10
285.562847569086
 20
507.6874517987374
 11
285.501063088611
 21
507.4975846812844
 72
     1
 10
285.501063088611
 20
507.4975846812844
 11
285.402789411103
 21
507.3237769466275
 72
     1
 10
285.402789411103
 20
507.3237769466275
 11
285.292893086373
 21
507.1933034327104
 97
        0
 75
     1
 76
     0
 52
0.0
 41
0.1
 77
     0
 78
     1
 53
0.0
 43
0.0
 44
0.0
 45
0.0
 46
0.1
 79
     0
 98
        1
 10
0.0
 20
0.0
  0
ENDBLK
  5
8C
330
8A
100
AcDbEntity
  8
0
100
AcDbBlockEnd
  0
BLOCK
  5
8E
330
8D
100
AcDbEntity
  8
0
100
AcDbBlockBegin
  2
36-99K__10
 70
     0
 10
1866.394659932164
 20
415.4193989882853
 30
0.0
  3
36-99K__10
  1

  0
LINE
  5
33E
330
8D
100
AcDbEntity
  8
1
  6
Continuous
 62
     7
100
AcDbLine
 10
193.915503649785
 20
416.5671197732323
 30
0.0
 11
186.666710646809
 21
423.8159127762084
 31
0.0
  0
LINE
  5
33F
330
8D
100
AcDbEntity
  8
1
  6
Continuous
 62
     7
100
AcDbLine
 10
194.6226104309717
 20
417.2742265544188
 30
0.0
 11
187.3738174279954
 21
424.5230195573949
 31
0.0
  0
ARC
  5
340
330
8D
100
AcDbEntity
  8
1
  6
Continuous
 62
     7
100
AcDbCircle
 10
190.6446605388903
 20
420.5450696653136
 30
0.0
 40
4.250000000000447
100
AcDbArc
 50
321.7563270305869
 51
128.2436729694124
  0
ARC
  5
341
330
8D
100
AcDbEntity
  8
1
  6
Continuous
 62
     7
100
AcDbCircle
 10
190.6446605388903
 20
420.5450696653136
 30
0.0
 40
4.250000000000616
100
AcDbArc
 50
141.7563270305877
 51
308.2436729694115
  0
ENDBLK
  5
8F
330
8D
100
AcDbEntity
  8
0
100
AcDbBlockEnd
  0
BLOCK
  5
91
330
90
100
AcDbEntity
  8
0
100
AcDbBlockBegin
  2
78-78K__11
 70
     0
 10
1865.494659932165
 20
415.3950696761074
 30
0.0
  3
78-78K__11
  1

  0
LINE
  5
342
330
90
100
AcDbEntity
  8
1
  6
Continuous
 62
     7
100
AcDbLine
 10
185.8866816781044
 20
418.5742527369667
 30
0.0
 11
185.5633238417252
 21
418.4403135356391
 31
0.0
  0
LINE
  5
343
330
90
100
AcDbEntity
  8
1
  6
Continuous
 62
     7
100
AcDbLine
 10
188.6738415938571
 20
415.787092821214
 30
0.0
 11
188.5399023925293
 21
415.463734984835
 31
0.0
  0
ARC
  5
344
330
90
100
AcDbEntity
  8
1
  6
Continuous
 62
     7
100
AcDbCircle
 10
190.6446612705372
 20
420.545072413647
 30
0.0
 40
5.14999999999984
100
AcDbArc
 50
247.5000000000007
 51
202.5000000000025
  0
ENDBLK
  5
92
330
90
100
AcDbEntity
  8
0
100
AcDbBlockEnd
  0
BLOCK
  5
94
330
93
100
AcDbEntity
  8
0
100
AcDbBlockBegin
  2
30-108K__12
 70
     0
 10
2558.499999250891
 20
690.5000000000009
 30
0.0
  3
30-108K__12
  1

  0
LINE
  5
345
330
93
100
AcDbEntity
  8
1
  6
Continuous
 62
     2
100
AcDbLine
 10
188.9950018455495
 20
806.9999952807067
 30
0.0
 11
188.9950018455495
 21
817.4999952807067
 31
0.0
  0
LINE
  5
346
330
93
100
AcDbEntity
  8
1
  6
Continuous
 62
     2
100
AcDbLine
 10
187.3954681717917
 20
806.9999952807067
 30
0.0
 11
187.3954681717917
 21
817.4999952807067
 31
0.0
  0
LINE
  5
347
330
93
100
AcDbEntity
  8
1
  6
Continuous
 62
     2
100
AcDbLine
 10
185.8946595333855
 20
806.9999952807067
 30
0.0
 11
185.8946595333855
 21
817.4999952807067
 31
0.0
  0
LINE
  5
348
330
93
100
AcDbEntity
  8
1
  6
Continuous
 62
     2
100
AcDbLine
 10
184.5381772413637
 20
806.9999952807067
 30
0.0
 11
184.5381772413637
 21
817.4999952807067
 31
0.0
  0
LINE
  5
349
330
93
100
AcDbEntity
  8
1
  6
Continuous
 62
     2
100
AcDbLine
 10
183.3672373237556
 20
806.9999952807067
 30
0.0
 11
183.3672373237556
 21
817.4999952807067
 31
0.0
  0
LINE
  5
34A
330
93
100
AcDbEntity
  8
1
  6
Continuous
 62
     2
100
AcDbLine
 10
182.4174181974337
 20
806.9999952807067
 30
0.0
 11
182.4174181974337
 21
817.4999952807067
 31
0.0
  0
LINE
  5
34B
330
93
100
AcDbEntity
  8
1
  6
Continuous
 62
     2
100
AcDbLine
 10
181.7175796359196
 20
806.9999952807067
 30
0.0
 11
181.7175796359196
 21
817.4999952807067
 31
0.0
  0
LINE
  5
34C
330
93
100
AcDbEntity
  8
1
  6
Continuous
 62
     2
100
AcDbLine
 10
181.2889858797696
 20
806.9999952807067
 30
0.0
 11
181.2889858797696
 21
817.4999952807067
 31
0.0
  0
LINE
  5
34D
330
93
100
AcDbEntity
  8
1
  6
Continuous
 62
     2
100
AcDbLine
 10
199.5717394308515
 20
817.4999952807067
 30
0.0
 11
199.5717394308515
 21
806.9999952807067
 31
0.0
  0
LINE
  5
34E
330
93
100
AcDbEntity
  8
1
  6
Continuous
 62
     2
100
AcDbLine
 10
198.8719008693377
 20
817.4999952807067
 30
0.0
 11
198.8719008693377
 21
806.9999952807067
 31
0.0
  0
LINE
  5
34F
330
93
100
AcDbEntity
  8
1
  6
Continuous
 62
     2
100
AcDbLine
 10
197.9220817430155
 20
817.4999952807067
 30
0.0
 11
197.9220817430155
 21
806.9999952807067
 31
0.0
  0
LINE
  5
350
330
93
100
AcDbEntity
  8
1
  6
Continuous
 62
     2
100
AcDbLine
 10
196.7511418254076
 20
817.4999952807067
 30
0.0
 11
196.7511418254076
 21
806.9999952807067
 31
0.0
  0
LINE
  5
351
330
93
100
AcDbEntity
  8
1
  6
Continuous
 62
     2
100
AcDbLine
 10
195.3946595333855
 20
817.4999952807067
 30
0.0
 11
195.3946595333855
 21
806.9999952807067
 31
0.0
  0
LINE
  5
352
330
93
100
AcDbEntity
  8
1
  6
Continuous
 62
     2
100
AcDbLine
 10
193.8938508949796
 20
817.4999952807067
 30
0.0
 11
193.8938508949796
 21
806.9999952807067
 31
0.0
  0
LINE
  5
353
330
93
100
AcDbEntity
  8
1
  6
Continuous
 62
     2
100
AcDbLine
 10
192.2943172212215
 20
817.4999952807067
 30
0.0
 11
192.2943172212215
 21
806.9999952807067
 31
0.0
  0
LINE
  5
354
330
93
100
AcDbEntity
  8
1
  6
Continuous
 62
     7
100
AcDbLine
 10
199.1446595333855
 20
804.9999952807067
 30
0.0
 11
182.1446595333856
 21
804.9999952807067
 31
0.0
  0
LINE
  5
355
330
93
100
AcDbEntity
  8
1
  6
Continuous
 62
     7
100
AcDbLine
 10
181.1446595333856
 20
805.9999952807067
 30
0.0
 11
181.1446595333856
 21
818.4999952807067
 31
0.0
  0
LINE
  5
356
330
93
100
AcDbEntity
  8
1
  6
Continuous
 62
     7
100
AcDbLine
 10
181.1446595333856
 20
805.9999952807067
 30
0.0
 11
182.1446595333856
 21
804.9999952807067
 31
0.0
  0
LINE
  5
357
330
93
100
AcDbEntity
  8
1
  6
Continuous
 62
     2
100
AcDbLine
 10
200.0003331870014
 20
817.4999952807067
 30
0.0
 11
200.0003331870014
 21
806.9999952807067
 31
0.0
  0
LINE
  5
358
330
93
100
AcDbEntity
  8
0
  6
Continuous
 62
     7
100
AcDbLine
 10
181.1446595333856
 20
805.9999952807067
 30
0.0
 11
200.1446595333855
 21
805.9999952807067
 31
0.0
  0
LINE
  5
359
330
93
100
AcDbEntity
  8
1
  6
Continuous
 62
     7
100
AcDbLine
 10
200.1446595333855
 20
818.4999952807067
 30
0.0
 11
200.1446595333855
 21
805.9999952807067
 31
0.0
  0
LINE
  5
35A
330
93
100
AcDbEntity
  8
1
  6
Continuous
 62
     7
100
AcDbLine
 10
199.1446595333855
 20
804.9999952807067
 30
0.0
 11
200.1446595333855
 21
805.9999952807067
 31
0.0
  0
CIRCLE
  5
35B
330
93
100
AcDbEntity
  8
1
  6
Continuous
 62
     7
100
AcDbCircle
 10
190.6446597337185
 20
420.5450701825947
 30
0.0
 40
8.5
  0
CIRCLE
  5
35C
330
93
100
AcDbEntity
  8
1
  6
Continuous
 62
     7
100
AcDbCircle
 10
190.6446597337185
 20
420.5450701825947
 30
0.0
 40
5.5
  0
CIRCLE
  5
35D
330
93
100
AcDbEntity
  8
1
  6
Continuous
 62
     7
100
AcDbCircle
 10
190.6446597337185
 20
420.5450701825947
 30
0.0
 40
9.5
  0
ENDBLK
  5
95
330
93
100
AcDbEntity
  8
0
100
AcDbBlockEnd
  0
BLOCK
  5
9A
330
96
100
AcDbEntity
  8
0
100
AcDbBlockBegin
  2
30-108XK__13
 70
     0
 10
1861.144659932164
 20
411.0450696761072
 30
0.0
  3
30-108XK__13
  1

  0
INSERT
  5
97
330
96
100
AcDbEntity
  8
1
100
AcDbBlockReference
  2
36-99K__10
 10
1866.394659932164
 20
415.4193989882853
 30
0.0
  0
INSERT
  5
98
330
96
100
AcDbEntity
  8
1
100
AcDbBlockReference
  2
78-78K__11
 10
1865.494659932165
 20
415.3950696761074
 30
0.0
  0
INSERT
  5
99
330
96
100
AcDbEntity
  8
0
100
AcDbBlockReference
  2
30-108K__12
 10
2558.499999250891
 20
690.5000000000009
 30
0.0
  0
ENDBLK
  5
9B
330
96
100
AcDbEntity
  8
0
100
AcDbBlockEnd
  0
BLOCK
  5
9D
330
9C
100
AcDbEntity
  8
0
100
AcDbBlockBegin
  2
35-6A-8-C2K__14
 70
     0
 10
1897.600003358569
 20
817.880561136096
 30
0.0
  3
35-6A-8-C2K__14
  1

  0
LINE
  5
35E
330
9C
100
AcDbEntity
  8
1
  6
Continuous
 62
     7
100
AcDbLine
 10
217.6000019405822
 20
817.8805564168018
 30
0.0
 11
217.6000019405822
 21
818.4999952807068
 31
0.0
  0
LINE
  5
35F
330
9C
100
AcDbEntity
  8
1
  6
Continuous
 62
     7
100
AcDbLine
 10
234.4000019405821
 20
818.4999952807068
 30
0.0
 11
234.4000019405821
 21
817.8805564168018
 31
0.0
  0
ENDBLK
  5
9E
330
9C
100
AcDbEntity
  8
0
100
AcDbBlockEnd
  0
BLOCK
  5
A0
330
9F
100
AcDbEntity
  8
0
100
AcDbBlockBegin
  2
03-47-50-M1K__15
 70
     0
 10
1844.499999250891
 20
409.0450709092976
 30
0.0
  3
03-47-50-M1K__15
  1

  0
LINE
  5
360
330
9F
100
AcDbEntity
  8
1
  6
Continuous
 62
     7
100
AcDbLine
 10
182.5129308221488
 20
428.6767986944971
 30
0.0
 11
210.9999983475111
 21
457.1638662198595
 31
0.0
  0
LINE
  5
361
330
9F
100
AcDbEntity
  8
1
  6
Continuous
 62
     7
100
AcDbLine
 10
181.3291594866307
 20
865.4999952807068
 30
0.0
 11
180.1671594866307
 21
864.3379952807068
 31
0.0
  0
LINE
  5
362
330
9F
100
AcDbEntity
  8
1
  6
Continuous
 62
     7
100
AcDbLine
 10
181.3291594866307
 20
865.4999952807068
 30
0.0
 11
199.9601594866306
 21
865.4999952807068
 31
0.0
  0
LINE
  5
363
330
9F
100
AcDbEntity
  8
1
  6
Continuous
 62
     7
100
AcDbLine
 10
180.1671594866307
 20
864.3379952807068
 30
0.0
 11
201.1221594866306
 21
864.3379952807068
 31
0.0
  0
LINE
  5
364
330
9F
100
AcDbEntity
  8
1
  6
Continuous
 62
     2
100
AcDbLine
 10
181.3291594866307
 20
851.4999952807068
 30
0.0
 11
181.3291594866307
 21
865.4999952807068
 31
0.0
  0
LINE
  5
365
330
9F
100
AcDbEntity
  8
1
  6
Continuous
 62
     7
100
AcDbLine
 10
180.1671594866307
 20
851.4999952807068
 30
0.0
 11
180.1671594866307
 21
864.3379952807068
 31
0.0
  0
LINE
  5
366
330
9F
100
AcDbEntity
  8
1
  6
Continuous
 62
     7
100
AcDbLine
 10
201.1221594866306
 20
851.4999952807068
 30
0.0
 11
201.1221594866306
 21
864.3379952807068
 31
0.0
  0
LINE
  5
367
330
9F
100
AcDbEntity
  8
1
  6
Continuous
 62
     2
100
AcDbLine
 10
199.9601594866306
 20
865.4999952807068
 30
0.0
 11
199.9601594866306
 21
851.4999952807068
 31
0.0
  0
LINE
  5
368
330
9F
100
AcDbEntity
  8
1
  6
Continuous
 62
     7
100
AcDbLine
 10
199.9601594866306
 20
865.4999952807068
 30
0.0
 11
201.1221594866306
 21
864.3379952807068
 31
0.0
  0
LINE
  5
369
330
9F
100
AcDbEntity
  8
1
  6
Continuous
 62
     7
100
AcDbLine
 10
201.1446594866306
 20
836.9999952807068
 30
0.0
 11
201.1446594866306
 21
837.9483810991418
 31
0.0
  0
LINE
  5
36A
330
9F
100
AcDbEntity
  8
1
  6
Continuous
 62
     7
100
AcDbLine
 10
201.1221594866306
 20
837.9873522423118
 30
0.0
 11
201.1446594866306
 21
837.9483810991418
 31
0.0
  0
LINE
  5
36B
330
9F
100
AcDbEntity
  8
1
  6
Continuous
 62
     7
100
AcDbLine
 10
201.1446594866306
 20
836.9999952807068
 30
0.0
 11
201.1446594866306
 21
837.2999952807068
 31
0.0
  0
LINE
  5
36C
330
9F
100
AcDbEntity
  8
1
  6
Continuous
 62
     7
100
AcDbLine
 10
180.1446594866306
 20
837.9483810991418
 30
0.0
 11
180.1671594866297
 21
837.9873522423118
 31
0.0
  0
LINE
  5
36D
330
9F
100
AcDbEntity
  8
1
  6
Continuous
 62
     7
100
AcDbLine
 10
180.1446594866306
 20
837.9483810991418
 30
0.0
 11
180.1446594866306
 21
836.9999952807068
 31
0.0
  0
LINE
  5
36E
330
9F
100
AcDbEntity
  8
1
  6
Continuous
 62
     7
100
AcDbLine
 10
201.1446594866306
 20
836.9999952807068
 30
0.0
 11
201.1446594866306
 21
837.2999952807068
 31
0.0
  0
LINE
  5
36F
330
9F
100
AcDbEntity
  8
1
  6
Continuous
 62
     7
100
AcDbLine
 10
180.1446594866306
 20
837.2999952807068
 30
0.0
 11
180.1446594866306
 21
836.9999952807068
 31
0.0
  0
LINE
  5
370
330
9F
100
AcDbEntity
  8
1
  6
Continuous
 62
     7
100
AcDbLine
 10
179.1446594866306
 20
835.9999952807068
 30
0.0
 11
202.1446594866306
 21
835.9999952807068
 31
0.0
  0
LINE
  5
371
330
9F
100
AcDbEntity
  8
1
  6
Continuous
 62
     2
100
AcDbLine
 10
199.9601594866306
 20
839.9999952807068
 30
0.0
 11
201.1221594866306
 21
837.9873522423118
 31
0.0
  0
LINE
  5
372
330
9F
100
AcDbEntity
  8
1
  6
Continuous
 62
     7
100
AcDbLine
 10
201.1221594866306
 20
837.9873522423118
 30
0.0
 11
201.1221594866306
 21
839.9999952807068
 31
0.0
  0
LINE
  5
373
330
9F
100
AcDbEntity
  8
1
  6
Continuous
 62
     7
100
AcDbLine
 10
180.1671594866297
 20
839.9999952807068
 30
0.0
 11
199.9601594866306
 21
839.9999952807068
 31
0.0
  0
LINE
  5
374
330
9F
100
AcDbEntity
  8
1
  6
Continuous
 62
     7
100
AcDbLine
 10
202.1446594866306
 20
835.9999952807068
 30
0.0
 11
206.1446594866306
 21
835.9999952807068
 31
0.0
  0
LINE
  5
375
330
9F
100
AcDbEntity
  8
1
  6
Continuous
 62
     7
100
AcDbLine
 10
237.4999985459583
 20
832.9999952807068
 30
0.0
 11
213.2860879151738
 21
832.9999952807068
 31
0.0
  0
LINE
  5
376
330
9F
100
AcDbEntity
  8
1
  6
Continuous
 62
     7
100
AcDbLine
 10
226.0248652777132
 20
828.6909012389798
 30
0.0
 11
213.2860879151738
 21
828.6909012389798
 31
0.0
  0
LINE
  5
377
330
9F
100
AcDbEntity
  8
1
  6
Continuous
 62
     7
100
AcDbLine
 10
237.4999985459583
 20
818.4999952807068
 30
0.0
 11
237.4999985459583
 21
832.9999952807068
 31
0.0
  0
LINE
  5
378
330
9F
100
AcDbEntity
  8
1
  6
Continuous
 62
     7
100
AcDbLine
 10
179.1446594866306
 20
818.4999952807068
 30
0.0
 11
218.4999985459583
 21
818.4999952807068
 31
0.0
  0
LINE
  5
379
330
9F
100
AcDbEntity
  8
1
  6
Continuous
 62
     7
100
AcDbLine
 10
218.4999985459583
 20
818.4999952807068
 30
0.0
 11
237.4999985459583
 21
818.4999952807068
 31
0.0
  0
LINE
  5
37A
330
9F
100
AcDbEntity
  8
1
  6
Continuous
 62
     7
100
AcDbLine
 10
179.1446594866306
 20
835.9999952807068
 30
0.0
 11
179.1446594866306
 21
818.4999952807068
 31
0.0
  0
LINE
  5
37B
330
9F
100
AcDbEntity
  8
1
  6
Continuous
 62
     7
100
AcDbLine
 10
180.1671594866297
 20
839.9999952807068
 30
0.0
 11
180.1671594866297
 21
837.9873522423118
 31
0.0
  0
LINE
  5
37C
330
9F
100
AcDbEntity
  8
1
  6
Continuous
 62
     2
100
AcDbLine
 10
180.1671594866297
 20
837.9873522423118
 30
0.0
 11
181.3291594866307
 21
839.9999952807068
 31
0.0
  0
LINE
  5
37D
330
9F
100
AcDbEntity
  8
0
  6
Continuous
 62
     7
100
AcDbLine
 10
180.1671594866297
 20
839.9999952807068
 30
0.0
 11
180.1671594866297
 21
840.7999952807068
 31
0.0
  0
LINE
  5
37E
330
9F
100
AcDbEntity
  8
0
  6
Continuous
 62
     2
100
AcDbLine
 10
181.3291594866307
 20
839.9999952807068
 30
0.0
 11
181.3291594866307
 21
840.7999952807068
 31
0.0
  0
LINE
  5
37F
330
9F
100
AcDbEntity
  8
1
  6
Continuous
 62
     7
100
AcDbLine
 10
199.9601594866306
 20
839.9999952807068
 30
0.0
 11
201.1221594866306
 21
839.9999952807068
 31
0.0
  0
LINE
  5
380
330
9F
100
AcDbEntity
  8
0
  6
Continuous
 62
     7
100
AcDbLine
 10
201.1221594866306
 20
839.9999952807068
 30
0.0
 11
201.1221594866306
 21
840.7999952807068
 31
0.0
  0
LINE
  5
381
330
9F
100
AcDbEntity
  8
0
  6
Continuous
 62
     2
100
AcDbLine
 10
199.9601594866306
 20
839.9999952807068
 30
0.0
 11
199.9601594866306
 21
840.7999952807068
 31
0.0
  0
LINE
  5
382
330
9F
100
AcDbEntity
  8
1
  6
Continuous
 62
     7
100
AcDbLine
 10
225.5203237758194
 20
439.1572797135866
 30
0.0
 11
198.7763867894394
 21
412.4133427272065
 31
0.0
  0
ARC
  5
383
330
9F
100
AcDbEntity
  8
1
  6
Continuous
 62
     7
100
AcDbCircle
 10
190.6446588057941
 20
420.5450707108518
 30
0.0
 40
11.50000000000001
100
AcDbArc
 50
135.0
 51
315.0
  0
ARC
  5
384
330
9F
100
AcDbEntity
  8
1
  6
Continuous
 62
     7
100
AcDbCircle
 10
202.1446594866306
 20
836.9999952807068
 30
0.0
 40
1.0
100
AcDbArc
 50
180.0
 51
270.0
  0
ARC
  5
385
330
9F
100
AcDbEntity
  8
1
  6
Continuous
 62
     7
100
AcDbCircle
 10
179.1446594866306
 20
836.9999952807068
 30
0.0
 40
1.0
100
AcDbArc
 50
270.0
 51
0.0
  0
ARC
  5
386
330
9F
100
AcDbEntity
  8
1
  6
Continuous
 62
     7
100
AcDbCircle
 10
213.2860879151738
 20
842.6094445703437
 30
0.0
 40
13.91854333136389
100
AcDbArc
 50
208.3506550925184
 51
270.0
  0
ARC
  5
387
330
9F
100
AcDbEntity
  8
1
  6
Continuous
 62
     7
100
AcDbCircle
 10
213.2860879151738
 20
842.9999952807068
 30
0.0
 40
10.00000000000026
100
AcDbArc
 50
224.4270040008043
 51
270.0
  0
CIRCLE
  5
388
330
9F
100
AcDbEntity
  8
1
  6
Continuous
 62
     7
100
AcDbCircle
 10
190.6446588057941
 20
420.5450707108518
 30
0.0
 40
10.49999999999984
  0
SPLINE
  5
389
330
9F
100
AcDbEntity
  8
1
  6
Continuous
 62
     7
100
AcDbSpline
210
0.0
220
0.0
230
1.0
 70
     8
 71
     3
 72
    15
 73
    11
 74
     9
 42
0.000000001
 43
0.0000000001
 44
0.00000001
 40
0.0
 40
0.0
 40
0.0
 40
0.0
 40
1.01059101395308
 40
2.021170126670147
 40
2.936094642415659
 40
3.850986246233563
 40
4.856834999707081
 40
5.86320427154533
 40
9.145271773456479
 40
12.43110767220375
 40
12.43110767220375
 40
12.43110767220375
 40
12.43110767220375
 10
237.4999985459583
 20
832.9999952807068
 30
0.0
 10
237.21790075649
 20
832.8158435973452
 30
0.0
 10
236.6537084917974
 20
832.4475424115178
 30
0.0
 10
235.8162546977637
 20
831.9407241708021
 30
0.0
 10
234.9947548693166
 20
831.4698331685937
 30
0.0
 10
234.1640345086711
 20
831.0189402163645
 30
0.0
 10
233.2965495649509
 20
830.5712572172692
 30
0.0
 10
231.7028331872727
 20
829.817995184971
 30
0.0
 10
229.3236780093802
 20
828.8774045209727
 30
0.0
 10
227.1248900472833
 20
828.7530927697949
 30
0.0
 10
226.0248652777132
 20
828.6909012389798
 30
0.0
 11
237.4999985459583
 21
832.9999952807068
 31
0.0
 11
236.6506300770154
 21
832.4523937848415
 31
0.0
 11
235.7868534934969
 21
831.9278366810671
 31
0.0
 11
234.9930371185
 21
831.4729274235472
 31
0.0
 11
234.1891956799107
 21
831.0360457576207
 31
0.0
 11
233.2943590667388
 21
830.5766993165427
 31
0.0
 11
232.3847869534971
 21
830.1460513350486
 31
0.0
 11
229.2909647620369
 21
829.0505006282084
 31
0.0
 11
226.0248652777132
 21
828.6909012389798
 31
0.0
  0
ENDBLK
  5
A1
330
9F
100
AcDbEntity
  8
0
100
AcDbBlockEnd
  0
BLOCK
  5
A3
330
A2
100
AcDbEntity
  8
0
100
AcDbBlockBegin
  2
32-3-M1K__16
 70
     0
 10
1890.99999925089
 20
439.1504102138985
 30
0.0
  3
32-3-M1K__16
  1

  0
LINE
  5
38A
330
A2
100
AcDbEntity
  8
1
  6
Continuous
 62
     7
100
AcDbLine
 10
240.9999978329042
 20
817.0318836945307
 30
0.0
 11
240.9999978329042
 21
805.7292291390728
 31
0.0
  0
LINE
  5
38B
330
A2
100
AcDbEntity
  8
1
  6
Continuous
 62
     7
100
AcDbLine
 10
240.2566615392382
 20
817.8805564168018
 30
0.0
 11
211.7433341265692
 21
817.8805564168018
 31
0.0
  0
LINE
  5
38C
330
A2
100
AcDbEntity
  8
1
  6
Continuous
 62
     7
100
AcDbLine
 10
210.9999978329042
 20
817.0318836945307
 30
0.0
 11
210.9999978329042
 21
805.7292291390728
 31
0.0
  0
LINE
  5
38D
330
A2
100
AcDbEntity
  8
1
  6
Continuous
 62
     7
100
AcDbLine
 10
211.7433341265692
 20
804.8805564168027
 30
0.0
 11
240.2566615392382
 21
804.8805564168018
 31
0.0
  0
LINE
  5
38E
330
A2
100
AcDbEntity
  8
1
  6
Continuous
 62
     7
100
AcDbLine
 10
212.0446236891817
 20
465.163779201758
 30
0.0
 11
224.9553750228577
 21
472.617804959695
 31
0.0
  0
LINE
  5
38F
330
A2
100
AcDbEntity
  8
1
  6
Continuous
 62
     7
100
AcDbLine
 10
210.9999993560186
 20
455.90041102396
 30
0.0
 11
210.9999993560198
 21
463.354436781898
 31
0.0
  0
LINE
  5
390
330
A2
100
AcDbEntity
  8
1
  6
Continuous
 62
     7
100
AcDbLine
 10
227.0446236891817
 20
472.617804959695
 30
0.0
 11
230.0192372424867
 21
470.90041102396
 31
0.0
  0
LINE
  5
391
330
A2
100
AcDbEntity
  8
1
  6
Continuous
 62
     7
100
AcDbLine
 10
210.9999993560198
 20
448.446385266022
 30
0.0
 11
210.9999993560186
 21
455.90041102396
 31
0.0
  0
LINE
  5
392
330
A2
100
AcDbEntity
  8
1
  6
Continuous
 62
     7
100
AcDbLine
 10
224.9553750228577
 20
439.183017088225
 30
0.0
 11
212.0446236891817
 21
446.637042846162
 31
0.0
  0
LINE
  5
393
330
A2
100
AcDbEntity
  8
1
  6
Continuous
 62
     7
100
AcDbLine
 10
230.0192372424867
 20
440.90041102396
 30
0.0
 11
227.0446236891817
 21
439.183017088225
 31
0.0
  0
ARC
  5
394
330
A2
100
AcDbEntity
  8
1
  6
Continuous
 62
     7
100
AcDbCircle
 10
232.7499978329042
 20
811.3805564168018
 30
0.0
 40
10.00000000000014
100
AcDbArc
 50
34.41150866977064
 51
40.0052008848585
  0
ARC
  5
395
330
A2
100
AcDbEntity
  8
1
  6
Continuous
 62
     7
100
AcDbCircle
 10
240.2566615392382
 20
817.6805564168018
 30
0.0
 40
0.2000000000001114
100
AcDbArc
 50
40.00520088468646
 51
90.0
  0
ARC
  5
396
330
A2
100
AcDbEntity
  8
1
  6
Continuous
 62
     7
100
AcDbCircle
 10
211.7433341265692
 20
817.6805564168018
 30
0.0
 40
0.2000000000000455
100
AcDbArc
 50
90.0
 51
139.9947991153136
  0
ARC
  5
397
330
A2
100
AcDbEntity
  8
1
  6
Continuous
 62
     7
100
AcDbCircle
 10
219.2499978329042
 20
811.3805564168018
 30
0.0
 40
10.00000000000044
100
AcDbArc
 50
139.9947991151452
 51
145.5884913302294
  0
ARC
  5
398
330
A2
100
AcDbEntity
  8
1
  6
Continuous
 62
     7
100
AcDbCircle
 10
211.7433341265692
 20
805.0805564168028
 30
0.0
 40
0.2000000000001114
100
AcDbArc
 50
220.0052008846864
 51
270.0
  0
ARC
  5
399
330
A2
100
AcDbEntity
  8
1
  6
Continuous
 62
     7
100
AcDbCircle
 10
219.2499978329042
 20
811.3805564168018
 30
0.0
 40
10.00000000000021
100
AcDbArc
 50
214.4115086697712
 51
220.0052008848508
  0
ARC
  5
39A
330
A2
100
AcDbEntity
  8
1
  6
Continuous
 62
     7
100
AcDbCircle
 10
240.2566615392382
 20
805.0805564168018
 30
0.0
 40
0.1999999999999318
100
AcDbArc
 50
270.0
 51
319.9947991153135
  0
ARC
  5
39B
330
A2
100
AcDbEntity
  8
1
  6
Continuous
 62
     7
100
AcDbCircle
 10
232.7499978329042
 20
811.3805564168018
 30
0.0
 40
9.99999999999975
100
AcDbArc
 50
319.9947991151409
 51
325.5884913302288
  0
ARC
  5
39C
330
A2
100
AcDbEntity
  8
1
  6
Continuous
 62
     7
100
AcDbCircle
 10
225.9999993560198
 20
455.90041102396
 30
0.0
 40
16.75000000000055
100
AcDbArc
 50
146.4243920788188
 51
153.5756079211802
  0
ARC
  5
39D
330
A2
100
AcDbEntity
  8
1
  6
Continuous
 62
     7
100
AcDbCircle
 10
225.9999993560198
 20
455.90041102396
 30
0.0
 40
16.74999999999951
100
AcDbArc
 50
86.42439207882039
 51
93.57560792118029
  0
ARC
  5
39E
330
A2
100
AcDbEntity
  8
1
  6
Continuous
 62
     7
100
AcDbCircle
 10
225.9999993560198
 20
455.90041102396
 30
0.0
 40
16.75000000000009
100
AcDbArc
 50
206.4243920788196
 51
213.575607921181
  0
ARC
  5
39F
330
A2
100
AcDbEntity
  8
1
  6
Continuous
 62
     7
100
AcDbCircle
 10
225.9999993560198
 20
455.90041102396
 30
0.0
 40
16.74999999999952
100
AcDbArc
 50
266.4243920788197
 51
273.5756079211796
  0
CIRCLE
  5
3A0
330
A2
100
AcDbEntity
  8
1
  6
Continuous
 62
     7
100
AcDbCircle
 10
233.4999978329042
 20
811.3805564168018
 30
0.0
 40
5.651024957037009
  0
CIRCLE
  5
3A1
330
A2
100
AcDbEntity
  8
1
  6
Continuous
 62
     7
100
AcDbCircle
 10
218.4999978329042
 20
811.3805564168018
 30
0.0
 40
5.651024957037009
  0
ENDBLK
  5
A4
330
A2
100
AcDbEntity
  8
0
100
AcDbBlockEnd
  0
BLOCK
  5
A6
330
A5
100
AcDbEntity
  8
0
100
AcDbBlockBegin
  2
78-3A-C4K__17
 70
     0
 10
1830.999999250891
 20
395.5450709092976
 30
0.0
  3
78-3A-C4K__17
  1

  0
LINE
  5
3A2
330
A5
100
AcDbEntity
  8
1
  6
Continuous
 62
     7
100
AcDbLine
 10
165.6446587735766
 20
851.4999952807068
 30
0.0
 11
215.6446587735766
 21
851.4999952807068
 31
0.0
  0
LINE
  5
3A3
330
A5
100
AcDbEntity
  8
1
  6
Continuous
 62
     7
100
AcDbLine
 10
168.2748600173406
 20
849.1364326739467
 30
0.0
 11
213.0144575298116
 21
849.1364326739467
 31
0.0
  0
LINE
  5
3A4
330
A5
100
AcDbEntity
  8
1
  6
Continuous
 62
     7
100
AcDbLine
 10
166.0199637260225
 20
848.4997513187498
 30
0.0
 11
177.3707447853806
 21
841.0191264712638
 31
0.0
  0
LINE
  5
3A5
330
A5
100
AcDbEntity
  8
1
  6
Continuous
 62
     7
100
AcDbLine
 10
203.2938777142176
 20
840.7999952807068
 30
0.0
 11
177.9954398329346
 21
840.7999952807068
 31
0.0
  0
LINE
  5
3A6
330
A5
100
AcDbEntity
  8
1
  6
Continuous
 62
     7
100
AcDbLine
 10
215.2693538211306
 20
848.4997513187498
 30
0.0
 11
203.9185727617717
 21
841.0191264712638
 31
0.0
  0
LINE
  5
3A7
330
A5
100
AcDbEntity
  8
1
  6
Continuous
 62
     7
100
AcDbLine
 10
215.6446587735766
 20
849.2806201281928
 30
0.0
 11
215.6446587735766
 21
851.4999952807068
 31
0.0
  0
LINE
  5
3A8
330
A5
100
AcDbEntity
  8
1
  6
Continuous
 62
     7
100
AcDbLine
 10
165.6446587735766
 20
851.4999952807068
 30
0.0
 11
165.6446587735766
 21
849.2806201281928
 31
0.0
  0
ARC
  5
3A9
330
A5
100
AcDbEntity
  8
1
  6
Continuous
 62
     7
100
AcDbCircle
 10
190.6446622326762
 20
420.5450741377339
 30
0.0
 40
24.99999999999998
100
AcDbArc
 50
72.38710750265459
 51
17.61289249734615
  0
ARC
  5
3AA
330
A5
100
AcDbEntity
  8
1
  6
Continuous
 62
     7
100
AcDbCircle
 10
214.6446587735766
 20
849.2806201281928
 30
0.0
 40
0.9999999999997692
100
AcDbArc
 50
308.6598082540705
 51
0.0
  0
ARC
  5
3AB
330
A5
100
AcDbEntity
  8
1
  6
Continuous
 62
     7
100
AcDbCircle
 10
166.6446587735766
 20
849.2806201281928
 30
0.0
 40
1.0
100
AcDbArc
 50
180.0
 51
231.3401917459257
  0
ARC
  5
3AC
330
A5
100
AcDbEntity
  8
1
  6
Continuous
 62
     7
100
AcDbCircle
 10
177.9954398329346
 20
841.7999952807068
 30
0.0
 40
0.9999999999996804
100
AcDbArc
 50
231.3401917459254
 51
270.0
  0
ARC
  5
3AD
330
A5
100
AcDbEntity
  8
1
  6
Continuous
 62
     7
100
AcDbCircle
 10
203.2938777142176
 20
841.7999952807068
 30
0.0
 40
1.0
100
AcDbArc
 50
270.0
 51
308.6598082540797
  0
ENDBLK
  5
A7
330
A5
100
AcDbEntity
  8
0
100
AcDbBlockEnd
  0
BLOCK
  5
AE
330
A8
100
AcDbEntity
  8
0
100
AcDbBlockBegin
  2
U3-48F-50__18
 70
     0
 10
1718.499999250891
 20
690.500000000001
 30
0.0
  3
U3-48F-50__18
  1

  0
INSERT
  5
A9
330
A8
100
AcDbEntity
  8
1
100
AcDbBlockReference
  2
30-108XK__13
 10
1861.144659932164
 20
411.0450696761072
 30
0.0
  0
INSERT
  5
AA
330
A8
100
AcDbEntity
  8
1
100
AcDbBlockReference
  2
35-6A-8-C2K__14
 10
1897.600003358569
 20
817.880561136096
 30
0.0
  0
INSERT
  5
AB
330
A8
100
AcDbEntity
  8
1
100
AcDbBlockReference
  2
03-47-50-M1K__15
 10
1844.499999250891
 20
409.0450709092976
 30
0.0
  0
INSERT
  5
AC
330
A8
100
AcDbEntity
  8
1
100
AcDbBlockReference
  2
32-3-M1K__16
 10
1890.99999925089
 20
439.1504102138985
 30
0.0
  0
INSERT
  5
AD
330
A8
100
AcDbEntity
  8
1
100
AcDbBlockReference
  2
78-3A-C4K__17
 10
1830.999999250891
 20
395.5450709092976
 30
0.0
  0
ENDBLK
  5
AF
330
A8
100
AcDbEntity
  8
0
100
AcDbBlockEnd
  0
BLOCK
  5
3F1
330
3EA
100
AcDbEntity
  8
0
100
AcDbBlockBegin
  2
*D29
 70
     1
 10
0.0
 20
0.0
 30
0.0
  3
*D29
  1

  0
LINE
  5
3EB
330
3EA
100
AcDbEntity
  8
1
  6
Continuous
 62
     2
100
AcDbLine
 10
533.880155081096
 20
548.4413997037054
 30
0.0
 11
533.880155081096
 21
455.900410213898
 31
0.0
  0
LINE
  5
3EC
330
3EA
100
AcDbEntity
  8
1
  6
Continuous
 62
     2
100
AcDbLine
 10
648.499999246241
 20
455.900410213898
 30
0.0
 11
529.880155081096
 21
455.900410213898
 31
0.0
  0
LINE
  5
3ED
330
3EA
100
AcDbEntity
  8
1
  6
Continuous
 62
     2
100
AcDbLine
 10
575.789981805039
 20
548.4413997037054
 30
0.0
 11
529.880155081096
 21
548.4413997037054
 31
0.0
  0
SOLID
  5
3EE
330
3EA
100
AcDbEntity
  8
1
 62
     2
100
AcDbTrace
 10
535.7232900473194
 20
534.4413997037054
 30
0.0
 11
532.0370201148725
 21
534.4413997037054
 31
0.0
 12
533.880155081096
 22
548.4413997037054
 32
0.0
 13
533.880155081096
 23
548.4413997037054
 33
0.0
  0
SOLID
  5
3EF
330
3EA
100
AcDbEntity
  8
1
 62
     2
100
AcDbTrace
 10
532.0370201148725
 20
469.900410213898
 30
0.0
 11
535.7232900473194
 21
469.900410213898
 31
0.0
 12
533.880155081096
 22
455.900410213898
 32
0.0
 13
533.880155081096
 23
455.900410213898
 33
0.0
  0
MTEXT
  5
3F0
330
3EA
100
AcDbEntity
  8
1
 62
     7
100
AcDbMText
 10
529.880155081096
 20
485.2484049588018
 30
0.0
 40
14.0
 41
0.0
 71
     7
 72
     1
  1
\C7;最小\C7;93
  7
CONVERTER_11
 11
0.0
 21
1.0
 31
0.0
 73
     1
 44
0.45454545454545
  0
ENDBLK
  5
3F2
330
3EA
100
AcDbEntity
  8
0
100
AcDbBlockEnd
  0
BLOCK
  5
3FC
330
3F5
100
AcDbEntity
  8
0
100
AcDbBlockBegin
  2
*D30
 70
     1
 10
0.0
 20
0.0
 30
0.0
  3
*D30
  1

  0
LINE
  5
3F6
330
3F5
100
AcDbEntity
  8
1
  6
Continuous
 62
     2
100
AcDbLine
 10
501.880155081096
 20
584.6654516674914
 30
0.0
 11
501.880155081096
 21
455.900410213898
 31
0.0
  0
LINE
  5
3F7
330
3F5
100
AcDbEntity
  8
1
  6
Continuous
 62
     2
100
AcDbLine
 10
648.4999992462411
 20
455.900410213898
 30
0.0
 11
497.880155081096
 21
455.900410213898
 31
0.0
  0
LINE
  5
3F8
330
3F5
100
AcDbEntity
  8
1
  6
Continuous
 62
     2
100
AcDbLine
 10
609.061688106228
 20
584.6654516674914
 30
0.0
 11
497.880155081096
 21
584.6654516674914
 31
0.0
  0
SOLID
  5
3F9
330
3F5
100
AcDbEntity
  8
1
 62
     2
100
AcDbTrace
 10
503.7232900473196
 20
570.6654516674914
 30
0.0
 11
500.0370201148725
 21
570.6654516674914
 31
0.0
 12
501.880155081096
 22
584.6654516674914
 32
0.0
 13
501.880155081096
 23
584.6654516674914
 33
0.0
  0
SOLID
  5
3FA
330
3F5
100
AcDbEntity
  8
1
 62
     2
100
AcDbTrace
 10
500.0370201148725
 20
469.900410213898
 30
0.0
 11
503.7232900473196
 21
469.900410213898
 31
0.0
 12
501.880155081096
 22
455.900410213898
 32
0.0
 13
501.880155081096
 23
455.900410213898
 33
0.0
  0
MTEXT
  5
3FB
330
3F5
100
AcDbEntity
  8
1
 62
     7
100
AcDbMText
 10
497.880155081096
 20
499.1604309406948
 30
0.0
 40
14.0
 41
0.0
 71
     7
 72
     1
  1
\C7;最大\C7;129
  7
CONVERTER_11
 11
0.0
 21
1.0
 31
0.0
 73
     1
 44
0.45454545454545
  0
ENDBLK
  5
3FD
330
3F5
100
AcDbEntity
  8
0
100
AcDbBlockEnd
  0
BLOCK
  5
409
330
400
100
AcDbEntity
  8
0
100
AcDbBlockBegin
  2
*D31
 70
     1
 10
0.0
 20
0.0
 30
0.0
  3
*D31
  1

  0
LINE
  5
401
330
400
100
AcDbEntity
  8
1
  6
Continuous
 62
     2
100
AcDbLine
 10
685.999999246241
 20
327.4004081600592
 30
0.0
 11
716.822221565003
 21
327.4004081600592
 31
0.0
  0
LINE
  5
402
330
400
100
AcDbEntity
  8
1
  6
Continuous
 62
     2
100
AcDbLine
 10
673.999999246241
 20
327.4004081600592
 30
0.0
 11
685.999999246241
 21
327.4004081600592
 31
0.0
  0
LINE
  5
403
330
400
100
AcDbEntity
  8
1
  6
Continuous
 62
     2
100
AcDbLine
 10
645.999999246241
 20
327.4004081600592
 30
0.0
 11
673.999999246241
 21
327.4004081600592
 31
0.0
  0
LINE
  5
404
330
400
100
AcDbEntity
  8
1
  6
Continuous
 62
     2
100
AcDbLine
 10
685.999999246241
 20
420.9004081600592
 30
0.0
 11
685.999999246241
 21
323.4004081600592
 31
0.0
  0
LINE
  5
405
330
400
100
AcDbEntity
  8
1
  6
Continuous
 62
     2
100
AcDbLine
 10
673.999999246241
 20
455.400410213898
 30
0.0
 11
673.999999246241
 21
323.4004081600592
 31
0.0
  0
SOLID
  5
406
330
400
100
AcDbEntity
  8
1
 62
     2
100
AcDbTrace
 10
659.999999246241
 20
325.5572731938357
 30
0.0
 11
659.999999246241
 21
329.2435431262828
 31
0.0
 12
673.999999246241
 22
327.4004081600592
 32
0.0
 13
673.999999246241
 23
327.4004081600592
 33
0.0
  0
SOLID
  5
407
330
400
100
AcDbEntity
  8
1
 62
     2
100
AcDbTrace
 10
699.999999246241
 20
329.2435431262828
 30
0.0
 11
699.999999246241
 21
325.5572731938357
 31
0.0
 12
685.999999246241
 22
327.4004081600592
 32
0.0
 13
685.999999246241
 23
327.4004081600592
 33
0.0
  0
MTEXT
  5
408
330
400
100
AcDbEntity
  8
1
 62
     7
100
AcDbMText
 10
700.0222215650031
 20
331.4004081600592
 30
0.0
 40
14.0
 41
0.0
 71
     7
 72
     1
  1
12
  7
CONVERTER_12
 11
0.9999999999970619
 21
2.424068405545306E-6
 31
0.0
 73
     1
 44
0.60024009603842
  0
ENDBLK
  5
40A
330
400
100
AcDbEntity
  8
0
100
AcDbBlockEnd
  0
BLOCK
  5
414
330
40D
100
AcDbEntity
  8
0
100
AcDbBlockBegin
  2
*D32
 70
     1
 10
0.0
 20
0.0
 30
0.0
  3
*D32
  1

  0
LINE
  5
40E
330
40D
100
AcDbEntity
  8
1
  6
Continuous
 62
     2
100
AcDbLine
 10
673.999999246241
 20
295.4004081600592
 30
0.0
 11
755.4999992462405
 21
295.4004081600592
 31
0.0
  0
LINE
  5
40F
330
40D
100
AcDbEntity
  8
1
  6
Continuous
 62
     2
100
AcDbLine
 10
755.4999992462405
 20
395.5450729064874
 30
0.0
 11
755.4999992462405
 21
291.4004081600592
 31
0.0
  0
LINE
  5
410
330
40D
100
AcDbEntity
  8
1
  6
Continuous
 62
     2
100
AcDbLine
 10
673.999999246241
 20
455.400410213898
 30
0.0
 11
673.999999246241
 21
291.4004081600592
 31
0.0
  0
SOLID
  5
411
330
40D
100
AcDbEntity
  8
1
 62
     2
100
AcDbTrace
 10
687.999999246241
 20
297.2435431262828
 30
0.0
 11
687.999999246241
 21
293.5572731938357
 31
0.0
 12
673.999999246241
 22
295.4004081600592
 32
0.0
 13
673.999999246241
 23
295.4004081600592
 33
0.0
  0
SOLID
  5
412
330
40D
100
AcDbEntity
  8
1
 62
     2
100
AcDbTrace
 10
741.4999992462405
 20
293.5572731938357
 30
0.0
 11
741.4999992462405
 21
297.2435431262828
 31
0.0
 12
755.4999992462405
 22
295.4004081600592
 32
0.0
 13
755.4999992462405
 23
295.4004081600592
 33
0.0
  0
MTEXT
  5
413
330
40D
100
AcDbEntity
  8
1
 62
     7
100
AcDbMText
 10
704.2499992462408
 20
299.4004081600592
 30
0.0
 40
14.0
 41
0.0
 71
     7
 72
     1
  1
82
  7
CONVERTER_12
 11
0.9999999999970619
 21
2.424068405545306E-6
 31
0.0
 73
     1
 44
0.60024009603842
  0
ENDBLK
  5
415
330
40D
100
AcDbEntity
  8
0
100
AcDbBlockEnd
  0
BLOCK
  5
41F
330
418
100
AcDbEntity
  8
0
100
AcDbBlockBegin
  2
*D33
 70
     1
 10
0.0
 20
0.0
 30
0.0
  3
*D33
  1

  0
LINE
  5
419
330
418
100
AcDbEntity
  8
1
  6
Continuous
 62
     2
100
AcDbLine
 10
495.999999246241
 20
263.4004081600592
 30
0.0
 11
685.999999246241
 21
263.4004081600592
 31
0.0
  0
LINE
  5
41A
330
418
100
AcDbEntity
  8
1
  6
Continuous
 62
     2
100
AcDbLine
 10
685.999999246241
 20
420.9004081600592
 30
0.0
 11
685.999999246241
 21
259.4004081600592
 31
0.0
  0
LINE
  5
41B
330
418
100
AcDbEntity
  8
1
  6
Continuous
 62
     2
100
AcDbLine
 10
495.999999246241
 20
362.9004081600582
 30
0.0
 11
495.999999246241
 21
259.4004081600592
 31
0.0
  0
SOLID
  5
41C
330
418
100
AcDbEntity
  8
1
 62
     2
100
AcDbTrace
 10
509.999999246241
 20
265.2435431262828
 30
0.0
 11
509.999999246241
 21
261.5572731938357
 31
0.0
 12
495.999999246241
 22
263.4004081600592
 32
0.0
 13
495.999999246241
 23
263.4004081600592
 33
0.0
  0
SOLID
  5
41D
330
418
100
AcDbEntity
  8
1
 62
     2
100
AcDbTrace
 10
671.999999246241
 20
261.5572731938357
 30
0.0
 11
671.999999246241
 21
265.2435431262828
 31
0.0
 12
685.999999246241
 22
263.4004081600592
 32
0.0
 13
685.999999246241
 23
263.4004081600592
 33
0.0
  0
MTEXT
  5
41E
330
418
100
AcDbEntity
  8
1
 62
     7
100
AcDbMText
 10
576.299999246241
 20
267.4004081600592
 30
0.0
 40
14.0
 41
0.0
 71
     7
 72
     1
  1
190
  7
CONVERTER_12
 11
0.9999999999970619
 21
2.424068405545306E-6
 31
0.0
 73
     1
 44
0.60024009603842
  0
ENDBLK
  5
420
330
418
100
AcDbEntity
  8
0
100
AcDbBlockEnd
  0
BLOCK
  5
42A
330
423
100
AcDbEntity
  8
0
100
AcDbBlockBegin
  2
*D34
 70
     1
 10
0.0
 20
0.0
 30
0.0
  3
*D34
  1

  0
LINE
  5
424
330
423
100
AcDbEntity
  8
1
  6
Continuous
 62
     2
100
AcDbLine
 10
226.0000000107
 20
905.4999952807068
 30
0.0
 11
345.999999945848
 21
905.4999952807068
 31
0.0
  0
LINE
  5
425
330
423
100
AcDbEntity
  8
1
  6
Continuous
 62
     2
100
AcDbLine
 10
345.999999945848
 20
839.61652990637
 30
0.0
 11
345.999999945848
 21
909.4999952807068
 31
0.0
  0
LINE
  5
426
330
423
100
AcDbEntity
  8
1
  6
Continuous
 62
     2
100
AcDbLine
 10
226.0000000107
 20
839.61652990637
 30
0.0
 11
226.0000000107
 21
909.4999952807068
 31
0.0
  0
SOLID
  5
427
330
423
100
AcDbEntity
  8
1
 62
     2
100
AcDbTrace
 10
240.0000000107
 20
907.3431302469303
 30
0.0
 11
240.0000000107
 21
903.6568603144833
 31
0.0
 12
226.0000000107
 22
905.4999952807068
 32
0.0
 13
226.0000000107
 23
905.4999952807068
 33
0.0
  0
SOLID
  5
428
330
423
100
AcDbEntity
  8
1
 62
     2
100
AcDbTrace
 10
331.999999945848
 20
903.6568603144833
 30
0.0
 11
331.999999945848
 21
907.3431302469303
 31
0.0
 12
345.999999945848
 22
905.4999952807068
 32
0.0
 13
345.999999945848
 23
905.4999952807068
 33
0.0
  0
MTEXT
  5
429
330
423
100
AcDbEntity
  8
1
 62
     7
100
AcDbMText
 10
271.3
 20
909.4999952807068
 30
0.0
 40
14.0
 41
0.0
 71
     7
 72
     1
  1
120
  7
CONVERTER_12
 11
0.9999999999970619
 21
2.424068405545306E-6
 31
0.0
 73
     1
 44
0.60024009603842
  0
ENDBLK
  5
42B
330
423
100
AcDbEntity
  8
0
100
AcDbBlockEnd
  0
BLOCK
  5
435
330
42E
100
AcDbEntity
  8
0
100
AcDbBlockBegin
  2
*D35
 70
     1
 10
0.0
 20
0.0
 30
0.0
  3
*D35
  1

  0
LINE
  5
42F
330
42E
100
AcDbEntity
  8
1
  6
Continuous
 62
     2
100
AcDbLine
 10
190.6446602464395
 20
937.4999952807068
 30
0.0
 11
381.3610153344037
 21
937.4999952807068
 31
0.0
  0
LINE
  5
430
330
42E
100
AcDbEntity
  8
1
  6
Continuous
 62
     2
100
AcDbLine
 10
381.3610153344037
 20
876.25
 30
0.0
 11
381.3610153344037
 21
941.4999952807068
 31
0.0
  0
LINE
  5
431
330
42E
100
AcDbEntity
  8
1
  6
Continuous
 62
     2
100
AcDbLine
 10
190.6446602464395
 20
876.25
 30
0.0
 11
190.6446602464395
 21
941.4999952807068
 31
0.0
  0
SOLID
  5
432
330
42E
100
AcDbEntity
  8
1
 62
     2
100
AcDbTrace
 10
204.6446602464395
 20
939.3431302469303
 30
0.0
 11
204.6446602464395
 21
935.6568603144833
 31
0.0
 12
190.6446602464395
 22
937.4999952807068
 32
0.0
 13
190.6446602464395
 23
937.4999952807068
 33
0.0
  0
SOLID
  5
433
330
42E
100
AcDbEntity
  8
1
 62
     2
100
AcDbTrace
 10
367.3610153344037
 20
935.6568603144833
 30
0.0
 11
367.3610153344037
 21
939.3431302469303
 31
0.0
 12
381.3610153344037
 22
937.4999952807068
 32
0.0
 13
381.3610153344037
 23
937.4999952807068
 33
0.0
  0
MTEXT
  5
434
330
42E
100
AcDbEntity
  8
1
 62
     7
100
AcDbMText
 10
230.7175000001349
 20
941.4998839674856
 30
0.0
 40
14.0
 41
0.0
 71
     7
 72
     1
  1
\C7;取付寸法\C7;120～220
  7
CONVERTER_11
 11
0.9999999999970619
 21
2.424068405545306E-6
 31
0.0
 73
     1
 44
0.45454545454545
  0
ENDBLK
  5
436
330
42E
100
AcDbEntity
  8
0
100
AcDbBlockEnd
  0
BLOCK
  5
441
330
439
100
AcDbEntity
  8
0
100
AcDbBlockBegin
  2
*D36
 70
     1
 10
0.0
 20
0.0
 30
0.0
  3
*D36
  1

  0
LINE
  5
43A
330
439
100
AcDbEntity
  8
1
  6
Continuous
 62
     2
100
AcDbLine
 10
123.4042114868235
 20
905.4999952807068
 30
0.0
 11
165.6446587735765
 21
905.4999952807068
 31
0.0
  0
LINE
  5
43B
330
439
100
AcDbEntity
  8
1
  6
Continuous
 62
     2
100
AcDbLine
 10
165.6446587735765
 20
905.4999952807068
 30
0.0
 11
215.6446587735765
 21
905.4999952807068
 31
0.0
  0
LINE
  5
43C
330
439
100
AcDbEntity
  8
1
  6
Continuous
 62
     2
100
AcDbLine
 10
165.6446587735765
 20
851.4999952807068
 30
0.0
 11
165.6446587735765
 21
909.4999952807068
 31
0.0
  0
LINE
  5
43D
330
439
100
AcDbEntity
  8
1
  6
Continuous
 62
     2
100
AcDbLine
 10
215.6446587735765
 20
851.4999952807068
 30
0.0
 11
215.6446587735765
 21
909.4999952807068
 31
0.0
  0
SOLID
  5
43E
330
439
100
AcDbEntity
  8
1
 62
     2
100
AcDbTrace
 10
179.6446587735765
 20
907.3431302469303
 30
0.0
 11
179.6446587735765
 21
903.6568603144833
 31
0.0
 12
165.6446587735765
 22
905.4999952807068
 32
0.0
 13
165.6446587735765
 23
905.4999952807068
 33
0.0
  0
SOLID
  5
43F
330
439
100
AcDbEntity
  8
1
 62
     2
100
AcDbTrace
 10
201.6446587735765
 20
903.6568603144833
 30
0.0
 11
201.6446587735765
 21
907.3431302469303
 31
0.0
 12
215.6446587735765
 22
905.4999952807068
 32
0.0
 13
215.6446587735765
 23
905.4999952807068
 33
0.0
  0
MTEXT
  5
440
330
439
100
AcDbEntity
  8
1
 62
     7
100
AcDbMText
 10
128.7242114868572
 20
909.4999674524015
 30
0.0
 40
14.0
 41
0.0
 71
     7
 72
     1
  1
\C7;{\Fgdt;n}\C7;50
  7
CONVERTER_12
 11
0.9999999999970619
 21
2.424068405545306E-6
 31
0.0
 73
     1
 44
0.60024009603842
  0
ENDBLK
  5
442
330
439
100
AcDbEntity
  8
0
100
AcDbBlockEnd
  0
BLOCK
  5
44C
330
445
100
AcDbEntity
  8
0
100
AcDbBlockBegin
  2
*D37
 70
     1
 10
0.0
 20
0.0
 30
0.0
  3
*D37
  1

  0
LINE
  5
446
330
445
100
AcDbEntity
  8
1
  6
Continuous
 62
     2
100
AcDbLine
 10
362.4367871202828
 20
630.0
 30
0.0
 11
286.0
 21
630.0
 31
0.0
  0
LINE
  5
447
330
445
100
AcDbEntity
  8
1
  6
Continuous
 62
     2
100
AcDbLine
 10
362.4367871202828
 20
705.973577290634
 30
0.0
 11
362.4367871202828
 21
626.0
 31
0.0
  0
LINE
  5
448
330
445
100
AcDbEntity
  8
1
  6
Continuous
 62
     2
100
AcDbLine
 10
286.0
 20
565.0
 30
0.0
 11
286.0
 21
634.0
 31
0.0
  0
SOLID
  5
449
330
445
100
AcDbEntity
  8
1
 62
     2
100
AcDbTrace
 10
348.4367871202828
 20
628.1568650337765
 30
0.0
 11
348.4367871202828
 21
631.8431349662235
 31
0.0
 12
362.4367871202828
 22
630.0
 32
0.0
 13
362.4367871202828
 23
630.0
 33
0.0
  0
SOLID
  5
44A
330
445
100
AcDbEntity
  8
1
 62
     2
100
AcDbTrace
 10
300.0
 20
631.8431349662235
 30
0.0
 11
300.0
 21
628.1568650337765
 31
0.0
 12
286.0
 22
630.0
 32
0.0
 13
286.0
 23
630.0
 33
0.0
  0
MTEXT
  5
44B
330
445
100
AcDbEntity
  8
1
 62
     7
100
AcDbMText
 10
313.7183935601414
 20
634.0
 30
0.0
 40
14.0
 41
0.0
 71
     7
 72
     1
  1
76
  7
CONVERTER_12
 11
0.9999999999970619
 21
2.424068405545306E-6
 31
0.0
 73
     1
 44
0.60024009603842
  0
ENDBLK
  5
44D
330
445
100
AcDbEntity
  8
0
100
AcDbBlockEnd
  0
BLOCK
  5
457
330
450
100
AcDbEntity
  8
0
100
AcDbBlockBegin
  2
*D38
 70
     1
 10
0.0
 20
0.0
 30
0.0
  3
*D38
  1

  0
LINE
  5
451
330
450
100
AcDbEntity
  8
1
  6
Continuous
 62
     2
100
AcDbLine
 10
209.5632083610141
 20
630.0
 30
0.0
 11
286.0
 21
630.0
 31
0.0
  0
LINE
  5
452
330
450
100
AcDbEntity
  8
1
  6
Continuous
 62
     2
100
AcDbLine
 10
209.5632083610141
 20
705.973576879608
 30
0.0
 11
209.5632083610141
 21
626.0
 31
0.0
  0
LINE
  5
453
330
450
100
AcDbEntity
  8
1
  6
Continuous
 62
     2
100
AcDbLine
 10
286.0
 20
565.0
 30
0.0
 11
286.0
 21
634.0
 31
0.0
  0
SOLID
  5
454
330
450
100
AcDbEntity
  8
1
 62
     2
100
AcDbTrace
 10
223.5632083610141
 20
631.8431349662235
 30
0.0
 11
223.5632083610141
 21
628.1568650337765
 31
0.0
 12
209.5632083610141
 22
630.0
 32
0.0
 13
209.5632083610141
 23
630.0
 33
0.0
  0
SOLID
  5
455
330
450
100
AcDbEntity
  8
1
 62
     2
100
AcDbTrace
 10
272.0
 20
628.1568650337765
 30
0.0
 11
272.0
 21
631.8431349662235
 31
0.0
 12
286.0
 22
630.0
 32
0.0
 13
286.0
 23
630.0
 33
0.0
  0
MTEXT
  5
456
330
450
100
AcDbEntity
  8
1
 62
     7
100
AcDbMText
 10
237.316164048107
 20
634.0
 30
0.0
 40
14.0
 41
0.0
 71
     7
 72
     1
  1
76
  7
CONVERTER_12
 11
0.9999999999970619
 21
2.424068405545306E-6
 31
0.0
 73
     1
 44
0.60024009603842
  0
ENDBLK
  5
458
330
450
100
AcDbEntity
  8
0
100
AcDbBlockEnd
  0
BLOCK
  5
462
330
45B
100
AcDbEntity
  8
0
100
AcDbBlockBegin
  2
*D39
 70
     1
 10
0.0
 20
0.0
 30
0.0
  3
*D39
  1

  0
LINE
  5
45C
330
45B
100
AcDbEntity
  8
1
  6
Continuous
 62
     2
100
AcDbLine
 10
573.880155081096
 20
625.165451667492
 30
0.0
 11
673.999999246242
 21
625.165451667492
 31
0.0
  0
LINE
  5
45D
330
45B
100
AcDbEntity
  8
1
  6
Continuous
 62
     2
100
AcDbLine
 10
573.880155081096
 20
544.5305851381024
 30
0.0
 11
573.880155081096
 21
629.165451667492
 31
0.0
  0
LINE
  5
45E
330
45B
100
AcDbEntity
  8
1
  6
Continuous
 62
     2
100
AcDbLine
 10
673.999999246242
 20
528.516274339528
 30
0.0
 11
673.999999246242
 21
629.165451667492
 31
0.0
  0
SOLID
  5
45F
330
45B
100
AcDbEntity
  8
1
 62
     2
100
AcDbTrace
 10
587.880155081096
 20
627.0085866337155
 30
0.0
 11
587.880155081096
 21
623.3223167012685
 31
0.0
 12
573.880155081096
 22
625.165451667492
 32
0.0
 13
573.880155081096
 23
625.165451667492
 33
0.0
  0
SOLID
  5
460
330
45B
100
AcDbEntity
  8
1
 62
     2
100
AcDbTrace
 10
659.999999246242
 20
623.3223167012685
 30
0.0
 11
659.999999246242
 21
627.0085866337155
 31
0.0
 12
673.999999246242
 22
625.165451667492
 32
0.0
 13
673.999999246242
 23
625.165451667492
 33
0.0
  0
MTEXT
  5
461
330
45B
100
AcDbEntity
  8
1
 62
     7
100
AcDbMText
 10
609.240077163669
 20
629.165451667492
 30
0.0
 40
14.0
 41
0.0
 71
     7
 72
     1
  1
100
  7
CONVERTER_12
 11
0.9999999999970619
 21
2.424068405545306E-6
 31
0.0
 73
     1
 44
0.60024009603842
  0
ENDBLK
  5
463
330
45B
100
AcDbEntity
  8
0
100
AcDbBlockEnd
  0
BLOCK
  5
46D
330
466
100
AcDbEntity
  8
0
100
AcDbBlockBegin
  2
*D40
 70
     1
 10
0.0
 20
0.0
 30
0.0
  3
*D40
  1

  0
LINE
  5
467
330
466
100
AcDbEntity
  8
1
  6
Continuous
 62
     2
100
AcDbLine
 10
159.1833088224685
 20
452.0064218736085
 30
0.0
 11
194.5386478817956
 21
487.3617609329356
 31
0.0
  0
LINE
  5
468
330
466
100
AcDbEntity
  8
1
  6
Continuous
 62
     2
100
AcDbLine
 10
190.6446595415061
 20
420.545071154571
 30
0.0
 11
156.3548816977224
 21
454.8348489983547
 31
0.0
  0
LINE
  5
469
330
466
100
AcDbEntity
  8
1
  6
Continuous
 62
     2
100
AcDbLine
 10
225.9999986008332
 20
455.900410213898
 30
0.0
 11
191.7102207570495
 21
490.1901880576818
 31
0.0
  0
SOLID
  5
46A
330
466
100
AcDbEntity
  8
1
 62
     2
100
AcDbTrace
 10
167.7795105258215
 20
463.2092100434789
 30
0.0
 11
170.3860969923389
 21
460.6026235769615
 31
0.0
 12
159.1833088224685
 22
452.0064218736085
 32
0.0
 13
159.1833088224685
 23
452.0064218736085
 33
0.0
  0
SOLID
  5
46B
330
466
100
AcDbEntity
  8
1
 62
     2
100
AcDbTrace
 10
185.9424461784427
 20
476.1589727630652
 30
0.0
 11
183.3358597119253
 21
478.7655592295826
 31
0.0
 12
194.5386478817956
 22
487.3617609329356
 32
0.0
 13
194.5386478817956
 23
487.3617609329356
 33
0.0
  0
MTEXT
  5
46C
330
466
100
AcDbEntity
  8
1
 62
     7
100
AcDbMText
 10
167.6334700021931
 20
466.1134373028254
 30
0.0
 40
14.0
 41
0.0
 71
     7
 72
     1
  1
50
  7
CONVERTER_12
 11
0.7071067811865481
 21
0.7071067811865469
 31
0.0
 73
     1
 44
0.60024009603842
  0
ENDBLK
  5
46E
330
466
100
AcDbEntity
  8
0
100
AcDbBlockEnd
  0
BLOCK
  5
478
330
471
100
AcDbEntity
  8
0
100
AcDbBlockBegin
  2
*D41
 70
     1
 10
0.0
 20
0.0
 30
0.0
  3
*D41
  1

  0
LINE
  5
472
330
471
100
AcDbEntity
  8
1
  6
Continuous
 62
     2
100
AcDbLine
 10
446.3553372214697
 20
455.900410213898
 30
0.0
 11
446.3553372214697
 21
367.4004068455112
 31
0.0
  0
LINE
  5
473
330
471
100
AcDbEntity
  8
1
  6
Continuous
 62
     2
100
AcDbLine
 10
374.0684620624914
 20
455.900410213898
 30
0.0
 11
450.3553372214697
 21
455.900410213898
 31
0.0
  0
LINE
  5
474
330
471
100
AcDbEntity
  8
1
  6
Continuous
 62
     2
100
AcDbLine
 10
296.743337395216
 20
367.4004068455112
 30
0.0
 11
450.3553372214697
 21
367.4004068455112
 31
0.0
  0
SOLID
  5
475
330
471
100
AcDbEntity
  8
1
 62
     2
100
AcDbTrace
 10
448.1984721876933
 20
441.900410213898
 30
0.0
 11
444.5122022552462
 21
441.900410213898
 31
0.0
 12
446.3553372214697
 22
455.900410213898
 32
0.0
 13
446.3553372214697
 23
455.900410213898
 33
0.0
  0
SOLID
  5
476
330
471
100
AcDbEntity
  8
1
 62
     2
100
AcDbTrace
 10
444.5122022552462
 20
381.4004068455112
 30
0.0
 11
448.1984721876933
 21
381.4004068455112
 31
0.0
 12
446.3553372214697
 22
367.4004068455112
 32
0.0
 13
446.3553372214697
 23
367.4004068455112
 33
0.0
  0
MTEXT
  5
477
330
471
100
AcDbEntity
  8
1
 62
     7
100
AcDbMText
 10
442.3553372214697
 20
401.535862905622
 30
0.0
 40
14.0
 41
0.0
 71
     7
 72
     1
  1
89
  7
CONVERTER_12
 11
0.0
 21
1.0
 31
0.0
 73
     1
 44
0.60024009603842
  0
ENDBLK
  5
479
330
471
100
AcDbEntity
  8
0
100
AcDbBlockEnd
  0
BLOCK
  5
485
330
47C
100
AcDbEntity
  8
0
100
AcDbBlockBegin
  2
*D42
 70
     1
 10
0.0
 20
0.0
 30
0.0
  3
*D42
  1

  0
LINE
  5
47D
330
47C
100
AcDbEntity
  8
1
  6
Continuous
 62
     2
100
AcDbLine
 10
358.831996202862
 20
697.167999689462
 30
0.0
 11
431.2824375206865
 21
624.7175583716382
 31
0.0
  0
LINE
  5
47E
330
47C
100
AcDbEntity
  8
1
  6
Continuous
 62
     2
100
AcDbLine
 10
286.0
 20
565.0
 30
0.0
 11
286.0
 21
564.5396023759477
 31
0.0
  0
LINE
  5
47F
330
47C
100
AcDbEntity
  8
1
  6
Continuous
 62
     2
100
AcDbLine
 10
431.2824375206865
 20
624.7175583716382
 30
0.0
 11
434.1108646454327
 21
621.8891312468921
 31
0.0
  0
LINE
  5
480
330
47C
100
AcDbEntity
  8
1
  6
Continuous
 62
     2
100
AcDbLine
 10
286.0
 20
564.5396023759477
 30
0.0
 11
286.0
 21
560.5396023759477
 31
0.0
  0
ARC
  5
481
330
47C
100
AcDbEntity
  8
1
  6
Continuous
 62
     2
100
AcDbCircle
 10
286.0
 20
769.9999958923232
 30
0.0
 40
205.4603935163756
100
AcDbArc
 50
270.0
 51
315.0000000000003
  0
SOLID
  5
482
330
47C
100
AcDbEntity
  8
1
 62
     2
100
AcDbTrace
 10
299.9290923730073
 20
566.8585530369031
 30
0.0
 11
300.0546586555622
 21
563.1744223221282
 31
0.0
 12
286.0
 22
564.5396023759477
 32
0.0
 13
286.0
 23
564.5396023759477
 33
0.0
  0
SOLID
  5
483
330
47C
100
AcDbEntity
  8
1
 62
     2
100
AcDbTrace
 10
422.3096211516728
 20
613.8140858554316
 30
0.0
 11
419.7933361103607
 21
616.5079484365095
 31
0.0
 12
431.2824375206865
 22
624.7175583716382
 32
0.0
 13
431.2824375206865
 23
624.7175583716382
 33
0.0
  0
MTEXT
  5
484
330
47C
100
AcDbEntity
  8
1
 62
     7
100
AcDbMText
 10
346.1652249102126
 20
577.1176590460572
 30
0.0
 40
14.0
 41
0.0
 71
     7
 72
     1
  1
45{\Fgdt;~}
  7
CONVERTER_12
 11
0.9291622064046841
 21
0.3696722794438062
 31
0.0
 73
     1
 44
0.60024009603842
  0
ENDBLK
  5
486
330
47C
100
AcDbEntity
  8
0
100
AcDbBlockEnd
  0
BLOCK
  5
492
330
489
100
AcDbEntity
  8
0
100
AcDbBlockBegin
  2
*D43
 70
     1
 10
0.0
 20
0.0
 30
0.0
  3
*D43
  1

  0
LINE
  5
48A
330
489
100
AcDbEntity
  8
1
  6
Continuous
 62
     2
100
AcDbLine
 10
286.0
 20
565.0
 30
0.0
 11
286.0
 21
564.6472254129416
 31
0.0
  0
LINE
  5
48B
330
489
100
AcDbEntity
  8
1
  6
Continuous
 62
     2
100
AcDbLine
 10
213.167999278434
 20
697.167999278436
 30
0.0
 11
140.7936605540168
 21
624.7936605540197
 31
0.0
  0
LINE
  5
48C
330
489
100
AcDbEntity
  8
1
  6
Continuous
 62
     2
100
AcDbLine
 10
286.0
 20
564.6472254129416
 30
0.0
 11
286.0
 21
560.6472254129416
 31
0.0
  0
LINE
  5
48D
330
489
100
AcDbEntity
  8
1
  6
Continuous
 62
     2
100
AcDbLine
 10
140.7936605540168
 20
624.7936605540197
 30
0.0
 11
137.9652334292706
 21
621.9652334292734
 31
0.0
  0
ARC
  5
48E
330
489
100
AcDbEntity
  8
1
  6
Continuous
 62
     2
100
AcDbCircle
 10
286.0
 20
770.0000000000013
 30
0.0
 40
205.3527745870596
100
AcDbArc
 50
224.9999999999997
 51
270.0
  0
SOLID
  5
48F
330
489
100
AcDbEntity
  8
1
 62
     2
100
AcDbTrace
 10
152.2829085444756
 20
616.5842557572361
 30
0.0
 11
149.7666716022772
 21
613.8903482485084
 31
0.0
 12
140.7936605540168
 22
624.7936605540197
 32
0.0
 13
140.7936605540168
 23
624.7936605540197
 33
0.0
  0
SOLID
  5
490
330
489
100
AcDbEntity
  8
1
 62
     2
100
AcDbTrace
 10
271.9453169714914
 20
563.2822963042078
 30
0.0
 11
272.0709490339018
 21
566.9664247764191
 31
0.0
 12
286.0
 22
564.6472254129416
 32
0.0
 13
286.0
 23
564.6472254129416
 33
0.0
  0
MTEXT
  5
491
330
489
100
AcDbEntity
  8
1
 62
     7
100
AcDbMText
 10
209.2045140019238
 20
583.2312843000036
 30
0.0
 40
14.0
 41
0.0
 71
     7
 72
     1
  1
45{\Fgdt;~}
  7
CONVERTER_12
 11
0.9511759351892233
 21
-0.3086492188827091
 31
0.0
 73
     1
 44
0.60024009603842
  0
ENDBLK
  5
493
330
489
100
AcDbEntity
  8
0
100
AcDbBlockEnd
  0
ENDSEC
  0
SECTION
  2
ENTITIES
  0
INSERT
  5
B0
330
1F
100
AcDbEntity
  8
0
100
AcDbBlockReference
  2
U3-48F-50__9
 10
2043.499999625446
 20
723.200205106949
 30
0.0
  0
INSERT
  5
B1
330
1F
100
AcDbEntity
  8
1
100
AcDbBlockReference
  2
60-7X2-190-LHLH
 10
271.9999991939369
 20
367.4004068455112
 30
0.0
  0
INSERT
  5
B2
330
1F
100
AcDbEntity
  8
1
100
AcDbBlockReference
  2
開示A4
 10
0.0
 20
0.0
 30
0.0
 41
4.0
 42
4.0
 43
4.0
  0
INSERT
  5
B3
330
1F
100
AcDbEntity
  8
0
100
AcDbBlockReference
  2
K1711-0-M1
 10
705.128570288528
 20
498.650410213898
 30
0.0
  0
INSERT
  5
B4
330
1F
100
AcDbEntity
  8
0
100
AcDbBlockReference
  2
27-14-M1
 10
885.128571045479
 20
664.050410213898
 30
0.0
  0
INSERT
  5
B5
330
1F
100
AcDbEntity
  8
0
100
AcDbBlockReference
  2
37-379-M11
 10
1199.62857104548
 20
797.150410213898
 30
0.0
  0
INSERT
  5
B6
330
1F
100
AcDbEntity
  8
0
100
AcDbBlockReference
  2
84-293
 10
731.628612591677
 20
94.98941450524
 30
0.0
  0
INSERT
  5
B7
330
1F
100
AcDbEntity
  8
0
100
AcDbBlockReference
  2
U3-48F-50__18
 10
1718.499999250891
 20
690.500000000001
 30
0.0
  0
LINE
  5
3AE
330
1F
100
AcDbEntity
  8
1
  6
DASH_CENTER
 62
     2
100
AcDbLine
 10
685.999999246241
 20
420.9004081600592
 30
0.0
 11
685.999999246241
 21
446.650410213898
 31
0.0
  0
LINE
  5
3AF
330
1F
100
AcDbEntity
  8
1
  6
DASH_CENTER
 62
     2
100
AcDbLine
 10
781.4999992462405
 20
420.5393968114713
 30
0.0
 11
697.000001537773
 21
420.5393968114713
 31
0.0
  0
LINE
  5
3B0
330
1F
100
AcDbEntity
  8
1
  6
DASH_CENTER
 62
     2
100
AcDbLine
 10
656.222186617756
 20
507.9004102138974
 30
0.0
 11
648.999999246243
 21
507.9004102138974
 31
0.0
  0
LINE
  5
3B1
330
1F
100
AcDbEntity
  8
1
  6
DASH_CENTER
 62
     2
100
AcDbLine
 10
673.999999246241
 20
455.400410213898
 30
0.0
 11
673.999999246242
 21
528.516274339528
 31
0.0
  0
LINE
  5
3B2
330
1F
100
AcDbEntity
  8
1
  6
DASH_CENTER
 62
     2
100
AcDbLine
 10
345.999999945848
 20
839.61652990637
 30
0.0
 11
346.000000800402
 21
773.540446482113
 31
0.0
  0
LINE
  5
3B3
330
1F
100
AcDbEntity
  8
1
  6
DASH_CENTER
 62
     2
100
AcDbLine
 10
381.3610153344037
 20
876.25
 30
0.0
 11
381.3610153344037
 21
823.75
 31
0.0
  0
LINE
  5
3B4
330
1F
100
AcDbEntity
  8
1
  6
DASH_CENTER
 62
     2
100
AcDbLine
 10
226.0000000107
 20
839.61652990637
 30
0.0
 11
226.000000010699
 21
773.540446482113
 31
0.0
  0
LINE
  5
3B5
330
1F
100
AcDbEntity
  8
1
  6
DASH_CENTER
 62
     2
100
AcDbLine
 10
213.2720782520373
 20
468.6283317158259
 30
0.0
 11
238.7279193625686
 21
443.1724882990304
 31
0.0
  0
LINE
  5
3B6
330
1F
100
AcDbEntity
  8
1
  6
DASH_CENTER
 62
     2
100
AcDbLine
 10
358.727919661062
 20
468.6283313457301
 30
0.0
 11
333.2720773973987
 21
443.1724890820667
 31
0.0
  0
LINE
  5
3B7
330
1F
100
AcDbEntity
  8
1
  6
DASH_CENTER
 62
     2
100
AcDbLine
 10
286.000000023914
 20
552.150410213898
 30
0.0
 11
285.9999986806599
 21
360.900408899349
 31
0.0
  0
LINE
  5
3B8
330
1F
100
AcDbEntity
  8
1
  6
DASH_CENTER
 62
     2
100
AcDbLine
 10
648.499999246241
 20
455.900410213898
 30
0.0
 11
752.6165310323803
 21
455.900410213898
 31
0.0
  0
LINE
  5
3B9
330
1F
100
AcDbEntity
  8
1
  6
DASH_CENTER
 62
     2
100
AcDbLine
 10
286.0
 20
800.000000000001
 30
0.0
 11
286.0
 21
565.0
 31
0.0
  0
LINE
  5
3BA
330
1F
100
AcDbEntity
  8
1
  6
DASH_CENTER
 62
     2
100
AcDbLine
 10
190.6446602464395
 20
876.25
 30
0.0
 11
190.6446602464395
 21
823.75
 31
0.0
  0
LINE
  5
3BB
330
1F
100
AcDbEntity
  8
1
  6
DASH_CENTER
 62
     2
100
AcDbLine
 10
260.5
 20
769.999997946162
 30
0.0
 11
311.5
 21
769.999997946162
 31
0.0
  0
LINE
  5
3BC
330
1F
100
AcDbEntity
  8
1
  6
DASH_CENTER
 62
     2
100
AcDbLine
 10
216.8076102994118
 20
394.3821203966652
 30
0.0
 11
170.8456693201861
 21
440.3440613758909
 31
0.0
  0
LINE
  5
3BD
330
1F
100
AcDbEntity
  8
1
  6
DASH_CENTER
 62
     2
100
AcDbLine
 10
355.1923877246474
 20
394.3821192106763
 30
0.0
 11
407.5182895324517
 21
446.7080210184807
 31
0.0
  0
LINE
  5
3BE
330
1F
100
AcDbEntity
  8
1
  6
DASH_CENTER
 62
     2
100
AcDbLine
 10
658.999999246241
 20
393.9004081600592
 30
0.0
 11
473.99999924624
 21
393.9004081600592
 31
0.0
  0
LINE
  5
3BF
330
1F
100
AcDbEntity
  8
1
  6
DASH_CENTER
 62
     2
100
AcDbLine
 10
495.999999246241
 20
410.2504081600582
 30
0.0
 11
495.999999246241
 21
362.9004081600582
 31
0.0
  0
LINE
  5
3C0
330
1F
100
AcDbEntity
  8
0
  6
DASH_CENTER
 62
     2
100
AcDbLine
 10
302.26345370794
 20
786.263453707941
 30
0.0
 11
213.167999278434
 21
697.167999278436
 31
0.0
  0
LINE
  5
3C1
330
1F
100
AcDbEntity
  8
0
  6
DASH_CENTER
 62
     2
100
AcDbLine
 10
358.831996202862
 20
697.167999689462
 30
0.0
 11
269.736541773356
 21
786.263454118967
 31
0.0
  0
LINE
  5
3C2
330
1F
100
AcDbEntity
  8
1
  6
DASH_CENTER
 62
     2
100
AcDbLine
 10
294.546311954162
 20
507.9004102138974
 30
0.0
 11
277.453687780957
 21
507.9004102138974
 31
0.0
  0
LINE
  5
3C3
330
1F
100
AcDbEntity
  8
1
  6
DASH_CENTER
 62
     2
100
AcDbLine
 10
675.400362131532
 20
493.089957236465
 30
0.0
 11
688.973112802606
 21
522.196814980934
 31
0.0
  0
LINE
  5
3C4
330
1F
100
AcDbEntity
  8
1
  6
DASH_CENTER
 62
     2
100
AcDbLine
 10
268.999999106325
 20
592.000000000001
 30
0.0
 11
302.999999386157
 21
592.000000000001
 31
0.0
  0
LINE
  5
3C5
330
1F
100
AcDbEntity
  8
1
  6
Continuous
 62
     2
100
AcDbLine
 10
308.9999936186605
 20
653.3999984226367
 30
0.0
 11
351.9999936186605
 21
653.3999984226367
 31
0.0
  0
LINE
  5
3C6
330
1F
100
AcDbEntity
  8
1
  6
Continuous
 62
     2
100
AcDbLine
 10
220.9999936186605
 20
653.3999984226367
 30
0.0
 11
263.9999936186605
 21
653.3999984226367
 31
0.0
  0
LINE
  5
3C7
330
1F
100
AcDbEntity
  8
1
  6
Continuous
 62
     2
100
AcDbLine
 10
584.9999992462415
 20
593.4004102138981
 30
0.0
 11
626.9999992462415
 21
593.4004102138981
 31
0.0
  0
LINE
  5
3C8
330
1F
100
AcDbEntity
  8
1
  6
Continuous
 62
     2
100
AcDbLine
 10
523.9999992462415
 20
556.4004102138981
 30
0.0
 11
565.4999992462413
 21
556.4004102138981
 31
0.0
  0
LINE
  5
3C9
330
1F
100
AcDbEntity
  8
1
  6
DASH_CENTER
 62
     2
100
AcDbLine
 10
164.4817082755702
 20
394.3821198886352
 30
0.0
 11
190.644659541506
 21
420.545071154571
 31
0.0
  0
LINE
  5
3CA
330
1F
100
AcDbEntity
  8
1
  6
DASH_CENTER
 62
     2
100
AcDbLine
 10
337.5147171549914
 20
464.3856915881366
 30
0.0
 11
407.5182873775107
 21
394.3821213656173
 31
0.0
  0
LINE
  5
3CB
330
1F
100
AcDbEntity
  8
1
  6
DASH_CENTER
 62
     2
100
AcDbLine
 10
173.3274906694258
 20
825.7499952807068
 30
0.0
 11
241.572311507087
 21
825.7499952807068
 31
0.0
  0
LINE
  5
3CC
330
1F
100
AcDbEntity
  8
1
  6
DASH_CENTER
 62
     2
100
AcDbLine
 10
330.4276843852355
 20
825.7499952807068
 30
0.0
 11
398.6781808037395
 21
825.7499952807068
 31
0.0
  0
LINE
  5
3CD
330
1F
100
AcDbEntity
  8
1
  6
DASH_CENTER
 62
     2
100
AcDbLine
 10
190.644659541506
 20
420.545071154571
 30
0.0
 11
225.9999986008331
 21
455.900410213898
 31
0.0
  0
LINE
  5
3CE
330
1F
100
AcDbEntity
  8
1
  6
DASH_CENTER
 62
     2
100
AcDbLine
 10
225.9999986008331
 20
455.900410213898
 30
0.0
 11
234.4852799750717
 21
464.3856915881366
 31
0.0
  0
LINE
  5
3CF
330
1F
100
AcDbEntity
  8
1
  6
DASH_CENTER
 62
     2
100
AcDbLine
 10
374.0684620624913
 20
455.900410213898
 30
0.0
 11
197.9315336961702
 21
455.900410213898
 31
0.0
  0
ARC
  5
3D0
330
1F
100
AcDbEntity
  8
1
  6
Continuous
 62
     2
100
AcDbCircle
 10
673.9999992462415
 20
490.0868693377348
 30
0.0
 40
110.0
100
AcDbArc
 50
128.0
 51
146.0
  0
ARC
  5
3D1
330
1F
100
AcDbEntity
  8
1
  6
Continuous
 62
     2
100
AcDbCircle
 10
285.9999979461609
 20
806.2542012284703
 30
0.0
 40
120.0000000000001
100
AcDbArc
 50
254.927693903789
 51
285.0
  0
ARC
  5
3D2
330
1F
100
AcDbEntity
  8
1
  6
DASH_CENTER
 62
     2
100
AcDbCircle
 10
658.999999246241
 20
420.9004081600592
 30
0.0
 40
27.0
100
AcDbArc
 50
270.0
 51
0.0
  0
SOLID
  5
3D3
330
1F
100
AcDbEntity
  8
1
 62
     2
100
AcDbTrace
 10
589.392193681649
 20
564.0887827621583
 30
0.0
 11
592.4005995219276
 21
561.958505710918
 31
0.0
 12
582.8058662651869
 22
551.598088719517
 32
0.0
 13
582.8058662651869
 23
551.598088719517
 33
0.0
  0
LEADER
  5
3D4
330
1F
100
AcDbEntity
  8
1
  6
Continuous
 62
     2
100
AcDbLeader
  3
Standard
 71
     0
 76
     2
 10
582.8058662651869
 20
551.598088719517
 30
0.0
 10
585.696088309517
 20
555.6796990775701
 30
0.0
  0
SOLID
  5
3D5
330
1F
100
AcDbEntity
  8
1
 62
     2
100
AcDbTrace
 10
596.6113521826014
 20
566.4739851098791
 30
0.0
 11
594.2764085961817
 21
569.3264620095403
 31
0.0
 12
606.277236960419
 22
576.7680522344742
 32
0.0
 13
606.277236960419
 23
576.7680522344742
 33
0.0
  0
LEADER
  5
3D6
330
1F
100
AcDbEntity
  8
1
  6
Continuous
 62
     2
100
AcDbLeader
  3
Standard
 71
     0
 76
     2
 10
606.277236960419
 20
576.7680522344742
 30
0.0
 10
602.4071808982071
 20
573.6001518800068
 30
0.0
  0
SOLID
  5
3D7
330
1F
100
AcDbEntity
  8
1
 62
     2
100
AcDbTrace
 10
259.8553058572327
 20
690.3917558600474
 30
0.0
 11
258.6778225179093
 21
686.8986026998668
 31
0.0
 12
245.9999979461609
 22
693.1171162386227
 32
0.0
 13
245.9999979461609
 23
693.1171162386227
 33
0.0
  0
LEADER
  5
3D8
330
1F
100
AcDbEntity
  8
1
  6
Continuous
 62
     2
100
AcDbLeader
  3
Standard
 71
     0
 76
     2
 10
245.9999979461609
 20
693.1171162386227
 30
0.0
 10
249.3465214850995
 20
691.9890592851881
 30
0.0
  0
SOLID
  5
3D9
330
1F
100
AcDbEntity
  8
1
 62
     2
100
AcDbTrace
 10
313.3170999885346
 20
686.9089566159846
 30
0.0
 11
312.1424693113255
 21
690.4030700639172
 31
0.0
 12
325.9999979461609
 22
693.1171162386227
 32
0.0
 13
325.9999979461609
 23
693.1171162386227
 33
0.0
  0
LEADER
  5
3DA
330
1F
100
AcDbEntity
  8
1
  6
Continuous
 62
     2
100
AcDbLeader
  3
Standard
 71
     0
 76
     2
 10
325.9999979461609
 20
693.1171162386227
 30
0.0
 10
322.4668234186624
 20
691.9293542355348
 30
0.0
  0
SOLID
  5
3DB
330
1F
100
AcDbEntity
  8
1
 62
     2
100
AcDbTrace
 10
397.2423102283039
 20
878.9649231360944
 30
0.0
 11
400.4347136350099
 21
877.1217881698708
 31
0.0
 12
391.8385119316568
 22
865.9190000000006
 32
0.0
 13
391.8385119316568
 23
865.9190000000006
 33
0.0
  0
LEADER
  5
3DC
330
1F
100
AcDbEntity
  8
1
  6
Continuous
 62
     2
100
AcDbLeader
  3
Standard
 71
     0
 76
     3
 10
391.8385119316568
 20
865.9190000000006
 30
0.0
 10
419.3094150899681
 20
913.5
 30
0.0
 10
477.9961689542604
 20
913.5
 30
0.0
  0
MTEXT
  5
3DE
330
1F
100
AcDbEntity
  8
1
 62
     7
100
AcDbMText
 10
612.409456592226
 20
555.347094038556
 30
0.0
 40
14.0
 41
0.0
 71
     5
 72
     1
  1
25{\Fgdt;~}
  7
CONVERTER_12
 73
     1
 44
0.7202881152461
  0
MTEXT
  5
3DF
330
1F
100
AcDbEntity
  8
1
 62
     7
100
AcDbMText
 10
604.9999992462415
 20
607.4004102138981
 30
0.0
 40
20.0
 41
0.0
 71
     5
 72
     1
  1
吐水
  7
CONVERTER_11
 73
     1
 44
0.54545454545455
  0
MTEXT
  5
3E0
330
1F
100
AcDbEntity
  8
1
 62
     7
100
AcDbMText
 10
543.9999992462413
 20
570.4004102138981
 30
0.0
 40
20.0
 41
0.0
 71
     5
 72
     1
  1
止水
  7
CONVERTER_11
 73
     1
 44
0.54545454545455
  0
MTEXT
  5
3E1
330
1F
100
AcDbEntity
  8
1
 62
     7
100
AcDbMText
 10
330.0000034093421
 20
667.3999984226367
 30
0.0
 40
20.0
 41
0.0
 71
     5
 72
     1
  1
水側
  7
CONVERTER_11
 73
     1
 44
0.54545454545455
  0
MTEXT
  5
3E2
330
1F
100
AcDbEntity
  8
1
 62
     7
100
AcDbMText
 10
241.9999936186605
 20
667.3999984226367
 30
0.0
 40
20.0
 41
0.0
 71
     5
 72
     1
  1
湯側
  7
CONVERTER_11
 73
     1
 44
0.54545454545455
  0
MTEXT
  5
3E3
330
1F
100
AcDbEntity
  8
1
 62
     7
100
AcDbMText
 10
228.0
 20
91.00000000000004
 30
0.0
 40
14.0
 41
0.0
 71
     5
 72
     1
  1
シングル混合栓
  7
CONVERTER_11
 73
     1
 44
0.54545454545455
  0
MTEXT
  5
3E4
330
1F
100
AcDbEntity
  8
1
 62
     7
100
AcDbMText
 10
228.0
 20
57.0
 30
0.0
 40
14.0
 41
0.0
 71
     5
 72
     1
  1
K1711DK-4U-13
  7
CONVERTER_12
 73
     1
 44
0.7202881152461
  0
MTEXT
  5
3E5
330
1F
100
AcDbEntity
  8
1
 62
     7
100
AcDbMText
 10
452.5876335656503
 20
925.5
 30
0.0
 40
14.0
 41
0.0
 71
     5
 72
     1
  1
PJ1/2
  7
CONVERTER_12
 73
     1
 44
0.7202881152461
  0
MTEXT
  5
3E6
330
1F
100
AcDbEntity
  8
1
 62
     7
100
AcDbMText
 10
341.0
 20
68.0
 30
0.0
 40
14.0
 41
0.0
 71
     5
 72
     1
  1
1
  7
CONVERTER_12
 73
     1
 44
0.7202881152461
  0
MTEXT
  5
3E7
330
1F
100
AcDbEntity
  8
1
 62
     7
100
AcDbMText
 10
375.0
 20
68.0
 30
0.0
 40
14.0
 41
0.0
 71
     5
 72
     1
  1
4
  7
CONVERTER_12
 73
     1
 44
0.7202881152461
  0
MTEXT
  5
3E8
330
1F
100
AcDbEntity
  8
1
 62
     7
100
AcDbMText
 10
136.0
 20
150.0
 30
0.0
 40
14.0
 41
0.0
 71
     4
 72
     1
  1
JIS
  7
CONVERTER_12
 73
     1
 44
0.7202881152461
  0
MTEXT
  5
3E9
330
1F
100
AcDbEntity
  8
1
 62
     7
100
AcDbMText
 10
136.0
 20
122.0
 30
0.0
 40
14.0
 41
0.0
 71
     4
 72
     1
  1
吐水口は回転式(角度制限なし)
  7
CONVERTER_11
 73
     1
 44
0.54545454545455
  0
DIMENSION
  5
3F4
330
1F
100
AcDbEntity
  8
1
100
AcDbDimension
  2
*D29
 10
533.880155081096
 20
548.4413997037054
 30
0.0
 11
522.880155081096
 21
502.1709049588017
 31
0.0
 70
    32
  1
最小93
 71
     5
 42
-1.0
 53
90.0
  3
ME10_DIM_10
100
AcDbAlignedDimension
 13
648.499999246241
 23
455.900410213898
 33
0.0
 14
575.789981805039
 24
548.4413997037054
 34
0.0
 50
90.0
100
AcDbRotatedDimension
  0
DIMENSION
  5
3FF
330
1F
100
AcDbEntity
  8
1
100
AcDbDimension
  2
*D30
 10
501.880155081096
 20
584.6654516674914
 30
0.0
 11
490.880155081096
 21
520.2829309406948
 31
0.0
 70
    32
  1
最大129
 71
     5
 42
-1.0
 53
90.0
  3
ME10_DIM_11
100
AcDbAlignedDimension
 13
648.499999246241
 23
455.900410213898
 33
0.0
 14
609.061688106228
 24
584.6654516674914
 34
0.0
 50
90.0
100
AcDbRotatedDimension
  0
DIMENSION
  5
40C
330
1F
100
AcDbEntity
  8
1
100
AcDbDimension
  2
*D31
 10
673.999999246241
 20
327.4004081600592
 30
0.0
 11
708.422221565003
 21
338.4004081600592
 31
0.0
 70
    32
  1
<>
 71
     5
 42
-1.0
 53
0.00013888888889
  3
ME10_DIM_12
100
AcDbAlignedDimension
 13
685.999999246241
 23
420.9004081600592
 33
0.0
 14
673.999999246241
 24
455.400410213898
 34
0.0
100
AcDbRotatedDimension
  0
DIMENSION
  5
417
330
1F
100
AcDbEntity
  8
1
100
AcDbDimension
  2
*D32
 10
673.999999246241
 20
295.4004081600592
 30
0.0
 11
714.7499992462408
 21
306.4004081600592
 31
0.0
 70
    32
  1
82
 71
     5
 42
-1.0
 53
0.00013888888889
  3
ME10_DIM_13
100
AcDbAlignedDimension
 13
755.4999992462405
 23
395.5450729064874
 33
0.0
 14
673.999999246241
 24
455.400410213898
 34
0.0
100
AcDbRotatedDimension
  0
DIMENSION
  5
422
330
1F
100
AcDbEntity
  8
1
100
AcDbDimension
  2
*D33
 10
495.999999246241
 20
263.4004081600592
 30
0.0
 11
590.999999246241
 21
274.4004081600592
 31
0.0
 70
    32
  1
<>
 71
     5
 42
-1.0
 53
0.00013888888889
  3
ME10_DIM_14
100
AcDbAlignedDimension
 13
685.999999246241
 23
420.9004081600592
 33
0.0
 14
495.999999246241
 24
362.9004081600582
 34
0.0
100
AcDbRotatedDimension
  0
DIMENSION
  5
42D
330
1F
100
AcDbEntity
  8
1
100
AcDbDimension
  2
*D34
 10
226.0000000107
 20
905.4999952807068
 30
0.0
 11
286.0
 21
916.4999952807068
 31
0.0
 70
    32
  1
<>
 71
     5
 42
-1.0
 53
0.00013888888889
  3
ME10_DIM_15
100
AcDbAlignedDimension
 13
345.999999945848
 23
839.61652990637
 33
0.0
 14
226.0000000107
 24
839.61652990637
 34
0.0
100
AcDbRotatedDimension
  0
DIMENSION
  5
438
330
1F
100
AcDbEntity
  8
1
100
AcDbDimension
  2
*D35
 10
190.6446602464395
 20
937.4999952807068
 30
0.0
 11
286.0
 21
948.4999952807068
 31
0.0
 70
    32
  1
取付寸法120～220
 71
     5
 42
-1.0
 53
0.00013888888889
  3
ME10_DIM_16
100
AcDbAlignedDimension
 13
381.3610153344037
 23
876.25
 33
0.0
 14
190.6446602464395
 24
876.25
 34
0.0
100
AcDbRotatedDimension
  0
DIMENSION
  5
444
330
1F
100
AcDbEntity
  8
1
100
AcDbDimension
  2
*D36
 10
165.6446587735765
 20
905.4999952807068
 30
0.0
 11
142.3042114868235
 21
916.4999952807068
 31
0.0
 70
    32
  1
<>
 71
     5
 42
-1.0
 53
0.00013888888889
  3
ME10_DIM_17
100
AcDbAlignedDimension
 13
215.6446587735766
 23
851.4999952807068
 33
0.0
 14
165.6446587735766
 24
851.4999952807068
 34
0.0
100
AcDbRotatedDimension
  0
DIMENSION
  5
44F
330
1F
100
AcDbEntity
  8
1
100
AcDbDimension
  2
*D37
 10
362.4367871202828
 20
630.0
 30
0.0
 11
324.2183935601414
 21
641.0
 31
0.0
 70
    32
  1
76
 71
     5
 42
-1.0
 53
0.00013888888889
  3
ME10_DIM_18
100
AcDbAlignedDimension
 13
286.0
 23
565.0
 33
0.0
 14
362.4367871202828
 24
705.973577290634
 34
0.0
100
AcDbRotatedDimension
  0
DIMENSION
  5
45A
330
1F
100
AcDbEntity
  8
1
100
AcDbDimension
  2
*D38
 10
209.5632083610141
 20
630.0
 30
0.0
 11
247.816164048107
 21
641.0
 31
0.0
 70
    32
  1
76
 71
     5
 42
-1.0
 53
0.00013888888889
  3
ME10_DIM_19
100
AcDbAlignedDimension
 13
286.0
 23
565.0
 33
0.0
 14
209.5632083610141
 24
705.973576879608
 34
0.0
100
AcDbRotatedDimension
  0
DIMENSION
  5
465
330
1F
100
AcDbEntity
  8
1
100
AcDbDimension
  2
*D39
 10
573.880155081096
 20
625.165451667492
 30
0.0
 11
623.940077163669
 21
636.165451667492
 31
0.0
 70
    32
  1
100
 71
     5
 42
-1.0
 53
0.00013888888889
  3
ME10_DIM_20
100
AcDbAlignedDimension
 13
673.999999246242
 23
528.516274339528
 33
0.0
 14
573.880155081096
 24
544.5305851381024
 34
0.0
100
AcDbRotatedDimension
  0
DIMENSION
  5
470
330
1F
100
AcDbEntity
  8
1
100
AcDbDimension
  2
*D40
 10
159.1833088224685
 20
452.0064218736085
 30
0.0
 11
170.108343736346
 21
478.48780597359
 31
0.0
 70
    32
  1
<>
 71
     5
 42
-1.0
 53
44.99999999999991
  3
ME10_DIM_21
100
AcDbAlignedDimension
 13
225.9999986008331
 23
455.900410213898
 33
0.0
 14
190.644659541506
 24
420.545071154571
 34
0.0
 50
44.99999999999991
100
AcDbRotatedDimension
  0
DIMENSION
  5
47B
330
1F
100
AcDbEntity
  8
1
100
AcDbDimension
  2
*D41
 10
446.3553372214697
 20
455.900410213898
 30
0.0
 11
435.3553372214697
 21
412.035862905622
 31
0.0
 70
    32
  1
89
 71
     5
 42
-1.0
 53
90.0
  3
ME10_DIM_22
100
AcDbAlignedDimension
 13
296.743337395216
 23
367.4004068455112
 33
0.0
 14
374.0684620624913
 24
455.900410213898
 34
0.0
 50
90.0
100
AcDbRotatedDimension
  0
DIMENSION
  5
488
330
1F
100
AcDbEntity
  8
1
100
AcDbDimension
  2
*D42
 10
364.6262886059292
 20
580.1793435808294
 30
0.0
 11
357.8866169327381
 21
589.3147475943246
 31
0.0
 70
    37
  1
<>
 71
     5
 42
-1.0
  3
ME10_DIM_23
100
AcDb3PointAngularDimension
 13
286.0
 23
565.0
 33
0.0
 14
358.831996202862
 24
697.167999689462
 34
0.0
 15
286.0
 25
769.9999958923232
 35
0.0
  0
DIMENSION
  5
495
330
1F
100
AcDbEntity
  8
1
100
AcDbDimension
  2
*D43
 10
207.414895375329
 20
580.2787746146132
 30
0.0
 11
226.0131679360168
 21
585.1363178755345
 31
0.0
 70
    37
  1
<>
 71
     5
 42
-1.0
  3
ME10_DIM_24
100
AcDb3PointAngularDimension
 13
213.167999278434
 23
697.167999278436
 33
0.0
 14
286.0
 24
565.0
 34
0.0
 15
286.0
 25
770.0000000000013
 35
0.0
  0
ENDSEC
  0
SECTION
  2
OBJECTS
  0
DICTIONARY
  5
C
330
0
100
AcDbDictionary
281
     1
  3
ACAD_GROUP
350
D
  3
ACAD_LAYOUT
350
1A
  3
ACAD_MATERIAL
350
3B
  3
ACAD_MLEADERSTYLE
350
498
  3
ACAD_MLINESTYLE
350
17
  3
ACAD_PLOTSETTINGS
350
19
  3
ACAD_PLOTSTYLENAME
350
E
  3
ACAD_VISUALSTYLE
350
2A
  3
AcDbVariableDictionary
350
496
  0
DICTIONARY
  5
D
102
{ACAD_REACTORS
330
C
102
}
330
C
100
AcDbDictionary
281
     1
  0
DICTIONARY
  5
1A
102
{ACAD_REACTORS
330
C
102
}
330
C
100
AcDbDictionary
281
     1
  3
Layout1
350
1E
  3
Layout2
350
26
  3
Model
350
22
  0
DICTIONARY
  5
3B
102
{ACAD_REACTORS
330
C
102
}
330
C
100
AcDbDictionary
281
     1
  3
ByBlock
350
3D
  3
ByLayer
350
3C
  3
Global
350
3E
  0
DICTIONARY
  5
498
102
{ACAD_REACTORS
330
C
102
}
330
C
100
AcDbDictionary
281
     1
  0
DICTIONARY
  5
17
102
{ACAD_REACTORS
330
C
102
}
330
C
100
AcDbDictionary
281
     1
  3
Standard
350
18
  0
DICTIONARY
  5
19
102
{ACAD_REACTORS
330
C
102
}
330
C
100
AcDbDictionary
281
     1
  0
ACDBDICTIONARYWDFLT
  5
E
102
{ACAD_REACTORS
330
C
102
}
330
C
100
AcDbDictionary
281
     1
  3
Normal
350
F
100
AcDbDictionaryWithDefault
340
F
  0
DICTIONARY
  5
2A
102
{ACAD_REACTORS
330
C
102
}
330
C
100
AcDbDictionary
281
     1
  3
2dWireframe
350
2F
  3
3D Hidden
350
31
  3
3dWireframe
350
30
  3
Basic
350
32
  3
Brighten
350
36
  3
ColorChange
350
3A
  3
Conceptual
350
34
  3
Dim
350
35
  3
Facepattern
350
39
  3
Flat
350
2B
  3
FlatWithEdges
350
2C
  3
Gouraud
350
2D
  3
GouraudWithEdges
350
2E
  3
Linepattern
350
38
  3
Realistic
350
33
  3
Thicken
350
37
  0
DICTIONARY
  5
496
102
{ACAD_REACTORS
330
C
102
}
330
C
100
AcDbDictionary
281
     1
  3
DIMASSOC
350
499
  3
HIDETEXT
350
49A
  0
LAYOUT
  5
1E
102
{ACAD_REACTORS
330
1A
102
}
330
1A
100
AcDbPlotSettings
  1

  2
none_device
  4

  6

 40
0.0
 41
0.0
 42
0.0
 43
0.0
 44
0.0
 45
0.0
 46
0.0
 47
0.0
 48
0.0
 49
0.0
140
0.0
141
0.0
142
1.0
143
1.0
 70
   688
 72
     0
 73
     0
 74
     5
  7

 75
    16
147
1.0
148
0.0
149
0.0
100
AcDbLayout
  1
Layout1
 70
     1
 71
     1
 10
0.0
 20
0.0
 11
12.0
 21
9.0
 12
0.0
 22
0.0
 32
0.0
 14
1.00000000000000E+20
 24
1.00000000000000E+20
 34
1.00000000000000E+20
 15
-1.00000000000000E+20
 25
-1.00000000000000E+20
 35
-1.00000000000000E+20
146
0.0
 13
0.0
 23
0.0
 33
0.0
 16
1.0
 26
0.0
 36
0.0
 17
0.0
 27
1.0
 37
0.0
 76
     0
330
1B
  0
LAYOUT
  5
26
102
{ACAD_REACTORS
330
1A
102
}
330
1A
100
AcDbPlotSettings
  1

  2
none_device
  4

  6

 40
0.0
 41
0.0
 42
0.0
 43
0.0
 44
0.0
 45
0.0
 46
0.0
 47
0.0
 48
0.0
 49
0.0
140
0.0
141
0.0
142
1.0
143
1.0
 70
   688
 72
     0
 73
     0
 74
     5
  7

 75
    16
147
1.0
148
0.0
149
0.0
100
AcDbLayout
  1
Layout2
 70
     1
 71
     2
 10
0.0
 20
0.0
 11
0.0
 21
0.0
 12
0.0
 22
0.0
 32
0.0
 14
0.0
 24
0.0
 34
0.0
 15
0.0
 25
0.0
 35
0.0
146
0.0
 13
0.0
 23
0.0
 33
0.0
 16
1.0
 26
0.0
 36
0.0
 17
0.0
 27
1.0
 37
0.0
 76
     0
330
23
  0
LAYOUT
  5
22
102
{ACAD_REACTORS
330
1A
102
}
330
1A
100
AcDbPlotSettings
  1

  2
none_device
  4

  6

 40
0.0
 41
0.0
 42
0.0
 43
0.0
 44
0.0
 45
0.0
 46
0.0
 47
0.0
 48
0.0
 49
0.0
140
0.0
141
0.0
142
1.0
143
1.0
 70
  1712
 72
     0
 73
     0
 74
     0
  7

 75
     0
147
1.0
148
0.0
149
0.0
100
AcDbLayout
  1
Model
 70
     1
 71
     0
 10
0.0
 20
0.0
 11
12.0
 21
9.0
 12
0.0
 22
0.0
 32
0.0
 14
0.0
 24
0.0
 34
0.0
 15
840.0
 25
1188.0
 35
0.0
146
0.0
 13
0.0
 23
0.0
 33
0.0
 16
1.0
 26
0.0
 36
0.0
 17
0.0
 27
1.0
 37
0.0
 76
     0
330
1F
331
29
  0
MATERIAL
  5
3D
102
{ACAD_REACTORS
330
3B
102
}
102
{ACAD_XDICTIONARY
360
4BD
102
}
330
3B
100
AcDbMaterial
  1
ByBlock
  0
MATERIAL
  5
3C
102
{ACAD_REACTORS
330
3B
102
}
102
{ACAD_XDICTIONARY
360
4BB
102
}
330
3B
100
AcDbMaterial
  1
ByLayer
  0
MATERIAL
  5
3E
102
{ACAD_REACTORS
330
3B
102
}
102
{ACAD_XDICTIONARY
360
4BF
102
}
330
3B
100
AcDbMaterial
  1
Global
  0
MLINESTYLE
  5
18
102
{ACAD_REACTORS
330
17
102
}
330
17
100
AcDbMlineStyle
  2
Standard
 70
     0
  3

 62
   256
 51
90.0
 52
90.0
 71
     2
 49
0.5
 62
   256
  6
BYLAYER
 49
-0.5
 62
   256
  6
BYLAYER
  0
ACDBPLACEHOLDER
  5
F
102
{ACAD_REACTORS
330
E
102
}
330
E
  0
VISUALSTYLE
  5
2F
102
{ACAD_REACTORS
330
2A
102
}
102
{ACAD_XDICTIONARY
360
4A3
102
}
330
2A
100
AcDbVisualStyle
  2
2dWireframe
 70
     4
 71
     0
 72
     2
 73
     0
 90
        0
 40
-0.6
 41
-30.0
 62
     5
 63
     7
 74
     1
 91
        4
 64
     7
 65
   257
 75
     1
175
     1
 42
1.0
 92
        0
 66
   257
 43
1.0
 76
     1
 77
     6
 78
     2
 67
     7
 79
     5
170
     0
171
     0
290
     0
174
     0
 93
        1
 44
0.0
173
     0
291
     0
 45
0.0
1001
ACAD
1000
AcDbSavedByObjectVersion
1070
     0
  0
VISUALSTYLE
  5
31
102
{ACAD_REACTORS
330
2A
102
}
102
{ACAD_XDICTIONARY
360
4A7
102
}
330
2A
100
AcDbVisualStyle
  2
3D Hidden
 70
     6
 71
     1
 72
     2
 73
     2
 90
        0
 40
-0.6
 41
-30.0
 62
     5
 63
     7
 74
     2
 91
        2
 64
     7
 65
   257
 75
     2
175
     1
 42
40.0
 92
        0
 66
   257
 43
1.0
 76
     1
 77
     6
 78
     2
 67
     7
 79
     3
170
     0
171
     0
290
     0
174
     0
 93
        1
 44
0.0
173
     0
291
     0
 45
0.0
1001
ACAD
1000
AcDbSavedByObjectVersion
1070
     0
  0
VISUALSTYLE
  5
30
102
{ACAD_REACTORS
330
2A
102
}
102
{ACAD_XDICTIONARY
360
4A5
102
}
330
2A
100
AcDbVisualStyle
  2
3dWireframe
 70
     5
 71
     0
 72
     2
 73
     0
 90
        0
 40
-0.6
 41
-30.0
 62
     5
 63
     7
 74
     1
 91
        4
 64
     7
 65
   257
 75
     1
175
     1
 42
1.0
 92
        0
 66
   257
 43
1.0
 76
     1
 77
     6
 78
     2
 67
     7
 79
     5
170
     0
171
     0
290
     0
174
     0
 93
        1
 44
0.0
173
     0
291
     0
 45
0.0
1001
ACAD
1000
AcDbSavedByObjectVersion
1070
     0
  0
VISUALSTYLE
  5
32
102
{ACAD_REACTORS
330
2A
102
}
102
{ACAD_XDICTIONARY
360
4A9
102
}
330
2A
100
AcDbVisualStyle
  2
Basic
 70
     7
 71
     1
 72
     0
 73
     1
 90
        0
 40
-0.6
 41
-30.0
 62
     5
 63
     7
 74
     0
 91
        4
 64
     7
 65
   257
 75
     1
175
     1
 42
1.0
 92
        8
 66
     7
 43
1.0
 76
     1
 77
     6
 78
     2
 67
     7
 79
     5
170
     0
171
     0
290
     0
174
     0
 93
        1
 44
0.0
173
     0
291
     1
 45
0.0
1001
ACAD
1000
AcDbSavedByObjectVersion
1070
     0
  0
VISUALSTYLE
  5
36
102
{ACAD_REACTORS
330
2A
102
}
102
{ACAD_XDICTIONARY
360
4B1
102
}
330
2A
100
AcDbVisualStyle
  2
Brighten
 70
    12
 71
     2
 72
     2
 73
     0
 90
        0
 40
-0.6
 41
-30.0
 62
     5
 63
     7
 74
     1
 91
        4
 64
     7
 65
   257
 75
     1
175
     1
 42
1.0
 92
        8
 66
     7
 43
1.0
 76
     1
 77
     6
 78
     2
 67
     7
 79
     5
170
     0
171
     0
290
     0
174
     0
 93
        1
 44
50.0
173
     0
291
     1
 45
0.0
1001
ACAD
1000
AcDbSavedByObjectVersion
1070
     0
  0
VISUALSTYLE
  5
3A
102
{ACAD_REACTORS
330
2A
102
}
102
{ACAD_XDICTIONARY
360
4B9
102
}
330
2A
100
AcDbVisualStyle
  2
ColorChange
 70
    16
 71
     2
 72
     2
 73
     3
 90
        0
 40
-0.6
 41
-30.0
 62
     5
 63
     8
 74
     1
 91
        4
 64
     7
 65
   257
 75
     1
175
     1
 42
1.0
 92
        8
 66
     8
 43
1.0
 76
     1
 77
     6
 78
     2
 67
     7
 79
     5
170
     0
171
     0
290
     0
174
     0
 93
        1
 44
0.0
173
     0
291
     1
 45
0.0
1001
ACAD
1000
AcDbSavedByObjectVersion
1070
     0
  0
VISUALSTYLE
  5
34
102
{ACAD_REACTORS
330
2A
102
}
102
{ACAD_XDICTIONARY
360
4AD
102
}
330
2A
100
AcDbVisualStyle
  2
Conceptual
 70
     9
 71
     3
 72
     2
 73
     0
 90
        0
 40
-0.6
 41
-30.0
 62
     5
 63
     7
 74
     2
 91
        2
 64
     7
 65
   257
 75
     1
175
     1
 42
40.0
 92
        8
 66
     7
 43
1.0
 76
     1
 77
     6
 78
     2
 67
     7
 79
     3
170
     0
171
     0
290
     0
174
     0
 93
        1
 44
0.0
173
     0
291
     0
 45
0.0
1001
ACAD
1000
AcDbSavedByObjectVersion
1070
     0
  0
VISUALSTYLE
  5
35
102
{ACAD_REACTORS
330
2A
102
}
102
{ACAD_XDICTIONARY
360
4AF
102
}
330
2A
100
AcDbVisualStyle
  2
Dim
 70
    11
 71
     2
 72
     2
 73
     0
 90
        0
 40
-0.6
 41
-30.0
 62
     5
 63
     7
 74
     1
 91
        4
 64
     7
 65
   257
 75
     1
175
     1
 42
1.0
 92
        8
 66
     7
 43
1.0
 76
     1
 77
     6
 78
     2
 67
     7
 79
     5
170
     0
171
     0
290
     0
174
     0
 93
        1
 44
-50.0
173
     0
291
     1
 45
0.0
1001
ACAD
1000
AcDbSavedByObjectVersion
1070
     0
  0
VISUALSTYLE
  5
39
102
{ACAD_REACTORS
330
2A
102
}
102
{ACAD_XDICTIONARY
360
4B7
102
}
330
2A
100
AcDbVisualStyle
  2
Facepattern
 70
    15
 71
     2
 72
     2
 73
     0
 90
        0
 40
-0.6
 41
-30.0
 62
     5
 63
     7
 74
     1
 91
        4
 64
     7
 65
   257
 75
     1
175
     1
 42
1.0
 92
        8
 66
     7
 43
1.0
 76
     1
 77
     6
 78
     2
 67
     7
 79
     5
170
     0
171
     0
290
     0
174
     0
 93
        1
 44
0.0
173
     0
291
     1
 45
0.0
1001
ACAD
1000
AcDbSavedByObjectVersion
1070
     0
  0
VISUALSTYLE
  5
2B
102
{ACAD_REACTORS
330
2A
102
}
102
{ACAD_XDICTIONARY
360
49B
102
}
330
2A
100
AcDbVisualStyle
  2
Flat
 70
     0
 71
     2
 72
     1
 73
     1
 90
        2
 40
-0.6
 41
30.0
 62
     5
 63
     7
 74
     0
 91
        4
 64
     7
 65
   257
 75
     1
175
     1
 42
1.0
 92
        8
 66
     7
 43
1.0
 76
     1
 77
     6
 78
     2
 67
     7
 79
     5
170
     0
171
     0
290
     0
174
     0
 93
       13
 44
0.0
173
     0
291
     1
 45
0.0
1001
ACAD
1000
AcDbSavedByObjectVersion
1070
     0
  0
VISUALSTYLE
  5
2C
102
{ACAD_REACTORS
330
2A
102
}
102
{ACAD_XDICTIONARY
360
49D
102
}
330
2A
100
AcDbVisualStyle
  2
FlatWithEdges
 70
     1
 71
     2
 72
     1
 73
     1
 90
        2
 40
-0.6
 41
30.0
 62
     5
 63
     7
 74
     1
 91
        4
 64
     7
 65
   257
 75
     1
175
     1
 42
1.0
 92
        0
 66
   257
 43
1.0
 76
     1
 77
     6
 78
     2
 67
     7
 79
     5
170
     0
171
     0
290
     0
174
     0
 93
       13
 44
0.0
173
     0
291
     1
 45
0.0
1001
ACAD
1000
AcDbSavedByObjectVersion
1070
     0
  0
VISUALSTYLE
  5
2D
102
{ACAD_REACTORS
330
2A
102
}
102
{ACAD_XDICTIONARY
360
49F
102
}
330
2A
100
AcDbVisualStyle
  2
Gouraud
 70
     2
 71
     2
 72
     2
 73
     1
 90
        2
 40
-0.6
 41
30.0
 62
     5
 63
     7
 74
     0
 91
        4
 64
     7
 65
   257
 75
     1
175
     1
 42
1.0
 92
        0
 66
     7
 43
1.0
 76
     1
 77
     6
 78
     2
 67
     7
 79
     5
170
     0
171
     0
290
     0
174
     0
 93
       13
 44
0.0
173
     0
291
     1
 45
0.0
1001
ACAD
1000
AcDbSavedByObjectVersion
1070
     0
  0
VISUALSTYLE
  5
2E
102
{ACAD_REACTORS
330
2A
102
}
102
{ACAD_XDICTIONARY
360
4A1
102
}
330
2A
100
AcDbVisualStyle
  2
GouraudWithEdges
 70
     3
 71
     2
 72
     2
 73
     1
 90
        2
 40
-0.6
 41
30.0
 62
     5
 63
     7
 74
     1
 91
        4
 64
     7
 65
   257
 75
     1
175
     1
 42
1.0
 92
        0
 66
   257
 43
1.0
 76
     1
 77
     6
 78
     2
 67
     7
 79
     5
170
     0
171
     0
290
     0
174
     0
 93
       13
 44
0.0
173
     0
291
     1
 45
0.0
1001
ACAD
1000
AcDbSavedByObjectVersion
1070
     0
  0
VISUALSTYLE
  5
38
102
{ACAD_REACTORS
330
2A
102
}
102
{ACAD_XDICTIONARY
360
4B5
102
}
330
2A
100
AcDbVisualStyle
  2
Linepattern
 70
    14
 71
     2
 72
     2
 73
     0
 90
        0
 40
-0.6
 41
-30.0
 62
     5
 63
     7
 74
     1
 91
        4
 64
     7
 65
   257
 75
     7
175
     7
 42
1.0
 92
        8
 66
     7
 43
1.0
 76
     1
 77
     6
 78
     2
 67
     7
 79
     5
170
     0
171
     0
290
     0
174
     0
 93
        1
 44
0.0
173
     0
291
     1
 45
0.0
1001
ACAD
1000
AcDbSavedByObjectVersion
1070
     0
  0
VISUALSTYLE
  5
33
102
{ACAD_REACTORS
330
2A
102
}
102
{ACAD_XDICTIONARY
360
4AB
102
}
330
2A
100
AcDbVisualStyle
  2
Realistic
 70
     8
 71
     2
 72
     2
 73
     0
 90
        0
 40
-0.6
 41
-30.0
 62
     5
 63
     7
 74
     1
 91
        0
 64
     7
 65
   257
 75
     1
175
     1
 42
1.0
 92
        8
 66
     8
 43
1.0
 76
     1
 77
     6
 78
     2
 67
     7
 79
     5
170
     0
171
     0
290
     0
174
     0
 93
       13
 44
0.0
173
     0
291
     0
 45
0.0
1001
ACAD
1000
AcDbSavedByObjectVersion
1070
     0
  0
VISUALSTYLE
  5
37
102
{ACAD_REACTORS
330
2A
102
}
102
{ACAD_XDICTIONARY
360
4B3
102
}
330
2A
100
AcDbVisualStyle
  2
Thicken
 70
    13
 71
     2
 72
     2
 73
     0
 90
        0
 40
-0.6
 41
-30.0
 62
     5
 63
     7
 74
     1
 91
        4
 64
     7
 65
   257
 75
     1
175
     1
 42
1.0
 92
       12
 66
     7
 43
1.0
 76
     1
 77
     6
 78
     2
 67
     7
 79
     5
170
     0
171
     0
290
     0
174
     0
 93
        1
 44
0.0
173
     0
291
     1
 45
0.0
1001
ACAD
1000
AcDbSavedByObjectVersion
1070
     0
  0
DICTIONARYVAR
  5
499
102
{ACAD_REACTORS
330
496
102
}
330
496
100
DictionaryVariables
280
     0
  1
2
  0
DICTIONARYVAR
  5
49A
102
{ACAD_REACTORS
330
496
102
}
330
496
100
DictionaryVariables
280
     0
  1
1
  0
DICTIONARY
  5
4BD
330
3D
100
AcDbDictionary
280
     1
281
     1
  3
ACAD_XREC_ROUNDTRIP
360
4BE
  0
DICTIONARY
  5
4BB
330
3C
100
AcDbDictionary
280
     1
281
     1
  3
ACAD_XREC_ROUNDTRIP
360
4BC
  0
DICTIONARY
  5
4BF
330
3E
100
AcDbDictionary
280
     1
281
     1
  3
ACAD_XREC_ROUNDTRIP
360
4C0
  0
DICTIONARY
  5
4A3
330
2F
100
AcDbDictionary
280
     1
281
     1
  3
ACAD_XREC_ROUNDTRIP
360
4A4
  0
DICTIONARY
  5
4A7
330
31
100
AcDbDictionary
280
     1
281
     1
  3
ACAD_XREC_ROUNDTRIP
360
4A8
  0
DICTIONARY
  5
4A5
330
30
100
AcDbDictionary
280
     1
281
     1
  3
ACAD_XREC_ROUNDTRIP
360
4A6
  0
DICTIONARY
  5
4A9
330
32
100
AcDbDictionary
280
     1
281
     1
  3
ACAD_XREC_ROUNDTRIP
360
4AA
  0
DICTIONARY
  5
4B1
330
36
100
AcDbDictionary
280
     1
281
     1
  3
ACAD_XREC_ROUNDTRIP
360
4B2
  0
DICTIONARY
  5
4B9
330
3A
100
AcDbDictionary
280
     1
281
     1
  3
ACAD_XREC_ROUNDTRIP
360
4BA
  0
DICTIONARY
  5
4AD
330
34
100
AcDbDictionary
280
     1
281
     1
  3
ACAD_XREC_ROUNDTRIP
360
4AE
  0
DICTIONARY
  5
4AF
330
35
100
AcDbDictionary
280
     1
281
     1
  3
ACAD_XREC_ROUNDTRIP
360
4B0
  0
DICTIONARY
  5
4B7
330
39
100
AcDbDictionary
280
     1
281
     1
  3
ACAD_XREC_ROUNDTRIP
360
4B8
  0
DICTIONARY
  5
49B
330
2B
100
AcDbDictionary
280
     1
281
     1
  3
ACAD_XREC_ROUNDTRIP
360
49C
  0
DICTIONARY
  5
49D
330
2C
100
AcDbDictionary
280
     1
281
     1
  3
ACAD_XREC_ROUNDTRIP
360
49E
  0
DICTIONARY
  5
49F
330
2D
100
AcDbDictionary
280
     1
281
     1
  3
ACAD_XREC_ROUNDTRIP
360
4A0
  0
DICTIONARY
  5
4A1
330
2E
100
AcDbDictionary
280
     1
281
     1
  3
ACAD_XREC_ROUNDTRIP
360
4A2
  0
DICTIONARY
  5
4B5
330
38
100
AcDbDictionary
280
     1
281
     1
  3
ACAD_XREC_ROUNDTRIP
360
4B6
  0
DICTIONARY
  5
4AB
330
33
100
AcDbDictionary
280
     1
281
     1
  3
ACAD_XREC_ROUNDTRIP
360
4AC
  0
DICTIONARY
  5
4B3
330
37
100
AcDbDictionary
280
     1
281
     1
  3
ACAD_XREC_ROUNDTRIP
360
4B4
  0
XRECORD
  5
4BE
102
{ACAD_REACTORS
330
4BD
102
}
330
4BD
100
AcDbXrecord
280
     1
102
MATERIAL
148
0.0
149
0.0
149
0.0
 93
        0
 94
      127
282
     0
 72
     1
 77
     1
171
     1
175
     1
179
     1
273
     0
  0
XRECORD
  5
4BC
102
{ACAD_REACTORS
330
4BB
102
}
330
4BB
100
AcDbXrecord
280
     1
102
MATERIAL
148
0.0
149
0.0
149
0.0
 93
        0
 94
      127
282
     0
 72
     1
 77
     1
171
     1
175
     1
179
     1
273
     0
  0
XRECORD
  5
4C0
102
{ACAD_REACTORS
330
4BF
102
}
330
4BF
100
AcDbXrecord
280
     1
102
MATERIAL
148
0.0
149
0.0
149
0.0
 93
        0
 94
      127
282
     0
 72
     1
 77
     1
171
     1
175
     1
179
     1
273
     0
  0
XRECORD
  5
4A4
102
{ACAD_REACTORS
330
4A3
102
}
330
4A3
100
AcDbXrecord
280
     1
102
RTVSPropertyOp0
 70
     1
102
RTVSPropertyOp1
 70
     1
102
RTVSPropertyOp2
 70
     1
102
RTVSPropertyOp3
 70
     1
102
RTVSPropertyOp4
 70
     1
102
RTVSPropertyOp5
 70
     1
102
RTVSPropertyOp6
 70
     1
102
RTVSPropertyOp7
 70
     1
102
RTVSPropertyOp8
 70
     1
102
RTVSPropertyOp9
 70
     1
102
RTVSPropertyOp10
 70
     1
102
RTVSPropertyOp11
 70
     1
102
RTVSPropertyOp12
 70
     1
102
RTVSPropertyOp13
 70
     1
102
RTVSPropertyOp14
 70
     1
102
RTVSPropertyOp15
 70
     1
102
RTVSPropertyOp16
 70
     1
102
RTVSPropertyOp17
 70
     1
102
RTVSPropertyOp18
 70
     1
102
RTVSPropertyOp19
 70
     1
102
RTVSPropertyOp20
 70
     1
102
RTVSPropertyOp21
 70
     1
102
RTVSPropertyOp22
 70
     1
102
RTVSPropertyOp23
 70
     1
102
RTVSPropertyOp24
 70
     1
102
RTVSPropertyOp25
 70
     1
102
RTVSPropertyOp26
 70
     1
102
RTVSPropertyOp27
 70
     1
102
RTVSPropertyOp28
 70
     1
102
RTVSPropertyOp29
 70
     1
102
RTVSPropertyOp30
 70
     1
102
RTVSPropertyOp31
 70
     1
102
RTVSPropertyOp32
 70
     1
  0
XRECORD
  5
4A8
102
{ACAD_REACTORS
330
4A7
102
}
330
4A7
100
AcDbXrecord
280
     1
102
RTVSPropertyOp0
 70
     1
102
RTVSPropertyOp1
 70
     1
102
RTVSPropertyOp2
 70
     1
102
RTVSPropertyOp3
 70
     1
102
RTVSPropertyOp4
 70
     1
102
RTVSPropertyOp5
 70
     1
102
RTVSPropertyOp6
 70
     1
102
RTVSPropertyOp7
 70
     1
102
RTVSPropertyOp8
 70
     1
102
RTVSPropertyOp9
 70
     1
102
RTVSPropertyOp10
 70
     1
102
RTVSPropertyOp11
 70
     1
102
RTVSPropertyOp12
 70
     1
102
RTVSPropertyOp13
 70
     1
102
RTVSPropertyOp14
 70
     1
102
RTVSPropertyOp15
 70
     1
102
RTVSPropertyOp16
 70
     1
102
RTVSPropertyOp17
 70
     1
102
RTVSPropertyOp18
 70
     1
102
RTVSPropertyOp19
 70
     1
102
RTVSPropertyOp20
 70
     1
102
RTVSPropertyOp21
 70
     1
102
RTVSPropertyOp22
 70
     1
102
RTVSPropertyOp23
 70
     1
102
RTVSPropertyOp24
 70
     1
102
RTVSPropertyOp25
 70
     1
102
RTVSPropertyOp26
 70
     1
102
RTVSPropertyOp27
 70
     1
102
RTVSPropertyOp28
 70
     1
102
RTVSPropertyOp29
 70
     1
102
RTVSPropertyOp30
 70
     1
102
RTVSPropertyOp31
 70
     1
102
RTVSPropertyOp32
 70
     1
  0
XRECORD
  5
4A6
102
{ACAD_REACTORS
330
4A5
102
}
330
4A5
100
AcDbXrecord
280
     1
102
RTVSPropertyOp0
 70
     1
102
RTVSPropertyOp1
 70
     1
102
RTVSPropertyOp2
 70
     1
102
RTVSPropertyOp3
 70
     1
102
RTVSPropertyOp4
 70
     1
102
RTVSPropertyOp5
 70
     1
102
RTVSPropertyOp6
 70
     1
102
RTVSPropertyOp7
 70
     1
102
RTVSPropertyOp8
 70
     1
102
RTVSPropertyOp9
 70
     1
102
RTVSPropertyOp10
 70
     1
102
RTVSPropertyOp11
 70
     1
102
RTVSPropertyOp12
 70
     1
102
RTVSPropertyOp13
 70
     1
102
RTVSPropertyOp14
 70
     1
102
RTVSPropertyOp15
 70
     1
102
RTVSPropertyOp16
 70
     1
102
RTVSPropertyOp17
 70
     1
102
RTVSPropertyOp18
 70
     1
102
RTVSPropertyOp19
 70
     1
102
RTVSPropertyOp20
 70
     1
102
RTVSPropertyOp21
 70
     1
102
RTVSPropertyOp22
 70
     1
102
RTVSPropertyOp23
 70
     1
102
RTVSPropertyOp24
 70
     1
102
RTVSPropertyOp25
 70
     1
102
RTVSPropertyOp26
 70
     1
102
RTVSPropertyOp27
 70
     1
102
RTVSPropertyOp28
 70
     1
102
RTVSPropertyOp29
 70
     1
102
RTVSPropertyOp30
 70
     1
102
RTVSPropertyOp31
 70
     1
102
RTVSPropertyOp32
 70
     1
  0
XRECORD
  5
4AA
102
{ACAD_REACTORS
330
4A9
102
}
330
4A9
100
AcDbXrecord
280
     1
102
RTVSPropertyOp0
 70
     1
102
RTVSPropertyOp1
 70
     1
102
RTVSPropertyOp2
 70
     1
102
RTVSPropertyOp3
 70
     1
102
RTVSPropertyOp4
 70
     1
102
RTVSPropertyOp5
 70
     1
102
RTVSPropertyOp6
 70
     1
102
RTVSPropertyOp7
 70
     1
102
RTVSPropertyOp8
 70
     1
102
RTVSPropertyOp9
 70
     1
102
RTVSPropertyOp10
 70
     1
102
RTVSPropertyOp11
 70
     1
102
RTVSPropertyOp12
 70
     1
102
RTVSPropertyOp13
 70
     1
102
RTVSPropertyOp14
 70
     1
102
RTVSPropertyOp15
 70
     1
102
RTVSPropertyOp16
 70
     1
102
RTVSPropertyOp17
 70
     1
102
RTVSPropertyOp18
 70
     1
102
RTVSPropertyOp19
 70
     1
102
RTVSPropertyOp20
 70
     1
102
RTVSPropertyOp21
 70
     1
102
RTVSPropertyOp22
 70
     1
102
RTVSPropertyOp23
 70
     1
102
RTVSPropertyOp24
 70
     1
102
RTVSPropertyOp25
 70
     1
102
RTVSPropertyOp26
 70
     1
102
RTVSPropertyOp27
 70
     1
102
RTVSPropertyOp28
 70
     1
102
RTVSPropertyOp29
 70
     1
102
RTVSPropertyOp30
 70
     1
102
RTVSPropertyOp31
 70
     1
102
RTVSPropertyOp32
 70
     1
  0
XRECORD
  5
4B2
102
{ACAD_REACTORS
330
4B1
102
}
330
4B1
100
AcDbXrecord
280
     1
102
RTVSPropertyOp0
 70
     1
102
RTVSPropertyOp1
 70
     1
102
RTVSPropertyOp2
 70
     1
102
RTVSPropertyOp3
 70
     1
102
RTVSPropertyOp4
 70
     1
102
RTVSPropertyOp5
 70
     1
102
RTVSPropertyOp6
 70
     1
102
RTVSPropertyOp7
 70
     1
102
RTVSPropertyOp8
 70
     1
102
RTVSPropertyOp9
 70
     1
102
RTVSPropertyOp10
 70
     1
102
RTVSPropertyOp11
 70
     1
102
RTVSPropertyOp12
 70
     1
102
RTVSPropertyOp13
 70
     1
102
RTVSPropertyOp14
 70
     1
102
RTVSPropertyOp15
 70
     1
102
RTVSPropertyOp16
 70
     1
102
RTVSPropertyOp17
 70
     1
102
RTVSPropertyOp18
 70
     1
102
RTVSPropertyOp19
 70
     1
102
RTVSPropertyOp20
 70
     1
102
RTVSPropertyOp21
 70
     1
102
RTVSPropertyOp22
 70
     1
102
RTVSPropertyOp23
 70
     1
102
RTVSPropertyOp24
 70
     1
102
RTVSPropertyOp25
 70
     1
102
RTVSPropertyOp26
 70
     1
102
RTVSPropertyOp27
 70
     1
102
RTVSPropertyOp28
 70
     1
102
RTVSPropertyOp29
 70
     1
102
RTVSPropertyOp30
 70
     1
102
RTVSPropertyOp31
 70
     1
102
RTVSPropertyOp32
 70
     1
  0
XRECORD
  5
4BA
102
{ACAD_REACTORS
330
4B9
102
}
330
4B9
100
AcDbXrecord
280
     1
102
RTVSPropertyOp0
 70
     1
102
RTVSPropertyOp1
 70
     1
102
RTVSPropertyOp2
 70
     1
102
RTVSPropertyOp3
 70
     1
102
RTVSPropertyOp4
 70
     1
102
RTVSPropertyOp5
 70
     1
102
RTVSPropertyOp6
 70
     1
102
RTVSPropertyOp7
 70
     1
102
RTVSPropertyOp8
 70
     1
102
RTVSPropertyOp9
 70
     1
102
RTVSPropertyOp10
 70
     1
102
RTVSPropertyOp11
 70
     1
102
RTVSPropertyOp12
 70
     1
102
RTVSPropertyOp13
 70
     1
102
RTVSPropertyOp14
 70
     1
102
RTVSPropertyOp15
 70
     1
102
RTVSPropertyOp16
 70
     1
102
RTVSPropertyOp17
 70
     1
102
RTVSPropertyOp18
 70
     1
102
RTVSPropertyOp19
 70
     1
102
RTVSPropertyOp20
 70
     1
102
RTVSPropertyOp21
 70
     1
102
RTVSPropertyOp22
 70
     1
102
RTVSPropertyOp23
 70
     1
102
RTVSPropertyOp24
 70
     1
102
RTVSPropertyOp25
 70
     1
102
RTVSPropertyOp26
 70
     1
102
RTVSPropertyOp27
 70
     1
102
RTVSPropertyOp28
 70
     1
102
RTVSPropertyOp29
 70
     1
102
RTVSPropertyOp30
 70
     1
102
RTVSPropertyOp31
 70
     1
102
RTVSPropertyOp32
 70
     1
  0
XRECORD
  5
4AE
102
{ACAD_REACTORS
330
4AD
102
}
330
4AD
100
AcDbXrecord
280
     1
102
RTVSPropertyOp0
 70
     1
102
RTVSPropertyOp1
 70
     1
102
RTVSPropertyOp2
 70
     1
102
RTVSPropertyOp3
 70
     1
102
RTVSPropertyOp4
 70
     1
102
RTVSPropertyOp5
 70
     1
102
RTVSPropertyOp6
 70
     1
102
RTVSPropertyOp7
 70
     1
102
RTVSPropertyOp8
 70
     1
102
RTVSPropertyOp9
 70
     1
102
RTVSPropertyOp10
 70
     1
102
RTVSPropertyOp11
 70
     1
102
RTVSPropertyOp12
 70
     1
102
RTVSPropertyOp13
 70
     1
102
RTVSPropertyOp14
 70
     1
102
RTVSPropertyOp15
 70
     1
102
RTVSPropertyOp16
 70
     1
102
RTVSPropertyOp17
 70
     1
102
RTVSPropertyOp18
 70
     1
102
RTVSPropertyOp19
 70
     1
102
RTVSPropertyOp20
 70
     1
102
RTVSPropertyOp21
 70
     1
102
RTVSPropertyOp22
 70
     1
102
RTVSPropertyOp23
 70
     1
102
RTVSPropertyOp24
 70
     1
102
RTVSPropertyOp25
 70
     1
102
RTVSPropertyOp26
 70
     1
102
RTVSPropertyOp27
 70
     1
102
RTVSPropertyOp28
 70
     1
102
RTVSPropertyOp29
 70
     1
102
RTVSPropertyOp30
 70
     1
102
RTVSPropertyOp31
 70
     1
102
RTVSPropertyOp32
 70
     1
  0
XRECORD
  5
4B0
102
{ACAD_REACTORS
330
4AF
102
}
330
4AF
100
AcDbXrecord
280
     1
102
RTVSPropertyOp0
 70
     1
102
RTVSPropertyOp1
 70
     1
102
RTVSPropertyOp2
 70
     1
102
RTVSPropertyOp3
 70
     1
102
RTVSPropertyOp4
 70
     1
102
RTVSPropertyOp5
 70
     1
102
RTVSPropertyOp6
 70
     1
102
RTVSPropertyOp7
 70
     1
102
RTVSPropertyOp8
 70
     1
102
RTVSPropertyOp9
 70
     1
102
RTVSPropertyOp10
 70
     1
102
RTVSPropertyOp11
 70
     1
102
RTVSPropertyOp12
 70
     1
102
RTVSPropertyOp13
 70
     1
102
RTVSPropertyOp14
 70
     1
102
RTVSPropertyOp15
 70
     1
102
RTVSPropertyOp16
 70
     1
102
RTVSPropertyOp17
 70
     1
102
RTVSPropertyOp18
 70
     1
102
RTVSPropertyOp19
 70
     1
102
RTVSPropertyOp20
 70
     1
102
RTVSPropertyOp21
 70
     1
102
RTVSPropertyOp22
 70
     1
102
RTVSPropertyOp23
 70
     1
102
RTVSPropertyOp24
 70
     1
102
RTVSPropertyOp25
 70
     1
102
RTVSPropertyOp26
 70
     1
102
RTVSPropertyOp27
 70
     1
102
RTVSPropertyOp28
 70
     1
102
RTVSPropertyOp29
 70
     1
102
RTVSPropertyOp30
 70
     1
102
RTVSPropertyOp31
 70
     1
102
RTVSPropertyOp32
 70
     1
  0
XRECORD
  5
4B8
102
{ACAD_REACTORS
330
4B7
102
}
330
4B7
100
AcDbXrecord
280
     1
102
RTVSPropertyOp0
 70
     1
102
RTVSPropertyOp1
 70
     1
102
RTVSPropertyOp2
 70
     1
102
RTVSPropertyOp3
 70
     1
102
RTVSPropertyOp4
 70
     1
102
RTVSPropertyOp5
 70
     1
102
RTVSPropertyOp6
 70
     1
102
RTVSPropertyOp7
 70
     1
102
RTVSPropertyOp8
 70
     1
102
RTVSPropertyOp9
 70
     1
102
RTVSPropertyOp10
 70
     1
102
RTVSPropertyOp11
 70
     1
102
RTVSPropertyOp12
 70
     1
102
RTVSPropertyOp13
 70
     1
102
RTVSPropertyOp14
 70
     1
102
RTVSPropertyOp15
 70
     1
102
RTVSPropertyOp16
 70
     1
102
RTVSPropertyOp17
 70
     1
102
RTVSPropertyOp18
 70
     1
102
RTVSPropertyOp19
 70
     1
102
RTVSPropertyOp20
 70
     1
102
RTVSPropertyOp21
 70
     1
102
RTVSPropertyOp22
 70
     1
102
RTVSPropertyOp23
 70
     1
102
RTVSPropertyOp24
 70
     1
102
RTVSPropertyOp25
 70
     1
102
RTVSPropertyOp26
 70
     1
102
RTVSPropertyOp27
 70
     1
102
RTVSPropertyOp28
 70
     1
102
RTVSPropertyOp29
 70
     1
102
RTVSPropertyOp30
 70
     1
102
RTVSPropertyOp31
 70
     1
102
RTVSPropertyOp32
 70
     1
  0
XRECORD
  5
49C
102
{ACAD_REACTORS
330
49B
102
}
330
49B
100
AcDbXrecord
280
     1
102
RTVSPropertyOp0
 70
     1
102
RTVSPropertyOp1
 70
     1
102
RTVSPropertyOp2
 70
     1
102
RTVSPropertyOp3
 70
     1
102
RTVSPropertyOp4
 70
     1
102
RTVSPropertyOp5
 70
     1
102
RTVSPropertyOp6
 70
     1
102
RTVSPropertyOp7
 70
     1
102
RTVSPropertyOp8
 70
     1
102
RTVSPropertyOp9
 70
     1
102
RTVSPropertyOp10
 70
     1
102
RTVSPropertyOp11
 70
     1
102
RTVSPropertyOp12
 70
     1
102
RTVSPropertyOp13
 70
     1
102
RTVSPropertyOp14
 70
     1
102
RTVSPropertyOp15
 70
     1
102
RTVSPropertyOp16
 70
     1
102
RTVSPropertyOp17
 70
     1
102
RTVSPropertyOp18
 70
     1
102
RTVSPropertyOp19
 70
     1
102
RTVSPropertyOp20
 70
     1
102
RTVSPropertyOp21
 70
     1
102
RTVSPropertyOp22
 70
     1
102
RTVSPropertyOp23
 70
     1
102
RTVSPropertyOp24
 70
     1
102
RTVSPropertyOp25
 70
     1
102
RTVSPropertyOp26
 70
     1
102
RTVSPropertyOp27
 70
     1
102
RTVSPropertyOp28
 70
     1
102
RTVSPropertyOp29
 70
     1
102
RTVSPropertyOp30
 70
     1
102
RTVSPropertyOp31
 70
     1
102
RTVSPropertyOp32
 70
     1
  0
XRECORD
  5
49E
102
{ACAD_REACTORS
330
49D
102
}
330
49D
100
AcDbXrecord
280
     1
102
RTVSPropertyOp0
 70
     1
102
RTVSPropertyOp1
 70
     1
102
RTVSPropertyOp2
 70
     1
102
RTVSPropertyOp3
 70
     1
102
RTVSPropertyOp4
 70
     1
102
RTVSPropertyOp5
 70
     1
102
RTVSPropertyOp6
 70
     1
102
RTVSPropertyOp7
 70
     1
102
RTVSPropertyOp8
 70
     1
102
RTVSPropertyOp9
 70
     1
102
RTVSPropertyOp10
 70
     1
102
RTVSPropertyOp11
 70
     1
102
RTVSPropertyOp12
 70
     1
102
RTVSPropertyOp13
 70
     1
102
RTVSPropertyOp14
 70
     1
102
RTVSPropertyOp15
 70
     1
102
RTVSPropertyOp16
 70
     1
102
RTVSPropertyOp17
 70
     1
102
RTVSPropertyOp18
 70
     1
102
RTVSPropertyOp19
 70
     1
102
RTVSPropertyOp20
 70
     1
102
RTVSPropertyOp21
 70
     1
102
RTVSPropertyOp22
 70
     1
102
RTVSPropertyOp23
 70
     1
102
RTVSPropertyOp24
 70
     1
102
RTVSPropertyOp25
 70
     1
102
RTVSPropertyOp26
 70
     1
102
RTVSPropertyOp27
 70
     1
102
RTVSPropertyOp28
 70
     1
102
RTVSPropertyOp29
 70
     1
102
RTVSPropertyOp30
 70
     1
102
RTVSPropertyOp31
 70
     1
102
RTVSPropertyOp32
 70
     1
  0
XRECORD
  5
4A0
102
{ACAD_REACTORS
330
49F
102
}
330
49F
100
AcDbXrecord
280
     1
102
RTVSPropertyOp0
 70
     1
102
RTVSPropertyOp1
 70
     1
102
RTVSPropertyOp2
 70
     1
102
RTVSPropertyOp3
 70
     1
102
RTVSPropertyOp4
 70
     1
102
RTVSPropertyOp5
 70
     1
102
RTVSPropertyOp6
 70
     1
102
RTVSPropertyOp7
 70
     1
102
RTVSPropertyOp8
 70
     1
102
RTVSPropertyOp9
 70
     1
102
RTVSPropertyOp10
 70
     1
102
RTVSPropertyOp11
 70
     1
102
RTVSPropertyOp12
 70
     1
102
RTVSPropertyOp13
 70
     1
102
RTVSPropertyOp14
 70
     1
102
RTVSPropertyOp15
 70
     1
102
RTVSPropertyOp16
 70
     1
102
RTVSPropertyOp17
 70
     1
102
RTVSPropertyOp18
 70
     1
102
RTVSPropertyOp19
 70
     1
102
RTVSPropertyOp20
 70
     1
102
RTVSPropertyOp21
 70
     1
102
RTVSPropertyOp22
 70
     1
102
RTVSPropertyOp23
 70
     1
102
RTVSPropertyOp24
 70
     1
102
RTVSPropertyOp25
 70
     1
102
RTVSPropertyOp26
 70
     1
102
RTVSPropertyOp27
 70
     1
102
RTVSPropertyOp28
 70
     1
102
RTVSPropertyOp29
 70
     1
102
RTVSPropertyOp30
 70
     1
102
RTVSPropertyOp31
 70
     1
102
RTVSPropertyOp32
 70
     1
  0
XRECORD
  5
4A2
102
{ACAD_REACTORS
330
4A1
102
}
330
4A1
100
AcDbXrecord
280
     1
102
RTVSPropertyOp0
 70
     1
102
RTVSPropertyOp1
 70
     1
102
RTVSPropertyOp2
 70
     1
102
RTVSPropertyOp3
 70
     1
102
RTVSPropertyOp4
 70
     1
102
RTVSPropertyOp5
 70
     1
102
RTVSPropertyOp6
 70
     1
102
RTVSPropertyOp7
 70
     1
102
RTVSPropertyOp8
 70
     1
102
RTVSPropertyOp9
 70
     1
102
RTVSPropertyOp10
 70
     1
102
RTVSPropertyOp11
 70
     1
102
RTVSPropertyOp12
 70
     1
102
RTVSPropertyOp13
 70
     1
102
RTVSPropertyOp14
 70
     1
102
RTVSPropertyOp15
 70
     1
102
RTVSPropertyOp16
 70
     1
102
RTVSPropertyOp17
 70
     1
102
RTVSPropertyOp18
 70
     1
102
RTVSPropertyOp19
 70
     1
102
RTVSPropertyOp20
 70
     1
102
RTVSPropertyOp21
 70
     1
102
RTVSPropertyOp22
 70
     1
102
RTVSPropertyOp23
 70
     1
102
RTVSPropertyOp24
 70
     1
102
RTVSPropertyOp25
 70
     1
102
RTVSPropertyOp26
 70
     1
102
RTVSPropertyOp27
 70
     1
102
RTVSPropertyOp28
 70
     1
102
RTVSPropertyOp29
 70
     1
102
RTVSPropertyOp30
 70
     1
102
RTVSPropertyOp31
 70
     1
102
RTVSPropertyOp32
 70
     1
  0
XRECORD
  5
4B6
102
{ACAD_REACTORS
330
4B5
102
}
330
4B5
100
AcDbXrecord
280
     1
102
RTVSPropertyOp0
 70
     1
102
RTVSPropertyOp1
 70
     1
102
RTVSPropertyOp2
 70
     1
102
RTVSPropertyOp3
 70
     1
102
RTVSPropertyOp4
 70
     1
102
RTVSPropertyOp5
 70
     1
102
RTVSPropertyOp6
 70
     1
102
RTVSPropertyOp7
 70
     1
102
RTVSPropertyOp8
 70
     1
102
RTVSPropertyOp9
 70
     1
102
RTVSPropertyOp10
 70
     1
102
RTVSPropertyOp11
 70
     1
102
RTVSPropertyOp12
 70
     1
102
RTVSPropertyOp13
 70
     1
102
RTVSPropertyOp14
 70
     1
102
RTVSPropertyOp15
 70
     1
102
RTVSPropertyOp16
 70
     1
102
RTVSPropertyOp17
 70
     1
102
RTVSPropertyOp18
 70
     1
102
RTVSPropertyOp19
 70
     1
102
RTVSPropertyOp20
 70
     1
102
RTVSPropertyOp21
 70
     1
102
RTVSPropertyOp22
 70
     1
102
RTVSPropertyOp23
 70
     1
102
RTVSPropertyOp24
 70
     1
102
RTVSPropertyOp25
 70
     1
102
RTVSPropertyOp26
 70
     1
102
RTVSPropertyOp27
 70
     1
102
RTVSPropertyOp28
 70
     1
102
RTVSPropertyOp29
 70
     1
102
RTVSPropertyOp30
 70
     1
102
RTVSPropertyOp31
 70
     1
102
RTVSPropertyOp32
 70
     1
  0
XRECORD
  5
4AC
102
{ACAD_REACTORS
330
4AB
102
}
330
4AB
100
AcDbXrecord
280
     1
102
RTVSPropertyOp0
 70
     1
102
RTVSPropertyOp1
 70
     1
102
RTVSPropertyOp2
 70
     1
102
RTVSPropertyOp3
 70
     1
102
RTVSPropertyOp4
 70
     1
102
RTVSPropertyOp5
 70
     1
102
RTVSPropertyOp6
 70
     1
102
RTVSPropertyOp7
 70
     1
102
RTVSPropertyOp8
 70
     1
102
RTVSPropertyOp9
 70
     1
102
RTVSPropertyOp10
 70
     1
102
RTVSPropertyOp11
 70
     1
102
RTVSPropertyOp12
 70
     1
102
RTVSPropertyOp13
 70
     1
102
RTVSPropertyOp14
 70
     1
102
RTVSPropertyOp15
 70
     1
102
RTVSPropertyOp16
 70
     1
102
RTVSPropertyOp17
 70
     1
102
RTVSPropertyOp18
 70
     1
102
RTVSPropertyOp19
 70
     1
102
RTVSPropertyOp20
 70
     1
102
RTVSPropertyOp21
 70
     1
102
RTVSPropertyOp22
 70
     1
102
RTVSPropertyOp23
 70
     1
102
RTVSPropertyOp24
 70
     1
102
RTVSPropertyOp25
 70
     1
102
RTVSPropertyOp26
 70
     1
102
RTVSPropertyOp27
 70
     1
102
RTVSPropertyOp28
 70
     1
102
RTVSPropertyOp29
 70
     1
102
RTVSPropertyOp30
 70
     1
102
RTVSPropertyOp31
 70
     1
102
RTVSPropertyOp32
 70
     1
  0
XRECORD
  5
4B4
102
{ACAD_REACTORS
330
4B3
102
}
330
4B3
100
AcDbXrecord
280
     1
102
RTVSPropertyOp0
 70
     1
102
RTVSPropertyOp1
 70
     1
102
RTVSPropertyOp2
 70
     1
102
RTVSPropertyOp3
 70
     1
102
RTVSPropertyOp4
 70
     1
102
RTVSPropertyOp5
 70
     1
102
RTVSPropertyOp6
 70
     1
102
RTVSPropertyOp7
 70
     1
102
RTVSPropertyOp8
 70
     1
102
RTVSPropertyOp9
 70
     1
102
RTVSPropertyOp10
 70
     1
102
RTVSPropertyOp11
 70
     1
102
RTVSPropertyOp12
 70
     1
102
RTVSPropertyOp13
 70
     1
102
RTVSPropertyOp14
 70
     1
102
RTVSPropertyOp15
 70
     1
102
RTVSPropertyOp16
 70
     1
102
RTVSPropertyOp17
 70
     1
102
RTVSPropertyOp18
 70
     1
102
RTVSPropertyOp19
 70
     1
102
RTVSPropertyOp20
 70
     1
102
RTVSPropertyOp21
 70
     1
102
RTVSPropertyOp22
 70
     1
102
RTVSPropertyOp23
 70
     1
102
RTVSPropertyOp24
 70
     1
102
RTVSPropertyOp25
 70
     1
102
RTVSPropertyOp26
 70
     1
102
RTVSPropertyOp27
 70
     1
102
RTVSPropertyOp28
 70
     1
102
RTVSPropertyOp29
 70
     1
102
RTVSPropertyOp30
 70
     1
102
RTVSPropertyOp31
 70
     1
102
RTVSPropertyOp32
 70
     1
  0
ENDSEC
  0
EOF
