  0
SECTION
  2
HEADER
  9
$ACADVER
  1
AC1015
  9
$ACADMAINTVER
 70
     6
  9
$DWGCODEPAGE
  3
DOS932
  9
$INSBASE
 10
0.0
 20
0.0
 30
0.0
  9
$EXTMIN
 10
0.0
 20
0.0
 30
0.0
  9
$EXTMAX
 10
945.0
 20
1336.5
 30
0.0
  9
$LIMMIN
 10
0.0
 20
0.0
  9
$LIMMAX
 10
12.0
 20
9.0
  9
$ORTHOMODE
 70
     0
  9
$REGENMODE
 70
     1
  9
$FILLMODE
 70
     1
  9
$QTEXTMODE
 70
     0
  9
$MIRRTEXT
 70
     1
  9
$LTSCALE
 40
1.0
  9
$ATTMODE
 70
     1
  9
$TEXTSIZE
 40
0.2
  9
$TRACEWID
 40
0.05
  9
$TEXTSTYLE
  7
Standard
  9
$CLAYER
  8
0
  9
$CELTYPE
  6
ByLayer
  9
$CECOLOR
 62
   256
  9
$CELTSCALE
 40
1.0
  9
$DISPSILH
 70
     0
  9
$DIMSCALE
 40
1.0
  9
$DIMASZ
 40
0.18
  9
$DIMEXO
 40
0.0625
  9
$DIMDLI
 40
0.38
  9
$DIMRND
 40
0.0
  9
$DIMDLE
 40
0.0
  9
$DIMEXE
 40
0.18
  9
$DIMTP
 40
0.0
  9
$DIMTM
 40
0.0
  9
$DIMTXT
 40
0.18
  9
$DIMCEN
 40
0.09
  9
$DIMTSZ
 40
0.0
  9
$DIMTOL
 70
     0
  9
$DIMLIM
 70
     0
  9
$DIMTIH
 70
     1
  9
$DIMTOH
 70
     1
  9
$DIMSE1
 70
     0
  9
$DIMSE2
 70
     0
  9
$DIMTAD
 70
     0
  9
$DIMZIN
 70
     0
  9
$DIMBLK
  1

  9
$DIMASO
 70
     1
  9
$DIMSHO
 70
     1
  9
$DIMPOST
  1

  9
$DIMAPOST
  1

  9
$DIMALT
 70
     0
  9
$DIMALTD
 70
     2
  9
$DIMALTF
 40
25.4
  9
$DIMLFAC
 40
1.0
  9
$DIMTOFL
 70
     0
  9
$DIMTVP
 40
0.0
  9
$DIMTIX
 70
     0
  9
$DIMSOXD
 70
     0
  9
$DIMSAH
 70
     0
  9
$DIMBLK1
  1

  9
$DIMBLK2
  1

  9
$DIMSTYLE
  2
Standard
  9
$DIMCLRD
 70
     0
  9
$DIMCLRE
 70
     0
  9
$DIMCLRT
 70
     0
  9
$DIMTFAC
 40
1.0
  9
$DIMGAP
 40
0.09
  9
$DIMJUST
 70
     0
  9
$DIMSD1
 70
     0
  9
$DIMSD2
 70
     0
  9
$DIMTOLJ
 70
     1
  9
$DIMTZIN
 70
     0
  9
$DIMALTZ
 70
     0
  9
$DIMALTTZ
 70
     0
  9
$DIMUPT
 70
     0
  9
$DIMDEC
 70
     4
  9
$DIMTDEC
 70
     4
  9
$DIMALTU
 70
     2
  9
$DIMALTTD
 70
     2
  9
$DIMTXSTY
  7
Standard
  9
$DIMAUNIT
 70
     0
  9
$DIMADEC
 70
     0
  9
$DIMALTRND
 40
0.0
  9
$DIMAZIN
 70
     0
  9
$DIMDSEP
 70
    46
  9
$DIMATFIT
 70
     3
  9
$DIMFRAC
 70
     0
  9
$DIMLDRBLK
  1

  9
$DIMLUNIT
 70
     2
  9
$DIMLWD
 70
    -2
  9
$DIMLWE
 70
    -2
  9
$DIMTMOVE
 70
     0
  9
$LUNITS
 70
     2
  9
$LUPREC
 70
     4
  9
$SKETCHINC
 40
0.1
  9
$FILLETRAD
 40
0.5
  9
$AUNITS
 70
     0
  9
$AUPREC
 70
     0
  9
$MENU
  1
.
  9
$ELEVATION
 40
0.0
  9
$PELEVATION
 40
0.0
  9
$THICKNESS
 40
0.0
  9
$LIMCHECK
 70
     0
  9
$CHAMFERA
 40
0.5
  9
$CHAMFERB
 40
0.5
  9
$CHAMFERC
 40
1.0
  9
$CHAMFERD
 40
0.0
  9
$SKPOLY
 70
     0
  9
$TDCREATE
 40
2456139.42573206
  9
$TDUCREATE
 40
2456139.05073206
  9
$TDUPDATE
 40
2456139.425732072
  9
$TDUUPDATE
 40
2456139.050732072
  9
$TDINDWG
 40
0.0000000116
  9
$TDUSRTIMER
 40
0.0000000116
  9
$USRTIMER
 70
     1
  9
$ANGBASE
 50
0.0
  9
$ANGDIR
 70
     0
  9
$PDMODE
 70
     0
  9
$PDSIZE
 40
0.0
  9
$PLINEWID
 40
0.0
  9
$SPLFRAME
 70
     0
  9
$SPLINETYPE
 70
     6
  9
$SPLINESEGS
 70
     8
  9
$HANDSEED
  5
3E3
  9
$SURFTAB1
 70
     6
  9
$SURFTAB2
 70
     6
  9
$SURFTYPE
 70
     6
  9
$SURFU
 70
     6
  9
$SURFV
 70
     6
  9
$UCSBASE
  2

  9
$UCSNAME
  2

  9
$UCSORG
 10
0.0
 20
0.0
 30
0.0
  9
$UCSXDIR
 10
1.0
 20
0.0
 30
0.0
  9
$UCSYDIR
 10
0.0
 20
1.0
 30
0.0
  9
$UCSORTHOREF
  2

  9
$UCSORTHOVIEW
 70
     0
  9
$UCSORGTOP
 10
0.0
 20
0.0
 30
0.0
  9
$UCSORGBOTTOM
 10
0.0
 20
0.0
 30
0.0
  9
$UCSORGLEFT
 10
0.0
 20
0.0
 30
0.0
  9
$UCSORGRIGHT
 10
0.0
 20
0.0
 30
0.0
  9
$UCSORGFRONT
 10
0.0
 20
0.0
 30
0.0
  9
$UCSORGBACK
 10
0.0
 20
0.0
 30
0.0
  9
$PUCSBASE
  2

  9
$PUCSNAME
  2

  9
$PUCSORG
 10
0.0
 20
0.0
 30
0.0
  9
$PUCSXDIR
 10
1.0
 20
0.0
 30
0.0
  9
$PUCSYDIR
 10
0.0
 20
1.0
 30
0.0
  9
$PUCSORTHOREF
  2

  9
$PUCSORTHOVIEW
 70
     0
  9
$PUCSORGTOP
 10
0.0
 20
0.0
 30
0.0
  9
$PUCSORGBOTTOM
 10
0.0
 20
0.0
 30
0.0
  9
$PUCSORGLEFT
 10
0.0
 20
0.0
 30
0.0
  9
$PUCSORGRIGHT
 10
0.0
 20
0.0
 30
0.0
  9
$PUCSORGFRONT
 10
0.0
 20
0.0
 30
0.0
  9
$PUCSORGBACK
 10
0.0
 20
0.0
 30
0.0
  9
$USERI1
 70
     0
  9
$USERI2
 70
     0
  9
$USERI3
 70
     0
  9
$USERI4
 70
     0
  9
$USERI5
 70
     0
  9
$USERR1
 40
13.2
  9
$USERR2
 40
0.0
  9
$USERR3
 40
0.0
  9
$USERR4
 40
0.0
  9
$USERR5
 40
0.0
  9
$WORLDVIEW
 70
     1
  9
$SHADEDGE
 70
     3
  9
$SHADEDIF
 70
    70
  9
$TILEMODE
 70
     1
  9
$MAXACTVP
 70
    64
  9
$PINSBASE
 10
0.0
 20
0.0
 30
0.0
  9
$PLIMCHECK
 70
     0
  9
$PEXTMIN
 10
1.00000000000000E+20
 20
1.00000000000000E+20
 30
1.00000000000000E+20
  9
$PEXTMAX
 10
-1.00000000000000E+20
 20
-1.00000000000000E+20
 30
-1.00000000000000E+20
  9
$PLIMMIN
 10
0.0
 20
0.0
  9
$PLIMMAX
 10
12.0
 20
9.0
  9
$UNITMODE
 70
     0
  9
$VISRETAIN
 70
     1
  9
$PLINEGEN
 70
     0
  9
$PSLTSCALE
 70
     1
  9
$TREEDEPTH
 70
  3020
  9
$CMLSTYLE
  2
Standard
  9
$CMLJUST
 70
     0
  9
$CMLSCALE
 40
1.0
  9
$PROXYGRAPHICS
 70
     1
  9
$MEASUREMENT
 70
     1
  9
$CELWEIGHT
370
    -1
  9
$ENDCAPS
280
     0
  9
$JOINSTYLE
280
     0
  9
$LWDISPLAY
290
     0
  9
$INSUNITS
 70
     1
  9
$HYPERLINKBASE
  1

  9
$STYLESHEET
  1

  9
$XEDIT
290
     1
  9
$CEPSNTYPE
380
     0
  9
$PSTYLEMODE
290
     0
  9
$FINGERPRINTGUID
  2
{FAEB1C30-E019-11D5-929B-00C0DF256EC4}
  9
$VERSIONGUID
  2
{FAEB1C32-E019-11D5-929B-00C0DF256EC4}
  9
$EXTNAMES
290
     1
  9
$PSVPSCALE
 40
0.0
  9
$OLESTARTUP
290
     0
  0
ENDSEC
  0
SECTION
  2
CLASSES
  0
CLASS
  1
ACDBDICTIONARYWDFLT
  2
AcDbDictionaryWithDefault
  3
ObjectDBX Classes
 90
        0
280
     0
281
     0
  0
CLASS
  1
TABLESTYLE
  2
AcDbTableStyle
  3
ObjectDBX Classes
 90
     2047
280
     0
281
     0
  0
CLASS
  1
DICTIONARYVAR
  2
AcDbDictionaryVar
  3
ObjectDBX Classes
 90
        0
280
     0
281
     0
  0
CLASS
  1

  2
exOdDbCircle
  3

 90
        0
280
     0
281
     1
  0
CLASS
  1

  2
exOdDbSpline
  3

 90
        0
280
     0
281
     1
  0
CLASS
  1
ACDBPLACEHOLDER
  2
AcDbPlaceHolder
  3
ObjectDBX Classes
 90
        0
280
     0
281
     0
  0
CLASS
  1
LAYOUT
  2
AcDbLayout
  3
ObjectDBX Classes
 90
        0
280
     0
281
     0
  0
ENDSEC
  0
SECTION
  2
TABLES
  0
TABLE
  2
VPORT
  5
8
330
0
100
AcDbSymbolTable
 70
     2
  0
VPORT
  5
29
330
8
100
AcDbSymbolTableRecord
100
AcDbViewportTableRecord
  2
*Active
 70
     0
 10
0.0
 20
0.0
 11
1.0
 21
1.0
 12
472.5
 22
668.25
 13
0.0
 23
0.0
 14
0.5
 24
0.5
 15
0.5
 25
0.5
 16
0.0
 26
0.0
 36
1.0
 17
0.0
 27
0.0
 37
0.0
 40
1470.15
 41
1.60267857142857
 42
50.0
 43
0.0
 44
0.0
 50
0.0
 51
0.0
 71
     0
 72
   100
 73
     1
 74
     3
 75
     0
 76
     0
 77
     0
 78
     0
281
     0
 65
     1
110
0.0
120
0.0
130
0.0
111
1.0
121
0.0
131
0.0
112
0.0
122
1.0
132
0.0
 79
     0
146
0.0
  0
ENDTAB
  0
TABLE
  2
LTYPE
  5
5
330
0
100
AcDbSymbolTable
 70
     8
  0
LTYPE
  5
14
330
5
100
AcDbSymbolTableRecord
100
AcDbLinetypeTableRecord
  2
ByBlock
 70
     0
  3

 72
    65
 73
     0
 40
0.0
  0
LTYPE
  5
15
330
5
100
AcDbSymbolTableRecord
100
AcDbLinetypeTableRecord
  2
ByLayer
 70
     0
  3

 72
    65
 73
     0
 40
0.0
  0
LTYPE
  5
16
330
5
100
AcDbSymbolTableRecord
100
AcDbLinetypeTableRecord
  2
Continuous
 70
     0
  3
Solid line
 72
    65
 73
     0
 40
0.0
  0
LTYPE
  5
2E
330
5
100
AcDbSymbolTableRecord
100
AcDbLinetypeTableRecord
  2
DASHED
 70
     0
  3
Dashed
 72
    65
 73
     2
 40
15.0
 49
7.0
 74
     0
 49
-8.0
 74
     0
  0
LTYPE
  5
2F
330
5
100
AcDbSymbolTableRecord
100
AcDbLinetypeTableRecord
  2
DOTTED
 70
     0
  3
Dotted
 72
    65
 73
     2
 40
1.0
 49
0.0
 74
     0
 49
-1.0
 74
     0
  0
LTYPE
  5
30
330
5
100
AcDbSymbolTableRecord
100
AcDbLinetypeTableRecord
  2
DOT_CENTER
 70
     0
  3
Dot_Center
 72
    65
 73
     4
 40
14.0
 49
12.0
 74
     0
 49
-1.0
 74
     0
 49
0.0
 74
     0
 49
-1.0
 74
     0
  0
LTYPE
  5
31
330
5
100
AcDbSymbolTableRecord
100
AcDbLinetypeTableRecord
  2
LONG_DASHED
 70
     0
  3
Long_Dashed
 72
    65
 73
     2
 40
15.0
 49
10.0
 74
     0
 49
-5.0
 74
     0
  0
LTYPE
  5
32
330
5
100
AcDbSymbolTableRecord
100
AcDbLinetypeTableRecord
  2
DASH_CENTER
 70
     0
  3
Dash_Center
 72
    65
 73
     4
 40
14.0
 49
11.0
 74
     0
 49
-1.0
 74
     0
 49
1.0
 74
     0
 49
-1.0
 74
     0
  0
LTYPE
  5
33
330
5
100
AcDbSymbolTableRecord
100
AcDbLinetypeTableRecord
  2
PHANTOM
 70
     0
  3
Phantom
 72
    65
 73
     6
 40
13.0
 49
10.0
 74
     0
 49
-1.0
 74
     0
 49
0.0
 74
     0
 49
-1.0
 74
     0
 49
0.0
 74
     0
 49
-1.0
 74
     0
  0
LTYPE
  5
34
330
5
100
AcDbSymbolTableRecord
100
AcDbLinetypeTableRecord
  2
CENTER_DASH_DASH
 70
     0
  3
Center_Dash_Dash
 72
    65
 73
     6
 40
14.0
 49
9.0
 74
     0
 49
-1.0
 74
     0
 49
1.0
 74
     0
 49
-1.0
 74
     0
 49
1.0
 74
     0
 49
-1.0
 74
     0
  0
ENDTAB
  0
TABLE
  2
LAYER
  5
2
330
0
100
AcDbSymbolTable
 70
     2
  0
LAYER
  5
10
330
2
100
AcDbSymbolTableRecord
100
AcDbLayerTableRecord
  2
0
 70
     0
 62
     7
  6
Continuous
370
    -3
390
F
  0
LAYER
  5
35
330
2
100
AcDbSymbolTableRecord
100
AcDbLayerTableRecord
  2
1
 70
     0
 62
     7
  6
Continuous
370
    -3
390
F
  0
ENDTAB
  0
TABLE
  2
STYLE
  5
3
330
0
100
AcDbSymbolTable
 70
     3
  0
STYLE
  5
11
330
3
100
AcDbSymbolTableRecord
100
AcDbTextStyleTableRecord
  2
Standard
 70
     0
 40
0.0
 41
1.0
 50
0.0
 71
     0
 42
0.2
  3
txt
  4

  0
STYLE
  5
1F0
330
3
100
AcDbSymbolTableRecord
100
AcDbTextStyleTableRecord
  2
CONVERTER_1
 70
     0
 40
0.0
 41
0.89
 50
0.0
 71
     0
 42
0.2
  3
msmincho.ttc
  4

1001
ACAD
1000
MS Mincho
1071
    32785
  0
STYLE
  5
381
330
3
100
AcDbSymbolTableRecord
100
AcDbTextStyleTableRecord
  2
CONVERTER_2
 70
     0
 40
0.0
 41
0.9
 50
0.0
 71
     0
 42
0.2
  3
txt.shx
  4

  0
ENDTAB
  0
TABLE
  2
VIEW
  5
6
330
0
100
AcDbSymbolTable
 70
     0
  0
ENDTAB
  0
TABLE
  2
UCS
  5
7
330
0
100
AcDbSymbolTable
 70
     0
  0
ENDTAB
  0
TABLE
  2
APPID
  5
9
330
0
100
AcDbSymbolTable
 70
     1
  0
APPID
  5
12
330
9
100
AcDbSymbolTableRecord
100
AcDbRegAppTableRecord
  2
ACAD
 70
     0
  0
ENDTAB
  0
TABLE
  2
DIMSTYLE
  5
A
330
0
100
AcDbSymbolTable
 70
     8
100
AcDbDimStyleTable
  0
DIMSTYLE
105
27
330
A
100
AcDbSymbolTableRecord
100
AcDbDimStyleTableRecord
  2
Standard
 70
     0
340
11
  0
DIMSTYLE
105
39A
102
{ACAD_REACTORS
330
39B
102
}
330
A
100
AcDbSymbolTableRecord
100
AcDbDimStyleTableRecord
  2
ME10_DIM_0
 70
     0
 41
15.75
 42
0.0
 44
4.5
 73
     0
 74
     0
 77
     1
 78
     8
140
15.75
147
0.625
172
     1
173
     1
176
     2
177
     2
178
     7
271
     2
340
381
  0
DIMSTYLE
105
3A7
102
{ACAD_REACTORS
330
3A8
102
}
330
A
100
AcDbSymbolTableRecord
100
AcDbDimStyleTableRecord
  2
ME10_DIM_1
 70
     0
 41
15.75
 42
0.0
 44
4.5
 73
     0
 74
     0
 77
     1
 78
     8
140
15.75
147
0.625
172
     1
173
     1
176
     2
177
     2
178
     7
271
     2
340
381
  0
DIMSTYLE
105
3B2
102
{ACAD_REACTORS
330
3B3
102
}
330
A
100
AcDbSymbolTableRecord
100
AcDbDimStyleTableRecord
  2
ME10_DIM_2
 70
     0
 41
15.75
 42
0.0
 44
4.5
 73
     0
 74
     0
 77
     1
 78
     8
140
15.75
147
0.625
172
     1
173
     1
176
     2
177
     2
178
     7
271
     2
340
381
  0
DIMSTYLE
105
3BD
102
{ACAD_REACTORS
330
3BE
102
}
330
A
100
AcDbSymbolTableRecord
100
AcDbDimStyleTableRecord
  2
ME10_DIM_3
 70
     0
  3
最小<>
 41
15.75
 42
0.0
 44
4.5
 73
     0
 74
     0
 77
     1
 78
     8
140
15.75
147
0.625
172
     1
173
     1
176
     2
177
     2
178
     7
271
     2
340
1F0
  0
DIMSTYLE
105
3C8
102
{ACAD_REACTORS
330
3C9
102
}
330
A
100
AcDbSymbolTableRecord
100
AcDbDimStyleTableRecord
  2
ME10_DIM_4
 70
     0
 41
15.75
 42
0.0
 44
4.5
 73
     0
 74
     0
 77
     1
 78
     8
140
15.75
147
0.625
172
     1
173
     1
176
     2
177
     2
178
     7
271
     2
340
381
  0
DIMSTYLE
105
3D3
102
{ACAD_REACTORS
330
3D4
102
}
330
A
100
AcDbSymbolTableRecord
100
AcDbDimStyleTableRecord
  2
ME10_DIM_5
 70
     0
  3
最大<>
 41
15.75
 42
0.0
 44
4.5
 73
     0
 74
     0
 77
     1
 78
     8
140
15.75
147
0.625
172
     1
173
     1
176
     2
177
     2
178
     7
271
     2
340
1F0
  0
DIMSTYLE
105
3DE
102
{ACAD_REACTORS
330
3DF
102
}
330
A
100
AcDbSymbolTableRecord
100
AcDbDimStyleTableRecord
  2
ME10_DIM_6
 70
     0
 41
15.75
 42
0.0
 44
4.5
 73
     0
 74
     0
 77
     1
 78
     8
140
15.75
147
0.625
172
     1
173
     1
176
     2
177
     2
178
     7
271
     2
340
381
  0
ENDTAB
  0
TABLE
  2
BLOCK_RECORD
  5
1
330
0
100
AcDbSymbolTable
 70
    48
  0
BLOCK_RECORD
  5
1F
330
1
100
AcDbSymbolTableRecord
100
AcDbBlockTableRecord
  2
*Model_Space
340
22
  0
BLOCK_RECORD
  5
1B
330
1
100
AcDbSymbolTableRecord
100
AcDbBlockTableRecord
  2
*Paper_Space
340
1E
  0
BLOCK_RECORD
  5
23
330
1
100
AcDbSymbolTableRecord
100
AcDbBlockTableRecord
  2
*Paper_Space0
340
26
  0
BLOCK_RECORD
  5
36
330
1
100
AcDbSymbolTableRecord
100
AcDbBlockTableRecord
  2
34-125B__1
340
0
102
{BLKREFS
331
B8
102
}
  0
BLOCK_RECORD
  5
39
330
1
100
AcDbSymbolTableRecord
100
AcDbBlockTableRecord
  2
88-359__2
340
0
102
{BLKREFS
331
B9
102
}
  0
BLOCK_RECORD
  5
3C
330
1
100
AcDbSymbolTableRecord
100
AcDbBlockTableRecord
  2
37-264__3
340
0
102
{BLKREFS
331
BA
102
}
  0
BLOCK_RECORD
  5
3F
330
1
100
AcDbSymbolTableRecord
100
AcDbBlockTableRecord
  2
37-218
340
0
102
{BLKREFS
331
BB
102
}
  0
BLOCK_RECORD
  5
42
330
1
100
AcDbSymbolTableRecord
100
AcDbBlockTableRecord
  2
37-221__4
340
0
102
{BLKREFS
331
BC
102
}
  0
BLOCK_RECORD
  5
45
330
1
100
AcDbSymbolTableRecord
100
AcDbBlockTableRecord
  2
37-221__5
340
0
102
{BLKREFS
331
BD
102
}
  0
BLOCK_RECORD
  5
48
330
1
100
AcDbSymbolTableRecord
100
AcDbBlockTableRecord
  2
37-222
340
0
102
{BLKREFS
331
BE
102
}
  0
BLOCK_RECORD
  5
4B
330
1
100
AcDbSymbolTableRecord
100
AcDbBlockTableRecord
  2
37-264__6
340
0
102
{BLKREFS
331
BF
102
}
  0
BLOCK_RECORD
  5
4E
330
1
100
AcDbSymbolTableRecord
100
AcDbBlockTableRecord
  2
31-72-M1__7
340
0
102
{BLKREFS
331
C0
102
}
  0
BLOCK_RECORD
  5
51
330
1
100
AcDbSymbolTableRecord
100
AcDbBlockTableRecord
  2
104-4__8
340
0
102
{BLKREFS
331
C1
102
}
  0
BLOCK_RECORD
  5
54
330
1
100
AcDbSymbolTableRecord
100
AcDbBlockTableRecord
  2
37-225A__9
340
0
102
{BLKREFS
331
C2
102
}
  0
BLOCK_RECORD
  5
57
330
1
100
AcDbSymbolTableRecord
100
AcDbBlockTableRecord
  2
34-125B__10
340
0
102
{BLKREFS
331
C3
102
}
  0
BLOCK_RECORD
  5
5A
330
1
100
AcDbSymbolTableRecord
100
AcDbBlockTableRecord
  2
37-225A__11
340
0
102
{BLKREFS
331
C4
102
}
  0
BLOCK_RECORD
  5
5D
330
1
100
AcDbSymbolTableRecord
100
AcDbBlockTableRecord
  2
104-4__12
340
0
102
{BLKREFS
331
C5
102
}
  0
BLOCK_RECORD
  5
60
330
1
100
AcDbSymbolTableRecord
100
AcDbBlockTableRecord
  2
30-184A
340
0
102
{BLKREFS
331
C6
102
}
  0
BLOCK_RECORD
  5
63
330
1
100
AcDbSymbolTableRecord
100
AcDbBlockTableRecord
  2
37-220
340
0
102
{BLKREFS
331
C7
102
}
  0
BLOCK_RECORD
  5
66
330
1
100
AcDbSymbolTableRecord
100
AcDbBlockTableRecord
  2
104-1X
340
0
102
{BLKREFS
331
C8
102
}
  0
BLOCK_RECORD
  5
69
330
1
100
AcDbSymbolTableRecord
100
AcDbBlockTableRecord
  2
104-2__13
340
0
102
{BLKREFS
331
C9
102
}
  0
BLOCK_RECORD
  5
6C
330
1
100
AcDbSymbolTableRecord
100
AcDbBlockTableRecord
  2
33-178A-M11__14
340
0
102
{BLKREFS
331
CA
102
}
  0
BLOCK_RECORD
  5
6F
330
1
100
AcDbSymbolTableRecord
100
AcDbBlockTableRecord
  2
33-178A-M11__15
340
0
102
{BLKREFS
331
CB
102
}
  0
BLOCK_RECORD
  5
72
330
1
100
AcDbSymbolTableRecord
100
AcDbBlockTableRecord
  2
104-2__16
340
0
102
{BLKREFS
331
CC
102
}
  0
BLOCK_RECORD
  5
75
330
1
100
AcDbSymbolTableRecord
100
AcDbBlockTableRecord
  2
31-72-M1__17
340
0
102
{BLKREFS
331
CD
102
}
  0
BLOCK_RECORD
  5
78
330
1
100
AcDbSymbolTableRecord
100
AcDbBlockTableRecord
  2
34-140__18
340
0
102
{BLKREFS
331
CE
102
}
  0
BLOCK_RECORD
  5
7B
330
1
100
AcDbSymbolTableRecord
100
AcDbBlockTableRecord
  2
34-140__19
340
0
102
{BLKREFS
331
CF
102
}
  0
BLOCK_RECORD
  5
7E
330
1
100
AcDbSymbolTableRecord
100
AcDbBlockTableRecord
  2
88-359__20
340
0
102
{BLKREFS
331
D0
102
}
  0
BLOCK_RECORD
  5
81
330
1
100
AcDbSymbolTableRecord
100
AcDbBlockTableRecord
  2
37-222-C2
340
0
102
{BLKREFS
331
D1
102
}
  0
BLOCK_RECORD
  5
84
330
1
100
AcDbSymbolTableRecord
100
AcDbBlockTableRecord
  2
_J__A4
340
0
102
{BLKREFS
331
D2
102
}
  0
BLOCK_RECORD
  5
87
330
1
100
AcDbSymbolTableRecord
100
AcDbBlockTableRecord
  2
104-13B
340
0
102
{BLKREFS
331
D3
102
}
  0
BLOCK_RECORD
  5
8A
330
1
100
AcDbSymbolTableRecord
100
AcDbBlockTableRecord
  2
88-348__21
340
0
102
{BLKREFS
331
9A
102
}
  0
BLOCK_RECORD
  5
8D
330
1
100
AcDbSymbolTableRecord
100
AcDbBlockTableRecord
  2
35-6-12__22
340
0
102
{BLKREFS
331
9B
102
}
  0
BLOCK_RECORD
  5
90
330
1
100
AcDbSymbolTableRecord
100
AcDbBlockTableRecord
  2
33-349A
340
0
102
{BLKREFS
331
9C
102
}
  0
BLOCK_RECORD
  5
93
330
1
100
AcDbSymbolTableRecord
100
AcDbBlockTableRecord
  2
13-11B__23
340
0
102
{BLKREFS
331
9D
102
}
  0
BLOCK_RECORD
  5
96
330
1
100
AcDbSymbolTableRecord
100
AcDbBlockTableRecord
  2
32-3__24
340
0
102
{BLKREFS
331
9E
102
}
  0
BLOCK_RECORD
  5
99
330
1
100
AcDbSymbolTableRecord
100
AcDbBlockTableRecord
  2
U3-100F-5__25
340
0
102
{BLKREFS
331
D4
102
}
  0
BLOCK_RECORD
  5
A1
330
1
100
AcDbSymbolTableRecord
100
AcDbBlockTableRecord
  2
88-348__26
340
0
102
{BLKREFS
331
B1
102
}
  0
BLOCK_RECORD
  5
A4
330
1
100
AcDbSymbolTableRecord
100
AcDbBlockTableRecord
  2
32-3__27
340
0
102
{BLKREFS
331
B2
102
}
  0
BLOCK_RECORD
  5
A7
330
1
100
AcDbSymbolTableRecord
100
AcDbBlockTableRecord
  2
88-349A
340
0
102
{BLKREFS
331
B3
102
}
  0
BLOCK_RECORD
  5
AA
330
1
100
AcDbSymbolTableRecord
100
AcDbBlockTableRecord
  2
13-11B__28
340
0
102
{BLKREFS
331
B4
102
}
  0
BLOCK_RECORD
  5
AD
330
1
100
AcDbSymbolTableRecord
100
AcDbBlockTableRecord
  2
35-6-12__29
340
0
102
{BLKREFS
331
B5
102
}
  0
BLOCK_RECORD
  5
B0
330
1
100
AcDbSymbolTableRecord
100
AcDbBlockTableRecord
  2
U3-100F-5__30
340
0
102
{BLKREFS
331
D5
102
}
  0
BLOCK_RECORD
  5
391
330
1
100
AcDbSymbolTableRecord
100
AcDbBlockTableRecord
  2
*D041
340
0
  0
BLOCK_RECORD
  5
39C
330
1
100
AcDbSymbolTableRecord
100
AcDbBlockTableRecord
  2
*D142
340
0
  0
BLOCK_RECORD
  5
3A9
330
1
100
AcDbSymbolTableRecord
100
AcDbBlockTableRecord
  2
*D243
340
0
  0
BLOCK_RECORD
  5
3B4
330
1
100
AcDbSymbolTableRecord
100
AcDbBlockTableRecord
  2
*D344
340
0
  0
BLOCK_RECORD
  5
3BF
330
1
100
AcDbSymbolTableRecord
100
AcDbBlockTableRecord
  2
*D445
340
0
  0
BLOCK_RECORD
  5
3CA
330
1
100
AcDbSymbolTableRecord
100
AcDbBlockTableRecord
  2
*D546
340
0
  0
BLOCK_RECORD
  5
3D5
330
1
100
AcDbSymbolTableRecord
100
AcDbBlockTableRecord
  2
*D647
340
0
  0
ENDTAB
  0
ENDSEC
  0
SECTION
  2
BLOCKS
  0
BLOCK
  5
20
330
1F
100
AcDbEntity
  8
0
100
AcDbBlockBegin
  2
*Model_Space
 70
     0
 71
     0
 10
0.0
 20
0.0
 30
0.0
  3
*Model_Space
  1

  0
ENDBLK
  5
21
330
1F
100
AcDbEntity
  8
0
100
AcDbBlockEnd
  0
BLOCK
  5
1C
330
1B
100
AcDbEntity
 67
     1
  8
0
100
AcDbBlockBegin
  2
*Paper_Space
 70
     0
 71
     0
 10
0.0
 20
0.0
 30
0.0
  3
*Paper_Space
  1

  0
ENDBLK
  5
1D
330
1B
100
AcDbEntity
 67
     1
  8
0
100
AcDbBlockEnd
  0
BLOCK
  5
24
330
23
100
AcDbEntity
  8
0
100
AcDbBlockBegin
  2
*Paper_Space0
 70
     0
 71
     0
 10
0.0
 20
0.0
 30
0.0
  3
*Paper_Space0
  1

  0
ENDBLK
  5
25
330
23
100
AcDbEntity
  8
0
100
AcDbBlockEnd
  0
BLOCK
  5
37
330
36
100
AcDbEntity
  8
0
100
AcDbBlockBegin
  2
34-125B__1
 70
     0
 71
     0
 10
444.9734346612222
 20
766.0611301872473
 30
0.0
  3
34-125B__1
  1

  0
LINE
  5
D6
330
36
100
AcDbEntity
  8
0
  6
PHANTOM
 62
     2
100
AcDbLine
 10
724.899687329127
 20
560.9611301872474
 30
0.0
 11
724.8996873291267
 21
570.9611301872476
 31
0.0
  0
LINE
  5
D7
330
36
100
AcDbEntity
  8
1
  6
PHANTOM
 62
     2
100
AcDbLine
 10
718.8996873291275
 20
565.9611301872474
 30
0.0
 11
718.8996873291274
 21
570.7611301872471
 31
0.0
  0
LINE
  5
D8
330
36
100
AcDbEntity
  8
1
  6
PHANTOM
 62
     2
100
AcDbLine
 10
719.0996873291275
 20
570.9611301872471
 30
0.0
 11
724.8996873291267
 21
570.9611301872476
 31
0.0
  0
LINE
  5
D9
330
36
100
AcDbEntity
  8
1
  6
PHANTOM
 62
     2
100
AcDbLine
 10
724.8996873291267
 20
570.9611301872476
 30
0.0
 11
725.3996873291267
 21
570.4611301872477
 31
0.0
  0
LINE
  5
DA
330
36
100
AcDbEntity
  8
1
  6
PHANTOM
 62
     2
100
AcDbLine
 10
725.8996873291275
 20
570.7111301872474
 30
0.0
 11
725.3996873291275
 21
570.7111301872474
 31
0.0
  0
LINE
  5
DB
330
36
100
AcDbEntity
  8
1
  6
PHANTOM
 62
     2
100
AcDbLine
 10
725.3996873291275
 20
570.7111301872474
 30
0.0
 11
725.3996873291275
 21
561.2111301872474
 31
0.0
  0
LINE
  5
DC
330
36
100
AcDbEntity
  8
1
  6
PHANTOM
 62
     2
100
AcDbLine
 10
725.3996873291275
 20
561.2111301872474
 30
0.0
 11
725.8996873291275
 21
561.2111301872474
 31
0.0
  0
LINE
  5
DD
330
36
100
AcDbEntity
  8
1
  6
PHANTOM
 62
     2
100
AcDbLine
 10
725.3996873291274
 20
561.4611301872474
 30
0.0
 11
724.899687329127
 21
560.9611301872474
 31
0.0
  0
LINE
  5
DE
330
36
100
AcDbEntity
  8
1
  6
PHANTOM
 62
     2
100
AcDbLine
 10
724.899687329127
 20
560.9611301872474
 30
0.0
 11
719.0996873291276
 21
560.9611301872474
 31
0.0
  0
LINE
  5
DF
330
36
100
AcDbEntity
  8
1
  6
PHANTOM
 62
     2
100
AcDbLine
 10
718.8996873291276
 20
561.1611301872473
 30
0.0
 11
718.8996873291275
 21
565.9611301872474
 31
0.0
  0
LINE
  5
E0
330
36
100
AcDbEntity
  8
0
  6
Continuous
 62
     7
100
AcDbLine
 10
759.4996873291275
 20
605.561130187248
 30
0.0
 11
769.4996873291278
 21
605.561130187248
 31
0.0
  0
LINE
  5
E1
330
36
100
AcDbEntity
  8
1
  6
Continuous
 62
     7
100
AcDbLine
 10
764.4996873291274
 20
611.5611301872472
 30
0.0
 11
769.2996873291273
 21
611.5611301872475
 31
0.0
  0
LINE
  5
E2
330
36
100
AcDbEntity
  8
1
  6
Continuous
 62
     7
100
AcDbLine
 10
769.4996873291274
 20
611.3611301872475
 30
0.0
 11
769.4996873291278
 21
605.561130187248
 31
0.0
  0
LINE
  5
E3
330
36
100
AcDbEntity
  8
1
  6
Continuous
 62
     7
100
AcDbLine
 10
769.4996873291278
 20
605.561130187248
 30
0.0
 11
768.9996873291278
 21
605.061130187248
 31
0.0
  0
LINE
  5
E4
330
36
100
AcDbEntity
  8
1
  6
Continuous
 62
     7
100
AcDbLine
 10
769.2496873291274
 20
604.5611301872472
 30
0.0
 11
769.2496873291274
 21
605.0611301872472
 31
0.0
  0
LINE
  5
E5
330
36
100
AcDbEntity
  8
1
  6
Continuous
 62
     7
100
AcDbLine
 10
769.2496873291274
 20
605.0611301872472
 30
0.0
 11
759.7496873291273
 21
605.0611301872472
 31
0.0
  0
LINE
  5
E6
330
36
100
AcDbEntity
  8
1
  6
Continuous
 62
     7
100
AcDbLine
 10
759.7496873291273
 20
605.0611301872472
 30
0.0
 11
759.7496873291274
 21
604.5611301872472
 31
0.0
  0
LINE
  5
E7
330
36
100
AcDbEntity
  8
1
  6
Continuous
 62
     7
100
AcDbLine
 10
759.9996873291275
 20
605.0611301872476
 30
0.0
 11
759.4996873291275
 21
605.561130187248
 31
0.0
  0
LINE
  5
E8
330
36
100
AcDbEntity
  8
1
  6
Continuous
 62
     7
100
AcDbLine
 10
759.4996873291275
 20
605.561130187248
 30
0.0
 11
759.4996873291275
 21
611.3611301872473
 31
0.0
  0
LINE
  5
E9
330
36
100
AcDbEntity
  8
1
  6
Continuous
 62
     7
100
AcDbLine
 10
759.6996873291275
 20
611.5611301872472
 30
0.0
 11
764.4996873291274
 21
611.5611301872472
 31
0.0
  0
LINE
  5
EA
330
36
100
AcDbEntity
  8
0
  6
Continuous
 62
     7
100
AcDbLine
 10
404.9734346612223
 20
605.5611301872478
 30
0.0
 11
414.9734346612225
 21
605.5611301872478
 31
0.0
  0
LINE
  5
EB
330
36
100
AcDbEntity
  8
1
  6
Continuous
 62
     7
100
AcDbLine
 10
414.9734346612221
 20
611.3611301872473
 30
0.0
 11
414.9734346612225
 21
605.5611301872478
 31
0.0
  0
LINE
  5
EC
330
36
100
AcDbEntity
  8
1
  6
Continuous
 62
     7
100
AcDbLine
 10
414.9734346612225
 20
605.5611301872478
 30
0.0
 11
414.4734346612226
 21
605.0611301872478
 31
0.0
  0
LINE
  5
ED
330
36
100
AcDbEntity
  8
1
  6
Continuous
 62
     7
100
AcDbLine
 10
414.7234346612222
 20
604.5611301872472
 30
0.0
 11
414.7234346612222
 21
605.0611301872472
 31
0.0
  0
LINE
  5
EE
330
36
100
AcDbEntity
  8
1
  6
Continuous
 62
     7
100
AcDbLine
 10
414.7234346612222
 20
605.0611301872472
 30
0.0
 11
405.2234346612222
 21
605.0611301872472
 31
0.0
  0
LINE
  5
EF
330
36
100
AcDbEntity
  8
1
  6
Continuous
 62
     7
100
AcDbLine
 10
405.2234346612222
 20
605.0611301872472
 30
0.0
 11
405.2234346612222
 21
604.5611301872472
 31
0.0
  0
LINE
  5
F0
330
36
100
AcDbEntity
  8
1
  6
Continuous
 62
     7
100
AcDbLine
 10
405.4734346612223
 20
605.0611301872475
 30
0.0
 11
404.9734346612223
 21
605.5611301872478
 31
0.0
  0
LINE
  5
F1
330
36
100
AcDbEntity
  8
1
  6
Continuous
 62
     7
100
AcDbLine
 10
404.9734346612223
 20
605.5611301872478
 30
0.0
 11
404.9734346612223
 21
611.3611301872472
 31
0.0
  0
LINE
  5
F2
330
36
100
AcDbEntity
  8
1
  6
Continuous
 62
     7
100
AcDbLine
 10
405.1734346612223
 20
611.5611301872472
 30
0.0
 11
414.7734346612221
 21
611.5611301872474
 31
0.0
  0
CIRCLE
  5
F3
330
36
100
AcDbEntity
  8
1
  6
Continuous
 62
     7
100
AcDbCircle
 10
409.9734346612222
 20
919.4611301872474
 30
0.0
 40
5.081398472719752
  0
ARC
  5
F4
330
36
100
AcDbEntity
  8
1
  6
PHANTOM
 62
     2
100
AcDbCircle
 10
719.0996873291275
 20
570.7611301872471
 30
0.0
 40
0.2000000000000455
100
AcDbArc
 50
90.0
 51
180.0
  0
ARC
  5
F5
330
36
100
AcDbEntity
  8
1
  6
PHANTOM
 62
     2
100
AcDbCircle
 10
719.0996873291276
 20
561.1611301872473
 30
0.0
 40
0.2000000000000455
100
AcDbArc
 50
180.0
 51
-90.0
  0
ARC
  5
F6
330
36
100
AcDbEntity
  8
1
  6
Continuous
 62
     7
100
AcDbCircle
 10
769.2996873291273
 20
611.3611301872475
 30
0.0
 40
0.2000000000000455
100
AcDbArc
 50
0.0
 51
90.0
  0
ARC
  5
F7
330
36
100
AcDbEntity
  8
1
  6
Continuous
 62
     7
100
AcDbCircle
 10
759.6996873291275
 20
611.3611301872473
 30
0.0
 40
0.1999999999998181
100
AcDbArc
 50
90.0
 51
180.0
  0
ARC
  5
F8
330
36
100
AcDbEntity
  8
1
  6
Continuous
 62
     7
100
AcDbCircle
 10
414.7734346612221
 20
611.3611301872473
 30
0.0
 40
0.1999999999999886
100
AcDbArc
 50
0.0
 51
90.0
  0
ARC
  5
F9
330
36
100
AcDbEntity
  8
1
  6
Continuous
 62
     7
100
AcDbCircle
 10
405.1734346612223
 20
611.3611301872472
 30
0.0
 40
0.1999999999999318
100
AcDbArc
 50
90.0
 51
180.0
  0
ENDBLK
  5
38
330
36
100
AcDbEntity
  8
0
100
AcDbBlockEnd
  0
BLOCK
  5
3A
330
39
100
AcDbEntity
  8
0
100
AcDbBlockBegin
  2
88-359__2
 70
     0
 71
     0
 10
718.2207307308432
 20
1232.655911094588
 30
0.0
  3
88-359__2
  1

  0
LINE
  5
FA
330
39
100
AcDbEntity
  8
1
  6
Continuous
 62
     7
100
AcDbLine
 10
188.9734346612225
 20
905.4611301872474
 30
0.0
 11
189.4734346612225
 21
905.4611301872474
 31
0.0
  0
LINE
  5
FB
330
39
100
AcDbEntity
  8
1
  6
Continuous
 62
     7
100
AcDbLine
 10
188.9734346612225
 20
933.4611301872474
 30
0.0
 11
189.4734346612225
 21
933.4611301872474
 31
0.0
  0
LINE
  5
FC
330
39
100
AcDbEntity
  8
1
  6
Continuous
 62
     7
100
AcDbLine
 10
400.4734346612215
 20
905.4611301872474
 30
0.0
 11
400.9734346612215
 21
905.4611301872474
 31
0.0
  0
ENDBLK
  5
3B
330
39
100
AcDbEntity
  8
0
100
AcDbBlockEnd
  0
BLOCK
  5
3D
330
3C
100
AcDbEntity
  8
0
100
AcDbBlockBegin
  2
37-264__3
 70
     0
 71
     0
 10
222.4734346612225
 20
690.9611301872473
 30
0.0
  3
37-264__3
  1

  0
LINE
  5
FD
330
3C
100
AcDbEntity
  8
1
  6
Continuous
 62
     7
100
AcDbLine
 10
219.4734346612221
 20
539.9611301872471
 30
0.0
 11
219.4734346612221
 21
591.9611301872471
 31
0.0
  0
LINE
  5
FE
330
3C
100
AcDbEntity
  8
1
  6
Continuous
 62
     7
100
AcDbLine
 10
213.4734346612217
 20
539.9611301872471
 30
0.0
 11
219.4734346612221
 21
539.9611301872471
 31
0.0
  0
LINE
  5
FF
330
3C
100
AcDbEntity
  8
1
  6
Continuous
 62
     7
100
AcDbLine
 10
212.4734346612217
 20
590.9611301872471
 30
0.0
 11
212.4734346612217
 21
540.9611301872471
 31
0.0
  0
LINE
  5
100
330
3C
100
AcDbEntity
  8
1
  6
Continuous
 62
     7
100
AcDbLine
 10
219.4734346612221
 20
591.9611301872471
 30
0.0
 11
213.4734346612217
 21
591.9611301872471
 31
0.0
  0
LINE
  5
101
330
3C
100
AcDbEntity
  8
1
  6
Continuous
 62
     7
100
AcDbLine
 10
219.4734346612221
 20
893.4611301872474
 30
0.0
 11
219.4734346612221
 21
945.4611301872474
 31
0.0
  0
LINE
  5
102
330
3C
100
AcDbEntity
  8
1
  6
Continuous
 62
     7
100
AcDbLine
 10
213.4734346612217
 20
893.4611301872474
 30
0.0
 11
219.4734346612221
 21
893.4611301872474
 31
0.0
  0
LINE
  5
103
330
3C
100
AcDbEntity
  8
1
  6
Continuous
 62
     7
100
AcDbLine
 10
212.4734346612217
 20
944.4611301872474
 30
0.0
 11
212.4734346612217
 21
894.4611301872474
 31
0.0
  0
LINE
  5
104
330
3C
100
AcDbEntity
  8
1
  6
Continuous
 62
     7
100
AcDbLine
 10
219.4734346612221
 20
945.4611301872474
 30
0.0
 11
213.4734346612217
 21
945.4611301872474
 31
0.0
  0
ARC
  5
105
330
3C
100
AcDbEntity
  8
1
  6
Continuous
 62
     7
100
AcDbCircle
 10
213.4734346612217
 20
540.9611301872471
 30
0.0
 40
1.0
100
AcDbArc
 50
180.0
 51
-90.0
  0
ARC
  5
106
330
3C
100
AcDbEntity
  8
1
  6
Continuous
 62
     7
100
AcDbCircle
 10
213.4734346612217
 20
590.9611301872471
 30
0.0
 40
1.0
100
AcDbArc
 50
90.0
 51
180.0
  0
ARC
  5
107
330
3C
100
AcDbEntity
  8
1
  6
Continuous
 62
     7
100
AcDbCircle
 10
213.4734346612217
 20
894.4611301872474
 30
0.0
 40
1.0
100
AcDbArc
 50
180.0
 51
-90.0
  0
ARC
  5
108
330
3C
100
AcDbEntity
  8
1
  6
Continuous
 62
     7
100
AcDbCircle
 10
213.4734346612217
 20
944.4611301872474
 30
0.0
 40
1.0
100
AcDbArc
 50
90.0
 51
180.0
  0
ENDBLK
  5
3E
330
3C
100
AcDbEntity
  8
0
100
AcDbBlockEnd
  0
BLOCK
  5
40
330
3F
100
AcDbEntity
  8
0
100
AcDbBlockBegin
  2
37-218
 70
     0
 71
     0
 10
580.9734346612232
 20
971.4611301872474
 30
0.0
  3
37-218
  1

  0
LINE
  5
109
330
3F
100
AcDbEntity
  8
1
  6
Continuous
 62
     7
100
AcDbLine
 10
280.9734346612221
 20
612.9611301872473
 30
0.0
 11
280.9734346612221
 21
591.9611301872471
 31
0.0
  0
LINE
  5
10A
330
3F
100
AcDbEntity
  8
1
  6
Continuous
 62
     7
100
AcDbLine
 10
308.9734346612221
 20
612.9611301872473
 30
0.0
 11
308.9734346612221
 21
591.9611301872471
 31
0.0
  0
ENDBLK
  5
41
330
3F
100
AcDbEntity
  8
0
100
AcDbBlockEnd
  0
BLOCK
  5
43
330
42
100
AcDbEntity
  8
0
100
AcDbBlockBegin
  2
37-221__4
 70
     0
 71
     0
 10
653.6222366229899
 20
735.6347458499131
 30
0.0
  3
37-221__4
  1

  0
LINE
  5
10B
330
42
100
AcDbEntity
  8
1
  6
Continuous
 62
     7
100
AcDbLine
 10
379.9734346612217
 20
548.961130187247
 30
0.0
 11
377.4734346612225
 21
548.961130187247
 31
0.0
  0
LINE
  5
10C
330
42
100
AcDbEntity
  8
1
  6
Continuous
 62
     7
100
AcDbLine
 10
380.4734346612217
 20
551.9611301872471
 30
0.0
 11
380.4734346612217
 21
549.461130187247
 31
0.0
  0
LINE
  5
10D
330
42
100
AcDbEntity
  8
1
  6
Continuous
 62
     7
100
AcDbLine
 10
400.9734346612218
 20
557.4611301872471
 30
0.0
 11
400.4734346612217
 21
557.4611301872471
 31
0.0
  0
LINE
  5
10E
330
42
100
AcDbEntity
  8
1
  6
Continuous
 62
     7
100
AcDbLine
 10
377.4734346612225
 20
582.9611301872475
 30
0.0
 11
379.9734346612217
 21
582.9611301872475
 31
0.0
  0
LINE
  5
10F
330
42
100
AcDbEntity
  8
1
  6
Continuous
 62
     7
100
AcDbLine
 10
380.4734346612217
 20
582.461130187247
 30
0.0
 11
380.4734346612217
 21
579.9611301872471
 31
0.0
  0
LINE
  5
110
330
42
100
AcDbEntity
  8
1
  6
Continuous
 62
     7
100
AcDbLine
 10
400.4734346612217
 20
574.4611301872471
 30
0.0
 11
400.9734346612218
 21
574.4611301872471
 31
0.0
  0
LINE
  5
111
330
42
100
AcDbEntity
  8
1
  6
Continuous
 62
     7
100
AcDbLine
 10
379.9734346612217
 20
902.4611301872471
 30
0.0
 11
377.4734346612225
 21
902.4611301872471
 31
0.0
  0
LINE
  5
112
330
42
100
AcDbEntity
  8
1
  6
Continuous
 62
     7
100
AcDbLine
 10
380.4734346612217
 20
905.4611301872474
 30
0.0
 11
380.4734346612217
 21
902.9611301872471
 31
0.0
  0
LINE
  5
113
330
42
100
AcDbEntity
  8
1
  6
Continuous
 62
     7
100
AcDbLine
 10
377.4734346612225
 20
936.4611301872477
 30
0.0
 11
379.9734346612217
 21
936.4611301872477
 31
0.0
  0
LINE
  5
114
330
42
100
AcDbEntity
  8
1
  6
Continuous
 62
     7
100
AcDbLine
 10
380.4734346612217
 20
935.9611301872471
 30
0.0
 11
380.4734346612217
 21
933.4611301872474
 31
0.0
  0
ARC
  5
115
330
42
100
AcDbEntity
  8
1
  6
Continuous
 62
     7
100
AcDbCircle
 10
379.9734346612217
 20
549.461130187247
 30
0.0
 40
0.5
100
AcDbArc
 50
-90.0
 51
0.0
  0
ARC
  5
116
330
42
100
AcDbEntity
  8
1
  6
Continuous
 62
     7
100
AcDbCircle
 10
379.9734346612217
 20
582.4611301872475
 30
0.0
 40
0.5
100
AcDbArc
 50
-0.00000000005211
 51
90.0
  0
ARC
  5
117
330
42
100
AcDbEntity
  8
1
  6
Continuous
 62
     7
100
AcDbCircle
 10
379.9734346612217
 20
902.9611301872471
 30
0.0
 40
0.5
100
AcDbArc
 50
-90.0
 51
0.0
  0
ARC
  5
118
330
42
100
AcDbEntity
  8
1
  6
Continuous
 62
     7
100
AcDbCircle
 10
379.9734346612217
 20
935.9611301872477
 30
0.0
 40
0.5
100
AcDbArc
 50
-0.00000000006514
 51
90.0
  0
ENDBLK
  5
44
330
42
100
AcDbEntity
  8
0
100
AcDbBlockEnd
  0
BLOCK
  5
46
330
45
100
AcDbEntity
  8
0
100
AcDbBlockBegin
  2
37-221__5
 70
     0
 71
     0
 10
-63.67536730054565
 20
735.6347458499131
 30
0.0
  3
37-221__5
  1

  0
LINE
  5
119
330
45
100
AcDbEntity
  8
1
  6
Continuous
 62
     7
100
AcDbLine
 10
209.9734346612226
 20
582.9611301872474
 30
0.0
 11
212.4734346612217
 21
582.9611301872474
 31
0.0
  0
LINE
  5
11A
330
45
100
AcDbEntity
  8
1
  6
Continuous
 62
     7
100
AcDbLine
 10
209.4734346612226
 20
549.461130187247
 30
0.0
 11
209.4734346612225
 21
551.9611301872471
 31
0.0
  0
LINE
  5
11B
330
45
100
AcDbEntity
  8
1
  6
Continuous
 62
     7
100
AcDbLine
 10
212.4734346612217
 20
548.961130187247
 30
0.0
 11
209.9734346612226
 21
548.961130187247
 31
0.0
  0
LINE
  5
11C
330
45
100
AcDbEntity
  8
1
  6
Continuous
 62
     7
100
AcDbLine
 10
209.4734346612225
 20
579.9611301872471
 30
0.0
 11
209.4734346612226
 21
582.461130187247
 31
0.0
  0
LINE
  5
11D
330
45
100
AcDbEntity
  8
1
  6
Continuous
 62
     7
100
AcDbLine
 10
209.9734346612226
 20
936.4611301872475
 30
0.0
 11
212.4734346612217
 21
936.4611301872475
 31
0.0
  0
LINE
  5
11E
330
45
100
AcDbEntity
  8
1
  6
Continuous
 62
     7
100
AcDbLine
 10
209.4734346612226
 20
902.961130187247
 30
0.0
 11
209.4734346612225
 21
905.4611301872474
 31
0.0
  0
LINE
  5
11F
330
45
100
AcDbEntity
  8
1
  6
Continuous
 62
     7
100
AcDbLine
 10
212.4734346612217
 20
902.461130187247
 30
0.0
 11
209.9734346612226
 21
902.461130187247
 31
0.0
  0
LINE
  5
120
330
45
100
AcDbEntity
  8
1
  6
Continuous
 62
     7
100
AcDbLine
 10
209.4734346612225
 20
933.4611301872474
 30
0.0
 11
209.4734346612226
 21
935.961130187247
 31
0.0
  0
ARC
  5
121
330
45
100
AcDbEntity
  8
1
  6
Continuous
 62
     7
100
AcDbCircle
 10
209.9734346612226
 20
549.461130187247
 30
0.0
 40
0.5
100
AcDbArc
 50
180.0
 51
-90.0
  0
ARC
  5
122
330
45
100
AcDbEntity
  8
1
  6
Continuous
 62
     7
100
AcDbCircle
 10
209.9734346612226
 20
582.4611301872474
 30
0.0
 40
0.5
100
AcDbArc
 50
90.0
 51
-179.9999999999609
  0
ARC
  5
123
330
45
100
AcDbEntity
  8
1
  6
Continuous
 62
     7
100
AcDbCircle
 10
209.9734346612226
 20
902.961130187247
 30
0.0
 40
0.5
100
AcDbArc
 50
180.0
 51
-90.0
  0
ARC
  5
124
330
45
100
AcDbEntity
  8
1
  6
Continuous
 62
     7
100
AcDbCircle
 10
209.9734346612226
 20
935.9611301872475
 30
0.0
 40
0.5
100
AcDbArc
 50
90.0
 51
-179.9999999999479
  0
ENDBLK
  5
47
330
45
100
AcDbEntity
  8
0
100
AcDbBlockEnd
  0
BLOCK
  5
49
330
48
100
AcDbEntity
  8
0
100
AcDbBlockBegin
  2
37-222
 70
     0
 71
     0
 10
351.7554213385959
 20
124.810089217132
 30
0.0
  3
37-222
  1

  0
LINE
  5
125
330
48
100
AcDbEntity
  8
1
  6
Continuous
 62
     7
100
AcDbLine
 10
369.9734346612219
 20
902.8611301872456
 30
0.0
 11
370.4734346612221
 21
902.8611301872456
 31
0.0
  0
LINE
  5
126
330
48
100
AcDbEntity
  8
1
  6
Continuous
 62
     7
100
AcDbLine
 10
370.4734346612221
 20
936.061130187249
 30
0.0
 11
369.9734346612219
 21
936.061130187249
 31
0.0
  0
LINE
  5
127
330
48
100
AcDbEntity
  8
1
  6
Continuous
 62
     7
100
AcDbLine
 10
369.9734346612219
 20
549.3611301872456
 30
0.0
 11
370.4734346612221
 21
549.3611301872456
 31
0.0
  0
LINE
  5
128
330
48
100
AcDbEntity
  8
1
  6
Continuous
 62
     7
100
AcDbLine
 10
370.4734346612221
 20
582.561130187249
 30
0.0
 11
369.9734346612219
 21
582.561130187249
 31
0.0
  0
ENDBLK
  5
4A
330
48
100
AcDbEntity
  8
0
100
AcDbBlockEnd
  0
BLOCK
  5
4C
330
4B
100
AcDbEntity
  8
0
100
AcDbBlockBegin
  2
37-264__6
 70
     0
 71
     0
 10
367.4734346612217
 20
690.9611301872473
 30
0.0
  3
37-264__6
  1

  0
LINE
  5
129
330
4B
100
AcDbEntity
  8
1
  6
Continuous
 62
     7
100
AcDbLine
 10
376.4734346612225
 20
591.9611301872471
 30
0.0
 11
370.4734346612221
 21
591.9611301872471
 31
0.0
  0
LINE
  5
12A
330
4B
100
AcDbEntity
  8
1
  6
Continuous
 62
     7
100
AcDbLine
 10
377.4734346612225
 20
540.9611301872471
 30
0.0
 11
377.4734346612225
 21
590.9611301872471
 31
0.0
  0
LINE
  5
12B
330
4B
100
AcDbEntity
  8
1
  6
Continuous
 62
     7
100
AcDbLine
 10
370.4734346612221
 20
539.9611301872471
 30
0.0
 11
376.4734346612225
 21
539.9611301872471
 31
0.0
  0
LINE
  5
12C
330
4B
100
AcDbEntity
  8
1
  6
Continuous
 62
     7
100
AcDbLine
 10
370.4734346612221
 20
591.9611301872471
 30
0.0
 11
370.4734346612221
 21
539.9611301872471
 31
0.0
  0
LINE
  5
12D
330
4B
100
AcDbEntity
  8
1
  6
Continuous
 62
     7
100
AcDbLine
 10
376.4734346612225
 20
945.4611301872474
 30
0.0
 11
370.4734346612221
 21
945.4611301872474
 31
0.0
  0
LINE
  5
12E
330
4B
100
AcDbEntity
  8
1
  6
Continuous
 62
     7
100
AcDbLine
 10
377.4734346612225
 20
894.4611301872474
 30
0.0
 11
377.4734346612225
 21
944.4611301872474
 31
0.0
  0
LINE
  5
12F
330
4B
100
AcDbEntity
  8
1
  6
Continuous
 62
     7
100
AcDbLine
 10
370.4734346612221
 20
893.4611301872474
 30
0.0
 11
376.4734346612225
 21
893.4611301872474
 31
0.0
  0
LINE
  5
130
330
4B
100
AcDbEntity
  8
1
  6
Continuous
 62
     7
100
AcDbLine
 10
370.4734346612221
 20
945.4611301872474
 30
0.0
 11
370.4734346612221
 21
893.4611301872474
 31
0.0
  0
ARC
  5
131
330
4B
100
AcDbEntity
  8
1
  6
Continuous
 62
     7
100
AcDbCircle
 10
376.4734346612225
 20
590.9611301872471
 30
0.0
 40
1.0
100
AcDbArc
 50
0.0
 51
90.0
  0
ARC
  5
132
330
4B
100
AcDbEntity
  8
1
  6
Continuous
 62
     7
100
AcDbCircle
 10
376.4734346612225
 20
540.9611301872471
 30
0.0
 40
1.0
100
AcDbArc
 50
-90.0
 51
0.0
  0
ARC
  5
133
330
4B
100
AcDbEntity
  8
1
  6
Continuous
 62
     7
100
AcDbCircle
 10
376.4734346612225
 20
944.4611301872474
 30
0.0
 40
1.0
100
AcDbArc
 50
0.0
 51
90.0
  0
ARC
  5
134
330
4B
100
AcDbEntity
  8
1
  6
Continuous
 62
     7
100
AcDbCircle
 10
376.4734346612225
 20
894.4611301872474
 30
0.0
 40
1.0
100
AcDbArc
 50
-90.0
 51
0.0
  0
ENDBLK
  5
4D
330
4B
100
AcDbEntity
  8
0
100
AcDbBlockEnd
  0
BLOCK
  5
4F
330
4E
100
AcDbEntity
  8
0
100
AcDbBlockBegin
  2
31-72-M1__7
 70
     0
 71
     0
 10
692.0131279172676
 20
1297.435014104784
 30
0.0
  3
31-72-M1__7
  1

  0
LINE
  5
135
330
4E
100
AcDbEntity
  8
1
  6
Continuous
 62
     7
100
AcDbLine
 10
404.8734346612221
 20
579.9611301872471
 30
0.0
 11
400.9734346612218
 21
579.9611301872471
 31
0.0
  0
LINE
  5
136
330
4E
100
AcDbEntity
  8
1
  6
Continuous
 62
     7
100
AcDbLine
 10
420.9734346612156
 20
552.1611301872472
 30
0.0
 11
420.9734346612156
 21
579.7611301872472
 31
0.0
  0
LINE
  5
137
330
4E
100
AcDbEntity
  8
1
  6
Continuous
 62
     7
100
AcDbLine
 10
415.0734346612222
 20
579.9611301872471
 30
0.0
 11
420.7734346612159
 21
579.9611301872471
 31
0.0
  0
LINE
  5
138
330
4E
100
AcDbEntity
  8
1
  6
Continuous
 62
     7
100
AcDbLine
 10
400.9734346612218
 20
551.9611301872471
 30
0.0
 11
420.7734346612159
 21
551.9611301872471
 31
0.0
  0
LINE
  5
139
330
4E
100
AcDbEntity
  8
1
  6
Continuous
 62
     7
100
AcDbLine
 10
400.9734346612218
 20
579.9611301872471
 30
0.0
 11
400.9734346612218
 21
551.9611301872471
 31
0.0
  0
LINE
  5
13A
330
4E
100
AcDbEntity
  8
1
  6
Continuous
 62
     7
100
AcDbLine
 10
420.9734346612156
 20
905.6611301872474
 30
0.0
 11
420.9734346612156
 21
933.2611301872474
 31
0.0
  0
LINE
  5
13B
330
4E
100
AcDbEntity
  8
1
  6
Continuous
 62
     7
100
AcDbLine
 10
400.9734346612218
 20
933.4611301872474
 30
0.0
 11
420.7734346612159
 21
933.4611301872474
 31
0.0
  0
LINE
  5
13C
330
4E
100
AcDbEntity
  8
1
  6
Continuous
 62
     7
100
AcDbLine
 10
400.9734346612218
 20
905.4611301872474
 30
0.0
 11
420.7734346612159
 21
905.4611301872474
 31
0.0
  0
LINE
  5
13D
330
4E
100
AcDbEntity
  8
1
  6
Continuous
 62
     7
100
AcDbLine
 10
400.9734346612218
 20
933.4611301872474
 30
0.0
 11
400.9734346612218
 21
905.4611301872474
 31
0.0
  0
ARC
  5
13E
330
4E
100
AcDbEntity
  8
1
  6
Continuous
 62
     7
100
AcDbCircle
 10
409.973434661222
 20
586.1247330297388
 30
0.0
 40
7.999999999998085
100
AcDbArc
 50
-129.6056523938779
 51
-50.39434760611989
  0
ARC
  5
13F
330
4E
100
AcDbEntity
  8
1
  6
Continuous
 62
     7
100
AcDbCircle
 10
420.7734346612159
 20
579.7611301872472
 30
0.0
 40
0.1999999999997044
100
AcDbArc
 50
0.0
 51
90.0
  0
ARC
  5
140
330
4E
100
AcDbEntity
  8
1
  6
Continuous
 62
     7
100
AcDbCircle
 10
420.7734346612159
 20
552.1611301872472
 30
0.0
 40
0.2000000000000455
100
AcDbArc
 50
-90.0
 51
0.0
  0
ARC
  5
141
330
4E
100
AcDbEntity
  8
1
  6
Continuous
 62
     7
100
AcDbCircle
 10
420.7734346612159
 20
933.2611301872474
 30
0.0
 40
0.1999999999997044
100
AcDbArc
 50
0.0
 51
90.0
  0
ARC
  5
142
330
4E
100
AcDbEntity
  8
1
  6
Continuous
 62
     7
100
AcDbCircle
 10
420.7734346612159
 20
905.6611301872474
 30
0.0
 40
0.2000000000000455
100
AcDbArc
 50
-90.0
 51
0.0
  0
ENDBLK
  5
50
330
4E
100
AcDbEntity
  8
0
100
AcDbBlockEnd
  0
BLOCK
  5
52
330
51
100
AcDbEntity
  8
0
100
AcDbBlockBegin
  2
104-4__8
 70
     0
 71
     0
 10
184.9734346612283
 20
609.5611301872472
 30
0.0
  3
104-4__8
  1

  0
LINE
  5
143
330
51
100
AcDbEntity
  8
1
  6
Continuous
 62
     7
100
AcDbLine
 10
174.9734346612283
 20
604.5611301872472
 30
0.0
 11
184.9734346612283
 21
604.5611301872472
 31
0.0
  0
LINE
  5
144
330
51
100
AcDbEntity
  8
1
  6
Continuous
 62
     7
100
AcDbLine
 10
184.9734346612283
 20
604.5611301872472
 30
0.0
 11
184.9734346612283
 21
581.5611301872472
 31
0.0
  0
LINE
  5
145
330
51
100
AcDbEntity
  8
1
  6
Continuous
 62
     7
100
AcDbLine
 10
174.9734346612283
 20
581.5611301872472
 30
0.0
 11
174.9734346612283
 21
604.5611301872472
 31
0.0
  0
ENDBLK
  5
53
330
51
100
AcDbEntity
  8
0
100
AcDbBlockEnd
  0
BLOCK
  5
55
330
54
100
AcDbEntity
  8
0
100
AcDbBlockBegin
  2
37-225A__9
 70
     0
 71
     0
 10
184.9734346612283
 20
568.5611301872472
 30
0.0
  3
37-225A__9
  1

  0
LINE
  5
146
330
54
100
AcDbEntity
  8
1
  6
Continuous
 62
     7
100
AcDbLine
 10
184.9734346612283
 20
581.5611301872472
 30
0.0
 11
174.9734346612283
 21
581.5611301872472
 31
0.0
  0
LINE
  5
147
330
54
100
AcDbEntity
  8
1
  6
Continuous
 62
     7
100
AcDbLine
 10
184.9734346612283
 20
581.5611301872472
 30
0.0
 11
184.9734346612283
 21
579.8953885167853
 31
0.0
  0
LINE
  5
148
330
54
100
AcDbEntity
  8
1
  6
Continuous
 62
     7
100
AcDbLine
 10
174.9734346612283
 20
581.5611301872472
 30
0.0
 11
174.9734346612283
 21
579.8953885167853
 31
0.0
  0
ENDBLK
  5
56
330
54
100
AcDbEntity
  8
0
100
AcDbBlockEnd
  0
BLOCK
  5
58
330
57
100
AcDbEntity
  8
0
100
AcDbBlockBegin
  2
34-125B__10
 70
     0
 71
     0
 10
184.9734346612283
 20
766.0611301872473
 30
0.0
  3
34-125B__10
  1

  0
LINE
  5
149
330
57
100
AcDbEntity
  8
0
  6
Continuous
 62
     7
100
AcDbLine
 10
174.9734346612283
 20
605.5611301872472
 30
0.0
 11
184.9734346612283
 21
605.5611301872472
 31
0.0
  0
LINE
  5
14A
330
57
100
AcDbEntity
  8
1
  6
Continuous
 62
     7
100
AcDbLine
 10
184.7234346612222
 20
604.5611301872472
 30
0.0
 11
184.7234346612222
 21
605.0611301872472
 31
0.0
  0
LINE
  5
14B
330
57
100
AcDbEntity
  8
1
  6
Continuous
 62
     7
100
AcDbLine
 10
175.2234346612222
 20
605.0611301872472
 30
0.0
 11
175.2234346612222
 21
604.5611301872472
 31
0.0
  0
LINE
  5
14C
330
57
100
AcDbEntity
  8
1
  6
Continuous
 62
     7
100
AcDbLine
 10
184.7234346612222
 20
605.0611301872472
 30
0.0
 11
175.2234346612222
 21
605.0611301872472
 31
0.0
  0
LINE
  5
14D
330
57
100
AcDbEntity
  8
1
  6
Continuous
 62
     7
100
AcDbLine
 10
175.4734346612283
 20
605.0611301872472
 30
0.0
 11
174.9734346612283
 21
605.5611301872472
 31
0.0
  0
LINE
  5
14E
330
57
100
AcDbEntity
  8
1
  6
Continuous
 62
     7
100
AcDbLine
 10
184.4734346612283
 20
605.0611301872472
 30
0.0
 11
184.9734346612283
 21
605.5611301872472
 31
0.0
  0
LINE
  5
14F
330
57
100
AcDbEntity
  8
1
  6
Continuous
 62
     7
100
AcDbLine
 10
184.9734346612283
 20
611.3611301872472
 30
0.0
 11
184.9734346612283
 21
605.5611301872472
 31
0.0
  0
LINE
  5
150
330
57
100
AcDbEntity
  8
1
  6
Continuous
 62
     7
100
AcDbLine
 10
175.1734346612285
 20
611.5611301872472
 30
0.0
 11
184.7734346612284
 21
611.5611301872472
 31
0.0
  0
LINE
  5
151
330
57
100
AcDbEntity
  8
1
  6
Continuous
 62
     7
100
AcDbLine
 10
174.9734346612283
 20
611.3611301872472
 30
0.0
 11
174.9734346612283
 21
605.5611301872472
 31
0.0
  0
CIRCLE
  5
152
330
57
100
AcDbEntity
  8
1
  6
Continuous
 62
     7
100
AcDbCircle
 10
179.9734346612283
 20
919.4611301872474
 30
0.0
 40
5.0
  0
ARC
  5
153
330
57
100
AcDbEntity
  8
1
  6
Continuous
 62
     7
100
AcDbCircle
 10
184.7734346612284
 20
611.3611301872472
 30
0.0
 40
0.1999999999999034
100
AcDbArc
 50
0.0
 51
90.0
  0
ARC
  5
154
330
57
100
AcDbEntity
  8
1
  6
Continuous
 62
     7
100
AcDbCircle
 10
175.1734346612285
 20
611.3611301872472
 30
0.0
 40
0.1999999999999318
100
AcDbArc
 50
90.0
 51
180.0
  0
ENDBLK
  5
59
330
57
100
AcDbEntity
  8
0
100
AcDbBlockEnd
  0
BLOCK
  5
5B
330
5A
100
AcDbEntity
  8
0
100
AcDbBlockBegin
  2
37-225A__11
 70
     0
 71
     0
 10
404.9734346612222
 20
818.5611301872473
 30
0.0
  3
37-225A__11
  1

  0
LINE
  5
155
330
5A
100
AcDbEntity
  8
1
  6
Continuous
 62
     7
100
AcDbLine
 10
414.9734346612222
 20
579.8797350313428
 30
0.0
 11
414.9734346612222
 21
581.5611301872472
 31
0.0
  0
LINE
  5
156
330
5A
100
AcDbEntity
  8
1
  6
Continuous
 62
     7
100
AcDbLine
 10
404.9734346612222
 20
579.8797350313425
 30
0.0
 11
404.9734346612222
 21
581.5611301872472
 31
0.0
  0
ENDBLK
  5
5C
330
5A
100
AcDbEntity
  8
0
100
AcDbBlockEnd
  0
BLOCK
  5
5E
330
5D
100
AcDbEntity
  8
0
100
AcDbBlockBegin
  2
104-4__12
 70
     0
 71
     0
 10
404.9734346612222
 20
859.5611301872473
 30
0.0
  3
104-4__12
  1

  0
LINE
  5
157
330
5D
100
AcDbEntity
  8
0
  6
Continuous
 62
     7
100
AcDbLine
 10
404.9734346612222
 20
604.5611301872472
 30
0.0
 11
414.9734346612222
 21
604.5611301872472
 31
0.0
  0
LINE
  5
158
330
5D
100
AcDbEntity
  8
1
  6
Continuous
 62
     7
100
AcDbLine
 10
414.9734346612222
 20
604.5611301872472
 30
0.0
 11
414.9734346612222
 21
581.5611301872472
 31
0.0
  0
LINE
  5
159
330
5D
100
AcDbEntity
  8
1
  6
Continuous
 62
     7
100
AcDbLine
 10
414.9734346612222
 20
581.5611301872472
 30
0.0
 11
404.9734346612222
 21
581.5611301872472
 31
0.0
  0
LINE
  5
15A
330
5D
100
AcDbEntity
  8
1
  6
Continuous
 62
     7
100
AcDbLine
 10
404.9734346612222
 20
581.5611301872472
 30
0.0
 11
404.9734346612222
 21
604.5611301872472
 31
0.0
  0
ENDBLK
  5
5F
330
5D
100
AcDbEntity
  8
0
100
AcDbBlockEnd
  0
BLOCK
  5
61
330
60
100
AcDbEntity
  8
0
100
AcDbBlockBegin
  2
30-184A
 70
     0
 71
     0
 10
794.0455852534666
 20
721.8177618326193
 30
0.0
  3
30-184A
  1

  0
LINE
  5
15B
330
60
100
AcDbEntity
  8
1
  6
Continuous
 62
     7
100
AcDbLine
 10
282.4734346612224
 20
586.6611301872455
 30
0.0
 11
307.4734346612218
 21
586.6611301872476
 31
0.0
  0
LINE
  5
15C
330
60
100
AcDbEntity
  8
1
  6
Continuous
 62
     7
100
AcDbLine
 10
281.9734346612219
 20
591.9611301872471
 30
0.0
 11
281.9734346612224
 21
587.1611301872455
 31
0.0
  0
LINE
  5
15D
330
60
100
AcDbEntity
  8
1
  6
Continuous
 62
     7
100
AcDbLine
 10
307.9734346612218
 20
587.1611301872455
 30
0.0
 11
307.9734346612224
 21
591.9611301872471
 31
0.0
  0
LINE
  5
15E
330
60
100
AcDbEntity
  8
1
  6
Continuous
 62
     7
100
AcDbLine
 10
307.9734346612224
 20
591.9611301872471
 30
0.0
 11
281.9734346612219
 21
591.9611301872471
 31
0.0
  0
ARC
  5
15F
330
60
100
AcDbEntity
  8
1
  6
Continuous
 62
     7
100
AcDbCircle
 10
282.4734346612224
 20
587.1611301872455
 30
0.0
 40
0.5
100
AcDbArc
 50
180.0
 51
-90.0
  0
ARC
  5
160
330
60
100
AcDbEntity
  8
1
  6
Continuous
 62
     7
100
AcDbCircle
 10
307.4734346612218
 20
587.1611301872455
 30
0.0
 40
0.5
100
AcDbArc
 50
-90.0
 51
0.0
  0
ENDBLK
  5
62
330
60
100
AcDbEntity
  8
0
100
AcDbBlockEnd
  0
BLOCK
  5
64
330
63
100
AcDbEntity
  8
0
100
AcDbBlockBegin
  2
37-220
 70
     0
 71
     0
 10
849.8207796905996
 20
714.2624872404992
 30
0.0
  3
37-220
  1

  0
LINE
  5
161
330
63
100
AcDbEntity
  8
1
  6
Continuous
 62
     7
100
AcDbLine
 10
307.9734346612221
 20
607.7649777645403
 30
0.0
 11
307.9734346612221
 21
591.9611301872471
 31
0.0
  0
LINE
  5
162
330
63
100
AcDbEntity
  8
1
  6
Continuous
 62
     7
100
AcDbLine
 10
281.9734346612219
 20
607.7649777645403
 30
0.0
 11
281.9734346612219
 21
591.9611301872471
 31
0.0
  0
ENDBLK
  5
65
330
63
100
AcDbEntity
  8
0
100
AcDbBlockEnd
  0
BLOCK
  5
67
330
66
100
AcDbEntity
  8
0
100
AcDbBlockBegin
  2
104-1X
 70
     0
 71
     0
 10
682.7973272300214
 20
651.5
 30
0.0
  3
104-1X
  1

  0
LINE
  5
163
330
66
100
AcDbEntity
  8
1
  6
Continuous
 62
     7
100
AcDbLine
 10
219.9734346612221
 20
591.9611301872471
 30
0.0
 11
281.9734346612223
 21
591.9611301872471
 31
0.0
  0
LINE
  5
164
330
66
100
AcDbEntity
  8
1
  6
Continuous
 62
     7
100
AcDbLine
 10
219.9734346612221
 20
591.9611301872471
 30
0.0
 11
219.9734346612221
 21
539.9611301872471
 31
0.0
  0
LINE
  5
165
330
66
100
AcDbEntity
  8
1
  6
Continuous
 62
     7
100
AcDbLine
 10
219.9734346612221
 20
539.9611301872471
 30
0.0
 11
369.9734346612219
 21
539.9611301872471
 31
0.0
  0
LINE
  5
166
330
66
100
AcDbEntity
  8
1
  6
Continuous
 62
     7
100
AcDbLine
 10
369.9734346612219
 20
539.9611301872471
 30
0.0
 11
369.9734346612219
 21
591.9611301872471
 31
0.0
  0
LINE
  5
167
330
66
100
AcDbEntity
  8
1
  6
Continuous
 62
     7
100
AcDbLine
 10
219.9734346612221
 20
945.4611301872474
 30
0.0
 11
280.9729691805157
 21
945.4611301872474
 31
0.0
  0
LINE
  5
168
330
66
100
AcDbEntity
  8
1
  6
Continuous
 62
     7
100
AcDbLine
 10
219.9734346612221
 20
945.4611301872474
 30
0.0
 11
219.9734346612221
 21
893.4611301872474
 31
0.0
  0
LINE
  5
169
330
66
100
AcDbEntity
  8
1
  6
Continuous
 62
     7
100
AcDbLine
 10
219.9734346612221
 20
893.4611301872474
 30
0.0
 11
280.9729691805157
 21
893.4611301872474
 31
0.0
  0
LINE
  5
16A
330
66
100
AcDbEntity
  8
1
  6
Continuous
 62
     7
100
AcDbLine
 10
369.9734346612219
 20
893.4611301872474
 30
0.0
 11
369.9734346612219
 21
914.4111301872472
 31
0.0
  0
LINE
  5
16B
330
66
100
AcDbEntity
  8
1
  6
Continuous
 62
     7
100
AcDbLine
 10
369.9734346612219
 20
914.4111301872472
 30
0.0
 11
369.9734346612219
 21
945.4611301872474
 31
0.0
  0
LINE
  5
16C
330
66
100
AcDbEntity
  8
1
  6
Continuous
 62
     7
100
AcDbLine
 10
307.9734346612221
 20
591.9611301872471
 30
0.0
 11
369.9734346612219
 21
591.9611301872471
 31
0.0
  0
LINE
  5
16D
330
66
100
AcDbEntity
  8
1
  6
Continuous
 62
     7
100
AcDbLine
 10
308.9729691805158
 20
945.4611301872474
 30
0.0
 11
369.9734346612219
 21
945.4611301872474
 31
0.0
  0
LINE
  5
16E
330
66
100
AcDbEntity
  8
1
  6
Continuous
 62
     7
100
AcDbLine
 10
308.9729691805158
 20
893.4611301872474
 30
0.0
 11
369.9734346612219
 21
893.4611301872474
 31
0.0
  0
ENDBLK
  5
68
330
66
100
AcDbEntity
  8
0
100
AcDbBlockEnd
  0
BLOCK
  5
6A
330
69
100
AcDbEntity
  8
0
100
AcDbBlockBegin
  2
104-2__13
 70
     0
 71
     0
 10
380.4734346612218
 20
855.4611301872474
 30
0.0
  3
104-2__13
  1

  0
LINE
  5
16F
330
69
100
AcDbEntity
  8
1
  6
Continuous
 62
     7
100
AcDbLine
 10
400.4734346612218
 20
579.9611301872471
 30
0.0
 11
400.4734346612218
 21
551.9611301872471
 31
0.0
  0
LINE
  5
170
330
69
100
AcDbEntity
  8
1
  6
Continuous
 62
     7
100
AcDbLine
 10
380.4734346612218
 20
551.9611301872471
 30
0.0
 11
380.4734346612218
 21
579.9611301872471
 31
0.0
  0
LINE
  5
171
330
69
100
AcDbEntity
  8
1
  6
Continuous
 62
     7
100
AcDbLine
 10
400.4734346612218
 20
551.9611301872471
 30
0.0
 11
380.4734346612218
 21
551.9611301872471
 31
0.0
  0
LINE
  5
172
330
69
100
AcDbEntity
  8
1
  6
Continuous
 62
     7
100
AcDbLine
 10
380.4734346612218
 20
579.9611301872471
 30
0.0
 11
400.4734346612218
 21
579.9611301872471
 31
0.0
  0
LINE
  5
173
330
69
100
AcDbEntity
  8
1
  6
Continuous
 62
     7
100
AcDbLine
 10
400.4734346612218
 20
933.4611301872474
 30
0.0
 11
400.4734346612218
 21
905.4611301872474
 31
0.0
  0
LINE
  5
174
330
69
100
AcDbEntity
  8
1
  6
Continuous
 62
     7
100
AcDbLine
 10
380.4734346612218
 20
905.4611301872474
 30
0.0
 11
380.4734346612218
 21
933.4611301872474
 31
0.0
  0
LINE
  5
175
330
69
100
AcDbEntity
  8
1
  6
Continuous
 62
     7
100
AcDbLine
 10
400.4734346612218
 20
905.4611301872474
 30
0.0
 11
380.4734346612218
 21
905.4611301872474
 31
0.0
  0
LINE
  5
176
330
69
100
AcDbEntity
  8
1
  6
Continuous
 62
     7
100
AcDbLine
 10
380.4734346612218
 20
933.4611301872474
 30
0.0
 11
400.4734346612218
 21
933.4611301872474
 31
0.0
  0
ENDBLK
  5
6B
330
69
100
AcDbEntity
  8
0
100
AcDbBlockEnd
  0
BLOCK
  5
6D
330
6C
100
AcDbEntity
  8
0
100
AcDbBlockBegin
  2
33-178A-M11__14
 70
     0
 71
     0
 10
381.0634329347453
 20
1382.336838038281
 30
0.0
  3
33-178A-M11__14
  1

  0
LINE
  5
177
330
6C
100
AcDbEntity
  8
1
  6
Continuous
 62
     2
100
AcDbLine
 10
352.0334346612226
 20
945.4611301872474
 30
0.0
 11
352.0334346612225
 21
948.0903892062922
 31
0.0
  0
LINE
  5
178
330
6C
100
AcDbEntity
  8
1
  6
Continuous
 62
     7
100
AcDbLine
 10
353.1934346612224
 20
945.4611301872474
 30
0.0
 11
353.1934346612224
 21
948.0903892062922
 31
0.0
  0
LINE
  5
179
330
6C
100
AcDbEntity
  8
1
  6
Continuous
 62
     2
100
AcDbLine
 10
327.9134346612221
 20
948.0903892062922
 30
0.0
 11
327.9134346612219
 21
945.4611301872474
 31
0.0
  0
LINE
  5
17A
330
6C
100
AcDbEntity
  8
1
  6
Continuous
 62
     7
100
AcDbLine
 10
326.7534346612221
 20
948.0903892062922
 30
0.0
 11
326.7534346612221
 21
945.4611301872474
 31
0.0
  0
ENDBLK
  5
6E
330
6C
100
AcDbEntity
  8
0
100
AcDbBlockEnd
  0
BLOCK
  5
70
330
6F
100
AcDbEntity
  8
0
100
AcDbBlockBegin
  2
33-178A-M11__15
 70
     0
 71
     0
 10
208.8834363876989
 20
1382.336838038281
 30
0.0
  3
33-178A-M11__15
  1

  0
LINE
  5
17B
330
6F
100
AcDbEntity
  8
1
  6
Continuous
 62
     2
100
AcDbLine
 10
237.913434661222
 20
948.1154424522043
 30
0.0
 11
237.9134346612218
 21
945.4611301872474
 31
0.0
  0
LINE
  5
17C
330
6F
100
AcDbEntity
  8
1
  6
Continuous
 62
     7
100
AcDbLine
 10
236.753434661222
 20
948.1154424522043
 30
0.0
 11
236.753434661222
 21
945.4611301872474
 31
0.0
  0
LINE
  5
17D
330
6F
100
AcDbEntity
  8
1
  6
Continuous
 62
     2
100
AcDbLine
 10
262.0334346612222
 20
945.4611301872474
 30
0.0
 11
262.0334346612221
 21
948.1154424522043
 31
0.0
  0
LINE
  5
17E
330
6F
100
AcDbEntity
  8
1
  6
Continuous
 62
     7
100
AcDbLine
 10
263.1934346612221
 20
945.4611301872474
 30
0.0
 11
263.1934346612221
 21
948.1154424522043
 31
0.0
  0
ENDBLK
  5
71
330
6F
100
AcDbEntity
  8
0
100
AcDbBlockEnd
  0
BLOCK
  5
73
330
72
100
AcDbEntity
  8
0
100
AcDbBlockBegin
  2
104-2__16
 70
     0
 71
     0
 10
209.4734346612225
 20
855.4611301872474
 30
0.0
  3
104-2__16
  1

  0
LINE
  5
17F
330
72
100
AcDbEntity
  8
1
  6
Continuous
 62
     7
100
AcDbLine
 10
189.4734346612225
 20
579.9611301872471
 30
0.0
 11
209.4734346612225
 21
579.9611301872471
 31
0.0
  0
LINE
  5
180
330
72
100
AcDbEntity
  8
1
  6
Continuous
 62
     7
100
AcDbLine
 10
189.4734346612225
 20
557.4611301872474
 30
0.0
 11
189.4734346612225
 21
579.9611301872471
 31
0.0
  0
LINE
  5
181
330
72
100
AcDbEntity
  8
1
  6
Continuous
 62
     7
100
AcDbLine
 10
209.4734346612225
 20
579.9611301872471
 30
0.0
 11
209.4734346612225
 21
551.9611301872471
 31
0.0
  0
LINE
  5
182
330
72
100
AcDbEntity
  8
1
  6
Continuous
 62
     7
100
AcDbLine
 10
189.4734346612225
 20
551.9611301872471
 30
0.0
 11
189.4734346612225
 21
557.4611301872474
 31
0.0
  0
LINE
  5
183
330
72
100
AcDbEntity
  8
1
  6
Continuous
 62
     7
100
AcDbLine
 10
209.4734346612225
 20
551.9611301872471
 30
0.0
 11
189.4734346612225
 21
551.9611301872471
 31
0.0
  0
LINE
  5
184
330
72
100
AcDbEntity
  8
1
  6
Continuous
 62
     7
100
AcDbLine
 10
189.4734346612225
 20
933.4611301872474
 30
0.0
 11
209.4734346612225
 21
933.4611301872474
 31
0.0
  0
LINE
  5
185
330
72
100
AcDbEntity
  8
1
  6
Continuous
 62
     7
100
AcDbLine
 10
209.4734346612225
 20
933.4611301872474
 30
0.0
 11
209.4734346612225
 21
905.4611301872474
 31
0.0
  0
LINE
  5
186
330
72
100
AcDbEntity
  8
1
  6
Continuous
 62
     7
100
AcDbLine
 10
189.4734346612225
 20
905.4611301872474
 30
0.0
 11
189.4734346612225
 21
933.4611301872474
 31
0.0
  0
LINE
  5
187
330
72
100
AcDbEntity
  8
1
  6
Continuous
 62
     7
100
AcDbLine
 10
209.4734346612225
 20
905.4611301872474
 30
0.0
 11
189.4734346612225
 21
905.4611301872474
 31
0.0
  0
ENDBLK
  5
74
330
72
100
AcDbEntity
  8
0
100
AcDbBlockEnd
  0
BLOCK
  5
76
330
75
100
AcDbEntity
  8
0
100
AcDbBlockBegin
  2
31-72-M1__17
 70
     0
 71
     0
 10
-103.9662585948233
 20
1297.435014104784
 30
0.0
  3
31-72-M1__17
  1

  0
LINE
  5
188
330
75
100
AcDbEntity
  8
1
  6
Continuous
 62
     7
100
AcDbLine
 10
169.1734346612282
 20
551.9611301872471
 30
0.0
 11
188.9734346612225
 21
551.9611301872471
 31
0.0
  0
LINE
  5
189
330
75
100
AcDbEntity
  8
1
  6
Continuous
 62
     7
100
AcDbLine
 10
169.1734346612282
 20
579.9611301872471
 30
0.0
 11
174.9734346612283
 21
579.9611301872471
 31
0.0
  0
LINE
  5
18A
330
75
100
AcDbEntity
  8
1
  6
Continuous
 62
     7
100
AcDbLine
 10
168.9734346612284
 20
579.7611301872472
 30
0.0
 11
168.9734346612284
 21
552.1611301872472
 31
0.0
  0
LINE
  5
18B
330
75
100
AcDbEntity
  8
1
  6
Continuous
 62
     7
100
AcDbLine
 10
188.9734346612224
 20
579.9611301872471
 30
0.0
 11
185.1734346612286
 21
579.9611301872471
 31
0.0
  0
LINE
  5
18C
330
75
100
AcDbEntity
  8
1
  6
Continuous
 62
     7
100
AcDbLine
 10
188.9734346612225
 20
551.9611301872471
 30
0.0
 11
188.9734346612224
 21
579.9611301872471
 31
0.0
  0
LINE
  5
18D
330
75
100
AcDbEntity
  8
1
  6
Continuous
 62
     7
100
AcDbLine
 10
169.1734346612282
 20
905.4611301872474
 30
0.0
 11
188.9734346612225
 21
905.4611301872474
 31
0.0
  0
LINE
  5
18E
330
75
100
AcDbEntity
  8
1
  6
Continuous
 62
     7
100
AcDbLine
 10
169.1734346612282
 20
933.4611301872474
 30
0.0
 11
188.9734346612225
 21
933.4611301872474
 31
0.0
  0
LINE
  5
18F
330
75
100
AcDbEntity
  8
1
  6
Continuous
 62
     7
100
AcDbLine
 10
168.9734346612284
 20
933.2611301872473
 30
0.0
 11
168.9734346612284
 21
905.6611301872472
 31
0.0
  0
LINE
  5
190
330
75
100
AcDbEntity
  8
1
  6
Continuous
 62
     7
100
AcDbLine
 10
188.9734346612225
 20
905.4611301872474
 30
0.0
 11
188.9734346612225
 21
933.4611301872474
 31
0.0
  0
ARC
  5
191
330
75
100
AcDbEntity
  8
1
  6
Continuous
 62
     7
100
AcDbCircle
 10
180.0734346612284
 20
586.1247330297388
 30
0.0
 40
7.99999999999823
100
AcDbArc
 50
-129.6056523938792
 51
-50.39434760612005
  0
ARC
  5
192
330
75
100
AcDbEntity
  8
1
  6
Continuous
 62
     7
100
AcDbCircle
 10
169.1734346612282
 20
552.1611301872472
 30
0.0
 40
0.1999999999998181
100
AcDbArc
 50
180.0
 51
-90.0
  0
ARC
  5
193
330
75
100
AcDbEntity
  8
1
  6
Continuous
 62
     7
100
AcDbCircle
 10
169.1734346612282
 20
579.7611301872472
 30
0.0
 40
0.1999999999999318
100
AcDbArc
 50
90.0
 51
180.0
  0
ARC
  5
194
330
75
100
AcDbEntity
  8
1
  6
Continuous
 62
     7
100
AcDbCircle
 10
169.1734346612282
 20
905.6611301872472
 30
0.0
 40
0.1999999999998181
100
AcDbArc
 50
180.0
 51
-90.0
  0
ARC
  5
195
330
75
100
AcDbEntity
  8
1
  6
Continuous
 62
     7
100
AcDbCircle
 10
169.1734346612282
 20
933.2611301872473
 30
0.0
 40
0.2000000000000455
100
AcDbArc
 50
90.0
 51
180.0
  0
ENDBLK
  5
77
330
75
100
AcDbEntity
  8
0
100
AcDbBlockEnd
  0
BLOCK
  5
79
330
78
100
AcDbEntity
  8
0
100
AcDbBlockBegin
  2
34-140__18
 70
     0
 71
     0
 10
474.7920640721264
 20
1042.852631578947
 30
0.0
  3
34-140__18
  1

  0
LINE
  5
196
330
78
100
AcDbEntity
  8
1
  6
Continuous
 62
     7
100
AcDbLine
 10
307.9729691805156
 20
686.9611301872485
 30
0.0
 11
281.9729691805156
 21
686.9611301872485
 31
0.0
  0
LINE
  5
197
330
78
100
AcDbEntity
  8
1
  6
Continuous
 62
     7
100
AcDbLine
 10
308.9729691805156
 20
691.4611301872479
 30
0.0
 11
308.9729691805156
 21
687.9611301872485
 31
0.0
  0
LINE
  5
198
330
78
100
AcDbEntity
  8
1
  6
Continuous
 62
     7
100
AcDbLine
 10
280.9729691805156
 20
687.9611301872485
 30
0.0
 11
280.9729691805156
 21
691.4611301872479
 31
0.0
  0
CIRCLE
  5
199
330
78
100
AcDbEntity
  8
1
  6
Continuous
 62
     7
100
AcDbCircle
 10
294.9734346612221
 20
612.9611301872471
 30
0.0
 40
14.00000000000011
  0
ARC
  5
19A
330
78
100
AcDbEntity
  8
1
  6
Continuous
 62
     7
100
AcDbCircle
 10
307.9729691805156
 20
687.9611301872485
 30
0.0
 40
1.0
100
AcDbArc
 50
-90.0
 51
0.0
  0
ARC
  5
19B
330
78
100
AcDbEntity
  8
1
  6
Continuous
 62
     7
100
AcDbCircle
 10
281.9729691805156
 20
687.9611301872485
 30
0.0
 40
1.0
100
AcDbArc
 50
180.0
 51
-90.0
  0
ENDBLK
  5
7A
330
78
100
AcDbEntity
  8
0
100
AcDbBlockEnd
  0
BLOCK
  5
7C
330
7B
100
AcDbEntity
  8
0
100
AcDbBlockBegin
  2
34-140__19
 70
     0
 71
     0
 10
685.5868009142318
 20
1089.349481863642
 30
0.0
  3
34-140__19
  1

  0
LINE
  5
19C
330
7B
100
AcDbEntity
  8
1
  6
Continuous
 62
     7
100
AcDbLine
 10
308.9734346612221
 20
962.9611301872474
 30
0.0
 11
308.9734346612221
 21
959.4611301872474
 31
0.0
  0
LINE
  5
19D
330
7B
100
AcDbEntity
  8
1
  6
Continuous
 62
     7
100
AcDbLine
 10
280.9734346612221
 20
959.4611301872474
 30
0.0
 11
280.9734346612221
 21
962.9611301872474
 31
0.0
  0
LINE
  5
19E
330
7B
100
AcDbEntity
  8
1
  6
Continuous
 62
     7
100
AcDbLine
 10
281.9734346612221
 20
963.9611301872474
 30
0.0
 11
307.9734346612221
 21
963.9611301872474
 31
0.0
  0
ARC
  5
19F
330
7B
100
AcDbEntity
  8
1
  6
Continuous
 62
     7
100
AcDbCircle
 10
307.9734346612221
 20
962.9611301872474
 30
0.0
 40
1.0
100
AcDbArc
 50
0.0
 51
90.0
  0
ARC
  5
1A0
330
7B
100
AcDbEntity
  8
1
  6
Continuous
 62
     7
100
AcDbCircle
 10
281.9734346612221
 20
962.9611301872474
 30
0.0
 40
1.0
100
AcDbArc
 50
90.0
 51
180.0
  0
ENDBLK
  5
7D
330
7B
100
AcDbEntity
  8
0
100
AcDbBlockEnd
  0
BLOCK
  5
7F
330
7E
100
AcDbEntity
  8
0
100
AcDbBlockBegin
  2
88-359__20
 70
     0
 71
     0
 10
292.0829440570492
 20
912.0049161531127
 30
0.0
  3
88-359__20
  1

  0
LINE
  5
1A1
330
7E
100
AcDbEntity
  8
1
  6
Continuous
 62
     7
100
AcDbLine
 10
189.4734346612225
 20
560.9111301872473
 30
0.0
 11
188.9734346612224
 21
560.9111301872473
 31
0.0
  0
LINE
  5
1A2
330
7E
100
AcDbEntity
  8
1
  6
Continuous
 62
     7
100
AcDbLine
 10
188.9734346612224
 20
571.0111301872472
 30
0.0
 11
189.4734346612225
 21
571.0111301872472
 31
0.0
  0
ENDBLK
  5
80
330
7E
100
AcDbEntity
  8
0
100
AcDbBlockEnd
  0
BLOCK
  5
82
330
81
100
AcDbEntity
  8
0
100
AcDbBlockBegin
  2
37-222-C2
 70
     0
 71
     0
 10
238.1914479838483
 20
174.810089217132
 30
0.0
  3
37-222-C2
  1

  0
LINE
  5
1A3
330
81
100
AcDbEntity
  8
1
  6
Continuous
 62
     7
100
AcDbLine
 10
219.9734346612221
 20
936.061130187249
 30
0.0
 11
219.4734346612221
 21
936.061130187249
 31
0.0
  0
LINE
  5
1A4
330
81
100
AcDbEntity
  8
1
  6
Continuous
 62
     7
100
AcDbLine
 10
219.4734346612221
 20
902.8611301872456
 30
0.0
 11
219.9734346612221
 21
902.8611301872456
 31
0.0
  0
ENDBLK
  5
83
330
81
100
AcDbEntity
  8
0
100
AcDbBlockEnd
  0
BLOCK
  5
85
330
84
100
AcDbEntity
  8
0
100
AcDbBlockBegin
  2
_J__A4
 70
     0
 71
     0
 10
0.0
 20
0.0
 30
0.0
  3
_J__A4
  1

  0
POINT
  5
1A5
330
84
100
AcDbEntity
  8
1
 62
     4
100
AcDbPoint
 10
34.0
 20
34.00000000000001
 30
0.0
  0
POINT
  5
1A6
330
84
100
AcDbEntity
  8
1
 62
     4
100
AcDbPoint
 10
57.0
 20
12.25
 30
0.0
  0
POINT
  5
1A7
330
84
100
AcDbEntity
  8
1
 62
     4
100
AcDbPoint
 10
57.0
 20
20.75000000000001
 30
0.0
  0
POINT
  5
1A8
330
84
100
AcDbEntity
  8
1
 62
     4
100
AcDbPoint
 10
57.0
 20
24.75000000000001
 30
0.0
  0
POINT
  5
1A9
330
84
100
AcDbEntity
  8
1
 62
     4
100
AcDbPoint
 10
57.0
 20
16.25
 30
0.0
  0
POINT
  5
1AA
330
84
100
AcDbEntity
  8
1
 62
     4
100
AcDbPoint
 10
157.5
 20
19.00000000000001
 30
0.0
  0
POINT
  5
1AB
330
84
100
AcDbEntity
  8
1
 62
     4
100
AcDbPoint
 10
47.5
 20
282.0000000000003
 30
0.0
  0
POINT
  5
1AC
330
84
100
AcDbEntity
  8
1
 62
     4
100
AcDbPoint
 10
57.0
 20
22.75000000000001
 30
0.0
  0
POINT
  5
1AD
330
84
100
AcDbEntity
  8
1
 62
     4
100
AcDbPoint
 10
57.0
 20
14.25
 30
0.0
  0
POINT
  5
1AE
330
84
100
AcDbEntity
  8
1
 62
     4
100
AcDbPoint
 10
157.5
 20
12.5
 30
0.0
  0
POINT
  5
1AF
330
84
100
AcDbEntity
  8
1
 62
     4
100
AcDbPoint
 10
163.25
 20
12.5
 30
0.0
  0
POINT
  5
1B0
330
84
100
AcDbEntity
  8
1
 62
     4
100
AcDbPoint
 10
151.75
 20
12.5
 30
0.0
  0
POINT
  5
1B1
330
84
100
AcDbEntity
  8
1
 62
     4
100
AcDbPoint
 10
134.75
 20
12.5
 30
0.0
  0
POINT
  5
1B2
330
84
100
AcDbEntity
  8
1
 62
     4
100
AcDbPoint
 10
146.25
 20
12.5
 30
0.0
  0
POINT
  5
1B3
330
84
100
AcDbEntity
  8
1
 62
     4
100
AcDbPoint
 10
140.5
 20
12.5
 30
0.0
  0
POINT
  5
1B4
330
84
100
AcDbEntity
  8
1
 62
     4
100
AcDbPoint
 10
140.5
 20
19.00000000000001
 30
0.0
  0
POINT
  5
1B5
330
84
100
AcDbEntity
  8
1
 62
     4
100
AcDbPoint
 10
117.75
 20
12.5
 30
0.0
  0
POINT
  5
1B6
330
84
100
AcDbEntity
  8
1
 62
     4
100
AcDbPoint
 10
129.25
 20
12.5
 30
0.0
  0
POINT
  5
1B7
330
84
100
AcDbEntity
  8
1
 62
     4
100
AcDbPoint
 10
123.5
 20
12.5
 30
0.0
  0
POINT
  5
1B8
330
84
100
AcDbEntity
  8
1
 62
     4
100
AcDbPoint
 10
123.5
 20
19.00000000000001
 30
0.0
  0
POINT
  5
1B9
330
84
100
AcDbEntity
  8
1
 62
     4
100
AcDbPoint
 10
100.75
 20
12.5
 30
0.0
  0
POINT
  5
1BA
330
84
100
AcDbEntity
  8
1
 62
     4
100
AcDbPoint
 10
112.25
 20
12.5
 30
0.0
  0
POINT
  5
1BB
330
84
100
AcDbEntity
  8
1
 62
     4
100
AcDbPoint
 10
106.5
 20
12.5
 30
0.0
  0
POINT
  5
1BC
330
84
100
AcDbEntity
  8
1
 62
     4
100
AcDbPoint
 10
106.5
 20
19.00000000000001
 30
0.0
  0
POINT
  5
1BD
330
84
100
AcDbEntity
  8
1
 62
     4
100
AcDbPoint
 10
85.25
 20
17.0
 30
0.0
  0
POINT
  5
1BE
330
84
100
AcDbEntity
  8
1
 62
     4
100
AcDbPoint
 10
93.75
 20
17.0
 30
0.0
  0
LINE
  5
1BF
330
84
100
AcDbEntity
  8
1
  6
Continuous
 62
     2
100
AcDbLine
 10
81.0
 20
27.00000000000001
 30
0.0
 11
81.0
 21
10.0
 31
0.0
  0
LINE
  5
1C0
330
84
100
AcDbEntity
  8
1
  6
DOT_CENTER
 62
     2
100
AcDbLine
 10
187.0
 20
26.50000000000001
 30
0.0
 11
187.0
 21
20.50000000000001
 31
0.0
  0
LINE
  5
1C1
330
84
100
AcDbEntity
  8
1
  6
DOT_CENTER
 62
     2
100
AcDbLine
 10
184.0
 20
23.50000000000001
 30
0.0
 11
197.0
 21
23.50000000000001
 31
0.0
  0
LINE
  5
1C2
330
84
100
AcDbEntity
  8
1
  6
Continuous
 62
     7
100
AcDbLine
 10
196.0
 20
21.50000000000001
 30
0.0
 11
191.0
 21
22.30000000000001
 31
0.0
  0
LINE
  5
1C3
330
84
100
AcDbEntity
  8
1
  6
Continuous
 62
     7
100
AcDbLine
 10
196.0
 20
25.50000000000001
 30
0.0
 11
196.0
 21
21.50000000000001
 31
0.0
  0
LINE
  5
1C4
330
84
100
AcDbEntity
  8
1
  6
Continuous
 62
     7
100
AcDbLine
 10
191.0
 20
24.70000000000001
 30
0.0
 11
196.0
 21
25.50000000000001
 31
0.0
  0
LINE
  5
1C5
330
84
100
AcDbEntity
  8
1
  6
Continuous
 62
     7
100
AcDbLine
 10
191.0
 20
24.70000000000001
 30
0.0
 11
191.0
 21
22.30000000000001
 31
0.0
  0
LINE
  5
1C6
330
84
100
AcDbEntity
  8
1
  6
Continuous
 62
     2
100
AcDbLine
 10
33.0
 20
27.0
 30
0.0
 11
33.0
 21
10.0
 31
0.0
  0
LINE
  5
1C7
330
84
100
AcDbEntity
  8
1
  6
Continuous
 62
     2
100
AcDbLine
 10
25.0
 20
18.50000000000001
 30
0.0
 11
81.0
 21
18.50000000000001
 31
0.0
  0
LINE
  5
1C8
330
84
100
AcDbEntity
  8
1
  6
Continuous
 62
     7
100
AcDbLine
 10
200.0
 20
287.0000000000003
 30
0.0
 11
105.0
 21
287.0000000000003
 31
0.0
  0
LINE
  5
1C9
330
84
100
AcDbEntity
  8
1
  6
Continuous
 62
     7
100
AcDbLine
 10
200.0
 20
10.0
 30
0.0
 11
200.0
 21
148.5
 31
0.0
  0
LINE
  5
1CA
330
84
100
AcDbEntity
  8
1
  6
Continuous
 62
     7
100
AcDbLine
 10
25.0
 20
10.0
 30
0.0
 11
105.0
 21
10.0
 31
0.0
  0
LINE
  5
1CB
330
84
100
AcDbEntity
  8
1
  6
PHANTOM
 62
     4
100
AcDbLine
 10
0.0
 20
297.0
 30
0.0
 11
0.0
 21
0.0
 31
0.0
  0
LINE
  5
1CC
330
84
100
AcDbEntity
  8
1
  6
PHANTOM
 62
     4
100
AcDbLine
 10
210.0
 20
297.0
 30
0.0
 11
0.0
 21
297.0
 31
0.0
  0
LINE
  5
1CD
330
84
100
AcDbEntity
  8
1
  6
PHANTOM
 62
     4
100
AcDbLine
 10
210.0
 20
0.0
 30
0.0
 11
210.0
 21
297.0
 31
0.0
  0
LINE
  5
1CE
330
84
100
AcDbEntity
  8
1
  6
PHANTOM
 62
     4
100
AcDbLine
 10
0.0
 20
0.0
 30
0.0
 11
210.0
 21
0.0
 31
0.0
  0
LINE
  5
1CF
330
84
100
AcDbEntity
  8
1
  6
Continuous
 62
     7
100
AcDbLine
 10
25.0
 20
41.0
 30
0.0
 11
200.0
 21
41.0
 31
0.0
  0
LINE
  5
1D0
330
84
100
AcDbEntity
  8
1
  6
Continuous
 62
     7
100
AcDbLine
 10
200.0
 20
27.00000000000001
 30
0.0
 11
25.0
 21
27.00000000000001
 31
0.0
  0
LINE
  5
1D1
330
84
100
AcDbEntity
  8
1
  6
Continuous
 62
     2
100
AcDbLine
 10
33.0
 20
41.00000000000001
 30
0.0
 11
33.0
 21
27.0
 31
0.0
  0
LINE
  5
1D2
330
84
100
AcDbEntity
  8
1
  6
Continuous
 62
     2
100
AcDbLine
 10
55.0
 20
287.0000000000003
 30
0.0
 11
55.0
 21
277.0000000000003
 31
0.0
  0
LINE
  5
1D3
330
84
100
AcDbEntity
  8
1
  6
Continuous
 62
     2
100
AcDbLine
 10
40.0
 20
287.0000000000003
 30
0.0
 11
40.0
 21
277.0000000000003
 31
0.0
  0
LINE
  5
1D4
330
84
100
AcDbEntity
  8
1
  6
Continuous
 62
     7
100
AcDbLine
 10
25.0
 20
10.0
 30
0.0
 11
25.0
 21
148.5
 31
0.0
  0
LINE
  5
1D5
330
84
100
AcDbEntity
  8
1
  6
Continuous
 62
     2
100
AcDbLine
 10
55.0
 20
277.0000000000003
 30
0.0
 11
25.0
 21
277.0000000000003
 31
0.0
  0
LINE
  5
1D6
330
84
100
AcDbEntity
  8
1
  6
Continuous
 62
     2
100
AcDbLine
 10
166.0
 20
27.00000000000001
 30
0.0
 11
166.0
 21
10.0
 31
0.0
  0
LINE
  5
1D7
330
84
100
AcDbEntity
  8
1
  6
Continuous
 62
     2
100
AcDbLine
 10
132.0
 20
27.00000000000001
 30
0.0
 11
132.0
 21
9.99999999999999
 31
0.0
  0
LINE
  5
1D8
330
84
100
AcDbEntity
  8
1
  6
Continuous
 62
     2
100
AcDbLine
 10
149.0
 20
27.00000000000001
 30
0.0
 11
149.0
 21
10.0
 31
0.0
  0
LINE
  5
1D9
330
84
100
AcDbEntity
  8
1
  6
Continuous
 62
     2
100
AcDbLine
 10
115.0
 20
27.00000000000001
 30
0.0
 11
115.0
 21
9.99999999999999
 31
0.0
  0
LINE
  5
1DA
330
84
100
AcDbEntity
  8
1
  6
Continuous
 62
     2
100
AcDbLine
 10
98.0
 20
27.00000000000001
 30
0.0
 11
98.0
 21
9.99999999999999
 31
0.0
  0
LINE
  5
1DB
330
84
100
AcDbEntity
  8
1
  6
Continuous
 62
     2
100
AcDbLine
 10
166.0
 20
20.00000000000001
 30
0.0
 11
200.0
 21
20.00000000000001
 31
0.0
  0
LINE
  5
1DC
330
84
100
AcDbEntity
  8
1
  6
Continuous
 62
     2
100
AcDbLine
 10
105.0
 20
287.0000000000003
 30
0.0
 11
105.0
 21
292.0000000000003
 31
0.0
  0
LINE
  5
1DD
330
84
100
AcDbEntity
  8
1
  6
Continuous
 62
     7
100
AcDbLine
 10
105.0
 20
287.0000000000003
 30
0.0
 11
25.0
 21
287.0000000000003
 31
0.0
  0
LINE
  5
1DE
330
84
100
AcDbEntity
  8
1
  6
Continuous
 62
     2
100
AcDbLine
 10
25.0
 20
148.5
 30
0.0
 11
20.0
 21
148.5
 31
0.0
  0
LINE
  5
1DF
330
84
100
AcDbEntity
  8
1
  6
Continuous
 62
     7
100
AcDbLine
 10
25.0
 20
148.5
 30
0.0
 11
25.0
 21
287.0000000000003
 31
0.0
  0
LINE
  5
1E0
330
84
100
AcDbEntity
  8
1
  6
Continuous
 62
     2
100
AcDbLine
 10
200.0
 20
148.5
 30
0.0
 11
205.0
 21
148.5
 31
0.0
  0
LINE
  5
1E1
330
84
100
AcDbEntity
  8
1
  6
Continuous
 62
     7
100
AcDbLine
 10
200.0
 20
148.5
 30
0.0
 11
200.0
 21
287.0000000000003
 31
0.0
  0
LINE
  5
1E2
330
84
100
AcDbEntity
  8
1
  6
Continuous
 62
     2
100
AcDbLine
 10
105.0
 20
10.0
 30
0.0
 11
105.0
 21
5.0
 31
0.0
  0
LINE
  5
1E3
330
84
100
AcDbEntity
  8
1
  6
Continuous
 62
     7
100
AcDbLine
 10
105.0
 20
10.0
 30
0.0
 11
200.0
 21
10.0
 31
0.0
  0
CIRCLE
  5
1E4
330
84
100
AcDbEntity
  8
1
  6
DOT_CENTER
 62
     7
100
AcDbCircle
 10
89.5
 20
18.0
 30
0.0
 40
0.1000000000000227
  0
CIRCLE
  5
1E5
330
84
100
AcDbEntity
  8
1
  6
DOT_CENTER
 62
     7
100
AcDbCircle
 10
89.5
 20
16.0
 30
0.0
 40
0.1000000000000227
  0
CIRCLE
  5
1E6
330
84
100
AcDbEntity
  8
1
  6
Continuous
 62
     7
100
AcDbCircle
 10
187.0
 20
23.50000000000001
 30
0.0
 40
2.0
  0
CIRCLE
  5
1E7
330
84
100
AcDbEntity
  8
1
  6
Continuous
 62
     7
100
AcDbCircle
 10
187.0
 20
23.50000000000001
 30
0.0
 40
1.200000000000102
  0
CIRCLE
  5
1E8
330
84
100
AcDbEntity
  8
1
  6
Continuous
 62
     7
100
AcDbCircle
 10
154.5
 20
12.5
 30
0.0
 40
0.3000000000000114
  0
CIRCLE
  5
1E9
330
84
100
AcDbEntity
  8
1
  6
Continuous
 62
     7
100
AcDbCircle
 10
160.5
 20
12.5
 30
0.0
 40
0.3000000000000114
  0
CIRCLE
  5
1EA
330
84
100
AcDbEntity
  8
1
  6
Continuous
 62
     7
100
AcDbCircle
 10
143.5
 20
12.5
 30
0.0
 40
0.3000000000000114
  0
CIRCLE
  5
1EB
330
84
100
AcDbEntity
  8
1
  6
Continuous
 62
     7
100
AcDbCircle
 10
137.5
 20
12.5
 30
0.0
 40
0.3000000000000114
  0
CIRCLE
  5
1EC
330
84
100
AcDbEntity
  8
1
  6
Continuous
 62
     7
100
AcDbCircle
 10
126.5
 20
12.5
 30
0.0
 40
0.2999999999999972
  0
CIRCLE
  5
1ED
330
84
100
AcDbEntity
  8
1
  6
Continuous
 62
     7
100
AcDbCircle
 10
120.5
 20
12.5
 30
0.0
 40
0.2999999999999972
  0
CIRCLE
  5
1EE
330
84
100
AcDbEntity
  8
1
  6
Continuous
 62
     7
100
AcDbCircle
 10
109.5
 20
12.5
 30
0.0
 40
0.2999999999999972
  0
CIRCLE
  5
1EF
330
84
100
AcDbEntity
  8
1
  6
Continuous
 62
     7
100
AcDbCircle
 10
103.5
 20
12.5
 30
0.0
 40
0.2999999999999972
  0
MTEXT
  5
1F1
330
84
100
AcDbEntity
  8
1
 62
   250
100
AcDbMText
 10
25.0
 20
5.0
 30
0.0
 40
3.5
 41
0.0
 71
     4
 72
     1
  1
備考欄の文字列 原点位置=4
  7
CONVERTER_1
 73
     1
 44
0.7202881152461
  0
MTEXT
  5
1F2
330
84
100
AcDbEntity
  8
1
 62
     2
100
AcDbMText
 10
89.5
 20
24.00000000000001
 30
0.0
 40
3.5
 41
0.0
 71
     5
 72
     1
  1
尺度
  7
CONVERTER_1
 73
     1
 44
0.7202881152461
  0
MTEXT
  5
1F3
330
84
100
AcDbEntity
  8
1
 62
     2
100
AcDbMText
 10
135.5
 20
25.00000000000001
 30
0.0
 40
3.0
 41
0.0
 71
     5
 72
     1
  1
製図
  7
CONVERTER_1
 73
     1
 44
0.78031212484994
  0
MTEXT
  5
1F4
330
84
100
AcDbEntity
  8
1
 62
     2
100
AcDbMText
 10
152.5
 20
25.00000000000001
 30
0.0
 40
3.0
 41
0.0
 71
     5
 72
     1
  1
設計
  7
CONVERTER_1
 73
     1
 44
0.78031212484994
  0
MTEXT
  5
1F5
330
84
100
AcDbEntity
  8
1
 62
     2
100
AcDbMText
 10
118.5
 20
25.00000000000001
 30
0.0
 40
3.0
 41
0.0
 71
     5
 72
     1
  1
検図
  7
CONVERTER_1
 73
     1
 44
0.78031212484994
  0
MTEXT
  5
1F6
330
84
100
AcDbEntity
  8
1
 62
     2
100
AcDbMText
 10
175.0
 20
23.50000000000001
 30
0.0
 40
3.5
 41
0.0
 71
     5
 72
     1
  1
第三角法
  7
CONVERTER_1
 73
     1
 44
0.7202881152461
  0
MTEXT
  5
1F7
330
84
100
AcDbEntity
  8
1
 62
     2
100
AcDbMText
 10
101.5
 20
25.00000000000001
 30
0.0
 40
3.0
 41
0.0
 71
     5
 72
     1
  1
承認
  7
CONVERTER_1
 73
     1
 44
0.78031212484994
  0
MTEXT
  5
1F8
330
84
100
AcDbEntity
  8
1
 62
     2
100
AcDbMText
 10
29.0
 20
14.25
 30
0.0
 40
3.5
 41
0.0
 71
     5
 72
     1
  1
品番
  7
CONVERTER_1
 73
     1
 44
0.96038415366146
  0
MTEXT
  5
1F9
330
84
100
AcDbEntity
  8
1
 62
     2
100
AcDbMText
 10
29.0
 20
22.75
 30
0.0
 40
3.5
 41
0.0
 71
     5
 72
     1
  1
品名
  7
CONVERTER_1
 73
     1
 44
0.96038415366146
  0
MTEXT
  5
1FA
330
84
100
AcDbEntity
  8
1
 62
     2
100
AcDbMText
 10
29.0
 20
34.00000000000001
 30
0.0
 40
3.5
 41
0.0
 71
     5
 72
     1
  1
備考
  7
CONVERTER_1
 73
     1
 44
0.60024009603842
  0
MTEXT
  5
1FB
330
84
100
AcDbEntity
  8
1
 62
     2
100
AcDbMText
 10
32.5
 20
282.0000000000003
 30
0.0
 40
5.0
 41
0.0
 71
     5
 72
     1
  1
図番
  7
CONVERTER_1
 73
     1
 44
0.60024009603842
  0
MTEXT
  5
1FC
330
84
100
AcDbEntity
  8
1
 62
     7
100
AcDbMText
 10
171.5
 20
15.0
 30
0.0
 40
2.5
 41
0.0
 71
     5
 72
     1
  1
株式会社
  7
CONVERTER_1
 73
     1
 44
1.32052821128451
  0
MTEXT
  5
1FD
330
84
100
AcDbEntity
  8
1
 62
     7
100
AcDbMText
 10
188.5
 20
15.0
 30
0.0
 40
3.0
 41
0.0
 71
     5
 72
     1
  1
三栄水栓製作所
  7
CONVERTER_1
 73
     1
 44
1.32052821128451
  0
ENDBLK
  5
86
330
84
100
AcDbEntity
  8
0
100
AcDbBlockEnd
  0
BLOCK
  5
88
330
87
100
AcDbEntity
  8
0
100
AcDbBlockBegin
  2
104-13B
 70
     0
 71
     0
 10
883.2782306708689
 20
1693.427747904806
 30
0.0
  3
104-13B
  1

  0
LINE
  5
1FE
330
87
100
AcDbEntity
  8
1
  6
Continuous
 62
     7
100
AcDbLine
 10
308.9734346612224
 20
905.7111301872478
 30
0.0
 11
308.9734346612224
 21
705.7111301872478
 31
0.0
  0
LINE
  5
1FF
330
87
100
AcDbEntity
  8
1
  6
Continuous
 62
     7
100
AcDbLine
 10
280.9734346612223
 20
691.4611301872478
 30
0.0
 11
305.4734346612224
 21
691.4611301872478
 31
0.0
  0
LINE
  5
200
330
87
100
AcDbEntity
  8
1
  6
Continuous
 62
     7
100
AcDbLine
 10
280.9734346612223
 20
959.4611301872478
 30
0.0
 11
280.9734346612223
 21
691.4611301872478
 31
0.0
  0
LINE
  5
201
330
87
100
AcDbEntity
  8
1
  6
Continuous
 62
     7
100
AcDbLine
 10
308.9734346612224
 20
691.4611301872478
 30
0.0
 11
308.9734346612224
 21
705.7111301872478
 31
0.0
  0
LINE
  5
202
330
87
100
AcDbEntity
  8
1
  6
Continuous
 62
     7
100
AcDbLine
 10
308.9734346612224
 20
959.4611301872478
 30
0.0
 11
308.9734346612224
 21
905.7111301872478
 31
0.0
  0
LINE
  5
203
330
87
100
AcDbEntity
  8
1
  6
Continuous
 62
     7
100
AcDbLine
 10
308.9734346612224
 20
959.4611301872478
 30
0.0
 11
284.4734346612223
 21
959.4611301872478
 31
0.0
  0
LINE
  5
204
330
87
100
AcDbEntity
  8
1
  6
Continuous
 62
     7
100
AcDbLine
 10
284.4734346612223
 20
959.4611301872478
 30
0.0
 11
280.9734346612223
 21
959.4611301872478
 31
0.0
  0
LINE
  5
205
330
87
100
AcDbEntity
  8
1
  6
Continuous
 62
     7
100
AcDbLine
 10
305.4734346612224
 20
691.4611301872478
 30
0.0
 11
308.9734346612224
 21
691.4611301872478
 31
0.0
  0
ENDBLK
  5
89
330
87
100
AcDbEntity
  8
0
100
AcDbBlockEnd
  0
BLOCK
  5
8B
330
8A
100
AcDbEntity
  8
0
100
AcDbBlockBegin
  2
88-348__21
 70
     0
 71
     0
 10
215.1683911824153
 20
946.1009236110299
 30
0.0
  3
88-348__21
  1

  0
LINE
  5
206
330
8A
100
AcDbEntity
  8
1
  6
Continuous
 62
     7
100
AcDbLine
 10
273.9734346612222
 20
1009.961130187247
 30
0.0
 11
244.9734346612222
 21
1009.961130187247
 31
0.0
  0
LINE
  5
207
330
8A
100
AcDbEntity
  8
1
  6
Continuous
 62
     7
100
AcDbLine
 10
264.9734346612221
 20
961.961130187247
 30
0.0
 11
244.9734346612221
 21
961.961130187247
 31
0.0
  0
LINE
  5
208
330
8A
100
AcDbEntity
  8
1
  6
Continuous
 62
     7
100
AcDbLine
 10
264.9734346612221
 20
961.961130187247
 30
0.0
 11
273.9734346612222
 21
1009.961130187247
 31
0.0
  0
ARC
  5
209
330
8A
100
AcDbEntity
  8
1
  6
Continuous
 62
     7
100
AcDbCircle
 10
244.9734346612221
 20
565.9611301872471
 30
0.0
 40
28.99999999999999
100
AcDbArc
 50
63.70844472527067
 51
90.00000000000055
  0
ARC
  5
20A
330
8A
100
AcDbEntity
  8
1
  6
Continuous
 62
     7
100
AcDbCircle
 10
244.9734346612221
 20
565.9611301872471
 30
0.0
 40
29.0
100
AcDbArc
 50
-90.00000000000055
 51
-63.70844472527309
  0
ARC
  5
20B
330
8A
100
AcDbEntity
  8
1
  6
Continuous
 62
     7
100
AcDbCircle
 10
344.9734346612219
 20
565.9611301872471
 30
0.0
 40
29.0
100
AcDbArc
 50
89.99999999999945
 51
116.2915552747293
  0
ARC
  5
20C
330
8A
100
AcDbEntity
  8
1
  6
Continuous
 62
     7
100
AcDbCircle
 10
344.9734346612219
 20
565.9611301872471
 30
0.0
 40
28.99999999999939
100
AcDbArc
 50
-116.2915552747269
 51
-89.99999999999945
  0
ENDBLK
  5
8C
330
8A
100
AcDbEntity
  8
0
100
AcDbBlockEnd
  0
BLOCK
  5
8E
330
8D
100
AcDbEntity
  8
0
100
AcDbBlockBegin
  2
35-6-12__22
 70
     0
 71
     0
 10
261.8734346612222
 20
971.4611301872453
 30
0.0
  3
35-6-12__22
  1

  0
LINE
  5
20D
330
8D
100
AcDbEntity
  8
1
  6
Continuous
 62
     7
100
AcDbLine
 10
239.9734346612219
 20
961.9265657545117
 30
0.0
 11
239.973434661222
 21
961.1154424522043
 31
0.0
  0
LINE
  5
20E
330
8D
100
AcDbEntity
  8
1
  6
Continuous
 62
     7
100
AcDbLine
 10
259.973434661222
 20
961.1154424522043
 30
0.0
 11
259.9734346612219
 21
961.9265657545117
 31
0.0
  0
ENDBLK
  5
8F
330
8D
100
AcDbEntity
  8
0
100
AcDbBlockEnd
  0
BLOCK
  5
91
330
90
100
AcDbEntity
  8
0
100
AcDbBlockBegin
  2
33-349A
 70
     0
 71
     0
 10
255.3654746709712
 20
925.5950753925549
 30
0.0
  3
33-349A
  1

  0
LINE
  5
20F
330
90
100
AcDbEntity
  8
1
  6
Continuous
 62
     7
100
AcDbLine
 10
244.9734346612218
 20
536.9611301872471
 30
0.0
 11
244.9734346612218
 21
539.9611301872471
 31
0.0
  0
LINE
  5
210
330
90
100
AcDbEntity
  8
1
  6
Continuous
 62
     7
100
AcDbLine
 10
244.9734346612221
 20
1009.961130187247
 30
0.0
 11
244.9734346612221
 21
961.961130187247
 31
0.0
  0
LINE
  5
211
330
90
100
AcDbEntity
  8
1
  6
Continuous
 62
     7
100
AcDbLine
 10
208.3359346612219
 20
1006.961130187247
 30
0.0
 11
207.7734346612221
 21
1009.961130187247
 31
0.0
  0
LINE
  5
212
330
90
100
AcDbEntity
  8
1
  6
Continuous
 62
     7
100
AcDbLine
 10
223.2613007043858
 20
973.456301567434
 30
0.0
 11
218.5719899719558
 21
998.4659588070601
 31
0.0
  0
LINE
  5
213
330
90
100
AcDbEntity
  8
1
  6
Continuous
 62
     7
100
AcDbLine
 10
244.9734346612221
 20
1009.961130187247
 30
0.0
 11
207.7734346612221
 21
1009.961130187247
 31
0.0
  0
LINE
  5
214
330
90
100
AcDbEntity
  8
1
  6
Continuous
 62
     7
100
AcDbLine
 10
244.9734346612221
 20
961.961130187247
 30
0.0
 11
216.7734346612221
 21
961.961130187247
 31
0.0
  0
LINE
  5
215
330
90
100
AcDbEntity
  8
1
  6
Continuous
 62
     7
100
AcDbLine
 10
216.7734346612221
 20
961.961130187247
 30
0.0
 11
216.2109346612218
 21
964.961130187247
 31
0.0
  0
LINE
  5
216
330
90
100
AcDbEntity
  8
1
  6
Continuous
 62
     7
100
AcDbLine
 10
244.9734346612218
 20
591.9611301872471
 30
0.0
 11
244.9734346612218
 21
594.9611301872471
 31
0.0
  0
ARC
  5
217
330
90
100
AcDbEntity
  8
1
  6
Continuous
 62
     7
100
AcDbCircle
 10
244.9734346612218
 20
578.9611301872471
 30
0.0
 40
42.00000000000004
100
AcDbArc
 50
-111.786789298262
 51
-90.0
  0
ARC
  5
218
330
90
100
AcDbEntity
  8
1
  6
Continuous
 62
     7
100
AcDbCircle
 10
216.2109346612218
 20
972.1343579343409
 30
0.0
 40
7.173227747093847
100
AcDbArc
 50
-90.0
 51
10.61965527615441
  0
ARC
  5
219
330
90
100
AcDbEntity
  8
1
  6
Continuous
 62
     7
100
AcDbCircle
 10
208.3359346612199
 20
996.5466984362952
 30
0.0
 40
10.4144317509518
100
AcDbArc
 50
10.61965527616585
 51
89.99999999998906
  0
ARC
  5
21A
330
90
100
AcDbEntity
  8
1
  6
Continuous
 62
     7
100
AcDbCircle
 10
244.9734346612218
 20
552.9611301872471
 30
0.0
 40
42.0
100
AcDbArc
 50
90.0
 51
111.7867892982622
  0
ENDBLK
  5
92
330
90
100
AcDbEntity
  8
0
100
AcDbBlockEnd
  0
BLOCK
  5
94
330
93
100
AcDbEntity
  8
0
100
AcDbBlockBegin
  2
13-11B__23
 70
     0
 71
     0
 10
122.4988582412483
 20
1126.450571725642
 30
0.0
  3
13-11B__23
  1

  0
LINE
  5
21B
330
93
100
AcDbEntity
  8
1
  6
Continuous
 62
     7
100
AcDbLine
 10
222.8148167612626
 20
975.837549264091
 30
0.0
 11
215.0804652091516
 21
973.7651360117242
 31
0.0
  0
LINE
  5
21C
330
93
100
AcDbEntity
  8
1
  6
Continuous
 62
     7
100
AcDbLine
 10
212.34141772432
 20
1006.160048223256
 30
0.0
 11
206.798255765871
 21
1004.674762452974
 31
0.0
  0
LINE
  5
21D
330
93
100
AcDbEntity
  8
0
  6
Continuous
 62
     7
100
AcDbLine
 10
355.4734346612221
 20
1011.729079379678
 30
0.0
 11
355.4734346612254
 21
1011.729079379698
 31
0.0
  0
LINE
  5
21E
330
93
100
AcDbEntity
  8
0
  6
Continuous
 62
     7
100
AcDbLine
 10
355.473434661225
 20
1011.961130187247
 30
0.0
 11
355.4734346612221
 21
1011.729079379704
 31
0.0
  0
LINE
  5
21F
330
93
100
AcDbEntity
  8
1
  6
Continuous
 62
     7
100
AcDbLine
 10
355.4734346612254
 20
1011.729079379698
 30
0.0
 11
355.4734346612221
 21
1011.729079379678
 31
0.0
  0
LINE
  5
220
330
93
100
AcDbEntity
  8
1
  6
Continuous
 62
     7
100
AcDbLine
 10
234.4734346612221
 20
1013.461130187247
 30
0.0
 11
255.4734346612225
 21
1013.461130187247
 31
0.0
  0
LINE
  5
221
330
93
100
AcDbEntity
  8
1
  6
Continuous
 62
     7
100
AcDbLine
 10
234.4734346612221
 20
1026.211130187247
 30
0.0
 11
255.4734346612221
 21
1026.211130187247
 31
0.0
  0
LINE
  5
222
330
93
100
AcDbEntity
  8
1
  6
Continuous
 62
     7
100
AcDbLine
 10
206.798255765871
 20
1004.674762452974
 30
0.0
 11
215.0804652091516
 21
973.7651360117242
 31
0.0
  0
LINE
  5
223
330
93
100
AcDbEntity
  8
1
  6
Continuous
 62
     7
100
AcDbLine
 10
255.4734346612225
 20
1013.461130187247
 30
0.0
 11
255.4734346612254
 21
1011.729079379698
 31
0.0
  0
LINE
  5
224
330
93
100
AcDbEntity
  8
0
  6
Continuous
 62
     7
100
AcDbLine
 10
234.4734346612189
 20
1011.729079379698
 30
0.0
 11
234.4734346612221
 21
1011.729079379678
 31
0.0
  0
LINE
  5
225
330
93
100
AcDbEntity
  8
1
  6
Continuous
 62
     7
100
AcDbLine
 10
234.4734346612221
 20
1026.211130187247
 30
0.0
 11
234.4734346612221
 21
1011.729079379678
 31
0.0
  0
LINE
  5
226
330
93
100
AcDbEntity
  8
0
  6
Continuous
 62
     7
100
AcDbLine
 10
234.4734346612221
 20
1011.729079379704
 30
0.0
 11
234.4734346612192
 21
1011.961130187247
 31
0.0
  0
LINE
  5
227
330
93
100
AcDbEntity
  8
1
  6
Continuous
 62
     7
100
AcDbLine
 10
206.798255765871
 20
1004.674762452974
 30
0.0
 11
206.0911489846845
 21
1003.450017581583
 31
0.0
  0
LINE
  5
228
330
93
100
AcDbEntity
  8
1
  6
Continuous
 62
     7
100
AcDbLine
 10
213.85572033776
 20
974.472242792911
 30
0.0
 11
215.0804652091516
 21
973.7651360117242
 31
0.0
  0
LINE
  5
229
330
93
100
AcDbEntity
  8
1
  6
Continuous
 62
     7
100
AcDbLine
 10
206.0911489846845
 20
1003.450017581583
 30
0.0
 11
213.85572033776
 21
974.472242792911
 31
0.0
  0
LINE
  5
22A
330
93
100
AcDbEntity
  8
1
  6
Continuous
 62
     2
100
AcDbLine
 10
234.4734346612221
 20
1011.729079379704
 30
0.0
 11
235.4734346612225
 21
1013.461130187247
 31
0.0
  0
LINE
  5
22B
330
93
100
AcDbEntity
  8
1
  6
Continuous
 62
     7
100
AcDbLine
 10
234.4734346612221
 20
1011.729079379678
 30
0.0
 11
234.4734346612189
 21
1011.729079379698
 31
0.0
  0
LINE
  5
22C
330
93
100
AcDbEntity
  8
1
  6
Continuous
 62
     2
100
AcDbLine
 10
235.4734346612225
 20
1013.461130187247
 30
0.0
 11
235.4734346612221
 21
1027.211130187247
 31
0.0
  0
LINE
  5
22D
330
93
100
AcDbEntity
  8
1
  6
Continuous
 62
     7
100
AcDbLine
 10
234.4734346612221
 20
1026.211130187247
 30
0.0
 11
235.7234346612221
 21
1027.461130187247
 31
0.0
  0
LINE
  5
22E
330
93
100
AcDbEntity
  8
1
  6
Continuous
 62
     7
100
AcDbLine
 10
254.2234346612222
 20
1027.461130187247
 30
0.0
 11
235.7234346612221
 21
1027.461130187247
 31
0.0
  0
LINE
  5
22F
330
93
100
AcDbEntity
  8
1
  6
Continuous
 62
     2
100
AcDbLine
 10
254.4734346612221
 20
1013.461130187247
 30
0.0
 11
255.4734346612254
 21
1011.729079379698
 31
0.0
  0
LINE
  5
230
330
93
100
AcDbEntity
  8
1
  6
Continuous
 62
     2
100
AcDbLine
 10
254.4734346612218
 20
1027.211130187247
 30
0.0
 11
254.4734346612221
 21
1013.461130187247
 31
0.0
  0
LINE
  5
231
330
93
100
AcDbEntity
  8
1
  6
Continuous
 62
     7
100
AcDbLine
 10
255.4734346612221
 20
1026.211130187247
 30
0.0
 11
255.4734346612225
 21
1013.461130187247
 31
0.0
  0
LINE
  5
232
330
93
100
AcDbEntity
  8
1
  6
Continuous
 62
     7
100
AcDbLine
 10
254.2234346612222
 20
1027.461130187247
 30
0.0
 11
255.4734346612221
 21
1026.211130187247
 31
0.0
  0
ARC
  5
233
330
93
100
AcDbEntity
  8
1
  6
Continuous
 62
     7
100
AcDbCircle
 10
257.4734346612254
 20
1011.961130187247
 30
0.0
 40
1.999999999999972
100
AcDbArc
 50
180.0
 51
-90.0
  0
ARC
  5
234
330
93
100
AcDbEntity
  8
1
  6
Continuous
 62
     7
100
AcDbCircle
 10
232.4734346612194
 20
1011.961130187247
 30
0.0
 40
2.0
100
AcDbArc
 50
-90.0
 51
0.0
  0
ENDBLK
  5
95
330
93
100
AcDbEntity
  8
0
100
AcDbBlockEnd
  0
BLOCK
  5
97
330
96
100
AcDbEntity
  8
0
100
AcDbBlockBegin
  2
32-3__24
 70
     0
 71
     0
 10
323.223434661222
 20
964.650006884938
 30
0.0
  3
32-3__24
  1

  0
LINE
  5
235
330
96
100
AcDbEntity
  8
1
  6
Continuous
 62
     7
100
AcDbLine
 10
350.9734346612221
 20
961.0903892062925
 30
0.0
 11
329.2734346612222
 21
961.0903892062925
 31
0.0
  0
LINE
  5
236
330
96
100
AcDbEntity
  8
1
  6
Continuous
 62
     7
100
AcDbLine
 10
325.7167709548875
 20
961.0903892062925
 30
0.0
 11
329.2734346612222
 21
961.0903892062925
 31
0.0
  0
LINE
  5
237
330
96
100
AcDbEntity
  8
1
  6
Continuous
 62
     7
100
AcDbLine
 10
354.2300983675568
 20
948.0903892062922
 30
0.0
 11
325.7167709548875
 21
948.0903892062922
 31
0.0
  0
LINE
  5
238
330
96
100
AcDbEntity
  8
1
  6
Continuous
 62
     7
100
AcDbLine
 10
350.673434661222
 20
961.0903892062925
 30
0.0
 11
354.2300983675567
 21
961.0903892062925
 31
0.0
  0
ARC
  5
239
330
96
100
AcDbEntity
  8
1
  6
Continuous
 62
     7
100
AcDbCircle
 10
333.223434661222
 20
954.5903892062922
 30
0.0
 40
10.0000000000001
100
AcDbArc
 50
139.9947991151376
 51
-139.9947991151401
  0
ARC
  5
23A
330
96
100
AcDbEntity
  8
1
  6
Continuous
 62
     7
100
AcDbCircle
 10
346.7234346612222
 20
954.5903892062922
 30
0.0
 40
9.999999999999734
100
AcDbArc
 50
-40.00520088485992
 51
40.00520088486242
  0
SPLINE
  5
23B
330
96
100
AcDbEntity
  8
1
  6
Continuous
 62
     7
100
AcDbSpline
210
0.0
220
0.0
230
1.0
 70
    11
 71
     3
 72
    79
 73
    75
 74
    73
 42
0.0000000001
 43
0.0000000001
 44
0.00000001
 40
0.0
 40
0.0
 40
0.0
 40
0.0
 40
0.3271040011562855
 40
0.6542473312557768
 40
0.9935041481683078
 40
1.332838134272358
 40
1.693880156738275
 40
2.054986481469482
 40
2.443474110794301
 40
2.832004960817803
 40
3.249530216803945
 40
3.667083498053966
 40
4.111764059882875
 40
4.556462643452459
 40
5.023726661358805
 40
5.491001890989734
 40
5.974349180581421
 40
6.457702616096826
 40
6.949394833436604
 40
7.441089010504938
 40
7.932783187573498
 40
8.424475404913393
 40
8.907828840428685
 40
9.391176130020483
 40
9.858451359651443
 40
10.32571537755775
 40
10.77041396112734
 40
11.21509452295625
 40
11.63264780420633
 40
12.05017306019231
 40
12.43870391021595
 40
12.82719153954081
 40
13.18829786427192
 40
13.54933988673779
 40
13.88867387284189
 40
14.22793068975442
 40
14.55507401985389
 40
14.88217802101018
 40
15.20928202216636
 40
15.53642535226583
 40
15.87568216917836
 40
16.21501615528251
 40
16.57605817774832
 40
16.9371645024795
 40
17.3256521318044
 40
17.71418298182799
 40
18.13170823781413
 40
18.54926151906405
 40
18.99394208089281
 40
19.43864066446255
 40
19.90590468236877
 40
20.37317991199982
 40
20.8565272015916
 40
21.33988063710689
 40
21.83157285444679
 40
22.32326703151535
 40
22.81496120858369
 40
23.30665342592347
 40
23.79000686143875
 40
24.27335415103054
 40
24.74062938066161
 40
25.20789339856781
 40
25.65259198213742
 40
26.0972725439663
 40
26.51482582521645
 40
26.93235108120247
 40
27.32088193122593
 40
27.70936956055079
 40
28.07047588528209
 40
28.43151790774791
 40
28.77085189385206
 40
29.11010871076455
 40
29.43725204086402
 40
29.7643560420202
 40
29.7643560420202
 40
29.7643560420202
 40
29.7643560420202
 10
352.9638157179886
 20
948.9390619285638
 30
0.0
 10
353.072924265554
 20
948.9433294240457
 30
0.0
 10
353.2911544792154
 20
948.9518649281063
 30
0.0
 10
353.6167780019234
 20
949.0195533192448
 30
0.0
 10
353.9351183964498
 20
949.1268410328871
 30
0.0
 10
354.2481459373783
 20
949.277508889468
 30
0.0
 10
354.5478628750909
 20
949.4669553475814
 30
0.0
 10
354.8383083930175
 20
949.6975339963492
 30
0.0
 10
355.1109130008251
 20
949.962258942525
 30
0.0
 10
355.3699950437608
 20
950.2652791224856
 30
0.0
 10
355.6078541354748
 20
950.5972154901333
 30
0.0
 10
355.8279414663779
 20
950.9631146648744
 30
0.0
 10
356.0242439481516
 20
951.3524721730305
 30
0.0
 10
356.1989073159879
 20
951.7699627418519
 30
0.0
 10
356.3478671498002
 20
952.2052641751302
 30
0.0
 10
356.4720286068611
 20
952.6616032471451
 30
0.0
 10
356.5691364717044
 20
953.1299312658509
 30
0.0
 10
356.6392244693705
 20
953.6112634037249
 30
0.0
 10
356.6814523292223
 20
954.0986269840312
 30
0.0
 10
356.6955167401678
 20
954.5903892062929
 30
0.0
 10
356.6814523292223
 20
955.082151428551
 30
0.0
 10
356.6392244693704
 20
955.5695150088691
 30
0.0
 10
356.5691364717044
 20
956.0508471466987
 30
0.0
 10
356.4720286068611
 20
956.5191751655682
 30
0.0
 10
356.3478671498
 20
956.9755142369927
 30
0.0
 10
356.198907315988
 20
957.4108156724212
 30
0.0
 10
356.0242439481514
 20
957.8283062335909
 30
0.0
 10
355.8279414663781
 20
958.2176637694263
 30
0.0
 10
355.6078541354747
 20
958.583562846883
 30
0.0
 10
355.3699950437608
 20
958.915499564408
 30
0.0
 10
355.1109130008252
 20
959.2185185250396
 30
0.0
 10
354.8383083930175
 20
959.4832478459289
 30
0.0
 10
354.5478628750909
 20
959.7138112641525
 30
0.0
 10
354.2481459373782
 20
959.9033125426636
 30
0.0
 10
353.9351183964498
 20
960.0537875244361
 30
0.0
 10
353.6167780019235
 20
960.1617769323129
 30
0.0
 10
353.2911544792154
 20
960.2269354809198
 30
0.0
 10
352.9638157179886
 20
960.2491065413044
 30
0.0
 10
352.636476956762
 20
960.2269354809196
 30
0.0
 10
352.3108534340537
 20
960.1617769323128
 30
0.0
 10
351.9925130395275
 20
960.0537875244359
 30
0.0
 10
351.6794854985992
 20
959.9033125426633
 30
0.0
 10
351.3797685608864
 20
959.7138112641528
 30
0.0
 10
351.0893230429597
 20
959.4832478459286
 30
0.0
 10
350.8167184351522
 20
959.2185185250396
 30
0.0
 10
350.5576363922164
 20
958.9154995644083
 30
0.0
 10
350.3197773005025
 20
958.5835628468828
 30
0.0
 10
350.0996899695994
 20
958.2176637694263
 30
0.0
 10
349.9033874878257
 20
957.8283062335914
 30
0.0
 10
349.7287241199895
 20
957.4108156724212
 30
0.0
 10
349.579764286177
 20
956.9755142369925
 30
0.0
 10
349.4556028291163
 20
956.5191751655689
 30
0.0
 10
349.358494964273
 20
956.0508471466984
 30
0.0
 10
349.288406966607
 20
955.5695150088693
 30
0.0
 10
349.2461791067551
 20
955.0821514285508
 30
0.0
 10
349.2321146958095
 20
954.5903892062931
 30
0.0
 10
349.246179106755
 20
954.0986269840309
 30
0.0
 10
349.2884069666071
 20
953.6112634037252
 30
0.0
 10
349.3584949642728
 20
953.1299312658509
 30
0.0
 10
349.4556028291162
 20
952.661603247145
 30
0.0
 10
349.5797642861771
 20
952.2052641751308
 30
0.0
 10
349.7287241199892
 20
951.7699627418517
 30
0.0
 10
349.9033874878258
 20
951.3524721730305
 30
0.0
 10
350.0996899695993
 20
950.9631146648748
 30
0.0
 10
350.3197773005026
 20
950.5972154901333
 30
0.0
 10
350.5576363922163
 20
950.2652791224857
 30
0.0
 10
350.816718435152
 20
949.9622589425248
 30
0.0
 10
351.0893230429599
 20
949.6975339963495
 30
0.0
 10
351.3797685608864
 20
949.4669553475815
 30
0.0
 10
351.6794854985992
 20
949.2775088894682
 30
0.0
 10
351.9925130395275
 20
949.1268410328869
 30
0.0
 10
352.3108534340537
 20
949.0195533192447
 30
0.0
 10
352.6364769567621
 20
948.9518649281065
 30
0.0
 10
352.8547071704232
 20
948.9433294240454
 30
0.0
 10
352.9638157179886
 20
948.9390619285638
 30
0.0
 11
352.9638157179886
 21
948.9390619285638
 31
0.0
 11
353.2901917300134
 21
948.9608730804653
 31
0.0
 11
353.6110047125628
 21
949.0249182883758
 31
0.0
 11
353.9324767196575
 21
949.1333200248754
 31
0.0
 11
354.2385291970302
 21
949.2798786657647
 31
0.0
 11
354.5440822419125
 21
949.4722030759405
 31
0.0
 11
354.8273221574731
 21
949.6961962186795
 31
0.0
 11
355.1065065783372
 21
949.9663419150827
 31
0.0
 11
355.359493417732
 21
950.2612213489417
 31
0.0
 11
355.603169270581
 21
950.6002632609889
 31
0.0
 11
355.8188732233556
 21
950.9577860538848
 31
0.0
 11
356.0194712018505
 21
951.3546503292891
 31
0.0
 11
356.1915035514075
 21
951.7647255674281
 31
0.0
 11
356.343092057975
 21
952.2067171817225
 31
0.0
 11
356.4660622179298
 21
952.6575214407833
 31
0.0
 11
356.5643845559042
 21
953.1307627325266
 31
0.0
 11
356.6342068967736
 21
953.6090465231155
 31
0.0
 11
356.6767183646061
 21
954.0988975328064
 31
0.0
 11
356.6908285969575
 21
954.5903892062922
 31
0.0
 11
356.6767183646062
 21
955.0818808797783
 31
0.0
 11
356.6342068967736
 21
955.5717318894693
 31
0.0
 11
356.5643845559042
 21
956.0500156800581
 31
0.0
 11
356.4660622179298
 21
956.5232569718015
 31
0.0
 11
356.3430920579748
 21
956.9740612308623
 31
0.0
 11
356.1915035514075
 21
957.4160528451567
 31
0.0
 11
356.0194712018505
 21
957.8261280832957
 31
0.0
 11
355.8188732233556
 21
958.2229923587
 31
0.0
 11
355.6031692705809
 21
958.5805151515959
 31
0.0
 11
355.359493417732
 21
958.919557063643
 31
0.0
 11
355.1065065783373
 21
959.2144364975022
 31
0.0
 11
354.8273221574731
 21
959.4845821939055
 31
0.0
 11
354.5440822419124
 21
959.7085753366442
 31
0.0
 11
354.2385291970302
 21
959.90089974682
 31
0.0
 11
353.9324767196575
 21
960.0474583877094
 31
0.0
 11
353.6110047125628
 21
960.155860124209
 31
0.0
 11
353.2901917300134
 21
960.2199053321194
 31
0.0
 11
352.9638157179886
 21
960.241716484021
 31
0.0
 11
352.637439705964
 21
960.2199053321194
 31
0.0
 11
352.3166267234145
 21
960.155860124209
 31
0.0
 11
351.9951547163198
 21
960.0474583877094
 31
0.0
 11
351.6891022389471
 21
959.90089974682
 31
0.0
 11
351.3835491940649
 21
959.7085753366443
 31
0.0
 11
351.1003092785042
 21
959.4845821939055
 31
0.0
 11
350.8211248576401
 21
959.2144364975021
 31
0.0
 11
350.5681380182453
 21
958.919557063643
 31
0.0
 11
350.3244621653963
 21
958.5805151515958
 31
0.0
 11
350.1087582126217
 21
958.2229923587
 31
0.0
 11
349.9081602341269
 21
957.8261280832958
 31
0.0
 11
349.7361278845698
 21
957.4160528451567
 31
0.0
 11
349.5845393780024
 21
956.9740612308624
 31
0.0
 11
349.4615692180475
 21
956.5232569718015
 31
0.0
 11
349.3632468800732
 21
956.0500156800581
 31
0.0
 11
349.2934245392038
 21
955.5717318894693
 31
0.0
 11
349.2509130713712
 21
955.0818808797783
 31
0.0
 11
349.2368028390198
 21
954.5903892062922
 31
0.0
 11
349.2509130713712
 21
954.0988975328064
 31
0.0
 11
349.2934245392038
 21
953.6090465231155
 31
0.0
 11
349.3632468800731
 21
953.1307627325267
 31
0.0
 11
349.4615692180475
 21
952.6575214407833
 31
0.0
 11
349.5845393780024
 21
952.2067171817224
 31
0.0
 11
349.7361278845698
 21
951.7647255674281
 31
0.0
 11
349.9081602341269
 21
951.3546503292891
 31
0.0
 11
350.1087582126217
 21
950.9577860538848
 31
0.0
 11
350.3244621653963
 21
950.6002632609888
 31
0.0
 11
350.5681380182453
 21
950.2612213489417
 31
0.0
 11
350.82112485764
 21
949.9663419150827
 31
0.0
 11
351.1003092785042
 21
949.6961962186795
 31
0.0
 11
351.3835491940649
 21
949.4722030759405
 31
0.0
 11
351.6891022389471
 21
949.2798786657647
 31
0.0
 11
351.9951547163198
 21
949.1333200248753
 31
0.0
 11
352.3166267234145
 21
949.0249182883758
 31
0.0
 11
352.637439705964
 21
948.9608730804654
 31
0.0
 11
352.9638157179886
 21
948.9390619285638
 31
0.0
  0
SPLINE
  5
23C
330
96
100
AcDbEntity
  8
0
  6
Continuous
 62
     7
100
AcDbSpline
210
0.0
220
0.0
230
1.0
 70
     8
 71
     3
 72
    35
 73
    31
 74
    29
 42
0.0000000001
 43
0.0000000001
 44
0.00000001
 40
0.0
 40
0.0
 40
0.0
 40
0.0
 40
1.034361717178075
 40
2.064477868416841
 40
2.996561012498828
 40
3.931160327842454
 40
4.713221122514955
 40
5.493982177162634
 40
6.169698055806434
 40
6.845974444911176
 40
7.640940400706969
 40
8.435511701943861
 40
9.088505790407936
 40
9.74042495655184
 40
10.03737750701861
 40
10.33431535045558
 40
10.87925796611993
 40
11.42470343044131
 40
12.03668981404124
 40
12.64892124748512
 40
13.50021431478534
 40
14.35262206713909
 40
15.09351980366317
 40
15.83343204654918
 40
16.42977862086595
 40
17.02694535788127
 40
18.01137839279302
 40
18.99331888577513
 40
19.83263407402471
 40
20.67444722103464
 40
20.67444722103464
 40
20.67444722103464
 40
20.67444722103464
 10
339.9734346612222
 20
960.2414141633299
 30
0.0
 10
340.3176020240679
 20
960.2209001286708
 30
0.0
 10
341.0045241054118
 20
960.1799562597689
 30
0.0
 10
341.9972041087663
 20
960.051216702229
 30
0.0
 10
342.9324007486728
 20
959.8005314838332
 30
0.0
 10
343.7551895719685
 20
959.4756949954615
 30
0.0
 10
344.4973564301645
 20
959.0960834330444
 30
0.0
 10
345.1254121876725
 20
958.6904340922243
 30
0.0
 10
345.6795161110411
 20
958.2430927101715
 30
0.0
 10
346.1865330399601
 20
957.7360249510116
 30
0.0
 10
346.6512384138871
 20
957.137426577616
 30
0.0
 10
347.0179038298153
 20
956.482216574948
 30
0.0
 10
347.2633041314753
 20
955.8244926042469
 30
0.0
 10
347.3774490503572
 20
955.3007003946347
 30
0.0
 10
347.4206501056956
 20
954.8873963296155
 30
0.0
 10
347.4337890321967
 20
954.5077322314693
 30
0.0
 10
347.4038651482745
 20
954.0449229610795
 30
0.0
 10
347.2969346044936
 20
953.4861980944427
 30
0.0
 10
347.1105572090379
 20
952.9245717979253
 30
0.0
 10
346.8087953137102
 20
952.3000815485998
 30
0.0
 10
346.3729524017419
 20
951.6586249795496
 30
0.0
 10
345.8171323291322
 20
951.0590260431724
 30
0.0
 10
345.2195652513028
 20
950.5587606779443
 30
0.0
 10
344.6426599680253
 20
950.1735668518109
 30
0.0
 10
344.0760961434654
 20
949.8651336496945
 30
0.0
 10
343.415173270383
 20
949.5636890401552
 30
0.0
 10
342.6104776111901
 20
949.2715637593537
 30
0.0
 10
341.6975661468759
 20
949.0557252172125
 30
0.0
 10
340.8134774052326
 20
948.9623525320154
 30
0.0
 10
340.2537261507109
 20
948.9360551430361
 30
0.0
 10
339.9734346612222
 20
948.9228869111349
 30
0.0
 11
339.9734346612222
 21
960.2414141633299
 31
0.0
 11
341.0051796116975
 21
960.1678851273487
 31
0.0
 11
342.0251181848288
 21
960.0234393171572
 31
0.0
 11
342.9259083768065
 21
959.7839481533985
 31
0.0
 11
343.7957242244003
 21
959.4420471859892
 31
0.0
 11
344.4912430051555
 21
959.0844542439718
 31
0.0
 11
345.1461960987038
 21
958.659455103142
 31
0.0
 11
345.6713831501675
 21
958.2342839498093
 31
0.0
 11
346.1488479752768
 21
957.7553506608808
 31
0.0
 11
346.6347842860403
 21
957.126195057905
 31
0.0
 11
347.020719871027
 21
956.4316468040088
 31
0.0
 11
347.248519933487
 21
955.8196758805882
 31
0.0
 11
347.3863587623224
 21
955.1824953281142
 31
0.0
 11
347.4172148030189
 21
954.8871502384627
 31
0.0
 11
347.4274604191599
 21
954.5903892062922
 31
0.0
 11
347.3926436106576
 21
954.0465599645142
 31
0.0
 11
347.2901884564062
 21
953.5108233725998
 31
0.0
 11
347.0983232156614
 21
952.929690803296
 31
0.0
 11
346.8325908183701
 21
952.3781351659152
 31
0.0
 11
346.3564991022171
 21
951.6724181091255
 31
0.0
 11
345.7786694483487
 21
951.0457508390506
 31
0.0
 11
345.2112965197129
 21
950.5692873925642
 31
0.0
 11
344.5965185636326
 21
950.1575615227304
 31
0.0
 11
344.0732300926551
 21
949.8715573045074
 31
0.0
 11
343.5303400513785
 21
949.6228033801559
 31
0.0
 11
342.6040380848714
 21
949.2895271177689
 31
0.0
 11
341.64766344736
 21
949.0669183028427
 31
0.0
 11
340.8138958342095
 21
948.9705774886062
 31
0.0
 11
339.9734346612222
 21
948.9228869111349
 31
0.0
  0
SPLINE
  5
23D
330
96
100
AcDbEntity
  8
1
  6
Continuous
 62
     7
100
AcDbSpline
210
0.0
220
0.0
230
1.0
 70
    11
 71
     3
 72
    79
 73
    75
 74
    73
 42
0.0000000001
 43
0.0000000001
 44
0.00000001
 40
0.0
 40
0.0
 40
0.0
 40
0.0
 40
0.3271040011562287
 40
0.6542473312557759
 40
0.9935041481683609
 40
1.332838134272411
 40
1.693880156738232
 40
2.054986481469528
 40
2.443474110794387
 40
2.832004960817852
 40
3.249530216803962
 40
3.667083498054012
 40
4.111764059882869
 40
4.556462643452454
 40
5.023726661358655
 40
5.491001890989724
 40
5.974349180581399
 40
6.457702616096812
 40
6.949394833436594
 40
7.44108901050493
 40
7.932783187573493
 40
8.424475404913389
 40
8.907828840428691
 40
9.391176130020478
 40
9.858451359651422
 40
10.32571537755775
 40
10.77041396112744
 40
11.21509452295619
 40
11.63264780420625
 40
12.05017306019226
 40
12.43870391021594
 40
12.82719153954075
 40
13.18829786427187
 40
13.54933988673773
 40
13.88867387284183
 40
14.22793068975442
 40
14.55507401985394
 40
14.88217802101018
 40
15.20928202216641
 40
15.53642535226583
 40
15.87568216917838
 40
16.21501615528258
 40
16.57605817774851
 40
16.93716450247946
 40
17.32565213180428
 40
17.71418298182802
 40
18.13170823781404
 40
18.54926151906409
 40
18.99394208089295
 40
19.43864066446254
 40
19.90590468236874
 40
20.37317991199981
 40
20.85652720159161
 40
21.3398806371069
 40
21.8315728544468
 40
22.32326703151536
 40
22.8149612085837
 40
23.30665342592348
 40
23.79000686143878
 40
24.27335415103057
 40
24.74062938066153
 40
25.20789339856784
 40
25.65259198213744
 40
26.09727254396628
 40
26.5148258252164
 40
26.93235108120244
 40
27.32088193122602
 40
27.70936956055084
 40
28.07047588528204
 40
28.43151790774786
 40
28.77085189385202
 40
29.11010871076456
 40
29.437252040864
 40
29.76435604202023
 40
29.76435604202023
 40
29.76435604202023
 40
29.76435604202023
 10
326.9830536044556
 20
948.9390619285638
 30
0.0
 10
326.8739450568903
 20
948.9433294240455
 30
0.0
 10
326.6557148432289
 20
948.9518649281063
 30
0.0
 10
326.3300913205207
 20
949.0195533192449
 30
0.0
 10
326.0117509259945
 20
949.1268410328872
 30
0.0
 10
325.6987233850658
 20
949.2775088894678
 30
0.0
 10
325.3990064473534
 20
949.4669553475818
 30
0.0
 10
325.1085609294266
 20
949.697533996349
 30
0.0
 10
324.8359563216191
 20
949.9622589425252
 30
0.0
 10
324.5768742786833
 20
950.2652791224857
 30
0.0
 10
324.3390151869695
 20
950.5972154901335
 30
0.0
 10
324.1189278560661
 20
950.9631146648745
 30
0.0
 10
323.9226253742928
 20
951.3524721730306
 30
0.0
 10
323.7479620064564
 20
951.7699627418522
 30
0.0
 10
323.5990021726442
 20
952.2052641751309
 30
0.0
 10
323.4748407155832
 20
952.6616032471447
 30
0.0
 10
323.3777328507399
 20
953.1299312658512
 30
0.0
 10
323.3076448530738
 20
953.6112634037252
 30
0.0
 10
323.265416993222
 20
954.0986269840308
 30
0.0
 10
323.2513525822764
 20
954.5903892062931
 30
0.0
 10
323.265416993222
 20
955.0821514285508
 30
0.0
 10
323.3076448530738
 20
955.5695150088691
 30
0.0
 10
323.37773285074
 20
956.050847146699
 30
0.0
 10
323.4748407155831
 20
956.5191751655682
 30
0.0
 10
323.5990021726441
 20
956.9755142369929
 30
0.0
 10
323.7479620064564
 20
957.4108156724211
 30
0.0
 10
323.9226253742926
 20
957.8283062335911
 30
0.0
 10
324.1189278560662
 20
958.2176637694264
 30
0.0
 10
324.3390151869694
 20
958.583562846883
 30
0.0
 10
324.5768742786834
 20
958.9154995644083
 30
0.0
 10
324.8359563216189
 20
959.2185185250394
 30
0.0
 10
325.1085609294267
 20
959.4832478459291
 30
0.0
 10
325.3990064473534
 20
959.7138112641526
 30
0.0
 10
325.6987233850661
 20
959.9033125426638
 30
0.0
 10
326.0117509259944
 20
960.0537875244356
 30
0.0
 10
326.3300913205207
 20
960.1617769323133
 30
0.0
 10
326.655714843229
 20
960.2269354809198
 30
0.0
 10
326.9830536044556
 20
960.2491065413045
 30
0.0
 10
327.3103923656823
 20
960.2269354809197
 30
0.0
 10
327.6360158883904
 20
960.1617769323131
 30
0.0
 10
327.9543562829168
 20
960.0537875244363
 30
0.0
 10
328.2673838238452
 20
959.9033125426633
 30
0.0
 10
328.5671007615578
 20
959.7138112641526
 30
0.0
 10
328.8575462794845
 20
959.4832478459285
 30
0.0
 10
329.1301508872921
 20
959.2185185250396
 30
0.0
 10
329.3892329302279
 20
958.9154995644085
 30
0.0
 10
329.6270920219418
 20
958.583562846883
 30
0.0
 10
329.8471793528449
 20
958.2176637694262
 30
0.0
 10
330.0434818346185
 20
957.8283062335913
 30
0.0
 10
330.2181452024549
 20
957.4108156724212
 30
0.0
 10
330.3671050362669
 20
956.9755142369927
 30
0.0
 10
330.4912664933281
 20
956.5191751655686
 30
0.0
 10
330.5883743581712
 20
956.0508471466987
 30
0.0
 10
330.6584623558373
 20
955.5695150088691
 30
0.0
 10
330.7006902156892
 20
955.082151428551
 30
0.0
 10
330.7147546266349
 20
954.5903892062931
 30
0.0
 10
330.7006902156891
 20
954.0986269840309
 30
0.0
 10
330.6584623558374
 20
953.6112634037254
 30
0.0
 10
330.5883743581711
 20
953.1299312658508
 30
0.0
 10
330.4912664933281
 20
952.6616032471452
 30
0.0
 10
330.3671050362669
 20
952.2052641751304
 30
0.0
 10
330.2181452024549
 20
951.7699627418519
 30
0.0
 10
330.0434818346184
 20
951.3524721730305
 30
0.0
 10
329.8471793528449
 20
950.9631146648748
 30
0.0
 10
329.6270920219418
 20
950.5972154901328
 30
0.0
 10
329.389232930228
 20
950.2652791224862
 30
0.0
 10
329.130150887292
 20
949.9622589425248
 30
0.0
 10
328.8575462794844
 20
949.6975339963492
 30
0.0
 10
328.5671007615578
 20
949.4669553475815
 30
0.0
 10
328.2673838238453
 20
949.2775088894682
 30
0.0
 10
327.9543562829167
 20
949.1268410328867
 30
0.0
 10
327.6360158883904
 20
949.019553319245
 30
0.0
 10
327.3103923656824
 20
948.9518649281065
 30
0.0
 10
327.0921621520209
 20
948.9433294240455
 30
0.0
 10
326.9830536044556
 20
948.9390619285638
 30
0.0
 11
326.9830536044556
 21
948.9390619285638
 31
0.0
 11
326.6566775924309
 21
948.9608730804653
 31
0.0
 11
326.3358646098814
 21
949.0249182883758
 31
0.0
 11
326.0143926027866
 21
949.1333200248754
 31
0.0
 11
325.708340125414
 21
949.2798786657647
 31
0.0
 11
325.4027870805318
 21
949.4722030759405
 31
0.0
 11
325.1195471649711
 21
949.6961962186795
 31
0.0
 11
324.8403627441069
 21
949.9663419150827
 31
0.0
 11
324.5873759047122
 21
950.2612213489417
 31
0.0
 11
324.3437000518632
 21
950.6002632609889
 31
0.0
 11
324.1279960990886
 21
950.9577860538848
 31
0.0
 11
323.9273981205938
 21
951.3546503292891
 31
0.0
 11
323.7553657710368
 21
951.7647255674281
 31
0.0
 11
323.6037772644694
 21
952.2067171817224
 31
0.0
 11
323.4808071045145
 21
952.6575214407833
 31
0.0
 11
323.3824847665401
 21
953.1307627325266
 31
0.0
 11
323.3126624256707
 21
953.6090465231155
 31
0.0
 11
323.2701509578381
 21
954.0988975328064
 31
0.0
 11
323.2560407254867
 21
954.5903892062922
 31
0.0
 11
323.2701509578381
 21
955.0818808797783
 31
0.0
 11
323.3126624256707
 21
955.5717318894693
 31
0.0
 11
323.3824847665401
 21
956.0500156800581
 31
0.0
 11
323.4808071045145
 21
956.5232569718015
 31
0.0
 11
323.6037772644694
 21
956.9740612308623
 31
0.0
 11
323.7553657710368
 21
957.4160528451567
 31
0.0
 11
323.9273981205938
 21
957.8261280832958
 31
0.0
 11
324.1279960990886
 21
958.2229923587
 31
0.0
 11
324.3437000518632
 21
958.5805151515959
 31
0.0
 11
324.5873759047122
 21
958.919557063643
 31
0.0
 11
324.840362744107
 21
959.2144364975022
 31
0.0
 11
325.1195471649711
 21
959.4845821939055
 31
0.0
 11
325.4027870805318
 21
959.7085753366442
 31
0.0
 11
325.708340125414
 21
959.90089974682
 31
0.0
 11
326.0143926027866
 21
960.0474583877094
 31
0.0
 11
326.3358646098814
 21
960.155860124209
 31
0.0
 11
326.6566775924309
 21
960.2199053321194
 31
0.0
 11
326.9830536044556
 21
960.241716484021
 31
0.0
 11
327.3094296164803
 21
960.2199053321194
 31
0.0
 11
327.6302425990297
 21
960.155860124209
 31
0.0
 11
327.9517146061245
 21
960.0474583877095
 31
0.0
 11
328.2577670834972
 21
959.90089974682
 31
0.0
 11
328.5633201283794
 21
959.7085753366441
 31
0.0
 11
328.84656004394
 21
959.4845821939055
 31
0.0
 11
329.1257444648041
 21
959.2144364975022
 31
0.0
 11
329.378731304199
 21
958.919557063643
 31
0.0
 11
329.622407157048
 21
958.5805151515959
 31
0.0
 11
329.8381111098226
 21
958.2229923587
 31
0.0
 11
330.0387090883174
 21
957.8261280832957
 31
0.0
 11
330.2107414378744
 21
957.4160528451567
 31
0.0
 11
330.3623299444417
 21
956.9740612308624
 31
0.0
 11
330.4853001043967
 21
956.5232569718015
 31
0.0
 11
330.5836224423711
 21
956.0500156800581
 31
0.0
 11
330.6534447832405
 21
955.5717318894693
 31
0.0
 11
330.6959562510731
 21
955.0818808797783
 31
0.0
 11
330.7100664834245
 21
954.5903892062922
 31
0.0
 11
330.6959562510731
 21
954.0988975328064
 31
0.0
 11
330.6534447832405
 21
953.6090465231155
 31
0.0
 11
330.5836224423711
 21
953.1307627325267
 31
0.0
 11
330.4853001043967
 21
952.6575214407833
 31
0.0
 11
330.3623299444417
 21
952.2067171817225
 31
0.0
 11
330.2107414378744
 21
951.7647255674281
 31
0.0
 11
330.0387090883173
 21
951.3546503292891
 31
0.0
 11
329.8381111098226
 21
950.9577860538848
 31
0.0
 11
329.622407157048
 21
950.6002632609888
 31
0.0
 11
329.378731304199
 21
950.2612213489417
 31
0.0
 11
329.1257444648041
 21
949.9663419150827
 31
0.0
 11
328.84656004394
 21
949.6961962186795
 31
0.0
 11
328.5633201283794
 21
949.4722030759405
 31
0.0
 11
328.2577670834972
 21
949.2798786657647
 31
0.0
 11
327.9517146061245
 21
949.1333200248753
 31
0.0
 11
327.6302425990297
 21
949.0249182883758
 31
0.0
 11
327.3094296164803
 21
948.9608730804653
 31
0.0
 11
326.9830536044556
 21
948.9390619285638
 31
0.0
  0
SPLINE
  5
23E
330
96
100
AcDbEntity
  8
0
  6
Continuous
 62
     7
100
AcDbSpline
210
0.0
220
0.0
230
1.0
 70
     8
 71
     3
 72
    35
 73
    31
 74
    29
 42
0.0000000001
 43
0.0000000001
 44
0.00000001
 40
0.0
 40
0.0
 40
0.0
 40
0.0
 40
1.034361717178132
 40
2.064477868417066
 40
2.996561012498944
 40
3.931160327842623
 40
4.71322112251497
 40
5.493982177162867
 40
6.169698055806739
 40
6.8459744449114
 40
7.640940400707228
 40
8.435511701944092
 40
9.088505790408039
 40
9.740424956552042
 40
10.03737750701881
 40
10.33431535045578
 40
10.87925796612013
 40
11.42470343044149
 40
12.03668981404144
 40
12.64892124748532
 40
13.50021431478561
 40
14.35262206713929
 40
15.09351980366336
 40
15.83343204654932
 40
16.42977862086614
 40
17.02694535788142
 40
18.01137839279316
 40
18.99331888577527
 40
19.83263407402496
 40
20.67444722103495
 40
20.67444722103495
 40
20.67444722103495
 40
20.67444722103495
 10
339.9734346612222
 20
960.2414141633299
 30
0.0
 10
339.6292672983765
 20
960.2209001286708
 30
0.0
 10
338.9423452170326
 20
960.1799562597688
 30
0.0
 10
337.9496652136781
 20
960.0512167022293
 30
0.0
 10
337.0144685737714
 20
959.8005314838331
 30
0.0
 10
336.1916797504759
 20
959.4756949954617
 30
0.0
 10
335.4495128922795
 20
959.0960834330447
 30
0.0
 10
334.8214571347718
 20
958.6904340922245
 30
0.0
 10
334.2673532114032
 20
958.2430927101711
 30
0.0
 10
333.7603362824841
 20
957.7360249510118
 30
0.0
 10
333.2956309085571
 20
957.1374265776155
 30
0.0
 10
332.9289654926287
 20
956.4822165749481
 30
0.0
 10
332.683565190969
 20
955.8244926042471
 30
0.0
 10
332.5694202720872
 20
955.3007003946344
 30
0.0
 10
332.5262192167487
 20
954.8873963296157
 30
0.0
 10
332.5130802902477
 20
954.5077322314695
 30
0.0
 10
332.5430041741699
 20
954.0449229610792
 30
0.0
 10
332.6499347179505
 20
953.4861980944426
 30
0.0
 10
332.8363121134065
 20
952.9245717979255
 30
0.0
 10
333.1380740087341
 20
952.3000815485999
 30
0.0
 10
333.5739169207026
 20
951.6586249795498
 30
0.0
 10
334.1297369933122
 20
951.0590260431723
 30
0.0
 10
334.7273040711416
 20
950.5587606779445
 30
0.0
 10
335.3042093544187
 20
950.1735668518105
 30
0.0
 10
335.8707731789789
 20
949.8651336496945
 30
0.0
 10
336.5316960520612
 20
949.5636890401554
 30
0.0
 10
337.3363917112542
 20
949.271563759354
 30
0.0
 10
338.2493031755683
 20
949.0557252172125
 30
0.0
 10
339.1333919172118
 20
948.9623525320153
 30
0.0
 10
339.6931431717335
 20
948.9360551430362
 30
0.0
 10
339.9734346612222
 20
948.9228869111349
 30
0.0
 11
339.9734346612222
 21
960.2414141633299
 31
0.0
 11
338.9416897107469
 21
960.1678851273487
 31
0.0
 11
337.9217511376154
 21
960.0234393171572
 31
0.0
 11
337.0209609456378
 21
959.7839481533985
 31
0.0
 11
336.1511450980439
 21
959.4420471859892
 31
0.0
 11
335.4556263172888
 21
959.084454243972
 31
0.0
 11
334.8006732237404
 21
958.659455103142
 31
0.0
 11
334.2754861722767
 21
958.2342839498092
 31
0.0
 11
333.7980213471674
 21
957.7553506608808
 31
0.0
 11
333.3120850364039
 21
957.126195057905
 31
0.0
 11
332.9261494514172
 21
956.4316468040088
 31
0.0
 11
332.6983493889572
 21
955.8196758805883
 31
0.0
 11
332.5605105601219
 21
955.1824953281142
 31
0.0
 11
332.5296545194254
 21
954.8871502384627
 31
0.0
 11
332.5194089032844
 21
954.5903892062922
 31
0.0
 11
332.5542257117867
 21
954.0465599645142
 31
0.0
 11
332.656680866038
 21
953.5108233725998
 31
0.0
 11
332.8485461067829
 21
952.929690803296
 31
0.0
 11
333.1142785040742
 21
952.3781351659152
 31
0.0
 11
333.5903702202273
 21
951.6724181091255
 31
0.0
 11
334.1681998740956
 21
951.0457508390506
 31
0.0
 11
334.7355728027314
 21
950.5692873925642
 31
0.0
 11
335.3503507588116
 21
950.1575615227304
 31
0.0
 11
335.8736392297892
 21
949.8715573045074
 31
0.0
 11
336.4165292710657
 21
949.6228033801559
 31
0.0
 11
337.3428312375728
 21
949.2895271177689
 31
0.0
 11
338.2992058750842
 21
949.0669183028427
 31
0.0
 11
339.1329734882348
 21
948.9705774886062
 31
0.0
 11
339.9734346612222
 21
948.9228869111349
 31
0.0
  0
ARC
  5
23F
330
96
100
AcDbEntity
  8
1
  6
Continuous
 62
     7
100
AcDbCircle
 10
325.7167709548877
 20
960.8903892062925
 30
0.0
 40
0.1999999999999318
100
AcDbArc
 50
90.00000000004886
 51
139.9947991151405
  0
ARC
  5
240
330
96
100
AcDbEntity
  8
1
  6
Continuous
 62
     7
100
AcDbCircle
 10
325.7167709548877
 20
948.2903892062925
 30
0.0
 40
0.2000000000000989
100
AcDbArc
 50
-139.9947991151405
 51
-90.00000000004886
  0
ARC
  5
241
330
96
100
AcDbEntity
  8
1
  6
Continuous
 62
     7
100
AcDbCircle
 10
354.2300983675566
 20
960.8903892062925
 30
0.0
 40
0.2000000000000118
100
AcDbArc
 50
40.00520088488047
 51
89.99999999996743
  0
ARC
  5
242
330
96
100
AcDbEntity
  8
1
  6
Continuous
 62
     7
100
AcDbCircle
 10
354.2300983675566
 20
948.2903892062925
 30
0.0
 40
0.2000000000002729
100
AcDbArc
 50
-89.99999999993486
 51
-40.00520088488047
  0
ENDBLK
  5
98
330
96
100
AcDbEntity
  8
0
100
AcDbBlockEnd
  0
BLOCK
  5
9F
330
99
100
AcDbEntity
  8
0
100
AcDbBlockBegin
  2
U3-100F-5__25
 70
     0
 71
     0
 10
206.0911489846845
 20
536.9611301872471
 30
0.0
  3
U3-100F-5__25
  1

  0
INSERT
  5
9A
330
99
100
AcDbEntity
  8
0
100
AcDbBlockReference
  2
88-348__21
 10
215.1683911824153
 20
946.1009236110299
 30
0.0
  0
INSERT
  5
9B
330
99
100
AcDbEntity
  8
1
100
AcDbBlockReference
  2
35-6-12__22
 10
261.8734346612222
 20
971.4611301872453
 30
0.0
  0
INSERT
  5
9C
330
99
100
AcDbEntity
  8
0
100
AcDbBlockReference
  2
33-349A
 10
255.3654746709712
 20
925.5950753925549
 30
0.0
  0
INSERT
  5
9D
330
99
100
AcDbEntity
  8
1
100
AcDbBlockReference
  2
13-11B__23
 10
122.4988582412483
 20
1126.450571725642
 30
0.0
  0
INSERT
  5
9E
330
99
100
AcDbEntity
  8
1
100
AcDbBlockReference
  2
32-3__24
 10
323.223434661222
 20
964.650006884938
 30
0.0
  0
LINE
  5
243
330
99
100
AcDbEntity
  8
1
  6
PHANTOM
 62
     4
100
AcDbLine
 10
244.9734346612222
 20
1040.961130187247
 30
0.0
 11
244.9734346612221
 21
948.4611301872469
 31
0.0
  0
ENDBLK
  5
A0
330
99
100
AcDbEntity
  8
0
100
AcDbBlockEnd
  0
BLOCK
  5
A2
330
A1
100
AcDbEntity
  8
0
100
AcDbBlockBegin
  2
88-348__26
 70
     0
 71
     0
 10
374.7784781400291
 20
996.1009236110299
 30
0.0
  3
88-348__26
  1

  0
LINE
  5
244
330
A1
100
AcDbEntity
  8
1
  6
Continuous
 62
     7
100
AcDbLine
 10
315.973434661222
 20
1009.961130187247
 30
0.0
 11
324.973434661222
 21
961.9611301872469
 31
0.0
  0
LINE
  5
245
330
A1
100
AcDbEntity
  8
1
  6
Continuous
 62
     7
100
AcDbLine
 10
344.973434661222
 20
961.9611301872469
 30
0.0
 11
324.973434661222
 21
961.9611301872469
 31
0.0
  0
LINE
  5
246
330
A1
100
AcDbEntity
  8
1
  6
Continuous
 62
     7
100
AcDbLine
 10
344.973434661222
 20
1009.961130187247
 30
0.0
 11
315.973434661222
 21
1009.961130187247
 31
0.0
  0
ENDBLK
  5
A3
330
A1
100
AcDbEntity
  8
0
100
AcDbBlockEnd
  0
BLOCK
  5
A5
330
A4
100
AcDbEntity
  8
0
100
AcDbBlockBegin
  2
32-3__27
 70
     0
 71
     0
 10
266.7234346612222
 20
964.650006884938
 30
0.0
  3
32-3__27
  1

  0
LINE
  5
247
330
A4
100
AcDbEntity
  8
1
  6
Continuous
 62
     7
100
AcDbLine
 10
260.9734346612221
 20
961.1154424522043
 30
0.0
 11
239.2734346612221
 21
961.1154424522043
 31
0.0
  0
LINE
  5
248
330
A4
100
AcDbEntity
  8
1
  6
Continuous
 62
     7
100
AcDbLine
 10
235.7167709548876
 20
961.1154424522043
 30
0.0
 11
239.2734346612221
 21
961.1154424522043
 31
0.0
  0
LINE
  5
249
330
A4
100
AcDbEntity
  8
1
  6
Continuous
 62
     7
100
AcDbLine
 10
264.2300983675569
 20
948.1154424522043
 30
0.0
 11
235.7167709548876
 21
948.1154424522043
 31
0.0
  0
LINE
  5
24A
330
A4
100
AcDbEntity
  8
1
  6
Continuous
 62
     7
100
AcDbLine
 10
260.6734346612219
 20
961.1154424522043
 30
0.0
 11
264.2300983675569
 21
961.1154424522043
 31
0.0
  0
ARC
  5
24B
330
A4
100
AcDbEntity
  8
1
  6
Continuous
 62
     7
100
AcDbCircle
 10
243.2234346612222
 20
954.6154424522043
 30
0.0
 40
9.999999999999968
100
AcDbArc
 50
139.9947991151395
 51
-139.9947991151395
  0
ARC
  5
24C
330
A4
100
AcDbEntity
  8
1
  6
Continuous
 62
     7
100
AcDbCircle
 10
256.7234346612222
 20
954.6154424522043
 30
0.0
 40
9.999999999999968
100
AcDbArc
 50
-40.0052008848605
 51
40.0052008848605
  0
SPLINE
  5
24D
330
A4
100
AcDbEntity
  8
1
  6
Continuous
 62
     7
100
AcDbSpline
210
0.0
220
0.0
230
1.0
 70
    11
 71
     3
 72
    79
 73
    75
 74
    73
 42
0.0000000001
 43
0.0000000001
 44
0.00000001
 40
0.0
 40
0.0
 40
0.0
 40
0.0
 40
0.3271040011562287
 40
0.6542473312557982
 40
0.9935041481683467
 40
1.332838134272348
 40
1.693880156738277
 40
2.054986481469599
 40
2.443474110794301
 40
2.832004960817889
 40
3.249530216803939
 40
3.667083498054155
 40
4.111764059883038
 40
4.556462643452645
 40
5.023726661358883
 40
5.491001890989923
 40
5.974349180581586
 40
6.457702616096879
 40
6.949394833436775
 40
7.441089010505224
 40
7.932783187573674
 40
8.424475404913569
 40
8.90782884042874
 40
9.391176130020527
 40
9.858451359651582
 40
10.3257153775578
 40
10.77041396112731
 40
11.21509452295609
 40
11.6326478042063
 40
12.05017306019244
 40
12.43870391021612
 40
12.8271915395409
 40
13.18829786427208
 40
13.54933988673789
 40
13.88867387284194
 40
14.22793068975452
 40
14.55507401985404
 40
14.88217802101033
 40
15.20928202216651
 40
15.53642535226602
 40
15.87568216917861
 40
16.21501615528266
 40
16.57605817774853
 40
16.93716450247964
 40
17.32565213180426
 40
17.71418298182798
 40
18.13170823781409
 40
18.54926151906434
 40
18.99394208089312
 40
19.43864066446252
 40
19.90590468236897
 40
20.3731799119999
 40
20.85652720159156
 40
21.33988063710686
 40
21.83157285444664
 40
22.3232670315152
 40
22.81496120858365
 40
23.30665342592355
 40
23.79000686143872
 40
24.27335415103051
 40
24.74062938066169
 40
25.20789339856778
 40
25.65259198213741
 40
26.09727254396627
 40
26.51482582521648
 40
26.93235108120253
 40
27.32088193122609
 40
27.70936956055071
 40
28.07047588528198
 40
28.43151790774796
 40
28.77085189385191
 40
29.11010871076451
 40
29.437252040864
 40
29.76435604202018
 40
29.76435604202018
 40
29.76435604202018
 40
29.76435604202018
 10
262.9638157179885
 20
948.9641151744756
 30
0.0
 10
263.0729242655538
 20
948.9683826699572
 30
0.0
 10
263.2911544792153
 20
948.9769181740181
 30
0.0
 10
263.6167780019234
 20
949.044606565157
 30
0.0
 10
263.9351183964496
 20
949.1518942787989
 30
0.0
 10
264.2481459373782
 20
949.3025621353798
 30
0.0
 10
264.5478628750908
 20
949.4920085934934
 30
0.0
 10
264.8383083930174
 20
949.7225872422616
 30
0.0
 10
265.1109130008252
 20
949.9873121884366
 30
0.0
 10
265.3699950437608
 20
950.2903323683979
 30
0.0
 10
265.6078541354748
 20
950.6222687360446
 30
0.0
 10
265.8279414663779
 20
950.9881679107867
 30
0.0
 10
266.0242439481514
 20
951.377525418942
 30
0.0
 10
266.1989073159879
 20
951.7950159877639
 30
0.0
 10
266.3478671498003
 20
952.2303174210426
 30
0.0
 10
266.4720286068611
 20
952.6866564930571
 30
0.0
 10
266.5691364717043
 20
953.1549845117628
 30
0.0
 10
266.6392244693704
 20
953.6363166496373
 30
0.0
 10
266.6814523292221
 20
954.1236802299429
 30
0.0
 10
266.6955167401678
 20
954.6154424522051
 30
0.0
 10
266.6814523292222
 20
955.107204674463
 30
0.0
 10
266.6392244693703
 20
955.5945682547813
 30
0.0
 10
266.5691364717043
 20
956.0759003926105
 30
0.0
 10
266.4720286068611
 20
956.5442284114803
 30
0.0
 10
266.3478671498001
 20
957.0005674829044
 30
0.0
 10
266.198907315988
 20
957.4358689183332
 30
0.0
 10
266.0242439481515
 20
957.853359479503
 30
0.0
 10
265.8279414663778
 20
958.2427170153376
 30
0.0
 10
265.6078541354749
 20
958.6086160927953
 30
0.0
 10
265.3699950437609
 20
958.9405528103202
 30
0.0
 10
265.1109130008252
 20
959.2435717709516
 30
0.0
 10
264.8383083930175
 20
959.5083010918409
 30
0.0
 10
264.5478628750909
 20
959.7388645100646
 30
0.0
 10
264.2481459373781
 20
959.9283657885754
 30
0.0
 10
263.9351183964498
 20
960.0788407703477
 30
0.0
 10
263.6167780019234
 20
960.1868301782249
 30
0.0
 10
263.2911544792153
 20
960.2519887268318
 30
0.0
 10
262.9638157179885
 20
960.2741597872163
 30
0.0
 10
262.6364769567618
 20
960.2519887268321
 30
0.0
 10
262.3108534340537
 20
960.1868301782247
 30
0.0
 10
261.9925130395274
 20
960.0788407703477
 30
0.0
 10
261.6794854985989
 20
959.9283657885754
 30
0.0
 10
261.3797685608864
 20
959.7388645100641
 30
0.0
 10
261.0893230429597
 20
959.5083010918409
 30
0.0
 10
260.8167184351519
 20
959.2435717709518
 30
0.0
 10
260.5576363922165
 20
958.9405528103206
 30
0.0
 10
260.3197773005024
 20
958.6086160927946
 30
0.0
 10
260.0996899695994
 20
958.2427170153381
 30
0.0
 10
259.9033874878257
 20
957.8533594795028
 30
0.0
 10
259.7287241199893
 20
957.435868918333
 30
0.0
 10
259.5797642861771
 20
957.0005674829049
 30
0.0
 10
259.4556028291162
 20
956.5442284114797
 30
0.0
 10
259.358494964273
 20
956.0759003926108
 30
0.0
 10
259.288406966607
 20
955.5945682547813
 30
0.0
 10
259.2461791067551
 20
955.107204674463
 30
0.0
 10
259.2321146958095
 20
954.6154424522051
 30
0.0
 10
259.2461791067551
 20
954.1236802299429
 30
0.0
 10
259.288406966607
 20
953.6363166496371
 30
0.0
 10
259.358494964273
 20
953.1549845117629
 30
0.0
 10
259.4556028291162
 20
952.6866564930567
 30
0.0
 10
259.5797642861771
 20
952.2303174210429
 30
0.0
 10
259.7287241199892
 20
951.7950159877637
 30
0.0
 10
259.903387487826
 20
951.3775254189425
 30
0.0
 10
260.0996899695994
 20
950.9881679107866
 30
0.0
 10
260.3197773005023
 20
950.6222687360449
 30
0.0
 10
260.5576363922164
 20
950.2903323683977
 30
0.0
 10
260.816718435152
 20
949.9873121884365
 30
0.0
 10
261.0893230429598
 20
949.7225872422612
 30
0.0
 10
261.3797685608863
 20
949.4920085934936
 30
0.0
 10
261.6794854985989
 20
949.3025621353798
 30
0.0
 10
261.9925130395274
 20
949.1518942787989
 30
0.0
 10
262.3108534340537
 20
949.044606565157
 30
0.0
 10
262.6364769567618
 20
948.9769181740181
 30
0.0
 10
262.8547071704231
 20
948.9683826699574
 30
0.0
 10
262.9638157179885
 20
948.9641151744756
 30
0.0
 11
262.9638157179885
 21
948.9641151744756
 31
0.0
 11
263.2901917300132
 21
948.9859263263771
 31
0.0
 11
263.6110047125627
 21
949.0499715342878
 31
0.0
 11
263.9324767196575
 21
949.1583732707873
 31
0.0
 11
264.2385291970301
 21
949.3049319116765
 31
0.0
 11
264.5440822419124
 21
949.4972563218523
 31
0.0
 11
264.827322157473
 21
949.7212494645914
 31
0.0
 11
265.1065065783372
 21
949.9913951609944
 31
0.0
 11
265.359493417732
 21
950.2862745948536
 31
0.0
 11
265.603169270581
 21
950.6253165069006
 31
0.0
 11
265.8188732233556
 21
950.9828392997968
 31
0.0
 11
266.0194712018504
 21
951.3797035752011
 31
0.0
 11
266.1915035514075
 21
951.78977881334
 31
0.0
 11
266.343092057975
 21
952.2317704276344
 31
0.0
 11
266.4660622179298
 21
952.6825746866953
 31
0.0
 11
266.5643845559041
 21
953.1558159784386
 31
0.0
 11
266.6342068967735
 21
953.6340997690273
 31
0.0
 11
266.6767183646061
 21
954.1239507787184
 31
0.0
 11
266.6908285969575
 21
954.6154424522043
 31
0.0
 11
266.6767183646061
 21
955.1069341256903
 31
0.0
 11
266.6342068967735
 21
955.5967851353813
 31
0.0
 11
266.5643845559042
 21
956.07506892597
 31
0.0
 11
266.4660622179298
 21
956.5483102177134
 31
0.0
 11
266.3430920579749
 21
956.9991144767743
 31
0.0
 11
266.1915035514075
 21
957.4411060910686
 31
0.0
 11
266.0194712018504
 21
957.8511813292074
 31
0.0
 11
265.8188732233556
 21
958.2480456046117
 31
0.0
 11
265.603169270581
 21
958.6055683975078
 31
0.0
 11
265.359493417732
 21
958.944610309555
 31
0.0
 11
265.1065065783372
 21
959.2394897434142
 31
0.0
 11
264.827322157473
 21
959.5096354398173
 31
0.0
 11
264.5440822419124
 21
959.7336285825562
 31
0.0
 11
264.2385291970301
 21
959.9259529927318
 31
0.0
 11
263.9324767196575
 21
960.0725116336212
 31
0.0
 11
263.6110047125627
 21
960.1809133701207
 31
0.0
 11
263.2901917300133
 21
960.2449585780314
 31
0.0
 11
262.9638157179885
 21
960.266769729933
 31
0.0
 11
262.6374397059639
 21
960.2449585780314
 31
0.0
 11
262.3166267234144
 21
960.1809133701207
 31
0.0
 11
261.9951547163196
 21
960.0725116336212
 31
0.0
 11
261.689102238947
 21
959.9259529927318
 31
0.0
 11
261.3835491940648
 21
959.7336285825561
 31
0.0
 11
261.1003092785041
 21
959.5096354398173
 31
0.0
 11
260.82112485764
 21
959.2394897434143
 31
0.0
 11
260.5681380182453
 21
958.944610309555
 31
0.0
 11
260.3244621653963
 21
958.6055683975078
 31
0.0
 11
260.1087582126217
 21
958.2480456046117
 31
0.0
 11
259.9081602341269
 21
957.8511813292074
 31
0.0
 11
259.7361278845698
 21
957.4411060910687
 31
0.0
 11
259.5845393780023
 21
956.9991144767741
 31
0.0
 11
259.4615692180475
 21
956.5483102177134
 31
0.0
 11
259.3632468800732
 21
956.0750689259701
 31
0.0
 11
259.2934245392038
 21
955.5967851353813
 31
0.0
 11
259.2509130713712
 21
955.1069341256904
 31
0.0
 11
259.2368028390198
 21
954.6154424522043
 31
0.0
 11
259.2509130713712
 21
954.1239507787184
 31
0.0
 11
259.2934245392038
 21
953.6340997690273
 31
0.0
 11
259.3632468800731
 21
953.1558159784387
 31
0.0
 11
259.4615692180475
 21
952.6825746866953
 31
0.0
 11
259.5845393780024
 21
952.2317704276343
 31
0.0
 11
259.7361278845698
 21
951.78977881334
 31
0.0
 11
259.9081602341269
 21
951.3797035752011
 31
0.0
 11
260.1087582126217
 21
950.9828392997968
 31
0.0
 11
260.3244621653963
 21
950.6253165069006
 31
0.0
 11
260.5681380182453
 21
950.2862745948536
 31
0.0
 11
260.82112485764
 21
949.9913951609944
 31
0.0
 11
261.1003092785041
 21
949.7212494645914
 31
0.0
 11
261.3835491940647
 21
949.4972563218523
 31
0.0
 11
261.689102238947
 21
949.3049319116765
 31
0.0
 11
261.9951547163196
 21
949.1583732707873
 31
0.0
 11
262.3166267234144
 21
949.0499715342878
 31
0.0
 11
262.6374397059639
 21
948.9859263263772
 31
0.0
 11
262.9638157179885
 21
948.9641151744756
 31
0.0
  0
SPLINE
  5
24E
330
A4
100
AcDbEntity
  8
0
  6
Continuous
 62
     7
100
AcDbSpline
210
0.0
220
0.0
230
1.0
 70
     8
 71
     3
 72
    35
 73
    31
 74
    29
 42
0.0000000001
 43
0.0000000001
 44
0.00000001
 40
0.0
 40
0.0
 40
0.0
 40
0.0
 40
1.03436171717812
 40
2.064477868416998
 40
2.996561012498875
 40
3.931160327842433
 40
4.713221122514858
 40
5.493982177162646
 40
6.169698055806656
 40
6.845974444911237
 40
7.64094040070685
 40
8.435511701943742
 40
9.088505790407583
 40
9.740424956551808
 40
10.03737750701846
 40
10.33431535045532
 40
10.87925796611978
 40
11.42470343044127
 40
12.0366898140412
 40
12.64892124748493
 40
13.50021431478524
 40
14.35262206713892
 40
15.09351980366313
 40
15.83343204654912
 40
16.42977862086592
 40
17.02694535788125
 40
18.01137839279305
 40
18.99331888577508
 40
19.83263407402471
 40
20.67444722103459
 40
20.67444722103459
 40
20.67444722103459
 40
20.67444722103459
 10
249.9734346612221
 20
960.2664674092417
 30
0.0
 10
250.3176020240678
 20
960.2459533745825
 30
0.0
 10
251.0045241054117
 20
960.2050095056804
 30
0.0
 10
251.9972041087662
 20
960.0762699481406
 30
0.0
 10
252.9324007486727
 20
959.8255847297448
 30
0.0
 10
253.7551895719683
 20
959.5007482413732
 30
0.0
 10
254.4973564301644
 20
959.1211366789564
 30
0.0
 10
255.1254121876725
 20
958.7154873381359
 30
0.0
 10
255.6795161110409
 20
958.2681459560829
 30
0.0
 10
256.18653303996
 20
957.7610781969237
 30
0.0
 10
256.6512384138871
 20
957.1624798235274
 30
0.0
 10
257.0179038298153
 20
956.5072698208602
 30
0.0
 10
257.2633041314754
 20
955.8495458501589
 30
0.0
 10
257.3774490503568
 20
955.3257536405465
 30
0.0
 10
257.4206501056955
 20
954.9124495755277
 30
0.0
 10
257.4337890321965
 20
954.5327854773811
 30
0.0
 10
257.4038651482744
 20
954.0699762069911
 30
0.0
 10
257.2969346044935
 20
953.5112513403549
 30
0.0
 10
257.1105572090378
 20
952.9496250438373
 30
0.0
 10
256.8087953137102
 20
952.3251347945115
 30
0.0
 10
256.372952401742
 20
951.6836782254618
 30
0.0
 10
255.8171323291319
 20
951.0840792890842
 30
0.0
 10
255.2195652513029
 20
950.5838139238562
 30
0.0
 10
254.6426599680251
 20
950.1986200977228
 30
0.0
 10
254.0760961434653
 20
949.8901868956062
 30
0.0
 10
253.4151732703829
 20
949.5887422860671
 30
0.0
 10
252.6104776111899
 20
949.2966170052657
 30
0.0
 10
251.6975661468758
 20
949.0807784631245
 30
0.0
 10
250.8134774052324
 20
948.9874057779274
 30
0.0
 10
250.2537261507108
 20
948.9611083889481
 30
0.0
 10
249.9734346612221
 20
948.9479401570467
 30
0.0
 11
249.9734346612221
 21
960.2664674092417
 31
0.0
 11
251.0051796116974
 21
960.1929383732603
 31
0.0
 11
252.0251181848288
 21
960.0484925630689
 31
0.0
 11
252.9259083768064
 21
959.8090013993101
 31
0.0
 11
253.7957242244002
 21
959.4671004319009
 31
0.0
 11
254.4912430051553
 21
959.1095074898836
 31
0.0
 11
255.1461960987037
 21
958.6845083490538
 31
0.0
 11
255.6713831501675
 21
958.2593371957208
 31
0.0
 11
256.1488479752768
 21
957.7804039067926
 31
0.0
 11
256.6347842860403
 21
957.1512483038169
 31
0.0
 11
257.020719871027
 21
956.4567000499208
 31
0.0
 11
257.2485199334869
 21
955.8447291265004
 31
0.0
 11
257.3863587623223
 21
955.2075485740261
 31
0.0
 11
257.4172148030187
 21
954.9122034843747
 31
0.0
 11
257.4274604191598
 21
954.6154424522043
 31
0.0
 11
257.3926436106575
 21
954.0716132104262
 31
0.0
 11
257.2901884564061
 21
953.5358766185117
 31
0.0
 11
257.0983232156613
 21
952.9547440492079
 31
0.0
 11
256.8325908183701
 21
952.4031884118272
 31
0.0
 11
256.3564991022171
 21
951.6974713550374
 31
0.0
 11
255.7786694483487
 21
951.0708040849626
 31
0.0
 11
255.2112965197128
 21
950.5943406384761
 31
0.0
 11
254.5965185636325
 21
950.1826147686423
 31
0.0
 11
254.073230092655
 21
949.8966105504193
 31
0.0
 11
253.5303400513784
 21
949.6478566260678
 31
0.0
 11
252.6040380848713
 21
949.3145803636808
 31
0.0
 11
251.6476634473599
 21
949.0919715487547
 31
0.0
 11
250.8138958342094
 21
948.9956307345182
 31
0.0
 11
249.9734346612221
 21
948.9479401570467
 31
0.0
  0
SPLINE
  5
24F
330
A4
100
AcDbEntity
  8
1
  6
Continuous
 62
     7
100
AcDbSpline
210
0.0
220
0.0
230
1.0
 70
    11
 71
     3
 72
    79
 73
    75
 74
    73
 42
0.0000000001
 43
0.0000000001
 44
0.00000001
 40
0.0
 40
0.0
 40
0.0
 40
0.0
 40
0.3271040011562287
 40
0.6542473312557982
 40
0.9935041481683198
 40
1.332838134272321
 40
1.693880156738178
 40
2.0549864814695
 40
2.443474110794161
 40
2.832004960817749
 40
3.249530216803799
 40
3.667083498054015
 40
4.111764059882885
 40
4.556462643452492
 40
5.023726661358792
 40
5.491001890989758
 40
5.974349180581428
 40
6.457702616096717
 40
6.949394833436613
 40
7.441089010505062
 40
7.932783187573511
 40
8.424475404913409
 40
8.907828840428589
 40
9.391176130020364
 40
9.858451359651403
 40
10.32571537755764
 40
10.77041396112715
 40
11.21509452295591
 40
11.63264780420616
 40
12.05017306019227
 40
12.43870391021594
 40
12.82719153954068
 40
13.18829786427186
 40
13.5493398867376
 40
13.88867387284165
 40
14.2279306897542
 40
14.55507401985377
 40
14.88217802101001
 40
15.20928202216625
 40
15.5364253522657
 40
15.87568216917836
 40
16.21501615528254
 40
16.57605817774833
 40
16.93716450247942
 40
17.32565213180422
 40
17.7141829818279
 40
18.13170823781401
 40
18.54926151906421
 40
18.99394208089295
 40
19.43864066446237
 40
19.9059046823688
 40
20.37317991199976
 40
20.85652720159143
 40
21.33988063710671
 40
21.8315728544465
 40
22.32326703151506
 40
22.81496120858351
 40
23.30665342592341
 40
23.79000686143858
 40
24.27335415103036
 40
24.74062938066153
 40
25.20789339856764
 40
25.65259198213725
 40
26.09727254396612
 40
26.51482582521631
 40
26.93235108120234
 40
27.32088193122594
 40
27.70936956055065
 40
28.0704758852819
 40
28.43151790774781
 40
28.77085189385193
 40
29.11010871076455
 40
29.4372520408641
 40
29.76435604202023
 40
29.76435604202023
 40
29.76435604202023
 40
29.76435604202023
 10
236.9830536044555
 20
948.9641151744756
 30
0.0
 10
236.8739450568901
 20
948.9683826699572
 30
0.0
 10
236.6557148432287
 20
948.976918174018
 30
0.0
 10
236.3300913205207
 20
949.0446065651568
 30
0.0
 10
236.0117509259943
 20
949.1518942787989
 30
0.0
 10
235.6987233850659
 20
949.3025621353798
 30
0.0
 10
235.3990064473533
 20
949.4920085934933
 30
0.0
 10
235.1085609294267
 20
949.7225872422614
 30
0.0
 10
234.835956321619
 20
949.9873121884365
 30
0.0
 10
234.5768742786834
 20
950.2903323683979
 30
0.0
 10
234.3390151869692
 20
950.6222687360448
 30
0.0
 10
234.1189278560663
 20
950.9881679107866
 30
0.0
 10
233.9226253742928
 20
951.3775254189427
 30
0.0
 10
233.7479620064561
 20
951.7950159877635
 30
0.0
 10
233.5990021726442
 20
952.2303174210429
 30
0.0
 10
233.474840715583
 20
952.6866564930567
 30
0.0
 10
233.3777328507399
 20
953.1549845117633
 30
0.0
 10
233.3076448530739
 20
953.6363166496369
 30
0.0
 10
233.265416993222
 20
954.1236802299429
 30
0.0
 10
233.2513525822764
 20
954.6154424522051
 30
0.0
 10
233.265416993222
 20
955.1072046744625
 30
0.0
 10
233.3076448530739
 20
955.5945682547813
 30
0.0
 10
233.3777328507399
 20
956.0759003926105
 30
0.0
 10
233.4748407155831
 20
956.5442284114799
 30
0.0
 10
233.5990021726439
 20
957.0005674829043
 30
0.0
 10
233.7479620064563
 20
957.435868918333
 30
0.0
 10
233.9226253742928
 20
957.8533594795031
 30
0.0
 10
234.1189278560663
 20
958.242717015338
 30
0.0
 10
234.3390151869694
 20
958.6086160927946
 30
0.0
 10
234.5768742786834
 20
958.9405528103202
 30
0.0
 10
234.835956321619
 20
959.2435717709516
 30
0.0
 10
235.1085609294266
 20
959.5083010918406
 30
0.0
 10
235.3990064473533
 20
959.7388645100643
 30
0.0
 10
235.698723385066
 20
959.9283657885757
 30
0.0
 10
236.0117509259943
 20
960.0788407703474
 30
0.0
 10
236.3300913205207
 20
960.1868301782249
 30
0.0
 10
236.6557148432288
 20
960.2519887268318
 30
0.0
 10
236.9830536044555
 20
960.2741597872166
 30
0.0
 10
237.3103923656822
 20
960.2519887268315
 30
0.0
 10
237.6360158883904
 20
960.1868301782251
 30
0.0
 10
237.9543562829167
 20
960.0788407703476
 30
0.0
 10
238.2673838238452
 20
959.9283657885753
 30
0.0
 10
238.5671007615577
 20
959.7388645100642
 30
0.0
 10
238.8575462794845
 20
959.5083010918406
 30
0.0
 10
239.1301508872923
 20
959.2435717709515
 30
0.0
 10
239.3892329302279
 20
958.9405528103205
 30
0.0
 10
239.6270920219418
 20
958.6086160927945
 30
0.0
 10
239.8471793528448
 20
958.2427170153379
 30
0.0
 10
240.0434818346183
 20
957.853359479503
 30
0.0
 10
240.218145202455
 20
957.4358689183327
 30
0.0
 10
240.3671050362671
 20
957.0005674829051
 30
0.0
 10
240.491266493328
 20
956.5442284114799
 30
0.0
 10
240.5883743581713
 20
956.0759003926107
 30
0.0
 10
240.6584623558372
 20
955.5945682547814
 30
0.0
 10
240.7006902156891
 20
955.1072046744629
 30
0.0
 10
240.7147546266347
 20
954.6154424522049
 30
0.0
 10
240.7006902156892
 20
954.1236802299432
 30
0.0
 10
240.6584623558372
 20
953.6363166496371
 30
0.0
 10
240.5883743581713
 20
953.1549845117633
 30
0.0
 10
240.491266493328
 20
952.6866564930569
 30
0.0
 10
240.3671050362671
 20
952.2303174210425
 30
0.0
 10
240.2181452024548
 20
951.7950159877639
 30
0.0
 10
240.0434818346185
 20
951.3775254189426
 30
0.0
 10
239.8471793528448
 20
950.9881679107865
 30
0.0
 10
239.6270920219419
 20
950.6222687360448
 30
0.0
 10
239.3892329302278
 20
950.2903323683977
 30
0.0
 10
239.1301508872922
 20
949.9873121884366
 30
0.0
 10
238.8575462794844
 20
949.7225872422616
 30
0.0
 10
238.5671007615578
 20
949.4920085934934
 30
0.0
 10
238.2673838238453
 20
949.3025621353797
 30
0.0
 10
237.9543562829167
 20
949.1518942787985
 30
0.0
 10
237.6360158883903
 20
949.044606565157
 30
0.0
 10
237.3103923656821
 20
948.9769181740185
 30
0.0
 10
237.0921621520208
 20
948.9683826699575
 30
0.0
 10
236.9830536044555
 20
948.9641151744756
 30
0.0
 11
236.9830536044555
 21
948.9641151744756
 31
0.0
 11
236.6566775924308
 21
948.9859263263771
 31
0.0
 11
236.3358646098813
 21
949.0499715342878
 31
0.0
 11
236.0143926027866
 21
949.1583732707873
 31
0.0
 11
235.7083401254139
 21
949.3049319116765
 31
0.0
 11
235.4027870805318
 21
949.4972563218523
 31
0.0
 11
235.1195471649711
 21
949.7212494645914
 31
0.0
 11
234.840362744107
 21
949.9913951609944
 31
0.0
 11
234.5873759047122
 21
950.2862745948536
 31
0.0
 11
234.3437000518632
 21
950.6253165069006
 31
0.0
 11
234.1279960990886
 21
950.9828392997968
 31
0.0
 11
233.9273981205938
 21
951.3797035752011
 31
0.0
 11
233.7553657710367
 21
951.78977881334
 31
0.0
 11
233.6037772644694
 21
952.2317704276345
 31
0.0
 11
233.4808071045144
 21
952.6825746866953
 31
0.0
 11
233.3824847665401
 21
953.1558159784386
 31
0.0
 11
233.3126624256707
 21
953.6340997690273
 31
0.0
 11
233.2701509578381
 21
954.1239507787184
 31
0.0
 11
233.2560407254867
 21
954.6154424522043
 31
0.0
 11
233.2701509578381
 21
955.1069341256903
 31
0.0
 11
233.3126624256707
 21
955.5967851353813
 31
0.0
 11
233.3824847665401
 21
956.07506892597
 31
0.0
 11
233.4808071045144
 21
956.5483102177134
 31
0.0
 11
233.6037772644692
 21
956.9991144767743
 31
0.0
 11
233.7553657710367
 21
957.4411060910686
 31
0.0
 11
233.9273981205938
 21
957.8511813292074
 31
0.0
 11
234.1279960990886
 21
958.2480456046117
 31
0.0
 11
234.3437000518632
 21
958.6055683975078
 31
0.0
 11
234.5873759047122
 21
958.944610309555
 31
0.0
 11
234.840362744107
 21
959.2394897434142
 31
0.0
 11
235.1195471649711
 21
959.5096354398173
 31
0.0
 11
235.4027870805318
 21
959.7336285825562
 31
0.0
 11
235.7083401254139
 21
959.9259529927318
 31
0.0
 11
236.0143926027866
 21
960.0725116336212
 31
0.0
 11
236.3358646098813
 21
960.1809133701207
 31
0.0
 11
236.6566775924308
 21
960.2449585780314
 31
0.0
 11
236.9830536044555
 21
960.266769729933
 31
0.0
 11
237.3094296164802
 21
960.2449585780314
 31
0.0
 11
237.6302425990296
 21
960.1809133701207
 31
0.0
 11
237.9517146061245
 21
960.0725116336213
 31
0.0
 11
238.2577670834972
 21
959.9259529927318
 31
0.0
 11
238.5633201283794
 21
959.7336285825561
 31
0.0
 11
238.84656004394
 21
959.5096354398173
 31
0.0
 11
239.1257444648042
 21
959.2394897434142
 31
0.0
 11
239.378731304199
 21
958.944610309555
 31
0.0
 11
239.622407157048
 21
958.6055683975078
 31
0.0
 11
239.8381111098225
 21
958.2480456046117
 31
0.0
 11
240.0387090883173
 21
957.8511813292074
 31
0.0
 11
240.2107414378744
 21
957.4411060910687
 31
0.0
 11
240.3623299444418
 21
956.9991144767741
 31
0.0
 11
240.4853001043967
 21
956.5483102177134
 31
0.0
 11
240.5836224423711
 21
956.0750689259701
 31
0.0
 11
240.6534447832404
 21
955.5967851353813
 31
0.0
 11
240.695956251073
 21
955.1069341256904
 31
0.0
 11
240.7100664834244
 21
954.6154424522043
 31
0.0
 11
240.695956251073
 21
954.1239507787184
 31
0.0
 11
240.6534447832404
 21
953.6340997690273
 31
0.0
 11
240.5836224423711
 21
953.1558159784387
 31
0.0
 11
240.4853001043967
 21
952.6825746866953
 31
0.0
 11
240.3623299444418
 21
952.2317704276343
 31
0.0
 11
240.2107414378744
 21
951.78977881334
 31
0.0
 11
240.0387090883173
 21
951.3797035752011
 31
0.0
 11
239.8381111098225
 21
950.9828392997968
 31
0.0
 11
239.622407157048
 21
950.6253165069006
 31
0.0
 11
239.378731304199
 21
950.2862745948536
 31
0.0
 11
239.1257444648042
 21
949.9913951609944
 31
0.0
 11
238.84656004394
 21
949.7212494645914
 31
0.0
 11
238.5633201283794
 21
949.4972563218523
 31
0.0
 11
238.2577670834972
 21
949.3049319116765
 31
0.0
 11
237.9517146061245
 21
949.1583732707871
 31
0.0
 11
237.6302425990296
 21
949.0499715342878
 31
0.0
 11
237.3094296164801
 21
948.9859263263772
 31
0.0
 11
236.9830536044555
 21
948.9641151744756
 31
0.0
  0
SPLINE
  5
250
330
A4
100
AcDbEntity
  8
0
  6
Continuous
 62
     7
100
AcDbSpline
210
0.0
220
0.0
230
1.0
 70
     8
 71
     3
 72
    35
 73
    31
 74
    29
 42
0.0000000001
 43
0.0000000001
 44
0.00000001
 40
0.0
 40
0.0
 40
0.0
 40
0.0
 40
1.034361717178091
 40
2.06447786841697
 40
2.996561012498902
 40
3.931160327842486
 40
4.713221122514961
 40
5.493982177162797
 40
6.169698055806647
 40
6.845974444911328
 40
7.640940400706907
 40
8.435511701943785
 40
9.088505790407606
 40
9.740424956551836
 40
10.03737750701849
 40
10.33431535045534
 40
10.8792579661198
 40
11.42470343044127
 40
12.03668981404121
 40
12.648921247485
 40
13.50021431478538
 40
14.35262206713905
 40
15.09351980366301
 40
15.83343204654899
 40
16.42977862086578
 40
17.02694535788114
 40
18.01137839279294
 40
18.99331888577497
 40
19.83263407402465
 40
20.67444722103465
 40
20.67444722103465
 40
20.67444722103465
 40
20.67444722103465
 10
249.9734346612221
 20
960.2664674092417
 30
0.0
 10
249.6292672983764
 20
960.2459533745828
 30
0.0
 10
248.9423452170325
 20
960.2050095056804
 30
0.0
 10
247.949665213678
 20
960.0762699481406
 30
0.0
 10
247.0144685737715
 20
959.8255847297446
 30
0.0
 10
246.1916797504757
 20
959.500748241373
 30
0.0
 10
245.4495128922796
 20
959.1211366789567
 30
0.0
 10
244.8214571347716
 20
958.715487338136
 30
0.0
 10
244.2673532114031
 20
958.2681459560829
 30
0.0
 10
243.7603362824842
 20
957.7610781969239
 30
0.0
 10
243.295630908557
 20
957.1624798235275
 30
0.0
 10
242.9289654926289
 20
956.5072698208601
 30
0.0
 10
242.683565190969
 20
955.849545850159
 30
0.0
 10
242.5694202720872
 20
955.325753640547
 30
0.0
 10
242.5262192167489
 20
954.9124495755275
 30
0.0
 10
242.5130802902475
 20
954.532785477381
 30
0.0
 10
242.5430041741697
 20
954.0699762069912
 30
0.0
 10
242.6499347179505
 20
953.5112513403549
 30
0.0
 10
242.8363121134062
 20
952.9496250438372
 30
0.0
 10
243.138074008734
 20
952.3251347945118
 30
0.0
 10
243.5739169207023
 20
951.6836782254616
 30
0.0
 10
244.1297369933122
 20
951.084079289084
 30
0.0
 10
244.7273040711415
 20
950.5838139238564
 30
0.0
 10
245.3042093544188
 20
950.1986200977229
 30
0.0
 10
245.8707731789787
 20
949.8901868956062
 30
0.0
 10
246.5316960520611
 20
949.5887422860674
 30
0.0
 10
247.3363917112541
 20
949.2966170052657
 30
0.0
 10
248.2493031755682
 20
949.0807784631245
 30
0.0
 10
249.1333919172117
 20
948.9874057779274
 30
0.0
 10
249.6931431717333
 20
948.961108388948
 30
0.0
 10
249.9734346612221
 20
948.9479401570467
 30
0.0
 11
249.9734346612221
 21
960.2664674092417
 31
0.0
 11
248.9416897107468
 21
960.1929383732603
 31
0.0
 11
247.9217511376154
 21
960.0484925630689
 31
0.0
 11
247.0209609456377
 21
959.8090013993101
 31
0.0
 11
246.1511450980439
 21
959.4671004319009
 31
0.0
 11
245.4556263172887
 21
959.1095074898836
 31
0.0
 11
244.8006732237403
 21
958.6845083490538
 31
0.0
 11
244.2754861722767
 21
958.259337195721
 31
0.0
 11
243.7980213471673
 21
957.7804039067926
 31
0.0
 11
243.3120850364039
 21
957.1512483038169
 31
0.0
 11
242.9261494514172
 21
956.4567000499208
 31
0.0
 11
242.6983493889573
 21
955.8447291265004
 31
0.0
 11
242.5605105601219
 21
955.2075485740261
 31
0.0
 11
242.5296545194255
 21
954.9122034843747
 31
0.0
 11
242.5194089032844
 21
954.6154424522043
 31
0.0
 11
242.5542257117866
 21
954.0716132104262
 31
0.0
 11
242.6566808660379
 21
953.5358766185117
 31
0.0
 11
242.8485461067828
 21
952.9547440492079
 31
0.0
 11
243.1142785040741
 21
952.4031884118272
 31
0.0
 11
243.5903702202272
 21
951.6974713550374
 31
0.0
 11
244.1681998740956
 21
951.0708040849626
 31
0.0
 11
244.7355728027314
 21
950.5943406384763
 31
0.0
 11
245.3503507588115
 21
950.1826147686423
 31
0.0
 11
245.8736392297891
 21
949.8966105504194
 31
0.0
 11
246.4165292710656
 21
949.6478566260678
 31
0.0
 11
247.3428312375727
 21
949.3145803636808
 31
0.0
 11
248.2992058750841
 21
949.0919715487547
 31
0.0
 11
249.1329734882347
 21
948.9956307345182
 31
0.0
 11
249.9734346612221
 21
948.9479401570467
 31
0.0
  0
ARC
  5
251
330
A4
100
AcDbEntity
  8
1
  6
Continuous
 62
     7
100
AcDbCircle
 10
235.7167709548877
 20
960.9154424522042
 30
0.0
 40
0.2000000000001592
100
AcDbArc
 50
90.00000000002443
 51
139.9947991150946
  0
ARC
  5
252
330
A4
100
AcDbEntity
  8
1
  6
Continuous
 62
     7
100
AcDbCircle
 10
235.7167709548877
 20
948.3154424522044
 30
0.0
 40
0.2000000000000118
100
AcDbArc
 50
-139.9947991151195
 51
-90.00000000002443
  0
ARC
  5
253
330
A4
100
AcDbEntity
  8
1
  6
Continuous
 62
     7
100
AcDbCircle
 10
264.2300983675566
 20
960.9154424522042
 30
0.0
 40
0.200000000000172
100
AcDbArc
 50
40.00520088488448
 51
89.99999999991857
  0
ARC
  5
254
330
A4
100
AcDbEntity
  8
1
  6
Continuous
 62
     7
100
AcDbCircle
 10
264.2300983675566
 20
948.3154424522044
 30
0.0
 40
0.2000000000000455
100
AcDbArc
 50
-89.99999999991857
 51
-40.00520088485953
  0
ENDBLK
  5
A6
330
A4
100
AcDbEntity
  8
0
100
AcDbBlockEnd
  0
BLOCK
  5
A8
330
A7
100
AcDbEntity
  8
0
100
AcDbBlockBegin
  2
88-349A
 70
     0
 71
     0
 10
334.581394651473
 20
975.5950753925549
 30
0.0
  3
88-349A
  1

  0
LINE
  5
255
330
A7
100
AcDbEntity
  8
1
  6
Continuous
 62
     7
100
AcDbLine
 10
371.3748793504883
 20
998.4659588070584
 30
0.0
 11
366.6855686180583
 21
973.4563015674323
 31
0.0
  0
LINE
  5
256
330
A7
100
AcDbEntity
  8
1
  6
Continuous
 62
     7
100
AcDbLine
 10
373.7359346612223
 20
964.9611301872453
 30
0.0
 11
373.1734346612222
 21
961.9611301872453
 31
0.0
  0
LINE
  5
257
330
A7
100
AcDbEntity
  8
1
  6
Continuous
 62
     7
100
AcDbLine
 10
382.1734346612222
 20
1009.961130187245
 30
0.0
 11
381.6109346612222
 21
1006.961130187245
 31
0.0
  0
LINE
  5
258
330
A7
100
AcDbEntity
  8
1
  6
Continuous
 62
     7
100
AcDbLine
 10
344.9734346612221
 20
1009.961130187245
 30
0.0
 11
344.9734346612221
 21
961.9611301872453
 31
0.0
  0
LINE
  5
259
330
A7
100
AcDbEntity
  8
1
  6
Continuous
 62
     7
100
AcDbLine
 10
373.1734346612222
 20
961.9611301872453
 30
0.0
 11
344.9734346612221
 21
961.9611301872453
 31
0.0
  0
LINE
  5
25A
330
A7
100
AcDbEntity
  8
1
  6
Continuous
 62
     7
100
AcDbLine
 10
382.1734346612222
 20
1009.961130187245
 30
0.0
 11
344.9734346612221
 21
1009.961130187245
 31
0.0
  0
LINE
  5
25B
330
A7
100
AcDbEntity
  8
1
  6
Continuous
 62
     7
100
AcDbLine
 10
344.9734346612223
 20
539.9611301872471
 30
0.0
 11
344.9734346612223
 21
536.9611301872471
 31
0.0
  0
LINE
  5
25C
330
A7
100
AcDbEntity
  8
1
  6
Continuous
 62
     7
100
AcDbLine
 10
344.9734346612223
 20
594.9611301872471
 30
0.0
 11
344.9734346612223
 21
591.9611301872471
 31
0.0
  0
ARC
  5
25D
330
A7
100
AcDbEntity
  8
1
  6
Continuous
 62
     7
100
AcDbCircle
 10
381.6109346612242
 20
996.5466984362936
 30
0.0
 40
10.41443175095139
100
AcDbArc
 50
90.00000000001096
 51
169.3803447238348
  0
ARC
  5
25E
330
A7
100
AcDbEntity
  8
1
  6
Continuous
 62
     7
100
AcDbCircle
 10
373.7359346612223
 20
972.1343579343391
 30
0.0
 40
7.17322774709375
100
AcDbArc
 50
169.3803447238447
 51
-90.0
  0
ARC
  5
25F
330
A7
100
AcDbEntity
  8
1
  6
Continuous
 62
     7
100
AcDbCircle
 10
344.9734346612223
 20
578.9611301872471
 30
0.0
 40
42.0
100
AcDbArc
 50
-90.0
 51
-68.21321070173805
  0
ARC
  5
260
330
A7
100
AcDbEntity
  8
1
  6
Continuous
 62
     7
100
AcDbCircle
 10
344.9734346612223
 20
552.9611301872471
 30
0.0
 40
42.00000000000011
100
AcDbArc
 50
68.21321070173784
 51
90.0
  0
ENDBLK
  5
A9
330
A7
100
AcDbEntity
  8
0
100
AcDbBlockEnd
  0
BLOCK
  5
AB
330
AA
100
AcDbEntity
  8
0
100
AcDbBlockBegin
  2
13-11B__28
 70
     0
 71
     0
 10
467.4480110811961
 20
1126.450571725642
 30
0.0
  3
13-11B__28
  1

  0
LINE
  5
261
330
AA
100
AcDbEntity
  8
1
  6
Continuous
 62
     7
100
AcDbLine
 10
383.1486135565733
 20
1004.674762452975
 30
0.0
 11
374.8664041132926
 21
973.7651360117243
 31
0.0
  0
LINE
  5
262
330
AA
100
AcDbEntity
  8
1
  6
Continuous
 62
     7
100
AcDbLine
 10
334.4734346612221
 20
1013.461130187247
 30
0.0
 11
355.4734346612222
 21
1013.461130187247
 31
0.0
  0
LINE
  5
263
330
AA
100
AcDbEntity
  8
1
  6
Continuous
 62
     7
100
AcDbLine
 10
334.4734346612221
 20
1011.729079379678
 30
0.0
 11
334.473434661219
 21
1011.729079379698
 31
0.0
  0
LINE
  5
264
330
AA
100
AcDbEntity
  8
1
  6
Continuous
 62
     7
100
AcDbLine
 10
334.4734346612223
 20
1026.211130187247
 30
0.0
 11
335.7234346612221
 21
1027.461130187247
 31
0.0
  0
LINE
  5
265
330
AA
100
AcDbEntity
  8
1
  6
Continuous
 62
     2
100
AcDbLine
 10
335.4734346612222
 20
1013.461130187247
 30
0.0
 11
335.4734346612225
 21
1027.211130187247
 31
0.0
  0
LINE
  5
266
330
AA
100
AcDbEntity
  8
1
  6
Continuous
 62
     2
100
AcDbLine
 10
334.473434661219
 20
1011.729079379698
 30
0.0
 11
335.4734346612222
 21
1013.461130187247
 31
0.0
  0
LINE
  5
267
330
AA
100
AcDbEntity
  8
1
  6
Continuous
 62
     7
100
AcDbLine
 10
354.2234346612221
 20
1027.461130187247
 30
0.0
 11
355.4734346612222
 21
1026.211130187247
 31
0.0
  0
LINE
  5
268
330
AA
100
AcDbEntity
  8
1
  6
Continuous
 62
     2
100
AcDbLine
 10
354.4734346612221
 20
1027.211130187247
 30
0.0
 11
354.4734346612221
 21
1013.461130187247
 31
0.0
  0
LINE
  5
269
330
AA
100
AcDbEntity
  8
1
  6
Continuous
 62
     7
100
AcDbLine
 10
335.7234346612221
 20
1027.461130187247
 30
0.0
 11
354.2234346612221
 21
1027.461130187247
 31
0.0
  0
LINE
  5
26A
330
AA
100
AcDbEntity
  8
1
  6
Continuous
 62
     7
100
AcDbLine
 10
355.4734346612253
 20
1011.729079379698
 30
0.0
 11
355.4734346612222
 21
1011.729079379678
 31
0.0
  0
LINE
  5
26B
330
AA
100
AcDbEntity
  8
1
  6
Continuous
 62
     2
100
AcDbLine
 10
354.4734346612221
 20
1013.461130187247
 30
0.0
 11
355.4734346612222
 21
1011.729079379704
 31
0.0
  0
LINE
  5
26C
330
AA
100
AcDbEntity
  8
1
  6
Continuous
 62
     7
100
AcDbLine
 10
334.4734346612221
 20
1013.461130187247
 30
0.0
 11
334.4734346612223
 21
1026.211130187247
 31
0.0
  0
LINE
  5
26D
330
AA
100
AcDbEntity
  8
0
  6
Continuous
 62
     7
100
AcDbLine
 10
334.473434661219
 20
1011.729079379698
 30
0.0
 11
334.473434661219
 21
1011.729079379678
 31
0.0
  0
LINE
  5
26E
330
AA
100
AcDbEntity
  8
1
  6
Continuous
 62
     7
100
AcDbLine
 10
376.0911489846843
 20
974.4722427929111
 30
0.0
 11
383.8557203377599
 21
1003.450017581583
 31
0.0
  0
LINE
  5
26F
330
AA
100
AcDbEntity
  8
1
  6
Continuous
 62
     7
100
AcDbLine
 10
383.1486135565733
 20
1004.674762452975
 30
0.0
 11
377.6054515981269
 21
1006.160048223255
 31
0.0
  0
LINE
  5
270
330
AA
100
AcDbEntity
  8
1
  6
Continuous
 62
     7
100
AcDbLine
 10
374.8664041132926
 20
973.7651360117243
 30
0.0
 11
367.1320525611818
 21
975.837549264091
 31
0.0
  0
LINE
  5
271
330
AA
100
AcDbEntity
  8
1
  6
Continuous
 62
     7
100
AcDbLine
 10
374.8664041132926
 20
973.7651360117243
 30
0.0
 11
376.0911489846843
 21
974.4722427929111
 31
0.0
  0
LINE
  5
272
330
AA
100
AcDbEntity
  8
1
  6
Continuous
 62
     7
100
AcDbLine
 10
383.8557203377599
 20
1003.450017581583
 30
0.0
 11
383.1486135565733
 21
1004.674762452975
 31
0.0
  0
LINE
  5
273
330
AA
100
AcDbEntity
  8
0
  6
Continuous
 62
     7
100
AcDbLine
 10
355.473434661225
 20
1011.961130187247
 30
0.0
 11
355.4734346612222
 21
1011.729079379704
 31
0.0
  0
LINE
  5
274
330
AA
100
AcDbEntity
  8
1
  6
Continuous
 62
     7
100
AcDbLine
 10
355.4734346612222
 20
1011.729079379678
 30
0.0
 11
355.4734346612222
 21
1026.211130187247
 31
0.0
  0
LINE
  5
275
330
AA
100
AcDbEntity
  8
0
  6
Continuous
 62
     7
100
AcDbLine
 10
355.4734346612222
 20
1011.729079379678
 30
0.0
 11
355.4734346612253
 21
1011.729079379698
 31
0.0
  0
LINE
  5
276
330
AA
100
AcDbEntity
  8
1
  6
Continuous
 62
     7
100
AcDbLine
 10
334.473434661219
 20
1011.729079379678
 30
0.0
 11
334.473434661219
 21
1011.961130187247
 31
0.0
  0
LINE
  5
277
330
AA
100
AcDbEntity
  8
1
  6
Continuous
 62
     7
100
AcDbLine
 10
334.473434661219
 20
1011.729079379698
 30
0.0
 11
334.4734346612221
 21
1013.461130187247
 31
0.0
  0
LINE
  5
278
330
AA
100
AcDbEntity
  8
1
  6
Continuous
 62
     7
100
AcDbLine
 10
334.4734346612223
 20
1026.211130187247
 30
0.0
 11
355.4734346612222
 21
1026.211130187247
 31
0.0
  0
ARC
  5
279
330
AA
100
AcDbEntity
  8
1
  6
Continuous
 62
     7
100
AcDbCircle
 10
332.4734346612188
 20
1011.961130187247
 30
0.0
 40
2.0
100
AcDbArc
 50
-90.0
 51
0.0
  0
ARC
  5
27A
330
AA
100
AcDbEntity
  8
1
  6
Continuous
 62
     7
100
AcDbCircle
 10
357.4734346612248
 20
1011.961130187247
 30
0.0
 40
1.99999999999983
100
AcDbArc
 50
180.0
 51
-90.0
  0
ENDBLK
  5
AC
330
AA
100
AcDbEntity
  8
0
100
AcDbBlockEnd
  0
BLOCK
  5
AE
330
AD
100
AcDbEntity
  8
0
100
AcDbBlockBegin
  2
35-6-12__29
 70
     0
 71
     0
 10
328.0734346612222
 20
971.4611301872453
 30
0.0
  3
35-6-12__29
  1

  0
LINE
  5
27B
330
AD
100
AcDbEntity
  8
1
  6
Continuous
 62
     7
100
AcDbLine
 10
329.973434661222
 20
961.9611301872453
 30
0.0
 11
329.973434661222
 21
961.150006884938
 31
0.0
  0
LINE
  5
27C
330
AD
100
AcDbEntity
  8
1
  6
Continuous
 62
     7
100
AcDbLine
 10
349.973434661222
 20
961.150006884938
 30
0.0
 11
349.973434661222
 21
961.9611301872453
 31
0.0
  0
ENDBLK
  5
AF
330
AD
100
AcDbEntity
  8
0
100
AcDbBlockEnd
  0
BLOCK
  5
B6
330
B0
100
AcDbEntity
  8
0
100
AcDbBlockBegin
  2
U3-100F-5__30
 70
     0
 71
     0
 10
233.2234346612222
 20
536.9611301872471
 30
0.0
  3
U3-100F-5__30
  1

  0
INSERT
  5
B1
330
B0
100
AcDbEntity
  8
0
100
AcDbBlockReference
  2
88-348__26
 10
374.7784781400291
 20
996.1009236110299
 30
0.0
  0
INSERT
  5
B2
330
B0
100
AcDbEntity
  8
1
100
AcDbBlockReference
  2
32-3__27
 10
266.7234346612222
 20
964.650006884938
 30
0.0
  0
INSERT
  5
B3
330
B0
100
AcDbEntity
  8
0
100
AcDbBlockReference
  2
88-349A
 10
334.581394651473
 20
975.5950753925549
 30
0.0
  0
INSERT
  5
B4
330
B0
100
AcDbEntity
  8
1
100
AcDbBlockReference
  2
13-11B__28
 10
467.4480110811961
 20
1126.450571725642
 30
0.0
  0
INSERT
  5
B5
330
B0
100
AcDbEntity
  8
1
100
AcDbBlockReference
  2
35-6-12__29
 10
328.0734346612222
 20
971.4611301872453
 30
0.0
  0
LINE
  5
27D
330
B0
100
AcDbEntity
  8
1
  6
PHANTOM
 62
     4
100
AcDbLine
 10
344.973434661222
 20
1040.961130187247
 30
0.0
 11
344.973434661222
 21
948.4611301872455
 31
0.0
  0
ENDBLK
  5
B7
330
B0
100
AcDbEntity
  8
0
100
AcDbBlockEnd
  0
BLOCK
  5
398
330
391
100
AcDbEntity
  8
0
100
AcDbBlockBegin
  2
*D041
 70
     1
 71
     0
 10
0.0
 20
0.0
 30
0.0
  3
*D041
  1

  0
LINE
  5
392
330
391
100
AcDbEntity
  8
0
  6
Continuous
 62
     2
100
AcDbLine
 10
470.4996873291275
 20
565.9611301872474
 30
0.0
 11
470.4996873291275
 21
626.9606647065411
 31
0.0
  0
LINE
  5
393
330
391
100
AcDbEntity
  8
0
  6
Continuous
 62
     2
100
AcDbLine
 10
527.9996873291271
 20
626.9606647065411
 30
0.0
 11
465.9996873291275
 21
626.9606647065411
 31
0.0
  0
LINE
  5
394
330
391
100
AcDbEntity
  8
0
  6
Continuous
 62
     2
100
AcDbLine
 10
715.4996873291275
 20
565.9611301872474
 30
0.0
 11
465.9996873291275
 21
565.9611301872474
 31
0.0
  0
SOLID
  5
395
330
391
100
AcDbEntity
  8
0
 62
     2
100
AcDbTrace
 10
468.426160492126
 20
581.7111301872474
 30
0.0
 11
472.573214166129
 21
581.7111301872474
 31
0.0
 12
470.4996873291275
 22
565.9611301872474
 32
0.0
 13
470.4996873291275
 23
565.9611301872474
 33
0.0
  0
SOLID
  5
396
330
391
100
AcDbEntity
  8
0
 62
     2
100
AcDbTrace
 10
472.5732141661289
 20
611.2106647065411
 30
0.0
 11
468.426160492126
 21
611.2106647065411
 31
0.0
 12
470.4996873291275
 22
626.9606647065411
 32
0.0
 13
470.4996873291275
 23
626.9606647065411
 33
0.0
  0
MTEXT
  5
397
330
391
100
AcDbEntity
  8
0
 62
     7
100
AcDbMText
 10
465.9996873291275
 20
587.0111301872472
 30
0.0
 40
15.75
 41
0.0
 71
     7
 72
     1
  1
61
  7
CONVERTER_2
 11
0.0
 21
1.0
 31
0.0
 73
     1
 44
0.60024009603842
  0
ENDBLK
  5
399
330
391
100
AcDbEntity
  8
0
100
AcDbBlockEnd
  0
BLOCK
  5
3A5
330
39C
100
AcDbEntity
  8
0
100
AcDbBlockBegin
  2
*D142
 70
     1
 71
     0
 10
0.0
 20
0.0
 30
0.0
  3
*D142
  1

  0
LINE
  5
39D
330
39C
100
AcDbEntity
  8
0
  6
Continuous
 62
     2
100
AcDbLine
 10
506.4996873291275
 20
519.434151867368
 30
0.0
 11
506.4996873291275
 21
565.9611301872474
 31
0.0
  0
LINE
  5
39E
330
39C
100
AcDbEntity
  8
0
  6
Continuous
 62
     2
100
AcDbLine
 10
506.4996873291275
 20
565.9611301872474
 30
0.0
 11
506.4996873291275
 21
586.6611301872457
 31
0.0
  0
LINE
  5
39F
330
39C
100
AcDbEntity
  8
0
  6
Continuous
 62
     2
100
AcDbLine
 10
506.4996873291275
 20
586.6611301872457
 30
0.0
 11
506.4996873291275
 21
618.1611301872457
 31
0.0
  0
LINE
  5
3A0
330
39C
100
AcDbEntity
  8
0
  6
Continuous
 62
     2
100
AcDbLine
 10
546.9996873291277
 20
586.6611301872457
 30
0.0
 11
501.9996873291275
 21
586.6611301872457
 31
0.0
  0
LINE
  5
3A1
330
39C
100
AcDbEntity
  8
0
  6
Continuous
 62
     2
100
AcDbLine
 10
715.4996873291275
 20
565.9611301872474
 30
0.0
 11
501.9996873291275
 21
565.9611301872474
 31
0.0
  0
SOLID
  5
3A2
330
39C
100
AcDbEntity
  8
0
 62
     2
100
AcDbTrace
 10
508.5732141661289
 20
550.2111301872474
 30
0.0
 11
504.426160492126
 21
550.2111301872474
 31
0.0
 12
506.4996873291275
 22
565.9611301872474
 32
0.0
 13
506.4996873291275
 23
565.9611301872474
 33
0.0
  0
SOLID
  5
3A3
330
39C
100
AcDbEntity
  8
0
 62
     2
100
AcDbTrace
 10
504.426160492126
 20
602.4111301872457
 30
0.0
 11
508.573214166129
 21
602.4111301872457
 31
0.0
 12
506.4996873291275
 22
586.6611301872457
 32
0.0
 13
506.4996873291275
 23
586.6611301872457
 33
0.0
  0
MTEXT
  5
3A4
330
39C
100
AcDbEntity
  8
0
 62
     7
100
AcDbMText
 10
501.9996873291275
 20
519.434151867368
 30
0.0
 40
15.75
 41
0.0
 71
     7
 72
     1
  1
21
  7
CONVERTER_2
 11
0.0
 21
1.0
 31
0.0
 73
     1
 44
0.60024009603842
  0
ENDBLK
  5
3A6
330
39C
100
AcDbEntity
  8
0
100
AcDbBlockEnd
  0
BLOCK
  5
3B0
330
3A9
100
AcDbEntity
  8
0
100
AcDbBlockBegin
  2
*D243
 70
     1
 71
     0
 10
0.0
 20
0.0
 30
0.0
  3
*D243
  1

  0
LINE
  5
3AA
330
3A9
100
AcDbEntity
  8
0
  6
Continuous
 62
     2
100
AcDbLine
 10
559.4996873291275
 20
494.9611301872471
 30
0.0
 11
764.4996873291275
 21
494.9611301872471
 31
0.0
  0
LINE
  5
3AB
330
3A9
100
AcDbEntity
  8
0
  6
Continuous
 62
     2
100
AcDbLine
 10
764.4996873291275
 20
533.4611301872474
 30
0.0
 11
764.4996873291275
 21
490.4611301872471
 31
0.0
  0
LINE
  5
3AC
330
3A9
100
AcDbEntity
  8
0
  6
Continuous
 62
     2
100
AcDbLine
 10
559.4996873291275
 20
582.8005798290283
 30
0.0
 11
559.4996873291275
 21
490.4611301872471
 31
0.0
  0
SOLID
  5
3AD
330
3A9
100
AcDbEntity
  8
0
 62
     2
100
AcDbTrace
 10
575.2496873291275
 20
497.0346570242486
 30
0.0
 11
575.2496873291275
 21
492.8876033502456
 31
0.0
 12
559.4996873291275
 22
494.9611301872471
 32
0.0
 13
559.4996873291275
 23
494.9611301872471
 33
0.0
  0
SOLID
  5
3AE
330
3A9
100
AcDbEntity
  8
0
 62
     2
100
AcDbTrace
 10
748.7496873291275
 20
492.8876033502456
 30
0.0
 11
748.7496873291275
 21
497.0346570242486
 31
0.0
 12
764.4996873291275
 22
494.9611301872471
 32
0.0
 13
764.4996873291275
 23
494.9611301872471
 33
0.0
  0
MTEXT
  5
3AF
330
3A9
100
AcDbEntity
  8
0
 62
     7
100
AcDbMText
 10
643.0996873291275
 20
499.4611301872471
 30
0.0
 40
15.75
 41
0.0
 71
     7
 72
     1
  1
205
  7
CONVERTER_2
 11
0.9999999999970621
 21
2.424068405545307E-6
 31
0.0
 73
     1
 44
0.60024009603842
  0
ENDBLK
  5
3B1
330
3A9
100
AcDbEntity
  8
0
100
AcDbBlockEnd
  0
BLOCK
  5
3BB
330
3B4
100
AcDbEntity
  8
0
100
AcDbBlockBegin
  2
*D344
 70
     1
 71
     0
 10
0.0
 20
0.0
 30
0.0
  3
*D344
  1

  0
LINE
  5
3B5
330
3B4
100
AcDbEntity
  8
0
  6
Continuous
 62
     2
100
AcDbLine
 10
465.9734346612155
 20
919.4611301872474
 30
0.0
 11
465.9734346612155
 21
1009.961130187245
 31
0.0
  0
LINE
  5
3B6
330
3B4
100
AcDbEntity
  8
0
  6
Continuous
 62
     2
100
AcDbLine
 10
422.0734346612158
 20
919.4611301872474
 30
0.0
 11
470.4734346612155
 21
919.4611301872474
 31
0.0
  0
LINE
  5
3B7
330
3B4
100
AcDbEntity
  8
0
  6
Continuous
 62
     2
100
AcDbLine
 10
382.1734346612222
 20
1009.961130187245
 30
0.0
 11
470.4734346612155
 21
1009.961130187245
 31
0.0
  0
SOLID
  5
3B8
330
3B4
100
AcDbEntity
  8
0
 62
     2
100
AcDbTrace
 10
463.899907824214
 20
935.2111301872474
 30
0.0
 11
468.046961498217
 21
935.2111301872474
 31
0.0
 12
465.9734346612155
 22
919.4611301872474
 32
0.0
 13
465.9734346612155
 23
919.4611301872474
 33
0.0
  0
SOLID
  5
3B9
330
3B4
100
AcDbEntity
  8
0
 62
     2
100
AcDbTrace
 10
468.0469614982169
 20
994.211130187245
 30
0.0
 11
463.899907824214
 21
994.211130187245
 31
0.0
 12
465.9734346612155
 22
1009.961130187245
 32
0.0
 13
465.9734346612155
 23
1009.961130187245
 33
0.0
  0
MTEXT
  5
3BA
330
3B4
100
AcDbEntity
  8
0
 62
     7
100
AcDbMText
 10
461.4734346612155
 20
922.194880187246
 30
0.0
 40
15.75
 41
0.0
 71
     7
 72
     1
  1
\C7;最小\C7;91
  7
CONVERTER_1
 11
0.0
 21
1.0
 31
0.0
 73
     1
 44
0.60024009603842
  0
ENDBLK
  5
3BC
330
3B4
100
AcDbEntity
  8
0
100
AcDbBlockEnd
  0
BLOCK
  5
3C6
330
3BF
100
AcDbEntity
  8
0
100
AcDbBlockBegin
  2
*D445
 70
     1
 71
     0
 10
0.0
 20
0.0
 30
0.0
  3
*D445
  1

  0
LINE
  5
3C0
330
3BF
100
AcDbEntity
  8
0
  6
Continuous
 62
     2
100
AcDbLine
 10
249.9734346612222
 20
1072.461130187247
 30
0.0
 11
339.9734346612221
 21
1072.461130187247
 31
0.0
  0
LINE
  5
3C1
330
3BF
100
AcDbEntity
  8
0
  6
Continuous
 62
     2
100
AcDbLine
 10
249.9734346612222
 20
968.8949448746282
 30
0.0
 11
249.9734346612222
 21
1076.961130187247
 31
0.0
  0
LINE
  5
3C2
330
3BF
100
AcDbEntity
  8
0
  6
Continuous
 62
     2
100
AcDbLine
 10
339.9734346612221
 20
968.8949448746282
 30
0.0
 11
339.9734346612221
 21
1076.961130187247
 31
0.0
  0
SOLID
  5
3C3
330
3BF
100
AcDbEntity
  8
0
 62
     2
100
AcDbTrace
 10
265.7234346612222
 20
1074.534657024248
 30
0.0
 11
265.7234346612222
 21
1070.387603350245
 31
0.0
 12
249.9734346612222
 22
1072.461130187247
 32
0.0
 13
249.9734346612222
 23
1072.461130187247
 33
0.0
  0
SOLID
  5
3C4
330
3BF
100
AcDbEntity
  8
0
 62
     2
100
AcDbTrace
 10
324.2234346612221
 20
1070.387603350245
 30
0.0
 11
324.2234346612221
 21
1074.534657024248
 31
0.0
 12
339.9734346612221
 22
1072.461130187247
 32
0.0
 13
339.9734346612221
 23
1072.461130187247
 33
0.0
  0
MTEXT
  5
3C5
330
3BF
100
AcDbEntity
  8
0
 62
     7
100
AcDbMText
 10
283.1609346612221
 20
1076.961130187247
 30
0.0
 40
15.75
 41
0.0
 71
     7
 72
     1
  1
90
  7
CONVERTER_2
 11
0.9999999999970621
 21
2.424068405545307E-6
 31
0.0
 73
     1
 44
0.60024009603842
  0
ENDBLK
  5
3C7
330
3BF
100
AcDbEntity
  8
0
100
AcDbBlockEnd
  0
BLOCK
  5
3D1
330
3CA
100
AcDbEntity
  8
0
100
AcDbBlockBegin
  2
*D546
 70
     1
 71
     0
 10
0.0
 20
0.0
 30
0.0
  3
*D546
  1

  0
LINE
  5
3CB
330
3CA
100
AcDbEntity
  8
1
  6
Continuous
 62
     2
100
AcDbLine
 10
244.9734346612222
 20
1108.461130187247
 30
0.0
 11
344.9734346612221
 21
1108.461130187247
 31
0.0
  0
LINE
  5
3CC
330
3CA
100
AcDbEntity
  8
1
  6
Continuous
 62
     2
100
AcDbLine
 10
244.9734346612222
 20
1033.461130187246
 30
0.0
 11
244.9734346612222
 21
1112.961130187247
 31
0.0
  0
LINE
  5
3CD
330
3CA
100
AcDbEntity
  8
1
  6
Continuous
 62
     2
100
AcDbLine
 10
344.9734346612221
 20
1030.894944874628
 30
0.0
 11
344.9734346612221
 21
1112.961130187247
 31
0.0
  0
SOLID
  5
3CE
330
3CA
100
AcDbEntity
  8
1
 62
     2
100
AcDbTrace
 10
260.7234346612222
 20
1110.534657024248
 30
0.0
 11
260.7234346612222
 21
1106.387603350245
 31
0.0
 12
244.9734346612222
 22
1108.461130187247
 32
0.0
 13
244.9734346612222
 23
1108.461130187247
 33
0.0
  0
SOLID
  5
3CF
330
3CA
100
AcDbEntity
  8
1
 62
     2
100
AcDbTrace
 10
329.2234346612221
 20
1106.387603350245
 30
0.0
 11
329.2234346612221
 21
1110.534657024248
 31
0.0
 12
344.9734346612221
 22
1108.461130187247
 32
0.0
 13
344.9734346612221
 23
1108.461130187247
 33
0.0
  0
MTEXT
  5
3D0
330
3CA
100
AcDbEntity
  8
1
 62
     7
100
AcDbMText
 10
245.3696846613738
 20
1112.961004959873
 30
0.0
 40
15.75
 41
0.0
 71
     7
 72
     1
  1
\C7;最大\C7;100
  7
CONVERTER_1
 11
0.9999999999970621
 21
2.424068405545307E-6
 31
0.0
 73
     1
 44
0.60024009603842
  0
ENDBLK
  5
3D2
330
3CA
100
AcDbEntity
  8
0
100
AcDbBlockEnd
  0
BLOCK
  5
3DC
330
3D5
100
AcDbEntity
  8
0
100
AcDbBlockBegin
  2
*D647
 70
     1
 71
     0
 10
0.0
 20
0.0
 30
0.0
  3
*D647
  1

  0
LINE
  5
3D6
330
3D5
100
AcDbEntity
  8
1
  6
Continuous
 62
     2
100
AcDbLine
 10
526.9996873291271
 20
671.9611301872474
 30
0.0
 11
803.9996873291278
 21
671.9611301872474
 31
0.0
  0
LINE
  5
3D7
330
3D5
100
AcDbEntity
  8
1
  6
Continuous
 62
     2
100
AcDbLine
 10
803.9996873291278
 20
625.960664706541
 30
0.0
 11
803.9996873291278
 21
676.4611301872474
 31
0.0
  0
LINE
  5
3D8
330
3D5
100
AcDbEntity
  8
1
  6
Continuous
 62
     2
100
AcDbLine
 10
526.9996873291271
 20
625.9606647065411
 30
0.0
 11
526.9996873291271
 21
676.4611301872474
 31
0.0
  0
SOLID
  5
3D9
330
3D5
100
AcDbEntity
  8
1
 62
     2
100
AcDbTrace
 10
542.7496873291271
 20
674.0346570242489
 30
0.0
 11
542.7496873291271
 21
669.8876033502459
 31
0.0
 12
526.9996873291271
 22
671.9611301872474
 32
0.0
 13
526.9996873291271
 23
671.9611301872474
 33
0.0
  0
SOLID
  5
3DA
330
3D5
100
AcDbEntity
  8
1
 62
     2
100
AcDbTrace
 10
788.2496873291278
 20
669.8876033502459
 30
0.0
 11
788.2496873291278
 21
674.0346570242489
 31
0.0
 12
803.9996873291278
 22
671.9611301872474
 32
0.0
 13
803.9996873291278
 23
671.9611301872474
 33
0.0
  0
MTEXT
  5
3DB
330
3D5
100
AcDbEntity
  8
1
 62
     7
100
AcDbMText
 10
646.5996873291275
 20
676.4611301872474
 30
0.0
 40
15.75
 41
0.0
 71
     7
 72
     1
  1
277
  7
CONVERTER_2
 11
0.9999999999970621
 21
2.424068405545307E-6
 31
0.0
 73
     1
 44
0.60024009603842
  0
ENDBLK
  5
3DD
330
3D5
100
AcDbEntity
  8
0
100
AcDbBlockEnd
  0
ENDSEC
  0
SECTION
  2
ENTITIES
  0
INSERT
  5
B8
330
1F
100
AcDbEntity
  8
1
100
AcDbBlockReference
  2
34-125B__1
 10
444.9734346612222
 20
766.0611301872473
 30
0.0
  0
INSERT
  5
B9
330
1F
100
AcDbEntity
  8
0
100
AcDbBlockReference
  2
88-359__2
 10
718.2207307308432
 20
1232.655911094588
 30
0.0
  0
INSERT
  5
BA
330
1F
100
AcDbEntity
  8
1
100
AcDbBlockReference
  2
37-264__3
 10
222.4734346612225
 20
690.9611301872473
 30
0.0
  0
INSERT
  5
BB
330
1F
100
AcDbEntity
  8
1
100
AcDbBlockReference
  2
37-218
 10
580.9734346612232
 20
971.4611301872474
 30
0.0
  0
INSERT
  5
BC
330
1F
100
AcDbEntity
  8
0
100
AcDbBlockReference
  2
37-221__4
 10
653.6222366229899
 20
735.6347458499131
 30
0.0
  0
INSERT
  5
BD
330
1F
100
AcDbEntity
  8
0
100
AcDbBlockReference
  2
37-221__5
 10
-63.67536730054565
 20
735.6347458499131
 30
0.0
  0
INSERT
  5
BE
330
1F
100
AcDbEntity
  8
0
100
AcDbBlockReference
  2
37-222
 10
351.7554213385959
 20
124.810089217132
 30
0.0
  0
INSERT
  5
BF
330
1F
100
AcDbEntity
  8
1
100
AcDbBlockReference
  2
37-264__6
 10
367.4734346612217
 20
690.9611301872473
 30
0.0
  0
INSERT
  5
C0
330
1F
100
AcDbEntity
  8
1
100
AcDbBlockReference
  2
31-72-M1__7
 10
692.0131279172676
 20
1297.435014104784
 30
0.0
  0
INSERT
  5
C1
330
1F
100
AcDbEntity
  8
1
100
AcDbBlockReference
  2
104-4__8
 10
184.9734346612283
 20
609.5611301872472
 30
0.0
  0
INSERT
  5
C2
330
1F
100
AcDbEntity
  8
1
100
AcDbBlockReference
  2
37-225A__9
 10
184.9734346612283
 20
568.5611301872472
 30
0.0
  0
INSERT
  5
C3
330
1F
100
AcDbEntity
  8
1
100
AcDbBlockReference
  2
34-125B__10
 10
184.9734346612283
 20
766.0611301872473
 30
0.0
  0
INSERT
  5
C4
330
1F
100
AcDbEntity
  8
1
100
AcDbBlockReference
  2
37-225A__11
 10
404.9734346612222
 20
818.5611301872473
 30
0.0
  0
INSERT
  5
C5
330
1F
100
AcDbEntity
  8
1
100
AcDbBlockReference
  2
104-4__12
 10
404.9734346612222
 20
859.5611301872473
 30
0.0
  0
INSERT
  5
C6
330
1F
100
AcDbEntity
  8
0
100
AcDbBlockReference
  2
30-184A
 10
794.0455852534666
 20
721.8177618326193
 30
0.0
  0
INSERT
  5
C7
330
1F
100
AcDbEntity
  8
0
100
AcDbBlockReference
  2
37-220
 10
849.8207796905996
 20
714.2624872404992
 30
0.0
  0
INSERT
  5
C8
330
1F
100
AcDbEntity
  8
1
100
AcDbBlockReference
  2
104-1X
 10
682.7973272300214
 20
651.5
 30
0.0
  0
INSERT
  5
C9
330
1F
100
AcDbEntity
  8
1
100
AcDbBlockReference
  2
104-2__13
 10
380.4734346612218
 20
855.4611301872474
 30
0.0
  0
INSERT
  5
CA
330
1F
100
AcDbEntity
  8
1
100
AcDbBlockReference
  2
33-178A-M11__14
 10
381.0634329347453
 20
1382.336838038281
 30
0.0
  0
INSERT
  5
CB
330
1F
100
AcDbEntity
  8
1
100
AcDbBlockReference
  2
33-178A-M11__15
 10
208.8834363876989
 20
1382.336838038281
 30
0.0
  0
INSERT
  5
CC
330
1F
100
AcDbEntity
  8
1
100
AcDbBlockReference
  2
104-2__16
 10
209.4734346612225
 20
855.4611301872474
 30
0.0
  0
INSERT
  5
CD
330
1F
100
AcDbEntity
  8
1
100
AcDbBlockReference
  2
31-72-M1__17
 10
-103.9662585948233
 20
1297.435014104784
 30
0.0
  0
INSERT
  5
CE
330
1F
100
AcDbEntity
  8
0
100
AcDbBlockReference
  2
34-140__18
 10
474.7920640721264
 20
1042.852631578947
 30
0.0
  0
INSERT
  5
CF
330
1F
100
AcDbEntity
  8
0
100
AcDbBlockReference
  2
34-140__19
 10
685.5868009142318
 20
1089.349481863642
 30
0.0
  0
INSERT
  5
D0
330
1F
100
AcDbEntity
  8
0
100
AcDbBlockReference
  2
88-359__20
 10
292.0829440570492
 20
912.0049161531127
 30
0.0
  0
INSERT
  5
D1
330
1F
100
AcDbEntity
  8
0
100
AcDbBlockReference
  2
37-222-C2
 10
238.1914479838483
 20
174.810089217132
 30
0.0
  0
INSERT
  5
D2
330
1F
100
AcDbEntity
  8
1
100
AcDbBlockReference
  2
_J__A4
 10
0.0
 20
0.0
 30
0.0
 41
4.5
 42
4.5
 43
4.5
  0
INSERT
  5
D3
330
1F
100
AcDbEntity
  8
1
100
AcDbBlockReference
  2
104-13B
 10
883.2782306708689
 20
1693.427747904806
 30
0.0
  0
INSERT
  5
D4
330
1F
100
AcDbEntity
  8
1
100
AcDbBlockReference
  2
U3-100F-5__25
 10
206.0911489846845
 20
536.9611301872471
 30
0.0
  0
INSERT
  5
D5
330
1F
100
AcDbEntity
  8
1
100
AcDbBlockReference
  2
U3-100F-5__30
 10
233.2234346612222
 20
536.9611301872471
 30
0.0
  0
LINE
  5
27E
330
1F
100
AcDbEntity
  8
1
  6
Continuous
 62
     2
100
AcDbLine
 10
611.4953137886121
 20
1135.646955628808
 30
0.0
 11
796.495313788613
 21
1135.64695562881
 31
0.0
  0
LINE
  5
27F
330
1F
100
AcDbEntity
  8
1
  6
Continuous
 62
     2
100
AcDbLine
 10
796.4953137886121
 20
1177.646955628808
 30
0.0
 11
611.4953137886121
 21
1177.646955628808
 31
0.0
  0
LINE
  5
280
330
1F
100
AcDbEntity
  8
1
  6
Continuous
 62
     2
100
AcDbLine
 10
796.4953137886121
 20
1093.646955628808
 30
0.0
 11
796.4953137886121
 21
1219.646955628806
 31
0.0
  0
LINE
  5
281
330
1F
100
AcDbEntity
  8
1
  6
Continuous
 62
     7
100
AcDbLine
 10
611.4953137886121
 20
1093.646955628808
 30
0.0
 11
796.4953137886141
 21
1093.646955628808
 31
0.0
  0
LINE
  5
282
330
1F
100
AcDbEntity
  8
1
  6
Continuous
 62
     7
100
AcDbLine
 10
611.4953137886121
 20
1219.646955628806
 30
0.0
 11
611.4953137886121
 21
1093.646955628808
 31
0.0
  0
LINE
  5
283
330
1F
100
AcDbEntity
  8
1
  6
Continuous
 62
     2
100
AcDbLine
 10
787.3195889838578
 20
550.9613372716142
 30
0.0
 11
772.8195889838579
 21
550.9613372716142
 31
0.0
  0
LINE
  5
284
330
1F
100
AcDbEntity
  8
1
  6
Continuous
 62
     2
100
AcDbLine
 10
772.8195889838579
 20
542.4613372716142
 30
0.0
 11
772.8195889838579
 21
550.9613372716142
 31
0.0
  0
LINE
  5
285
330
1F
100
AcDbEntity
  8
1
  6
Continuous
 62
     2
100
AcDbLine
 10
787.3195889838578
 20
542.4613372716142
 30
0.0
 11
787.3195889838578
 21
550.9613372716142
 31
0.0
  0
LINE
  5
286
330
1F
100
AcDbEntity
  8
1
  6
Continuous
 62
     2
100
AcDbLine
 10
787.3195889838578
 20
542.4613372716142
 30
0.0
 11
772.8195889838579
 21
542.4613372716142
 31
0.0
  0
LINE
  5
287
330
1F
100
AcDbEntity
  8
1
  6
DASH_CENTER
 62
     2
100
AcDbLine
 10
353.9734346612221
 20
565.9611301872471
 30
0.0
 11
158.4734346612284
 21
565.9611301872471
 31
0.0
  0
LINE
  5
288
330
1F
100
AcDbEntity
  8
1
  6
Continuous
 62
     7
100
AcDbLine
 10
861.0647866323111
 20
576.4611301872474
 30
0.0
 11
866.9796873291277
 21
576.4611301872474
 31
0.0
  0
LINE
  5
289
330
1F
100
AcDbEntity
  8
1
  6
Continuous
 62
     2
100
AcDbLine
 10
679.3317399161069
 20
572.8244439857976
 30
0.0
 11
709.4833978960216
 21
572.8244439857976
 31
0.0
  0
LINE
  5
28A
330
1F
100
AcDbEntity
  8
0
  6
Continuous
 62
     7
100
AcDbLine
 10
769.4996873291274
 20
607.9606647065407
 30
0.0
 11
773.7926954535183
 21
607.9606647065407
 31
0.0
  0
LINE
  5
28B
330
1F
100
AcDbEntity
  8
0
  6
Continuous
 62
     7
100
AcDbLine
 10
755.2066792047366
 20
607.9606647065408
 30
0.0
 11
759.4996873291274
 21
607.9606647065408
 31
0.0
  0
LINE
  5
28C
330
1F
100
AcDbEntity
  8
1
  6
Continuous
 62
     7
100
AcDbLine
 10
546.9996873291277
 20
586.6611301872457
 30
0.0
 11
571.9996873291264
 21
586.6611301872457
 31
0.0
  0
LINE
  5
28D
330
1F
100
AcDbEntity
  8
1
  6
Continuous
 62
     7
100
AcDbLine
 10
546.4996873291275
 20
591.9611301872461
 30
0.0
 11
546.4996873291277
 21
587.1611301872456
 31
0.0
  0
LINE
  5
28E
330
1F
100
AcDbEntity
  8
0
  6
Continuous
 62
     7
100
AcDbLine
 10
550.2066792047366
 20
607.9606647065408
 30
0.0
 11
568.7926954535184
 21
607.9606647065408
 31
0.0
  0
LINE
  5
28F
330
1F
100
AcDbEntity
  8
1
  6
PHANTOM
 62
     4
100
AcDbLine
 10
158.4410790690629
 20
658.2240586317935
 30
0.0
 11
158.4410790690629
 21
667.5840586317931
 31
0.0
  0
LINE
  5
290
330
1F
100
AcDbEntity
  8
1
  6
PHANTOM
 62
     4
100
AcDbLine
 10
195.1322790690632
 20
658.2240586317935
 30
0.0
 11
195.1322790690632
 21
648.8640586317938
 31
0.0
  0
LINE
  5
291
102
{ACAD_REACTORS
330
3E0
330
3E0
102
}
330
1F
100
AcDbEntity
  8
1
  6
Continuous
 62
     7
100
AcDbLine
 10
195.1322790690632
 20
658.2240586317935
 30
0.0
 11
195.1322790690632
 21
658.9440586317928
 31
0.0
  0
LINE
  5
292
330
1F
100
AcDbEntity
  8
1
  6
PHANTOM
 62
     4
100
AcDbLine
 10
158.4410790690629
 20
658.2240586317935
 30
0.0
 11
195.1322790690632
 21
658.2240586317935
 31
0.0
  0
LINE
  5
293
330
1F
100
AcDbEntity
  8
1
  6
PHANTOM
 62
     4
100
AcDbLine
 10
176.786679069063
 20
648.8640586317938
 30
0.0
 11
158.4410790690629
 21
648.8640586317938
 31
0.0
  0
LINE
  5
294
330
1F
100
AcDbEntity
  8
1
  6
PHANTOM
 62
     4
100
AcDbLine
 10
176.7866790690629
 20
667.5840586317931
 30
0.0
 11
195.1322790690632
 21
667.5840586317931
 31
0.0
  0
LINE
  5
295
102
{ACAD_REACTORS
330
3E1
330
3E1
102
}
330
1F
100
AcDbEntity
  8
1
  6
Continuous
 62
     7
100
AcDbLine
 10
176.786679069063
 20
648.8640586317938
 30
0.0
 11
171.4010790690634
 21
648.8640586317938
 31
0.0
  0
LINE
  5
296
102
{ACAD_REACTORS
330
3E2
330
3E2
102
}
330
1F
100
AcDbEntity
  8
1
  6
Continuous
 62
     7
100
AcDbLine
 10
176.7866790690629
 20
667.5840586317931
 30
0.0
 11
189.4874790690628
 21
667.5840586317931
 31
0.0
  0
LINE
  5
297
330
1F
100
AcDbEntity
  8
1
  6
PHANTOM
 62
     4
100
AcDbLine
 10
176.7866790690629
 20
667.5840586317931
 30
0.0
 11
176.786679069063
 21
648.8640586317938
 31
0.0
  0
LINE
  5
298
330
1F
100
AcDbEntity
  8
1
  6
PHANTOM
 62
     4
100
AcDbLine
 10
158.4410790690629
 20
648.8640586317938
 30
0.0
 11
158.4410790690629
 21
658.2240586317935
 31
0.0
  0
LINE
  5
299
330
1F
100
AcDbEntity
  8
1
  6
PHANTOM
 62
     4
100
AcDbLine
 10
195.1322790690632
 20
648.8640586317938
 30
0.0
 11
176.786679069063
 21
648.8640586317938
 31
0.0
  0
LINE
  5
29A
330
1F
100
AcDbEntity
  8
1
  6
PHANTOM
 62
     4
100
AcDbLine
 10
195.1322790690632
 20
667.5840586317931
 30
0.0
 11
195.1322790690632
 21
658.2240586317935
 31
0.0
  0
LINE
  5
29B
330
1F
100
AcDbEntity
  8
1
  6
PHANTOM
 62
     4
100
AcDbLine
 10
158.4410790690629
 20
667.5840586317931
 30
0.0
 11
176.7866790690629
 21
667.5840586317931
 31
0.0
  0
LINE
  5
29C
102
{ACAD_REACTORS
330
3E0
330
3E0
102
}
330
1F
100
AcDbEntity
  8
1
  6
Continuous
 62
     7
100
AcDbLine
 10
192.8282790690632
 20
652.7520586317933
 30
0.0
 11
192.8282790690632
 21
648.8640586317938
 31
0.0
  0
LINE
  5
29D
102
{ACAD_REACTORS
330
3E0
330
3E0
102
}
330
1F
100
AcDbEntity
  8
1
  6
Continuous
 62
     7
100
AcDbLine
 10
187.0682790690629
 20
652.7520586317933
 30
0.0
 11
187.0682790690629
 21
648.8640586317938
 31
0.0
  0
LINE
  5
29E
102
{ACAD_REACTORS
330
3E0
330
3E0
102
}
330
1F
100
AcDbEntity
  8
1
  6
Continuous
 62
     7
100
AcDbLine
 10
187.0682790690629
 20
652.7520586317933
 30
0.0
 11
192.8282790690632
 21
652.7520586317933
 31
0.0
  0
LINE
  5
29F
102
{ACAD_REACTORS
330
3E0
330
3E0
102
}
330
1F
100
AcDbEntity
  8
1
  6
Continuous
 62
     7
100
AcDbLine
 10
187.0682790690629
 20
655.0560586317934
 30
0.0
 11
192.8282790690632
 21
655.0560586317934
 31
0.0
  0
LINE
  5
2A0
102
{ACAD_REACTORS
330
3E0
330
3E0
102
}
330
1F
100
AcDbEntity
  8
1
  6
Continuous
 62
     7
100
AcDbLine
 10
195.1322790690632
 20
648.8640586317938
 30
0.0
 11
195.1322790690632
 21
658.2240586317935
 31
0.0
  0
LINE
  5
2A1
102
{ACAD_REACTORS
330
3E0
330
3E0
102
}
330
1F
100
AcDbEntity
  8
1
  6
Continuous
 62
     7
100
AcDbLine
 10
192.8282790690632
 20
648.8640586317938
 30
0.0
 11
195.1322790690632
 21
648.8640586317938
 31
0.0
  0
LINE
  5
2A2
102
{ACAD_REACTORS
330
3E0
330
3E0
102
}
330
1F
100
AcDbEntity
  8
1
  6
Continuous
 62
     7
100
AcDbLine
 10
192.8282790690632
 20
658.9440586317928
 30
0.0
 11
192.8282790690632
 21
655.0560586317934
 31
0.0
  0
LINE
  5
2A3
102
{ACAD_REACTORS
330
3E0
330
3E0
102
}
330
1F
100
AcDbEntity
  8
1
  6
Continuous
 62
     7
100
AcDbLine
 10
195.1322790690632
 20
658.9440586317928
 30
0.0
 11
192.8282790690632
 21
658.9440586317928
 31
0.0
  0
LINE
  5
2A4
102
{ACAD_REACTORS
330
3E0
330
3E0
102
}
330
1F
100
AcDbEntity
  8
1
  6
Continuous
 62
     7
100
AcDbLine
 10
184.7642790690635
 20
648.8640586317938
 30
0.0
 11
184.7642790690635
 21
658.9440586317928
 31
0.0
  0
LINE
  5
2A5
102
{ACAD_REACTORS
330
3E0
330
3E0
102
}
330
1F
100
AcDbEntity
  8
1
  6
Continuous
 62
     7
100
AcDbLine
 10
187.0682790690629
 20
648.8640586317938
 30
0.0
 11
184.7642790690635
 21
648.8640586317938
 31
0.0
  0
LINE
  5
2A6
102
{ACAD_REACTORS
330
3E0
330
3E0
102
}
330
1F
100
AcDbEntity
  8
1
  6
Continuous
 62
     7
100
AcDbLine
 10
187.0682790690629
 20
658.9440586317928
 30
0.0
 11
187.0682790690629
 21
655.0560586317934
 31
0.0
  0
LINE
  5
2A7
102
{ACAD_REACTORS
330
3E0
330
3E0
102
}
330
1F
100
AcDbEntity
  8
1
  6
Continuous
 62
     7
100
AcDbLine
 10
184.7642790690635
 20
658.9440586317928
 30
0.0
 11
187.0682790690629
 21
658.9440586317928
 31
0.0
  0
LINE
  5
2A8
102
{ACAD_REACTORS
330
3E1
330
3E1
102
}
330
1F
100
AcDbEntity
  8
1
  6
Continuous
 62
     7
100
AcDbLine
 10
174.2810790690635
 20
651.1680586317939
 30
0.0
 11
174.2810790690635
 21
656.6400586317941
 31
0.0
  0
LINE
  5
2A9
102
{ACAD_REACTORS
330
3E1
330
3E1
102
}
330
1F
100
AcDbEntity
  8
1
  6
Continuous
 62
     7
100
AcDbLine
 10
179.5802790690634
 20
651.1680586317939
 30
0.0
 11
174.2810790690635
 21
651.1680586317939
 31
0.0
  0
LINE
  5
2AA
102
{ACAD_REACTORS
330
3E1
330
3E1
102
}
330
1F
100
AcDbEntity
  8
1
  6
Continuous
 62
     7
100
AcDbLine
 10
179.5802790690634
 20
656.6400586317941
 30
0.0
 11
179.5802790690634
 21
651.1680586317939
 31
0.0
  0
LINE
  5
2AB
102
{ACAD_REACTORS
330
3E1
330
3E1
102
}
330
1F
100
AcDbEntity
  8
1
  6
Continuous
 62
     7
100
AcDbLine
 10
174.2810790690635
 20
656.6400586317941
 30
0.0
 11
179.5802790690634
 21
656.6400586317941
 31
0.0
  0
LINE
  5
2AC
102
{ACAD_REACTORS
330
3E1
330
3E1
102
}
330
1F
100
AcDbEntity
  8
1
  6
Continuous
 62
     7
100
AcDbLine
 10
171.4010790690634
 20
648.8640586317938
 30
0.0
 11
171.4010790690634
 21
658.9440586317928
 31
0.0
  0
LINE
  5
2AD
102
{ACAD_REACTORS
330
3E1
330
3E1
102
}
330
1F
100
AcDbEntity
  8
1
  6
Continuous
 62
     7
100
AcDbLine
 10
182.4602790690628
 20
648.8640586317938
 30
0.0
 11
176.786679069063
 21
648.8640586317938
 31
0.0
  0
LINE
  5
2AE
102
{ACAD_REACTORS
330
3E1
330
3E1
102
}
330
1F
100
AcDbEntity
  8
1
  6
Continuous
 62
     7
100
AcDbLine
 10
182.4602790690628
 20
658.9440586317928
 30
0.0
 11
182.4602790690628
 21
648.8640586317938
 31
0.0
  0
LINE
  5
2AF
102
{ACAD_REACTORS
330
3E1
330
3E1
102
}
330
1F
100
AcDbEntity
  8
1
  6
Continuous
 62
     7
100
AcDbLine
 10
171.4010790690634
 20
658.9440586317928
 30
0.0
 11
182.4602790690628
 21
658.9440586317928
 31
0.0
  0
LINE
  5
2B0
102
{ACAD_REACTORS
330
3E2
330
3E2
102
}
330
1F
100
AcDbEntity
  8
1
  6
Continuous
 62
     7
100
AcDbLine
 10
169.0970790690638
 20
662.976058631793
 30
0.0
 11
167.6570790690638
 21
662.976058631793
 31
0.0
  0
LINE
  5
2B1
102
{ACAD_REACTORS
330
3E2
330
3E2
102
}
330
1F
100
AcDbEntity
  8
1
  6
Continuous
 62
     7
100
AcDbLine
 10
169.0970790690638
 20
648.8640586317938
 30
0.0
 11
169.0970790690638
 21
662.976058631793
 31
0.0
  0
LINE
  5
2B2
102
{ACAD_REACTORS
330
3E2
330
3E2
102
}
330
1F
100
AcDbEntity
  8
1
  6
Continuous
 62
     7
100
AcDbLine
 10
163.9130790690637
 20
648.8640586317938
 30
0.0
 11
169.0970790690638
 21
648.8640586317938
 31
0.0
  0
LINE
  5
2B3
102
{ACAD_REACTORS
330
3E2
330
3E2
102
}
330
1F
100
AcDbEntity
  8
1
  6
Continuous
 62
     7
100
AcDbLine
 10
163.9130790690637
 20
662.976058631793
 30
0.0
 11
163.9130790690637
 21
648.8640586317938
 31
0.0
  0
LINE
  5
2B4
102
{ACAD_REACTORS
330
3E2
330
3E2
102
}
330
1F
100
AcDbEntity
  8
1
  6
Continuous
 62
     7
100
AcDbLine
 10
165.3530790690626
 20
662.976058631793
 30
0.0
 11
163.9130790690637
 21
662.976058631793
 31
0.0
  0
LINE
  5
2B5
102
{ACAD_REACTORS
330
3E2
330
3E2
102
}
330
1F
100
AcDbEntity
  8
1
  6
Continuous
 62
     7
100
AcDbLine
 10
167.6570790690638
 20
665.2800586317931
 30
0.0
 11
189.4874790690628
 21
665.2800586317931
 31
0.0
  0
LINE
  5
2B6
102
{ACAD_REACTORS
330
3E2
330
3E2
102
}
330
1F
100
AcDbEntity
  8
1
  6
Continuous
 62
     7
100
AcDbLine
 10
167.6570790690638
 20
662.976058631793
 30
0.0
 11
167.6570790690638
 21
665.2800586317931
 31
0.0
  0
LINE
  5
2B7
102
{ACAD_REACTORS
330
3E2
330
3E2
102
}
330
1F
100
AcDbEntity
  8
1
  6
Continuous
 62
     7
100
AcDbLine
 10
165.3530790690626
 20
665.2800586317931
 30
0.0
 11
165.3530790690626
 21
662.976058631793
 31
0.0
  0
LINE
  5
2B8
102
{ACAD_REACTORS
330
3E2
330
3E2
102
}
330
1F
100
AcDbEntity
  8
1
  6
Continuous
 62
     7
100
AcDbLine
 10
158.4410790690629
 20
665.2800586317931
 30
0.0
 11
165.3530790690626
 21
665.2800586317931
 31
0.0
  0
LINE
  5
2B9
102
{ACAD_REACTORS
330
3E2
330
3E2
102
}
330
1F
100
AcDbEntity
  8
1
  6
Continuous
 62
     7
100
AcDbLine
 10
189.4874790690628
 20
667.5840586317931
 30
0.0
 11
189.4874790690628
 21
665.2800586317931
 31
0.0
  0
LINE
  5
2BA
102
{ACAD_REACTORS
330
3E2
330
3E2
102
}
330
1F
100
AcDbEntity
  8
1
  6
Continuous
 62
     7
100
AcDbLine
 10
158.4410790690629
 20
667.5840586317931
 30
0.0
 11
176.7866790690629
 21
667.5840586317931
 31
0.0
  0
LINE
  5
2BB
102
{ACAD_REACTORS
330
3E2
330
3E2
102
}
330
1F
100
AcDbEntity
  8
1
  6
Continuous
 62
     7
100
AcDbLine
 10
158.4410790690629
 20
665.2800586317931
 30
0.0
 11
158.4410790690629
 21
667.5840586317931
 31
0.0
  0
LINE
  5
2BC
330
1F
100
AcDbEntity
  8
0
  6
DASH_CENTER
 62
     2
100
AcDbLine
 10
244.9734346612222
 20
1009.961130187247
 30
0.0
 11
244.9734346612222
 21
1033.461130187246
 31
0.0
  0
LINE
  5
2BD
330
1F
100
AcDbEntity
  8
1
  6
DASH_CENTER
 62
     2
100
AcDbLine
 10
264.6444303062393
 20
1003.610179319735
 30
0.0
 11
207.8256571823543
 21
988.3856349462627
 31
0.0
  0
LINE
  5
2BE
330
1F
100
AcDbEntity
  8
1
  6
DASH_CENTER
 62
     2
100
AcDbLine
 10
249.9734346612222
 20
968.8949448746282
 30
0.0
 11
249.9734346612222
 21
914.5838215723204
 31
0.0
  0
LINE
  5
2BF
330
1F
100
AcDbEntity
  8
0
  6
DASH_CENTER
 62
     2
100
AcDbLine
 10
344.9734346612221
 20
1030.894944874628
 30
0.0
 11
344.9734346612221
 21
1009.961130187245
 31
0.0
  0
LINE
  5
2C0
330
1F
100
AcDbEntity
  8
1
  6
DASH_CENTER
 62
     2
100
AcDbLine
 10
382.8712121400893
 20
991.1846730519378
 30
0.0
 11
326.0524390162045
 21
1006.40921742541
 31
0.0
  0
LINE
  5
2C1
330
1F
100
AcDbEntity
  8
1
  6
DASH_CENTER
 62
     2
100
AcDbLine
 10
339.9734346612221
 20
914.5838215723204
 30
0.0
 11
339.9734346612221
 21
968.8949448746282
 31
0.0
  0
LINE
  5
2C2
330
1F
100
AcDbEntity
  8
1
  6
DASH_CENTER
 62
     2
100
AcDbLine
 10
167.8734346612283
 20
919.4611301872474
 30
0.0
 11
294.9734346612221
 21
919.4611301872474
 31
0.0
  0
LINE
  5
2C3
330
1F
100
AcDbEntity
  8
1
  6
DASH_CENTER
 62
     2
100
AcDbLine
 10
429.5734346612159
 20
565.9611301872471
 30
0.0
 11
353.9734346612221
 21
565.9611301872471
 31
0.0
  0
LINE
  5
2C4
330
1F
100
AcDbEntity
  8
1
  6
DASH_CENTER
 62
     2
100
AcDbLine
 10
294.9734346612221
 20
634.4611301872473
 30
0.0
 11
294.9734346612221
 21
533.4211301872472
 31
0.0
  0
LINE
  5
2C5
330
1F
100
AcDbEntity
  8
1
  6
DASH_CENTER
 62
     2
100
AcDbLine
 10
764.4996873291275
 20
634.4611301872474
 30
0.0
 11
764.4996873291275
 21
533.4611301872474
 31
0.0
  0
LINE
  5
2C6
330
1F
100
AcDbEntity
  8
1
  6
DASH_CENTER
 62
     2
100
AcDbLine
 10
876.9135020165106
 20
565.9611301872474
 30
0.0
 11
715.4996873291275
 21
565.9611301872474
 31
0.0
  0
LINE
  5
2C7
330
1F
100
AcDbEntity
  8
1
  6
DASH_CENTER
 62
     2
100
AcDbLine
 10
559.4996873291275
 20
634.4611301872474
 30
0.0
 11
559.4996873291275
 21
582.8005798290283
 31
0.0
  0
LINE
  5
2C8
330
1F
100
AcDbEntity
  8
1
  6
DASH_CENTER
 62
     2
100
AcDbLine
 10
810.4996873291279
 20
612.960664706541
 30
0.0
 11
518.9996873291273
 21
612.9606647065411
 31
0.0
  0
LINE
  5
2C9
330
1F
100
AcDbEntity
  8
1
  6
DASH_CENTER
 62
     2
100
AcDbLine
 10
294.9734346612221
 20
971.4611301872474
 30
0.0
 11
294.9734346612221
 21
688.7630402411953
 31
0.0
  0
LINE
  5
2CA
330
1F
100
AcDbEntity
  8
1
  6
DASH_CENTER
 62
     2
100
AcDbLine
 10
409.9734346612222
 20
573.0611301872472
 30
0.0
 11
409.9734346612222
 21
615.8111301872472
 31
0.0
  0
LINE
  5
2CB
330
1F
100
AcDbEntity
  8
1
  6
DASH_CENTER
 62
     2
100
AcDbLine
 10
316.4734346612221
 20
612.9611301872473
 30
0.0
 11
273.473434661222
 21
612.9611301872473
 31
0.0
  0
LINE
  5
2CC
330
1F
100
AcDbEntity
  8
1
  6
DASH_CENTER
 62
     2
100
AcDbLine
 10
179.9734346612219
 20
615.8111301872472
 30
0.0
 11
179.9734346612219
 21
573.0611301872472
 31
0.0
  0
LINE
  5
2CD
330
1F
100
AcDbEntity
  8
1
  6
DASH_CENTER
 62
     2
100
AcDbLine
 10
294.9734346612221
 20
919.4611301872474
 30
0.0
 11
422.0734346612158
 21
919.4611301872474
 31
0.0
  0
LINE
  5
2CE
330
1F
100
AcDbEntity
  8
1
  6
DASH_CENTER
 62
     2
100
AcDbLine
 10
409.9734346612222
 20
910.4611301872474
 30
0.0
 11
409.9734346612222
 21
928.4611301872474
 31
0.0
  0
LINE
  5
2CF
330
1F
100
AcDbEntity
  8
1
  6
DASH_CENTER
 62
     2
100
AcDbLine
 10
179.9734346612219
 20
928.4611301872474
 30
0.0
 11
179.9734346612219
 21
910.4611301872474
 31
0.0
  0
LINE
  5
2D0
330
1F
100
AcDbEntity
  8
1
  6
Continuous
 62
     2
100
AcDbLine
 10
730.8480293492128
 20
635.3885043003961
 30
0.0
 11
760.9996873291275
 21
635.3885043003961
 31
0.0
  0
LINE
  5
2D1
330
1F
100
AcDbEntity
  8
1
  6
Continuous
 62
     7
100
AcDbLine
 10
809.9796873291278
 20
562.9611301872474
 30
0.0
 11
809.9796873291278
 21
568.9611301872474
 31
0.0
  0
LINE
  5
2D2
330
1F
100
AcDbEntity
  8
1
  6
Continuous
 62
     7
100
AcDbLine
 10
851.9796873291277
 20
562.9611301872474
 30
0.0
 11
851.9796873291277
 21
568.9611301872474
 31
0.0
  0
LINE
  5
2D3
330
1F
100
AcDbEntity
  8
1
  6
Continuous
 62
     7
100
AcDbLine
 10
806.9796873291278
 20
545.9611301872474
 30
0.0
 11
806.9796873291278
 21
585.9611301872474
 31
0.0
  0
LINE
  5
2D4
330
1F
100
AcDbEntity
  8
1
  6
Continuous
 62
     7
100
AcDbLine
 10
854.9796873291277
 20
536.9611301872474
 30
0.0
 11
806.9796873291278
 21
545.9611301872474
 31
0.0
  0
LINE
  5
2D5
330
1F
100
AcDbEntity
  8
1
  6
Continuous
 62
     7
100
AcDbLine
 10
854.9796873291277
 20
594.9611301872474
 30
0.0
 11
806.9796873291278
 21
585.9611301872474
 31
0.0
  0
LINE
  5
2D6
330
1F
100
AcDbEntity
  8
1
  6
Continuous
 62
     7
100
AcDbLine
 10
837.9796873291277
 20
582.9611301872474
 30
0.0
 11
823.9796873291277
 21
582.9611301872474
 31
0.0
  0
LINE
  5
2D7
330
1F
100
AcDbEntity
  8
1
  6
Continuous
 62
     7
100
AcDbLine
 10
837.9796873291277
 20
548.9611301872474
 30
0.0
 11
823.9796873291277
 21
548.9611301872474
 31
0.0
  0
LINE
  5
2D8
330
1F
100
AcDbEntity
  8
1
  6
Continuous
 62
     7
100
AcDbLine
 10
854.9796873291277
 20
536.9611301872474
 30
0.0
 11
854.9796873291277
 21
594.9611301872474
 31
0.0
  0
LINE
  5
2D9
330
1F
100
AcDbEntity
  8
1
  6
Continuous
 62
     7
100
AcDbLine
 10
806.1685640268203
 20
551.6117881104619
 30
0.0
 11
806.1685640268203
 21
580.3104722640326
 31
0.0
  0
LINE
  5
2DA
330
1F
100
AcDbEntity
  8
1
  6
Continuous
 62
     7
100
AcDbLine
 10
793.1685640268204
 20
551.7044664809126
 30
0.0
 11
793.1685640268204
 21
580.217793893582
 31
0.0
  0
LINE
  5
2DB
330
1F
100
AcDbEntity
  8
1
  6
Continuous
 62
     7
100
AcDbLine
 10
805.3195889838579
 20
580.9613372716142
 30
0.0
 11
794.017539069783
 21
580.9613372716142
 31
0.0
  0
LINE
  5
2DC
330
1F
100
AcDbEntity
  8
1
  6
Continuous
 62
     7
100
AcDbLine
 10
794.017539069783
 20
550.9609231028803
 30
0.0
 11
805.3195889838579
 21
550.9609231028803
 31
0.0
  0
LINE
  5
2DD
330
1F
100
AcDbEntity
  8
1
  6
Continuous
 62
     7
100
AcDbLine
 10
837.8909703861573
 20
566.8986301872474
 30
0.0
 11
829.8766613062126
 21
566.8986301872474
 31
0.0
  0
LINE
  5
2DE
330
1F
100
AcDbEntity
  8
1
  6
Continuous
 62
     7
100
AcDbLine
 10
829.5860423623039
 20
565.0236301872474
 30
0.0
 11
829.8766613062126
 21
565.0236301872474
 31
0.0
  0
LINE
  5
2DF
330
1F
100
AcDbEntity
  8
1
  6
Continuous
 62
     7
100
AcDbLine
 10
837.8909703861573
 20
566.8986301872474
 30
0.0
 11
838.3768085775564
 21
566.8986301872474
 31
0.0
  0
LINE
  5
2E0
330
1F
100
AcDbEntity
  8
1
  6
Continuous
 62
     7
100
AcDbLine
 10
837.8909703861573
 20
565.0236301872474
 30
0.0
 11
838.3768085775564
 21
565.0236301872474
 31
0.0
  0
LINE
  5
2E1
330
1F
100
AcDbEntity
  8
1
  6
Continuous
 62
     7
100
AcDbLine
 10
838.3768085775564
 20
566.8986301872474
 30
0.0
 11
838.3768085775564
 21
565.0236301872474
 31
0.0
  0
LINE
  5
2E2
330
1F
100
AcDbEntity
  8
1
  6
Continuous
 62
     7
100
AcDbLine
 10
829.8766613062126
 20
566.8986301872474
 30
0.0
 11
829.8766613062126
 21
565.0236301872474
 31
0.0
  0
LINE
  5
2E3
330
1F
100
AcDbEntity
  8
1
  6
Continuous
 62
     7
100
AcDbLine
 10
829.8766613062126
 20
566.8986301872474
 30
0.0
 11
829.5860423623039
 21
566.8986301872474
 31
0.0
  0
LINE
  5
2E4
330
1F
100
AcDbEntity
  8
1
  6
Continuous
 62
     7
100
AcDbLine
 10
829.8766613062126
 20
565.0236301872474
 30
0.0
 11
837.8909703861573
 21
565.0236301872474
 31
0.0
  0
LINE
  5
2E5
330
1F
100
AcDbEntity
  8
1
  6
Continuous
 62
     7
100
AcDbLine
 10
838.4189204155599
 20
566.9611301872474
 30
0.0
 11
845.9994492848359
 21
566.9611301872474
 31
0.0
  0
LINE
  5
2E6
330
1F
100
AcDbEntity
  8
1
  6
Continuous
 62
     7
100
AcDbLine
 10
838.4189204155599
 20
564.9611301872474
 30
0.0
 11
845.9994492848359
 21
564.9611301872474
 31
0.0
  0
LINE
  5
2E7
330
1F
100
AcDbEntity
  8
1
  6
Continuous
 62
     7
100
AcDbLine
 10
840.7080096415893
 20
578.9611301872474
 30
0.0
 11
833.479687329128
 21
578.9611301872474
 31
0.0
  0
LINE
  5
2E8
330
1F
100
AcDbEntity
  8
1
  6
Continuous
 62
     7
100
AcDbLine
 10
833.479687329128
 20
552.9611301872471
 30
0.0
 11
840.7080096415893
 21
552.9611301872471
 31
0.0
  0
LINE
  5
2E9
330
1F
100
AcDbEntity
  8
1
  6
Continuous
 62
     7
100
AcDbLine
 10
829.5996758316007
 20
564.9611301872471
 30
0.0
 11
820.9599253734199
 21
564.9611301872471
 31
0.0
  0
LINE
  5
2EA
330
1F
100
AcDbEntity
  8
1
  6
Continuous
 62
     7
100
AcDbLine
 10
829.5996758316005
 20
566.9611301872471
 30
0.0
 11
820.9599253734199
 21
566.9611301872471
 31
0.0
  0
LINE
  5
2EB
330
1F
100
AcDbEntity
  8
1
  6
Continuous
 62
     7
100
AcDbLine
 10
802.9996873291278
 20
598.960664706541
 30
0.0
 11
799.4996873291278
 21
598.960664706541
 31
0.0
  0
LINE
  5
2EC
330
1F
100
AcDbEntity
  8
1
  6
Continuous
 62
     7
100
AcDbLine
 10
799.4996873291278
 20
626.960664706541
 30
0.0
 11
802.9996873291278
 21
626.960664706541
 31
0.0
  0
LINE
  5
2ED
330
1F
100
AcDbEntity
  8
1
  6
Continuous
 62
     7
100
AcDbLine
 10
803.9996873291278
 20
612.960664706541
 30
0.0
 11
803.9996873291278
 21
599.960664706541
 31
0.0
  0
LINE
  5
2EE
330
1F
100
AcDbEntity
  8
1
  6
Continuous
 62
     7
100
AcDbLine
 10
803.9996873291278
 20
625.960664706541
 30
0.0
 11
803.9996873291278
 21
612.960664706541
 31
0.0
  0
LINE
  5
2EF
330
1F
100
AcDbEntity
  8
1
  6
Continuous
 62
     7
100
AcDbLine
 10
531.4996873291271
 20
598.9606647065411
 30
0.0
 11
529.4996873291275
 21
598.9606647065411
 31
0.0
  0
LINE
  5
2F0
330
1F
100
AcDbEntity
  8
1
  6
Continuous
 62
     7
100
AcDbLine
 10
526.9996873291271
 20
599.9606647065411
 30
0.0
 11
526.9996873291271
 21
612.9606647065411
 31
0.0
  0
LINE
  5
2F1
330
1F
100
AcDbEntity
  8
1
  6
Continuous
 62
     7
100
AcDbLine
 10
529.4996873291275
 20
598.9606647065411
 30
0.0
 11
527.9996873291271
 21
598.9606647065411
 31
0.0
  0
LINE
  5
2F2
330
1F
100
AcDbEntity
  8
1
  6
Continuous
 62
     7
100
AcDbLine
 10
529.4996873291275
 20
626.9606647065411
 30
0.0
 11
531.4996873291271
 21
626.9606647065411
 31
0.0
  0
LINE
  5
2F3
330
1F
100
AcDbEntity
  8
1
  6
Continuous
 62
     7
100
AcDbLine
 10
526.9996873291271
 20
612.9606647065411
 30
0.0
 11
526.9996873291271
 21
625.9606647065411
 31
0.0
  0
LINE
  5
2F4
330
1F
100
AcDbEntity
  8
1
  6
Continuous
 62
     7
100
AcDbLine
 10
527.9996873291271
 20
626.9606647065411
 30
0.0
 11
529.4996873291275
 21
626.9606647065411
 31
0.0
  0
LINE
  5
2F5
330
1F
100
AcDbEntity
  8
1
  6
Continuous
 62
     2
100
AcDbLine
 10
790.4996873291275
 20
553.901130187247
 30
0.0
 11
793.1685640268204
 21
553.901130187247
 31
0.0
  0
LINE
  5
2F6
330
1F
100
AcDbEntity
  8
1
  6
Continuous
 62
     7
100
AcDbLine
 10
790.4996873291275
 20
552.741130187247
 30
0.0
 11
793.1685640268204
 21
552.741130187247
 31
0.0
  0
LINE
  5
2F7
330
1F
100
AcDbEntity
  8
1
  6
Continuous
 62
     2
100
AcDbLine
 10
793.1685640268204
 20
578.0211301872473
 30
0.0
 11
790.4996873291275
 21
578.0211301872474
 31
0.0
  0
LINE
  5
2F8
330
1F
100
AcDbEntity
  8
1
  6
Continuous
 62
     7
100
AcDbLine
 10
793.1685640268204
 20
579.1811301872473
 30
0.0
 11
790.4996873291275
 21
579.1811301872473
 31
0.0
  0
LINE
  5
2F9
330
1F
100
AcDbEntity
  8
1
  6
Continuous
 62
     7
100
AcDbLine
 10
738.4996873291276
 20
540.9611301872471
 30
0.0
 11
738.4996873291275
 21
590.9611301872474
 31
0.0
  0
LINE
  5
2FA
330
1F
100
AcDbEntity
  8
1
  6
Continuous
 62
     7
100
AcDbLine
 10
789.4996873291276
 20
539.9611301872471
 30
0.0
 11
739.4996873291276
 21
539.9611301872471
 31
0.0
  0
LINE
  5
2FB
330
1F
100
AcDbEntity
  8
1
  6
Continuous
 62
     7
100
AcDbLine
 10
790.4996873291275
 20
590.9611301872474
 30
0.0
 11
790.4996873291275
 21
540.9611301872471
 31
0.0
  0
LINE
  5
2FC
330
1F
100
AcDbEntity
  8
1
  6
Continuous
 62
     7
100
AcDbLine
 10
739.4996873291276
 20
591.9611301872474
 30
0.0
 11
759.4996873291275
 21
591.9611301872474
 31
0.0
  0
LINE
  5
2FD
330
1F
100
AcDbEntity
  8
1
  6
Continuous
 62
     7
100
AcDbLine
 10
769.4996873291275
 20
591.9611301872474
 30
0.0
 11
789.4996873291274
 21
591.9611301872474
 31
0.0
  0
LINE
  5
2FE
330
1F
100
AcDbEntity
  8
1
  6
Continuous
 62
     7
100
AcDbLine
 10
799.4996873291278
 20
598.9611301872474
 30
0.0
 11
777.5995841097954
 21
598.9611301872474
 31
0.0
  0
LINE
  5
2FF
330
1F
100
AcDbEntity
  8
1
  6
Continuous
 62
     7
100
AcDbLine
 10
531.4996873291275
 20
626.9611301872474
 30
0.0
 11
799.4996873291278
 21
626.9611301872474
 31
0.0
  0
LINE
  5
300
330
1F
100
AcDbEntity
  8
1
  6
Continuous
 62
     7
100
AcDbLine
 10
531.4996873291275
 20
626.9611301872474
 30
0.0
 11
531.4996873291275
 21
598.9611301872474
 31
0.0
  0
LINE
  5
301
330
1F
100
AcDbEntity
  8
1
  6
Continuous
 62
     7
100
AcDbLine
 10
531.4996873291275
 20
598.9611301872474
 30
0.0
 11
546.3997905484596
 21
598.9611301872474
 31
0.0
  0
LINE
  5
302
330
1F
100
AcDbEntity
  8
1
  6
Continuous
 62
     7
100
AcDbLine
 10
799.4996873291278
 20
626.9611301872474
 30
0.0
 11
799.4996873291278
 21
598.9611301872474
 31
0.0
  0
LINE
  5
303
330
1F
100
AcDbEntity
  8
1
  6
Continuous
 62
     7
100
AcDbLine
 10
751.3997905484595
 20
598.9611301872474
 30
0.0
 11
572.0995841097955
 21
598.9611301872474
 31
0.0
  0
LINE
  5
304
330
1F
100
AcDbEntity
  8
1
  6
Continuous
 62
     7
100
AcDbLine
 10
546.4996873291275
 20
599.2140207855018
 30
0.0
 11
546.4996873291275
 21
591.9611301872461
 31
0.0
  0
LINE
  5
305
330
1F
100
AcDbEntity
  8
1
  6
Continuous
 62
     7
100
AcDbLine
 10
572.4996873291271
 20
599.2140207855018
 30
0.0
 11
572.4996873291268
 21
591.9611301872461
 31
0.0
  0
LINE
  5
306
330
1F
100
AcDbEntity
  8
1
  6
Continuous
 62
     7
100
AcDbLine
 10
572.4996873291257
 20
587.1611301872455
 30
0.0
 11
572.4996873291268
 21
591.9611301872461
 31
0.0
  0
LINE
  5
307
330
1F
100
AcDbEntity
  8
1
  6
Continuous
 62
     7
100
AcDbLine
 10
546.4996873291275
 20
591.9611301872461
 30
0.0
 11
572.4996873291268
 21
591.9611301872461
 31
0.0
  0
LINE
  5
308
330
1F
100
AcDbEntity
  8
1
  6
Continuous
 62
     7
100
AcDbLine
 10
769.4996873291274
 20
604.5611301872473
 30
0.0
 11
769.4996873291274
 21
581.5611301872473
 31
0.0
  0
LINE
  5
309
330
1F
100
AcDbEntity
  8
1
  6
Continuous
 62
     7
100
AcDbLine
 10
769.4996873291274
 20
581.5611301872473
 30
0.0
 11
759.4996873291274
 21
581.5611301872473
 31
0.0
  0
LINE
  5
30A
330
1F
100
AcDbEntity
  8
1
  6
Continuous
 62
     7
100
AcDbLine
 10
759.4996873291274
 20
581.5611301872473
 30
0.0
 11
759.4996873291274
 21
604.5611301872473
 31
0.0
  0
LINE
  5
30B
330
1F
100
AcDbEntity
  8
1
  6
PHANTOM
 62
     2
100
AcDbLine
 10
725.8996873291276
 20
570.9611301872471
 30
0.0
 11
748.8996873291276
 21
570.9611301872471
 31
0.0
  0
LINE
  5
30C
330
1F
100
AcDbEntity
  8
1
  6
PHANTOM
 62
     2
100
AcDbLine
 10
748.8996873291276
 20
570.9611301872471
 30
0.0
 11
748.8996873291276
 21
560.9611301872471
 31
0.0
  0
LINE
  5
30D
330
1F
100
AcDbEntity
  8
1
  6
PHANTOM
 62
     2
100
AcDbLine
 10
748.8996873291276
 20
560.9611301872471
 30
0.0
 11
725.8996873291276
 21
560.9611301872471
 31
0.0
  0
LINE
  5
30E
330
1F
100
AcDbEntity
  8
1
  6
Continuous
 62
     7
100
AcDbLine
 10
769.4996873291275
 20
578.9902295384848
 30
0.0
 11
769.4996873291274
 21
581.5611301872473
 31
0.0
  0
LINE
  5
30F
330
1F
100
AcDbEntity
  8
1
  6
Continuous
 62
     7
100
AcDbLine
 10
759.4996873291275
 20
578.9902295384844
 30
0.0
 11
759.4996873291274
 21
581.5611301872473
 31
0.0
  0
LINE
  5
310
330
1F
100
AcDbEntity
  8
1
  6
PHANTOM
 62
     2
100
AcDbLine
 10
751.4229904985054
 20
570.9611301872474
 30
0.0
 11
748.8996873291276
 21
570.9611301872471
 31
0.0
  0
LINE
  5
311
330
1F
100
AcDbEntity
  8
1
  6
PHANTOM
 62
     2
100
AcDbLine
 10
751.4229904985057
 20
560.9611301872474
 30
0.0
 11
748.8996873291276
 21
560.9611301872471
 31
0.0
  0
LINE
  5
312
330
1F
100
AcDbEntity
  8
1
  6
Continuous
 62
     7
100
AcDbLine
 10
769.4996873291274
 20
604.5611301872473
 30
0.0
 11
759.4996873291274
 21
604.5611301872473
 31
0.0
  0
LINE
  5
313
330
1F
100
AcDbEntity
  8
1
  6
PHANTOM
 62
     2
100
AcDbLine
 10
725.8996873291276
 20
570.9611301872471
 30
0.0
 11
725.8996873291276
 21
560.9611301872471
 31
0.0
  0
LINE
  5
314
330
1F
100
AcDbEntity
  8
1
  6
Continuous
 62
     7
100
AcDbLine
 10
857.979687329128
 20
576.4611301872474
 30
0.0
 11
857.9796873291282
 21
575.4611301872474
 31
0.0
  0
LINE
  5
315
330
1F
100
AcDbEntity
  8
1
  6
Continuous
 62
     7
100
AcDbLine
 10
856.2476365215593
 20
576.4611301872474
 30
0.0
 11
856.2476365215791
 21
576.4611301872504
 31
0.0
  0
LINE
  5
316
330
1F
100
AcDbEntity
  8
1
  6
Continuous
 62
     7
100
AcDbLine
 10
870.729687329128
 20
576.4611301872471
 30
0.0
 11
871.729687329128
 21
575.4611301872469
 31
0.0
  0
LINE
  5
317
330
1F
100
AcDbEntity
  8
1
  6
Continuous
 62
     7
100
AcDbLine
 10
857.979687329128
 20
576.4611301872474
 30
0.0
 11
861.0647866323111
 21
576.4611301872474
 31
0.0
  0
LINE
  5
318
330
1F
100
AcDbEntity
  8
1
  6
Continuous
 62
     7
100
AcDbLine
 10
870.729687329128
 20
576.4611301872471
 30
0.0
 11
870.729687329128
 21
575.4611301872469
 31
0.0
  0
LINE
  5
319
330
1F
100
AcDbEntity
  8
1
  6
Continuous
 62
     2
100
AcDbLine
 10
870.729687329128
 20
575.4611301872469
 30
0.0
 11
871.729687329128
 21
575.4611301872469
 31
0.0
  0
LINE
  5
31A
330
1F
100
AcDbEntity
  8
1
  6
Continuous
 62
     2
100
AcDbLine
 10
857.9796873291282
 20
575.4611301872474
 30
0.0
 11
870.729687329128
 21
575.4611301872469
 31
0.0
  0
LINE
  5
31B
330
1F
100
AcDbEntity
  8
1
  6
Continuous
 62
     7
100
AcDbLine
 10
871.979687329128
 20
575.2111301872474
 30
0.0
 11
871.979687329128
 21
572.4611301872474
 31
0.0
  0
LINE
  5
31C
330
1F
100
AcDbEntity
  8
1
  6
Continuous
 62
     7
100
AcDbLine
 10
871.729687329128
 20
575.4611301872469
 30
0.0
 11
871.979687329128
 21
575.2111301872474
 31
0.0
  0
LINE
  5
31D
330
1F
100
AcDbEntity
  8
1
  6
Continuous
 62
     2
100
AcDbLine
 10
856.2476365215791
 20
576.4611301872504
 30
0.0
 11
857.9796873291282
 21
575.4611301872474
 31
0.0
  0
LINE
  5
31E
330
1F
100
AcDbEntity
  8
1
  6
Continuous
 62
     7
100
AcDbLine
 10
871.729687329128
 20
556.4611301872474
 30
0.0
 11
870.729687329128
 21
555.4611301872469
 31
0.0
  0
LINE
  5
31F
330
1F
100
AcDbEntity
  8
1
  6
Continuous
 62
     7
100
AcDbLine
 10
870.729687329128
 20
556.4611301872471
 30
0.0
 11
870.729687329128
 21
555.4611301872469
 31
0.0
  0
LINE
  5
320
330
1F
100
AcDbEntity
  8
1
  6
Continuous
 62
     2
100
AcDbLine
 10
871.729687329128
 20
556.4611301872474
 30
0.0
 11
870.729687329128
 21
556.4611301872471
 31
0.0
  0
LINE
  5
321
330
1F
100
AcDbEntity
  8
1
  6
Continuous
 62
     2
100
AcDbLine
 10
870.729687329128
 20
556.4611301872471
 30
0.0
 11
857.979687329128
 21
556.4611301872474
 31
0.0
  0
LINE
  5
322
330
1F
100
AcDbEntity
  8
1
  6
Continuous
 62
     7
100
AcDbLine
 10
871.979687329128
 20
572.4611301872474
 30
0.0
 11
871.979687329128
 21
556.7111301872474
 31
0.0
  0
LINE
  5
323
330
1F
100
AcDbEntity
  8
1
  6
Continuous
 62
     7
100
AcDbLine
 10
871.979687329128
 20
556.7111301872474
 30
0.0
 11
871.729687329128
 21
556.4611301872474
 31
0.0
  0
LINE
  5
324
330
1F
100
AcDbEntity
  8
1
  6
Continuous
 62
     7
100
AcDbLine
 10
857.979687329128
 20
556.4611301872474
 30
0.0
 11
857.9796873291282
 21
555.4611301872474
 31
0.0
  0
LINE
  5
325
330
1F
100
AcDbEntity
  8
1
  6
Continuous
 62
     7
100
AcDbLine
 10
856.2476365215791
 20
555.4611301872441
 30
0.0
 11
856.2476365215593
 21
555.4611301872474
 31
0.0
  0
LINE
  5
326
330
1F
100
AcDbEntity
  8
1
  6
Continuous
 62
     2
100
AcDbLine
 10
857.979687329128
 20
556.4611301872474
 30
0.0
 11
856.2476365215847
 21
555.4611301872474
 31
0.0
  0
LINE
  5
327
330
1F
100
AcDbEntity
  8
1
  6
Continuous
 62
     7
100
AcDbLine
 10
866.9796873291277
 20
576.4611301872474
 30
0.0
 11
870.729687329128
 21
576.4611301872471
 31
0.0
  0
LINE
  5
328
330
1F
100
AcDbEntity
  8
0
  6
Continuous
 62
     7
100
AcDbLine
 10
856.2476365215791
 20
576.4611301872504
 30
0.0
 11
856.2476365215593
 21
576.4611301872504
 31
0.0
  0
LINE
  5
329
330
1F
100
AcDbEntity
  8
0
  6
Continuous
 62
     7
100
AcDbLine
 10
856.4796873291277
 20
555.4611301872444
 30
0.0
 11
856.2476365215847
 21
555.4611301872474
 31
0.0
  0
LINE
  5
32A
330
1F
100
AcDbEntity
  8
1
  6
Continuous
 62
     7
100
AcDbLine
 10
856.2476365215593
 20
555.4611301872474
 30
0.0
 11
870.729687329128
 21
555.4611301872469
 31
0.0
  0
LINE
  5
32B
330
1F
100
AcDbEntity
  8
0
  6
Continuous
 62
     7
100
AcDbLine
 10
856.2476365215593
 20
555.4611301872474
 30
0.0
 11
856.2476365215791
 21
555.4611301872441
 31
0.0
  0
LINE
  5
32C
330
1F
100
AcDbEntity
  8
1
  6
Continuous
 62
     7
100
AcDbLine
 10
856.2476365215593
 20
576.4611301872504
 30
0.0
 11
856.4796873291277
 21
576.4611301872504
 31
0.0
  0
LINE
  5
32D
330
1F
100
AcDbEntity
  8
1
  6
Continuous
 62
     7
100
AcDbLine
 10
856.2476365215791
 20
576.4611301872504
 30
0.0
 11
857.979687329128
 21
576.4611301872474
 31
0.0
  0
LINE
  5
32E
330
1F
100
AcDbEntity
  8
1
  6
Continuous
 62
     7
100
AcDbLine
 10
870.729687329128
 20
575.4611301872469
 30
0.0
 11
870.729687329128
 21
556.4611301872471
 31
0.0
  0
LINE
  5
32F
330
1F
100
AcDbEntity
  8
1
  6
Continuous
 62
     7
100
AcDbLine
 10
857.9796873291282
 20
575.4611301872474
 30
0.0
 11
857.979687329128
 21
556.4611301872474
 31
0.0
  0
LINE
  5
330
330
1F
100
AcDbEntity
  8
1
  6
Continuous
 62
     7
100
AcDbLine
 10
843.1790013984488
 20
581.959866018418
 30
0.0
 11
833.9323585267608
 21
581.959866018418
 31
0.0
  0
LINE
  5
331
330
1F
100
AcDbEntity
  8
1
  6
Continuous
 62
     7
100
AcDbLine
 10
833.9323585267608
 20
549.9623943560766
 30
0.0
 11
843.1790013984488
 21
549.9623943560766
 31
0.0
  0
LINE
  5
332
330
1F
100
AcDbEntity
  8
1
  6
Continuous
 62
     7
100
AcDbLine
 10
815.979687329128
 20
552.9611301872469
 30
0.0
 11
815.979687329128
 21
565.9611301872474
 31
0.0
  0
LINE
  5
333
330
1F
100
AcDbEntity
  8
1
  6
Continuous
 62
     7
100
AcDbLine
 10
824.7292090025781
 20
552.9611301872474
 30
0.0
 11
815.979687329128
 21
552.9611301872469
 31
0.0
  0
LINE
  5
334
330
1F
100
AcDbEntity
  8
1
  6
Continuous
 62
     7
100
AcDbLine
 10
812.979687329128
 20
554.3008761494028
 30
0.0
 11
812.979687329128
 21
565.9611301872474
 31
0.0
  0
LINE
  5
335
330
1F
100
AcDbEntity
  8
1
  6
Continuous
 62
     7
100
AcDbLine
 10
815.979687329128
 20
565.9611301872474
 30
0.0
 11
815.979687329128
 21
578.9611301872477
 31
0.0
  0
LINE
  5
336
330
1F
100
AcDbEntity
  8
1
  6
Continuous
 62
     7
100
AcDbLine
 10
815.979687329128
 20
578.9611301872477
 30
0.0
 11
824.7292090025781
 21
578.9611301872474
 31
0.0
  0
LINE
  5
337
330
1F
100
AcDbEntity
  8
1
  6
Continuous
 62
     7
100
AcDbLine
 10
812.979687329128
 20
565.9611301872474
 30
0.0
 11
812.979687329128
 21
577.6213842250918
 31
0.0
  0
LINE
  5
338
330
1F
100
AcDbEntity
  8
1
  6
Continuous
 62
     7
100
AcDbLine
 10
751.4996873291274
 20
599.3946772471743
 30
0.0
 11
751.4996873291276
 21
591.9611301872474
 31
0.0
  0
LINE
  5
339
330
1F
100
AcDbEntity
  8
1
  6
Continuous
 62
     7
100
AcDbLine
 10
777.4996873291274
 20
591.9611301872474
 30
0.0
 11
777.4996873291276
 21
599.3946772471738
 31
0.0
  0
LINE
  5
33A
330
1F
100
AcDbEntity
  8
1
  6
Continuous
 62
     7
100
AcDbLine
 10
796.4953137886121
 20
1219.646955628806
 30
0.0
 11
611.4953137886121
 21
1219.646955628806
 31
0.0
  0
LINE
  5
33B
330
1F
100
AcDbEntity
  8
1
  6
Continuous
 62
     7
100
AcDbLine
 10
861.4953137886121
 20
1093.646955628808
 30
0.0
 11
861.4953137886121
 21
1219.646955628806
 31
0.0
  0
LINE
  5
33C
330
1F
100
AcDbEntity
  8
1
  6
Continuous
 62
     7
100
AcDbLine
 10
796.4953137886121
 20
1093.646955628808
 30
0.0
 11
861.4953137886143
 21
1093.646955628808
 31
0.0
  0
LINE
  5
33D
330
1F
100
AcDbEntity
  8
1
  6
Continuous
 62
     2
100
AcDbLine
 10
796.4953137886121
 20
1135.646955628808
 30
0.0
 11
861.4953137886129
 21
1135.64695562881
 31
0.0
  0
LINE
  5
33E
330
1F
100
AcDbEntity
  8
1
  6
Continuous
 62
     2
100
AcDbLine
 10
861.4953137886121
 20
1177.646955628808
 30
0.0
 11
796.4953137886121
 21
1177.646955628808
 31
0.0
  0
LINE
  5
33F
330
1F
100
AcDbEntity
  8
1
  6
Continuous
 62
     7
100
AcDbLine
 10
861.4953137886121
 20
1219.646955628806
 30
0.0
 11
796.4953137886121
 21
1219.646955628806
 31
0.0
  0
ARC
  5
340
330
1F
100
AcDbEntity
  8
0
  6
Continuous
 62
     7
100
AcDbCircle
 10
751.2399396530683
 20
593.1156922981644
 30
0.0
 40
27.00000000000352
100
AcDbArc
 50
12.50340888926455
 51
13.44754198027376
  0
ARC
  5
341
330
1F
100
AcDbEntity
  8
0
  6
Continuous
 62
     7
100
AcDbCircle
 10
777.7594350051866
 20
593.1156922981643
 30
0.0
 40
27.00000000000352
100
AcDbArc
 50
146.6457606768729
 51
167.4965911107352
  0
ARC
  5
342
330
1F
100
AcDbEntity
  8
0
  6
Continuous
 62
     7
100
AcDbCircle
 10
751.2399396530683
 20
593.1156922981644
 30
0.0
 40
27.0000000000035
100
AcDbArc
 50
13.44754198027376
 51
33.35423932312671
  0
ARC
  5
343
330
1F
100
AcDbEntity
  8
0
  6
Continuous
 62
     7
100
AcDbCircle
 10
572.7594350051866
 20
593.1156922981644
 30
0.0
 40
27.00000000000346
100
AcDbArc
 50
146.6457606768731
 51
167.4965911107354
  0
ARC
  5
344
330
1F
100
AcDbEntity
  8
0
  6
Continuous
 62
     7
100
AcDbCircle
 10
546.2399396530683
 20
593.1156922981644
 30
0.0
 40
27.00000000000352
100
AcDbArc
 50
12.50340888926455
 51
33.35423932312677
  0
LINE
  5
345
330
1F
100
AcDbEntity
  8
0
  6
Continuous
 62
     7
100
AcDbLine
 10
546.3997905484596
 20
598.9611301872474
 30
0.0
 11
546.3996873291275
 21
598.9606647065408
 31
0.0
  0
ARC
  5
346
330
1F
100
AcDbEntity
  8
1
  6
Continuous
 62
     2
100
AcDbCircle
 10
764.4996873291275
 20
565.9611301872471
 30
0.0
 40
54.76857969568662
100
AcDbArc
 50
126.8055364767432
 51
163.1059442421619
  0
ARC
  5
347
330
1F
100
AcDbEntity
  8
1
  6
Continuous
 62
     2
100
AcDbCircle
 10
764.4996873291275
 20
565.9611301872471
 30
0.0
 40
54.76857969568676
100
AcDbArc
 50
97.30357096170395
 51
126.8055364767432
  0
ARC
  5
348
330
1F
100
AcDbEntity
  8
1
  6
Continuous
 62
     7
100
AcDbCircle
 10
823.9796873291277
 20
568.9611301872474
 30
0.0
 40
14.0
100
AcDbArc
 50
90.0
 51
180.0
  0
ARC
  5
349
330
1F
100
AcDbEntity
  8
1
  6
Continuous
 62
     7
100
AcDbCircle
 10
837.9796873291277
 20
568.9611301872474
 30
0.0
 40
14.0
100
AcDbArc
 50
0.0
 51
90.0
  0
ARC
  5
34A
330
1F
100
AcDbEntity
  8
1
  6
Continuous
 62
     7
100
AcDbCircle
 10
837.9796873291277
 20
562.9611301872474
 30
0.0
 40
14.0
100
AcDbArc
 50
-90.0
 51
0.0
  0
ARC
  5
34B
330
1F
100
AcDbEntity
  8
1
  6
Continuous
 62
     7
100
AcDbCircle
 10
823.9796873291277
 20
562.9611301872474
 30
0.0
 40
13.99999999999989
100
AcDbArc
 50
180.0
 51
-90.0
  0
ARC
  5
34C
330
1F
100
AcDbEntity
  8
1
  6
Continuous
 62
     7
100
AcDbCircle
 10
799.6685640268204
 20
572.7111301872474
 30
0.0
 40
9.999999999999805
100
AcDbArc
 50
124.4094090961615
 51
130.0052008848598
  0
ARC
  5
34D
330
1F
100
AcDbEntity
  8
1
  6
Continuous
 62
     7
100
AcDbCircle
 10
799.6685640268204
 20
572.7111301872474
 30
0.0
 40
9.99999999999983
100
AcDbArc
 50
49.4583981264955
 51
55.59059090383795
  0
ARC
  5
34E
330
1F
100
AcDbEntity
  8
1
  6
Continuous
 62
     7
100
AcDbCircle
 10
799.6685640268204
 20
559.2111301872471
 30
0.0
 40
9.999999999999764
100
AcDbArc
 50
-130.0052008848606
 51
-124.4094090961615
  0
ARC
  5
34F
330
1F
100
AcDbEntity
  8
1
  6
Continuous
 62
     7
100
AcDbCircle
 10
799.6685640268204
 20
559.2111301872471
 30
0.0
 40
9.99999999999987
100
AcDbArc
 50
-55.59059090383795
 51
-49.4583981264955
  0
CIRCLE
  5
350
330
1F
100
AcDbEntity
  8
1
  6
Continuous
 62
     7
100
AcDbCircle
 10
764.4996873291275
 20
565.9611301872471
 30
0.0
 40
13.99999999999977
  0
SPLINE
  5
351
330
1F
100
AcDbEntity
  8
1
  6
Continuous
 62
     7
100
AcDbSpline
210
0.0
220
0.0
230
1.0
 70
    11
 71
     3
 72
    79
 73
    75
 74
    73
 42
0.0000000001
 43
0.0000000001
 44
0.00000001
 40
0.0
 40
0.0
 40
0.0
 40
0.0
 40
0.4966046246465652
 40
0.9931656318864262
 40
1.496032156773283
 40
1.998821863005796
 40
2.511123054993127
 40
3.023330280857952
 40
3.546971470659685
 40
4.070517307137317
 40
4.605965510198617
 40
5.141328792300002
 40
5.687642761236453
 40
6.233889442124462
 40
6.78890497495035
 40
7.343874488318895
 40
7.904494225096598
 40
8.465090715507031
 40
9.027636361328204
 40
9.59018200714938
 40
10.15077849755958
 40
10.71139823433739
 40
11.26636774770597
 40
11.82138328053175
 40
12.36762996141971
 40
12.91394393035636
 40
13.44930721245774
 40
13.98475541551904
 40
14.50830125199659
 40
15.0319424417984
 40
15.54414966766307
 40
16.05645085965045
 40
16.55924056588282
 40
17.06210709076989
 40
17.55866809800972
 40
18.05527272265617
 40
18.54966881515341
 40
19.04406490765099
 40
19.54066953229778
 40
20.03723053953739
 40
20.5400970644245
 40
21.04288677065681
 40
21.55518796264414
 40
22.06739518850888
 40
22.59103637831077
 40
23.11458221478848
 40
23.65003041784971
 40
24.18539369995106
 40
24.73170766888772
 40
25.27795434977568
 40
25.83296988260153
 40
26.38793939596985
 40
26.9485591327478
 40
27.50915562315799
 40
28.07170126897917
 40
28.63424691480034
 40
29.19484340521064
 40
29.75546314198848
 40
30.31043265535684
 40
30.86544818818286
 40
31.41169486907072
 40
31.95800883800733
 40
32.49337212010877
 40
33.02882032317007
 40
33.55236615964763
 40
34.07600734944936
 40
34.58821457531428
 40
35.10051576730157
 40
35.60330547353409
 40
36.10617199842098
 40
36.6027330056607
 40
37.0993376303074
 40
37.59373372280474
 40
38.08812981530209
 40
38.08812981530209
 40
38.08812981530209
 40
38.08812981530209
 10
800.1541028770475
 20
567.0304781472344
 30
0.0
 10
800.3184202853935
 20
567.0516379302112
 30
0.0
 10
800.6470406698811
 20
567.0939556376748
 30
0.0
 10
801.1308506397751
 20
567.2197615959115
 30
0.0
 10
801.6027991055114
 20
567.3889215209305
 30
0.0
 10
802.0606371258707
 20
567.6062867060698
 30
0.0
 10
802.4988284940828
 20
567.8668875052522
 30
0.0
 10
802.9163939618853
 20
568.1713408811138
 30
0.0
 10
803.3077198552135
 20
568.5145375138868
 30
0.0
 10
803.6723116441391
 20
568.8967400500278
 30
0.0
 10
804.0051372747414
 20
569.3119103590267
 30
0.0
 10
804.3057977179241
 20
569.7600600830635
 30
0.0
 10
804.5702732669799
 20
570.2345903473048
 30
0.0
 10
804.7980518986542
 20
570.7349616186674
 30
0.0
 10
804.9863444991587
 20
571.2545545842015
 30
0.0
 10
805.1345212910482
 20
571.7919282935116
 30
0.0
 10
805.2410203400523
 20
572.3409819023943
 30
0.0
 10
805.3052747009064
 20
572.8990973624136
 30
0.0
 10
805.3267585461846
 20
573.4611301872455
 30
0.0
 10
805.3052747009067
 20
574.0231630120886
 30
0.0
 10
805.2410203400499
 20
574.5812784720745
 30
0.0
 10
805.1345212910578
 20
575.1303320810787
 30
0.0
 10
804.9863444991232
 20
575.6677057899406
 30
0.0
 10
804.7980518987848
 20
576.187298757134
 30
0.0
 10
804.5702732665003
 20
576.6876700223978
 30
0.0
 10
804.3057977197004
 20
577.1622003091749
 30
0.0
 10
804.0051372682588
 20
577.610349950717
 30
0.0
 10
803.6723116681258
 20
578.0255205640555
 30
0.0
 10
803.3077197678969
 20
578.4077219884459
 30
0.0
 10
802.9163942850554
 20
578.7509227213807
 30
0.0
 10
802.49882731713
 20
579.0553611131837
 30
0.0
 10
802.0606414879696
 20
579.3160172394971
 30
0.0
 10
801.6027831602806
 20
579.5331795837135
 30
0.0
 10
801.1309098801149
 20
579.7030905041058
 30
0.0
 10
800.6468226491239
 20
579.826127024014
 30
0.0
 10
800.1556461987344
 20
579.8998044131511
 30
0.0
 10
799.6603253577607
 20
579.924837964238
 30
0.0
 10
799.1650045167863
 20
579.8998044131508
 30
0.0
 10
798.6738280663974
 20
579.8261270240142
 30
0.0
 10
798.1897408354056
 20
579.7030905041056
 30
0.0
 10
797.7178675552406
 20
579.5331795837134
 30
0.0
 10
797.2600092275511
 20
579.316017239497
 30
0.0
 10
796.8218233983909
 20
579.0553611131842
 30
0.0
 10
796.4042564304657
 20
578.7509227213805
 30
0.0
 10
796.0129309476237
 20
578.407721988446
 30
0.0
 10
795.6483390473951
 20
578.0255205640551
 30
0.0
 10
795.3155134472622
 20
577.6103499507169
 30
0.0
 10
795.0148529958203
 20
577.1622003091749
 30
0.0
 10
794.7503774490205
 20
576.6876700223978
 30
0.0
 10
794.5225988167359
 20
576.1872987571339
 30
0.0
 10
794.3343062163975
 20
575.6677057899404
 30
0.0
 10
794.1861294244634
 20
575.1303320810787
 30
0.0
 10
794.079630375471
 20
574.5812784720746
 30
0.0
 10
794.0153760146141
 20
574.0231630120882
 30
0.0
 10
793.9938921693365
 20
573.461130187247
 30
0.0
 10
794.0153760146142
 20
572.8990973624074
 30
0.0
 10
794.0796303754711
 20
572.3409819024182
 30
0.0
 10
794.1861294244625
 20
571.7919282934229
 30
0.0
 10
794.3343062164004
 20
571.2545545845289
 30
0.0
 10
794.5225988167264
 20
570.7349616174543
 30
0.0
 10
794.7503774490548
 20
570.2345903517535
 30
0.0
 10
795.0148529956932
 20
569.7600600665909
 30
0.0
 10
795.3155134477265
 20
569.3119104191392
 30
0.0
 10
795.6483390456772
 20
568.8967398276027
 30
0.0
 10
796.0129309538786
 20
568.5145383235708
 30
0.0
 10
796.4042564073152
 20
568.1713378843533
 30
0.0
 10
796.8218234827024
 20
567.86689841916
 30
0.0
 10
797.2600089150703
 20
567.6062462562318
 30
0.0
 10
797.7178686974849
 20
567.3890693814102
 30
0.0
 10
798.189736591696
 20
567.2192122589266
 30
0.0
 10
798.6738436844175
 20
567.0959773489925
 30
0.0
 10
799.1649463087592
 20
567.0230373755534
 30
0.0
 10
799.6605415237631
 20
566.9952632237762
 30
0.0
 10
799.9895824259526
 20
567.0187398394149
 30
0.0
 10
800.1541028770475
 20
567.0304781472344
 30
0.0
 11
800.1541028770475
 21
567.0304781472344
 31
0.0
 11
800.6451961505441
 21
567.1042585643302
 31
0.0
 11
801.1265349065043
 21
567.2262660883675
 31
0.0
 11
801.5996666594003
 21
567.3966218521482
 31
0.0
 11
802.0541053819019
 21
567.6117565452698
 31
0.0
 11
802.4944525441424
 21
567.8735711514673
 31
0.0
 11
802.9085555719271
 21
568.1750258323195
 31
0.0
 11
803.3023557312697
 21
568.520165702747
 31
0.0
 11
803.6639743303276
 21
568.8987581375743
 31
0.0
 11
803.999042523325
 21
569.3164112043691
 31
0.0
 11
804.2975452590158
 21
569.7608321316525
 31
0.0
 11
804.5636703558967
 21
570.2379446817549
 31
0.0
 11
804.7901841825143
 21
570.7350130097866
 31
0.0
 11
804.9794142868769
 21
571.2567736917864
 31
0.0
 11
805.1270739924555
 21
571.791738898241
 31
0.0
 11
805.2339087081239
 21
572.3420850009734
 31
0.0
 11
805.2980885274535
 21
572.8989955645752
 31
0.0
 11
805.319588983858
 21
573.4611301872474
 31
0.0
 11
805.2980885274534
 21
574.0232648099195
 31
0.0
 11
805.2339087081239
 21
574.5801753735211
 31
0.0
 11
805.1270739924555
 21
575.1305214762537
 31
0.0
 11
804.9794142868768
 21
575.6654866827082
 31
0.0
 11
804.7901841825142
 21
576.1872473647079
 31
0.0
 11
804.5636703558967
 21
576.6843156927396
 31
0.0
 11
804.2975452590158
 21
577.1614282428423
 31
0.0
 11
803.999042523325
 21
577.6058491701257
 31
0.0
 11
803.6639743303276
 21
578.0235022369204
 31
0.0
 11
803.3023557312697
 21
578.4020946717476
 31
0.0
 11
802.9085555719271
 21
578.7472345421752
 31
0.0
 11
802.4944525441425
 21
579.0486892230273
 31
0.0
 11
802.054105381902
 21
579.3105038292249
 31
0.0
 11
801.5996666594006
 21
579.5256385223464
 31
0.0
 11
801.1265349065043
 21
579.6959942861271
 31
0.0
 11
800.6451961505441
 21
579.8180018101643
 31
0.0
 11
800.1541028770477
 21
579.8917822272601
 31
0.0
 11
799.6603253577607
 21
579.916505854085
 31
0.0
 11
799.1665478384734
 21
579.8917822272601
 31
0.0
 11
798.6754545649767
 21
579.8180018101643
 31
0.0
 11
798.1941158090167
 21
579.6959942861271
 31
0.0
 11
797.7209840561204
 21
579.5256385223463
 31
0.0
 11
797.266545333619
 21
579.3105038292249
 31
0.0
 11
796.8261981713785
 21
579.0486892230274
 31
0.0
 11
796.4120951435939
 21
578.7472345421752
 31
0.0
 11
796.0182949842512
 21
578.4020946717476
 31
0.0
 11
795.6566763851931
 21
578.0235022369203
 31
0.0
 11
795.3216081921959
 21
577.6058491701256
 31
0.0
 11
795.0231054565049
 21
577.1614282428423
 31
0.0
 11
794.7569803596241
 21
576.6843156927396
 31
0.0
 11
794.5304665330066
 21
576.1872473647079
 31
0.0
 11
794.341236428644
 21
575.6654866827081
 31
0.0
 11
794.1935767230655
 21
575.1305214762538
 31
0.0
 11
794.086742007397
 21
574.5801753735211
 31
0.0
 11
794.0225621880675
 21
574.0232648099195
 31
0.0
 11
794.001061731663
 21
573.4611301872474
 31
0.0
 11
794.0225621880675
 21
572.8989955645752
 31
0.0
 11
794.086742007397
 21
572.3420850009735
 31
0.0
 11
794.1935767230655
 21
571.791738898241
 31
0.0
 11
794.3412364286442
 21
571.2567736917866
 31
0.0
 11
794.5304665330066
 21
570.7350130097866
 31
0.0
 11
794.7569803596241
 21
570.237944681755
 31
0.0
 11
795.0231054565051
 21
569.7608321316525
 31
0.0
 11
795.321608192196
 21
569.3164112043691
 31
0.0
 11
795.6566763851934
 21
568.8987581375743
 31
0.0
 11
796.0182949842512
 21
568.520165702747
 31
0.0
 11
796.4120951435938
 21
568.1750258323195
 31
0.0
 11
796.8261981713786
 21
567.8735711514673
 31
0.0
 11
797.266545333619
 21
567.6117565452697
 31
0.0
 11
797.7209840561206
 21
567.3966218521483
 31
0.0
 11
798.1941158090167
 21
567.2262660883675
 31
0.0
 11
798.6754545649768
 21
567.1042585643303
 31
0.0
 11
799.1665478384734
 21
567.0304781472344
 31
0.0
 11
799.6603253577605
 21
567.0057545204096
 31
0.0
 11
800.1541028770475
 21
567.0304781472344
 31
0.0
  0
SPLINE
  5
352
330
1F
100
AcDbEntity
  8
1
  6
Continuous
 62
     7
100
AcDbSpline
210
0.0
220
0.0
230
1.0
 70
    11
 71
     3
 72
    79
 73
    75
 74
    73
 42
0.0000000001
 43
0.0000000001
 44
0.00000001
 40
0.0
 40
0.0
 40
0.0
 40
0.0
 40
0.4966046246465821
 40
0.9931656318864151
 40
1.496032156773272
 40
1.998821863005736
 40
2.511123054993125
 40
3.02333028085795
 40
3.546971470659683
 40
4.070517307137232
 40
4.605965510198621
 40
5.141328792299912
 40
5.687642761236661
 40
6.233889442124567
 40
6.788904974950348
 40
7.343874488318892
 40
7.904494225096707
 40
8.465090715506914
 40
9.027636361328087
 40
9.590182007149263
 40
10.15077849755968
 40
10.7113982343375
 40
11.26636774770596
 40
11.82138328053185
 40
12.36762996141971
 40
12.91394393035626
 40
13.44930721245764
 40
13.98475541551894
 40
14.50830125199657
 40
15.03194244179831
 40
15.54414966766304
 40
16.05645085965037
 40
16.55924056588274
 40
17.06210709076984
 40
17.5586680980097
 40
18.05527272265616
 40
18.54966881515339
 40
19.04406490765096
 40
19.54066953229777
 40
20.03723053953738
 40
20.54009706442445
 40
21.04288677065686
 40
21.55518796264419
 40
22.06739518850893
 40
22.59103637831075
 40
23.11458221478846
 40
23.65003041784969
 40
24.18539369995104
 40
24.73170766888769
 40
25.27795434977555
 40
25.8329698826015
 40
26.38793939596993
 40
26.94855913274777
 40
27.50915562315808
 40
28.07170126897925
 40
28.63424691480042
 40
29.19484340521062
 40
29.75546314198856
 40
30.31043265535692
 40
30.86544818818273
 40
31.41169486907059
 40
31.95800883800739
 40
32.49337212010884
 40
33.02882032317014
 40
33.55236615964761
 40
34.07600734944942
 40
34.58821457531434
 40
35.10051576730157
 40
35.60330547353409
 40
36.10617199842099
 40
36.60273300566071
 40
37.0993376303074
 40
37.59373372280475
 40
38.0881298153021
 40
38.0881298153021
 40
38.0881298153021
 40
38.0881298153021
 10
800.1541028770475
 20
564.8917822272603
 30
0.0
 10
800.3184202853934
 20
564.8706224442833
 30
0.0
 10
800.6470406698811
 20
564.8283047368196
 30
0.0
 10
801.1308506397751
 20
564.7024987785832
 30
0.0
 10
801.6027991055112
 20
564.5333388535639
 30
0.0
 10
802.0606371258713
 20
564.3159736684252
 30
0.0
 10
802.4988284940824
 20
564.0553728692423
 30
0.0
 10
802.9163939618857
 20
563.7509194933808
 30
0.0
 10
803.3077198552131
 20
563.4077228606079
 30
0.0
 10
803.6723116441394
 20
563.0255203244669
 30
0.0
 10
804.0051372747414
 20
562.610350015468
 30
0.0
 10
804.3057977179241
 20
562.1622002914311
 30
0.0
 10
804.5702732669799
 20
561.6876700271895
 30
0.0
 10
804.7980518986542
 20
561.1872987558272
 30
0.0
 10
804.9863444991586
 20
560.6677057902929
 30
0.0
 10
805.1345212910482
 20
560.1303320809832
 30
0.0
 10
805.2410203400525
 20
559.5812784721004
 30
0.0
 10
805.3052747009061
 20
559.0231630120809
 30
0.0
 10
805.3267585461849
 20
558.4611301872494
 30
0.0
 10
805.3052747009065
 20
557.8990973624061
 30
0.0
 10
805.24102034005
 20
557.34098190242
 30
0.0
 10
805.1345212910575
 20
556.7919282934159
 30
0.0
 10
804.9863444991233
 20
556.2545545845539
 30
0.0
 10
804.7980518987849
 20
555.7349616173606
 30
0.0
 10
804.5702732665004
 20
555.2345903520968
 30
0.0
 10
804.3057977197004
 20
554.76006006532
 30
0.0
 10
804.0051372682586
 20
554.3119104237774
 30
0.0
 10
803.6723116681255
 20
553.8967398104396
 30
0.0
 10
803.3077197678971
 20
553.5145383860485
 30
0.0
 10
802.9163942850551
 20
553.1713376531143
 30
0.0
 10
802.4988273171301
 20
552.8668992613107
 30
0.0
 10
802.0606414879699
 20
552.6062431349976
 30
0.0
 10
801.6027831602804
 20
552.3890807907812
 30
0.0
 10
801.1309098801148
 20
552.2191698703887
 30
0.0
 10
800.6468226491238
 20
552.0961333504805
 30
0.0
 10
800.1556461987345
 20
552.0224559613436
 30
0.0
 10
799.6603253577607
 20
551.9974224102568
 30
0.0
 10
799.1650045167864
 20
552.0224559613432
 30
0.0
 10
798.6738280663974
 20
552.0961333504807
 30
0.0
 10
798.1897408354057
 20
552.2191698703888
 30
0.0
 10
797.7178675552406
 20
552.3890807907812
 30
0.0
 10
797.2600092275513
 20
552.6062431349975
 30
0.0
 10
796.8218233983907
 20
552.8668992613109
 30
0.0
 10
796.4042564304655
 20
553.1713376531138
 30
0.0
 10
796.0129309476239
 20
553.5145383860487
 30
0.0
 10
795.6483390473952
 20
553.8967398104395
 30
0.0
 10
795.3155134472622
 20
554.3119104237778
 30
0.0
 10
795.0148529958201
 20
554.7600600653196
 30
0.0
 10
794.7503774490205
 20
555.2345903520969
 30
0.0
 10
794.522598816736
 20
555.7349616173607
 30
0.0
 10
794.3343062163976
 20
556.2545545845541
 30
0.0
 10
794.1861294244634
 20
556.7919282934162
 30
0.0
 10
794.079630375471
 20
557.3409819024199
 30
0.0
 10
794.0153760146141
 20
557.8990973624066
 30
0.0
 10
793.9938921693365
 20
558.4611301872476
 30
0.0
 10
794.0153760146142
 20
559.0231630120875
 30
0.0
 10
794.0796303754712
 20
559.5812784720765
 30
0.0
 10
794.1861294244626
 20
560.1303320810717
 30
0.0
 10
794.3343062164001
 20
560.6677057899657
 30
0.0
 10
794.5225988167269
 20
561.1872987570405
 30
0.0
 10
794.7503774490546
 20
561.687670022741
 30
0.0
 10
795.0148529956935
 20
562.1622003079038
 30
0.0
 10
795.3155134477262
 20
562.6103499553553
 30
0.0
 10
795.6483390456772
 20
563.0255205468922
 30
0.0
 10
796.0129309538787
 20
563.4077220509237
 30
0.0
 10
796.4042564073152
 20
563.7509224901414
 30
0.0
 10
796.8218234827025
 20
564.0553619553348
 30
0.0
 10
797.2600089150701
 20
564.3160141182627
 30
0.0
 10
797.7178686974849
 20
564.5331909930844
 30
0.0
 10
798.189736591696
 20
564.7030481155678
 30
0.0
 10
798.6738436844175
 20
564.8262830255023
 30
0.0
 10
799.1649463087592
 20
564.8992229989412
 30
0.0
 10
799.6605415237631
 20
564.9269971507183
 30
0.0
 10
799.9895824259526
 20
564.9035205350796
 30
0.0
 10
800.1541028770475
 20
564.8917822272603
 30
0.0
 11
800.1541028770475
 21
564.8917822272603
 31
0.0
 11
800.6451961505441
 21
564.8180018101643
 31
0.0
 11
801.1265349065043
 21
564.6959942861271
 31
0.0
 11
801.5996666594003
 21
564.5256385223464
 31
0.0
 11
802.0541053819019
 21
564.3105038292249
 31
0.0
 11
802.4944525441424
 21
564.0486892230273
 31
0.0
 11
802.9085555719271
 21
563.7472345421751
 31
0.0
 11
803.3023557312697
 21
563.4020946717476
 31
0.0
 11
803.6639743303276
 21
563.0235022369204
 31
0.0
 11
803.999042523325
 21
562.6058491701256
 31
0.0
 11
804.2975452590158
 21
562.1614282428423
 31
0.0
 11
804.5636703558967
 21
561.6843156927395
 31
0.0
 11
804.7901841825143
 21
561.1872473647079
 31
0.0
 11
804.9794142868769
 21
560.6654866827082
 31
0.0
 11
805.1270739924555
 21
560.1305214762537
 31
0.0
 11
805.2339087081239
 21
559.5801753735211
 31
0.0
 11
805.2980885274535
 21
559.0232648099195
 31
0.0
 11
805.319588983858
 21
558.4611301872474
 31
0.0
 11
805.2980885274534
 21
557.8989955645752
 31
0.0
 11
805.2339087081239
 21
557.3420850009734
 31
0.0
 11
805.1270739924555
 21
556.7917388982409
 31
0.0
 11
804.9794142868768
 21
556.2567736917864
 31
0.0
 11
804.7901841825142
 21
555.7350130097866
 31
0.0
 11
804.5636703558967
 21
555.237944681755
 31
0.0
 11
804.2975452590158
 21
554.7608321316525
 31
0.0
 11
803.999042523325
 21
554.3164112043691
 31
0.0
 11
803.6639743303276
 21
553.8987581375743
 31
0.0
 11
803.3023557312697
 21
553.520165702747
 31
0.0
 11
802.9085555719271
 21
553.1750258323195
 31
0.0
 11
802.4944525441425
 21
552.8735711514673
 31
0.0
 11
802.054105381902
 21
552.6117565452698
 31
0.0
 11
801.5996666594006
 21
552.3966218521483
 31
0.0
 11
801.1265349065043
 21
552.2262660883675
 31
0.0
 11
800.6451961505441
 21
552.1042585643302
 31
0.0
 11
800.1541028770477
 21
552.0304781472344
 31
0.0
 11
799.6603253577607
 21
552.0057545204096
 31
0.0
 11
799.1665478384734
 21
552.0304781472344
 31
0.0
 11
798.6754545649767
 21
552.1042585643303
 31
0.0
 11
798.1941158090167
 21
552.2262660883675
 31
0.0
 11
797.7209840561204
 21
552.3966218521482
 31
0.0
 11
797.266545333619
 21
552.6117565452698
 31
0.0
 11
796.8261981713785
 21
552.8735711514673
 31
0.0
 11
796.4120951435939
 21
553.1750258323195
 31
0.0
 11
796.0182949842512
 21
553.520165702747
 31
0.0
 11
795.6566763851931
 21
553.8987581375743
 31
0.0
 11
795.3216081921959
 21
554.3164112043691
 31
0.0
 11
795.0231054565049
 21
554.7608321316524
 31
0.0
 11
794.7569803596241
 21
555.237944681755
 31
0.0
 11
794.5304665330066
 21
555.7350130097866
 31
0.0
 11
794.341236428644
 21
556.2567736917865
 31
0.0
 11
794.1935767230655
 21
556.791738898241
 31
0.0
 11
794.086742007397
 21
557.3420850009735
 31
0.0
 11
794.0225621880675
 21
557.8989955645752
 31
0.0
 11
794.001061731663
 21
558.4611301872474
 31
0.0
 11
794.0225621880675
 21
559.0232648099195
 31
0.0
 11
794.086742007397
 21
559.5801753735211
 31
0.0
 11
794.1935767230655
 21
560.1305214762538
 31
0.0
 11
794.3412364286442
 21
560.6654866827081
 31
0.0
 11
794.5304665330066
 21
561.1872473647079
 31
0.0
 11
794.7569803596241
 21
561.6843156927395
 31
0.0
 11
795.0231054565051
 21
562.1614282428423
 31
0.0
 11
795.321608192196
 21
562.6058491701257
 31
0.0
 11
795.6566763851934
 21
563.0235022369204
 31
0.0
 11
796.0182949842512
 21
563.4020946717476
 31
0.0
 11
796.4120951435938
 21
563.7472345421752
 31
0.0
 11
796.8261981713786
 21
564.0486892230274
 31
0.0
 11
797.266545333619
 21
564.3105038292249
 31
0.0
 11
797.7209840561206
 21
564.5256385223463
 31
0.0
 11
798.1941158090167
 21
564.6959942861271
 31
0.0
 11
798.6754545649768
 21
564.8180018101643
 31
0.0
 11
799.1665478384734
 21
564.8917822272603
 31
0.0
 11
799.6603253577605
 21
564.916505854085
 31
0.0
 11
800.1541028770475
 21
564.8917822272603
 31
0.0
  0
SPLINE
  5
353
330
1F
100
AcDbEntity
  8
1
  6
Continuous
 62
     7
100
AcDbSpline
210
0.0
220
0.0
230
1.0
 70
     8
 71
     3
 72
    23
 73
    19
 74
    17
 42
0.0000000001
 43
0.0000000001
 44
0.00000001
 40
0.0
 40
0.0
 40
0.0
 40
0.0
 40
0.3290984911710879
 40
0.6581912042938158
 40
0.988293897279056
 40
1.318385901206292
 40
1.650019377414903
 40
1.981638793903485
 40
2.315139473278232
 40
2.648624623790497
 40
2.984100302405063
 40
3.31956092098355
 40
3.656881427611467
 40
3.994189062443524
 40
4.33300541458048
 40
4.671812429937215
 40
4.708744023191148
 40
4.745650148224526
 40
4.745650148224526
 40
4.745650148224526
 40
4.745650148224526
 10
833.9375067033743
 20
562.0760152802044
 30
0.0
 10
834.0465406105984
 20
562.0887506333477
 30
0.0
 10
834.2646065107161
 20
562.114221116037
 30
0.0
 10
834.5859380315605
 20
562.1898315023789
 30
0.0
 10
834.8998967327602
 20
562.2918138531985
 30
0.0
 10
835.2040695972814
 20
562.4225709468821
 30
0.0
 10
835.4959406312363
 20
562.5798309079594
 30
0.0
 10
835.7735530883263
 20
562.7631688742011
 30
0.0
 10
836.0345171439703
 20
562.9704988339837
 30
0.0
 10
836.2771164516805
 20
563.2009089982813
 30
0.0
 10
836.4992799767263
 20
563.4519525710334
 30
0.0
 10
836.6995075051671
 20
563.7224026441014
 30
0.0
 10
836.8761630829891
 20
564.0095208294985
 30
0.0
 10
837.0279626312157
 20
564.3117719989072
 30
0.0
 10
837.1537919598275
 20
564.6262360901869
 30
0.0
 10
837.2231539111299
 20
564.8544422356238
 30
0.0
 10
837.2570380886102
 20
564.9877513270175
 30
0.0
 10
837.2628286578552
 20
565.0116733175717
 30
0.0
 10
837.2657229438316
 20
565.0236301872435
 30
0.0
 11
833.9375067033743
 21
562.0760152802044
 31
0.0
 11
834.263592611804
 21
562.1204427178376
 31
0.0
 11
834.5843315740571
 21
562.1941212895076
 31
0.0
 11
834.8981374405653
 21
562.2965598860478
 31
0.0
 11
835.2014805457059
 21
562.4267278222701
 31
0.0
 11
835.4934060810992
 21
562.5840817047373
 31
0.0
 11
835.7701872329718
 21
562.7667388462903
 31
0.0
 11
836.0312986883012
 21
562.9742081477284
 31
0.0
 11
836.2731738104665
 21
563.2037920558964
 31
0.0
 11
836.49549272714
 21
563.4550254737194
 31
0.0
 11
836.6951744896278
 21
563.7245825555162
 31
0.0
 11
836.8719309721893
 21
564.0118842611572
 31
0.0
 11
837.023393818236
 21
564.3132734560256
 31
0.0
 11
837.1492346078604
 21
564.6278535191925
 31
0.0
 11
837.2478880165755
 21
564.951979572764
 31
0.0
 11
837.2569719856357
 21
564.9877765570838
 31
0.0
 11
837.2657229438316
 21
565.0236301872435
 31
0.0
  0
SPLINE
  5
354
330
1F
100
AcDbEntity
  8
1
  6
Continuous
 62
     7
100
AcDbSpline
210
0.0
220
0.0
230
1.0
 70
     8
 71
     3
 72
    23
 73
    19
 74
    17
 42
0.0000000001
 43
0.0000000001
 44
0.00000001
 40
0.0
 40
0.0
 40
0.0
 40
0.0
 40
0.3712906054236855
 40
0.742574692023718
 40
1.114998243084202
 40
1.487409734694229
 40
1.86156032323718
 40
2.235695049532021
 40
2.611952226262347
 40
2.98819188325066
 40
3.366677264251983
 40
3.74514565444301
 40
4.125712379869441
 40
4.506264583269703
 40
4.888518929270363
 40
5.270762741467469
 40
5.374085376173651
 40
5.477262802238336
 40
5.477262802238336
 40
5.477262802238336
 40
5.477262802238336
 10
834.1090200530659
 20
561.5779236254555
 30
0.0
 10
834.2320326663453
 20
561.5922917161811
 30
0.0
 10
834.4780557331469
 20
561.6210276453689
 30
0.0
 10
834.8405836028016
 20
561.7063316709862
 30
0.0
 10
835.1947934196005
 20
561.8213886821627
 30
0.0
 10
835.5379628049873
 20
561.9689095058237
 30
0.0
 10
835.8672532031204
 20
562.1463310003046
 30
0.0
 10
836.1804569976774
 20
562.3531738342672
 30
0.0
 10
836.4748779954864
 20
562.5870845571723
 30
0.0
 10
836.7485797337919
 20
562.8470344896883
 30
0.0
 10
836.9992259300176
 20
563.1302631224892
 30
0.0
 10
837.2251230256355
 20
563.4353863319395
 30
0.0
 10
837.4244291135013
 20
563.7593143531719
 30
0.0
 10
837.5956813152748
 20
564.1003163757099
 30
0.0
 10
837.7376756922713
 20
564.4550937405447
 30
0.0
 10
837.8218216583738
 20
564.732255572289
 30
0.0
 10
837.8690127467157
 20
564.9227612977581
 30
0.0
 10
837.8836546050108
 20
564.9900229899914
 30
0.0
 10
837.890970386159
 20
565.0236301872557
 30
0.0
 11
834.1090200530659
 21
561.5779236254555
 31
0.0
 11
834.4769118471917
 21
561.6280468884262
 31
0.0
 11
834.8387711892208
 21
561.711171430823
 31
0.0
 11
835.1928085770765
 21
561.8267431807658
 31
0.0
 11
835.5350418239016
 21
561.9735993139395
 31
0.0
 11
835.8643937099863
 21
562.151126771082
 31
0.0
 11
836.1766596249195
 21
562.3572014948854
 31
0.0
 11
836.471246907855
 21
562.591269424713
 31
0.0
 11
836.7441316610673
 21
562.8502871672615
 31
0.0
 11
836.9949530029555
 21
563.1337299976261
 31
0.0
 11
837.2202349914032
 21
563.4378456796533
 31
0.0
 11
837.4196525614726
 21
563.7619809372995
 31
0.0
 11
837.5905337211151
 21
564.1020097725357
 31
0.0
 11
837.7325079453067
 21
564.4569206130317
 31
0.0
 11
837.8438092269339
 21
564.8226012888557
 31
0.0
 11
837.8685461472584
 21
564.9229190420975
 31
0.0
 11
837.890970386159
 21
565.0236301872557
 31
0.0
  0
SPLINE
  5
355
330
1F
100
AcDbEntity
  8
1
  6
Continuous
 62
     7
100
AcDbSpline
210
0.0
220
0.0
230
1.0
 70
     8
 71
     3
 72
    41
 73
    37
 74
    35
 42
0.0000000001
 43
0.0000000001
 44
0.00000001
 40
0.0
 40
0.0
 40
0.0
 40
0.0
 40
0.1031774260647961
 40
0.2065000607708395
 40
0.5887438729679787
 40
0.9709982189684911
 40
1.351550422368905
 40
1.732117147795261
 40
2.110585537986447
 40
2.48907091898761
 40
2.865310575975841
 40
3.241567752706255
 40
3.615702479001002
 40
3.989853067544053
 40
4.362264559154334
 40
4.734688110214601
 40
5.105972196814633
 40
5.477262802238334
 40
5.848156864971791
 40
6.219050927705254
 40
6.590341533128955
 40
6.961625619728766
 40
7.334049170789106
 40
7.706460662399387
 40
8.080611250942537
 40
8.454745977237284
 40
8.831003153967787
 40
9.207242810955936
 40
9.585728191957259
 40
9.964196582148286
 40
10.34476330757484
 40
10.72531551097505
 40
11.10756985697571
 40
11.48981366917285
 40
11.59313630388178
 40
11.69631372994959
 40
11.69631372994959
 40
11.69631372994959
 40
11.69631372994959
 10
837.890970386159
 20
566.898630187239
 30
0.0
 10
837.8836546050106
 20
566.9322373845025
 30
0.0
 10
837.8690127467155
 20
566.9994990767348
 30
0.0
 10
837.821821658375
 20
567.1900048022201
 30
0.0
 10
837.7376756922508
 20
567.4671666337288
 30
0.0
 10
837.5956813153473
 20
567.8219439995776
 30
0.0
 10
837.4244291132354
 20
568.1629460183857
 30
0.0
 10
837.2251230266267
 20
568.486874053491
 30
0.0
 10
836.999225926341
 20
568.7919972114413
 30
0.0
 10
836.7485797474825
 20
569.075226035849
 30
0.0
 10
836.4748779447277
 20
569.3351752573278
 30
0.0
 10
836.1804571867053
 20
569.5690886256964
 30
0.0
 10
835.8672525020658
 20
569.7759216397362
 30
0.0
 10
835.5379654168389
 20
569.9533796841583
 30
0.0
 10
835.1947837222128
 20
570.1007647050253
 30
0.0
 10
834.8406197540935
 20
570.2163275459047
 30
0.0
 10
834.4779212717929
 20
570.2997492720889
 30
0.0
 10
834.1096530834537
 20
570.3498559190606
 30
0.0
 10
833.7385063742306
 20
570.3667643094698
 30
0.0
 10
833.3673596650075
 20
570.3498559190605
 30
0.0
 10
832.9990914766685
 20
570.2997492720888
 30
0.0
 10
832.636392994368
 20
570.2163275459046
 30
0.0
 10
832.2822290262482
 20
570.1007647050251
 30
0.0
 10
831.9390473316228
 20
569.9533796841582
 30
0.0
 10
831.6097602463957
 20
569.7759216397362
 30
0.0
 10
831.2965555617553
 20
569.5690886256962
 30
0.0
 10
831.0021348037335
 20
569.3351752573282
 30
0.0
 10
830.7284330009791
 20
569.0752260358488
 30
0.0
 10
830.4777868221199
 20
568.7919972114412
 30
0.0
 10
830.2518897218347
 20
568.486874053491
 30
0.0
 10
830.0525836352258
 20
568.1629460183856
 30
0.0
 10
829.881331433114
 20
567.8219439995773
 30
0.0
 10
829.7393370562101
 20
567.4671666337289
 30
0.0
 10
829.6551910900859
 20
567.1900048022188
 30
0.0
 10
829.6080000017448
 20
566.9994990767318
 30
0.0
 10
829.5933581434495
 20
566.9322373844977
 30
0.0
 10
829.586042362301
 20
566.898630187233
 30
0.0
 11
837.890970386159
 21
566.898630187239
 31
0.0
 11
837.8685461472584
 21
566.9993413323972
 31
0.0
 11
837.843809226934
 21
567.0996590856389
 31
0.0
 11
837.7325079453067
 21
567.4653397614629
 31
0.0
 11
837.5905337211152
 21
567.8202506019588
 31
0.0
 11
837.4196525614728
 21
568.1602794371952
 31
0.0
 11
837.2202349914032
 21
568.4844146948412
 31
0.0
 11
836.9949530029554
 21
568.7885303768685
 31
0.0
 11
836.7441316610673
 21
569.071973207233
 31
0.0
 11
836.4712469078551
 21
569.3309909497815
 31
0.0
 11
836.1766596249195
 21
569.5650588796091
 31
0.0
 11
835.8643937099864
 21
569.7711336034125
 31
0.0
 11
835.5350418239016
 21
569.948661060555
 31
0.0
 11
835.1928085770762
 21
570.0955171937288
 31
0.0
 11
834.8387711892208
 21
570.2110889436716
 31
0.0
 11
834.4769118471917
 21
570.2942134860684
 31
0.0
 11
834.1090200530659
 21
570.3443367490393
 31
0.0
 11
833.7385063742306
 21
570.3611301872472
 31
0.0
 11
833.3679926953953
 21
570.3443367490391
 31
0.0
 11
833.0001009012696
 21
570.2942134860683
 31
0.0
 11
832.6382415592407
 21
570.2110889436715
 31
0.0
 11
832.2842041713851
 21
570.0955171937288
 31
0.0
 11
831.9419709245598
 21
569.948661060555
 31
0.0
 11
831.6126190384748
 21
569.7711336034125
 31
0.0
 11
831.3003531235418
 21
569.5650588796091
 31
0.0
 11
831.0057658406061
 21
569.3309909497815
 31
0.0
 11
830.7328810873939
 21
569.071973207233
 31
0.0
 11
830.4820597455057
 21
568.7885303768684
 31
0.0
 11
830.256777757058
 21
568.4844146948412
 31
0.0
 11
830.0573601869884
 21
568.160279437195
 31
0.0
 11
829.886479027346
 21
567.8202506019588
 31
0.0
 11
829.7445048031544
 21
567.4653397614628
 31
0.0
 11
829.6332035215271
 21
567.0996590856388
 31
0.0
 11
829.6084666012022
 21
566.9993413323942
 31
0.0
 11
829.586042362301
 21
566.898630187233
 31
0.0
  0
SPLINE
  5
356
330
1F
100
AcDbEntity
  8
1
  6
Continuous
 62
     7
100
AcDbSpline
210
0.0
220
0.0
230
1.0
 70
     8
 71
     3
 72
    25
 73
    21
 74
    19
 42
0.0000000001
 43
0.0000000001
 44
0.00000001
 40
0.0
 40
0.0
 40
0.0
 40
0.0
 40
0.0369061250443257
 40
0.0738377183093986
 40
0.4126447336659158
 40
0.7514610858029351
 40
1.088768720634942
 40
1.426089227262956
 40
1.761549845841374
 40
2.097025524456101
 40
2.430510674968366
 40
2.764011354343043
 40
3.095630770831687
 40
3.427264247040144
 40
3.75735625096738
 40
4.087458943952728
 40
4.41655165707532
 40
4.745650148246408
 40
5.074397158396489
 40
5.403144168546565
 40
5.403144168546565
 40
5.403144168546565
 40
5.403144168546565
 10
829.9524707595222
 20
565.0236301872649
 30
0.0
 10
829.9553650454994
 20
565.0116733175895
 30
0.0
 10
829.9611556147461
 20
564.9877513270285
 30
0.0
 10
829.9950397922275
 20
564.8544422356223
 30
0.0
 10
830.064401743551
 20
564.6262360903719
 30
0.0
 10
830.1902310720748
 20
564.3117719982533
 30
0.0
 10
830.3420306206226
 20
564.0095208319158
 30
0.0
 10
830.5186861972504
 20
563.7224026351036
 30
0.0
 10
830.7189137301251
 20
563.4519526044079
 30
0.0
 10
830.9410772386731
 20
563.2009088740093
 30
0.0
 10
831.183676607607
 20
562.9704992947245
 30
0.0
 10
831.4446404354623
 20
562.7631671583611
 30
0.0
 10
831.7222537381022
 20
562.5798372715574
 30
0.0
 10
832.0141216249039
 20
562.4225472386552
 30
0.0
 10
832.3183061828005
 20
562.2919018780619
 30
0.0
 10
832.6322213292499
 20
562.1895033508565
 30
0.0
 10
832.9537149265451
 20
562.1154416449712
 30
0.0
 10
833.2800939979481
 20
562.0714753045568
 30
0.0
 10
833.6092157891585
 20
562.0548241177086
 30
0.0
 10
833.8280763986356
 20
562.0689515593724
 30
0.0
 10
833.9375067033743
 20
562.0760152802044
 30
0.0
 11
829.9524707595222
 21
565.0236301872649
 31
0.0
 11
829.9612217177205
 21
564.9877765570944
 31
0.0
 11
829.9703056867834
 21
564.9519795727639
 31
0.0
 11
830.0689590954985
 21
564.6278535191926
 31
0.0
 11
830.1947998851229
 21
564.3132734560256
 31
0.0
 11
830.3462627311697
 21
564.0118842611573
 31
0.0
 11
830.5230192137311
 21
563.7245825555162
 31
0.0
 11
830.7227009762188
 21
563.4550254737194
 31
0.0
 11
830.9450198928925
 21
563.2037920558963
 31
0.0
 11
831.1868950150578
 21
562.9742081477283
 31
0.0
 11
831.4480064703871
 21
562.7667388462903
 31
0.0
 11
831.7247876222597
 21
562.5840817047372
 31
0.0
 11
832.0167131576529
 21
562.4267278222701
 31
0.0
 11
832.3200562627935
 21
562.2965598860478
 31
0.0
 11
832.6338621293019
 21
562.1941212895076
 31
0.0
 11
832.9546010915548
 21
562.1204427178377
 31
0.0
 11
833.2806869999845
 21
562.0760152802045
 31
0.0
 11
833.6090968516794
 21
562.0611301872474
 31
0.0
 11
833.9375067033743
 21
562.0760152802044
 31
0.0
  0
SPLINE
  5
357
330
1F
100
AcDbEntity
  8
1
  6
Continuous
 62
     7
100
AcDbSpline
210
0.0
220
0.0
230
1.0
 70
     8
 71
     3
 72
    25
 73
    21
 74
    19
 42
0.0000000001
 43
0.0000000001
 44
0.00000001
 40
0.0
 40
0.0
 40
0.0
 40
0.0
 40
0.1031774260662266
 40
0.2065000607739242
 40
0.588743872971172
 40
0.9709982189717901
 40
1.35155042237195
 40
1.73211714779838
 40
2.110585537989499
 40
2.489070918990822
 40
2.865310575979135
 40
3.241567752709461
 40
3.615702479004207
 40
3.989853067547259
 40
4.362264559157345
 40
4.734688110217829
 40
5.10597219681775
 40
5.477262802241467
 40
5.848156864974929
 40
6.219050927708397
 40
6.219050927708397
 40
6.219050927708397
 40
6.219050927708397
 10
829.5860423623014
 20
565.0236301872587
 30
0.0
 10
829.5933581434497
 20
564.9900229899945
 30
0.0
 10
829.6080000017453
 20
564.9227612977612
 30
0.0
 10
829.6551910900863
 20
564.7322555722762
 30
0.0
 10
829.7393370562113
 20
564.4550937407499
 30
0.0
 10
829.881331433109
 20
564.1003163749738
 30
0.0
 10
830.0525836352454
 20
563.7593143558984
 30
0.0
 10
830.2518897217633
 20
563.4353863217883
 30
0.0
 10
830.4777868223843
 20
563.1302631601425
 30
0.0
 10
830.7284329999964
 20
562.8470343494842
 30
0.0
 10
831.0021348073759
 20
562.5870850769826
 30
0.0
 10
831.2965555481911
 20
562.3531718984474
 30
0.0
 10
831.6097602967022
 20
562.1463381797488
 30
0.0
 10
831.9390471442009
 20
561.9688827580804
 30
0.0
 10
832.2822297221148
 20
561.8214879922655
 30
0.0
 10
832.6363904002199
 20
561.7059614487561
 30
0.0
 10
832.9991011253576
 20
561.6224046523715
 30
0.0
 10
833.3673236674583
 20
561.5728016016478
 30
0.0
 10
833.7386405601042
 20
561.5540156472546
 30
0.0
 10
833.9855602220788
 20
561.5699542993885
 30
0.0
 10
834.1090200530659
 20
561.5779236254555
 30
0.0
 11
829.5860423623014
 21
565.0236301872587
 31
0.0
 11
829.6084666012025
 21
564.9229190420991
 31
0.0
 11
829.6332035215273
 21
564.8226012888558
 31
0.0
 11
829.7445048031547
 21
564.4569206130317
 31
0.0
 11
829.8864790273461
 21
564.1020097725357
 31
0.0
 11
830.0573601869886
 21
563.7619809372997
 31
0.0
 11
830.256777757058
 21
563.4378456796534
 31
0.0
 11
830.4820597455057
 21
563.1337299976261
 31
0.0
 11
830.7328810873939
 21
562.8502871672615
 31
0.0
 11
831.0057658406063
 21
562.591269424713
 31
0.0
 11
831.3003531235418
 21
562.3572014948854
 31
0.0
 11
831.6126190384748
 21
562.151126771082
 31
0.0
 11
831.9419709245597
 21
561.9735993139395
 31
0.0
 11
832.2842041713849
 21
561.8267431807659
 31
0.0
 11
832.6382415592406
 21
561.7111714308231
 31
0.0
 11
833.0001009012696
 21
561.6280468884263
 31
0.0
 11
833.3679926953953
 21
561.5779236254554
 31
0.0
 11
833.7385063742306
 21
561.5611301872473
 31
0.0
 11
834.1090200530659
 21
561.5779236254555
 31
0.0
  0
SPLINE
  5
358
330
1F
100
AcDbEntity
  8
1
  6
Continuous
 62
     7
100
AcDbSpline
210
0.0
220
0.0
230
1.0
 70
     8
 71
     3
 72
    41
 73
    37
 74
    35
 42
0.0000000001
 43
0.0000000001
 44
0.00000001
 40
0.0
 40
0.0
 40
0.0
 40
0.0
 40
0.0369061250322194
 40
0.0738377182847465
 40
0.4126447336413394
 40
0.7514610857782955
 40
1.088768720610403
 40
1.426089227238418
 40
1.761549845816904
 40
2.097025524431555
 40
2.430510674943738
 40
2.764011354318485
 40
3.095630770807034
 40
3.427264247015691
 40
3.757356250942823
 40
4.087458943928209
 40
4.416551657050912
 40
4.745650148221887
 40
5.074397158371859
 40
5.403144168522281
 40
5.732242659693272
 40
6.061335372815863
 40
6.391438065801069
 40
6.72153006972826
 40
7.053163545936771
 40
7.384782962425257
 40
7.718283641800005
 40
8.05176879231227
 40
8.387244470926987
 40
8.722705089505405
 40
9.06002559613348
 40
9.397333230965536
 40
9.736149583102449
 40
10.07495659845908
 40
10.11188819170843
 40
10.14879431673751
 40
10.14879431673751
 40
10.14879431673751
 40
10.14879431673751
 10
837.265722943831
 20
566.8986301872536
 30
0.0
 10
837.2628286578547
 20
566.910587056925
 30
0.0
 10
837.2570380886098
 20
566.934509047478
 30
0.0
 10
837.2231539111303
 20
567.0678181388768
 30
0.0
 10
837.1537919598095
 20
567.2960242841085
 30
0.0
 10
837.027962631279
 20
567.6104883762915
 30
0.0
 10
836.8761630827532
 20
567.9127395423923
 30
0.0
 10
836.6995075060454
 20
568.1998577400865
 30
0.0
 10
836.4992799734673
 20
568.4703077675067
 30
0.0
 10
836.2771164638153
 20
568.7213515100924
 30
0.0
 10
836.0345170989798
 20
568.9517610441524
 30
0.0
 10
835.7735532558738
 20
569.1590933487772
 30
0.0
 10
835.4959400098464
 20
569.3424226109971
 30
0.0
 10
835.2040719123319
 20
569.4997149686129
 30
0.0
 10
834.8998881373484
 20
569.6303516916381
 30
0.0
 10
834.5859700747508
 20
569.7327823915124
 30
0.0
 10
834.2644873290611
 20
569.8067243760838
 30
0.0
 10
833.9380677984915
 20
569.8511370858997
 30
0.0
 10
833.6090968516796
 20
569.8661240683082
 30
0.0
 10
833.2801259048666
 20
569.8511370859
 30
0.0
 10
832.9537063742978
 20
569.8067243760837
 30
0.0
 10
832.6322236286073
 20
569.7327823915125
 30
0.0
 10
832.3183055660105
 20
569.6303516916379
 30
0.0
 10
832.0141217910273
 20
569.499714968613
 30
0.0
 10
831.7222536935124
 20
569.3424226109968
 30
0.0
 10
831.4446404474849
 20
569.1590933487773
 30
0.0
 10
831.1836766043789
 20
568.9517610441525
 30
0.0
 10
830.9410772395439
 20
568.7213515100921
 30
0.0
 10
830.7189137298915
 20
568.4703077675069
 30
0.0
 10
830.5186861973135
 20
568.1998577400867
 30
0.0
 10
830.3420306206052
 20
567.9127395423925
 30
0.0
 10
830.1902310720797
 20
567.6104883762914
 30
0.0
 10
830.0644017435499
 20
567.2960242841085
 30
0.0
 10
829.9950397922285
 20
567.0678181388778
 30
0.0
 10
829.9611556147499
 20
566.9345090474812
 30
0.0
 10
829.9553650455054
 20
566.9105870569302
 30
0.0
 10
829.9524707595293
 20
566.8986301872599
 30
0.0
 11
837.265722943831
 21
566.8986301872536
 31
0.0
 11
837.2569719856352
 21
566.9344838174122
 31
0.0
 11
837.2478880165754
 21
566.9702808017306
 31
0.0
 11
837.1492346078604
 21
567.294406855302
 31
0.0
 11
837.023393818236
 21
567.6089869184689
 31
0.0
 11
836.8719309721892
 21
567.9103761133373
 31
0.0
 11
836.6951744896277
 21
568.1976778189784
 31
0.0
 11
836.4954927271399
 21
568.4672349007752
 31
0.0
 11
836.2731738104664
 21
568.7184683185983
 31
0.0
 11
836.0312986883012
 21
568.9480522267663
 31
0.0
 11
835.7701872329718
 21
569.1555215282044
 31
0.0
 11
835.4934060810994
 21
569.3381786697576
 31
0.0
 11
835.2014805457059
 21
569.4955325522246
 31
0.0
 11
834.8981374405654
 21
569.6257004884469
 31
0.0
 11
834.5843315740569
 21
569.7281390849869
 31
0.0
 11
834.2635926118039
 21
569.8018176566568
 31
0.0
 11
833.9375067033743
 21
569.84624509429
 31
0.0
 11
833.6090968516795
 21
569.8611301872472
 31
0.0
 11
833.2806869999843
 21
569.8462450942901
 31
0.0
 11
832.9546010915547
 21
569.8018176566568
 31
0.0
 11
832.6338621293018
 21
569.7281390849869
 31
0.0
 11
832.3200562627935
 21
569.6257004884468
 31
0.0
 11
832.0167131576529
 21
569.4955325522246
 31
0.0
 11
831.7247876222597
 21
569.3381786697574
 31
0.0
 11
831.4480064703872
 21
569.1555215282044
 31
0.0
 11
831.1868950150579
 21
568.9480522267663
 31
0.0
 11
830.9450198928926
 21
568.7184683185983
 31
0.0
 11
830.7227009762188
 21
568.4672349007753
 31
0.0
 11
830.5230192137311
 21
568.1976778189785
 31
0.0
 11
830.3462627311695
 21
567.9103761133374
 31
0.0
 11
830.1947998851229
 21
567.608986918469
 31
0.0
 11
830.0689590954985
 21
567.2944068553021
 31
0.0
 11
829.9703056867834
 21
566.9702808017307
 31
0.0
 11
829.9612217177244
 21
566.9344838174154
 31
0.0
 11
829.9524707595293
 21
566.8986301872599
 31
0.0
  0
SPLINE
  5
359
330
1F
100
AcDbEntity
  8
1
  6
Continuous
 62
     7
100
AcDbSpline
210
0.0
220
0.0
230
1.0
 70
     8
 71
     3
 72
    41
 73
    37
 74
    35
 42
0.0000000001
 43
0.0000000001
 44
0.00000001
 40
0.0
 40
0.0
 40
0.0
 40
0.0
 40
0.1031774260647961
 40
0.2065000607708395
 40
0.5887438729679787
 40
0.9709982189684911
 40
1.351550422368905
 40
1.732117147795261
 40
2.110585537986447
 40
2.48907091898761
 40
2.865310575975841
 40
3.241567752706255
 40
3.615702479001002
 40
3.989853067544053
 40
4.362264559154334
 40
4.734688110214601
 40
5.105972196814633
 40
5.477262802238334
 40
5.848156864971791
 40
6.219050927705254
 40
6.590341533128955
 40
6.961625619728766
 40
7.334049170789106
 40
7.706460662399387
 40
8.080611250942537
 40
8.454745977237284
 40
8.831003153967787
 40
9.207242810955936
 40
9.585728191957259
 40
9.964196582148286
 40
10.34476330757484
 40
10.72531551097505
 40
11.10756985697571
 40
11.48981366917285
 40
11.59313630388178
 40
11.69631372994959
 40
11.69631372994959
 40
11.69631372994959
 40
11.69631372994959
 10
837.890970386159
 20
566.898630187239
 30
0.0
 10
837.8836546050106
 20
566.9322373845025
 30
0.0
 10
837.8690127467155
 20
566.9994990767348
 30
0.0
 10
837.821821658375
 20
567.1900048022201
 30
0.0
 10
837.7376756922508
 20
567.4671666337288
 30
0.0
 10
837.5956813153473
 20
567.8219439995776
 30
0.0
 10
837.4244291132354
 20
568.1629460183857
 30
0.0
 10
837.2251230266267
 20
568.486874053491
 30
0.0
 10
836.999225926341
 20
568.7919972114413
 30
0.0
 10
836.7485797474825
 20
569.075226035849
 30
0.0
 10
836.4748779447277
 20
569.3351752573278
 30
0.0
 10
836.1804571867053
 20
569.5690886256964
 30
0.0
 10
835.8672525020658
 20
569.7759216397362
 30
0.0
 10
835.5379654168389
 20
569.9533796841583
 30
0.0
 10
835.1947837222128
 20
570.1007647050253
 30
0.0
 10
834.8406197540935
 20
570.2163275459047
 30
0.0
 10
834.4779212717929
 20
570.2997492720889
 30
0.0
 10
834.1096530834537
 20
570.3498559190606
 30
0.0
 10
833.7385063742306
 20
570.3667643094698
 30
0.0
 10
833.3673596650075
 20
570.3498559190605
 30
0.0
 10
832.9990914766685
 20
570.2997492720888
 30
0.0
 10
832.636392994368
 20
570.2163275459046
 30
0.0
 10
832.2822290262482
 20
570.1007647050251
 30
0.0
 10
831.9390473316228
 20
569.9533796841582
 30
0.0
 10
831.6097602463957
 20
569.7759216397362
 30
0.0
 10
831.2965555617553
 20
569.5690886256962
 30
0.0
 10
831.0021348037335
 20
569.3351752573282
 30
0.0
 10
830.7284330009791
 20
569.0752260358488
 30
0.0
 10
830.4777868221199
 20
568.7919972114412
 30
0.0
 10
830.2518897218347
 20
568.486874053491
 30
0.0
 10
830.0525836352258
 20
568.1629460183856
 30
0.0
 10
829.881331433114
 20
567.8219439995773
 30
0.0
 10
829.7393370562101
 20
567.4671666337289
 30
0.0
 10
829.6551910900859
 20
567.1900048022188
 30
0.0
 10
829.6080000017448
 20
566.9994990767318
 30
0.0
 10
829.5933581434495
 20
566.9322373844977
 30
0.0
 10
829.586042362301
 20
566.898630187233
 30
0.0
 11
837.890970386159
 21
566.898630187239
 31
0.0
 11
837.8685461472584
 21
566.9993413323972
 31
0.0
 11
837.843809226934
 21
567.0996590856389
 31
0.0
 11
837.7325079453067
 21
567.4653397614629
 31
0.0
 11
837.5905337211152
 21
567.8202506019588
 31
0.0
 11
837.4196525614728
 21
568.1602794371952
 31
0.0
 11
837.2202349914032
 21
568.4844146948412
 31
0.0
 11
836.9949530029554
 21
568.7885303768685
 31
0.0
 11
836.7441316610673
 21
569.071973207233
 31
0.0
 11
836.4712469078551
 21
569.3309909497815
 31
0.0
 11
836.1766596249195
 21
569.5650588796091
 31
0.0
 11
835.8643937099864
 21
569.7711336034125
 31
0.0
 11
835.5350418239016
 21
569.948661060555
 31
0.0
 11
835.1928085770762
 21
570.0955171937288
 31
0.0
 11
834.8387711892208
 21
570.2110889436716
 31
0.0
 11
834.4769118471917
 21
570.2942134860684
 31
0.0
 11
834.1090200530659
 21
570.3443367490393
 31
0.0
 11
833.7385063742306
 21
570.3611301872472
 31
0.0
 11
833.3679926953953
 21
570.3443367490391
 31
0.0
 11
833.0001009012696
 21
570.2942134860683
 31
0.0
 11
832.6382415592407
 21
570.2110889436715
 31
0.0
 11
832.2842041713851
 21
570.0955171937288
 31
0.0
 11
831.9419709245598
 21
569.948661060555
 31
0.0
 11
831.6126190384748
 21
569.7711336034125
 31
0.0
 11
831.3003531235418
 21
569.5650588796091
 31
0.0
 11
831.0057658406061
 21
569.3309909497815
 31
0.0
 11
830.7328810873939
 21
569.071973207233
 31
0.0
 11
830.4820597455057
 21
568.7885303768684
 31
0.0
 11
830.256777757058
 21
568.4844146948412
 31
0.0
 11
830.0573601869884
 21
568.160279437195
 31
0.0
 11
829.886479027346
 21
567.8202506019588
 31
0.0
 11
829.7445048031544
 21
567.4653397614628
 31
0.0
 11
829.6332035215271
 21
567.0996590856388
 31
0.0
 11
829.6084666012022
 21
566.9993413323942
 31
0.0
 11
829.586042362301
 21
566.898630187233
 31
0.0
  0
SPLINE
  5
35A
330
1F
100
AcDbEntity
  8
1
  6
Continuous
 62
     7
100
AcDbSpline
210
0.0
220
0.0
230
1.0
 70
     8
 71
     3
 72
    23
 73
    19
 74
    17
 42
0.0000000001
 43
0.0000000001
 44
0.00000001
 40
0.0
 40
0.0
 40
0.0
 40
0.0
 40
0.3712906054236855
 40
0.742574692023718
 40
1.114998243084202
 40
1.487409734694229
 40
1.86156032323718
 40
2.235695049532021
 40
2.611952226262347
 40
2.98819188325066
 40
3.366677264251983
 40
3.74514565444301
 40
4.125712379869441
 40
4.506264583269703
 40
4.888518929270363
 40
5.270762741467469
 40
5.374085376173651
 40
5.477262802238336
 40
5.477262802238336
 40
5.477262802238336
 40
5.477262802238336
 10
834.1090200530659
 20
561.5779236254555
 30
0.0
 10
834.2320326663453
 20
561.5922917161811
 30
0.0
 10
834.4780557331469
 20
561.6210276453689
 30
0.0
 10
834.8405836028016
 20
561.7063316709862
 30
0.0
 10
835.1947934196005
 20
561.8213886821627
 30
0.0
 10
835.5379628049873
 20
561.9689095058237
 30
0.0
 10
835.8672532031204
 20
562.1463310003046
 30
0.0
 10
836.1804569976774
 20
562.3531738342672
 30
0.0
 10
836.4748779954864
 20
562.5870845571723
 30
0.0
 10
836.7485797337919
 20
562.8470344896883
 30
0.0
 10
836.9992259300176
 20
563.1302631224892
 30
0.0
 10
837.2251230256355
 20
563.4353863319395
 30
0.0
 10
837.4244291135013
 20
563.7593143531719
 30
0.0
 10
837.5956813152748
 20
564.1003163757099
 30
0.0
 10
837.7376756922713
 20
564.4550937405447
 30
0.0
 10
837.8218216583738
 20
564.732255572289
 30
0.0
 10
837.8690127467157
 20
564.9227612977581
 30
0.0
 10
837.8836546050108
 20
564.9900229899914
 30
0.0
 10
837.890970386159
 20
565.0236301872557
 30
0.0
 11
834.1090200530659
 21
561.5779236254555
 31
0.0
 11
834.4769118471917
 21
561.6280468884262
 31
0.0
 11
834.8387711892208
 21
561.711171430823
 31
0.0
 11
835.1928085770765
 21
561.8267431807658
 31
0.0
 11
835.5350418239016
 21
561.9735993139395
 31
0.0
 11
835.8643937099863
 21
562.151126771082
 31
0.0
 11
836.1766596249195
 21
562.3572014948854
 31
0.0
 11
836.471246907855
 21
562.591269424713
 31
0.0
 11
836.7441316610673
 21
562.8502871672615
 31
0.0
 11
836.9949530029555
 21
563.1337299976261
 31
0.0
 11
837.2202349914032
 21
563.4378456796533
 31
0.0
 11
837.4196525614726
 21
563.7619809372995
 31
0.0
 11
837.5905337211151
 21
564.1020097725357
 31
0.0
 11
837.7325079453067
 21
564.4569206130317
 31
0.0
 11
837.8438092269339
 21
564.8226012888557
 31
0.0
 11
837.8685461472584
 21
564.9229190420975
 31
0.0
 11
837.890970386159
 21
565.0236301872557
 31
0.0
  0
SPLINE
  5
35B
330
1F
100
AcDbEntity
  8
1
  6
Continuous
 62
     7
100
AcDbSpline
210
0.0
220
0.0
230
1.0
 70
     8
 71
     3
 72
    25
 73
    21
 74
    19
 42
0.0000000001
 43
0.0000000001
 44
0.00000001
 40
0.0
 40
0.0
 40
0.0
 40
0.0
 40
1.096994970570181
 40
2.193970680978874
 40
3.294312990930119
 40
4.394619670687364
 40
5.500064591382825
 40
6.605462646344699
 40
7.717131577593573
 40
8.828748745967845
 40
9.947001008017059
 40
11.06520306994518
 40
12.18960475870508
 40
13.31396354147876
 40
14.44335138193488
 40
15.57270809979045
 40
16.70533538027224
 40
17.83794634543483
 40
17.90453665812387
 40
17.97110095013355
 40
17.97110095013355
 40
17.97110095013355
 40
17.97110095013355
 10
834.5743868347778
 20
553.0107471637712
 30
0.0
 10
834.9378331921901
 20
553.0531983409176
 30
0.0
 10
835.6647195259139
 20
553.1380999498867
 30
0.0
 10
836.7358245954118
 20
553.390134570993
 30
0.0
 10
837.782353599344
 20
553.7300757405139
 30
0.0
 10
838.7962631480008
 20
554.1659327190039
 30
0.0
 10
839.7691665935702
 20
554.690132590967
 30
0.0
 10
840.6945414540796
 20
555.3012591387233
 30
0.0
 10
841.5644216262676
 20
555.9923590286184
 30
0.0
 10
842.3730860350602
 20
556.7603928199329
 30
0.0
 10
843.1136309317852
 20
557.5972050656981
 30
0.0
 10
843.7810567257144
 20
558.498704049257
 30
0.0
 10
844.3699060288079
 20
559.4557693945146
 30
0.0
 10
844.8759143374983
 20
560.4632556041788
 30
0.0
 10
845.295308648173
 20
561.5115355369725
 30
0.0
 10
845.6246471318855
 20
562.5943840432215
 30
0.0
 10
845.8619579899963
 20
563.7020720273305
 30
0.0
 10
845.9598488769061
 20
564.4742466705156
 30
0.0
 10
845.994404875474
 20
564.8947483142159
 30
0.0
 10
845.997768034122
 20
564.9390057791304
 30
0.0
 10
845.9994492848367
 20
564.9611301872562
 30
0.0
 11
834.5743868347778
 21
553.0107471637712
 31
0.0
 11
835.6613398628767
 21
553.1588386225485
 31
0.0
 11
836.7304697370531
 21
553.4044338614483
 31
0.0
 11
837.776489292081
 21
553.7458958499157
 31
0.0
 11
838.7876329758828
 21
554.1797889706563
 31
0.0
 11
839.760718093861
 21
554.7043019122134
 31
0.0
 11
840.683321933436
 21
555.3131590507237
 31
0.0
 11
841.5536934512002
 21
556.0047233888506
 31
0.0
 11
842.359943858418
 21
556.770003082744
 31
0.0
 11
843.101006913997
 21
557.6074478088209
 31
0.0
 11
843.7666127889561
 21
558.5059714148104
 31
0.0
 11
844.3558010641611
 21
559.463643766947
 31
0.0
 11
844.8606772176503
 21
560.4682744165085
 31
0.0
 11
845.2801465163977
 21
561.5168746270647
 31
0.0
 11
845.608991212115
 21
562.597294805636
 31
0.0
 11
845.8461429326773
 21
563.7048161904977
 31
0.0
 11
845.988897463351
 21
564.8283947335372
 31
0.0
 11
845.9943375530136
 21
564.8947624603966
 31
0.0
 11
845.9994492848367
 21
564.9611301872562
 31
0.0
  0
SPLINE
  5
35C
330
1F
100
AcDbEntity
  8
1
  6
Continuous
 62
     7
100
AcDbSpline
210
0.0
220
0.0
230
1.0
 70
     8
 71
     3
 72
    23
 73
    19
 74
    17
 42
0.0000000001
 43
0.0000000001
 44
0.00000001
 40
0.0
 40
0.0
 40
0.0
 40
0.0
 40
0.3797290282741621
 40
0.7594513895694661
 40
1.140339112244927
 40
1.521214501391655
 40
1.903868512401471
 40
2.286506300657527
 40
2.671314776859295
 40
3.056105335142655
 40
3.44319265662134
 40
3.830262601134939
 40
4.219478570321046
 40
4.608679687434887
 40
4.999621632208289
 40
5.390552803773494
 40
5.475132017759606
 40
5.559609177070027
 40
5.559609177070027
 40
5.559609177070027
 40
5.559609177070027
 10
834.5598942494642
 20
561.4783052945057
 30
0.0
 10
834.6857026039542
 20
561.4929999327479
 30
0.0
 10
834.9373171040915
 20
561.5223889512358
 30
0.0
 10
835.3080842435157
 20
561.6096317047077
 30
0.0
 10
835.6703442834048
 20
561.7273036479572
 30
0.0
 10
836.021312973076
 20
561.878177217607
 30
0.0
 10
836.3580872436271
 20
562.0596310187937
 30
0.0
 10
836.6784093072423
 20
562.2711748262067
 30
0.0
 10
836.9795216876114
 20
562.5104017020874
 30
0.0
 10
837.2594439340217
 20
562.7762595869315
 30
0.0
 10
837.5157865819641
 20
563.0659252366818
 30
0.0
 10
837.7468178999237
 20
563.3779830549173
 30
0.0
 10
837.9506529308439
 20
563.7092731126918
 30
0.0
 10
838.125799999872
 20
564.0580250462701
 30
0.0
 10
838.2710111333681
 20
564.4208660387317
 30
0.0
 10
838.3550530787784
 20
564.6975894197059
 30
0.0
 10
838.4003041238919
 20
564.878691899931
 30
0.0
 10
838.4127174828732
 20
564.9336618194241
 30
0.0
 10
838.4189204155621
 20
564.9611301872574
 30
0.0
 11
834.5598942494642
 21
561.4783052945057
 31
0.0
 11
834.936147220729
 21
561.5295677225441
 31
0.0
 11
835.3062306387132
 21
561.6145814590864
 31
0.0
 11
835.6683143308383
 21
561.7327798397096
 31
0.0
 11
836.0183256060004
 21
561.8829736122736
 31
0.0
 11
836.3551627622235
 21
562.0645357843511
 31
0.0
 11
836.6745256297687
 21
562.2752940246046
 31
0.0
 11
836.9758080782258
 21
562.5146816801101
 31
0.0
 11
837.2548947576473
 21
562.7795861895347
 31
0.0
 11
837.5114165845786
 21
563.0694709024076
 31
0.0
 11
837.7418186182183
 21
563.3804983044809
 31
0.0
 11
837.9457684057893
 21
563.7120002725281
 31
0.0
 11
838.1205332281508
 21
564.0597570358378
 31
0.0
 11
838.2657341392558
 21
564.4227340317997
 31
0.0
 11
838.3795649954656
 21
564.7967256320742
 31
0.0
 11
838.4000000891833
 21
564.8787990771295
 31
0.0
 11
838.4189204155621
 21
564.9611301872574
 31
0.0
  0
SPLINE
  5
35D
330
1F
100
AcDbEntity
  8
1
  6
Continuous
 62
     7
100
AcDbSpline
210
0.0
220
0.0
230
1.0
 70
     8
 71
     3
 72
     9
 73
     5
 74
     3
 42
0.0000000001
 43
0.0000000001
 44
0.00000001
 40
0.0
 40
0.0
 40
0.0
 40
0.0
 40
1.000694426448263
 40
2.00138885289669
 40
2.00138885289669
 40
2.00138885289669
 40
2.00138885289669
 10
820.9599253734191
 20
566.9611301872361
 30
0.0
 10
820.9412884803944
 20
566.6277968539031
 30
0.0
 10
820.9040146943451
 20
565.9611301872369
 30
0.0
 10
820.9412884803954
 20
565.2944635205708
 30
0.0
 10
820.9599253734205
 20
564.9611301872378
 30
0.0
 11
820.9599253734191
 21
566.9611301872361
 31
0.0
 11
820.92265158737
 21
565.961130187237
 31
0.0
 11
820.9599253734205
 21
564.9611301872378
 31
0.0
  0
SPLINE
  5
35E
330
1F
100
AcDbEntity
  8
1
  6
Continuous
 62
     7
100
AcDbSpline
210
0.0
220
0.0
230
1.0
 70
     8
 71
     3
 72
    27
 73
    23
 74
    21
 42
0.0000000001
 43
0.0000000001
 44
0.00000001
 40
0.0
 40
0.0
 40
0.0
 40
0.0
 40
0.0665642920003279
 40
0.1331546046802559
 40
1.26576556984284
 40
2.398392850324737
 40
3.527749568180165
 40
4.657137408636326
 40
5.781496191409899
 40
6.905897880169825
 40
8.024099942098037
 40
9.142352204147251
 40
10.25396937252144
 40
11.36563830377031
 40
12.47103635873228
 40
13.57648127942765
 40
14.67678795918504
 40
15.77713026913636
 40
16.87410597954503
 40
17.97110095011535
 40
19.0669243172823
 40
20.16274768444936
 40
20.16274768444936
 40
20.16274768444936
 40
20.16274768444936
 10
820.9599253734205
 20
564.9611301872378
 30
0.0
 10
820.9616066241351
 20
564.9390057791152
 30
0.0
 10
820.9649697827828
 20
564.8947483142068
 30
0.0
 10
820.9995257813511
 20
564.4742466705118
 30
0.0
 10
821.097416668264
 20
563.7020720273753
 30
0.0
 10
821.3347275263536
 20
562.5943840430643
 30
0.0
 10
821.6640660101439
 20
561.5115355375546
 30
0.0
 10
822.0834603205303
 20
560.4632556020104
 30
0.0
 10
822.5894686302904
 20
559.4557694025681
 30
0.0
 10
823.178317929403
 20
558.4987040192649
 30
0.0
 10
823.8457437381131
 20
557.5972051769464
 30
0.0
 10
824.5862885798434
 20
556.7603924056931
 30
0.0
 10
825.394953192717
 20
555.9923605644219
 30
0.0
 10
826.2648326056079
 20
555.3012534192554
 30
0.0
 10
827.1902102846175
 20
554.6901538029609
 30
0.0
 10
828.1631032396757
 20
554.1658536915807
 30
0.0
 10
829.1770517662526
 20
553.7303691567258
 30
0.0
 10
830.223435587681
 20
553.3890407325857
 30
0.0
 10
831.2950809120173
 20
553.1421683796668
 30
0.0
 10
832.3830111500238
 20
552.9956139116102
 30
0.0
 10
833.480083787392
 20
552.9401099554511
 30
0.0
 10
834.2096191523157
 20
552.9872014276644
 30
0.0
 10
834.5743868347778
 20
553.0107471637712
 30
0.0
 11
820.9599253734205
 21
564.9611301872378
 31
0.0
 11
820.9650371052429
 21
564.8947624603875
 31
0.0
 11
820.9704771949049
 21
564.8283947335372
 31
0.0
 11
821.1132317255785
 21
563.7048161904977
 31
0.0
 11
821.3503834461408
 21
562.5972948056359
 31
0.0
 11
821.679228141858
 21
561.5168746270647
 31
0.0
 11
822.0986974406055
 21
560.4682744165085
 31
0.0
 11
822.6035735940944
 21
559.463643766947
 31
0.0
 11
823.1927618692997
 21
558.5059714148105
 31
0.0
 11
823.8583677442588
 21
557.6074478088209
 31
0.0
 11
824.5994307998378
 21
556.770003082744
 31
0.0
 11
825.4056812070555
 21
556.0047233888506
 31
0.0
 11
826.2760527248197
 21
555.3131590507237
 31
0.0
 11
827.1986565643948
 21
554.7043019122134
 31
0.0
 11
828.1717416823728
 21
554.1797889706563
 31
0.0
 11
829.1828853661748
 21
553.7458958499155
 31
0.0
 11
830.2289049212028
 21
553.4044338614483
 31
0.0
 11
831.2980347953792
 21
553.1588386225486
 31
0.0
 11
832.3849878234782
 21
553.010747163771
 31
0.0
 11
833.479687329128
 21
552.9611301872471
 31
0.0
 11
834.5743868347778
 21
553.0107471637712
 31
0.0
  0
SPLINE
  5
35F
330
1F
100
AcDbEntity
  8
1
  6
Continuous
 62
     7
100
AcDbSpline
210
0.0
220
0.0
230
1.0
 70
     8
 71
     3
 72
    27
 73
    23
 74
    21
 42
0.0000000001
 43
0.0000000001
 44
0.00000001
 40
0.0
 40
0.0
 40
0.0
 40
0.0
 40
0.0665642920078528
 40
0.133154604695636
 40
1.26576556985822
 40
2.398392850340141
 40
3.527749568195427
 40
4.657137408651736
 40
5.781496191425259
 40
6.905897880185243
 40
8.0240999421135
 40
9.142352204162648
 40
10.25396937253684
 40
11.36563830378589
 40
12.4710363587477
 40
13.57648127944316
 40
14.67678795920066
 40
15.77713026915165
 40
16.87410597956046
 40
17.97110095013064
 40
18.51971423776315
 40
19.0672045273459
 40
19.0672045273459
 40
19.0672045273459
 40
19.0672045273459
 10
845.9994492848365
 20
566.9611301872415
 30
0.0
 10
845.9977680341217
 20
566.9832545953666
 30
0.0
 10
845.994404875474
 20
567.0275120602802
 30
0.0
 10
845.9598488769041
 20
567.4480137039799
 30
0.0
 10
845.8619579899932
 20
568.2201883471186
 30
0.0
 10
845.6246471318998
 20
569.3278763314338
 30
0.0
 10
845.2953086481207
 20
570.4107248369262
 30
0.0
 10
844.8759143376938
 20
571.4590047725362
 30
0.0
 10
844.3699060280826
 20
572.466490971733
 30
0.0
 10
843.7810567284166
 20
573.4235563559507
 30
0.0
 10
843.1136309217607
 20
574.3250551948738
 30
0.0
 10
842.3730860723875
 20
575.1618679787591
 30
0.0
 10
841.5644214878746
 20
575.9298997731542
 30
0.0
 10
840.6945419694685
 20
576.6210070927282
 30
0.0
 10
839.7691646821288
 20
577.2321060616243
 30
0.0
 10
838.7962702692678
 20
577.7564085826327
 30
0.0
 10
837.7823271592145
 20
578.1918841644155
 30
0.0
 10
836.7359231626629
 20
578.5332459363963
 30
0.0
 10
835.6643529142305
 20
578.7799941949389
 30
0.0
 10
834.7571509217262
 20
578.9025571429102
 30
0.0
 10
834.0276059701744
 20
578.9539284351179
 30
0.0
 10
833.6622020862827
 20
578.9587312434219
 30
0.0
 10
833.4796873291326
 20
578.9611301872474
 30
0.0
 11
845.9994492848365
 21
566.9611301872415
 31
0.0
 11
845.9943375530135
 21
567.0274979140993
 31
0.0
 11
845.988897463351
 21
567.0938656409575
 31
0.0
 11
845.8461429326774
 21
568.2174441839969
 31
0.0
 11
845.608991212115
 21
569.3249655688587
 31
0.0
 11
845.280146516398
 21
570.4053857474298
 31
0.0
 11
844.8606772176503
 21
571.4539859579861
 31
0.0
 11
844.3558010641615
 21
572.4586166075476
 31
0.0
 11
843.7666127889561
 21
573.4162889596842
 31
0.0
 11
843.1010069139968
 21
574.3148125656736
 31
0.0
 11
842.359943858418
 21
575.1522572917506
 31
0.0
 11
841.5536934512004
 21
575.9175369856441
 31
0.0
 11
840.683321933436
 21
576.609101323771
 31
0.0
 11
839.760718093861
 21
577.2179584622812
 31
0.0
 11
838.7876329758828
 21
577.7424714038383
 31
0.0
 11
837.7764892920808
 21
578.1763645245791
 31
0.0
 11
836.7304697370531
 21
578.5178265130463
 31
0.0
 11
835.6613398628766
 21
578.7634217519461
 31
0.0
 11
834.5743868347777
 21
578.9115132107235
 31
0.0
 11
834.0270370819552
 21
578.9487259431162
 31
0.0
 11
833.4796873291326
 21
578.9611301872474
 31
0.0
  0
SPLINE
  5
360
330
1F
100
AcDbEntity
  8
1
  6
Continuous
 62
     7
100
AcDbSpline
210
0.0
220
0.0
230
1.0
 70
     8
 71
     3
 72
    29
 73
    25
 74
    23
 42
0.0000000001
 43
0.0000000001
 44
0.00000001
 40
0.0
 40
0.0
 40
0.0
 40
0.0
 40
0.0844771593120494
 40
0.1690563733000368
 40
0.5599875448653504
 40
0.9509294896387093
 40
1.340130606752703
 40
1.729346575938772
 40
2.116416520452395
 40
2.503503841930825
 40
2.88829440021418
 40
3.2731028764157
 40
3.655740664671755
 40
4.038394675681571
 40
4.419270064828449
 40
4.800157787503945
 40
5.179880148799446
 40
5.559609177073511
 40
5.938932650323694
 40
6.318256123573877
 40
6.697985151848039
 40
7.077707513143454
 40
7.095338970346047
 40
7.112964178177717
 40
7.112964178177717
 40
7.112964178177717
 40
7.112964178177717
 10
838.4189204155628
 20
566.9611301872338
 30
0.0
 10
838.4127174828739
 20
566.9885985550676
 30
0.0
 10
838.4003041238922
 20
567.043568474561
 30
0.0
 10
838.3550530787798
 20
567.2246709547989
 30
0.0
 10
838.271011133347
 20
567.501394335536
 30
0.0
 10
838.1257999999459
 20
567.8642353290361
 30
0.0
 10
837.9506529305716
 20
568.2129872587991
 30
0.0
 10
837.7468179009367
 20
568.5442773307615
 30
0.0
 10
837.5157865782061
 20
568.8563350963284
 30
0.0
 10
837.2594439480137
 20
569.1460009420345
 30
0.0
 10
836.9795216357353
 20
569.4118580997002
 30
0.0
 10
836.6784095004346
 20
569.6510876810995
 30
0.0
 10
836.3580865271292
 20
569.8626214456658
 30
0.0
 10
836.0213156424626
 20
570.0441126265212
 30
0.0
 10
835.6703343723997
 20
570.1948473104905
 30
0.0
 10
835.3081211911608
 20
570.3130365663842
 30
0.0
 10
834.9371796807781
 20
570.3983542899684
 30
0.0
 10
834.5605413162799
 20
570.4495995413878
 30
0.0
 10
834.1809611122108
 20
570.4668928956189
 30
0.0
 10
833.8013730632872
 20
570.449597677181
 30
0.0
 10
833.4247582583781
 20
570.398361756043
 30
0.0
 10
833.1719216302581
 20
570.3401978957036
 30
0.0
 10
833.0387077656399
 20
570.3029424765329
 30
0.0
 10
833.027406203084
 20
570.2997190611977
 30
0.0
 10
833.0217564234272
 20
570.2981076392109
 30
0.0
 11
838.4189204155628
 21
566.9611301872338
 31
0.0
 11
838.4000000891837
 21
567.0434612973633
 31
0.0
 11
838.3795649954654
 21
567.1255347424204
 31
0.0
 11
838.2657341392556
 21
567.4995263426951
 31
0.0
 11
838.1205332281508
 21
567.8625033386569
 31
0.0
 11
837.9457684057892
 21
568.2102601019667
 31
0.0
 11
837.7418186182181
 21
568.5417620700139
 31
0.0
 11
837.5114165845785
 21
568.8527894720872
 31
0.0
 11
837.2548947576472
 21
569.1426741849598
 31
0.0
 11
836.9758080782258
 21
569.4075786943845
 31
0.0
 11
836.6745256297689
 21
569.6469663498899
 31
0.0
 11
836.3551627622237
 21
569.8577245901435
 31
0.0
 11
836.0183256060006
 21
570.0392867622209
 31
0.0
 11
835.6683143308384
 21
570.1894805347851
 31
0.0
 11
835.3062306387133
 21
570.3076789154084
 31
0.0
 11
834.9361472207289
 21
570.3926926519505
 31
0.0
 11
834.5598942494642
 21
570.443955079989
 31
0.0
 11
834.1809598052007
 21
570.4611301872473
 31
0.0
 11
833.8020253609373
 21
570.443955079989
 31
0.0
 11
833.4257723896724
 21
570.3926926519506
 31
0.0
 11
833.0556889716881
 21
570.3076789154084
 31
0.0
 11
833.0387098365665
 21
570.302927362651
 31
0.0
 11
833.0217564234272
 21
570.2981076392109
 31
0.0
  0
SPLINE
  5
361
330
1F
100
AcDbEntity
  8
1
  6
Continuous
 62
     7
100
AcDbSpline
210
0.0
220
0.0
230
1.0
 70
     8
 71
     3
 72
     9
 73
     5
 74
     3
 42
0.0000000001
 43
0.0000000001
 44
0.00000001
 40
0.0
 40
0.0
 40
0.0
 40
0.0
 40
1.000694426441791
 40
2.001388852883591
 40
2.001388852883591
 40
2.001388852883591
 40
2.001388852883591
 10
845.9994492848367
 20
564.9611301872562
 30
0.0
 10
846.0180861778614
 20
565.2944635205871
 30
0.0
 10
846.0553599639106
 20
565.9611301872488
 30
0.0
 10
846.0180861778611
 20
566.6277968539106
 30
0.0
 10
845.9994492848365
 20
566.9611301872415
 30
0.0
 11
845.9994492848367
 21
564.9611301872562
 31
0.0
 11
846.036723070886
 21
565.9611301872488
 31
0.0
 11
845.9994492848365
 21
566.9611301872415
 31
0.0
  0
SPLINE
  5
362
330
1F
100
AcDbEntity
  8
1
  6
Continuous
 62
     7
100
AcDbSpline
210
0.0
220
0.0
230
1.0
 70
     8
 71
     3
 72
    13
 73
     9
 74
     7
 42
0.0000000001
 43
0.0000000001
 44
0.00000001
 40
0.0
 40
0.0
 40
0.0
 40
0.0
 40
0.3074072629869069
 40
0.6151826069107165
 40
1.007632672786247
 40
1.400082738661782
 40
1.707858082583758
 40
2.015265345568885
 40
2.015265345568885
 40
2.015265345568885
 40
2.015265345568885
 10
838.4189204155621
 20
564.9611301872574
 30
0.0
 10
838.4390504435667
 20
565.0616425285417
 30
0.0
 10
838.479334602714
 20
565.2627875618025
 30
0.0
 10
838.5174078234387
 20
565.5968520216018
 30
0.0
 10
838.5333529411935
 20
565.9611301872476
 30
0.0
 10
838.5174078234386
 20
566.3254083528921
 30
0.0
 10
838.4793346027143
 20
566.6594728126904
 30
0.0
 10
838.4390504435673
 20
566.86061784595
 30
0.0
 10
838.4189204155628
 20
566.9611301872338
 30
0.0
 11
838.4189204155621
 21
564.9611301872574
 31
0.0
 11
838.4750556971521
 21
565.2633685956338
 31
0.0
 11
838.5110710055088
 21
565.5690294532708
 31
0.0
 11
838.5276260235015
 21
565.9611301872474
 31
0.0
 11
838.5110710055087
 21
566.3532309212239
 31
0.0
 11
838.4750556971522
 21
566.6588917788591
 31
0.0
 11
838.4189204155628
 21
566.9611301872338
 31
0.0
  0
SPLINE
  5
363
330
1F
100
AcDbEntity
  8
1
  6
Continuous
 62
     7
100
AcDbSpline
210
0.0
220
0.0
230
1.0
 70
     8
 71
     3
 72
    27
 73
    23
 74
    21
 42
0.0000000001
 43
0.0000000001
 44
0.00000001
 40
0.0
 40
0.0
 40
0.0
 40
0.0
 40
0.547490289587632
 40
1.096103577224824
 40
2.19309854779502
 40
3.290074258203687
 40
4.390416568154932
 40
5.490723247912118
 40
6.59616816860758
 40
7.701566223569296
 40
8.813235154818189
 40
9.924852323192622
 40
11.04310458524168
 40
12.16130664717005
 40
13.28570833593007
 40
14.41006711870354
 40
15.53945495915975
 40
16.66881167701514
 40
17.80143895749692
 40
18.93404992265962
 40
19.00064023534993
 40
19.06720452736061
 40
19.06720452736061
 40
19.06720452736061
 40
19.06720452736061
 10
833.4796873291326
 20
578.9611301872474
 30
0.0
 10
833.2971725719808
 20
578.9587312434218
 30
0.0
 10
832.9317686880855
 20
578.9539284351185
 30
0.0
 10
832.2022237365318
 20
578.9025571429103
 30
0.0
 10
831.2950217440251
 20
578.7799941949387
 30
0.0
 10
830.2234514955926
 20
578.5332459363963
 30
0.0
 10
829.1770474990411
 20
578.1918841644153
 30
0.0
 10
828.163104388988
 20
577.7564085826327
 30
0.0
 10
827.1902099761271
 20
577.2321060616243
 30
0.0
 10
826.2648326887877
 20
576.6210070927281
 30
0.0
 10
825.3949531703818
 20
575.929899773154
 30
0.0
 10
824.586288585868
 20
575.1618679787594
 30
0.0
 10
823.8457437364949
 20
574.325055194874
 30
0.0
 10
823.1783179298391
 20
573.4235563559507
 30
0.0
 10
822.5894686301734
 20
572.4664909717329
 30
0.0
 10
822.0834603205622
 20
571.4590047725365
 30
0.0
 10
821.664066010135
 20
570.4107248369261
 30
0.0
 10
821.3347275263561
 20
569.3278763314338
 30
0.0
 10
821.0974166682629
 20
568.2201883471188
 30
0.0
 10
820.9995257813516
 20
567.4480137039786
 30
0.0
 10
820.9649697827815
 20
567.0275120602776
 30
0.0
 10
820.9616066241338
 20
566.9832545953623
 30
0.0
 10
820.9599253734191
 20
566.9611301872361
 30
0.0
 11
833.4796873291326
 21
578.9611301872474
 31
0.0
 11
832.9323375763051
 21
578.9487259431166
 31
0.0
 11
832.384987823478
 21
578.9115132107235
 31
0.0
 11
831.2980347953791
 21
578.763421751946
 31
0.0
 11
830.2289049212027
 21
578.5178265130463
 31
0.0
 11
829.1828853661748
 21
578.176364524579
 31
0.0
 11
828.1717416823731
 21
577.7424714038382
 31
0.0
 11
827.1986565643949
 21
577.2179584622811
 31
0.0
 11
826.27605272482
 21
576.6091013237709
 31
0.0
 11
825.4056812070558
 21
575.9175369856441
 31
0.0
 11
824.5994307998378
 21
575.1522572917506
 31
0.0
 11
823.8583677442589
 21
574.3148125656738
 31
0.0
 11
823.1927618692997
 21
573.4162889596842
 31
0.0
 11
822.6035735940944
 21
572.4586166075475
 31
0.0
 11
822.0986974406055
 21
571.4539859579861
 31
0.0
 11
821.6792281418578
 21
570.4053857474299
 31
0.0
 11
821.3503834461408
 21
569.3249655688587
 31
0.0
 11
821.1132317255785
 21
568.217444183997
 31
0.0
 11
820.9704771949049
 21
567.0938656409575
 31
0.0
 11
820.9650371052421
 21
567.0274979140968
 31
0.0
 11
820.9599253734191
 21
566.9611301872361
 31
0.0
  0
SPLINE
  5
364
330
1F
100
AcDbEntity
  8
1
  6
Continuous
 62
     7
100
AcDbSpline
210
0.0
220
0.0
230
1.0
 70
     8
 71
     3
 72
    13
 73
     9
 74
     7
 42
0.0000000001
 43
0.0000000001
 44
0.00000001
 40
0.0
 40
0.0
 40
0.0
 40
0.0
 40
0.0176252078284689
 40
0.0352566650279697
 40
0.4149790263232737
 40
0.7947080545975638
 40
1.17403152784752
 40
1.553355001097935
 40
1.553355001097935
 40
1.553355001097935
 40
1.553355001097935
 10
833.0217564234332
 20
561.624152735282
 30
0.0
 10
833.0274062039955
 20
561.622541303288
 30
0.0
 10
833.0387077683628
 20
561.6193178679345
 30
0.0
 10
833.1719215262388
 20
561.5820636271516
 30
0.0
 10
833.424768765108
 20
561.5237826256952
 30
0.0
 10
833.8013361008439
 20
561.4730707572846
 30
0.0
 10
834.1810982969378
 20
561.4538529795432
 30
0.0
 10
834.4336289319552
 20
561.4701545228517
 30
0.0
 10
834.5598942494642
 20
561.4783052945057
 30
0.0
 11
833.0217564234332
 21
561.624152735282
 31
0.0
 11
833.0387098365694
 21
561.6193330118429
 31
0.0
 11
833.0556889716881
 21
561.6145814590864
 31
0.0
 11
833.4257723896723
 21
561.5295677225441
 31
0.0
 11
833.8020253609373
 21
561.4783052945056
 31
0.0
 11
834.1809598052005
 21
561.4611301872474
 31
0.0
 11
834.5598942494642
 21
561.4783052945057
 31
0.0
  0
SPLINE
  5
365
330
1F
100
AcDbEntity
  8
1
  6
Continuous
 62
     7
100
AcDbSpline
210
0.0
220
0.0
230
1.0
 70
    11
 71
     3
 72
    79
 73
    75
 74
    73
 42
0.0000000001
 43
0.0000000001
 44
0.00000001
 40
0.0
 40
0.0
 40
0.0
 40
0.0
 40
1.265763427580986
 40
2.531504631898751
 40
3.801130374149997
 40
5.070715004639212
 40
6.346228374672243
 40
7.621687668859062
 40
8.904382589530961
 40
10.18701778380893
 40
11.47730885540411
 40
12.76754200378267
 40
14.06492856773653
 40
15.36226562478292
 40
16.66540544069396
 40
17.9685093459117
 40
19.27538697723683
 40
20.58224578319364
 40
21.89041266944559
 40
23.19857955569754
 40
24.50543836165422
 40
25.81231599297948
 40
27.11541989819715
 40
28.41855971410815
 40
29.71589677115454
 40
31.01328333510848
 40
32.30351648348704
 40
33.59380755508222
 40
34.87644274936027
 40
36.15913767003208
 40
37.43459696421859
 40
38.71011033425171
 40
39.97969496474107
 40
41.24932070699231
 40
42.51506191131024
 40
43.7808253388911
 40
45.04523691639144
 40
46.30964849389191
 40
47.57541192147288
 40
48.84115312579067
 40
50.11077886804188
 40
51.38036349853124
 40
52.65587686856426
 40
53.93133616275095
 40
55.21403108342276
 40
56.49666627770073
 40
57.78695734929592
 40
59.07719049767454
 40
60.37457706162837
 40
61.67191411867476
 40
62.97505393458574
 40
64.27815783980351
 40
65.58503547112866
 40
66.89189427708546
 40
68.2000611633374
 40
69.50822804958933
 40
70.81508685554614
 40
72.12196448687128
 40
73.42506839208902
 40
74.7282082080001
 40
76.02554526504639
 40
77.32293182900031
 40
78.61316497737892
 40
79.90345604897411
 40
81.18609124325207
 40
82.4687861639239
 40
83.74424545811066
 40
85.01975882814374
 40
86.28934345863296
 40
87.55896920088428
 40
88.82471040520221
 40
90.09047383278308
 40
91.35488541028342
 40
92.61929698778388
 40
92.61929698778388
 40
92.61929698778388
 40
92.61929698778388
 10
832.2165725149165
 20
551.0183805447748
 30
0.0
 10
831.7972113332872
 20
551.0673626722519
 30
0.0
 10
830.9584963328367
 20
551.1653260672167
 30
0.0
 10
829.7226058680301
 20
551.4561352454134
 30
0.0
 10
828.515072401959
 20
551.8483750564092
 30
0.0
 10
827.3451767688769
 20
552.3512869546296
 30
0.0
 10
826.222595870207
 20
552.9561329608805
 30
0.0
 10
825.1548556463029
 20
553.6612789769998
 30
0.0
 10
824.1511477562142
 20
554.4587019288376
 30
0.0
 10
823.2180734350152
 20
555.344894757637
 30
0.0
 10
822.3635985667968
 20
556.3104473764277
 30
0.0
 10
821.5934918342584
 20
557.3506384082731
 30
0.0
 10
820.9140505079087
 20
558.454944962425
 30
0.0
 10
820.3301941039945
 20
559.6174276041295
 30
0.0
 10
819.8462800770114
 20
560.8269867936656
 30
0.0
 10
819.4662648415541
 20
562.0764071088406
 30
0.0
 10
819.1924793969514
 20
563.3545844818768
 30
0.0
 10
819.0277067712621
 20
564.6530219551531
 30
0.0
 10
818.9723372858438
 20
565.9611301872437
 30
0.0
 10
819.0277067712608
 20
567.2692384193565
 30
0.0
 10
819.1924793969563
 20
568.5676758925656
 30
0.0
 10
819.4662648415363
 20
569.8458532658486
 30
0.0
 10
819.8462800770774
 20
571.0952735801053
 30
0.0
 10
820.3301941037502
 20
572.3048327730609
 30
0.0
 10
820.9140505088158
 20
573.4673154020589
 30
0.0
 10
821.5934918308795
 20
574.5716220035029
 30
0.0
 10
822.3635985793312
 20
575.6118128597807
 30
0.0
 10
823.2180733883429
 20
576.5773661317761
 30
0.0
 10
824.1511479292537
 20
577.4635565365845
 30
0.0
 10
825.1548550018893
 20
578.2609885070486
 30
0.0
 10
826.2225982601674
 20
578.9661010461587
 30
0.0
 10
827.3451678648376
 20
579.5710716544811
 30
0.0
 10
828.5151054612353
 20
580.073520588631
 30
0.0
 10
829.7224826249883
 20
580.4674848190687
 30
0.0
 10
830.9589547238186
 20
580.7518770673796
 30
0.0
 10
832.2144144567718
 20
580.9226951820679
 30
0.0
 10
833.479687329128
 20
580.980337422096
 30
0.0
 10
834.7449602014838
 20
580.9226951820676
 30
0.0
 10
836.0004199344367
 20
580.7518770673793
 30
0.0
 10
837.2368920332674
 20
580.4674848190687
 30
0.0
 10
838.4442691970201
 20
580.073520588631
 30
0.0
 10
839.6142067934181
 20
579.5710716544812
 30
0.0
 10
840.7367763980885
 20
578.9661010461585
 30
0.0
 10
841.8045196563664
 20
578.2609885070486
 30
0.0
 10
842.8082267290018
 20
577.4635565365845
 30
0.0
 10
843.7413012699129
 20
576.5773661317762
 30
0.0
 10
844.5957760789245
 20
575.6118128597807
 30
0.0
 10
845.3658828273764
 20
574.5716220035029
 30
0.0
 10
846.0453241494396
 20
573.4673154020588
 30
0.0
 10
846.6291805545052
 20
572.3048327730608
 30
0.0
 10
847.1130945811785
 20
571.0952735801055
 30
0.0
 10
847.4931098167192
 20
569.8458532658485
 30
0.0
 10
847.7668952612996
 20
568.5676758925657
 30
0.0
 10
847.9316678869952
 20
567.2692384193558
 30
0.0
 10
847.9870373724111
 20
565.9611301872471
 30
0.0
 10
847.9316678869955
 20
564.6530219551403
 30
0.0
 10
847.7668952612989
 20
563.354584481925
 30
0.0
 10
847.4931098167207
 20
562.0764071086603
 30
0.0
 10
847.1130945811736
 20
560.8269867943372
 30
0.0
 10
846.629180554523
 20
559.6174276016274
 30
0.0
 10
846.0453241493744
 20
558.4549449717174
 30
0.0
 10
845.3658828276189
 20
557.3506383736668
 30
0.0
 10
844.5957760780251
 20
556.3104475047912
 30
0.0
 10
843.7413012732621
 20
555.3448942796681
 30
0.0
 10
842.8082267165851
 20
554.4587037009187
 30
0.0
 10
841.8045197026086
 20
553.6612723776141
 30
0.0
 10
840.7367762265891
 20
552.956157436258
 30
0.0
 10
839.614207432355
 20
552.3511957691412
 30
0.0
 10
838.4442668247498
 20
551.8487136135767
 30
0.0
 10
837.2369008769521
 20
551.4548731241742
 30
0.0
 10
836.000387041178
 20
551.1700204092703
 30
0.0
 10
834.7450829204022
 20
551.0009190999738
 30
0.0
 10
833.479229877285
 20
550.9368760736365
 30
0.0
 10
832.6374583023725
 20
550.9912123877288
 30
0.0
 10
832.2165725149165
 20
551.0183805447749
 30
0.0
 11
832.2165725149165
 21
551.0183805447748
 31
0.0
 11
830.9623959440331
 21
551.1892553049028
 31
0.0
 11
829.7287845507526
 21
551.4726344267101
 31
0.0
 11
828.521838910336
 21
551.8666290287878
 31
0.0
 11
827.3551346597953
 21
552.3672749373347
 31
0.0
 11
826.2323441390516
 21
552.9724821775931
 31
0.0
 11
825.1678012472341
 21
553.6750096451048
 31
0.0
 11
824.1635264190445
 21
554.4729684967896
 31
0.0
 11
823.2332374876395
 21
555.3559835282051
 31
0.0
 11
822.3781647312022
 21
556.3222659044477
 31
0.0
 11
821.6101579524035
 21
557.3590239113587
 31
0.0
 11
820.9303253271668
 21
558.4640304715165
 31
0.0
 11
820.3477759192947
 21
559.6232196825488
 31
0.0
 11
819.8637728822782
 21
560.8331430024214
 31
0.0
 11
819.4843366949124
 21
562.0797816700035
 31
0.0
 11
819.2107000942636
 21
563.3576909602285
 31
0.0
 11
819.0459833281016
 21
564.6541277406586
 31
0.0
 11
818.9907999347919
 21
565.9611301872474
 31
0.0
 11
819.0459833281016
 21
567.2681326338361
 31
0.0
 11
819.2107000942635
 21
568.5645694142661
 31
0.0
 11
819.4843366949124
 21
569.8424787044912
 31
0.0
 11
819.8637728822783
 21
571.0891173720733
 31
0.0
 11
820.3477759192947
 21
572.2990406919458
 31
0.0
 11
820.9303253271665
 21
573.4582299029783
 31
0.0
 11
821.6101579524036
 21
574.5632364631359
 31
0.0
 11
822.3781647312023
 21
575.5999944700469
 31
0.0
 11
823.2332374876396
 21
576.5662768462895
 31
0.0
 11
824.1635264190447
 21
577.449291877705
 31
0.0
 11
825.1678012472343
 21
578.2472507293899
 31
0.0
 11
826.2323441390513
 21
578.9497781969017
 31
0.0
 11
827.3551346597952
 21
579.5549854371598
 31
0.0
 11
828.521838910336
 21
580.0556313457068
 31
0.0
 11
829.7287845507526
 21
580.4496259477845
 31
0.0
 11
830.9623959440332
 21
580.7330050695921
 31
0.0
 11
832.2165725149165
 21
580.9038798297199
 31
0.0
 11
833.4796873291277
 21
580.9611301872474
 31
0.0
 11
834.7428021433391
 21
580.9038798297197
 31
0.0
 11
835.9969787142225
 21
580.7330050695919
 31
0.0
 11
837.230590107503
 21
580.4496259477844
 31
0.0
 11
838.4375357479196
 21
580.0556313457068
 31
0.0
 11
839.6042399984603
 21
579.5549854371598
 31
0.0
 11
840.7270305192042
 21
578.9497781969017
 31
0.0
 11
841.7915734110214
 21
578.2472507293899
 31
0.0
 11
842.795848239211
 21
577.449291877705
 31
0.0
 11
843.7261371706161
 21
576.5662768462896
 31
0.0
 11
844.5812099270532
 21
575.5999944700469
 31
0.0
 11
845.3492167058521
 21
574.5632364631359
 31
0.0
 11
846.0290493310889
 21
573.4582299029783
 31
0.0
 11
846.6115987389608
 21
572.2990406919458
 31
0.0
 11
847.0956017759773
 21
571.0891173720734
 31
0.0
 11
847.4750379633433
 21
569.8424787044912
 31
0.0
 11
847.7486745639922
 21
568.5645694142662
 31
0.0
 11
847.9133913301541
 21
567.2681326338361
 31
0.0
 11
847.9685747234636
 21
565.9611301872474
 31
0.0
 11
847.9133913301541
 21
564.6541277406586
 31
0.0
 11
847.748674563992
 21
563.3576909602285
 31
0.0
 11
847.4750379633433
 21
562.0797816700035
 31
0.0
 11
847.0956017759775
 21
560.8331430024214
 31
0.0
 11
846.6115987389609
 21
559.6232196825488
 31
0.0
 11
846.029049331089
 21
558.4640304715165
 31
0.0
 11
845.3492167058522
 21
557.3590239113587
 31
0.0
 11
844.5812099270532
 21
556.3222659044478
 31
0.0
 11
843.7261371706161
 21
555.3559835282051
 31
0.0
 11
842.7958482392111
 21
554.4729684967896
 31
0.0
 11
841.7915734110214
 21
553.6750096451049
 31
0.0
 11
840.7270305192042
 21
552.972482177593
 31
0.0
 11
839.6042399984603
 21
552.3672749373347
 31
0.0
 11
838.4375357479197
 21
551.8666290287878
 31
0.0
 11
837.230590107503
 21
551.4726344267102
 31
0.0
 11
835.9969787142223
 21
551.1892553049026
 31
0.0
 11
834.7428021433391
 21
551.0183805447748
 31
0.0
 11
833.4796873291278
 21
550.9611301872473
 31
0.0
 11
832.2165725149165
 21
551.0183805447749
 31
0.0
  0
SPLINE
  5
366
330
1F
100
AcDbEntity
  8
1
  6
Continuous
 62
     7
100
AcDbSpline
210
0.0
220
0.0
230
1.0
 70
     8
 71
     3
 72
    43
 73
    39
 74
    37
 42
0.0000000001
 43
0.0000000001
 44
0.00000001
 40
0.0
 40
0.0
 40
0.0
 40
0.0
 40
1.350147656086294
 40
2.700271607358855
 40
4.054539065760372
 40
5.408762671615571
 40
6.769310266317482
 40
8.129800180116726
 40
9.498008095500049
 40
10.86615230273003
 40
12.24246277909816
 40
13.61871147070219
 40
15.00259047225299
 40
16.38641666643574
 40
17.77643247007417
 40
19.16640996897301
 40
20.56041277571997
 40
21.95439550207382
 40
23.34977351407592
 40
24.74515152607779
 40
26.13913425243184
 40
27.53313705917871
 40
28.92311455807761
 40
30.3131303617159
 40
31.69695655589885
 40
33.0808355574496
 40
34.45708424905356
 40
35.83339472542169
 40
37.20153893265159
 40
38.56974684803507
 40
39.93023676183428
 40
41.29078435653624
 40
42.64500796239154
 40
43.99927542079302
 40
45.34939937206536
 40
46.69954702815176
 40
47.27774415756419
 40
47.85478278135948
 40
47.85478278135948
 40
47.85478278135948
 40
47.85478278135948
 10
835.0858288427219
 20
550.0221972352767
 30
0.0
 10
835.5331474364598
 20
550.0744448379188
 30
0.0
 10
836.4277767702736
 20
550.1789391258812
 30
0.0
 10
837.7460599327343
 20
550.4891355826246
 30
0.0
 10
839.0340956298767
 20
550.9075247143531
 30
0.0
 10
840.281984305165
 20
551.443964072455
 30
0.0
 10
841.4794039304122
 20
552.0891331457892
 30
0.0
 10
842.6183268359101
 20
552.8412888963169
 30
0.0
 10
843.6889485853383
 20
553.6918733782771
 30
0.0
 10
844.6842278612837
 20
554.6371457289962
 30
0.0
 10
845.5956677207172
 20
555.667068522373
 30
0.0
 10
846.4171149020909
 20
556.7766056230082
 30
0.0
 10
847.1418523168649
 20
557.9545326141035
 30
0.0
 10
847.7646324810393
 20
559.1945140985881
 30
0.0
 10
848.2808074431547
 20
560.4847105674269
 30
0.0
 10
848.6861570276428
 20
561.8174255702803
 30
0.0
 10
848.9781948352185
 20
563.1808147681853
 30
0.0
 10
849.1539523026207
 20
564.56581473968
 30
0.0
 10
849.2130130870669
 20
565.9611301872435
 30
0.0
 10
849.1539523026219
 20
567.3564456348298
 30
0.0
 10
848.9781948352146
 20
568.7414456062559
 30
0.0
 10
848.6861570276597
 20
570.1048348044127
 30
0.0
 10
848.2808074430909
 20
571.4375498063303
 30
0.0
 10
847.7646324812757
 20
572.7277462786536
 30
0.0
 10
847.1418523159875
 20
573.9677277501887
 30
0.0
 10
846.4171149053552
 20
575.1456547894809
 30
0.0
 10
845.5956677086085
 20
576.25519171119
 30
0.0
 10
844.6842279063717
 20
577.2851151702669
 30
0.0
 10
843.6889484181739
 20
578.230385050626
 30
0.0
 10
842.6183274584439
 20
579.080978723732
 30
0.0
 10
841.4794016215993
 20
579.8331003568605
 30
0.0
 10
840.2819929068816
 20
580.478396415809
 30
0.0
 10
839.0340636930748
 20
581.014363953691
 30
0.0
 10
837.7461789912575
 20
581.4345104916898
 30
0.0
 10
836.4273339432183
 20
581.7381672675737
 30
0.0
 10
835.3428378918416
 20
581.8847790907762
 30
0.0
 10
834.5096928431578
 20
581.9458341445524
 30
0.0
 10
834.1246745962186
 20
581.9551918551953
 30
0.0
 10
833.9323585267644
 20
581.959866018418
 30
0.0
 11
835.0858288427219
 21
550.0221972352767
 31
0.0
 11
836.4236171849974
 21
550.2044636460797
 31
0.0
 11
837.7394693378302
 21
550.506734709341
 31
0.0
 11
839.0268780209415
 21
550.9269956182238
 31
0.0
 11
840.2713625548515
 21
551.461017920674
 31
0.0
 11
841.4690057769782
 21
552.1065723102828
 31
0.0
 11
842.6045181949168
 21
552.8559349422953
 31
0.0
 11
843.675744678319
 21
553.7070910507591
 31
0.0
 11
844.668052871818
 21
554.6489737509356
 31
0.0
 11
845.5801304786843
 21
555.6796749522611
 31
0.0
 11
846.3993377094032
 21
556.7855501596329
 31
0.0
 11
847.124492509656
 21
557.964223823801
 31
0.0
 11
847.7458785447193
 21
559.2006923155689
 31
0.0
 11
848.2621484508702
 21
560.4912771900996
 31
0.0
 11
848.6668803840604
 21
561.8210251021872
 31
0.0
 11
848.9587594247523
 21
563.184128345094
 31
0.0
 11
849.1344573086585
 21
564.5669942442194
 31
0.0
 11
849.1933195948556
 21
565.9611301872474
 31
0.0
 11
849.1344573086585
 21
567.3552661302751
 31
0.0
 11
848.9587594247525
 21
568.7381320294007
 31
0.0
 11
848.6668803840605
 21
570.1012352723075
 31
0.0
 11
848.2621484508701
 21
571.430983184395
 31
0.0
 11
847.7458785447193
 21
572.7215680589256
 31
0.0
 11
847.1244925096557
 21
573.9580365506936
 31
0.0
 11
846.3993377094031
 21
575.1367102148618
 31
0.0
 11
845.5801304786843
 21
576.2425854222336
 31
0.0
 11
844.668052871818
 21
577.273286623559
 31
0.0
 11
843.6757446783191
 21
578.2151693237355
 31
0.0
 11
842.6045181949168
 21
579.0663254321994
 31
0.0
 11
841.4690057769783
 21
579.8156880642121
 31
0.0
 11
840.2713625548515
 21
580.4612424538208
 31
0.0
 11
839.0268780209414
 21
580.9952647562709
 31
0.0
 11
837.7394693378301
 21
581.4155256651536
 31
0.0
 11
836.4236171849975
 21
581.7177967284149
 31
0.0
 11
835.0858288427219
 21
581.9000631392179
 31
0.0
 11
834.5090936847432
 21
581.9411542332908
 31
0.0
 11
833.9323585267644
 21
581.959866018418
 31
0.0
  0
SPLINE
  5
367
330
1F
100
AcDbEntity
  8
1
  6
Continuous
 62
     7
100
AcDbSpline
210
0.0
220
0.0
230
1.0
 70
     8
 71
     3
 72
    45
 73
    41
 74
    39
 42
0.0000000001
 43
0.0000000001
 44
0.00000001
 40
0.0
 40
0.0
 40
0.0
 40
0.0
 40
0.77065123005765
 40
1.542851047146649
 40
2.892998703233055
 40
4.243122654505309
 40
5.597390112906647
 40
6.9516137187621
 40
8.312161313463903
 40
9.672651227263209
 40
11.04085914264653
 40
12.40900334987643
 40
13.7853138262448
 40
15.16156251784876
 40
16.54544151939956
 40
17.92926771358242
 40
19.31928351722074
 40
20.70926101611951
 40
22.10326382286637
 40
23.49724654922034
 40
24.89262456122242
 40
26.28800257322451
 40
27.68198529957834
 40
29.07598810632535
 40
30.46596560522418
 40
31.85598140886263
 40
33.23980760304548
 40
34.62368660459629
 40
35.99993529620016
 40
37.37624577256836
 40
38.74438997979818
 40
40.11259789518159
 40
41.47308780898089
 40
42.8336354036828
 40
44.18785900953814
 40
45.54212646793966
 40
46.89225041921189
 40
48.24239807529841
 40
49.59110375796552
 40
50.93980944063263
 40
50.93980944063263
 40
50.93980944063263
 40
50.93980944063263
 10
833.9323585267644
 20
581.959866018418
 30
0.0
 10
833.6754141303052
 20
581.9593574258621
 30
0.0
 10
833.1610090198305
 20
581.9583392187579
 30
0.0
 10
832.1982963257159
 20
581.893302176577
 30
0.0
 10
831.0496962567194
 20
581.7382171942584
 30
0.0
 10
829.7308290651963
 20
581.4344970683966
 30
0.0
 10
828.44295031399
 20
581.0143675544163
 30
0.0
 10
827.1950195025906
 20
580.4783954460055
 30
0.0
 10
825.997611217849
 20
579.8331006171683
 30
0.0
 10
824.8586852654821
 20
579.0809786535444
 30
0.0
 10
823.7880643368737
 20
578.2303850694731
 30
0.0
 10
822.792784840311
 20
577.2851151651835
 30
0.0
 10
821.8813450403283
 20
576.2551917125551
 30
0.0
 10
821.0598978429757
 20
575.145654789113
 30
0.0
 10
820.335160432506
 20
573.9677277502876
 30
0.0
 10
819.7123802671752
 20
572.7277462786269
 30
0.0
 10
819.1962053053709
 20
571.4375498063375
 30
0.0
 10
818.790855720799
 20
570.1048348044108
 30
0.0
 10
818.4988179132456
 20
568.7414456062568
 30
0.0
 10
818.3230604458372
 20
567.3564456348287
 30
0.0
 10
818.2639996613932
 20
565.9611301872473
 30
0.0
 10
818.3230604458374
 20
564.5658147396665
 30
0.0
 10
818.4988179132461
 20
563.1808147682369
 30
0.0
 10
818.7908557207965
 20
561.8174255700876
 30
0.0
 10
819.1962053053808
 20
560.4847105681434
 30
0.0
 10
819.7123802671406
 20
559.1945140959193
 30
0.0
 10
820.3351604326324
 20
557.9545326240152
 30
0.0
 10
821.0598978425056
 20
556.776605586095
 30
0.0
 10
821.8813450420718
 20
555.6670686592936
 30
0.0
 10
822.7927848338195
 20
554.637145219163
 30
0.0
 10
823.7880643609415
 20
553.6918752684967
 30
0.0
 10
824.8586851758503
 20
552.8412818569721
 30
0.0
 10
825.9976115502703
 20
552.0891592528586
 30
0.0
 10
827.1950182641207
 20
551.4438668079343
 30
0.0
 10
828.4429549122328
 20
550.9078858419987
 30
0.0
 10
829.7308119232173
 20
550.4877893199694
 30
0.0
 10
831.0497600147091
 20
550.1839464240718
 30
0.0
 10
832.3887510768707
 20
550.0035716941559
 30
0.0
 10
833.7389943228625
 20
549.9352591327289
 30
0.0
 10
834.6368840027686
 20
549.9932178677608
 30
0.0
 10
835.0858288427219
 20
550.0221972352767
 30
0.0
 11
833.9323585267644
 21
581.959866018418
 31
0.0
 11
833.1617712162511
 21
581.9499405327745
 31
0.0
 11
832.3911839057377
 21
581.9000631392179
 31
0.0
 11
831.053395563462
 21
581.7177967284149
 31
0.0
 11
829.7375434106295
 21
581.4155256651535
 31
0.0
 11
828.4501347275184
 21
580.9952647562709
 31
0.0
 11
827.2056501936081
 21
580.4612424538207
 31
0.0
 11
826.0080069714815
 21
579.8156880642121
 31
0.0
 11
824.8724945535429
 21
579.0663254321994
 31
0.0
 11
823.8012680701406
 21
578.2151693237356
 31
0.0
 11
822.8089598766418
 21
577.2732866235591
 31
0.0
 11
821.8968822697752
 21
576.2425854222336
 31
0.0
 11
821.0776750390564
 21
575.1367102148618
 31
0.0
 11
820.3525202388037
 21
573.9580365506936
 31
0.0
 11
819.7311342037403
 21
572.7215680589256
 31
0.0
 11
819.2148642975894
 21
571.430983184395
 31
0.0
 11
818.8101323643991
 21
570.1012352723076
 31
0.0
 11
818.5182533237071
 21
568.7381320294008
 31
0.0
 11
818.3425554398009
 21
567.3552661302754
 31
0.0
 11
818.2836931536042
 21
565.9611301872474
 31
0.0
 11
818.3425554398009
 21
564.5669942442194
 31
0.0
 11
818.518253323707
 21
563.184128345094
 31
0.0
 11
818.8101323643991
 21
561.8210251021872
 31
0.0
 11
819.2148642975897
 21
560.4912771900997
 31
0.0
 11
819.7311342037403
 21
559.2006923155689
 31
0.0
 11
820.3525202388037
 21
557.9642238238009
 31
0.0
 11
821.0776750390564
 21
556.7855501596328
 31
0.0
 11
821.8968822697752
 21
555.6796749522611
 31
0.0
 11
822.8089598766417
 21
554.6489737509356
 31
0.0
 11
823.8012680701404
 21
553.7070910507591
 31
0.0
 11
824.8724945535428
 21
552.8559349422953
 31
0.0
 11
826.0080069714813
 21
552.1065723102827
 31
0.0
 11
827.2056501936081
 21
551.4610179206741
 31
0.0
 11
828.4501347275183
 21
550.9269956182238
 31
0.0
 11
829.7375434106295
 21
550.506734709341
 31
0.0
 11
831.053395563462
 21
550.2044636460797
 31
0.0
 11
832.3911839057378
 21
550.0221972352767
 31
0.0
 11
833.7385063742298
 21
549.9611301872473
 31
0.0
 11
835.0858288427219
 21
550.0221972352767
 31
0.0
  0
SPLINE
  5
368
330
1F
100
AcDbEntity
  8
1
  6
Continuous
 62
     7
100
AcDbSpline
210
0.0
220
0.0
230
1.0
 70
     8
 71
     3
 72
    27
 73
    23
 74
    21
 42
0.0000000001
 43
0.0000000001
 44
0.00000001
 40
0.0
 40
0.0
 40
0.0
 40
0.0
 40
0.0513629651841847
 40
0.1028878981810254
 40
0.2066889498572592
 40
0.3104668326908356
 40
0.4169428666808102
 40
0.5233807161129376
 40
0.6338255714690986
 40
0.7442279100471431
 40
0.8593570684855869
 40
0.9744473039210072
 40
1.094365353900012
 40
1.214251917473228
 40
1.338506047409792
 40
1.462737138536978
 40
1.590419287042615
 40
1.718086572836499
 40
1.84795738135826
 40
1.977820942969867
 40
2.007071582758816
 40
2.036298634879675
 40
2.036298634879675
 40
2.036298634879675
 40
2.036298634879675
 10
815.979687329128
 20
553.7856152258464
 30
0.0
 10
815.9794087109633
 20
553.7684915365142
 30
0.0
 10
815.9788505960406
 20
553.7341901600618
 30
0.0
 10
815.9728330161985
 20
553.6655117798554
 30
0.0
 10
815.9586072022703
 20
553.5801420639143
 30
0.0
 10
815.9297821788821
 20
553.4792875800259
 30
0.0
 10
815.8901995537863
 20
553.381213064596
 30
0.0
 10
815.8394755502447
 20
553.2858978575779
 30
0.0
 10
815.7788361966934
 20
553.1949932795046
 30
0.0
 10
815.7078512829473
 20
553.1081614604168
 30
0.0
 10
815.6281284085693
 20
553.0270960868677
 30
0.0
 10
815.5391417961973
 20
552.9513580419584
 30
0.0
 10
815.4427990934048
 20
552.8824710548961
 30
0.0
 10
815.3385766776311
 20
552.8200646192769
 30
0.0
 10
815.2285150957658
 20
552.7653444958247
 30
0.0
 10
815.1122474354652
 20
552.7180940692883
 30
0.0
 10
814.9917491289573
 20
552.6791380891722
 30
0.0
 10
814.8669633545972
 20
552.648414302901
 30
0.0
 10
814.7396205339503
 20
552.6263719357478
 30
0.0
 10
814.6437119274551
 20
552.6165342125291
 30
0.0
 10
814.581047119613
 20
552.6126932444831
 30
0.0
 10
814.5615714047566
 20
552.6118718036936
 30
0.0
 10
814.5518374752082
 20
552.6114612489675
 30
0.0
 11
815.979687329128
 21
553.7856152258464
 31
0.0
 11
815.9782440460729
 21
553.734272542565
 31
0.0
 11
815.9739141969062
 21
553.6829298592837
 31
0.0
 11
815.9566916529047
 21
553.5805675502671
 31
0.0
 11
815.9283289888813
 21
553.4807406588254
 31
0.0
 11
815.8884973457629
 21
553.3819956031481
 31
0.0
 11
815.8386198936944
 21
553.2879676521607
 31
0.0
 11
815.7773922843456
 21
553.1960478723084
 31
0.0
 11
815.7076192917837
 21
553.1104885018547
 31
0.0
 11
815.6269622500987
 21
553.0283352015596
 31
0.0
 11
815.5393925312764
 21
552.9536538341514
 31
0.0
 11
815.4419023873185
 21
552.8838253976671
 31
0.0
 11
815.3390911684621
 21
552.8221598367545
 31
0.0
 11
815.2278678475686
 21
552.7667661394983
 31
0.0
 11
815.1128015461466
 21
552.719935484157
 31
0.0
 11
814.991330546469
 21
552.6805968608414
 31
0.0
 11
814.8673748587339
 21
552.6500367014818
 31
0.0
 11
814.7394122458466
 21
552.6278557049051
 31
0.0
 11
814.6102315369797
 21
552.6145557390744
 31
0.0
 11
814.5810345060941
 21
552.6127856216974
 31
0.0
 11
814.5518374752082
 21
552.6114612489675
 31
0.0
  0
SPLINE
  5
369
330
1F
100
AcDbEntity
  8
1
  6
Continuous
 62
     7
100
AcDbSpline
210
0.0
220
0.0
230
1.0
 70
     8
 71
     3
 72
    27
 73
    23
 74
    21
 42
0.0000000001
 43
0.0000000001
 44
0.00000001
 40
0.0
 40
0.0
 40
0.0
 40
0.0
 40
0.0513629651841847
 40
0.1028878981811387
 40
0.2066889498574845
 40
0.3104668326909516
 40
0.4169428666807154
 40
0.5233807161129431
 40
0.6338255714690095
 40
0.7442279100471421
 40
0.8593570684855859
 40
0.9744473039210799
 40
1.094365353900084
 40
1.214251917473242
 40
1.338506047409806
 40
1.462737138537035
 40
1.590419287042742
 40
1.718086572836571
 40
1.847957381358352
 40
1.977820942969936
 40
2.007071582758884
 40
2.036298634879749
 40
2.036298634879749
 40
2.036298634879749
 40
2.036298634879749
 10
815.979687329128
 20
578.1366451486481
 30
0.0
 10
815.9794087109635
 20
578.1537688379802
 30
0.0
 10
815.9788505960408
 20
578.1880702144326
 30
0.0
 10
815.9728330161983
 20
578.2567485946393
 30
0.0
 10
815.9586072022705
 20
578.3421183105802
 30
0.0
 10
815.9297821788821
 20
578.4429727944686
 30
0.0
 10
815.8901995537862
 20
578.5410473098988
 30
0.0
 10
815.8394755502449
 20
578.6363625169166
 30
0.0
 10
815.7788361966935
 20
578.7272670949894
 30
0.0
 10
815.7078512829471
 20
578.8140989140778
 30
0.0
 10
815.6281284085695
 20
578.8951642876268
 30
0.0
 10
815.5391417961973
 20
578.9709023325361
 30
0.0
 10
815.4427990934048
 20
579.0397893195985
 30
0.0
 10
815.3385766776312
 20
579.1021957552175
 30
0.0
 10
815.2285150957659
 20
579.1569158786699
 30
0.0
 10
815.1122474354652
 20
579.2041663052061
 30
0.0
 10
814.9917491289571
 20
579.2431222853229
 30
0.0
 10
814.8669633545975
 20
579.2738460715937
 30
0.0
 10
814.7396205339503
 20
579.2958884387467
 30
0.0
 10
814.6437119274551
 20
579.3057261619658
 30
0.0
 10
814.5810471196131
 20
579.3095671300112
 30
0.0
 10
814.5615714047567
 20
579.310388570801
 30
0.0
 10
814.5518374752082
 20
579.3107991255271
 30
0.0
 11
815.979687329128
 21
578.1366451486481
 31
0.0
 11
815.9782440460729
 21
578.1879878319295
 31
0.0
 11
815.9739141969062
 21
578.2393305152109
 31
0.0
 11
815.9566916529047
 21
578.3416928242276
 31
0.0
 11
815.9283289888813
 21
578.4415197156692
 31
0.0
 11
815.8884973457629
 21
578.5402647713463
 31
0.0
 11
815.8386198936944
 21
578.6342927223338
 31
0.0
 11
815.7773922843456
 21
578.7262125021859
 31
0.0
 11
815.7076192917837
 21
578.8117718726398
 31
0.0
 11
815.6269622500987
 21
578.8939251729349
 31
0.0
 11
815.5393925312764
 21
578.9686065403432
 31
0.0
 11
815.4419023873185
 21
579.0384349768275
 31
0.0
 11
815.3390911684621
 21
579.10010053774
 31
0.0
 11
815.2278678475686
 21
579.1554942349962
 31
0.0
 11
815.1128015461466
 21
579.2023248903377
 31
0.0
 11
814.991330546469
 21
579.2416635136534
 31
0.0
 11
814.8673748587339
 21
579.2722236730128
 31
0.0
 11
814.7394122458466
 21
579.2944046695897
 31
0.0
 11
814.6102315369797
 21
579.3077046354201
 31
0.0
 11
814.5810345060941
 21
579.3094747527971
 31
0.0
 11
814.5518374752082
 21
579.3107991255271
 31
0.0
  0
ARC
  5
36A
330
1F
100
AcDbEntity
  8
1
  6
Continuous
 62
     7
100
AcDbCircle
 10
793.3685640268205
 20
580.2177938935818
 30
0.0
 40
0.2000000000001425
100
AcDbArc
 50
130.0052008848491
 51
179.9999999999349
  0
ARC
  5
36B
330
1F
100
AcDbEntity
  8
1
  6
Continuous
 62
     7
100
AcDbCircle
 10
793.3685640268205
 20
551.704466480913
 30
0.0
 40
0.2000000000001592
100
AcDbArc
 50
-179.9999999999023
 51
-130.0052008848491
  0
ARC
  5
36C
330
1F
100
AcDbEntity
  8
1
  6
Continuous
 62
     7
100
AcDbCircle
 10
802.9996873291279
 20
599.960664706541
 30
0.0
 40
1.0
100
AcDbArc
 50
-90.00000000000651
 51
0.0
  0
ARC
  5
36D
330
1F
100
AcDbEntity
  8
1
  6
Continuous
 62
     7
100
AcDbCircle
 10
802.9996873291279
 20
625.960664706541
 30
0.0
 40
0.9999999999998863
100
AcDbArc
 50
0.0
 51
90.00000000000651
  0
ARC
  5
36E
330
1F
100
AcDbEntity
  8
1
  6
Continuous
 62
     7
100
AcDbCircle
 10
527.9996873291275
 20
599.9606647065411
 30
0.0
 40
1.000000000000341
100
AcDbArc
 50
180.0
 51
-90.00000000001954
  0
ARC
  5
36F
330
1F
100
AcDbEntity
  8
1
  6
Continuous
 62
     7
100
AcDbCircle
 10
527.9996873291275
 20
625.9606647065411
 30
0.0
 40
1.0
100
AcDbArc
 50
90.00000000001954
 51
180.0
  0
ARC
  5
370
330
1F
100
AcDbEntity
  8
1
  6
Continuous
 62
     7
100
AcDbCircle
 10
739.4996873291274
 20
590.9611301872474
 30
0.0
 40
1.0
100
AcDbArc
 50
89.99999999998697
 51
180.0
  0
ARC
  5
371
330
1F
100
AcDbEntity
  8
1
  6
Continuous
 62
     7
100
AcDbCircle
 10
739.4996873291276
 20
540.9611301872471
 30
0.0
 40
1.0
100
AcDbArc
 50
180.0
 51
-90.0
  0
ARC
  5
372
330
1F
100
AcDbEntity
  8
1
  6
Continuous
 62
     7
100
AcDbCircle
 10
789.4996873291275
 20
590.9611301872474
 30
0.0
 40
1.0
100
AcDbArc
 50
0.0
 51
90.00000000000651
  0
ARC
  5
373
330
1F
100
AcDbEntity
  8
1
  6
Continuous
 62
     7
100
AcDbCircle
 10
789.4996873291276
 20
540.9611301872471
 30
0.0
 40
1.0
100
AcDbArc
 50
-90.0
 51
0.0
  0
ARC
  5
374
330
1F
100
AcDbEntity
  8
1
  6
Continuous
 62
     7
100
AcDbCircle
 10
546.9996873291279
 20
587.1611301872456
 30
0.0
 40
0.5000000000002274
100
AcDbArc
 50
180.0
 51
-90.00000000002605
  0
ARC
  5
375
330
1F
100
AcDbEntity
  8
1
  6
Continuous
 62
     7
100
AcDbCircle
 10
571.9996873291271
 20
587.1611301872456
 30
0.0
 40
0.4999999999998863
100
AcDbArc
 50
-90.00000000009119
 51
-0.00000000001303
  0
ARC
  5
376
330
1F
100
AcDbEntity
  8
1
  6
Continuous
 62
     7
100
AcDbCircle
 10
856.4796873291277
 20
578.4611301872504
 30
0.0
 40
1.99999999999987
100
AcDbArc
 50
-138.5903778907235
 51
-90.0
  0
ARC
  5
377
330
1F
100
AcDbEntity
  8
1
  6
Continuous
 62
     7
100
AcDbCircle
 10
856.4796873291277
 20
553.4611301872444
 30
0.0
 40
2.0
100
AcDbArc
 50
90.0
 51
138.590377890726
  0
SOLID
  5
378
330
1F
100
AcDbEntity
  8
0
 62
     2
100
AcDbTrace
 10
867.2507806223629
 20
591.0931325074635
 30
0.0
 11
870.8270388570273
 21
588.9935060611505
 31
0.0
 12
861.0647866323111
 22
576.4611301872474
 32
0.0
 13
861.0647866323111
 23
576.4611301872474
 33
0.0
  0
LEADER
  5
379
330
1F
100
AcDbEntity
  8
0
  6
Continuous
 62
     2
100
AcDbLeader
  3
Standard
 71
     0
 76
     3
 10
861.0647866323111
 20
576.4611301872474
 30
0.0
 10
889.5866273025654
 20
625.0418992778228
 30
0.0
 10
825.2710881696561
 20
625.0418992778228
 30
0.0
  0
SOLID
  5
37A
330
1F
100
AcDbEntity
  8
1
 62
     2
100
AcDbTrace
 10
716.732849378673
 20
597.0707792299077
 30
0.0
 11
720.5072379335613
 21
595.3526275451633
 31
0.0
 12
712.0947147932757
 22
581.8770396931278
 32
0.0
 13
712.0947147932757
 23
581.8770396931278
 33
0.0
  0
LEADER
  5
37B
330
1F
100
AcDbEntity
  8
1
  6
Continuous
 62
     2
100
AcDbLeader
  3
Standard
 71
     0
 76
     2
 10
712.0947147932757
 20
581.8770396931278
 30
0.0
 10
714.4015000174128
 20
586.9445222826312
 30
0.0
  0
SOLID
  5
37C
330
1F
100
AcDbEntity
  8
1
 62
     2
100
AcDbTrace
 10
742.890512295305
 20
614.1340928550652
 30
0.0
 11
741.7975229769974
 21
618.13452139775
 31
0.0
 12
757.5371534140315
 22
620.2853461812579
 32
0.0
 13
757.5371534140315
 23
620.2853461812579
 33
0.0
  0
LEADER
  5
37D
330
1F
100
AcDbEntity
  8
1
  6
Continuous
 62
     2
100
AcDbLeader
  3
Standard
 71
     0
 76
     2
 10
757.5371534140315
 20
620.2853461812579
 30
0.0
 10
753.8905901956493
 20
619.2890392597124
 30
0.0
  0
CIRCLE
  5
37E
102
{ACAD_REACTORS
330
37F
102
}
330
1F
100
AcDbEntity
  8
0
 62
     2
100
AcDbCircle
 10
239.8315410067895
 20
575.8160586317938
 30
0.0
 40
2.700000000000001
  0
HATCH
  5
37F
330
1F
100
AcDbEntity
  8
0
 62
     2
100
AcDbHatch
 10
0.0
 20
0.0
 30
0.0
210
0.0
220
0.0
230
1.0
  2
SOLID
 70
     1
 71
     1
 91
        1
 92
        1
 93
        1
 72
     2
 10
239.8315410067895
 20
575.8160586317938
 40
2.700000000000001
 50
0.0
 51
360.0
 73
     1
 97
        1
330
37E
 75
     0
 76
     1
 98
        0
  0
LEADER
  5
380
330
1F
100
AcDbEntity
  8
0
  6
Continuous
 62
     2
100
AcDbLeader
  3
Standard
 71
     0
 76
     3
 10
239.8315410067895
 20
575.8160586317938
 30
0.0
 10
199.4605132527554
 20
645.7407298555543
 30
0.0
 10
154.716936401141
 20
645.7407298555543
 30
0.0
  0
MTEXT
  5
382
330
1F
100
AcDbEntity
  8
1
 62
     7
100
AcDbMText
 10
703.9953137886121
 20
1114.646955628807
 30
0.0
 40
15.75
 41
0.0
 71
     5
 72
     1
  1
K2530(K)-JD
  7
CONVERTER_2
 73
     1
 44
0.7202881152461
  0
MTEXT
  5
383
330
1F
100
AcDbEntity
  8
1
 62
     7
100
AcDbMText
 10
703.9953137886121
 20
1156.646955628807
 30
0.0
 40
15.75
 41
0.0
 71
     5
 72
     1
  1
K2530(K)-JW
  7
CONVERTER_2
 73
     1
 44
0.7202881152461
  0
MTEXT
  5
384
330
1F
100
AcDbEntity
  8
1
 62
     7
100
AcDbMText
 10
153.0
 20
153.0
 30
0.0
 40
15.75
 41
0.0
 71
     4
 72
     1
  1
JIS\P吐水口は回転式(120{\Fgdt;~})
  7
CONVERTER_1
 73
     1
 44
0.7202881152461
  0
MTEXT
  5
385
330
1F
100
AcDbEntity
  8
1
 62
     7
100
AcDbMText
 10
857.7989335069434
 20
638.5418992778227
 30
0.0
 40
15.75
 41
0.0
 71
     5
 72
     1
  1
PJ1/2
  7
CONVERTER_2
 73
     1
 44
1.32052821128451
  0
MTEXT
  5
386
330
1F
100
AcDbEntity
  8
1
 62
     7
100
AcDbMText
 10
256.5
 20
102.375
 30
0.0
 40
15.75
 41
0.0
 71
     5
 72
     1
  1
ツーバルブ混合栓
  7
CONVERTER_1
 73
     1
 44
0.7202881152461
  0
MTEXT
  5
387
330
1F
100
AcDbEntity
  8
1
 62
     7
100
AcDbMText
 10
256.5
 20
55.125
 30
0.0
 40
15.75
 41
0.0
 71
     5
 72
     1
  1
K2530K-色
  7
CONVERTER_1
 73
     1
 44
0.7202881152461
  0
MTEXT
  5
388
330
1F
100
AcDbEntity
  8
1
 62
     7
100
AcDbMText
 10
745.0995337255808
 20
648.8885043003961
 30
0.0
 40
15.75
 41
0.0
 71
     5
 72
     1
  1
止水
  7
CONVERTER_1
 73
     1
 44
0.7202881152461
  0
MTEXT
  5
389
330
1F
100
AcDbEntity
  8
1
 62
     7
100
AcDbMText
 10
693.8168640788429
 20
585.329721346641
 30
0.0
 40
15.75
 41
0.0
 71
     5
 72
     1
  1
吐水
  7
CONVERTER_1
 73
     1
 44
0.7202881152461
  0
MTEXT
  5
38A
330
1F
100
AcDbEntity
  8
1
 62
     7
100
AcDbMText
 10
383.625
 20
76.5
 30
0.0
 40
15.75
 41
0.0
 71
     5
 72
     1
  1
1
  7
CONVERTER_2
 73
     1
 44
0.7202881152461
  0
MTEXT
  5
38B
330
1F
100
AcDbEntity
  8
1
 62
     7
100
AcDbMText
 10
421.875
 20
76.5
 30
0.0
 40
15.75
 41
0.0
 71
     5
 72
     1
  1
4,5
  7
CONVERTER_2
 73
     1
 44
0.7202881152461
  0
MTEXT
  5
38C
330
1F
100
AcDbEntity
  8
1
 62
     7
100
AcDbMText
 10
703.9953137886121
 20
1198.646955628807
 30
0.0
 40
15.75
 41
0.0
 71
     5
 72
     1
  1
品番
  7
CONVERTER_1
 73
     1
 44
0.7202881152461
  0
MTEXT
  5
38D
330
1F
100
AcDbEntity
  8
1
 62
     7
100
AcDbMText
 10
828.9953137886121
 20
1114.646955628807
 30
0.0
 40
15.75
 41
0.0
 71
     5
 72
     1
  1
黒磁
  7
CONVERTER_1
 73
     1
 44
0.7202881152461
  0
MTEXT
  5
38E
330
1F
100
AcDbEntity
  8
1
 62
     7
100
AcDbMText
 10
828.9953137886121
 20
1156.646955628807
 30
0.0
 40
15.75
 41
0.0
 71
     5
 72
     1
  1
白磁
  7
CONVERTER_1
 73
     1
 44
0.7202881152461
  0
MTEXT
  5
38F
330
1F
100
AcDbEntity
  8
1
 62
     7
100
AcDbMText
 10
828.9953137886121
 20
1198.646955628807
 30
0.0
 40
15.75
 41
0.0
 71
     5
 72
     1
  1
色
  7
CONVERTER_1
 73
     1
 44
0.7202881152461
  0
MTEXT
  5
390
330
1F
100
AcDbEntity
  8
1
 62
     7
100
AcDbMText
 10
256.5
 20
73.125
 30
0.0
 40
15.75
 41
0.0
 71
     5
 72
     1
  1
K2530-色
  7
CONVERTER_1
 73
     1
 44
0.7202881152461
  0
DIMENSION
  5
39B
330
1F
100
AcDbEntity
  8
0
100
AcDbDimension
  2
*D041
 10
470.4996873291275
 20
565.9611301872474
 30
0.0
 11
458.1246873291275
 21
596.4611301872473
 31
0.0
  1
<>
 71
     5
 42
0.0
 53
90.0
  3
ME10_DIM_0
100
AcDbAlignedDimension
 13
527.9996873291271
 23
626.9606647065411
 33
0.0
 14
715.4996873291275
 24
565.9611301872474
 34
0.0
 50
90.0
100
AcDbRotatedDimension
  0
DIMENSION
  5
3A8
330
1F
100
AcDbEntity
  8
0
100
AcDbDimension
  2
*D142
 10
506.4996873291275
 20
565.9611301872474
 30
0.0
 11
494.1246873291275
 21
528.884151867368
 31
0.0
  1
21
 71
     5
 42
0.0
 53
90.0
  3
ME10_DIM_1
100
AcDbAlignedDimension
 13
546.9996873291277
 23
586.6611301872457
 33
0.0
 14
715.4996873291275
 24
565.9611301872474
 34
0.0
 50
90.0
100
AcDbRotatedDimension
  0
DIMENSION
  5
3B3
330
1F
100
AcDbEntity
  8
0
100
AcDbDimension
  2
*D243
 10
559.4996873291275
 20
494.9611301872471
 30
0.0
 11
661.9996873291275
 21
507.3361301872471
 31
0.0
  1
<>
 71
     5
 42
0.0
 53
0.00013888888889
  3
ME10_DIM_2
100
AcDbAlignedDimension
 13
764.4996873291275
 23
533.4611301872474
 33
0.0
 14
559.4996873291275
 24
582.8005798290283
 34
0.0
100
AcDbRotatedDimension
  0
DIMENSION
  5
3BE
330
1F
100
AcDbEntity
  8
0
100
AcDbDimension
  2
*D344
 10
465.9734346612155
 20
919.4611301872474
 30
0.0
 11
453.5984346612155
 21
964.711130187246
 31
0.0
  1
最小91
 71
     5
 42
0.0
 53
90.0
  3
ME10_DIM_3
100
AcDbAlignedDimension
 13
382.1734346612222
 23
1009.961130187245
 33
0.0
 14
422.0734346612158
 24
919.4611301872474
 34
0.0
 50
90.0
100
AcDbRotatedDimension
  0
DIMENSION
  5
3C9
330
1F
100
AcDbEntity
  8
0
100
AcDbDimension
  2
*D445
 10
249.9734346612222
 20
1072.461130187247
 30
0.0
 11
294.9734346612221
 21
1084.836130187247
 31
0.0
  1
<>
 71
     5
 42
0.0
 53
0.00013888888889
  3
ME10_DIM_4
100
AcDbAlignedDimension
 13
339.9734346612221
 23
968.8949448746282
 33
0.0
 14
249.9734346612222
 24
968.8949448746282
 34
0.0
100
AcDbRotatedDimension
  0
DIMENSION
  5
3D4
330
1F
100
AcDbEntity
  8
1
100
AcDbDimension
  2
*D546
 10
244.9734346612222
 20
1108.461130187247
 30
0.0
 11
294.9734346612221
 21
1120.836130187247
 31
0.0
  1
最大100
 71
     5
 42
0.0
 53
0.00013888888889
  3
ME10_DIM_5
100
AcDbAlignedDimension
 13
344.9734346612221
 23
1030.894944874628
 33
0.0
 14
244.9734346612222
 24
1033.461130187246
 34
0.0
100
AcDbRotatedDimension
  0
DIMENSION
  5
3DF
330
1F
100
AcDbEntity
  8
1
100
AcDbDimension
  2
*D647
 10
526.9996873291271
 20
671.9611301872474
 30
0.0
 11
665.4996873291275
 21
684.3361301872474
 31
0.0
  1
<>
 71
     5
 42
0.0
 53
0.00013888888889
  3
ME10_DIM_6
100
AcDbAlignedDimension
 13
803.9996873291278
 23
625.960664706541
 33
0.0
 14
526.9996873291271
 24
625.9606647065411
 34
0.0
100
AcDbRotatedDimension
  0
HATCH
  5
3E0
330
1F
100
AcDbEntity
  8
1
  6
Continuous
 62
     2
100
AcDbHatch
 10
0.0
 20
0.0
 30
0.0
210
0.0
220
0.0
230
1.0
  2
_USER
 70
     0
 71
     1
 91
        1
 92
        1
 93
       13
 72
     1
 10
187.0682790690629
 20
655.0560586317934
 11
187.0682790690629
 21
658.9440586317928
 72
     1
 10
187.0682790690629
 20
658.9440586317928
 11
184.7642790690635
 21
658.9440586317928
 72
     1
 10
184.7642790690635
 20
658.9440586317928
 11
184.7642790690635
 21
648.8640586317938
 72
     1
 10
184.7642790690635
 20
648.8640586317938
 11
187.0682790690629
 21
648.8640586317938
 72
     1
 10
187.0682790690629
 20
648.8640586317938
 11
187.0682790690629
 21
652.7520586317933
 72
     1
 10
187.0682790690629
 20
652.7520586317933
 11
192.8282790690632
 21
652.7520586317933
 72
     1
 10
192.8282790690632
 20
652.7520586317933
 11
192.8282790690632
 21
648.8640586317938
 72
     1
 10
192.8282790690632
 20
648.8640586317938
 11
195.1322790690632
 21
648.8640586317938
 72
     1
 10
195.1322790690632
 20
648.8640586317938
 11
195.1322790690632
 21
658.2240586317935
 72
     1
 10
195.1322790690632
 20
658.2240586317935
 11
195.1322790690632
 21
658.9440586317928
 72
     1
 10
195.1322790690632
 20
658.9440586317928
 11
192.8282790690632
 21
658.9440586317928
 72
     1
 10
192.8282790690632
 20
658.9440586317928
 11
192.8282790690632
 21
655.0560586317934
 72
     1
 10
192.8282790690632
 20
655.0560586317934
 11
187.0682790690629
 21
655.0560586317934
 97
       13
330
2A2
330
2A3
330
291
330
2A0
330
2A1
330
29C
330
29E
330
29D
330
2A5
330
2A4
330
2A7
330
2A6
330
29F
 75
     1
 76
     0
 52
45.0
 41
0.2
 77
     0
 78
     1
 53
45.0
 43
0.0
 44
0.0
 45
-0.1414213562373095
 46
0.1414213562373095
 79
     0
 98
        1
 10
0.0
 20
0.0
  0
HATCH
  5
3E1
330
1F
100
AcDbEntity
  8
1
  6
Continuous
 62
     2
100
AcDbHatch
 10
0.0
 20
0.0
 30
0.0
210
0.0
220
0.0
230
1.0
  2
_USER
 70
     0
 71
     1
 91
        2
 92
        1
 93
        5
 72
     1
 10
182.4602790690628
 20
658.9440586317928
 11
182.4602790690628
 21
648.8640586317938
 72
     1
 10
182.4602790690628
 20
648.8640586317938
 11
176.786679069063
 21
648.8640586317938
 72
     1
 10
176.786679069063
 20
648.8640586317938
 11
171.4010790690634
 21
648.8640586317938
 72
     1
 10
171.4010790690634
 20
648.8640586317938
 11
171.4010790690634
 21
658.9440586317928
 72
     1
 10
171.4010790690634
 20
658.9440586317928
 11
182.4602790690628
 21
658.9440586317928
 97
        5
330
2AE
330
2AD
330
295
330
2AC
330
2AF
 92
       16
 93
        4
 72
     1
 10
179.5802790690634
 20
656.6400586317941
 11
179.5802790690634
 21
651.1680586317939
 72
     1
 10
179.5802790690634
 20
651.1680586317939
 11
174.2810790690635
 21
651.1680586317939
 72
     1
 10
174.2810790690635
 20
651.1680586317939
 11
174.2810790690635
 21
656.6400586317941
 72
     1
 10
174.2810790690635
 20
656.6400586317941
 11
179.5802790690634
 21
656.6400586317941
 97
        4
330
2A8
330
2A9
330
2AA
330
2AB
 75
     1
 76
     0
 52
45.0
 41
0.2
 77
     0
 78
     1
 53
45.0
 43
0.0
 44
0.0
 45
-0.1414213562373095
 46
0.1414213562373095
 79
     0
 98
        1
 10
0.0
 20
0.0
  0
HATCH
  5
3E2
330
1F
100
AcDbEntity
  8
1
  6
Continuous
 62
     2
100
AcDbHatch
 10
0.0
 20
0.0
 30
0.0
210
0.0
220
0.0
230
1.0
  2
_USER
 70
     0
 71
     1
 91
        1
 92
        1
 93
       13
 72
     1
 10
176.7866790690629
 20
667.5840586317931
 11
189.4874790690628
 21
667.5840586317931
 72
     1
 10
189.4874790690628
 20
667.5840586317931
 11
189.4874790690628
 21
665.2800586317931
 72
     1
 10
189.4874790690628
 20
665.2800586317931
 11
167.6570790690638
 21
665.2800586317931
 72
     1
 10
167.6570790690638
 20
665.2800586317931
 11
167.6570790690638
 21
662.976058631793
 72
     1
 10
167.6570790690638
 20
662.976058631793
 11
169.0970790690638
 21
662.976058631793
 72
     1
 10
169.0970790690638
 20
662.976058631793
 11
169.0970790690638
 21
648.8640586317938
 72
     1
 10
169.0970790690638
 20
648.8640586317938
 11
163.9130790690637
 21
648.8640586317938
 72
     1
 10
163.9130790690637
 20
648.8640586317938
 11
163.9130790690637
 21
662.976058631793
 72
     1
 10
163.9130790690637
 20
662.976058631793
 11
165.3530790690626
 21
662.976058631793
 72
     1
 10
165.3530790690626
 20
662.976058631793
 11
165.3530790690626
 21
665.2800586317931
 72
     1
 10
165.3530790690626
 20
665.2800586317931
 11
158.4410790690629
 21
665.2800586317931
 72
     1
 10
158.4410790690629
 20
665.2800586317931
 11
158.4410790690629
 21
667.5840586317931
 72
     1
 10
158.4410790690629
 20
667.5840586317931
 11
176.7866790690629
 21
667.5840586317931
 97
       13
330
296
330
2B9
330
2B5
330
2B6
330
2B0
330
2B1
330
2B2
330
2B3
330
2B4
330
2B7
330
2B8
330
2BB
330
2BA
 75
     1
 76
     0
 52
45.0
 41
0.2
 77
     0
 78
     1
 53
45.0
 43
0.0
 44
0.0
 45
-0.1414213562373095
 46
0.1414213562373095
 79
     0
 98
        1
 10
0.0
 20
0.0
  0
ENDSEC
  0
SECTION
  2
OBJECTS
  0
DICTIONARY
  5
C
330
0
100
AcDbDictionary
281
     1
  3
ACAD_GROUP
350
D
  3
ACAD_LAYOUT
350
1A
  3
ACAD_MLINESTYLE
350
17
  3
ACAD_PLOTSETTINGS
350
19
  3
ACAD_PLOTSTYLENAME
350
E
  3
ACAD_TABLESTYLE
350
2A
  3
AcDbVariableDictionary
350
2C
  0
DICTIONARY
  5
D
102
{ACAD_REACTORS
330
C
102
}
330
C
100
AcDbDictionary
281
     1
  0
DICTIONARY
  5
1A
102
{ACAD_REACTORS
330
C
102
}
330
C
100
AcDbDictionary
281
     1
  3
Layout1
350
1E
  3
Layout2
350
26
  3
Model
350
22
  0
DICTIONARY
  5
17
102
{ACAD_REACTORS
330
C
102
}
330
C
100
AcDbDictionary
281
     1
  3
Standard
350
18
  0
DICTIONARY
  5
19
102
{ACAD_REACTORS
330
C
102
}
330
C
100
AcDbDictionary
281
     1
  0
ACDBDICTIONARYWDFLT
  5
E
102
{ACAD_REACTORS
330
C
102
}
330
C
100
AcDbDictionary
281
     1
  3
Normal
350
F
100
AcDbDictionaryWithDefault
340
F
  0
DICTIONARY
  5
2A
102
{ACAD_REACTORS
330
C
102
}
330
C
100
AcDbDictionary
281
     1
  3
Standard
350
2B
  0
DICTIONARY
  5
2C
102
{ACAD_REACTORS
330
C
102
}
330
C
100
AcDbDictionary
281
     1
  3
CTABLESTYLE
350
2D
  0
LAYOUT
  5
1E
102
{ACAD_REACTORS
330
1A
102
}
330
1A
100
AcDbPlotSettings
  1

  2

  4

  6

 40
0.0
 41
0.0
 42
0.0
 43
0.0
 44
0.0
 45
0.0
 46
0.0
 47
0.0
 48
0.0
 49
0.0
140
0.0
141
0.0
142
1.0
143
1.0
 70
   688
 72
     0
 73
     0
 74
     5
  7

 75
    16
147
1.0
148
0.0
149
0.0
100
AcDbLayout
  1
Layout1
 70
     1
 71
     1
 10
0.0
 20
0.0
 11
12.0
 21
9.0
 12
0.0
 22
0.0
 32
0.0
 14
1.00000000000000E+20
 24
1.00000000000000E+20
 34
1.00000000000000E+20
 15
-1.00000000000000E+20
 25
-1.00000000000000E+20
 35
-1.00000000000000E+20
146
0.0
 13
0.0
 23
0.0
 33
0.0
 16
1.0
 26
0.0
 36
0.0
 17
0.0
 27
1.0
 37
0.0
 76
     0
330
1B
  0
LAYOUT
  5
26
102
{ACAD_REACTORS
330
1A
102
}
330
1A
100
AcDbPlotSettings
  1

  2

  4

  6

 40
0.0
 41
0.0
 42
0.0
 43
0.0
 44
0.0
 45
0.0
 46
0.0
 47
0.0
 48
0.0
 49
0.0
140
0.0
141
0.0
142
1.0
143
1.0
 70
   688
 72
     0
 73
     0
 74
     5
  7

 75
    16
147
1.0
148
0.0
149
0.0
100
AcDbLayout
  1
Layout2
 70
     1
 71
     2
 10
0.0
 20
0.0
 11
0.0
 21
0.0
 12
0.0
 22
0.0
 32
0.0
 14
0.0
 24
0.0
 34
0.0
 15
0.0
 25
0.0
 35
0.0
146
0.0
 13
0.0
 23
0.0
 33
0.0
 16
1.0
 26
0.0
 36
0.0
 17
0.0
 27
1.0
 37
0.0
 76
     0
330
23
  0
LAYOUT
  5
22
102
{ACAD_REACTORS
330
1A
102
}
330
1A
100
AcDbPlotSettings
  1

  2

  4

  6

 40
0.0
 41
0.0
 42
0.0
 43
0.0
 44
0.0
 45
0.0
 46
0.0
 47
0.0
 48
0.0
 49
0.0
140
0.0
141
0.0
142
1.0
143
1.0
 70
  1712
 72
     0
 73
     0
 74
     0
  7

 75
     0
147
1.0
148
0.0
149
0.0
100
AcDbLayout
  1
Model
 70
     1
 71
     0
 10
0.0
 20
0.0
 11
0.0
 21
0.0
 12
0.0
 22
0.0
 32
0.0
 14
0.0
 24
0.0
 34
0.0
 15
945.0
 25
1336.5
 35
0.0
146
0.0
 13
0.0
 23
0.0
 33
0.0
 16
1.0
 26
0.0
 36
0.0
 17
0.0
 27
1.0
 37
0.0
 76
     0
330
1F
  0
MLINESTYLE
  5
18
102
{ACAD_REACTORS
330
17
102
}
330
17
100
AcDbMlineStyle
  2
Standard
 70
     0
  3

 62
   256
 51
90.0
 52
90.0
 71
     2
 49
0.5
 62
   256
  6
BYLAYER
 49
-0.5
 62
   256
  6
BYLAYER
  0
ACDBPLACEHOLDER
  5
F
102
{ACAD_REACTORS
330
E
102
}
330
E
  0
TABLESTYLE
  5
2B
102
{ACAD_REACTORS
330
2A
102
}
330
2A
100
AcDbTableStyle
  3
Standard
 70
     0
 71
     0
 40
0.06
 41
0.06
280
     0
281
     0
  7
Standard
140
0.18
170
     2
 62
     0
 63
     7
283
     0
274
    -2
284
     1
 64
     0
275
    -2
285
     1
 65
     0
276
    -2
286
     1
 66
     0
277
    -2
287
     1
 67
     0
278
    -2
288
     1
 68
     0
279
    -2
289
     1
 69
     0
  7
Standard
140
0.25
170
     5
 62
     0
 63
     7
283
     0
274
    -2
284
     1
 64
     0
275
    -2
285
     1
 65
     0
276
    -2
286
     1
 66
     0
277
    -2
287
     1
 67
     0
278
    -2
288
     1
 68
     0
279
    -2
289
     1
 69
     0
  7
Standard
140
0.18
170
     5
 62
     0
 63
     7
283
     0
274
    -2
284
     1
 64
     0
275
    -2
285
     1
 65
     0
276
    -2
286
     1
 66
     0
277
    -2
287
     1
 67
     0
278
    -2
288
     1
 68
     0
279
    -2
289
     1
 69
     0
  0
DICTIONARYVAR
  5
2D
102
{ACAD_REACTORS
330
2C
102
}
330
2C
100
DictionaryVariables
280
     0
  1
Standard
  0
ENDSEC
  0
EOF
