  0
SECTION
  2
HEADER
  9
$ACADVER
  1
AC1015
  9
$ACADMAINTVER
 70
     6
  9
$DWGCODEPAGE
  3
ANSI_932
  9
$INSBASE
 10
0.0
 20
0.0
 30
0.0
  9
$EXTMIN
 10
0.0
 20
0.0
 30
0.0
  9
$EXTMAX
 10
1050.0
 20
1485.0
 30
0.0
  9
$LIMMIN
 10
0.0
 20
0.0
  9
$LIMMAX
 10
12.0
 20
9.0
  9
$ORTHOMODE
 70
     0
  9
$REGENMODE
 70
     1
  9
$FILLMODE
 70
     1
  9
$QTEXTMODE
 70
     0
  9
$MIRRTEXT
 70
     1
  9
$LTSCALE
 40
1.0
  9
$ATTMODE
 70
     1
  9
$TEXTSIZE
 40
0.2
  9
$TRACEWID
 40
0.05
  9
$TEXTSTYLE
  7
Standard
  9
$CLAYER
  8
0
  9
$CELTYPE
  6
ByLayer
  9
$CECOLOR
 62
   256
  9
$CELTSCALE
 40
1.0
  9
$DISPSILH
 70
     0
  9
$DIMSCALE
 40
1.0
  9
$DIMASZ
 40
0.18
  9
$DIMEXO
 40
0.0625
  9
$DIMDLI
 40
0.38
  9
$DIMRND
 40
0.0
  9
$DIMDLE
 40
0.0
  9
$DIMEXE
 40
0.18
  9
$DIMTP
 40
0.0
  9
$DIMTM
 40
0.0
  9
$DIMTXT
 40
0.18
  9
$DIMCEN
 40
0.09
  9
$DIMTSZ
 40
0.0
  9
$DIMTOL
 70
     0
  9
$DIMLIM
 70
     0
  9
$DIMTIH
 70
     1
  9
$DIMTOH
 70
     1
  9
$DIMSE1
 70
     0
  9
$DIMSE2
 70
     0
  9
$DIMTAD
 70
     0
  9
$DIMZIN
 70
     0
  9
$DIMBLK
  1

  9
$DIMASO
 70
     1
  9
$DIMSHO
 70
     1
  9
$DIMPOST
  1

  9
$DIMAPOST
  1

  9
$DIMALT
 70
     0
  9
$DIMALTD
 70
     2
  9
$DIMALTF
 40
25.4
  9
$DIMLFAC
 40
1.0
  9
$DIMTOFL
 70
     0
  9
$DIMTVP
 40
0.0
  9
$DIMTIX
 70
     0
  9
$DIMSOXD
 70
     0
  9
$DIMSAH
 70
     0
  9
$DIMBLK1
  1

  9
$DIMBLK2
  1

  9
$DIMSTYLE
  2
Standard
  9
$DIMCLRD
 70
     0
  9
$DIMCLRE
 70
     0
  9
$DIMCLRT
 70
     0
  9
$DIMTFAC
 40
1.0
  9
$DIMGAP
 40
0.09
  9
$DIMJUST
 70
     0
  9
$DIMSD1
 70
     0
  9
$DIMSD2
 70
     0
  9
$DIMTOLJ
 70
     1
  9
$DIMTZIN
 70
     0
  9
$DIMALTZ
 70
     0
  9
$DIMALTTZ
 70
     0
  9
$DIMUPT
 70
     0
  9
$DIMDEC
 70
     4
  9
$DIMTDEC
 70
     4
  9
$DIMALTU
 70
     2
  9
$DIMALTTD
 70
     2
  9
$DIMTXSTY
  7
Standard
  9
$DIMAUNIT
 70
     0
  9
$DIMADEC
 70
     0
  9
$DIMALTRND
 40
0.0
  9
$DIMAZIN
 70
     0
  9
$DIMDSEP
 70
    46
  9
$DIMATFIT
 70
     3
  9
$DIMFRAC
 70
     0
  9
$DIMLDRBLK
  1

  9
$DIMLUNIT
 70
     2
  9
$DIMLWD
 70
    -2
  9
$DIMLWE
 70
    -2
  9
$DIMTMOVE
 70
     0
  9
$LUNITS
 70
     2
  9
$LUPREC
 70
     4
  9
$SKETCHINC
 40
0.1
  9
$FILLETRAD
 40
0.5
  9
$AUNITS
 70
     0
  9
$AUPREC
 70
     0
  9
$MENU
  1
.
  9
$ELEVATION
 40
0.0
  9
$PELEVATION
 40
0.0
  9
$THICKNESS
 40
0.0
  9
$LIMCHECK
 70
     0
  9
$CHAMFERA
 40
0.5
  9
$CHAMFERB
 40
0.5
  9
$CHAMFERC
 40
1.0
  9
$CHAMFERD
 40
0.0
  9
$SKPOLY
 70
     0
  9
$TDCREATE
 40
2456864.496483715
  9
$TDUCREATE
 40
2456864.121483715
  9
$TDUPDATE
 40
2456864.496485706
  9
$TDUUPDATE
 40
2456864.121485706
  9
$TDINDWG
 40
0.0000000116
  9
$TDUSRTIMER
 40
0.0000000116
  9
$USRTIMER
 70
     1
  9
$ANGBASE
 50
0.0
  9
$ANGDIR
 70
     0
  9
$PDMODE
 70
     0
  9
$PDSIZE
 40
0.0
  9
$PLINEWID
 40
0.0
  9
$SPLFRAME
 70
     0
  9
$SPLINETYPE
 70
     6
  9
$SPLINESEGS
 70
     8
  9
$HANDSEED
  5
557
  9
$SURFTAB1
 70
     6
  9
$SURFTAB2
 70
     6
  9
$SURFTYPE
 70
     6
  9
$SURFU
 70
     6
  9
$SURFV
 70
     6
  9
$UCSBASE
  2

  9
$UCSNAME
  2

  9
$UCSORG
 10
0.0
 20
0.0
 30
0.0
  9
$UCSXDIR
 10
1.0
 20
0.0
 30
0.0
  9
$UCSYDIR
 10
0.0
 20
1.0
 30
0.0
  9
$UCSORTHOREF
  2

  9
$UCSORTHOVIEW
 70
     0
  9
$UCSORGTOP
 10
0.0
 20
0.0
 30
0.0
  9
$UCSORGBOTTOM
 10
0.0
 20
0.0
 30
0.0
  9
$UCSORGLEFT
 10
0.0
 20
0.0
 30
0.0
  9
$UCSORGRIGHT
 10
0.0
 20
0.0
 30
0.0
  9
$UCSORGFRONT
 10
0.0
 20
0.0
 30
0.0
  9
$UCSORGBACK
 10
0.0
 20
0.0
 30
0.0
  9
$PUCSBASE
  2

  9
$PUCSNAME
  2

  9
$PUCSORG
 10
0.0
 20
0.0
 30
0.0
  9
$PUCSXDIR
 10
1.0
 20
0.0
 30
0.0
  9
$PUCSYDIR
 10
0.0
 20
1.0
 30
0.0
  9
$PUCSORTHOREF
  2

  9
$PUCSORTHOVIEW
 70
     0
  9
$PUCSORGTOP
 10
0.0
 20
0.0
 30
0.0
  9
$PUCSORGBOTTOM
 10
0.0
 20
0.0
 30
0.0
  9
$PUCSORGLEFT
 10
0.0
 20
0.0
 30
0.0
  9
$PUCSORGRIGHT
 10
0.0
 20
0.0
 30
0.0
  9
$PUCSORGFRONT
 10
0.0
 20
0.0
 30
0.0
  9
$PUCSORGBACK
 10
0.0
 20
0.0
 30
0.0
  9
$USERI1
 70
     0
  9
$USERI2
 70
     0
  9
$USERI3
 70
     0
  9
$USERI4
 70
     0
  9
$USERI5
 70
     0
  9
$USERR1
 40
18.1
  9
$USERR2
 40
0.0
  9
$USERR3
 40
0.0
  9
$USERR4
 40
0.0
  9
$USERR5
 40
0.0
  9
$WORLDVIEW
 70
     1
  9
$SHADEDGE
 70
     3
  9
$SHADEDIF
 70
    70
  9
$TILEMODE
 70
     1
  9
$MAXACTVP
 70
    64
  9
$PINSBASE
 10
0.0
 20
0.0
 30
0.0
  9
$PLIMCHECK
 70
     0
  9
$PEXTMIN
 10
1.00000000000000E+20
 20
1.00000000000000E+20
 30
1.00000000000000E+20
  9
$PEXTMAX
 10
-1.00000000000000E+20
 20
-1.00000000000000E+20
 30
-1.00000000000000E+20
  9
$PLIMMIN
 10
0.0
 20
0.0
  9
$PLIMMAX
 10
12.0
 20
9.0
  9
$UNITMODE
 70
     0
  9
$VISRETAIN
 70
     1
  9
$PLINEGEN
 70
     0
  9
$PSLTSCALE
 70
     1
  9
$TREEDEPTH
 70
  3020
  9
$CMLSTYLE
  2
Standard
  9
$CMLJUST
 70
     0
  9
$CMLSCALE
 40
1.0
  9
$PROXYGRAPHICS
 70
     1
  9
$MEASUREMENT
 70
     1
  9
$CELWEIGHT
370
    -1
  9
$ENDCAPS
280
     0
  9
$JOINSTYLE
280
     0
  9
$LWDISPLAY
290
     0
  9
$INSUNITS
 70
     4
  9
$HYPERLINKBASE
  1

  9
$STYLESHEET
  1

  9
$XEDIT
290
     1
  9
$CEPSNTYPE
380
     0
  9
$PSTYLEMODE
290
     1
  9
$FINGERPRINTGUID
  2
{F7505314-71CD-4F4B-892D-70DA2AE078FF}
  9
$VERSIONGUID
  2
{FAEB1C32-E019-11D5-929B-00C0DF256EC4}
  9
$EXTNAMES
290
     1
  9
$PSVPSCALE
 40
0.0
  9
$OLESTARTUP
290
     0
  0
ENDSEC
  0
SECTION
  2
CLASSES
  0
CLASS
  1
ACDBDICTIONARYWDFLT
  2
AcDbDictionaryWithDefault
  3
ObjectDBX Classes
 90
        0
280
     0
281
     0
  0
CLASS
  1
VISUALSTYLE
  2
AcDbVisualStyle
  3
ObjectDBX Classes
 90
     4095
280
     0
281
     0
  0
CLASS
  1
MATERIAL
  2
AcDbMaterial
  3
ObjectDBX Classes
 90
     1153
280
     0
281
     0
  0
CLASS
  1
DICTIONARYVAR
  2
AcDbDictionaryVar
  3
ObjectDBX Classes
 90
        0
280
     0
281
     0
  0
CLASS
  1
ACDBPLACEHOLDER
  2
AcDbPlaceHolder
  3
ObjectDBX Classes
 90
        0
280
     0
281
     0
  0
CLASS
  1
LAYOUT
  2
AcDbLayout
  3
ObjectDBX Classes
 90
        0
280
     0
281
     0
  0
ENDSEC
  0
SECTION
  2
TABLES
  0
TABLE
  2
VPORT
  5
8
330
0
100
AcDbSymbolTable
 70
     1
  0
VPORT
  5
29
330
8
100
AcDbSymbolTableRecord
100
AcDbViewportTableRecord
  2
*Active
 70
     0
 10
0.0
 20
0.0
 11
1.0
 21
1.0
 12
525.0
 22
742.5
 13
0.0
 23
0.0
 14
0.5
 24
0.5
 15
0.5
 25
0.5
 16
0.0
 26
0.0
 36
1.0
 17
0.0
 27
0.0
 37
0.0
 40
1633.5
 41
1.60267857142857
 42
50.0
 43
0.0
 44
0.0
 50
0.0
 51
0.0
 71
     0
 72
   100
 73
     1
 74
     3
 75
     0
 76
     0
 77
     0
 78
     0
281
     0
 65
     1
110
0.0
120
0.0
130
0.0
111
1.0
121
0.0
131
0.0
112
0.0
122
1.0
132
0.0
 79
     0
146
0.0
  0
ENDTAB
  0
TABLE
  2
LTYPE
  5
5
330
0
100
AcDbSymbolTable
 70
     8
  0
LTYPE
  5
14
330
5
100
AcDbSymbolTableRecord
100
AcDbLinetypeTableRecord
  2
ByBlock
 70
     0
  3

 72
    65
 73
     0
 40
0.0
  0
LTYPE
  5
15
330
5
100
AcDbSymbolTableRecord
100
AcDbLinetypeTableRecord
  2
ByLayer
 70
     0
  3

 72
    65
 73
     0
 40
0.0
  0
LTYPE
  5
16
330
5
100
AcDbSymbolTableRecord
100
AcDbLinetypeTableRecord
  2
Continuous
 70
     0
  3
Solid line
 72
    65
 73
     0
 40
0.0
  0
LTYPE
  5
3F
330
5
100
AcDbSymbolTableRecord
100
AcDbLinetypeTableRecord
  2
DASHED
 70
     0
  3
Dashed
 72
    65
 73
     2
 40
15.0
 49
7.0
 74
     0
 49
-8.0
 74
     0
  0
LTYPE
  5
40
330
5
100
AcDbSymbolTableRecord
100
AcDbLinetypeTableRecord
  2
DOTTED
 70
     0
  3
Dotted
 72
    65
 73
     2
 40
1.0
 49
0.0
 74
     0
 49
-1.0
 74
     0
  0
LTYPE
  5
41
330
5
100
AcDbSymbolTableRecord
100
AcDbLinetypeTableRecord
  2
DOT_CENTER
 70
     0
  3
Dot_Center
 72
    65
 73
     4
 40
14.0
 49
12.0
 74
     0
 49
-1.0
 74
     0
 49
0.0
 74
     0
 49
-1.0
 74
     0
  0
LTYPE
  5
42
330
5
100
AcDbSymbolTableRecord
100
AcDbLinetypeTableRecord
  2
LONG_DASHED
 70
     0
  3
Long_Dashed
 72
    65
 73
     2
 40
15.0
 49
10.0
 74
     0
 49
-5.0
 74
     0
  0
LTYPE
  5
43
330
5
100
AcDbSymbolTableRecord
100
AcDbLinetypeTableRecord
  2
DASH_CENTER
 70
     0
  3
Dash_Center
 72
    65
 73
     4
 40
14.0
 49
11.0
 74
     0
 49
-1.0
 74
     0
 49
1.0
 74
     0
 49
-1.0
 74
     0
  0
LTYPE
  5
44
330
5
100
AcDbSymbolTableRecord
100
AcDbLinetypeTableRecord
  2
PHANTOM
 70
     0
  3
Phantom
 72
    65
 73
     6
 40
13.0
 49
10.0
 74
     0
 49
-1.0
 74
     0
 49
0.0
 74
     0
 49
-1.0
 74
     0
 49
0.0
 74
     0
 49
-1.0
 74
     0
  0
LTYPE
  5
45
330
5
100
AcDbSymbolTableRecord
100
AcDbLinetypeTableRecord
  2
CENTER_DASH_DASH
 70
     0
  3
Center_Dash_Dash
 72
    65
 73
     6
 40
14.0
 49
9.0
 74
     0
 49
-1.0
 74
     0
 49
1.0
 74
     0
 49
-1.0
 74
     0
 49
1.0
 74
     0
 49
-1.0
 74
     0
  0
ENDTAB
  0
TABLE
  2
LAYER
  5
2
330
0
100
AcDbSymbolTable
 70
     2
  0
LAYER
  5
10
330
2
100
AcDbSymbolTableRecord
100
AcDbLayerTableRecord
  2
0
 70
     0
 62
     7
  6
Continuous
370
    -3
390
F
  0
LAYER
  5
46
330
2
100
AcDbSymbolTableRecord
100
AcDbLayerTableRecord
  2
1
 70
     0
 62
     7
  6
Continuous
370
    -3
390
F
  0
ENDTAB
  0
TABLE
  2
STYLE
  5
3
330
0
100
AcDbSymbolTable
 70
     3
  0
STYLE
  5
11
330
3
100
AcDbSymbolTableRecord
100
AcDbTextStyleTableRecord
  2
Standard
 70
     0
 40
0.0
 41
1.0
 50
0.0
 71
     0
 42
0.2
  3
txt
  4

  0
STYLE
  5
3F8
330
3
100
AcDbSymbolTableRecord
100
AcDbTextStyleTableRecord
  2
CONVERTER_11
 70
     0
 40
0.0
 41
0.89
 50
0.0
 71
     0
 42
0.2
  3
MS Mincho.ttf
  4

1001
ACAD
1000
MS Mincho
1071
    32785
  0
STYLE
  5
451
330
3
100
AcDbSymbolTableRecord
100
AcDbTextStyleTableRecord
  2
CONVERTER_12
 70
     0
 40
0.0
 41
0.9
 50
0.0
 71
     0
 42
0.2
  3
txt.shx
  4

  0
ENDTAB
  0
TABLE
  2
VIEW
  5
6
330
0
100
AcDbSymbolTable
 70
     0
  0
ENDTAB
  0
TABLE
  2
UCS
  5
7
330
0
100
AcDbSymbolTable
 70
     0
  0
ENDTAB
  0
TABLE
  2
APPID
  5
9
330
0
100
AcDbSymbolTable
 70
     1
  0
APPID
  5
12
330
9
100
AcDbSymbolTableRecord
100
AcDbRegAppTableRecord
  2
ACAD
 70
     0
  0
ENDTAB
  0
TABLE
  2
DIMSTYLE
  5
A
330
0
100
AcDbSymbolTable
 70
    17
100
AcDbDimStyleTable
  0
DIMSTYLE
105
27
330
A
100
AcDbSymbolTableRecord
100
AcDbDimStyleTableRecord
  2
Standard
 70
     0
178
     0
340
11
  0
DIMSTYLE
105
46A
102
{ACAD_REACTORS
330
46B
102
}
330
A
100
AcDbSymbolTableRecord
100
AcDbDimStyleTableRecord
  2
ME10_DIM_10
 70
     0
  3
最大<>
 41
17.5
 42
0.0
 44
5.0
 73
     0
 74
     0
 77
     1
 78
     8
140
17.5
147
5.0
172
     1
173
     1
174
     1
175
     1
176
     2
177
     2
271
     2
178
     7
271
     2
340
3F8
  0
DIMSTYLE
105
475
102
{ACAD_REACTORS
330
476
102
}
330
A
100
AcDbSymbolTableRecord
100
AcDbDimStyleTableRecord
  2
ME10_DIM_11
 70
     0
 41
17.5
 42
0.0
 44
5.0
 73
     0
 74
     0
 77
     1
 78
     8
140
17.5
147
5.0
172
     1
173
     1
174
     1
175
     1
176
     2
177
     2
271
     2
178
     7
271
     2
340
451
  0
DIMSTYLE
105
482
102
{ACAD_REACTORS
330
483
102
}
330
A
100
AcDbSymbolTableRecord
100
AcDbDimStyleTableRecord
  2
ME10_DIM_12
 70
     0
  3
ロックナット対辺<>
 41
17.5
 42
0.0
 44
5.0
 73
     0
 74
     0
 77
     1
 78
     8
140
17.5
147
5.0
172
     1
173
     1
174
     1
175
     1
176
     2
177
     2
271
     2
178
     7
271
     2
340
3F8
  0
DIMSTYLE
105
48D
102
{ACAD_REACTORS
330
48E
102
}
330
A
100
AcDbSymbolTableRecord
100
AcDbDimStyleTableRecord
  2
ME10_DIM_13
 70
     0
 41
17.5
 42
0.0
 44
5.0
 73
     0
 74
     0
 77
     1
 78
     8
140
17.5
147
5.0
172
     1
173
     1
174
     1
175
     1
176
     2
177
     2
271
     2
178
     7
271
     2
340
451
  0
DIMSTYLE
105
498
102
{ACAD_REACTORS
330
499
102
}
330
A
100
AcDbSymbolTableRecord
100
AcDbDimStyleTableRecord
  2
ME10_DIM_14
 70
     0
 41
17.5
 42
0.0
 44
5.0
 73
     0
 74
     0
 77
     1
 78
     8
140
17.5
147
5.0
172
     1
173
     1
174
     1
175
     1
176
     2
177
     2
271
     2
178
     7
271
     2
340
451
  0
DIMSTYLE
105
4A5
102
{ACAD_REACTORS
330
4A6
102
}
330
A
100
AcDbSymbolTableRecord
100
AcDbDimStyleTableRecord
  2
ME10_DIM_15
 70
     0
 41
17.5
 42
0.0
 44
5.0
 73
     0
 74
     0
 77
     1
 78
     8
140
17.5
147
5.0
172
     1
173
     1
174
     1
175
     1
176
     2
177
     2
271
     2
178
     7
271
     2
340
451
  0
DIMSTYLE
105
4B2
102
{ACAD_REACTORS
330
4B3
102
}
330
A
100
AcDbSymbolTableRecord
100
AcDbDimStyleTableRecord
  2
ME10_DIM_16
 70
     0
  3
{\Fgdt;n}<>
 41
17.5
 42
0.0
 44
5.0
 73
     0
 74
     0
 77
     1
 78
     8
140
17.5
147
5.0
172
     1
173
     1
174
     1
175
     1
176
     2
177
     2
271
     2
178
     7
271
     2
340
451
  0
DIMSTYLE
105
4BF
102
{ACAD_REACTORS
330
4C0
102
}
330
A
100
AcDbSymbolTableRecord
100
AcDbDimStyleTableRecord
  2
ME10_DIM_17
 70
     0
  3
{\Fgdt;n}<>
 41
17.5
 42
0.0
 44
5.0
 73
     0
 74
     0
 77
     1
 78
     8
140
17.5
147
5.0
172
     1
173
     1
174
     1
175
     1
176
     2
177
     2
271
     2
178
     7
271
     2
340
451
  0
DIMSTYLE
105
4CA
102
{ACAD_REACTORS
330
4CB
102
}
330
A
100
AcDbSymbolTableRecord
100
AcDbDimStyleTableRecord
  2
ME10_DIM_18
 70
     0
  3
最大<>
 41
17.5
 42
0.0
 44
5.0
 73
     0
 74
     0
 77
     1
 78
     8
140
17.5
147
5.0
172
     1
173
     1
174
     1
175
     1
176
     2
177
     2
271
     2
178
     7
271
     2
340
3F8
  0
DIMSTYLE
105
4D7
102
{ACAD_REACTORS
330
4D8
102
}
330
A
100
AcDbSymbolTableRecord
100
AcDbDimStyleTableRecord
  2
ME10_DIM_19
 70
     0
 41
17.5
 42
0.0
 44
5.0
 73
     0
 74
     0
 77
     1
 78
     8
140
17.5
147
5.0
172
     1
173
     1
174
     1
175
     1
176
     2
177
     2
271
     2
178
     7
271
     2
340
451
  0
DIMSTYLE
105
4E2
102
{ACAD_REACTORS
330
4E3
102
}
330
A
100
AcDbSymbolTableRecord
100
AcDbDimStyleTableRecord
  2
ME10_DIM_20
 70
     0
  3
最小<>
 41
17.5
 42
0.0
 44
5.0
 73
     0
 74
     0
 77
     1
 78
     8
140
17.5
147
5.0
172
     1
173
     1
174
     1
175
     1
176
     2
177
     2
271
     2
178
     7
271
     2
340
3F8
  0
DIMSTYLE
105
4ED
102
{ACAD_REACTORS
330
4EE
102
}
330
A
100
AcDbSymbolTableRecord
100
AcDbDimStyleTableRecord
  2
ME10_DIM_21
 70
     0
  3
銅管直管時<>
 41
17.5
 42
0.0
 44
5.0
 73
     0
 74
     0
 77
     1
 78
     8
140
17.5
147
5.0
172
     1
173
     1
174
     1
175
     1
176
     2
177
     2
271
     2
178
     7
271
     2
340
3F8
  0
DIMSTYLE
105
4F8
102
{ACAD_REACTORS
330
4F9
102
}
330
A
100
AcDbSymbolTableRecord
100
AcDbDimStyleTableRecord
  2
ME10_DIM_22
 70
     0
 41
17.5
 42
0.0
 44
5.0
 73
     0
 74
     0
 77
     1
 78
     8
140
17.5
147
5.0
172
     1
173
     1
174
     1
175
     1
176
     2
177
     2
271
     2
178
     7
271
     2
340
451
  0
DIMSTYLE
105
50C
102
{ACAD_REACTORS
330
50D
102
}
330
A
100
AcDbSymbolTableRecord
100
AcDbDimStyleTableRecord
  2
ME10_DIM_23
 70
     0
 41
17.5
 42
0.0
 44
5.0
 73
     0
 74
     0
 77
     1
 78
     8
140
17.5
147
5.0
172
     1
173
     1
174
     1
175
     1
176
     2
177
     2
271
     2
178
     7
271
     2
340
451
  0
DIMSTYLE
105
519
102
{ACAD_REACTORS
330
51A
102
}
330
A
100
AcDbSymbolTableRecord
100
AcDbDimStyleTableRecord
  2
ME10_DIM_24
 70
     0
 41
17.5
 42
0.0
 44
5.0
 73
     0
 74
     0
 77
     1
 78
     8
140
17.5
147
5.0
172
     1
173
     1
174
     1
175
     1
176
     2
177
     2
271
     2
178
     7
271
     2
340
451
  0
DIMSTYLE
105
526
102
{ACAD_REACTORS
330
527
102
}
330
A
100
AcDbSymbolTableRecord
100
AcDbDimStyleTableRecord
  2
ME10_DIM_25
 70
     0
 41
17.5
 42
0.0
 44
5.0
 73
     0
 74
     0
 77
     1
 78
     8
140
17.5
147
5.0
172
     1
173
     1
174
     1
175
     1
176
     2
177
     2
271
     2
178
     7
271
     2
340
451
  0
ENDTAB
  0
TABLE
  2
BLOCK_RECORD
  5
1
330
0
100
AcDbSymbolTable
 70
    42
  0
BLOCK_RECORD
  5
1F
330
1
100
AcDbSymbolTableRecord
100
AcDbBlockTableRecord
  2
*Model_Space
340
22
  0
BLOCK_RECORD
  5
1B
330
1
100
AcDbSymbolTableRecord
100
AcDbBlockTableRecord
  2
*Paper_Space
340
1E
  0
BLOCK_RECORD
  5
23
330
1
100
AcDbSymbolTableRecord
100
AcDbBlockTableRecord
  2
*Paper_Space0
340
26
  0
BLOCK_RECORD
  5
47
330
1
100
AcDbSymbolTableRecord
100
AcDbBlockTableRecord
  2
65-56-470-C2__1
340
0
102
{BLKREFS
331
4E
102
}
  0
BLOCK_RECORD
  5
4A
330
1
100
AcDbSymbolTableRecord
100
AcDbBlockTableRecord
  2
65-56-470-C2__2
340
0
102
{BLKREFS
331
4F
102
}
  0
BLOCK_RECORD
  5
4D
330
1
100
AcDbSymbolTableRecord
100
AcDbBlockTableRecord
  2
30-360X-470-C6
340
0
102
{BLKREFS
331
98
102
}
  0
BLOCK_RECORD
  5
52
330
1
100
AcDbSymbolTableRecord
100
AcDbBlockTableRecord
  2
37-398-M11
340
0
102
{BLKREFS
331
56
102
}
  0
BLOCK_RECORD
  5
55
330
1
100
AcDbSymbolTableRecord
100
AcDbBlockTableRecord
  2
新コラム洗面混合栓ノーマル130618
340
0
102
{BLKREFS
331
99
102
}
  0
BLOCK_RECORD
  5
59
330
1
100
AcDbSymbolTableRecord
100
AcDbBlockTableRecord
  2
32-116__3
340
0
102
{BLKREFS
331
60
102
}
  0
BLOCK_RECORD
  5
5C
330
1
100
AcDbSymbolTableRecord
100
AcDbBlockTableRecord
  2
30-253A-C2__4
340
0
102
{BLKREFS
331
61
102
}
  0
BLOCK_RECORD
  5
5F
330
1
100
AcDbSymbolTableRecord
100
AcDbBlockTableRecord
  2
V843FE__5
340
0
102
{BLKREFS
331
9A
102
}
  0
BLOCK_RECORD
  5
64
330
1
100
AcDbSymbolTableRecord
100
AcDbBlockTableRecord
  2
32-116__6
340
0
102
{BLKREFS
331
6B
102
}
  0
BLOCK_RECORD
  5
67
330
1
100
AcDbSymbolTableRecord
100
AcDbBlockTableRecord
  2
30-253A-C2__7
340
0
102
{BLKREFS
331
6C
102
}
  0
BLOCK_RECORD
  5
6A
330
1
100
AcDbSymbolTableRecord
100
AcDbBlockTableRecord
  2
V843FE__8
340
0
102
{BLKREFS
331
9B
102
}
  0
BLOCK_RECORD
  5
6F
330
1
100
AcDbSymbolTableRecord
100
AcDbBlockTableRecord
  2
35-338-M11
340
0
102
{BLKREFS
331
9C
102
}
  0
BLOCK_RECORD
  5
72
330
1
100
AcDbSymbolTableRecord
100
AcDbBlockTableRecord
  2
32-33-32
340
0
102
{BLKREFS
331
9D
102
}
  0
BLOCK_RECORD
  5
75
330
1
100
AcDbSymbolTableRecord
100
AcDbBlockTableRecord
  2
73-1-32_5-C2
340
0
102
{BLKREFS
331
9E
102
}
  0
BLOCK_RECORD
  5
78
330
1
100
AcDbSymbolTableRecord
100
AcDbBlockTableRecord
  2
レバー
340
0
102
{BLKREFS
331
7C
102
}
  0
BLOCK_RECORD
  5
7B
330
1
100
AcDbSymbolTableRecord
100
AcDbBlockTableRecord
  2
27-21-M1
340
0
102
{BLKREFS
331
9F
102
}
  0
BLOCK_RECORD
  5
7F
330
1
100
AcDbSymbolTableRecord
100
AcDbBlockTableRecord
  2
81-414-1-SH
340
0
102
{BLKREFS
331
A0
102
}
  0
BLOCK_RECORD
  5
82
330
1
100
AcDbSymbolTableRecord
100
AcDbBlockTableRecord
  2
30-255-M11
340
0
102
{BLKREFS
331
A1
102
}
  0
BLOCK_RECORD
  5
85
330
1
100
AcDbSymbolTableRecord
100
AcDbBlockTableRecord
  2
30-358-M1
340
0
102
{BLKREFS
331
A2
102
}
  0
BLOCK_RECORD
  5
88
330
1
100
AcDbSymbolTableRecord
100
AcDbBlockTableRecord
  2
87-141-1
340
0
102
{BLKREFS
331
8C
102
}
  0
BLOCK_RECORD
  5
8B
330
1
100
AcDbSymbolTableRecord
100
AcDbBlockTableRecord
  2
87-141
340
0
102
{BLKREFS
331
A3
102
}
  0
BLOCK_RECORD
  5
8F
330
1
100
AcDbSymbolTableRecord
100
AcDbBlockTableRecord
  2
開示A4
340
0
102
{BLKREFS
331
A4
102
}
  0
BLOCK_RECORD
  5
92
330
1
100
AcDbSymbolTableRecord
100
AcDbBlockTableRecord
  2
98-126
340
0
102
{BLKREFS
331
A5
102
}
  0
BLOCK_RECORD
  5
95
330
1
100
AcDbSymbolTableRecord
100
AcDbBlockTableRecord
  2
92-64A
340
0
102
{BLKREFS
331
A6
102
}
  0
BLOCK_RECORD
  5
45F
330
1
100
AcDbSymbolTableRecord
100
AcDbBlockTableRecord
  2
*D25
340
0
  0
BLOCK_RECORD
  5
46C
330
1
100
AcDbSymbolTableRecord
100
AcDbBlockTableRecord
  2
*D26
340
0
  0
BLOCK_RECORD
  5
477
330
1
100
AcDbSymbolTableRecord
100
AcDbBlockTableRecord
  2
*D27
340
0
  0
BLOCK_RECORD
  5
484
330
1
100
AcDbSymbolTableRecord
100
AcDbBlockTableRecord
  2
*D28
340
0
  0
BLOCK_RECORD
  5
48F
330
1
100
AcDbSymbolTableRecord
100
AcDbBlockTableRecord
  2
*D29
340
0
  0
BLOCK_RECORD
  5
49A
330
1
100
AcDbSymbolTableRecord
100
AcDbBlockTableRecord
  2
*D30
340
0
  0
BLOCK_RECORD
  5
4A7
330
1
100
AcDbSymbolTableRecord
100
AcDbBlockTableRecord
  2
*D31
340
0
  0
BLOCK_RECORD
  5
4B4
330
1
100
AcDbSymbolTableRecord
100
AcDbBlockTableRecord
  2
*D32
340
0
  0
BLOCK_RECORD
  5
4C1
330
1
100
AcDbSymbolTableRecord
100
AcDbBlockTableRecord
  2
*D33
340
0
  0
BLOCK_RECORD
  5
4CC
330
1
100
AcDbSymbolTableRecord
100
AcDbBlockTableRecord
  2
*D34
340
0
  0
BLOCK_RECORD
  5
4D9
330
1
100
AcDbSymbolTableRecord
100
AcDbBlockTableRecord
  2
*D35
340
0
  0
BLOCK_RECORD
  5
4E4
330
1
100
AcDbSymbolTableRecord
100
AcDbBlockTableRecord
  2
*D36
340
0
  0
BLOCK_RECORD
  5
4EF
330
1
100
AcDbSymbolTableRecord
100
AcDbBlockTableRecord
  2
*D37
340
0
  0
BLOCK_RECORD
  5
4FA
330
1
100
AcDbSymbolTableRecord
100
AcDbBlockTableRecord
  2
*D38
340
0
102
{BLKREFS
331
500
102
}
  0
BLOCK_RECORD
  5
501
330
1
100
AcDbSymbolTableRecord
100
AcDbBlockTableRecord
  2
*D39
340
0
  0
BLOCK_RECORD
  5
50E
330
1
100
AcDbSymbolTableRecord
100
AcDbBlockTableRecord
  2
*D40
340
0
  0
BLOCK_RECORD
  5
51B
330
1
100
AcDbSymbolTableRecord
100
AcDbBlockTableRecord
  2
*D41
340
0
  0
ENDTAB
  0
ENDSEC
  0
SECTION
  2
BLOCKS
  0
BLOCK
  5
20
330
1F
100
AcDbEntity
  8
0
100
AcDbBlockBegin
  2
*Model_Space
 70
     0
 10
0.0
 20
0.0
 30
0.0
  3
*Model_Space
  1

  0
ENDBLK
  5
21
330
1F
100
AcDbEntity
  8
0
100
AcDbBlockEnd
  0
BLOCK
  5
1C
330
1B
100
AcDbEntity
 67
     1
  8
0
100
AcDbBlockBegin
  2
*Paper_Space
 70
     0
 10
0.0
 20
0.0
 30
0.0
  3
*Paper_Space
  1

  0
ENDBLK
  5
1D
330
1B
100
AcDbEntity
 67
     1
  8
0
100
AcDbBlockEnd
  0
BLOCK
  5
24
330
23
100
AcDbEntity
  8
0
100
AcDbBlockBegin
  2
*Paper_Space0
 70
     0
 10
0.0
 20
0.0
 30
0.0
  3
*Paper_Space0
  1

  0
ENDBLK
  5
25
330
23
100
AcDbEntity
  8
0
100
AcDbBlockEnd
  0
BLOCK
  5
48
330
47
100
AcDbEntity
  8
0
100
AcDbBlockBegin
  2
65-56-470-C2__1
 70
     0
 10
1590.854756279221
 20
504.8069962880264
 30
0.0
  3
65-56-470-C2__1
  1

  0
LINE
  5
A7
330
47
100
AcDbEntity
  8
1
  6
Continuous
 62
     7
100
AcDbLine
 10
313.3080333432332
 20
498.3211038613234
 30
0.0
 11
350.0991290126329
 21
559.7243828651153
 31
0.0
  0
LINE
  5
A8
330
47
100
AcDbEntity
  8
1
  6
Continuous
 62
     7
100
AcDbLine
 10
305.4162830964159
 20
415.1499999999991
 30
0.0
 11
305.4162830964159
 21
469.7955967591071
 31
0.0
  0
LINE
  5
A9
330
47
100
AcDbEntity
  8
1
  6
Continuous
 62
     7
100
AcDbLine
 10
295.9162830964161
 20
415.1499999999991
 30
0.0
 11
295.9162830964161
 21
469.5822808166192
 31
0.0
  0
LINE
  5
AA
330
47
100
AcDbEntity
  8
1
  6
Continuous
 62
     7
100
AcDbLine
 10
305.1588734755713
 20
502.9905323777733
 30
0.0
 11
341.9499691449711
 21
564.3938113815652
 31
0.0
  0
LINE
  5
AB
330
47
100
AcDbEntity
  8
1
  6
Continuous
 62
     7
100
AcDbLine
 10
359.3417193917884
 20
593.1326344262691
 30
0.0
 11
359.3417193917884
 21
645.903877362683
 31
0.0
  0
LINE
  5
AC
330
47
100
AcDbEntity
  8
1
  6
Continuous
 62
     7
100
AcDbLine
 10
349.8417193917884
 20
645.903877362683
 30
0.0
 11
349.8417193917884
 21
592.9193184837812
 31
0.0
  0
ARC
  5
AD
330
47
100
AcDbEntity
  8
1
  6
Continuous
 62
     7
100
AcDbCircle
 10
294.3417193917884
 20
593.1326344262691
 30
0.0
 40
64.9999999999998
100
AcDbArc
 50
329.0711597027422
 51
0.0
  0
ARC
  5
AE
330
47
100
AcDbEntity
  8
1
  6
Continuous
 62
     7
100
AcDbCircle
 10
294.3417193917884
 20
592.9193184837811
 30
0.0
 40
55.4999999999999
100
AcDbArc
 50
329.0711597027423
 51
0.00000000000012
  0
ARC
  5
AF
330
47
100
AcDbEntity
  8
1
  6
Continuous
 62
     7
100
AcDbCircle
 10
360.9162830964159
 20
469.7955967591071
 30
0.0
 40
55.50000000000011
100
AcDbArc
 50
149.071159702742
 51
180.0
  0
ARC
  5
B0
330
47
100
AcDbEntity
  8
1
  6
Continuous
 62
     7
100
AcDbCircle
 10
360.9162830964161
 20
469.5822808166192
 30
0.0
 40
65.0000000000003
100
AcDbArc
 50
149.0711597027421
 51
180.0
  0
ENDBLK
  5
49
330
47
100
AcDbEntity
  8
0
100
AcDbBlockEnd
  0
BLOCK
  5
4B
330
4A
100
AcDbEntity
  8
0
100
AcDbBlockBegin
  2
65-56-470-C2__2
 70
     0
 10
291.1520751304844
 20
629.604478413333
 30
0.0
  3
65-56-470-C2__2
  1

  0
LINE
  5
B1
330
4A
100
AcDbEntity
  8
1
  6
Continuous
 62
     7
100
AcDbLine
 10
417.7671556871612
 20
469.7955967591071
 30
0.0
 11
417.7671556871612
 21
415.1499999999991
 31
0.0
  0
LINE
  5
B2
330
4A
100
AcDbEntity
  8
1
  6
Continuous
 62
     7
100
AcDbLine
 10
427.2671556871612
 20
469.5822808166192
 30
0.0
 11
427.2671556871612
 21
415.1499999999991
 31
0.0
  0
LINE
  5
B3
330
4A
100
AcDbEntity
  8
1
  6
Continuous
 62
     7
100
AcDbLine
 10
381.2334696386058
 20
564.3938113815652
 30
0.0
 11
418.0245653080058
 21
502.9905323777733
 31
0.0
  0
LINE
  5
B4
330
4A
100
AcDbEntity
  8
1
  6
Continuous
 62
     7
100
AcDbLine
 10
373.0843097709442
 20
559.7243828651153
 30
0.0
 11
409.8754054403439
 21
498.3211038613234
 31
0.0
  0
LINE
  5
B5
330
4A
100
AcDbEntity
  8
1
  6
Continuous
 62
     7
100
AcDbLine
 10
373.3417193917885
 20
592.9193184837812
 30
0.0
 11
373.3417193917887
 21
645.903877362683
 31
0.0
  0
LINE
  5
B6
330
4A
100
AcDbEntity
  8
1
  6
Continuous
 62
     7
100
AcDbLine
 10
363.8417193917887
 20
645.903877362683
 30
0.0
 11
363.8417193917887
 21
593.1326344262691
 31
0.0
  0
LINE
  5
B7
330
4A
100
AcDbEntity
  8
1
  6
Continuous
 62
     7
100
AcDbLine
 10
783.341719391787
 20
415.1499999999993
 30
0.0
 11
783.3417193917887
 21
645.6999999999999
 31
0.0
  0
LINE
  5
B8
330
4A
100
AcDbEntity
  8
1
  6
Continuous
 62
     7
100
AcDbLine
 10
773.8417193917895
 20
625.9155675098498
 30
0.0
 11
773.8417193917895
 21
625.9220493949763
 31
0.0
  0
LINE
  5
B9
330
4A
100
AcDbEntity
  8
1
  6
Continuous
 62
     7
100
AcDbLine
 10
773.8417193917929
 20
415.1499999999993
 30
0.0
 11
773.8417193917893
 21
645.6999999999999
 31
0.0
  0
ARC
  5
BA
330
4A
100
AcDbEntity
  8
1
  6
Continuous
 62
     7
100
AcDbCircle
 10
428.8417193917887
 20
593.1326344262691
 30
0.0
 40
65.0
100
AcDbArc
 50
180.0
 51
210.9288402972577
  0
ARC
  5
BB
330
4A
100
AcDbEntity
  8
1
  6
Continuous
 62
     7
100
AcDbCircle
 10
362.2671556871612
 20
469.5822808166192
 30
0.0
 40
65.0
100
AcDbArc
 50
0.0
 51
30.92884029725801
  0
ARC
  5
BC
330
4A
100
AcDbEntity
  8
1
  6
Continuous
 62
     7
100
AcDbCircle
 10
362.2671556871612
 20
469.7955967591071
 30
0.0
 40
55.5
100
AcDbArc
 50
0.0
 51
30.92884029725805
  0
ARC
  5
BD
330
4A
100
AcDbEntity
  8
1
  6
Continuous
 62
     7
100
AcDbCircle
 10
428.8417193917885
 20
592.9193184837811
 30
0.0
 40
55.5
100
AcDbArc
 50
179.9999999999999
 51
210.9288402972577
  0
ENDBLK
  5
4C
330
4A
100
AcDbEntity
  8
0
100
AcDbBlockEnd
  0
BLOCK
  5
50
330
4D
100
AcDbEntity
  8
0
100
AcDbBlockBegin
  2
30-360X-470-C6
 70
     0
 10
582.3308601234934
 20
882.4329472335182
 30
0.0
  3
30-360X-470-C6
  1

  0
INSERT
  5
4E
330
4D
100
AcDbEntity
  8
1
100
AcDbBlockReference
  2
65-56-470-C2__1
 10
1590.854756279221
 20
504.8069962880264
 30
0.0
 41
1.0
 42
1.0
 43
1.0
  0
INSERT
  5
4F
330
4D
100
AcDbEntity
  8
1
100
AcDbBlockReference
  2
65-56-470-C2__2
 10
291.1520751304843
 20
629.6044784133329
 30
0.0
 41
1.0
 42
1.0
 43
1.0
  0
ENDBLK
  5
51
330
4D
100
AcDbEntity
  8
0
100
AcDbBlockEnd
  0
BLOCK
  5
53
330
52
100
AcDbEntity
  8
0
100
AcDbBlockBegin
  2
37-398-M11
 70
     0
 10
401.0891018826861
 20
1386.504478413392
 30
0.0
  3
37-398-M11
  1

  0
LINE
  5
BE
330
52
100
AcDbEntity
  8
1
  6
Continuous
 62
     7
100
AcDbLine
 10
350.7688353165357
 20
819.5044783417766
 30
0.0
 11
344.5911746825042
 21
819.5044783417741
 31
0.0
  0
LINE
  5
BF
330
52
100
AcDbEntity
  8
1
  6
Continuous
 62
     7
100
AcDbLine
 10
798.2778432418401
 20
820.5301554088678
 30
0.0
 11
797.8417193917884
 21
820.7044783417879
 31
0.0
  0
LINE
  5
C0
330
52
100
AcDbEntity
  8
1
  6
Continuous
 62
     7
100
AcDbLine
 10
765.3417193917884
 20
820.7044783417879
 30
0.0
 11
764.905595541737
 21
820.5301554088678
 31
0.0
  0
LINE
  5
C1
330
52
100
AcDbEntity
  8
1
  6
Continuous
 62
     7
100
AcDbLine
 10
770.591174682504
 20
825.9044783417878
 30
0.0
 11
770.591174682504
 21
825.9044783417878
 31
0.0
  0
LINE
  5
C2
330
52
100
AcDbEntity
  8
1
  6
Continuous
 62
     7
100
AcDbLine
 10
798.5922641010733
 20
819.5044783418002
 30
0.0
 11
764.591174682504
 21
819.5044783417867
 31
0.0
  0
LINE
  5
C3
330
52
100
AcDbEntity
  8
1
  6
Continuous
 62
     7
100
AcDbLine
 10
798.5922641010733
 20
819.5044783418002
 30
0.0
 11
798.5922641010733
 21
819.5044783417867
 31
0.0
  0
LINE
  5
C4
330
52
100
AcDbEntity
  8
1
  6
Continuous
 62
     7
100
AcDbLine
 10
764.591174682504
 20
819.5044783417867
 30
0.0
 11
764.591174682504
 21
820.065870601328
 31
0.0
  0
LINE
  5
C5
330
52
100
AcDbEntity
  8
1
  6
Continuous
 62
     7
100
AcDbLine
 10
344.5911746825042
 20
819.5044783417741
 30
0.0
 11
344.5911746825042
 21
820.065870601328
 31
0.0
  0
LINE
  5
C6
330
52
100
AcDbEntity
  8
1
  6
Continuous
 62
     7
100
AcDbLine
 10
378.5922641010733
 20
819.5044783417875
 30
0.0
 11
373.6117609549996
 21
819.5044783417857
 31
0.0
  0
LINE
  5
C7
330
52
100
AcDbEntity
  8
1
  6
Continuous
 62
     7
100
AcDbLine
 10
345.3417193917886
 20
820.7044783417879
 30
0.0
 11
344.9055955417372
 21
820.5301554088678
 31
0.0
  0
LINE
  5
C8
330
52
100
AcDbEntity
  8
1
  6
Continuous
 62
     7
100
AcDbLine
 10
378.2778432418401
 20
820.5301554088678
 30
0.0
 11
377.8417193917886
 21
820.7044783417879
 31
0.0
  0
LINE
  5
C9
330
52
100
AcDbEntity
  8
1
  6
Continuous
 62
     7
100
AcDbLine
 10
378.5922641010733
 20
820.065870601328
 30
0.0
 11
378.5922641010733
 21
819.5044783417875
 31
0.0
  0
ARC
  5
CA
330
52
100
AcDbEntity
  8
1
  6
Continuous
 62
     7
100
AcDbCircle
 10
763.7846550638261
 20
824.3889797569847
 30
0.0
 40
3.999999999999973
100
AcDbArc
 50
292.908840587944
 51
351.5975486374408
  0
ARC
  5
CB
330
52
100
AcDbEntity
  8
1
  6
Continuous
 62
     7
100
AcDbCircle
 10
799.3987837197509
 20
824.3889797569847
 30
0.0
 40
3.999999999999974
100
AcDbArc
 50
194.2483483872898
 51
247.0911594120529
  0
ARC
  5
CC
330
52
100
AcDbEntity
  8
1
  6
Continuous
 62
     7
100
AcDbCircle
 10
379.3987837197511
 20
824.3889797569847
 30
0.0
 40
3.999999999999921
100
AcDbArc
 50
192.7751379763062
 51
247.0911594120529
  0
ARC
  5
CD
330
52
100
AcDbEntity
  8
1
  6
Continuous
 62
     7
100
AcDbCircle
 10
343.7846550638263
 20
824.3889797569847
 30
0.0
 40
3.999999999999995
100
AcDbArc
 50
292.9088405879448
 51
347.2248620236938
  0
ARC
  5
CE
330
52
100
AcDbEntity
  8
1
  6
Continuous
 62
     7
100
AcDbCircle
 10
798.092264101073
 20
820.065870601328
 30
0.0
 40
0.5
100
AcDbArc
 50
0.00000000005211
 51
68.2129307508987
  0
ARC
  5
CF
330
52
100
AcDbEntity
  8
1
  6
Continuous
 62
     7
100
AcDbCircle
 10
765.091174682504
 20
820.065870601328
 30
0.0
 40
0.5000000000000866
100
AcDbArc
 50
111.7870692491013
 51
180.0
  0
ARC
  5
D0
330
52
100
AcDbEntity
  8
1
  6
Continuous
 62
     7
100
AcDbCircle
 10
345.0911746825042
 20
820.065870601328
 30
0.0
 40
0.5000000000000655
100
AcDbArc
 50
111.7870692490952
 51
180.0
  0
ARC
  5
D1
330
52
100
AcDbEntity
  8
1
  6
Continuous
 62
     7
100
AcDbCircle
 10
378.0922641010733
 20
820.065870601328
 30
0.0
 40
0.5
100
AcDbArc
 50
0.0
 51
68.21293075091685
  0
ENDBLK
  5
54
330
52
100
AcDbEntity
  8
0
100
AcDbBlockEnd
  0
BLOCK
  5
57
330
55
100
AcDbEntity
  8
0
100
AcDbBlockBegin
  2
新コラム洗面混合栓ノーマル130618
 70
     0
 10
1050.0
 20
0.0
 30
0.0
  3
新コラム洗面混合栓ノーマル130618
  1

  0
INSERT
  5
56
330
55
100
AcDbEntity
  8
1
100
AcDbBlockReference
  2
37-398-M11
 10
401.0891018826861
 20
1386.504478413392
 30
0.0
 41
1.0
 42
1.0
 43
1.0
  0
LINE
  5
D2
330
55
100
AcDbEntity
  8
1
  6
DASH_CENTER
 62
     2
100
AcDbLine
 10
368.4422641010737
 20
837.3044784133383
 30
0.0
 11
354.7422641010736
 21
837.3044784133383
 31
0.0
  0
ENDBLK
  5
58
330
55
100
AcDbEntity
  8
0
100
AcDbBlockEnd
  0
BLOCK
  5
5A
330
59
100
AcDbEntity
  8
0
100
AcDbBlockBegin
  2
32-116__3
 70
     0
 10
1194.925333506118
 20
461.1442617005562
 30
0.0
  3
32-116__3
  1

  0
LINE
  5
D3
330
59
100
AcDbEntity
  8
0
  6
Continuous
 62
     7
100
AcDbLine
 10
305.3566988562395
 20
397.7273502691888
 30
0.0
 11
307.414341956241
 21
397.7273502691888
 31
0.0
  0
LINE
  5
D4
330
59
100
AcDbEntity
  8
0
  6
Continuous
 62
     7
100
AcDbLine
 10
305.3566988562395
 20
408.2217967697236
 30
0.0
 11
307.414341956241
 21
408.2217967697236
 31
0.0
  0
LINE
  5
D5
330
59
100
AcDbEntity
  8
0
  6
Continuous
 62
     7
100
AcDbLine
 10
305.3566988562395
 20
397.7273502691888
 30
0.0
 11
305.3566988562395
 21
408.2217967697236
 31
0.0
  0
LINE
  5
D6
330
59
100
AcDbEntity
  8
0
  6
Continuous
 62
     7
100
AcDbLine
 10
307.414341956241
 20
397.7273502691888
 30
0.0
 11
307.414341956241
 21
408.2217967697236
 31
0.0
  0
LINE
  5
D7
330
59
100
AcDbEntity
  8
0
  6
Continuous
 62
     7
100
AcDbLine
 10
293.9182242365914
 20
397.7273502691888
 30
0.0
 11
295.9758673365927
 21
397.7273502691888
 31
0.0
  0
LINE
  5
D8
330
59
100
AcDbEntity
  8
0
  6
Continuous
 62
     7
100
AcDbLine
 10
293.9182242365914
 20
408.2217967697236
 30
0.0
 11
295.9758673365927
 21
408.2217967697236
 31
0.0
  0
LINE
  5
D9
330
59
100
AcDbEntity
  8
0
  6
Continuous
 62
     7
100
AcDbLine
 10
295.9758673365927
 20
408.2217967697236
 30
0.0
 11
295.9758673365927
 21
397.7273502691888
 31
0.0
  0
LINE
  5
DA
330
59
100
AcDbEntity
  8
0
  6
Continuous
 62
     7
100
AcDbLine
 10
293.9182242365914
 20
408.2217967697236
 30
0.0
 11
293.9182242365914
 21
397.7273502691888
 31
0.0
  0
LINE
  5
DB
330
59
100
AcDbEntity
  8
0
  6
Continuous
 62
     7
100
AcDbLine
 10
300.6662830964161
 20
415.1499999999992
 30
0.0
 11
293.6662830964161
 21
415.1499999999992
 31
0.0
  0
LINE
  5
DC
330
59
100
AcDbEntity
  8
0
  6
Continuous
 62
     7
100
AcDbLine
 10
293.6662830964161
 20
415.1499999999992
 30
0.0
 11
289.6662830964161
 21
408.2217967697236
 31
0.0
  0
LINE
  5
DD
330
59
100
AcDbEntity
  8
0
  6
Continuous
 62
     7
100
AcDbLine
 10
289.6662830964161
 20
408.2217967697236
 30
0.0
 11
289.6662830964161
 21
397.727350269189
 31
0.0
  0
LINE
  5
DE
330
59
100
AcDbEntity
  8
0
  6
Continuous
 62
     7
100
AcDbLine
 10
289.6662830964161
 20
397.727350269189
 30
0.0
 11
290.6662830964161
 21
397.1499999999992
 31
0.0
  0
LINE
  5
DF
330
59
100
AcDbEntity
  8
0
  6
Continuous
 62
     7
100
AcDbLine
 10
310.6662830964161
 20
397.1499999999992
 30
0.0
 11
311.6662830964161
 21
397.727350269189
 31
0.0
  0
LINE
  5
E0
330
59
100
AcDbEntity
  8
0
  6
Continuous
 62
     7
100
AcDbLine
 10
311.6662830964161
 20
397.727350269189
 30
0.0
 11
311.6662830964161
 21
408.2217967697236
 31
0.0
  0
LINE
  5
E1
330
59
100
AcDbEntity
  8
0
  6
Continuous
 62
     7
100
AcDbLine
 10
311.6662830964161
 20
408.2217967697236
 30
0.0
 11
307.6662830964161
 21
415.1499999999992
 31
0.0
  0
LINE
  5
E2
330
59
100
AcDbEntity
  8
0
  6
Continuous
 62
     7
100
AcDbLine
 10
307.6662830964161
 20
415.1499999999992
 30
0.0
 11
300.6662830964161
 21
415.1499999999992
 31
0.0
  0
LINE
  5
E3
330
59
100
AcDbEntity
  8
0
  6
Continuous
 62
     7
100
AcDbLine
 10
290.6662830964161
 20
397.1499999999992
 30
0.0
 11
310.6662830964161
 21
397.1499999999992
 31
0.0
  0
ARC
  5
E4
330
59
100
AcDbEntity
  8
0
  6
Continuous
 62
     7
100
AcDbCircle
 10
309.5403125263286
 20
407.3383074320603
 30
0.0
 40
2.30223896992538
100
AcDbArc
 50
22.56629896912
 51
157.4337010308805
  0
ARC
  5
E5
330
59
100
AcDbEntity
  8
0
  6
Continuous
 62
     7
100
AcDbCircle
 10
309.5403125263284
 20
401.3528942023568
 30
0.0
 40
4.202894202357401
100
AcDbArc
 50
239.6132093948065
 51
300.3867906051984
  0
ARC
  5
E6
330
59
100
AcDbEntity
  8
0
  6
Continuous
 62
     7
100
AcDbCircle
 10
291.7922536665037
 20
401.3528942023568
 30
0.0
 40
4.202894202357291
100
AcDbArc
 50
239.6132093948029
 51
300.3867906051968
  0
ARC
  5
E7
330
59
100
AcDbEntity
  8
0
  6
Continuous
 62
     7
100
AcDbCircle
 10
300.6660752165045
 20
416.4895451934652
 30
0.0
 40
19.33954519458329
100
AcDbArc
 50
255.9647361950137
 51
284.0352638049863
  0
ARC
  5
E8
330
59
100
AcDbEntity
  8
0
  6
Continuous
 62
     7
100
AcDbCircle
 10
300.6660752165045
 20
402.7990691864425
 30
0.0
 40
7.16965999188692
100
AcDbArc
 50
49.14292331715026
 51
130.8570766828497
  0
ARC
  5
E9
330
59
100
AcDbEntity
  8
0
  6
Continuous
 62
     7
100
AcDbCircle
 10
291.7922536665037
 20
407.3383074320603
 30
0.0
 40
2.302238969925538
100
AcDbArc
 50
22.56629896911837
 51
157.4337010308805
  0
ENDBLK
  5
5B
330
59
100
AcDbEntity
  8
0
100
AcDbBlockEnd
  0
BLOCK
  5
5D
330
5C
100
AcDbEntity
  8
0
100
AcDbBlockBegin
  2
30-253A-C2__4
 70
     0
 10
978.7036565389617
 20
172.876382987625
 30
0.0
  3
30-253A-C2__4
  1

  0
LINE
  5
EA
330
5C
100
AcDbEntity
  8
1
  6
Continuous
 62
     7
100
AcDbLine
 10
308.5585879418308
 20
364.993333451585
 30
0.0
 11
308.5585879418308
 21
345.6933334515852
 31
0.0
  0
LINE
  5
EB
330
5C
100
AcDbEntity
  8
1
  6
Continuous
 62
     7
100
AcDbLine
 10
305.6662830964177
 20
364.993333451585
 30
0.0
 11
305.6662830964177
 21
365.193333451585
 31
0.0
  0
LINE
  5
EC
330
5C
100
AcDbEntity
  8
1
  6
Continuous
 62
     7
100
AcDbLine
 10
305.6662830964177
 20
364.993333451585
 30
0.0
 11
308.5585879418308
 21
364.993333451585
 31
0.0
  0
LINE
  5
ED
330
5C
100
AcDbEntity
  8
1
  6
Continuous
 62
     7
100
AcDbLine
 10
308.5585879418308
 20
365.193333451585
 30
0.0
 11
308.5585879418308
 21
364.993333451585
 31
0.0
  0
LINE
  5
EE
330
5C
100
AcDbEntity
  8
1
  6
Continuous
 62
     7
100
AcDbLine
 10
305.6662830964177
 20
365.193333451585
 30
0.0
 11
305.6662830964177
 21
365.3933334515851
 31
0.0
  0
LINE
  5
EF
330
5C
100
AcDbEntity
  8
1
  6
Continuous
 62
     7
100
AcDbLine
 10
305.6662830964177
 20
365.193333451585
 30
0.0
 11
308.5585879418308
 21
365.193333451585
 31
0.0
  0
LINE
  5
F0
330
5C
100
AcDbEntity
  8
1
  6
Continuous
 62
     7
100
AcDbLine
 10
305.6662830964177
 20
365.3933334515851
 30
0.0
 11
305.6662830964177
 21
382.3991048175267
 31
0.0
  0
LINE
  5
F1
330
5C
100
AcDbEntity
  8
1
  6
Continuous
 62
     7
100
AcDbLine
 10
308.5585879418308
 20
365.3933334515851
 30
0.0
 11
308.5585879418308
 21
365.193333451585
 31
0.0
  0
LINE
  5
F2
330
5C
100
AcDbEntity
  8
1
  6
Continuous
 62
     7
100
AcDbLine
 10
305.6662830964177
 20
365.3933334515851
 30
0.0
 11
308.5585879418308
 21
365.3933334515851
 31
0.0
  0
LINE
  5
F3
330
5C
100
AcDbEntity
  8
1
  6
Continuous
 62
     7
100
AcDbLine
 10
295.6662830964177
 20
364.993333451585
 30
0.0
 11
295.6662830964177
 21
345.6933334515852
 31
0.0
  0
LINE
  5
F4
330
5C
100
AcDbEntity
  8
1
  6
Continuous
 62
     7
100
AcDbLine
 10
292.7739782510042
 20
364.993333451585
 30
0.0
 11
292.7739782510042
 21
365.193333451585
 31
0.0
  0
LINE
  5
F5
330
5C
100
AcDbEntity
  8
1
  6
Continuous
 62
     7
100
AcDbLine
 10
292.7739782510042
 20
364.993333451585
 30
0.0
 11
295.6662830964177
 21
364.993333451585
 31
0.0
  0
LINE
  5
F6
330
5C
100
AcDbEntity
  8
1
  6
Continuous
 62
     7
100
AcDbLine
 10
295.6662830964177
 20
365.193333451585
 30
0.0
 11
295.6662830964177
 21
364.993333451585
 31
0.0
  0
LINE
  5
F7
330
5C
100
AcDbEntity
  8
1
  6
Continuous
 62
     7
100
AcDbLine
 10
292.7739782510042
 20
365.193333451585
 30
0.0
 11
292.7739782510042
 21
365.3933334515851
 31
0.0
  0
LINE
  5
F8
330
5C
100
AcDbEntity
  8
1
  6
Continuous
 62
     7
100
AcDbLine
 10
292.7739782510042
 20
365.193333451585
 30
0.0
 11
295.6662830964177
 21
365.193333451585
 31
0.0
  0
LINE
  5
F9
330
5C
100
AcDbEntity
  8
1
  6
Continuous
 62
     7
100
AcDbLine
 10
292.7739782510042
 20
365.3933334515851
 30
0.0
 11
292.7739782510042
 21
382.3991048175267
 31
0.0
  0
LINE
  5
FA
330
5C
100
AcDbEntity
  8
1
  6
Continuous
 62
     7
100
AcDbLine
 10
295.6662830964177
 20
365.3933334515851
 30
0.0
 11
295.6662830964177
 21
365.193333451585
 31
0.0
  0
LINE
  5
FB
330
5C
100
AcDbEntity
  8
1
  6
Continuous
 62
     7
100
AcDbLine
 10
292.7739782510042
 20
365.3933334515851
 30
0.0
 11
295.6662830964177
 21
365.3933334515851
 31
0.0
  0
LINE
  5
FC
330
5C
100
AcDbEntity
  8
1
  6
Continuous
 62
     7
100
AcDbLine
 10
313.1662830964144
 20
345.1933334515852
 30
0.0
 11
313.6662830964177
 21
345.6933334515882
 31
0.0
  0
LINE
  5
FD
330
5C
100
AcDbEntity
  8
1
  6
Continuous
 62
     7
100
AcDbLine
 10
287.6662830964176
 20
345.6933334515821
 30
0.0
 11
288.1662830964144
 21
345.1933334515852
 31
0.0
  0
LINE
  5
FE
330
5C
100
AcDbEntity
  8
1
  6
Continuous
 62
     7
100
AcDbLine
 10
287.6662830964144
 20
345.6933334515852
 30
0.0
 11
287.6662830964176
 21
345.6933334515821
 31
0.0
  0
LINE
  5
FF
330
5C
100
AcDbEntity
  8
1
  6
Continuous
 62
     7
100
AcDbLine
 10
292.7739782510042
 20
345.6933334515852
 30
0.0
 11
292.7739782510042
 21
364.993333451585
 31
0.0
  0
LINE
  5
100
330
5C
100
AcDbEntity
  8
1
  6
Continuous
 62
     7
100
AcDbLine
 10
295.6662830964177
 20
382.3991048175267
 30
0.0
 11
295.6662830964177
 21
365.3933334515851
 31
0.0
  0
LINE
  5
101
330
5C
100
AcDbEntity
  8
1
  6
Continuous
 62
     7
100
AcDbLine
 10
305.6662830964177
 20
345.6933334515852
 30
0.0
 11
305.6662830964177
 21
364.993333451585
 31
0.0
  0
LINE
  5
102
330
5C
100
AcDbEntity
  8
1
  6
Continuous
 62
     7
100
AcDbLine
 10
308.5585879418308
 20
382.3991048175267
 30
0.0
 11
308.5585879418308
 21
365.3933334515851
 31
0.0
  0
LINE
  5
103
330
5C
100
AcDbEntity
  8
1
  6
Continuous
 62
     7
100
AcDbLine
 10
313.5585879418308
 20
382.3991048175267
 30
0.0
 11
313.5585879418308
 21
345.6933334515852
 31
0.0
  0
LINE
  5
104
330
5C
100
AcDbEntity
  8
1
  6
Continuous
 62
     7
100
AcDbLine
 10
287.7739782510044
 20
382.3991048175267
 30
0.0
 11
287.7739782510044
 21
345.6933334515852
 31
0.0
  0
LINE
  5
105
330
5C
100
AcDbEntity
  8
1
  6
Continuous
 62
     7
100
AcDbLine
 10
287.7739782510044
 20
382.3991048175267
 30
0.0
 11
287.6662830964176
 21
382.3991048175267
 31
0.0
  0
LINE
  5
106
330
5C
100
AcDbEntity
  8
1
  6
Continuous
 62
     7
100
AcDbLine
 10
313.5585879418308
 20
382.3991048175267
 30
0.0
 11
313.6662830964177
 21
382.3991048175267
 31
0.0
  0
LINE
  5
107
330
5C
100
AcDbEntity
  8
1
  6
Continuous
 62
     7
100
AcDbLine
 10
292.7739782510042
 20
382.3991048175267
 30
0.0
 11
295.6662830964177
 21
382.3991048175267
 31
0.0
  0
LINE
  5
108
330
5C
100
AcDbEntity
  8
1
  6
Continuous
 62
     7
100
AcDbLine
 10
308.5585879418308
 20
382.3991048175267
 30
0.0
 11
305.6662830964177
 21
382.3991048175267
 31
0.0
  0
LINE
  5
109
330
5C
100
AcDbEntity
  8
1
  6
Continuous
 62
     7
100
AcDbLine
 10
287.6662830964176
 20
345.6933334515852
 30
0.0
 11
287.7739782510044
 21
345.6933334515852
 31
0.0
  0
LINE
  5
10A
330
5C
100
AcDbEntity
  8
1
  6
Continuous
 62
     7
100
AcDbLine
 10
313.5585879418308
 20
345.6933334515852
 30
0.0
 11
313.6662830964177
 21
345.6933334515852
 31
0.0
  0
LINE
  5
10B
330
5C
100
AcDbEntity
  8
1
  6
Continuous
 62
     7
100
AcDbLine
 10
292.7739782510042
 20
345.6933334515852
 30
0.0
 11
295.6662830964177
 21
345.6933334515852
 31
0.0
  0
LINE
  5
10C
330
5C
100
AcDbEntity
  8
1
  6
Continuous
 62
     7
100
AcDbLine
 10
305.6662830964177
 20
345.6933334515852
 30
0.0
 11
308.558587941825
 21
345.6933334515852
 31
0.0
  0
LINE
  5
10D
330
5C
100
AcDbEntity
  8
1
  6
Continuous
 62
     7
100
AcDbLine
 10
288.1662830964144
 20
345.1933334515852
 30
0.0
 11
290.1887830964177
 21
345.1933334515852
 31
0.0
  0
LINE
  5
10E
330
5C
100
AcDbEntity
  8
1
  6
Continuous
 62
     7
100
AcDbLine
 10
311.1437830964175
 20
345.1933334515852
 30
0.0
 11
313.1662830964144
 21
345.1933334515852
 31
0.0
  0
LINE
  5
10F
330
5C
100
AcDbEntity
  8
1
  6
Continuous
 62
     7
100
AcDbLine
 10
287.6662830964176
 20
382.3991048175267
 30
0.0
 11
287.6662830964176
 21
345.6933334515821
 31
0.0
  0
LINE
  5
110
330
5C
100
AcDbEntity
  8
1
  6
Continuous
 62
     7
100
AcDbLine
 10
290.1887830964177
 20
345.1933334515852
 30
0.0
 11
311.1437830964175
 21
345.1933334515852
 31
0.0
  0
LINE
  5
111
330
5C
100
AcDbEntity
  8
1
  6
Continuous
 62
     7
100
AcDbLine
 10
313.6662830964177
 20
345.6933334515882
 30
0.0
 11
313.6662830964177
 21
382.3991048175267
 31
0.0
  0
LINE
  5
112
330
5C
100
AcDbEntity
  8
0
  6
Continuous
 62
     7
100
AcDbLine
 10
313.6662830964177
 20
382.3991048175267
 30
0.0
 11
309.1662830964185
 21
390.193333451585
 31
0.0
  0
LINE
  5
113
330
5C
100
AcDbEntity
  8
0
  6
Continuous
 62
     7
100
AcDbLine
 10
287.6662830964176
 20
382.3991048175267
 30
0.0
 11
292.1662830964177
 21
390.193333451585
 31
0.0
  0
LINE
  5
114
330
5C
100
AcDbEntity
  8
0
  6
Continuous
 62
     7
100
AcDbLine
 10
292.1662830964144
 20
390.193333451585
 30
0.0
 11
309.1662830964153
 21
390.193333451585
 31
0.0
  0
LINE
  5
115
330
5C
100
AcDbEntity
  8
1
  6
Continuous
 62
     7
100
AcDbLine
 10
292.1662830964144
 20
392.693333451585
 30
0.0
 11
292.1662830964144
 21
391.8273080478009
 31
0.0
  0
LINE
  5
116
330
5C
100
AcDbEntity
  8
0
  6
Continuous
 62
     7
100
AcDbLine
 10
308.6662830964153
 20
392.693333451585
 30
0.0
 11
292.1662830964144
 21
392.693333451585
 31
0.0
  0
LINE
  5
117
330
5C
100
AcDbEntity
  8
1
  6
Continuous
 62
     7
100
AcDbLine
 10
292.166283096415
 20
397.1499999999992
 30
0.0
 11
292.1662830964144
 21
392.693333451585
 31
0.0
  0
LINE
  5
118
330
5C
100
AcDbEntity
  8
1
  6
Continuous
 62
     2
100
AcDbLine
 10
308.6662830964144
 20
397.1499999999992
 30
0.0
 11
308.6662830964153
 21
392.693333451585
 31
0.0
  0
LINE
  5
119
330
5C
100
AcDbEntity
  8
1
  6
Continuous
 62
     2
100
AcDbLine
 10
292.6662830964144
 20
392.693333451585
 30
0.0
 11
292.6662830964144
 21
397.1499999999992
 31
0.0
  0
LINE
  5
11A
330
5C
100
AcDbEntity
  8
1
  6
Continuous
 62
     2
100
AcDbLine
 10
308.6662830964153
 20
392.693333451585
 30
0.0
 11
309.1662830964153
 21
391.8273080478009
 31
0.0
  0
LINE
  5
11B
330
5C
100
AcDbEntity
  8
1
  6
Continuous
 62
     7
100
AcDbLine
 10
309.1662830964153
 20
392.693333451585
 30
0.0
 11
308.6662830964153
 21
392.693333451585
 31
0.0
  0
LINE
  5
11C
330
5C
100
AcDbEntity
  8
1
  6
Continuous
 62
     7
100
AcDbLine
 10
309.1662830964153
 20
390.193333451585
 30
0.0
 11
309.1662830964153
 21
391.8273080478009
 31
0.0
  0
LINE
  5
11D
330
5C
100
AcDbEntity
  8
1
  6
Continuous
 62
     2
100
AcDbLine
 10
292.1662830964144
 20
391.8273080478009
 30
0.0
 11
292.6662830964144
 21
392.693333451585
 31
0.0
  0
LINE
  5
11E
330
5C
100
AcDbEntity
  8
1
  6
Continuous
 62
     7
100
AcDbLine
 10
292.6662830964144
 20
392.693333451585
 30
0.0
 11
292.1662830964144
 21
392.693333451585
 31
0.0
  0
LINE
  5
11F
330
5C
100
AcDbEntity
  8
1
  6
Continuous
 62
     7
100
AcDbLine
 10
309.1662830964153
 20
391.8273080478009
 30
0.0
 11
309.1662830964147
 21
397.1499999999992
 31
0.0
  0
LINE
  5
120
330
5C
100
AcDbEntity
  8
1
  6
Continuous
 62
     7
100
AcDbLine
 10
292.1662830964144
 20
391.8273080478009
 30
0.0
 11
292.1662830964144
 21
390.193333451585
 31
0.0
  0
ARC
  5
121
330
5C
100
AcDbEntity
  8
1
  6
Continuous
 62
     7
100
AcDbCircle
 10
290.2739782510044
 20
351.6915437516392
 30
0.0
 40
6.498348005737589
100
AcDbArc
 50
247.3740659204959
 51
292.6259340795027
  0
ARC
  5
122
330
5C
100
AcDbEntity
  8
1
  6
Continuous
 62
     7
100
AcDbCircle
 10
300.6662830964176
 20
370.4433334515846
 30
0.0
 40
25.24999999999936
100
AcDbArc
 50
258.5788137250007
 51
281.4211862749999
  0
ARC
  5
123
330
5C
100
AcDbEntity
  8
1
  6
Continuous
 62
     7
100
AcDbCircle
 10
311.0585879418311
 20
351.6915437516392
 30
0.0
 40
6.498348005737698
100
AcDbArc
 50
247.3740659204936
 51
292.6259340795017
  0
ARC
  5
124
330
5C
100
AcDbEntity
  8
1
  6
Continuous
 62
     7
100
AcDbCircle
 10
300.6662830964176
 20
376.0482518564147
 30
0.0
 40
8.082903768675326
100
AcDbArc
 50
51.78678929837556
 51
128.2132107016232
  0
ARC
  5
125
330
5C
100
AcDbEntity
  8
1
  6
Continuous
 62
     7
100
AcDbCircle
 10
311.0585879418308
 20
381.4609106300846
 30
0.0
 40
2.670244995005164
100
AcDbArc
 50
20.56999209228339
 51
159.4300079077166
  0
ARC
  5
126
330
5C
100
AcDbEntity
  8
1
  6
Continuous
 62
     7
100
AcDbCircle
 10
290.2739782509982
 20
381.4609106300846
 30
0.0
 40
2.670244995005164
100
AcDbArc
 50
20.56999209228339
 51
159.4300079077166
  0
ENDBLK
  5
5E
330
5C
100
AcDbEntity
  8
0
100
AcDbBlockEnd
  0
BLOCK
  5
62
330
5F
100
AcDbEntity
  8
0
100
AcDbBlockBegin
  2
V843FE__5
 70
     0
 10
1571.774563704627
 20
1533.449999999999
 30
0.0
  3
V843FE__5
  1

  0
INSERT
  5
60
330
5F
100
AcDbEntity
  8
0
100
AcDbBlockReference
  2
32-116__3
 10
1194.925333506118
 20
461.1442617005562
 30
0.0
 41
1.0
 42
1.0
 43
1.0
  0
INSERT
  5
61
330
5F
100
AcDbEntity
  8
1
100
AcDbBlockReference
  2
30-253A-C2__4
 10
978.7036565389616
 20
172.876382987625
 30
0.0
 41
1.0
 42
1.0
 43
1.0
  0
LINE
  5
127
330
5F
100
AcDbEntity
  8
1
  6
PHANTOM
 62
     4
100
AcDbLine
 10
300.6662830964161
 20
425.6499999999992
 30
0.0
 11
300.6662830964161
 21
342.1933334515853
 31
0.0
  0
ENDBLK
  5
63
330
5F
100
AcDbEntity
  8
0
100
AcDbBlockEnd
  0
BLOCK
  5
65
330
64
100
AcDbEntity
  8
0
100
AcDbBlockBegin
  2
32-116__6
 70
     0
 10
646.7376737048068
 20
507.9529090364615
 30
0.0
  3
32-116__6
  1

  0
LINE
  5
128
330
64
100
AcDbEntity
  8
0
  6
Continuous
 62
     7
100
AcDbLine
 10
427.2075714469847
 20
397.727350269189
 30
0.0
 11
429.265214546986
 21
397.727350269189
 31
0.0
  0
LINE
  5
129
330
64
100
AcDbEntity
  8
0
  6
Continuous
 62
     7
100
AcDbLine
 10
427.2075714469847
 20
408.2217967697236
 30
0.0
 11
429.265214546986
 21
408.2217967697236
 31
0.0
  0
LINE
  5
12A
330
64
100
AcDbEntity
  8
0
  6
Continuous
 62
     7
100
AcDbLine
 10
427.2075714469847
 20
397.727350269189
 30
0.0
 11
427.2075714469847
 21
408.2217967697236
 31
0.0
  0
LINE
  5
12B
330
64
100
AcDbEntity
  8
0
  6
Continuous
 62
     7
100
AcDbLine
 10
429.265214546986
 20
397.727350269189
 30
0.0
 11
429.265214546986
 21
408.2217967697236
 31
0.0
  0
LINE
  5
12C
330
64
100
AcDbEntity
  8
0
  6
Continuous
 62
     7
100
AcDbLine
 10
415.7690968273366
 20
397.727350269189
 30
0.0
 11
417.8267399273379
 21
397.727350269189
 31
0.0
  0
LINE
  5
12D
330
64
100
AcDbEntity
  8
0
  6
Continuous
 62
     7
100
AcDbLine
 10
415.7690968273366
 20
408.2217967697236
 30
0.0
 11
417.8267399273379
 21
408.2217967697236
 31
0.0
  0
LINE
  5
12E
330
64
100
AcDbEntity
  8
0
  6
Continuous
 62
     7
100
AcDbLine
 10
417.8267399273379
 20
408.2217967697236
 30
0.0
 11
417.8267399273379
 21
397.727350269189
 31
0.0
  0
LINE
  5
12F
330
64
100
AcDbEntity
  8
0
  6
Continuous
 62
     7
100
AcDbLine
 10
415.7690968273366
 20
408.2217967697236
 30
0.0
 11
415.7690968273366
 21
397.727350269189
 31
0.0
  0
LINE
  5
130
330
64
100
AcDbEntity
  8
0
  6
Continuous
 62
     7
100
AcDbLine
 10
422.5171556871613
 20
415.1499999999992
 30
0.0
 11
415.5171556871613
 21
415.1499999999992
 31
0.0
  0
LINE
  5
131
330
64
100
AcDbEntity
  8
0
  6
Continuous
 62
     7
100
AcDbLine
 10
415.5171556871613
 20
415.1499999999992
 30
0.0
 11
411.5171556871613
 21
408.2217967697236
 31
0.0
  0
LINE
  5
132
330
64
100
AcDbEntity
  8
0
  6
Continuous
 62
     7
100
AcDbLine
 10
411.5171556871613
 20
408.2217967697236
 30
0.0
 11
411.5171556871613
 21
397.727350269189
 31
0.0
  0
LINE
  5
133
330
64
100
AcDbEntity
  8
0
  6
Continuous
 62
     7
100
AcDbLine
 10
411.5171556871613
 20
397.727350269189
 30
0.0
 11
412.5171556871613
 21
397.1499999999992
 31
0.0
  0
LINE
  5
134
330
64
100
AcDbEntity
  8
0
  6
Continuous
 62
     7
100
AcDbLine
 10
432.5171556871613
 20
397.1499999999992
 30
0.0
 11
433.5171556871613
 21
397.727350269189
 31
0.0
  0
LINE
  5
135
330
64
100
AcDbEntity
  8
0
  6
Continuous
 62
     7
100
AcDbLine
 10
433.5171556871613
 20
397.727350269189
 30
0.0
 11
433.5171556871613
 21
408.2217967697236
 31
0.0
  0
LINE
  5
136
330
64
100
AcDbEntity
  8
0
  6
Continuous
 62
     7
100
AcDbLine
 10
433.5171556871613
 20
408.2217967697236
 30
0.0
 11
429.5171556871613
 21
415.1499999999992
 31
0.0
  0
LINE
  5
137
330
64
100
AcDbEntity
  8
0
  6
Continuous
 62
     7
100
AcDbLine
 10
429.5171556871613
 20
415.1499999999992
 30
0.0
 11
422.5171556871613
 21
415.1499999999992
 31
0.0
  0
LINE
  5
138
330
64
100
AcDbEntity
  8
0
  6
Continuous
 62
     7
100
AcDbLine
 10
412.5171556871613
 20
397.1499999999992
 30
0.0
 11
432.5171556871613
 21
397.1499999999992
 31
0.0
  0
LINE
  5
139
330
64
100
AcDbEntity
  8
0
  6
Continuous
 62
     7
100
AcDbLine
 10
778.5917193917888
 20
415.1499999999992
 30
0.0
 11
786.0917193917888
 21
415.1499999999992
 31
0.0
  0
LINE
  5
13A
330
64
100
AcDbEntity
  8
0
  6
Continuous
 62
     7
100
AcDbLine
 10
771.0917193917888
 20
415.1499999999992
 30
0.0
 11
778.5917193917888
 21
415.1499999999992
 31
0.0
  0
LINE
  5
13B
330
64
100
AcDbEntity
  8
1
  6
Continuous
 62
     7
100
AcDbLine
 10
769.2797001894706
 20
408.2217967697236
 30
0.0
 11
769.2797001894706
 21
397.7273502691888
 31
0.0
  0
LINE
  5
13C
330
64
100
AcDbEntity
  8
1
  6
Continuous
 62
     7
100
AcDbLine
 10
777.4037385941066
 20
397.7273502691888
 30
0.0
 11
777.4037385941066
 21
408.2217967697236
 31
0.0
  0
LINE
  5
13D
330
64
100
AcDbEntity
  8
1
  6
Continuous
 62
     7
100
AcDbLine
 10
779.7797001894706
 20
408.2217967697236
 30
0.0
 11
779.7797001894706
 21
397.7273502691888
 31
0.0
  0
LINE
  5
13E
330
64
100
AcDbEntity
  8
1
  6
Continuous
 62
     7
100
AcDbLine
 10
787.9037385941066
 20
397.7273502691888
 30
0.0
 11
787.9037385941066
 21
408.2217967697236
 31
0.0
  0
LINE
  5
13F
330
64
100
AcDbEntity
  8
1
  6
Continuous
 62
     7
100
AcDbLine
 10
777.4037385941066
 20
408.2217967697236
 30
0.0
 11
779.7797001894706
 21
408.2217967697236
 31
0.0
  0
LINE
  5
140
330
64
100
AcDbEntity
  8
1
  6
Continuous
 62
     7
100
AcDbLine
 10
787.9037385941066
 20
408.2217967697236
 30
0.0
 11
788.5917193917891
 21
408.2217967697236
 31
0.0
  0
LINE
  5
141
330
64
100
AcDbEntity
  8
1
  6
Continuous
 62
     7
100
AcDbLine
 10
769.2797001894706
 20
408.2217967697236
 30
0.0
 11
768.5917193917891
 21
408.2217967697236
 31
0.0
  0
LINE
  5
142
330
64
100
AcDbEntity
  8
1
  6
Continuous
 62
     7
100
AcDbLine
 10
777.4037385941066
 20
397.7273502691888
 30
0.0
 11
779.7797001894706
 21
397.7273502691888
 31
0.0
  0
LINE
  5
143
330
64
100
AcDbEntity
  8
0
  6
Continuous
 62
     7
100
AcDbLine
 10
771.0917193917888
 20
415.1499999999992
 30
0.0
 11
768.5917193917891
 21
408.2217967697236
 31
0.0
  0
LINE
  5
144
330
64
100
AcDbEntity
  8
0
  6
Continuous
 62
     7
100
AcDbLine
 10
786.0917193917888
 20
415.1499999999992
 30
0.0
 11
788.5917193917891
 21
408.2217967697236
 31
0.0
  0
LINE
  5
145
330
64
100
AcDbEntity
  8
0
  6
Continuous
 62
     7
100
AcDbLine
 10
788.5917193917891
 20
408.2217967697236
 30
0.0
 11
788.5917193917891
 21
397.7273502691888
 31
0.0
  0
LINE
  5
146
330
64
100
AcDbEntity
  8
0
  6
Continuous
 62
     7
100
AcDbLine
 10
768.5917193917891
 20
408.2217967697236
 30
0.0
 11
768.5917193917891
 21
397.7273502691888
 31
0.0
  0
LINE
  5
147
330
64
100
AcDbEntity
  8
0
  6
Continuous
 62
     7
100
AcDbLine
 10
768.5917193917891
 20
397.1499999999992
 30
0.0
 11
788.5917193917891
 21
397.1499999999992
 31
0.0
  0
LINE
  5
148
330
64
100
AcDbEntity
  8
0
  6
Continuous
 62
     7
100
AcDbLine
 10
787.9037385941066
 20
397.7273502691888
 30
0.0
 11
788.5917193917891
 21
397.7273502691888
 31
0.0
  0
LINE
  5
149
330
64
100
AcDbEntity
  8
0
  6
Continuous
 62
     7
100
AcDbLine
 10
788.5917193917891
 20
397.7273502691888
 30
0.0
 11
788.5917193917891
 21
397.1499999999992
 31
0.0
  0
LINE
  5
14A
330
64
100
AcDbEntity
  8
0
  6
Continuous
 62
     7
100
AcDbLine
 10
769.2797001894706
 20
397.7273502691888
 30
0.0
 11
768.5917193917891
 21
397.7273502691888
 31
0.0
  0
LINE
  5
14B
330
64
100
AcDbEntity
  8
0
  6
Continuous
 62
     7
100
AcDbLine
 10
768.5917193917891
 20
397.7273502691888
 30
0.0
 11
768.5917193917891
 21
397.1499999999992
 31
0.0
  0
ARC
  5
14C
330
64
100
AcDbEntity
  8
0
  6
Continuous
 62
     7
100
AcDbCircle
 10
431.3911851170736
 20
407.3383074320603
 30
0.0
 40
2.302238969925538
100
AcDbArc
 50
22.56629896911837
 51
157.4337010308805
  0
ARC
  5
14D
330
64
100
AcDbEntity
  8
0
  6
Continuous
 62
     7
100
AcDbCircle
 10
431.3911851170736
 20
401.3528942023568
 30
0.0
 40
4.202894202357291
100
AcDbArc
 50
239.6132093948029
 51
300.3867906051984
  0
ARC
  5
14E
330
64
100
AcDbEntity
  8
0
  6
Continuous
 62
     7
100
AcDbCircle
 10
413.6431262572488
 20
401.3528942023568
 30
0.0
 40
4.202894202357261
100
AcDbArc
 50
239.6132093948037
 51
300.3867906051997
  0
ARC
  5
14F
330
64
100
AcDbEntity
  8
0
  6
Continuous
 62
     7
100
AcDbCircle
 10
422.5169478072498
 20
416.4895451934652
 30
0.0
 40
19.3395451945831
100
AcDbArc
 50
255.9647361950132
 51
284.0352638049856
  0
ARC
  5
150
330
64
100
AcDbEntity
  8
0
  6
Continuous
 62
     7
100
AcDbCircle
 10
422.5169478072498
 20
402.7990691864425
 30
0.0
 40
7.169659991886735
100
AcDbArc
 50
49.14292331715198
 51
130.8570766828504
  0
ARC
  5
151
330
64
100
AcDbEntity
  8
0
  6
Continuous
 62
     7
100
AcDbCircle
 10
413.6431262572488
 20
407.3383074320603
 30
0.0
 40
2.302238969925643
100
AcDbArc
 50
22.56629896911729
 51
157.43370103088
  0
ARC
  5
152
330
64
100
AcDbEntity
  8
1
  6
Continuous
 62
     7
100
AcDbCircle
 10
783.8417193917888
 20
404.3246824526939
 30
0.0
 40
5.629165124598503
100
AcDbArc
 50
43.81306146040295
 51
136.1869385396003
  0
ARC
  5
153
330
64
100
AcDbEntity
  8
1
  6
Continuous
 62
     7
100
AcDbCircle
 10
773.3417193917888
 20
404.3246824526939
 30
0.0
 40
5.629165124598503
100
AcDbArc
 50
43.81306146040295
 51
136.1869385396003
  0
ARC
  5
154
330
64
100
AcDbEntity
  8
1
  6
Continuous
 62
     7
100
AcDbCircle
 10
773.3417193917888
 20
411.7280942970376
 30
0.0
 40
14.57809429703851
100
AcDbArc
 50
253.8210334862938
 51
286.1789665137044
  0
ARC
  5
155
330
64
100
AcDbEntity
  8
1
  6
Continuous
 62
     7
100
AcDbCircle
 10
783.8417193917888
 20
411.7280942970376
 30
0.0
 40
14.57809429703851
100
AcDbArc
 50
253.8210334862938
 51
286.1789665137044
  0
ENDBLK
  5
66
330
64
100
AcDbEntity
  8
0
100
AcDbBlockEnd
  0
BLOCK
  5
68
330
67
100
AcDbEntity
  8
0
100
AcDbBlockBegin
  2
30-253A-C2__7
 70
     0
 10
430.5159967376505
 20
219.6850303235304
 30
0.0
  3
30-253A-C2__7
  1

  0
LINE
  5
156
330
67
100
AcDbEntity
  8
1
  6
Continuous
 62
     7
100
AcDbLine
 10
766.5917193917873
 20
364.9933334515852
 30
0.0
 11
766.5917193917904
 21
345.1933334515852
 31
0.0
  0
LINE
  5
157
330
67
100
AcDbEntity
  8
1
  6
Continuous
 62
     7
100
AcDbLine
 10
766.5917193917904
 20
382.3991048175267
 30
0.0
 11
766.5917193917873
 21
365.3933334515851
 31
0.0
  0
LINE
  5
158
330
67
100
AcDbEntity
  8
1
  6
Continuous
 62
     7
100
AcDbLine
 10
766.7917193917875
 20
365.1933334515852
 30
0.0
 11
766.5917193917873
 21
364.9933334515852
 31
0.0
  0
LINE
  5
159
330
67
100
AcDbEntity
  8
1
  6
Continuous
 62
     7
100
AcDbLine
 10
766.5917193917873
 20
365.3933334515851
 30
0.0
 11
766.7917193917875
 21
365.1933334515852
 31
0.0
  0
LINE
  5
15A
330
67
100
AcDbEntity
  8
1
  6
Continuous
 62
     7
100
AcDbLine
 10
766.5917193917873
 20
365.3933334515851
 30
0.0
 11
768.2615923728653
 21
365.3933334515851
 31
0.0
  0
LINE
  5
15B
330
67
100
AcDbEntity
  8
1
  6
Continuous
 62
     7
100
AcDbLine
 10
768.2615923728653
 20
365.1933334515852
 30
0.0
 11
768.2615923728653
 21
365.3933334515851
 31
0.0
  0
LINE
  5
15C
330
67
100
AcDbEntity
  8
1
  6
Continuous
 62
     7
100
AcDbLine
 10
768.2615923728653
 20
365.1933334515852
 30
0.0
 11
766.7917193917875
 21
365.1933334515852
 31
0.0
  0
LINE
  5
15D
330
67
100
AcDbEntity
  8
1
  6
Continuous
 62
     7
100
AcDbLine
 10
768.2615923728653
 20
364.9933334515852
 30
0.0
 11
768.2615923728653
 21
365.1933334515852
 31
0.0
  0
LINE
  5
15E
330
67
100
AcDbEntity
  8
1
  6
Continuous
 62
     7
100
AcDbLine
 10
766.5917193917873
 20
364.9933334515852
 30
0.0
 11
768.2615923728653
 21
364.9933334515852
 31
0.0
  0
LINE
  5
15F
330
67
100
AcDbEntity
  8
1
  6
Continuous
 62
     7
100
AcDbLine
 10
788.9218464107124
 20
364.9933334515852
 30
0.0
 11
788.9218464107124
 21
345.6933334515852
 31
0.0
  0
LINE
  5
160
330
67
100
AcDbEntity
  8
1
  6
Continuous
 62
     7
100
AcDbLine
 10
788.9218464107124
 20
364.9933334515852
 30
0.0
 11
790.5917193917904
 21
364.9933334515852
 31
0.0
  0
LINE
  5
161
330
67
100
AcDbEntity
  8
1
  6
Continuous
 62
     7
100
AcDbLine
 10
788.9218464107124
 20
365.1933334515852
 30
0.0
 11
788.9218464107124
 21
364.9933334515852
 31
0.0
  0
LINE
  5
162
330
67
100
AcDbEntity
  8
1
  6
Continuous
 62
     7
100
AcDbLine
 10
790.3917193917904
 20
365.1933334515852
 30
0.0
 11
788.9218464107124
 21
365.1933334515852
 31
0.0
  0
LINE
  5
163
330
67
100
AcDbEntity
  8
1
  6
Continuous
 62
     7
100
AcDbLine
 10
788.9218464107124
 20
365.3933334515851
 30
0.0
 11
788.9218464107124
 21
365.1933334515852
 31
0.0
  0
LINE
  5
164
330
67
100
AcDbEntity
  8
1
  6
Continuous
 62
     7
100
AcDbLine
 10
790.5917193917904
 20
365.3933334515851
 30
0.0
 11
790.5917193917904
 21
382.3991048175267
 31
0.0
  0
LINE
  5
165
330
67
100
AcDbEntity
  8
1
  6
Continuous
 62
     7
100
AcDbLine
 10
788.9218464107124
 20
365.3933334515851
 30
0.0
 11
790.5917193917904
 21
365.3933334515851
 31
0.0
  0
LINE
  5
166
330
67
100
AcDbEntity
  8
1
  6
Continuous
 62
     7
100
AcDbLine
 10
790.3917193917904
 20
365.1933334515852
 30
0.0
 11
790.5917193917904
 21
365.3933334515851
 31
0.0
  0
LINE
  5
167
330
67
100
AcDbEntity
  8
1
  6
Continuous
 62
     7
100
AcDbLine
 10
790.5917193917904
 20
364.9933334515852
 30
0.0
 11
790.3917193917904
 21
365.1933334515852
 31
0.0
  0
LINE
  5
168
330
67
100
AcDbEntity
  8
1
  6
Continuous
 62
     7
100
AcDbLine
 10
776.9218464107126
 20
364.9933334515852
 30
0.0
 11
776.9218464107126
 21
345.6933334515852
 31
0.0
  0
LINE
  5
169
330
67
100
AcDbEntity
  8
1
  6
Continuous
 62
     7
100
AcDbLine
 10
780.2615923728682
 20
364.9933334515852
 30
0.0
 11
780.2615923728682
 21
365.1933334515852
 31
0.0
  0
LINE
  5
16A
330
67
100
AcDbEntity
  8
1
  6
Continuous
 62
     7
100
AcDbLine
 10
776.9218464107126
 20
364.9933334515852
 30
0.0
 11
780.2615923728682
 21
364.9933334515852
 31
0.0
  0
LINE
  5
16B
330
67
100
AcDbEntity
  8
1
  6
Continuous
 62
     7
100
AcDbLine
 10
776.9218464107126
 20
365.1933334515852
 30
0.0
 11
776.9218464107126
 21
364.9933334515852
 31
0.0
  0
LINE
  5
16C
330
67
100
AcDbEntity
  8
1
  6
Continuous
 62
     7
100
AcDbLine
 10
780.2615923728682
 20
365.1933334515852
 30
0.0
 11
780.2615923728682
 21
365.3933334515851
 31
0.0
  0
LINE
  5
16D
330
67
100
AcDbEntity
  8
1
  6
Continuous
 62
     7
100
AcDbLine
 10
776.9218464107126
 20
365.1933334515852
 30
0.0
 11
780.2615923728682
 21
365.1933334515852
 31
0.0
  0
LINE
  5
16E
330
67
100
AcDbEntity
  8
1
  6
Continuous
 62
     7
100
AcDbLine
 10
780.2615923728682
 20
365.3933334515851
 30
0.0
 11
780.2615923728682
 21
382.3991048175267
 31
0.0
  0
LINE
  5
16F
330
67
100
AcDbEntity
  8
1
  6
Continuous
 62
     7
100
AcDbLine
 10
776.9218464107126
 20
365.3933334515851
 30
0.0
 11
776.9218464107126
 21
365.1933334515852
 31
0.0
  0
LINE
  5
170
330
67
100
AcDbEntity
  8
1
  6
Continuous
 62
     7
100
AcDbLine
 10
776.9218464107126
 20
365.3933334515851
 30
0.0
 11
780.2615923728682
 21
365.3933334515851
 31
0.0
  0
LINE
  5
171
330
67
100
AcDbEntity
  8
1
  6
Continuous
 62
     7
100
AcDbLine
 10
430.4094605325759
 20
364.9933334515852
 30
0.0
 11
430.4094605325759
 21
345.6933334515852
 31
0.0
  0
LINE
  5
172
330
67
100
AcDbEntity
  8
1
  6
Continuous
 62
     7
100
AcDbLine
 10
427.5171556871626
 20
364.9933334515852
 30
0.0
 11
427.5171556871626
 21
365.1933334515852
 31
0.0
  0
LINE
  5
173
330
67
100
AcDbEntity
  8
1
  6
Continuous
 62
     7
100
AcDbLine
 10
427.5171556871626
 20
364.9933334515852
 30
0.0
 11
430.4094605325759
 21
364.9933334515852
 31
0.0
  0
LINE
  5
174
330
67
100
AcDbEntity
  8
1
  6
Continuous
 62
     7
100
AcDbLine
 10
430.4094605325759
 20
365.1933334515852
 30
0.0
 11
430.4094605325759
 21
364.9933334515852
 31
0.0
  0
LINE
  5
175
330
67
100
AcDbEntity
  8
1
  6
Continuous
 62
     7
100
AcDbLine
 10
427.5171556871626
 20
365.1933334515852
 30
0.0
 11
427.5171556871626
 21
365.3933334515851
 31
0.0
  0
LINE
  5
176
330
67
100
AcDbEntity
  8
1
  6
Continuous
 62
     7
100
AcDbLine
 10
427.5171556871626
 20
365.1933334515852
 30
0.0
 11
430.4094605325759
 21
365.1933334515852
 31
0.0
  0
LINE
  5
177
330
67
100
AcDbEntity
  8
1
  6
Continuous
 62
     7
100
AcDbLine
 10
427.5171556871626
 20
365.3933334515851
 30
0.0
 11
427.5171556871626
 21
382.3991048175267
 31
0.0
  0
LINE
  5
178
330
67
100
AcDbEntity
  8
1
  6
Continuous
 62
     7
100
AcDbLine
 10
430.4094605325759
 20
365.3933334515851
 30
0.0
 11
430.4094605325759
 21
365.1933334515852
 31
0.0
  0
LINE
  5
179
330
67
100
AcDbEntity
  8
1
  6
Continuous
 62
     7
100
AcDbLine
 10
427.5171556871626
 20
365.3933334515851
 30
0.0
 11
430.4094605325759
 21
365.3933334515851
 31
0.0
  0
LINE
  5
17A
330
67
100
AcDbEntity
  8
1
  6
Continuous
 62
     7
100
AcDbLine
 10
417.5171556871626
 20
364.9933334515852
 30
0.0
 11
417.5171556871626
 21
345.6933334515852
 31
0.0
  0
LINE
  5
17B
330
67
100
AcDbEntity
  8
1
  6
Continuous
 62
     7
100
AcDbLine
 10
414.6248508417492
 20
364.9933334515852
 30
0.0
 11
414.6248508417492
 21
365.1933334515852
 31
0.0
  0
LINE
  5
17C
330
67
100
AcDbEntity
  8
1
  6
Continuous
 62
     7
100
AcDbLine
 10
414.6248508417492
 20
364.9933334515852
 30
0.0
 11
417.5171556871626
 21
364.9933334515852
 31
0.0
  0
LINE
  5
17D
330
67
100
AcDbEntity
  8
1
  6
Continuous
 62
     7
100
AcDbLine
 10
417.5171556871626
 20
365.1933334515852
 30
0.0
 11
417.5171556871626
 21
364.9933334515852
 31
0.0
  0
LINE
  5
17E
330
67
100
AcDbEntity
  8
1
  6
Continuous
 62
     7
100
AcDbLine
 10
414.6248508417492
 20
365.1933334515852
 30
0.0
 11
414.6248508417492
 21
365.3933334515851
 31
0.0
  0
LINE
  5
17F
330
67
100
AcDbEntity
  8
1
  6
Continuous
 62
     7
100
AcDbLine
 10
414.6248508417492
 20
365.1933334515852
 30
0.0
 11
417.5171556871626
 21
365.1933334515852
 31
0.0
  0
LINE
  5
180
330
67
100
AcDbEntity
  8
1
  6
Continuous
 62
     7
100
AcDbLine
 10
414.6248508417492
 20
365.3933334515851
 30
0.0
 11
414.6248508417492
 21
382.3991048175267
 31
0.0
  0
LINE
  5
181
330
67
100
AcDbEntity
  8
1
  6
Continuous
 62
     7
100
AcDbLine
 10
417.5171556871626
 20
365.3933334515851
 30
0.0
 11
417.5171556871626
 21
365.1933334515852
 31
0.0
  0
LINE
  5
182
330
67
100
AcDbEntity
  8
1
  6
Continuous
 62
     7
100
AcDbLine
 10
414.6248508417492
 20
365.3933334515851
 30
0.0
 11
417.5171556871626
 21
365.3933334515851
 31
0.0
  0
LINE
  5
183
330
67
100
AcDbEntity
  8
1
  6
Continuous
 62
     7
100
AcDbLine
 10
766.5917193917904
 20
345.1933334515852
 30
0.0
 11
790.5917193917904
 21
345.1933334515852
 31
0.0
  0
LINE
  5
184
330
67
100
AcDbEntity
  8
1
  6
Continuous
 62
     7
100
AcDbLine
 10
435.0171556871596
 20
345.1933334515852
 30
0.0
 11
435.5171556871626
 21
345.6933334515884
 31
0.0
  0
LINE
  5
185
330
67
100
AcDbEntity
  8
1
  6
Continuous
 62
     7
100
AcDbLine
 10
409.5171556871626
 20
345.6933334515821
 30
0.0
 11
410.0171556871596
 21
345.1933334515852
 31
0.0
  0
LINE
  5
186
330
67
100
AcDbEntity
  8
1
  6
Continuous
 62
     7
100
AcDbLine
 10
409.5171556871596
 20
345.6933334515852
 30
0.0
 11
409.5171556871626
 21
345.6933334515821
 31
0.0
  0
LINE
  5
187
330
67
100
AcDbEntity
  8
0
  6
Continuous
 62
     7
100
AcDbLine
 10
790.5917193917904
 20
382.3991048175267
 30
0.0
 11
788.9218464107124
 21
382.3991048175267
 31
0.0
  0
LINE
  5
188
330
67
100
AcDbEntity
  8
0
  6
Continuous
 62
     7
100
AcDbLine
 10
770.0917193917904
 20
390.1933334515852
 30
0.0
 11
787.0917193917911
 21
390.193333451585
 31
0.0
  0
LINE
  5
189
330
67
100
AcDbEntity
  8
1
  6
Continuous
 62
     7
100
AcDbLine
 10
770.0917193917904
 20
392.693333451585
 30
0.0
 11
770.0917193917904
 21
391.8273080478009
 31
0.0
  0
LINE
  5
18A
330
67
100
AcDbEntity
  8
0
  6
Continuous
 62
     7
100
AcDbLine
 10
786.5917193917911
 20
392.693333451585
 30
0.0
 11
770.0917193917904
 21
392.693333451585
 31
0.0
  0
LINE
  5
18B
330
67
100
AcDbEntity
  8
1
  6
Continuous
 62
     7
100
AcDbLine
 10
770.0917193917909
 20
397.1499999999992
 30
0.0
 11
770.0917193917904
 21
392.693333451585
 31
0.0
  0
LINE
  5
18C
330
67
100
AcDbEntity
  8
1
  6
Continuous
 62
     2
100
AcDbLine
 10
786.5917193917904
 20
397.1499999999992
 30
0.0
 11
786.5917193917911
 21
392.693333451585
 31
0.0
  0
LINE
  5
18D
330
67
100
AcDbEntity
  8
1
  6
Continuous
 62
     7
100
AcDbLine
 10
770.0917193917904
 20
390.1933334515852
 30
0.0
 11
766.5917193917904
 21
382.3991048175267
 31
0.0
  0
LINE
  5
18E
330
67
100
AcDbEntity
  8
1
  6
Continuous
 62
     2
100
AcDbLine
 10
770.5917193917904
 20
392.693333451585
 30
0.0
 11
770.5917193917904
 21
397.1499999999992
 31
0.0
  0
LINE
  5
18F
330
67
100
AcDbEntity
  8
1
  6
Continuous
 62
     2
100
AcDbLine
 10
786.5917193917911
 20
392.693333451585
 30
0.0
 11
787.0917193917911
 21
391.8273080478009
 31
0.0
  0
LINE
  5
190
330
67
100
AcDbEntity
  8
1
  6
Continuous
 62
     7
100
AcDbLine
 10
787.0917193917911
 20
392.693333451585
 30
0.0
 11
786.5917193917911
 21
392.693333451585
 31
0.0
  0
LINE
  5
191
330
67
100
AcDbEntity
  8
1
  6
Continuous
 62
     7
100
AcDbLine
 10
787.0917193917911
 20
390.193333451585
 30
0.0
 11
787.0917193917911
 21
391.8273080478009
 31
0.0
  0
LINE
  5
192
330
67
100
AcDbEntity
  8
1
  6
Continuous
 62
     7
100
AcDbLine
 10
790.5917193917904
 20
382.3991048175267
 30
0.0
 11
787.0917193917911
 21
390.193333451585
 31
0.0
  0
LINE
  5
193
330
67
100
AcDbEntity
  8
1
  6
Continuous
 62
     2
100
AcDbLine
 10
770.0917193917904
 20
391.8273080478009
 30
0.0
 11
770.5917193917904
 21
392.693333451585
 31
0.0
  0
LINE
  5
194
330
67
100
AcDbEntity
  8
1
  6
Continuous
 62
     7
100
AcDbLine
 10
770.5917193917904
 20
392.693333451585
 30
0.0
 11
770.0917193917904
 21
392.693333451585
 31
0.0
  0
LINE
  5
195
330
67
100
AcDbEntity
  8
1
  6
Continuous
 62
     7
100
AcDbLine
 10
787.0917193917911
 20
391.8273080478009
 30
0.0
 11
787.0917193917907
 21
397.1499999999992
 31
0.0
  0
LINE
  5
196
330
67
100
AcDbEntity
  8
1
  6
Continuous
 62
     7
100
AcDbLine
 10
770.0917193917904
 20
391.8273080478009
 30
0.0
 11
770.0917193917904
 21
390.1933334515852
 31
0.0
  0
LINE
  5
197
330
67
100
AcDbEntity
  8
1
  6
Continuous
 62
     7
100
AcDbLine
 10
788.9218464107124
 20
382.3991048175267
 30
0.0
 11
788.9218464107124
 21
365.3933334515851
 31
0.0
  0
LINE
  5
198
330
67
100
AcDbEntity
  8
1
  6
Continuous
 62
     7
100
AcDbLine
 10
780.2615923728682
 20
345.6933334515852
 30
0.0
 11
780.2615923728682
 21
364.9933334515852
 31
0.0
  0
LINE
  5
199
330
67
100
AcDbEntity
  8
1
  6
Continuous
 62
     7
100
AcDbLine
 10
776.9218464107126
 20
382.3991048175267
 30
0.0
 11
776.9218464107126
 21
365.3933334515851
 31
0.0
  0
LINE
  5
19A
330
67
100
AcDbEntity
  8
1
  6
Continuous
 62
     7
100
AcDbLine
 10
768.2615923728682
 20
345.6933334515852
 30
0.0
 11
768.2615923728682
 21
382.3991048175267
 31
0.0
  0
LINE
  5
19B
330
67
100
AcDbEntity
  8
1
  6
Continuous
 62
     7
100
AcDbLine
 10
788.9218464107124
 20
345.6933334515852
 30
0.0
 11
790.5917193917904
 21
345.6933334515852
 31
0.0
  0
LINE
  5
19C
330
67
100
AcDbEntity
  8
1
  6
Continuous
 62
     7
100
AcDbLine
 10
776.9218464107126
 20
345.6933334515852
 30
0.0
 11
780.2615923728682
 21
345.6933334515852
 31
0.0
  0
LINE
  5
19D
330
67
100
AcDbEntity
  8
0
  6
Continuous
 62
     7
100
AcDbLine
 10
768.2615923728682
 20
382.3991048175267
 30
0.0
 11
766.5917193917904
 21
382.3991048175267
 31
0.0
  0
LINE
  5
19E
330
67
100
AcDbEntity
  8
0
  6
Continuous
 62
     7
100
AcDbLine
 10
780.2615923728682
 20
382.3991048175267
 30
0.0
 11
776.9218464107126
 21
382.3991048175267
 31
0.0
  0
LINE
  5
19F
330
67
100
AcDbEntity
  8
1
  6
Continuous
 62
     7
100
AcDbLine
 10
790.5917193917904
 20
345.1933334515852
 30
0.0
 11
790.5917193917904
 21
352.193333451585
 31
0.0
  0
LINE
  5
1A0
330
67
100
AcDbEntity
  8
0
  6
Continuous
 62
     7
100
AcDbLine
 10
768.2615923728682
 20
345.6933334515852
 30
0.0
 11
766.5917193917904
 21
345.6933334515852
 31
0.0
  0
LINE
  5
1A1
330
67
100
AcDbEntity
  8
1
  6
Continuous
 62
     7
100
AcDbLine
 10
414.6248508417492
 20
345.6933334515852
 30
0.0
 11
414.6248508417492
 21
364.9933334515852
 31
0.0
  0
LINE
  5
1A2
330
67
100
AcDbEntity
  8
1
  6
Continuous
 62
     7
100
AcDbLine
 10
417.5171556871626
 20
382.3991048175267
 30
0.0
 11
417.5171556871626
 21
365.3933334515851
 31
0.0
  0
LINE
  5
1A3
330
67
100
AcDbEntity
  8
1
  6
Continuous
 62
     7
100
AcDbLine
 10
427.5171556871626
 20
345.6933334515852
 30
0.0
 11
427.5171556871626
 21
364.9933334515852
 31
0.0
  0
LINE
  5
1A4
330
67
100
AcDbEntity
  8
1
  6
Continuous
 62
     7
100
AcDbLine
 10
430.4094605325759
 20
382.3991048175267
 30
0.0
 11
430.4094605325759
 21
365.3933334515851
 31
0.0
  0
LINE
  5
1A5
330
67
100
AcDbEntity
  8
1
  6
Continuous
 62
     7
100
AcDbLine
 10
435.4094605325759
 20
382.3991048175267
 30
0.0
 11
435.4094605325759
 21
345.6933334515852
 31
0.0
  0
LINE
  5
1A6
330
67
100
AcDbEntity
  8
1
  6
Continuous
 62
     7
100
AcDbLine
 10
409.6248508417494
 20
382.3991048175267
 30
0.0
 11
409.6248508417494
 21
345.6933334515852
 31
0.0
  0
LINE
  5
1A7
330
67
100
AcDbEntity
  8
1
  6
Continuous
 62
     7
100
AcDbLine
 10
409.6248508417494
 20
382.3991048175267
 30
0.0
 11
409.5171556871626
 21
382.3991048175267
 31
0.0
  0
LINE
  5
1A8
330
67
100
AcDbEntity
  8
1
  6
Continuous
 62
     7
100
AcDbLine
 10
435.4094605325759
 20
382.3991048175267
 30
0.0
 11
435.5171556871626
 21
382.3991048175267
 31
0.0
  0
LINE
  5
1A9
330
67
100
AcDbEntity
  8
1
  6
Continuous
 62
     7
100
AcDbLine
 10
414.6248508417492
 20
382.3991048175267
 30
0.0
 11
417.5171556871626
 21
382.3991048175267
 31
0.0
  0
LINE
  5
1AA
330
67
100
AcDbEntity
  8
1
  6
Continuous
 62
     7
100
AcDbLine
 10
430.4094605325759
 20
382.3991048175267
 30
0.0
 11
427.5171556871626
 21
382.3991048175267
 31
0.0
  0
LINE
  5
1AB
330
67
100
AcDbEntity
  8
1
  6
Continuous
 62
     7
100
AcDbLine
 10
409.5171556871626
 20
345.6933334515852
 30
0.0
 11
409.6248508417494
 21
345.6933334515852
 31
0.0
  0
LINE
  5
1AC
330
67
100
AcDbEntity
  8
1
  6
Continuous
 62
     7
100
AcDbLine
 10
435.4094605325759
 20
345.6933334515852
 30
0.0
 11
435.5171556871626
 21
345.6933334515852
 31
0.0
  0
LINE
  5
1AD
330
67
100
AcDbEntity
  8
1
  6
Continuous
 62
     7
100
AcDbLine
 10
414.6248508417492
 20
345.6933334515852
 30
0.0
 11
417.5171556871626
 21
345.6933334515852
 31
0.0
  0
LINE
  5
1AE
330
67
100
AcDbEntity
  8
1
  6
Continuous
 62
     7
100
AcDbLine
 10
427.5171556871626
 20
345.6933334515852
 30
0.0
 11
430.4094605325699
 21
345.6933334515852
 31
0.0
  0
LINE
  5
1AF
330
67
100
AcDbEntity
  8
1
  6
Continuous
 62
     7
100
AcDbLine
 10
410.0171556871596
 20
345.1933334515852
 30
0.0
 11
412.0396556871627
 21
345.1933334515852
 31
0.0
  0
LINE
  5
1B0
330
67
100
AcDbEntity
  8
1
  6
Continuous
 62
     7
100
AcDbLine
 10
432.9946556871626
 20
345.1933334515852
 30
0.0
 11
435.0171556871596
 21
345.1933334515852
 31
0.0
  0
LINE
  5
1B1
330
67
100
AcDbEntity
  8
1
  6
Continuous
 62
     7
100
AcDbLine
 10
409.5171556871626
 20
382.3991048175267
 30
0.0
 11
409.5171556871626
 21
345.6933334515821
 31
0.0
  0
LINE
  5
1B2
330
67
100
AcDbEntity
  8
1
  6
Continuous
 62
     7
100
AcDbLine
 10
412.0396556871627
 20
345.1933334515852
 30
0.0
 11
432.9946556871626
 21
345.1933334515852
 31
0.0
  0
LINE
  5
1B3
330
67
100
AcDbEntity
  8
1
  6
Continuous
 62
     7
100
AcDbLine
 10
435.5171556871626
 20
345.6933334515884
 30
0.0
 11
435.5171556871626
 21
382.3991048175267
 31
0.0
  0
LINE
  5
1B4
330
67
100
AcDbEntity
  8
0
  6
Continuous
 62
     7
100
AcDbLine
 10
435.5171556871626
 20
382.3991048175267
 30
0.0
 11
431.0171556871636
 21
390.193333451585
 31
0.0
  0
LINE
  5
1B5
330
67
100
AcDbEntity
  8
0
  6
Continuous
 62
     7
100
AcDbLine
 10
409.5171556871626
 20
382.3991048175267
 30
0.0
 11
414.0171556871626
 21
390.1933334515852
 31
0.0
  0
LINE
  5
1B6
330
67
100
AcDbEntity
  8
0
  6
Continuous
 62
     7
100
AcDbLine
 10
414.0171556871596
 20
390.1933334515852
 30
0.0
 11
431.0171556871605
 21
390.193333451585
 31
0.0
  0
LINE
  5
1B7
330
67
100
AcDbEntity
  8
1
  6
Continuous
 62
     7
100
AcDbLine
 10
414.0171556871596
 20
392.693333451585
 30
0.0
 11
414.0171556871596
 21
391.8273080478009
 31
0.0
  0
LINE
  5
1B8
330
67
100
AcDbEntity
  8
0
  6
Continuous
 62
     7
100
AcDbLine
 10
430.5171556871605
 20
392.693333451585
 30
0.0
 11
414.0171556871596
 21
392.693333451585
 31
0.0
  0
LINE
  5
1B9
330
67
100
AcDbEntity
  8
1
  6
Continuous
 62
     7
100
AcDbLine
 10
414.0171556871599
 20
397.1499999999992
 30
0.0
 11
414.0171556871596
 21
392.693333451585
 31
0.0
  0
LINE
  5
1BA
330
67
100
AcDbEntity
  8
1
  6
Continuous
 62
     2
100
AcDbLine
 10
430.5171556871596
 20
397.1499999999992
 30
0.0
 11
430.5171556871605
 21
392.693333451585
 31
0.0
  0
LINE
  5
1BB
330
67
100
AcDbEntity
  8
1
  6
Continuous
 62
     2
100
AcDbLine
 10
414.5171556871596
 20
392.693333451585
 30
0.0
 11
414.5171556871596
 21
397.1499999999992
 31
0.0
  0
LINE
  5
1BC
330
67
100
AcDbEntity
  8
1
  6
Continuous
 62
     2
100
AcDbLine
 10
430.5171556871605
 20
392.693333451585
 30
0.0
 11
431.0171556871605
 21
391.8273080478009
 31
0.0
  0
LINE
  5
1BD
330
67
100
AcDbEntity
  8
1
  6
Continuous
 62
     7
100
AcDbLine
 10
431.0171556871605
 20
392.693333451585
 30
0.0
 11
430.5171556871605
 21
392.693333451585
 31
0.0
  0
LINE
  5
1BE
330
67
100
AcDbEntity
  8
1
  6
Continuous
 62
     7
100
AcDbLine
 10
431.0171556871605
 20
390.193333451585
 30
0.0
 11
431.0171556871605
 21
391.8273080478009
 31
0.0
  0
LINE
  5
1BF
330
67
100
AcDbEntity
  8
1
  6
Continuous
 62
     2
100
AcDbLine
 10
414.0171556871596
 20
391.8273080478009
 30
0.0
 11
414.5171556871596
 21
392.693333451585
 31
0.0
  0
LINE
  5
1C0
330
67
100
AcDbEntity
  8
1
  6
Continuous
 62
     7
100
AcDbLine
 10
414.5171556871596
 20
392.693333451585
 30
0.0
 11
414.0171556871596
 21
392.693333451585
 31
0.0
  0
LINE
  5
1C1
330
67
100
AcDbEntity
  8
1
  6
Continuous
 62
     7
100
AcDbLine
 10
431.0171556871605
 20
391.8273080478009
 30
0.0
 11
431.0171556871599
 21
397.1499999999992
 31
0.0
  0
LINE
  5
1C2
330
67
100
AcDbEntity
  8
1
  6
Continuous
 62
     7
100
AcDbLine
 10
414.0171556871596
 20
391.8273080478009
 30
0.0
 11
414.0171556871596
 21
390.1933334515852
 31
0.0
  0
LINE
  5
1C3
330
67
100
AcDbEntity
  8
1
  6
Continuous
 62
     7
100
AcDbLine
 10
790.5917193917904
 20
352.193333451585
 30
0.0
 11
790.5917193917904
 21
364.9933334515852
 31
0.0
  0
ARC
  5
1C4
330
67
100
AcDbEntity
  8
1
  6
Continuous
 62
     7
100
AcDbCircle
 10
772.5917193917904
 20
377.8524714476378
 30
0.0
 40
6.278684177452083
100
AcDbArc
 50
46.39718102742566
 51
133.6028189725743
  0
ARC
  5
1C5
330
67
100
AcDbEntity
  8
1
  6
Continuous
 62
     7
100
AcDbCircle
 10
784.5917193917904
 20
377.852471447638
 30
0.0
 40
6.278684177451804
100
AcDbArc
 50
46.3971810274261
 51
133.6028189725754
  0
ARC
  5
1C6
330
67
100
AcDbEntity
  8
1
  6
Continuous
 62
     7
100
AcDbCircle
 10
772.5917193917904
 20
364.1933334515852
 30
0.0
 40
19.0
100
AcDbArc
 50
256.826448892741
 51
283.173551107259
  0
ARC
  5
1C7
330
67
100
AcDbEntity
  8
1
  6
Continuous
 62
     7
100
AcDbCircle
 10
784.5917193917904
 20
364.193333451585
 30
0.0
 40
18.99999999999978
100
AcDbArc
 50
256.8264488927409
 51
283.1735511072584
  0
ARC
  5
1C8
330
67
100
AcDbEntity
  8
1
  6
Continuous
 62
     7
100
AcDbCircle
 10
412.1248508417494
 20
351.6915437516392
 30
0.0
 40
6.498348005737589
100
AcDbArc
 50
247.3740659204959
 51
292.6259340795027
  0
ARC
  5
1C9
330
67
100
AcDbEntity
  8
1
  6
Continuous
 62
     7
100
AcDbCircle
 10
422.5171556871626
 20
370.4433334515846
 30
0.0
 40
25.24999999999939
100
AcDbArc
 50
258.5788137250004
 51
281.4211862749996
  0
ARC
  5
1CA
330
67
100
AcDbEntity
  8
1
  6
Continuous
 62
     7
100
AcDbCircle
 10
432.9094605325761
 20
351.6915437516392
 30
0.0
 40
6.498348005737655
100
AcDbArc
 50
247.3740659204945
 51
292.6259340795027
  0
ARC
  5
1CB
330
67
100
AcDbEntity
  8
1
  6
Continuous
 62
     7
100
AcDbCircle
 10
422.5171556871626
 20
376.048251856415
 30
0.0
 40
8.082903768675033
100
AcDbArc
 50
51.78678929837494
 51
128.2132107016251
  0
ARC
  5
1CC
330
67
100
AcDbEntity
  8
1
  6
Continuous
 62
     7
100
AcDbCircle
 10
432.9094605325759
 20
381.4609106300848
 30
0.0
 40
2.670244995005084
100
AcDbArc
 50
20.56999209227883
 51
159.4300079077212
  0
ARC
  5
1CD
330
67
100
AcDbEntity
  8
1
  6
Continuous
 62
     7
100
AcDbCircle
 10
412.1248508417432
 20
381.4609106300848
 30
0.0
 40
2.670244995005084
100
AcDbArc
 50
20.56999209227883
 51
159.4300079077212
  0
ENDBLK
  5
69
330
67
100
AcDbEntity
  8
0
100
AcDbBlockEnd
  0
BLOCK
  5
6D
330
6A
100
AcDbEntity
  8
0
100
AcDbBlockBegin
  2
V843FE__8
 70
     0
 10
1575.0
 20
1575.789999999999
 30
0.0
  3
V843FE__8
  1

  0
INSERT
  5
6B
330
6A
100
AcDbEntity
  8
0
100
AcDbBlockReference
  2
32-116__6
 10
646.7376737048066
 20
507.9529090364614
 30
0.0
 41
1.0
 42
1.0
 43
1.0
  0
INSERT
  5
6C
330
6A
100
AcDbEntity
  8
1
100
AcDbBlockReference
  2
30-253A-C2__7
 10
430.5159967376504
 20
219.6850303235304
 30
0.0
 41
1.0
 42
1.0
 43
1.0
  0
LINE
  5
1CE
330
6A
100
AcDbEntity
  8
1
  6
PHANTOM
 62
     4
100
AcDbLine
 10
778.5917193917885
 20
418.1499999999992
 30
0.0
 11
778.5917193917885
 21
342.1933334515852
 31
0.0
  0
LINE
  5
1CF
330
6A
100
AcDbEntity
  8
1
  6
PHANTOM
 62
     4
100
AcDbLine
 10
422.5171556871613
 20
418.1499999999992
 30
0.0
 11
422.5171556871613
 21
342.1933334515852
 31
0.0
  0
ENDBLK
  5
6E
330
6A
100
AcDbEntity
  8
0
100
AcDbBlockEnd
  0
BLOCK
  5
70
330
6F
100
AcDbEntity
  8
0
100
AcDbBlockBegin
  2
35-338-M11
 70
     0
 10
1196.330860123494
 20
1302.432947233518
 30
0.0
  3
35-338-M11
  1

  0
LINE
  5
1D0
330
6F
100
AcDbEntity
  8
1
  6
Continuous
 62
     7
100
AcDbLine
 10
765.5917193918018
 20
664.2000000000005
 30
0.0
 11
765.5917193918018
 21
646.6999999999997
 31
0.0
  0
LINE
  5
1D1
330
6F
100
AcDbEntity
  8
1
  6
Continuous
 62
     7
100
AcDbLine
 10
759.3917193917756
 20
693.2
 30
0.0
 11
803.7917193918018
 21
693.2
 31
0.0
  0
LINE
  5
1D2
330
6F
100
AcDbEntity
  8
1
  6
Continuous
 62
     7
100
AcDbLine
 10
803.7917193918018
 20
691.2
 30
0.0
 11
759.3917193917756
 21
691.2
 31
0.0
  0
LINE
  5
1D3
330
6F
100
AcDbEntity
  8
1
  6
Continuous
 62
     7
100
AcDbLine
 10
759.0917193917757
 20
691.5
 30
0.0
 11
759.3917193917756
 21
691.2
 31
0.0
  0
LINE
  5
1D4
330
6F
100
AcDbEntity
  8
1
  6
Continuous
 62
     7
100
AcDbLine
 10
759.3917193917756
 20
693.2
 30
0.0
 11
759.0917193917757
 21
692.9
 31
0.0
  0
LINE
  5
1D5
330
6F
100
AcDbEntity
  8
1
  6
Continuous
 62
     7
100
AcDbLine
 10
759.0917193917757
 20
691.5
 30
0.0
 11
759.0917193917757
 21
692.9
 31
0.0
  0
LINE
  5
1D6
330
6F
100
AcDbEntity
  8
1
  6
Continuous
 62
     7
100
AcDbLine
 10
765.5917193918018
 20
688.7000000000002
 30
0.0
 11
765.5917193918018
 21
673.2000000000003
 31
0.0
  0
LINE
  5
1D7
330
6F
100
AcDbEntity
  8
1
  6
Continuous
 62
     7
100
AcDbLine
 10
797.5917193918018
 20
646.6999999999999
 30
0.0
 11
797.5917193918018
 21
664.2000000000005
 31
0.0
  0
LINE
  5
1D8
330
6F
100
AcDbEntity
  8
1
  6
Continuous
 62
     7
100
AcDbLine
 10
804.0917193918018
 20
692.9
 30
0.0
 11
804.0917193918018
 21
691.5
 31
0.0
  0
LINE
  5
1D9
330
6F
100
AcDbEntity
  8
1
  6
Continuous
 62
     7
100
AcDbLine
 10
804.0917193918018
 20
692.9
 30
0.0
 11
803.7917193918018
 21
693.2
 31
0.0
  0
LINE
  5
1DA
330
6F
100
AcDbEntity
  8
1
  6
Continuous
 62
     7
100
AcDbLine
 10
803.7917193918018
 20
691.2
 30
0.0
 11
804.0917193918018
 21
691.5
 31
0.0
  0
LINE
  5
1DB
330
6F
100
AcDbEntity
  8
1
  6
Continuous
 62
     7
100
AcDbLine
 10
797.5917193918018
 20
646.6999999999999
 30
0.0
 11
796.7797193918019
 21
645.8879999999998
 31
0.0
  0
LINE
  5
1DC
330
6F
100
AcDbEntity
  8
1
  6
Continuous
 62
     2
100
AcDbLine
 10
796.7797193918019
 20
688.7000000000002
 30
0.0
 11
796.7797193918019
 21
673.2000000000003
 31
0.0
  0
LINE
  5
1DD
330
6F
100
AcDbEntity
  8
1
  6
Continuous
 62
     7
100
AcDbLine
 10
766.4037193918019
 20
645.8879999999996
 30
0.0
 11
765.5917193918018
 21
646.6999999999997
 31
0.0
  0
LINE
  5
1DE
330
6F
100
AcDbEntity
  8
1
  6
Continuous
 62
     7
100
AcDbLine
 10
767.9917193918019
 20
645.6999999999999
 30
0.0
 11
796.5917193918018
 21
645.6999999999999
 31
0.0
  0
LINE
  5
1DF
330
6F
100
AcDbEntity
  8
1
  6
Continuous
 62
     7
100
AcDbLine
 10
796.7797193918019
 20
645.8879999999998
 30
0.0
 11
796.5917193918018
 21
645.6999999999999
 31
0.0
  0
LINE
  5
1E0
330
6F
100
AcDbEntity
  8
1
  6
Continuous
 62
     7
100
AcDbLine
 10
766.5917193918018
 20
645.6999999999999
 30
0.0
 11
767.9917193918019
 21
645.6999999999999
 31
0.0
  0
LINE
  5
1E1
330
6F
100
AcDbEntity
  8
1
  6
Continuous
 62
     7
100
AcDbLine
 10
766.5917193918018
 20
645.6999999999999
 30
0.0
 11
766.4037193918019
 21
645.8879999999996
 31
0.0
  0
LINE
  5
1E2
330
6F
100
AcDbEntity
  8
1
  6
Continuous
 62
     2
100
AcDbLine
 10
766.4037193918019
 20
645.8879999999996
 30
0.0
 11
766.4037193918019
 21
664.2000000000005
 31
0.0
  0
LINE
  5
1E3
330
6F
100
AcDbEntity
  8
1
  6
Continuous
 62
     7
100
AcDbLine
 10
765.5917193918018
 20
646.6999999999997
 30
0.0
 11
797.5917193918018
 21
646.6999999999999
 31
0.0
  0
LINE
  5
1E4
330
6F
100
AcDbEntity
  8
1
  6
Continuous
 62
     7
100
AcDbLine
 10
797.5917193918018
 20
673.2000000000003
 30
0.0
 11
797.5917193918018
 21
688.7000000000002
 31
0.0
  0
LINE
  5
1E5
330
6F
100
AcDbEntity
  8
1
  6
Continuous
 62
     2
100
AcDbLine
 10
796.7797193918019
 20
664.2000000000005
 30
0.0
 11
796.7797193918019
 21
645.8879999999998
 31
0.0
  0
LINE
  5
1E6
330
6F
100
AcDbEntity
  8
1
  6
Continuous
 62
     2
100
AcDbLine
 10
766.4037193918019
 20
673.2000000000003
 30
0.0
 11
766.4037193918019
 21
688.7000000000002
 31
0.0
  0
LINE
  5
1E7
330
6F
100
AcDbEntity
  8
1
  6
Continuous
 62
     2
100
AcDbLine
 10
346.4037193918018
 20
673.2000000000003
 30
0.0
 11
346.4037193918018
 21
688.7000000000002
 31
0.0
  0
LINE
  5
1E8
330
6F
100
AcDbEntity
  8
1
  6
Continuous
 62
     2
100
AcDbLine
 10
376.7797193918018
 20
664.2000000000005
 30
0.0
 11
376.7797193918018
 21
645.8879999999998
 31
0.0
  0
LINE
  5
1E9
330
6F
100
AcDbEntity
  8
1
  6
Continuous
 62
     7
100
AcDbLine
 10
377.5917193918017
 20
673.2000000000003
 30
0.0
 11
377.5917193918017
 21
688.7000000000002
 31
0.0
  0
LINE
  5
1EA
330
6F
100
AcDbEntity
  8
1
  6
Continuous
 62
     7
100
AcDbLine
 10
345.5917193918017
 20
646.6999999999997
 30
0.0
 11
377.5917193918017
 21
646.6999999999999
 31
0.0
  0
LINE
  5
1EB
330
6F
100
AcDbEntity
  8
1
  6
Continuous
 62
     2
100
AcDbLine
 10
346.4037193918018
 20
645.8879999999996
 30
0.0
 11
346.4037193918018
 21
664.2000000000005
 31
0.0
  0
LINE
  5
1EC
330
6F
100
AcDbEntity
  8
1
  6
Continuous
 62
     7
100
AcDbLine
 10
346.5917193918017
 20
645.6999999999999
 30
0.0
 11
346.4037193918018
 21
645.8879999999996
 31
0.0
  0
LINE
  5
1ED
330
6F
100
AcDbEntity
  8
1
  6
Continuous
 62
     7
100
AcDbLine
 10
346.5917193918017
 20
645.6999999999999
 30
0.0
 11
347.9917193918018
 21
645.6999999999999
 31
0.0
  0
LINE
  5
1EE
330
6F
100
AcDbEntity
  8
1
  6
Continuous
 62
     7
100
AcDbLine
 10
376.7797193918018
 20
645.8879999999998
 30
0.0
 11
376.5917193918017
 21
645.6999999999999
 31
0.0
  0
LINE
  5
1EF
330
6F
100
AcDbEntity
  8
1
  6
Continuous
 62
     7
100
AcDbLine
 10
347.9917193918018
 20
645.6999999999999
 30
0.0
 11
376.5917193918017
 21
645.6999999999999
 31
0.0
  0
LINE
  5
1F0
330
6F
100
AcDbEntity
  8
1
  6
Continuous
 62
     7
100
AcDbLine
 10
346.4037193918018
 20
645.8879999999996
 30
0.0
 11
345.5917193918017
 21
646.6999999999997
 31
0.0
  0
LINE
  5
1F1
330
6F
100
AcDbEntity
  8
1
  6
Continuous
 62
     2
100
AcDbLine
 10
376.7797193918018
 20
688.7000000000002
 30
0.0
 11
376.7797193918018
 21
673.2000000000003
 31
0.0
  0
LINE
  5
1F2
330
6F
100
AcDbEntity
  8
1
  6
Continuous
 62
     7
100
AcDbLine
 10
377.5917193918017
 20
646.6999999999999
 30
0.0
 11
376.7797193918018
 21
645.8879999999998
 31
0.0
  0
LINE
  5
1F3
330
6F
100
AcDbEntity
  8
1
  6
Continuous
 62
     7
100
AcDbLine
 10
383.7917193918017
 20
691.2
 30
0.0
 11
384.0917193918017
 21
691.5
 31
0.0
  0
LINE
  5
1F4
330
6F
100
AcDbEntity
  8
1
  6
Continuous
 62
     7
100
AcDbLine
 10
384.0917193918017
 20
692.9
 30
0.0
 11
383.7917193918017
 21
693.2
 31
0.0
  0
LINE
  5
1F5
330
6F
100
AcDbEntity
  8
1
  6
Continuous
 62
     7
100
AcDbLine
 10
384.0917193918017
 20
692.9
 30
0.0
 11
384.0917193918017
 21
691.5
 31
0.0
  0
LINE
  5
1F6
330
6F
100
AcDbEntity
  8
1
  6
Continuous
 62
     7
100
AcDbLine
 10
377.5917193918017
 20
646.6999999999999
 30
0.0
 11
377.5917193918017
 21
664.2000000000005
 31
0.0
  0
LINE
  5
1F7
330
6F
100
AcDbEntity
  8
1
  6
Continuous
 62
     7
100
AcDbLine
 10
345.5917193918017
 20
688.7000000000002
 30
0.0
 11
345.5917193918017
 21
673.2000000000003
 31
0.0
  0
LINE
  5
1F8
330
6F
100
AcDbEntity
  8
1
  6
Continuous
 62
     7
100
AcDbLine
 10
339.0917193917755
 20
691.5
 30
0.0
 11
339.0917193917755
 21
692.9
 31
0.0
  0
LINE
  5
1F9
330
6F
100
AcDbEntity
  8
1
  6
Continuous
 62
     7
100
AcDbLine
 10
339.3917193917755
 20
693.2
 30
0.0
 11
339.0917193917755
 21
692.9
 31
0.0
  0
LINE
  5
1FA
330
6F
100
AcDbEntity
  8
1
  6
Continuous
 62
     7
100
AcDbLine
 10
339.0917193917755
 20
691.5
 30
0.0
 11
339.3917193917755
 21
691.2
 31
0.0
  0
LINE
  5
1FB
330
6F
100
AcDbEntity
  8
1
  6
Continuous
 62
     7
100
AcDbLine
 10
383.7917193918017
 20
691.2
 30
0.0
 11
339.3917193917755
 21
691.2
 31
0.0
  0
LINE
  5
1FC
330
6F
100
AcDbEntity
  8
1
  6
Continuous
 62
     7
100
AcDbLine
 10
339.3917193917755
 20
693.2
 30
0.0
 11
383.7917193918017
 21
693.2
 31
0.0
  0
LINE
  5
1FD
330
6F
100
AcDbEntity
  8
1
  6
Continuous
 62
     7
100
AcDbLine
 10
345.5917193918017
 20
664.2000000000005
 30
0.0
 11
345.5917193918017
 21
646.6999999999997
 31
0.0
  0
ENDBLK
  5
71
330
6F
100
AcDbEntity
  8
0
100
AcDbBlockEnd
  0
BLOCK
  5
73
330
72
100
AcDbEntity
  8
0
100
AcDbBlockBegin
  2
32-33-32
 70
     0
 10
660.045328859244
 20
589.4495240620078
 30
0.0
  3
32-33-32
  1

  0
LINE
  5
1FE
330
72
100
AcDbEntity
  8
1
  6
Continuous
 62
     7
100
AcDbLine
 10
799.5917193917884
 20
670.2000000000004
 30
0.0
 11
763.5917193917884
 21
670.2000000000004
 31
0.0
  0
LINE
  5
1FF
330
72
100
AcDbEntity
  8
1
  6
Continuous
 62
     7
100
AcDbLine
 10
799.5917193917884
 20
670.2000000000004
 30
0.0
 11
799.5917193917884
 21
664.2000000000004
 31
0.0
  0
LINE
  5
200
330
72
100
AcDbEntity
  8
1
  6
Continuous
 62
     7
100
AcDbLine
 10
763.5917193917884
 20
664.2000000000004
 30
0.0
 11
763.5917193917884
 21
670.2000000000004
 31
0.0
  0
LINE
  5
201
330
72
100
AcDbEntity
  8
1
  6
Continuous
 62
     7
100
AcDbLine
 10
799.5917193917884
 20
664.2000000000004
 30
0.0
 11
763.5917193917884
 21
664.2000000000004
 31
0.0
  0
LINE
  5
202
330
72
100
AcDbEntity
  8
0
  6
Continuous
 62
     7
100
AcDbLine
 10
381.3417193918017
 20
670.2000000000004
 30
0.0
 11
382.3763290826282
 21
670.2000000000004
 31
0.0
  0
LINE
  5
203
330
72
100
AcDbEntity
  8
0
  6
Continuous
 62
     7
100
AcDbLine
 10
341.8417193918017
 20
670.2000000000004
 30
0.0
 11
340.8071097009752
 21
670.2000000000004
 31
0.0
  0
LINE
  5
204
330
72
100
AcDbEntity
  8
1
  6
Continuous
 62
     7
100
AcDbLine
 10
382.3763290826282
 20
670.2000000000004
 30
0.0
 11
382.3763290826282
 21
664.2000000000004
 31
0.0
  0
LINE
  5
205
330
72
100
AcDbEntity
  8
1
  6
Continuous
 62
     7
100
AcDbLine
 10
371.984024237215
 20
670.2000000000004
 30
0.0
 11
371.984024237215
 21
664.2000000000004
 31
0.0
  0
LINE
  5
206
330
72
100
AcDbEntity
  8
1
  6
Continuous
 62
     7
100
AcDbLine
 10
351.1994145463884
 20
664.2000000000004
 30
0.0
 11
351.1994145463884
 21
670.2000000000004
 31
0.0
  0
LINE
  5
207
330
72
100
AcDbEntity
  8
1
  6
Continuous
 62
     7
100
AcDbLine
 10
340.8071097009752
 20
664.2000000000004
 30
0.0
 11
382.3763290826282
 21
664.2000000000004
 31
0.0
  0
LINE
  5
208
330
72
100
AcDbEntity
  8
1
  6
Continuous
 62
     7
100
AcDbLine
 10
340.8071097009752
 20
664.2000000000004
 30
0.0
 11
340.8071097009752
 21
670.2000000000004
 31
0.0
  0
ENDBLK
  5
74
330
72
100
AcDbEntity
  8
0
100
AcDbBlockEnd
  0
BLOCK
  5
76
330
75
100
AcDbEntity
  8
0
100
AcDbBlockBegin
  2
73-1-32_5-C2
 70
     0
 10
648.3605951314333
 20
613.79271932828
 30
0.0
  3
73-1-32_5-C2
  1

  0
LINE
  5
209
330
75
100
AcDbEntity
  8
1
  6
Continuous
 62
     7
100
AcDbLine
 10
336.6029719241913
 20
671.7000000000004
 30
0.0
 11
345.5917193918017
 21
671.7000000000004
 31
0.0
  0
LINE
  5
20A
330
75
100
AcDbEntity
  8
1
  6
Continuous
 62
     7
100
AcDbLine
 10
336.5917193918017
 20
671.2000000000007
 30
0.0
 11
336.6029719241913
 21
671.7000000000004
 31
0.0
  0
LINE
  5
20B
330
75
100
AcDbEntity
  8
1
  6
Continuous
 62
     7
100
AcDbLine
 10
347.1588034722922
 20
670.2000000000004
 30
0.0
 11
347.9088034722922
 21
670.2000000000004
 31
0.0
  0
LINE
  5
20C
330
75
100
AcDbEntity
  8
1
  6
Continuous
 62
     7
100
AcDbLine
 10
352.8258587985893
 20
670.2000000000004
 30
0.0
 11
354.1248969042661
 21
670.2000000000004
 31
0.0
  0
LINE
  5
20D
330
75
100
AcDbEntity
  8
1
  6
Continuous
 62
     7
100
AcDbLine
 10
360.8417193918017
 20
670.2000000000004
 30
0.0
 11
361.5917193918017
 21
670.2000000000004
 31
0.0
  0
LINE
  5
20E
330
75
100
AcDbEntity
  8
1
  6
Continuous
 62
     7
100
AcDbLine
 10
369.0585418793373
 20
670.2000000000004
 30
0.0
 11
370.3575799850139
 21
670.2000000000004
 31
0.0
  0
LINE
  5
20F
330
75
100
AcDbEntity
  8
1
  6
Continuous
 62
     7
100
AcDbLine
 10
375.2746353113114
 20
670.2000000000004
 30
0.0
 11
376.0246353113114
 21
670.2000000000004
 31
0.0
  0
LINE
  5
210
330
75
100
AcDbEntity
  8
1
  6
Continuous
 62
     7
100
AcDbLine
 10
347.9088034722922
 20
671.2000000000007
 30
0.0
 11
347.1588034722922
 21
671.2000000000007
 31
0.0
  0
LINE
  5
211
330
75
100
AcDbEntity
  8
1
  6
Continuous
 62
     7
100
AcDbLine
 10
354.1248969042661
 20
671.2000000000007
 30
0.0
 11
352.8258587985893
 21
671.2000000000007
 31
0.0
  0
LINE
  5
212
330
75
100
AcDbEntity
  8
1
  6
Continuous
 62
     7
100
AcDbLine
 10
361.5917193918017
 20
671.2000000000007
 30
0.0
 11
360.8417193918017
 21
671.2000000000007
 31
0.0
  0
LINE
  5
213
330
75
100
AcDbEntity
  8
1
  6
Continuous
 62
     7
100
AcDbLine
 10
362.3417193918017
 20
671.2000000000007
 30
0.0
 11
361.5917193918017
 21
671.2000000000007
 31
0.0
  0
LINE
  5
214
330
75
100
AcDbEntity
  8
1
  6
Continuous
 62
     7
100
AcDbLine
 10
370.3575799850139
 20
671.2000000000007
 30
0.0
 11
369.0585418793373
 21
671.2000000000007
 31
0.0
  0
LINE
  5
215
330
75
100
AcDbEntity
  8
1
  6
Continuous
 62
     7
100
AcDbLine
 10
376.0246353113114
 20
671.2000000000007
 30
0.0
 11
375.2746353113114
 21
671.2000000000007
 31
0.0
  0
LINE
  5
216
330
75
100
AcDbEntity
  8
1
  6
Continuous
 62
     7
100
AcDbLine
 10
361.5917193918017
 20
670.2000000000004
 30
0.0
 11
362.3417193918017
 21
670.2000000000004
 31
0.0
  0
LINE
  5
217
330
75
100
AcDbEntity
  8
1
  6
Continuous
 62
     7
100
AcDbLine
 10
345.5917193918017
 20
671.7000000000004
 30
0.0
 11
383.7396351534585
 21
671.7000000000004
 31
0.0
  0
LINE
  5
218
330
75
100
AcDbEntity
  8
1
  6
Continuous
 62
     7
100
AcDbLine
 10
345.3417193918017
 20
670.2000000000004
 30
0.0
 11
377.8417193918017
 21
670.2000000000004
 31
0.0
  0
LINE
  5
219
330
75
100
AcDbEntity
  8
1
  6
Continuous
 62
     7
100
AcDbLine
 10
377.8417193918017
 20
671.2000000000007
 30
0.0
 11
381.3417193918017
 21
671.2000000000007
 31
0.0
  0
LINE
  5
21A
330
75
100
AcDbEntity
  8
1
  6
Continuous
 62
     7
100
AcDbLine
 10
377.8417193918017
 20
670.2000000000004
 30
0.0
 11
381.3417193918017
 21
670.2000000000004
 31
0.0
  0
LINE
  5
21B
330
75
100
AcDbEntity
  8
1
  6
Continuous
 62
     7
100
AcDbLine
 10
386.5917193918017
 20
670.7000000000004
 30
0.0
 11
383.9397956031548
 21
670.7000000000004
 31
0.0
  0
LINE
  5
21C
330
75
100
AcDbEntity
  8
1
  6
Continuous
 62
     7
100
AcDbLine
 10
386.5917193918017
 20
670.7000000000004
 30
0.0
 11
386.5917193918017
 21
671.7000000000007
 31
0.0
  0
LINE
  5
21D
330
75
100
AcDbEntity
  8
1
  6
Continuous
 62
     7
100
AcDbLine
 10
386.5917193918017
 20
671.7000000000007
 30
0.0
 11
383.7396351534585
 21
671.7000000000004
 31
0.0
  0
LINE
  5
21E
330
75
100
AcDbEntity
  8
1
  6
Continuous
 62
     7
100
AcDbLine
 10
339.0917193918017
 20
671.2000000000007
 30
0.0
 11
336.5917193918017
 21
671.2000000000007
 31
0.0
  0
LINE
  5
21F
330
75
100
AcDbEntity
  8
1
  6
Continuous
 62
     7
100
AcDbLine
 10
336.5917193918017
 20
670.2000000000004
 30
0.0
 11
336.5917193918017
 21
671.2000000000007
 31
0.0
  0
LINE
  5
220
330
75
100
AcDbEntity
  8
1
  6
Continuous
 62
     7
100
AcDbLine
 10
336.5917193918017
 20
670.2000000000004
 30
0.0
 11
339.0917193918017
 21
670.2000000000004
 31
0.0
  0
LINE
  5
221
330
75
100
AcDbEntity
  8
1
  6
Continuous
 62
     7
100
AcDbLine
 10
341.8417193918017
 20
670.2000000000004
 30
0.0
 11
345.3417193918017
 21
670.2000000000004
 31
0.0
  0
LINE
  5
222
330
75
100
AcDbEntity
  8
1
  6
Continuous
 62
     7
100
AcDbLine
 10
341.8417193918017
 20
671.2000000000007
 30
0.0
 11
345.3417193918017
 21
671.2000000000007
 31
0.0
  0
LINE
  5
223
330
75
100
AcDbEntity
  8
1
  6
Continuous
 62
     7
100
AcDbLine
 10
761.8417193918018
 20
671.2000000000007
 30
0.0
 11
765.3417193918018
 21
671.2000000000007
 31
0.0
  0
LINE
  5
224
330
75
100
AcDbEntity
  8
1
  6
Continuous
 62
     7
100
AcDbLine
 10
761.8417193918018
 20
670.2000000000004
 30
0.0
 11
765.3417193918018
 21
670.2000000000004
 31
0.0
  0
LINE
  5
225
330
75
100
AcDbEntity
  8
1
  6
Continuous
 62
     7
100
AcDbLine
 10
756.5917193918018
 20
670.2000000000004
 30
0.0
 11
759.0917193918018
 21
670.2000000000004
 31
0.0
  0
LINE
  5
226
330
75
100
AcDbEntity
  8
1
  6
Continuous
 62
     7
100
AcDbLine
 10
756.5917193918018
 20
670.2000000000004
 30
0.0
 11
756.5917193918018
 21
671.2000000000007
 31
0.0
  0
LINE
  5
227
330
75
100
AcDbEntity
  8
1
  6
Continuous
 62
     7
100
AcDbLine
 10
759.0917193918018
 20
671.2000000000007
 30
0.0
 11
756.5917193918018
 21
671.2000000000007
 31
0.0
  0
LINE
  5
228
330
75
100
AcDbEntity
  8
1
  6
Continuous
 62
     7
100
AcDbLine
 10
806.5917193918018
 20
671.7000000000007
 30
0.0
 11
803.7396351534586
 21
671.7000000000004
 31
0.0
  0
LINE
  5
229
330
75
100
AcDbEntity
  8
1
  6
Continuous
 62
     7
100
AcDbLine
 10
806.5917193918018
 20
670.7000000000004
 30
0.0
 11
806.5917193918018
 21
671.7000000000007
 31
0.0
  0
LINE
  5
22A
330
75
100
AcDbEntity
  8
1
  6
Continuous
 62
     7
100
AcDbLine
 10
806.5917193918018
 20
670.7000000000004
 30
0.0
 11
803.939795603155
 21
670.7000000000004
 31
0.0
  0
LINE
  5
22B
330
75
100
AcDbEntity
  8
1
  6
Continuous
 62
     7
100
AcDbLine
 10
797.8417193918018
 20
670.2000000000004
 30
0.0
 11
801.3417193918018
 21
670.2000000000004
 31
0.0
  0
LINE
  5
22C
330
75
100
AcDbEntity
  8
1
  6
Continuous
 62
     7
100
AcDbLine
 10
797.8417193918018
 20
671.2000000000007
 30
0.0
 11
801.3417193918018
 21
671.2000000000007
 31
0.0
  0
LINE
  5
22D
330
75
100
AcDbEntity
  8
1
  6
Continuous
 62
     7
100
AcDbLine
 10
765.3417193918018
 20
670.2000000000004
 30
0.0
 11
797.8417193918018
 21
670.2000000000004
 31
0.0
  0
LINE
  5
22E
330
75
100
AcDbEntity
  8
1
  6
Continuous
 62
     7
100
AcDbLine
 10
765.5917193918018
 20
671.7000000000004
 30
0.0
 11
803.7396351534586
 21
671.7000000000004
 31
0.0
  0
LINE
  5
22F
330
75
100
AcDbEntity
  8
1
  6
Continuous
 62
     7
100
AcDbLine
 10
781.5917193918018
 20
670.2000000000004
 30
0.0
 11
782.3417193918018
 21
670.2000000000004
 31
0.0
  0
LINE
  5
230
330
75
100
AcDbEntity
  8
1
  6
Continuous
 62
     7
100
AcDbLine
 10
796.0246353113115
 20
671.2000000000007
 30
0.0
 11
795.2746353113115
 21
671.2000000000007
 31
0.0
  0
LINE
  5
231
330
75
100
AcDbEntity
  8
1
  6
Continuous
 62
     7
100
AcDbLine
 10
790.357579985014
 20
671.2000000000007
 30
0.0
 11
789.0585418793374
 21
671.2000000000007
 31
0.0
  0
LINE
  5
232
330
75
100
AcDbEntity
  8
1
  6
Continuous
 62
     7
100
AcDbLine
 10
782.3417193918018
 20
671.2000000000007
 30
0.0
 11
781.5917193918018
 21
671.2000000000007
 31
0.0
  0
LINE
  5
233
330
75
100
AcDbEntity
  8
1
  6
Continuous
 62
     7
100
AcDbLine
 10
781.5917193918018
 20
671.2000000000007
 30
0.0
 11
780.8417193918018
 21
671.2000000000007
 31
0.0
  0
LINE
  5
234
330
75
100
AcDbEntity
  8
1
  6
Continuous
 62
     7
100
AcDbLine
 10
774.1248969042662
 20
671.2000000000007
 30
0.0
 11
772.8258587985894
 21
671.2000000000007
 31
0.0
  0
LINE
  5
235
330
75
100
AcDbEntity
  8
1
  6
Continuous
 62
     7
100
AcDbLine
 10
767.9088034722923
 20
671.2000000000007
 30
0.0
 11
767.1588034722923
 21
671.2000000000007
 31
0.0
  0
LINE
  5
236
330
75
100
AcDbEntity
  8
1
  6
Continuous
 62
     7
100
AcDbLine
 10
795.2746353113115
 20
670.2000000000004
 30
0.0
 11
796.0246353113115
 21
670.2000000000004
 31
0.0
  0
LINE
  5
237
330
75
100
AcDbEntity
  8
1
  6
Continuous
 62
     7
100
AcDbLine
 10
789.0585418793374
 20
670.2000000000004
 30
0.0
 11
790.357579985014
 21
670.2000000000004
 31
0.0
  0
LINE
  5
238
330
75
100
AcDbEntity
  8
1
  6
Continuous
 62
     7
100
AcDbLine
 10
780.8417193918018
 20
670.2000000000004
 30
0.0
 11
781.5917193918018
 21
670.2000000000004
 31
0.0
  0
LINE
  5
239
330
75
100
AcDbEntity
  8
1
  6
Continuous
 62
     7
100
AcDbLine
 10
772.8258587985894
 20
670.2000000000004
 30
0.0
 11
774.1248969042662
 21
670.2000000000004
 31
0.0
  0
LINE
  5
23A
330
75
100
AcDbEntity
  8
1
  6
Continuous
 62
     7
100
AcDbLine
 10
767.1588034722923
 20
670.2000000000004
 30
0.0
 11
767.9088034722923
 21
670.2000000000004
 31
0.0
  0
LINE
  5
23B
330
75
100
AcDbEntity
  8
1
  6
Continuous
 62
     7
100
AcDbLine
 10
756.5917193918018
 20
671.2000000000007
 30
0.0
 11
756.6029719241914
 21
671.7000000000004
 31
0.0
  0
LINE
  5
23C
330
75
100
AcDbEntity
  8
1
  6
Continuous
 62
     7
100
AcDbLine
 10
756.6029719241914
 20
671.7000000000004
 30
0.0
 11
765.5917193918018
 21
671.7000000000004
 31
0.0
  0
ARC
  5
23D
330
75
100
AcDbEntity
  8
1
  6
Continuous
 62
     7
100
AcDbCircle
 10
376.9284123218481
 20
671.0831289055349
 30
0.0
 40
0.6168710944655139
100
AcDbArc
 50
32.60202871135106
 51
147.9057037069282
  0
ARC
  5
23E
330
75
100
AcDbEntity
  8
1
  6
Continuous
 62
     7
100
AcDbCircle
 10
376.0246353113114
 20
671.64994179031
 30
0.0
 40
1.449941790309595
100
AcDbArc
 50
270.0
 51
297.6999132239791
  0
ARC
  5
23F
330
75
100
AcDbEntity
  8
1
  6
Continuous
 62
     7
100
AcDbCircle
 10
345.3417193918017
 20
671.667258709562
 30
0.0
 40
1.467258709561634
100
AcDbArc
 50
270.0
 51
297.5753084985826
  0
ARC
  5
240
330
75
100
AcDbEntity
  8
1
  6
Continuous
 62
     7
100
AcDbCircle
 10
347.1588034722922
 20
671.64994179031
 30
0.0
 40
1.449941790309638
100
AcDbArc
 50
242.3000867760149
 51
270.0
  0
ARC
  5
241
330
75
100
AcDbEntity
  8
1
  6
Continuous
 62
     7
100
AcDbCircle
 10
347.9088034722922
 20
672.4292638315748
 30
0.0
 40
2.229263831574372
100
AcDbArc
 50
270.0
 51
292.9913569710393
  0
ARC
  5
242
330
75
100
AcDbEntity
  8
1
  6
Continuous
 62
     7
100
AcDbCircle
 10
350.3673311354407
 20
666.6349055611076
 30
0.0
 40
4.065094438892887
100
AcDbArc
 50
67.00864302895965
 51
112.9913569710381
  0
ARC
  5
243
330
75
100
AcDbEntity
  8
1
  6
Continuous
 62
     7
100
AcDbCircle
 10
352.8258587985893
 20
672.4292638315748
 30
0.0
 40
2.229263831574224
100
AcDbArc
 50
247.0086430289607
 51
270.0
  0
ARC
  5
244
330
75
100
AcDbEntity
  8
1
  6
Continuous
 62
     7
100
AcDbCircle
 10
354.1248969042661
 20
672.8792056218844
 30
0.0
 40
2.679205621883966
100
AcDbArc
 50
270.0
 51
286.9359833827783
  0
ARC
  5
245
330
75
100
AcDbEntity
  8
1
  6
Continuous
 62
     7
100
AcDbCircle
 10
357.483308148034
 20
661.8502795396182
 30
0.0
 40
8.849720460382345
100
AcDbArc
 50
73.06401661722397
 51
106.9359833827771
  0
ARC
  5
246
330
75
100
AcDbEntity
  8
1
  6
Continuous
 62
     7
100
AcDbCircle
 10
360.8417193918017
 20
672.8792056218844
 30
0.0
 40
2.679205621883759
100
AcDbArc
 50
253.0640166172217
 51
270.0
  0
ARC
  5
247
330
75
100
AcDbEntity
  8
1
  6
Continuous
 62
     7
100
AcDbCircle
 10
362.3417193918017
 20
672.8792056218844
 30
0.0
 40
2.679205621883966
100
AcDbArc
 50
270.0
 51
286.935983382783
  0
ARC
  5
248
330
75
100
AcDbEntity
  8
1
  6
Continuous
 62
     7
100
AcDbCircle
 10
369.0585418793373
 20
672.8792056218844
 30
0.0
 40
2.679205621883676
100
AcDbArc
 50
253.0640166172275
 51
270.0
  0
ARC
  5
249
330
75
100
AcDbEntity
  8
1
  6
Continuous
 62
     7
100
AcDbCircle
 10
365.7001306355694
 20
661.8502795396182
 30
0.0
 40
8.849720460382494
100
AcDbArc
 50
73.06401661722082
 51
106.9359833827746
  0
ARC
  5
24A
330
75
100
AcDbEntity
  8
1
  6
Continuous
 62
     7
100
AcDbCircle
 10
370.3575799850141
 20
672.4292638315748
 30
0.0
 40
2.229263831574372
100
AcDbArc
 50
269.9999999999941
 51
292.9913569710393
  0
ARC
  5
24B
330
75
100
AcDbEntity
  8
1
  6
Continuous
 62
     7
100
AcDbCircle
 10
372.8161076481626
 20
666.6349055611076
 30
0.0
 40
4.065094438892887
100
AcDbArc
 50
67.00864302895965
 51
112.9913569710381
  0
ARC
  5
24C
330
75
100
AcDbEntity
  8
1
  6
Continuous
 62
     7
100
AcDbCircle
 10
375.2746353113114
 20
672.4292638315748
 30
0.0
 40
2.229263831574291
100
AcDbArc
 50
247.0086430289567
 51
270.0
  0
ARC
  5
24D
330
75
100
AcDbEntity
  8
1
  6
Continuous
 62
     7
100
AcDbCircle
 10
345.3417193918017
 20
671.667258709562
 30
0.0
 40
0.4672587095612926
100
AcDbArc
 50
270.0
 51
327.3979712886542
  0
ARC
  5
24E
330
75
100
AcDbEntity
  8
1
  6
Continuous
 62
     7
100
AcDbCircle
 10
346.2550264617551
 20
671.0831289055349
 30
0.0
 40
0.6168710944655701
100
AcDbArc
 50
32.094296293069
 51
147.3979712886461
  0
ARC
  5
24F
330
75
100
AcDbEntity
  8
1
  6
Continuous
 62
     7
100
AcDbCircle
 10
347.1588034722922
 20
671.64994179031
 30
0.0
 40
0.4499417903096797
100
AcDbArc
 50
212.0942962930466
 51
270.0
  0
ARC
  5
250
330
75
100
AcDbEntity
  8
1
  6
Continuous
 62
     7
100
AcDbCircle
 10
347.9088034722922
 20
672.4292638315748
 30
0.0
 40
1.229263831574031
100
AcDbArc
 50
270.0
 51
292.9913569710356
  0
ARC
  5
251
330
75
100
AcDbEntity
  8
1
  6
Continuous
 62
     7
100
AcDbCircle
 10
350.3673311354407
 20
666.6349055611076
 30
0.0
 40
5.065094438892809
100
AcDbArc
 50
67.00864302895957
 51
112.9913569710393
  0
ARC
  5
252
330
75
100
AcDbEntity
  8
1
  6
Continuous
 62
     7
100
AcDbCircle
 10
352.8258587985893
 20
672.4292638315748
 30
0.0
 40
1.229263831574301
100
AcDbArc
 50
247.0086430289619
 51
270.0
  0
ARC
  5
253
330
75
100
AcDbEntity
  8
1
  6
Continuous
 62
     7
100
AcDbCircle
 10
354.1248969042661
 20
672.8792056218844
 30
0.0
 40
1.679205621883625
100
AcDbArc
 50
270.0
 51
286.9359833827797
  0
ARC
  5
254
330
75
100
AcDbEntity
  8
1
  6
Continuous
 62
     7
100
AcDbCircle
 10
357.483308148034
 20
661.8502795396182
 30
0.0
 40
9.84972046038209
100
AcDbArc
 50
73.06401661722272
 51
106.935983382777
  0
ARC
  5
255
330
75
100
AcDbEntity
  8
1
  6
Continuous
 62
     7
100
AcDbCircle
 10
360.8417193918017
 20
672.8792056218844
 30
0.0
 40
1.679205621884015
100
AcDbArc
 50
253.0640166172276
 51
270.0
  0
ARC
  5
256
330
75
100
AcDbEntity
  8
1
  6
Continuous
 62
     7
100
AcDbCircle
 10
362.3417193918017
 20
672.8792056218844
 30
0.0
 40
1.679205621883625
100
AcDbArc
 50
270.0
 51
286.9359833827797
  0
ARC
  5
257
330
75
100
AcDbEntity
  8
1
  6
Continuous
 62
     7
100
AcDbCircle
 10
365.7001306355694
 20
661.8502795396182
 30
0.0
 40
9.849720460382173
100
AcDbArc
 50
73.06401661722114
 51
106.935983382776
  0
ARC
  5
258
330
75
100
AcDbEntity
  8
1
  6
Continuous
 62
     7
100
AcDbCircle
 10
369.0585418793373
 20
672.8792056218844
 30
0.0
 40
1.679205621883999
100
AcDbArc
 50
253.0640166172295
 51
270.0
  0
ARC
  5
259
330
75
100
AcDbEntity
  8
1
  6
Continuous
 62
     7
100
AcDbCircle
 10
370.3575799850141
 20
672.4292638315748
 30
0.0
 40
1.229263831574031
100
AcDbArc
 50
269.9999999999894
 51
292.9913569710356
  0
ARC
  5
25A
330
75
100
AcDbEntity
  8
1
  6
Continuous
 62
     7
100
AcDbCircle
 10
372.8161076481626
 20
666.6349055611076
 30
0.0
 40
5.065094438892809
100
AcDbArc
 50
67.00864302895957
 51
112.9913569710393
  0
ARC
  5
25B
330
75
100
AcDbEntity
  8
1
  6
Continuous
 62
     7
100
AcDbCircle
 10
375.2746353113114
 20
672.4292638315748
 30
0.0
 40
1.229263831574367
100
AcDbArc
 50
247.0086430289547
 51
270.0
  0
ARC
  5
25C
330
75
100
AcDbEntity
  8
1
  6
Continuous
 62
     7
100
AcDbCircle
 10
376.0246353113114
 20
671.64994179031
 30
0.0
 40
0.4499417903092535
100
AcDbArc
 50
270.0
 51
327.9057037069304
  0
ARC
  5
25D
330
75
100
AcDbEntity
  8
1
  6
Continuous
 62
     7
100
AcDbCircle
 10
377.8417193918017
 20
671.667258709562
 30
0.0
 40
0.4672587095616676
100
AcDbArc
 50
212.6020287113383
 51
270.0
  0
ARC
  5
25E
330
75
100
AcDbEntity
  8
1
  6
Continuous
 62
     7
100
AcDbCircle
 10
377.8417193918017
 20
671.667258709562
 30
0.0
 40
1.467258709561584
100
AcDbArc
 50
242.4246915014194
 51
270.0
  0
ARC
  5
25F
330
75
100
AcDbEntity
  8
1
  6
Continuous
 62
     7
100
AcDbCircle
 10
381.3417193918017
 20
674.2000000000004
 30
0.0
 40
4.0
100
AcDbArc
 50
270.0
 51
291.7867892982628
  0
ARC
  5
260
330
75
100
AcDbEntity
  8
1
  6
Continuous
 62
     7
100
AcDbCircle
 10
381.3417193918017
 20
674.2000000000004
 30
0.0
 40
2.999999999999659
100
AcDbArc
 50
270.0
 51
293.5564643091091
  0
ARC
  5
261
330
75
100
AcDbEntity
  8
1
  6
Continuous
 62
     7
100
AcDbCircle
 10
339.0917193918017
 20
673.2000000000004
 30
0.0
 40
1.999999999999659
100
AcDbArc
 50
270.0
 51
285.204838578393
  0
ARC
  5
262
330
75
100
AcDbEntity
  8
1
  6
Continuous
 62
     7
100
AcDbCircle
 10
339.0917193918017
 20
673.2000000000004
 30
0.0
 40
3.0
100
AcDbArc
 50
270.0
 51
285.2048385783938
  0
ARC
  5
263
330
75
100
AcDbEntity
  8
1
  6
Continuous
 62
     7
100
AcDbCircle
 10
340.4030727543193
 20
668.3750282530765
 30
0.0
 40
2.000000000000212
100
AcDbArc
 50
76.12677200855396
 51
105.2048385783914
  0
ARC
  5
264
330
75
100
AcDbEntity
  8
1
  6
Continuous
 62
     7
100
AcDbCircle
 10
341.8417193918017
 20
674.2000000000004
 30
0.0
 40
3.999999999999873
100
AcDbArc
 50
256.126772008552
 51
270.0
  0
ARC
  5
265
330
75
100
AcDbEntity
  8
1
  6
Continuous
 62
     7
100
AcDbCircle
 10
341.8417193918017
 20
674.2000000000004
 30
0.0
 40
3.000000000000126
100
AcDbArc
 50
256.1267720085553
 51
270.0
  0
ARC
  5
266
330
75
100
AcDbEntity
  8
1
  6
Continuous
 62
     7
100
AcDbCircle
 10
340.4030727543193
 20
668.3750282530765
 30
0.0
 40
2.99999999999996
100
AcDbArc
 50
76.12677200855002
 51
105.2048385783927
  0
ARC
  5
267
330
75
100
AcDbEntity
  8
1
  6
Continuous
 62
     7
100
AcDbCircle
 10
760.4030727543194
 20
668.3750282530765
 30
0.0
 40
2.99999999999996
100
AcDbArc
 50
76.12677200855002
 51
105.2048385783927
  0
ARC
  5
268
330
75
100
AcDbEntity
  8
1
  6
Continuous
 62
     7
100
AcDbCircle
 10
761.8417193918018
 20
674.2000000000004
 30
0.0
 40
3.000000000000126
100
AcDbArc
 50
256.1267720085553
 51
270.0
  0
ARC
  5
269
330
75
100
AcDbEntity
  8
1
  6
Continuous
 62
     7
100
AcDbCircle
 10
761.8417193918018
 20
674.2000000000004
 30
0.0
 40
3.999999999999873
100
AcDbArc
 50
256.126772008552
 51
270.0
  0
ARC
  5
26A
330
75
100
AcDbEntity
  8
1
  6
Continuous
 62
     7
100
AcDbCircle
 10
760.4030727543194
 20
668.3750282530765
 30
0.0
 40
2.000000000000212
100
AcDbArc
 50
76.12677200855396
 51
105.204838578393
  0
ARC
  5
26B
330
75
100
AcDbEntity
  8
1
  6
Continuous
 62
     7
100
AcDbCircle
 10
759.0917193918018
 20
673.2000000000004
 30
0.0
 40
3.0
100
AcDbArc
 50
270.0
 51
285.2048385783927
  0
ARC
  5
26C
330
75
100
AcDbEntity
  8
1
  6
Continuous
 62
     7
100
AcDbCircle
 10
759.0917193918018
 20
673.2000000000004
 30
0.0
 40
1.999999999999659
100
AcDbArc
 50
270.0
 51
285.204838578393
  0
ARC
  5
26D
330
75
100
AcDbEntity
  8
1
  6
Continuous
 62
     7
100
AcDbCircle
 10
801.3417193918018
 20
674.2000000000004
 30
0.0
 40
2.999999999999659
100
AcDbArc
 50
270.0
 51
293.5564643091091
  0
ARC
  5
26E
330
75
100
AcDbEntity
  8
1
  6
Continuous
 62
     7
100
AcDbCircle
 10
801.3417193918018
 20
674.2000000000004
 30
0.0
 40
4.0
100
AcDbArc
 50
270.0
 51
291.7867892982621
  0
ARC
  5
26F
330
75
100
AcDbEntity
  8
1
  6
Continuous
 62
     7
100
AcDbCircle
 10
797.8417193918018
 20
671.667258709562
 30
0.0
 40
1.467258709561611
100
AcDbArc
 50
242.4246915014174
 51
270.0
  0
ARC
  5
270
330
75
100
AcDbEntity
  8
1
  6
Continuous
 62
     7
100
AcDbCircle
 10
797.8417193918018
 20
671.667258709562
 30
0.0
 40
0.4672587095616197
100
AcDbArc
 50
212.6020287113421
 51
270.0
  0
ARC
  5
271
330
75
100
AcDbEntity
  8
1
  6
Continuous
 62
     7
100
AcDbCircle
 10
796.0246353113115
 20
671.64994179031
 30
0.0
 40
0.4499417903092535
100
AcDbArc
 50
270.0
 51
327.9057037069342
  0
ARC
  5
272
330
75
100
AcDbEntity
  8
1
  6
Continuous
 62
     7
100
AcDbCircle
 10
795.2746353113115
 20
672.4292638315748
 30
0.0
 40
1.229263831574367
100
AcDbArc
 50
247.0086430289547
 51
270.0
  0
ARC
  5
273
330
75
100
AcDbEntity
  8
1
  6
Continuous
 62
     7
100
AcDbCircle
 10
792.8161076481628
 20
666.6349055611076
 30
0.0
 40
5.065094438892787
100
AcDbArc
 50
67.00864302896015
 51
112.9913569710398
  0
ARC
  5
274
330
75
100
AcDbEntity
  8
1
  6
Continuous
 62
     7
100
AcDbCircle
 10
790.3575799850142
 20
672.4292638315748
 30
0.0
 40
1.229263831574031
100
AcDbArc
 50
269.9999999999894
 51
292.9913569710356
  0
ARC
  5
275
330
75
100
AcDbEntity
  8
1
  6
Continuous
 62
     7
100
AcDbCircle
 10
789.0585418793374
 20
672.8792056218844
 30
0.0
 40
1.679205621884015
100
AcDbArc
 50
253.0640166172276
 51
270.0
  0
ARC
  5
276
330
75
100
AcDbEntity
  8
1
  6
Continuous
 62
     7
100
AcDbCircle
 10
785.7001306355695
 20
661.8502795396182
 30
0.0
 40
9.849720460382155
100
AcDbArc
 50
73.06401661722145
 51
106.935983382776
  0
ARC
  5
277
330
75
100
AcDbEntity
  8
1
  6
Continuous
 62
     7
100
AcDbCircle
 10
782.3417193918018
 20
672.8792056218844
 30
0.0
 40
1.679205621883625
100
AcDbArc
 50
270.0
 51
286.9359833827797
  0
ARC
  5
278
330
75
100
AcDbEntity
  8
1
  6
Continuous
 62
     7
100
AcDbCircle
 10
780.8417193918018
 20
672.8792056218844
 30
0.0
 40
1.679205621884015
100
AcDbArc
 50
253.0640166172276
 51
270.0
  0
ARC
  5
279
330
75
100
AcDbEntity
  8
1
  6
Continuous
 62
     7
100
AcDbCircle
 10
777.4833081480341
 20
661.8502795396182
 30
0.0
 40
9.84972046038209
100
AcDbArc
 50
73.06401661722272
 51
106.9359833827773
  0
ARC
  5
27A
330
75
100
AcDbEntity
  8
1
  6
Continuous
 62
     7
100
AcDbCircle
 10
774.1248969042662
 20
672.8792056218844
 30
0.0
 40
1.679205621883625
100
AcDbArc
 50
270.0
 51
286.9359833827797
  0
ARC
  5
27B
330
75
100
AcDbEntity
  8
1
  6
Continuous
 62
     7
100
AcDbCircle
 10
772.8258587985894
 20
672.4292638315748
 30
0.0
 40
1.229263831574279
100
AcDbArc
 50
247.0086430289644
 51
270.0
  0
ARC
  5
27C
330
75
100
AcDbEntity
  8
1
  6
Continuous
 62
     7
100
AcDbCircle
 10
770.3673311354408
 20
666.6349055611076
 30
0.0
 40
5.065094438892787
100
AcDbArc
 50
67.00864302896015
 51
112.9913569710398
  0
ARC
  5
27D
330
75
100
AcDbEntity
  8
1
  6
Continuous
 62
     7
100
AcDbCircle
 10
767.9088034722923
 20
672.4292638315748
 30
0.0
 40
1.229263831574031
100
AcDbArc
 50
270.0
 51
292.9913569710356
  0
ARC
  5
27E
330
75
100
AcDbEntity
  8
1
  6
Continuous
 62
     7
100
AcDbCircle
 10
767.1588034722923
 20
671.64994179031
 30
0.0
 40
0.4499417903096316
100
AcDbArc
 50
212.0942962930504
 51
270.0
  0
ARC
  5
27F
330
75
100
AcDbEntity
  8
1
  6
Continuous
 62
     7
100
AcDbCircle
 10
766.2550264617552
 20
671.0831289055349
 30
0.0
 40
0.6168710944656665
100
AcDbArc
 50
32.09429629306339
 51
147.3979712886404
  0
ARC
  5
280
330
75
100
AcDbEntity
  8
1
  6
Continuous
 62
     7
100
AcDbCircle
 10
765.3417193918018
 20
671.667258709562
 30
0.0
 40
0.4672587095612926
100
AcDbArc
 50
270.0
 51
327.3979712886579
  0
ARC
  5
281
330
75
100
AcDbEntity
  8
1
  6
Continuous
 62
     7
100
AcDbCircle
 10
795.2746353113115
 20
672.4292638315748
 30
0.0
 40
2.229263831574291
100
AcDbArc
 50
247.0086430289567
 51
270.0
  0
ARC
  5
282
330
75
100
AcDbEntity
  8
1
  6
Continuous
 62
     7
100
AcDbCircle
 10
792.8161076481628
 20
666.6349055611076
 30
0.0
 40
4.065094438892864
100
AcDbArc
 50
67.00864302896039
 51
112.9913569710396
  0
ARC
  5
283
330
75
100
AcDbEntity
  8
1
  6
Continuous
 62
     7
100
AcDbCircle
 10
790.3575799850142
 20
672.4292638315748
 30
0.0
 40
2.229263831574372
100
AcDbArc
 50
269.9999999999941
 51
292.9913569710379
  0
ARC
  5
284
330
75
100
AcDbEntity
  8
1
  6
Continuous
 62
     7
100
AcDbCircle
 10
785.7001306355695
 20
661.8502795396182
 30
0.0
 40
8.849720460382478
100
AcDbArc
 50
73.06401661722114
 51
106.9359833827746
  0
ARC
  5
285
330
75
100
AcDbEntity
  8
1
  6
Continuous
 62
     7
100
AcDbCircle
 10
789.0585418793374
 20
672.8792056218844
 30
0.0
 40
2.679205621883693
100
AcDbArc
 50
253.0640166172263
 51
270.0
  0
ARC
  5
286
330
75
100
AcDbEntity
  8
1
  6
Continuous
 62
     7
100
AcDbCircle
 10
782.3417193918018
 20
672.8792056218844
 30
0.0
 40
2.679205621883966
100
AcDbArc
 50
270.0
 51
286.935983382783
  0
ARC
  5
287
330
75
100
AcDbEntity
  8
1
  6
Continuous
 62
     7
100
AcDbCircle
 10
780.8417193918018
 20
672.8792056218844
 30
0.0
 40
2.679205621883759
100
AcDbArc
 50
253.0640166172217
 51
270.0
  0
ARC
  5
288
330
75
100
AcDbEntity
  8
1
  6
Continuous
 62
     7
100
AcDbCircle
 10
777.4833081480341
 20
661.8502795396182
 30
0.0
 40
8.849720460382345
100
AcDbArc
 50
73.06401661722397
 51
106.9359833827774
  0
ARC
  5
289
330
75
100
AcDbEntity
  8
1
  6
Continuous
 62
     7
100
AcDbCircle
 10
774.1248969042662
 20
672.8792056218844
 30
0.0
 40
2.679205621883966
100
AcDbArc
 50
270.0
 51
286.9359833827783
  0
ARC
  5
28A
330
75
100
AcDbEntity
  8
1
  6
Continuous
 62
     7
100
AcDbCircle
 10
772.8258587985894
 20
672.4292638315748
 30
0.0
 40
2.229263831574202
100
AcDbArc
 50
247.0086430289621
 51
270.0
  0
ARC
  5
28B
330
75
100
AcDbEntity
  8
1
  6
Continuous
 62
     7
100
AcDbCircle
 10
770.3673311354408
 20
666.6349055611076
 30
0.0
 40
4.065094438892864
100
AcDbArc
 50
67.00864302896039
 51
112.9913569710396
  0
ARC
  5
28C
330
75
100
AcDbEntity
  8
1
  6
Continuous
 62
     7
100
AcDbCircle
 10
767.9088034722923
 20
672.4292638315748
 30
0.0
 40
2.229263831574372
100
AcDbArc
 50
270.0
 51
292.9913569710379
  0
ARC
  5
28D
330
75
100
AcDbEntity
  8
1
  6
Continuous
 62
     7
100
AcDbCircle
 10
767.1588034722923
 20
671.64994179031
 30
0.0
 40
1.449941790309638
100
AcDbArc
 50
242.3000867760149
 51
270.0
  0
ARC
  5
28E
330
75
100
AcDbEntity
  8
1
  6
Continuous
 62
     7
100
AcDbCircle
 10
765.3417193918018
 20
671.667258709562
 30
0.0
 40
1.467258709561634
100
AcDbArc
 50
270.0
 51
297.5753084985826
  0
ARC
  5
28F
330
75
100
AcDbEntity
  8
1
  6
Continuous
 62
     7
100
AcDbCircle
 10
796.0246353113115
 20
671.64994179031
 30
0.0
 40
1.449941790309595
100
AcDbArc
 50
270.0
 51
297.6999132239771
  0
ARC
  5
290
330
75
100
AcDbEntity
  8
1
  6
Continuous
 62
     7
100
AcDbCircle
 10
796.9284123218482
 20
671.0831289055349
 30
0.0
 40
0.6168710944655618
100
AcDbArc
 50
32.60202871134822
 51
147.9057037069254
  0
ARC
  5
291
330
75
100
AcDbEntity
  8
1
  6
Continuous
 62
     7
100
AcDbCircle
 10
376.931047627382
 20
669.9234743857896
 30
0.0
 40
0.4999999999999266
100
AcDbArc
 50
62.42469150142946
 51
117.6999132239931
  0
ARC
  5
292
330
75
100
AcDbEntity
  8
1
  6
Continuous
 62
     7
100
AcDbCircle
 10
346.2523911562216
 20
669.9234743857896
 30
0.0
 40
0.4999999999999346
100
AcDbArc
 50
62.30008677602427
 51
117.5753084985879
  0
ARC
  5
293
330
75
100
AcDbEntity
  8
1
  6
Continuous
 62
     7
100
AcDbCircle
 10
383.9397956031548
 20
667.7000000000004
 30
0.0
 40
3.0
100
AcDbArc
 50
90.0
 51
111.7867892982564
  0
ARC
  5
294
330
75
100
AcDbEntity
  8
1
  6
Continuous
 62
     7
100
AcDbCircle
 10
383.7396351534585
 20
668.7000000000004
 30
0.0
 40
3.0
100
AcDbArc
 50
90.0
 51
113.5564643091011
  0
ARC
  5
295
330
75
100
AcDbEntity
  8
1
  6
Continuous
 62
     7
100
AcDbCircle
 10
803.7396351534586
 20
668.7000000000004
 30
0.0
 40
3.0
100
AcDbArc
 50
90.0
 51
113.5564643091011
  0
ARC
  5
296
330
75
100
AcDbEntity
  8
1
  6
Continuous
 62
     7
100
AcDbCircle
 10
803.939795603155
 20
667.7000000000004
 30
0.0
 40
3.0
100
AcDbArc
 50
90.0
 51
111.7867892982585
  0
ARC
  5
297
330
75
100
AcDbEntity
  8
1
  6
Continuous
 62
     7
100
AcDbCircle
 10
766.2523911562217
 20
669.9234743857896
 30
0.0
 40
0.4999999999999346
100
AcDbArc
 50
62.30008677602427
 51
117.5753084985879
  0
ARC
  5
298
330
75
100
AcDbEntity
  8
1
  6
Continuous
 62
     7
100
AcDbCircle
 10
796.9310476273821
 20
669.9234743857896
 30
0.0
 40
0.4999999999999003
100
AcDbArc
 50
62.42469150143524
 51
117.6999132239988
  0
ENDBLK
  5
77
330
75
100
AcDbEntity
  8
0
100
AcDbBlockEnd
  0
BLOCK
  5
79
330
78
100
AcDbEntity
  8
0
100
AcDbBlockBegin
  2
レバー
 70
     0
 10
880.5929570124421
 20
898.7489163438356
 30
0.0
  3
レバー
  1

  0
LINE
  5
299
330
78
100
AcDbEntity
  8
1
  6
PHANTOM
 62
     5
100
AcDbLine
 10
766.9135814136099
 20
829.8233144853768
 30
0.0
 11
782.4907752159869
 21
823.5297196642996
 31
0.0
  0
LINE
  5
29A
330
78
100
AcDbEntity
  8
1
  6
PHANTOM
 62
     5
100
AcDbLine
 10
801.365133212844
 20
823.5297196642993
 30
0.0
 11
782.4907752159869
 21
823.5297196642996
 31
0.0
  0
LINE
  5
29B
330
78
100
AcDbEntity
  8
1
  6
PHANTOM
 62
     5
100
AcDbLine
 10
772.5275406757397
 20
850.3284929773213
 30
0.0
 11
726.2275352622192
 21
869.5495816000973
 31
0.0
  0
LINE
  5
29C
330
78
100
AcDbEntity
  8
1
  6
PHANTOM
 62
     5
100
AcDbLine
 10
725.9012742014644
 20
870.3284911522323
 30
0.0
 11
726.5777829718205
 21
872.0029091159619
 31
0.0
  0
LINE
  5
29D
330
78
100
AcDbEntity
  8
1
  6
PHANTOM
 62
     5
100
AcDbLine
 10
807.7063702851707
 20
839.224832176411
 30
0.0
 11
801.365133212844
 21
823.5297196642993
 31
0.0
  0
LINE
  5
29E
330
78
100
AcDbEntity
  8
1
  6
PHANTOM
 62
     5
100
AcDbLine
 10
727.3588572406103
 20
872.3344554726527
 30
0.0
 11
807.3748239284802
 21
840.0059064452009
 31
0.0
  0
LINE
  5
29F
330
78
100
AcDbEntity
  8
1
  6
PHANTOM
 62
     5
100
AcDbLine
 10
766.9135814136099
 20
829.8233144853768
 30
0.0
 11
773.8869617622191
 21
847.0830365100912
 31
0.0
  0
LINE
  5
2A0
330
78
100
AcDbEntity
  8
1
  6
PHANTOM
 62
     5
100
AcDbLine
 10
306.7909438498318
 20
1039.805826175845
 30
0.0
 11
317.3975455676302
 21
1029.199224458047
 31
0.0
  0
LINE
  5
2A1
330
78
100
AcDbEntity
  8
1
  6
PHANTOM
 62
     5
100
AcDbLine
 10
320.9330794735629
 20
1029.199224458047
 30
0.0
 11
357.6235795345025
 21
1065.889724518986
 31
0.0
  0
LINE
  5
2A2
330
78
100
AcDbEntity
  8
1
  6
PHANTOM
 62
     5
100
AcDbLine
 10
306.7909438498318
 20
1043.341360081778
 30
0.0
 11
343.4814439107715
 21
1080.031860142717
 31
0.0
  0
LINE
  5
2A3
330
78
100
AcDbEntity
  8
1
  6
PHANTOM
 62
     5
100
AcDbLine
 10
402.2503593100155
 20
1029.199224458045
 30
0.0
 11
365.5598592490744
 21
1065.889724518986
 31
0.0
  0
LINE
  5
2A4
330
78
100
AcDbEntity
  8
1
  6
PHANTOM
 62
     5
100
AcDbLine
 10
416.3924949337466
 20
1043.341360081776
 30
0.0
 11
379.7019948728052
 21
1080.031860142717
 31
0.0
  0
LINE
  5
2A5
330
78
100
AcDbEntity
  8
1
  6
PHANTOM
 62
     5
100
AcDbLine
 10
405.7858932159484
 20
1029.199224458045
 30
0.0
 11
416.3924949337466
 21
1039.805826175843
 31
0.0
  0
ARC
  5
2A6
330
78
100
AcDbEntity
  8
1
  6
PHANTOM
 62
     5
100
AcDbCircle
 10
807.1500599724305
 20
839.4495961324607
 30
0.0
 40
0.600000000000104
100
AcDbArc
 50
337.9999999999957
 51
67.99999999999974
  0
ARC
  5
2A7
330
78
100
AcDbEntity
  8
1
  6
PHANTOM
 62
     5
100
AcDbCircle
 10
727.1340932845607
 20
871.7781451599124
 30
0.0
 40
0.6000000000000227
100
AcDbArc
 50
90.0
 51
158.0000000000057
  0
ARC
  5
2A8
330
78
100
AcDbEntity
  8
1
  6
PHANTOM
 62
     5
100
AcDbCircle
 10
726.4575845142045
 20
870.103727196183
 30
0.0
 40
0.6000000000000189
100
AcDbArc
 50
158.0000000000158
 51
247.4545972306833
  0
ARC
  5
2A9
330
78
100
AcDbEntity
  8
1
  6
PHANTOM
 62
     5
100
AcDbCircle
 10
767.4146340002347
 20
829.7287295741253
 30
0.0
 40
0.5000000000000441
100
AcDbArc
 50
158.0000000000078
 51
247.9999999999957
  0
ARC
  5
2AA
330
78
100
AcDbEntity
  8
1
  6
PHANTOM
 62
     5
100
AcDbCircle
 10
771.5690021258023
 20
848.0195529936309
 30
0.0
 40
2.499999999999841
100
AcDbArc
 50
338.0000000000014
 51
67.45459723071325
  0
ARC
  5
2AB
330
78
100
AcDbEntity
  8
1
  6
PHANTOM
 62
     5
100
AcDbCircle
 10
319.1653125205964
 20
1030.966991411013
 30
0.0
 40
2.499999999999618
100
AcDbArc
 50
224.9999999999963
 51
315.0000000000083
  0
ARC
  5
2AC
330
78
100
AcDbEntity
  8
1
  6
PHANTOM
 62
     5
100
AcDbCircle
 10
308.5587108027985
 20
1041.573593128812
 30
0.0
 40
2.500000000000682
100
AcDbArc
 50
180.0
 51
225.0000000000074
  0
ARC
  5
2AD
330
78
100
AcDbEntity
  8
1
  6
PHANTOM
 62
     5
100
AcDbCircle
 10
359.391346487469
 20
1064.12195756602
 30
0.0
 40
2.499999999999654
100
AcDbArc
 50
83.68343688005704
 51
135.0000000000083
  0
ARC
  5
2AE
330
78
100
AcDbEntity
  8
1
  6
PHANTOM
 62
     5
100
AcDbCircle
 10
341.7136769578053
 20
1081.799627095684
 30
0.0
 40
2.500000000000221
100
AcDbArc
 50
314.9999999999881
 51
6.31656311994252
  0
ARC
  5
2AF
330
78
100
AcDbEntity
  8
1
  6
PHANTOM
 62
     5
100
AcDbCircle
 10
363.7920922961079
 20
1064.12195756602
 30
0.0
 40
2.499999999999819
100
AcDbArc
 50
44.99999999999172
 51
96.31656311994682
  0
ARC
  5
2B0
330
78
100
AcDbEntity
  8
1
  6
PHANTOM
 62
     5
100
AcDbCircle
 10
381.4697618257719
 20
1081.799627095684
 30
0.0
 40
2.500000000000162
100
AcDbArc
 50
173.6834368800584
 51
225.0000000000028
  0
ARC
  5
2B1
330
78
100
AcDbEntity
  8
1
  6
PHANTOM
 62
     5
100
AcDbCircle
 10
404.018126262982
 20
1030.966991411011
 30
0.0
 40
2.499999999999819
100
AcDbArc
 50
224.9999999999917
 51
315.0000000000074
  0
ARC
  5
2B2
330
78
100
AcDbEntity
  8
1
  6
PHANTOM
 62
     5
100
AcDbCircle
 10
414.6247279807801
 20
1041.57359312881
 30
0.0
 40
2.499999999999773
100
AcDbArc
 50
0.0
 51
44.99999999999172
  0
ARC
  5
2B3
330
78
100
AcDbEntity
  8
1
  6
PHANTOM
 62
     5
100
AcDbCircle
 10
727.1340932845607
 20
871.7781451599124
 30
0.0
 40
0.6000000000003148
100
AcDbArc
 50
68.00000000000381
 51
90.0
  0
ARC
  5
2B4
330
78
100
AcDbEntity
  8
1
  6
PHANTOM
 62
     5
100
AcDbCircle
 10
414.6247279807801
 20
1041.57359312881
 30
0.0
 40
2.500000000000462
100
AcDbArc
 50
314.9999999999935
 51
0.0
  0
ARC
  5
2B5
330
78
100
AcDbEntity
  8
1
  6
PHANTOM
 62
     5
100
AcDbCircle
 10
308.5587108027985
 20
1041.573593128812
 30
0.0
 40
2.49999999999994
100
AcDbArc
 50
135.0000000000111
 51
180.0
  0
ENDBLK
  5
7A
330
78
100
AcDbEntity
  8
0
100
AcDbBlockEnd
  0
BLOCK
  5
7D
330
7B
100
AcDbEntity
  8
0
100
AcDbBlockBegin
  2
27-21-M1
 70
     0
 10
632.1167099910061
 20
885.3668266841775
 30
0.0
  3
27-21-M1
  1

  0
INSERT
  5
7C
330
7B
100
AcDbEntity
  8
1
100
AcDbBlockReference
  2
レバー
 10
880.592957012442
 20
898.7489163438355
 30
0.0
 41
1.0
 42
1.0
 43
1.0
  0
LINE
  5
2B6
330
7B
100
AcDbEntity
  8
1
  6
Continuous
 62
     7
100
AcDbLine
 10
366.4917193917888
 20
826.0763114525637
 30
0.0
 11
366.4917193917887
 21
844.0540581082473
 31
0.0
  0
LINE
  5
2B7
330
7B
100
AcDbEntity
  8
1
  6
Continuous
 62
     7
100
AcDbLine
 10
370.4881855903586
 20
823.7044784133384
 30
0.0
 11
378.5917193917886
 21
823.7044784133384
 31
0.0
  0
LINE
  5
2B8
330
7B
100
AcDbEntity
  8
1
  6
Continuous
 62
     7
100
AcDbLine
 10
766.0917193918013
 20
823.7044784133393
 30
0.0
 11
781.5915266779949
 21
823.7044784133393
 31
0.0
  0
LINE
  5
2B9
330
7B
100
AcDbEntity
  8
1
  6
Continuous
 62
     7
100
AcDbLine
 10
796.0906299732052
 20
829.5624963956975
 30
0.0
 11
781.5915266779949
 21
823.7044784133393
 31
0.0
  0
LINE
  5
2BA
330
7B
100
AcDbEntity
  8
1
  6
Continuous
 62
     7
100
AcDbLine
 10
371.5917193917886
 20
845.0540581082473
 30
0.0
 11
371.5917193917886
 21
847.3026615000006
 31
0.0
  0
LINE
  5
2BB
330
7B
100
AcDbEntity
  8
1
  6
Continuous
 62
     7
100
AcDbLine
 10
352.5917193917886
 20
848.3026615000006
 30
0.0
 11
370.5917193917886
 21
848.3026615000006
 31
0.0
  0
LINE
  5
2BC
330
7B
100
AcDbEntity
  8
1
  6
Continuous
 62
     7
100
AcDbLine
 10
351.5917193917886
 20
845.0540581082473
 30
0.0
 11
351.5917193917886
 21
847.3026615000006
 31
0.0
  0
LINE
  5
2BD
330
7B
100
AcDbEntity
  8
1
  6
Continuous
 62
     7
100
AcDbLine
 10
344.0917193917886
 20
847.3026615000006
 30
0.0
 11
344.0917193917886
 21
824.2044784133384
 31
0.0
  0
LINE
  5
2BE
330
7B
100
AcDbEntity
  8
1
  6
Continuous
 62
     7
100
AcDbLine
 10
379.0917193917886
 20
847.3026615000006
 30
0.0
 11
379.0917193917886
 21
824.2044784133384
 31
0.0
  0
LINE
  5
2BF
330
7B
100
AcDbEntity
  8
1
  6
Continuous
 62
     7
100
AcDbLine
 10
344.5917193917886
 20
823.7044784133384
 30
0.0
 11
353.8852824060751
 21
823.7044784133384
 31
0.0
  0
LINE
  5
2C0
330
7B
100
AcDbEntity
  8
1
  6
Continuous
 62
     7
100
AcDbLine
 10
762.3149720082932
 20
844.8195750008427
 30
0.0
 11
712.1860079917989
 21
845.2967707359808
 31
0.0
  0
LINE
  5
2C1
330
7B
100
AcDbEntity
  8
1
  6
Continuous
 62
     7
100
AcDbLine
 10
711.5917193499885
 20
845.8967435523546
 30
0.0
 11
711.5917193499885
 21
847.7026615000004
 31
0.0
  0
LINE
  5
2C2
330
7B
100
AcDbEntity
  8
1
  6
Continuous
 62
     7
100
AcDbLine
 10
712.1917193499884
 20
848.3026615000006
 30
0.0
 11
764.0917193917884
 21
848.3026615000006
 31
0.0
  0
LINE
  5
2C3
330
7B
100
AcDbEntity
  8
1
  6
Continuous
 62
     7
100
AcDbLine
 10
765.2911746825031
 20
823.7044784133393
 30
0.0
 11
766.0917193918013
 21
823.7044784133393
 31
0.0
  0
LINE
  5
2C4
330
7B
100
AcDbEntity
  8
1
  6
Continuous
 62
     7
100
AcDbLine
 10
799.0917193917884
 20
847.7026615000004
 30
0.0
 11
799.0917193917884
 21
830.7749373654544
 31
0.0
  0
LINE
  5
2C5
330
7B
100
AcDbEntity
  8
1
  6
Continuous
 62
     7
100
AcDbLine
 10
764.0917193917884
 20
848.3026615000006
 30
0.0
 11
798.4917193917883
 21
848.3026615000006
 31
0.0
  0
LINE
  5
2C6
330
7B
100
AcDbEntity
  8
1
  6
Continuous
 62
     7
100
AcDbLine
 10
345.0917193917886
 20
848.3026615000006
 30
0.0
 11
352.5917193917886
 21
848.3026615000006
 31
0.0
  0
LINE
  5
2C7
330
7B
100
AcDbEntity
  8
1
  6
Continuous
 62
     7
100
AcDbLine
 10
370.5917193917886
 20
848.3026615000006
 30
0.0
 11
378.0917193917886
 21
848.3026615000006
 31
0.0
  0
LINE
  5
2C8
330
7B
100
AcDbEntity
  8
1
  6
Continuous
 62
     7
100
AcDbLine
 10
352.5917193917886
 20
845.3024279844574
 30
0.0
 11
370.5917193917886
 21
845.3024279844574
 31
0.0
  0
LINE
  5
2C9
330
7B
100
AcDbEntity
  8
1
  6
Continuous
 62
     7
100
AcDbLine
 10
354.0917193917888
 20
1014.000000000001
 30
0.0
 11
369.0917193917888
 21
1014.000000000001
 31
0.0
  0
LINE
  5
2CA
330
7B
100
AcDbEntity
  8
1
  6
Continuous
 62
     7
100
AcDbLine
 10
371.5917193917888
 20
1016.500000000001
 30
0.0
 11
371.5917193917888
 21
1068.388202796436
 31
0.0
  0
LINE
  5
2CB
330
7B
100
AcDbEntity
  8
1
  6
Continuous
 62
     7
100
AcDbLine
 10
351.5917193917888
 20
1016.500000000001
 30
0.0
 11
351.5917193917888
 21
1068.388202796436
 31
0.0
  0
LINE
  5
2CC
330
7B
100
AcDbEntity
  8
1
  6
Continuous
 62
     7
100
AcDbLine
 10
764.7911746825031
 20
824.2044784133393
 30
0.0
 11
764.7911746825031
 21
842.3196882659515
 31
0.0
  0
LINE
  5
2CD
330
7B
100
AcDbEntity
  8
1
  6
Continuous
 62
     7
100
AcDbLine
 10
352.5917193917886
 20
844.0540581082473
 30
0.0
 11
370.5917193917886
 21
844.0540581082473
 31
0.0
  0
LINE
  5
2CE
330
7B
100
AcDbEntity
  8
1
  6
Continuous
 62
     7
100
AcDbLine
 10
356.6917193917888
 20
844.0540581082473
 30
0.0
 11
356.6917193917888
 21
825.5833587893097
 31
0.0
  0
LINE
  5
2CF
330
7B
100
AcDbEntity
  8
1
  6
Continuous
 62
     7
100
AcDbLine
 10
796.0906299732052
 20
829.5624963956975
 30
0.0
 11
799.0917193917884
 21
830.7749373654544
 31
0.0
  0
ARC
  5
2D0
330
7B
100
AcDbEntity
  8
1
  6
Continuous
 62
     7
100
AcDbCircle
 10
798.4917193917883
 20
847.7026615000004
 30
0.0
 40
0.6000000000001364
100
AcDbArc
 50
0.0
 51
90.0
  0
ARC
  5
2D1
330
7B
100
AcDbEntity
  8
1
  6
Continuous
 62
     7
100
AcDbCircle
 10
361.5917193917888
 20
1084.000000000003
 30
0.0
 40
17.49945529071445
100
AcDbArc
 50
308.6834368800553
 51
231.3165631199443
  0
ARC
  5
2D2
330
7B
100
AcDbEntity
  8
1
  6
Continuous
 62
     7
100
AcDbCircle
 10
712.1917193499884
 20
847.7026615000004
 30
0.0
 40
0.6000000000001364
100
AcDbArc
 50
90.0
 51
180.0
  0
ARC
  5
2D3
330
7B
100
AcDbEntity
  8
1
  6
Continuous
 62
     7
100
AcDbCircle
 10
712.1917193499884
 20
845.8967435523546
 30
0.0
 40
0.599999999999909
100
AcDbArc
 50
180.0
 51
269.454597230718
  0
ARC
  5
2D4
330
7B
100
AcDbEntity
  8
1
  6
Continuous
 62
     7
100
AcDbCircle
 10
762.2911746825031
 20
842.3196882659515
 30
0.0
 40
2.500000000000086
100
AcDbArc
 50
43.92752774962401
 51
89.45459723070509
  0
ARC
  5
2D5
330
7B
100
AcDbEntity
  8
1
  6
Continuous
 62
     7
100
AcDbCircle
 10
765.2911746825031
 20
824.2044784133393
 30
0.0
 40
0.5
100
AcDbArc
 50
180.0
 51
270.0
  0
ARC
  5
2D6
330
7B
100
AcDbEntity
  8
1
  6
Continuous
 62
     7
100
AcDbCircle
 10
762.2911746825031
 20
842.3196882659515
 30
0.0
 40
2.5
100
AcDbArc
 50
0.0
 51
43.92752774962401
  0
ARC
  5
2D7
330
7B
100
AcDbEntity
  8
1
  6
Continuous
 62
     7
100
AcDbCircle
 10
378.0917193917886
 20
847.3026615000006
 30
0.0
 40
1.0
100
AcDbArc
 50
0.0
 51
90.0
  0
ARC
  5
2D8
330
7B
100
AcDbEntity
  8
1
  6
Continuous
 62
     7
100
AcDbCircle
 10
345.0917193917886
 20
847.3026615000006
 30
0.0
 40
1.0
100
AcDbArc
 50
90.0
 51
180.0
  0
ARC
  5
2D9
330
7B
100
AcDbEntity
  8
1
  6
Continuous
 62
     7
100
AcDbCircle
 10
370.5917193917886
 20
847.3026615000006
 30
0.0
 40
1.0
100
AcDbArc
 50
0.0
 51
90.0
  0
ARC
  5
2DA
330
7B
100
AcDbEntity
  8
1
  6
Continuous
 62
     7
100
AcDbCircle
 10
370.5917193917886
 20
846.3024279844574
 30
0.0
 40
1.0
100
AcDbArc
 50
270.0
 51
0.0
  0
ARC
  5
2DB
330
7B
100
AcDbEntity
  8
1
  6
Continuous
 62
     7
100
AcDbCircle
 10
352.5917193917886
 20
846.3024279844574
 30
0.0
 40
1.0
100
AcDbArc
 50
180.0
 51
270.0
  0
ARC
  5
2DC
330
7B
100
AcDbEntity
  8
1
  6
Continuous
 62
     7
100
AcDbCircle
 10
352.5917193917886
 20
847.3026615000006
 30
0.0
 40
1.0
100
AcDbArc
 50
90.0
 51
180.0
  0
ARC
  5
2DD
330
7B
100
AcDbEntity
  8
1
  6
Continuous
 62
     7
100
AcDbCircle
 10
344.5917193917886
 20
824.2044784133384
 30
0.0
 40
0.5
100
AcDbArc
 50
180.0
 51
270.0
  0
ARC
  5
2DE
330
7B
100
AcDbEntity
  8
1
  6
Continuous
 62
     7
100
AcDbCircle
 10
369.0917193917888
 20
1016.500000000001
 30
0.0
 40
2.5
100
AcDbArc
 50
270.0
 51
0.0
  0
ARC
  5
2DF
330
7B
100
AcDbEntity
  8
1
  6
Continuous
 62
     7
100
AcDbCircle
 10
354.0917193917888
 20
1016.500000000001
 30
0.0
 40
2.5
100
AcDbArc
 50
180.0
 51
270.0
  0
ARC
  5
2E0
330
7B
100
AcDbEntity
  8
1
  6
Continuous
 62
     7
100
AcDbCircle
 10
374.0917193917888
 20
1068.388202796436
 30
0.0
 40
2.500000000000398
100
AcDbArc
 50
128.6834368800485
 51
180.0
  0
ARC
  5
2E1
330
7B
100
AcDbEntity
  8
1
  6
Continuous
 62
     7
100
AcDbCircle
 10
349.0917193917888
 20
1068.388202796436
 30
0.0
 40
2.5
100
AcDbArc
 50
0.0
 51
51.31656311995453
  0
ARC
  5
2E2
330
7B
100
AcDbEntity
  8
1
  6
Continuous
 62
     7
100
AcDbCircle
 10
370.5917193917886
 20
845.0540581082473
 30
0.0
 40
1.0
100
AcDbArc
 50
270.0
 51
0.0
  0
ARC
  5
2E3
330
7B
100
AcDbEntity
  8
1
  6
Continuous
 62
     7
100
AcDbCircle
 10
352.5917193917886
 20
845.0540581082473
 30
0.0
 40
1.0
100
AcDbArc
 50
180.0
 51
270.0
  0
ARC
  5
2E4
330
7B
100
AcDbEntity
  8
1
  6
Continuous
 62
     7
100
AcDbCircle
 10
378.5917193917886
 20
824.2044784133384
 30
0.0
 40
0.5
100
AcDbArc
 50
270.0
 51
0.0
  0
ENDBLK
  5
7E
330
7B
100
AcDbEntity
  8
0
100
AcDbBlockEnd
  0
BLOCK
  5
80
330
7F
100
AcDbEntity
  8
0
100
AcDbBlockBegin
  2
81-414-1-SH
 70
     0
 10
401.0891018826861
 20
926.7044784133407
 30
0.0
  3
81-414-1-SH
  1

  0
LINE
  5
2E5
330
7F
100
AcDbEntity
  8
1
  6
Continuous
 62
     7
100
AcDbLine
 10
763.5911746825028
 20
823.7044784133383
 30
0.0
 11
764.7911746825033
 21
823.7044784133383
 31
0.0
  0
LINE
  5
2E6
330
7F
100
AcDbEntity
  8
1
  6
Continuous
 62
     7
100
AcDbLine
 10
763.5911746825028
 20
842.1044779883381
 30
0.0
 11
764.7911746825024
 21
842.1044779883381
 31
0.0
  0
LINE
  5
2E7
330
7F
100
AcDbEntity
  8
1
  6
Continuous
 62
     7
100
AcDbLine
 10
763.5911746825028
 20
842.1044779883381
 30
0.0
 11
763.5911746825028
 21
823.7044784133383
 31
0.0
  0
LINE
  5
2E8
330
7F
100
AcDbEntity
  8
1
  6
Continuous
 62
     7
100
AcDbLine
 10
358.5917193917886
 20
842.0544779883382
 30
0.0
 11
364.5917193917886
 21
842.0544779883382
 31
0.0
  0
LINE
  5
2E9
330
7F
100
AcDbEntity
  8
1
  6
Continuous
 62
     7
100
AcDbLine
 10
358.5917193917886
 20
842.0544779883382
 30
0.0
 11
358.5917193917886
 21
826.3081967266803
 31
0.0
  0
LINE
  5
2EA
330
7F
100
AcDbEntity
  8
1
  6
Continuous
 62
     7
100
AcDbLine
 10
364.5917193917886
 20
842.0544779883382
 30
0.0
 11
365.5917193917886
 21
842.0544779883382
 31
0.0
  0
LINE
  5
2EB
330
7F
100
AcDbEntity
  8
1
  6
Continuous
 62
     7
100
AcDbLine
 10
364.5917193917886
 20
842.0544779883382
 30
0.0
 11
364.5917193917886
 21
826.5958515724788
 31
0.0
  0
LINE
  5
2EC
330
7F
100
AcDbEntity
  8
1
  6
Continuous
 62
     7
100
AcDbLine
 10
357.5917193917886
 20
842.0544779883382
 30
0.0
 11
358.5917193917886
 21
842.0544779883382
 31
0.0
  0
LINE
  5
2ED
330
7F
100
AcDbEntity
  8
1
  6
Continuous
 62
     7
100
AcDbLine
 10
366.0917193917886
 20
841.5544779883382
 30
0.0
 11
366.0917193917887
 21
826.2123869820498
 31
0.0
  0
LINE
  5
2EE
330
7F
100
AcDbEntity
  8
1
  6
Continuous
 62
     7
100
AcDbLine
 10
357.0917193917886
 20
841.5544779883382
 30
0.0
 11
357.0917193917887
 21
825.7639447878555
 31
0.0
  0
LINE
  5
2EF
330
7F
100
AcDbEntity
  8
1
  6
Continuous
 62
     7
100
AcDbLine
 10
764.7911746825024
 20
842.1044779883381
 30
0.0
 11
764.7911746825033
 21
823.7044784133383
 31
0.0
  0
ARC
  5
2F0
330
7F
100
AcDbEntity
  8
1
  6
Continuous
 62
     7
100
AcDbCircle
 10
357.5917193917886
 20
841.5544779883382
 30
0.0
 40
0.5
100
AcDbArc
 50
90.0
 51
180.0
  0
ARC
  5
2F1
330
7F
100
AcDbEntity
  8
1
  6
Continuous
 62
     7
100
AcDbCircle
 10
365.5917193917886
 20
841.5544779883382
 30
0.0
 40
0.5
100
AcDbArc
 50
0.0
 51
90.0
  0
ENDBLK
  5
81
330
7F
100
AcDbEntity
  8
0
100
AcDbBlockEnd
  0
BLOCK
  5
83
330
82
100
AcDbEntity
  8
0
100
AcDbBlockBegin
  2
30-255-M11
 70
     0
 10
1596.363102955559
 20
859.7739273576103
 30
0.0
  3
30-255-M11
  1

  0
LINE
  5
2F2
330
82
100
AcDbEntity
  8
0
  6
Continuous
 62
     7
100
AcDbLine
 10
634.0813504465203
 20
799.5686644283894
 30
0.0
 11
635.3040349474369
 21
799.3087748148673
 31
0.0
  0
LINE
  5
2F3
330
82
100
AcDbEntity
  8
0
  6
Continuous
 62
     7
100
AcDbLine
 10
634.008038738757
 20
801.6286271330413
 30
0.0
 11
633.6962324915622
 21
800.1616940741653
 31
0.0
  0
LINE
  5
2F4
330
82
100
AcDbEntity
  8
0
  6
Continuous
 62
     7
100
AcDbLine
 10
635.3040349474373
 20
799.3087748148721
 30
0.0
 11
643.373752653492
 21
797.5935033656217
 31
0.0
  0
LINE
  5
2F5
330
82
100
AcDbEntity
  8
0
  6
Continuous
 62
     7
100
AcDbLine
 10
643.373752653492
 20
797.5935033656217
 30
0.0
 11
651.4434703595481
 21
795.8782319163787
 31
0.0
  0
LINE
  5
2F6
330
82
100
AcDbEntity
  8
0
  6
Continuous
 62
     7
100
AcDbLine
 10
653.2591845062392
 20
796.0034602578098
 30
0.0
 11
653.5709907534341
 21
797.4703933166866
 31
0.0
  0
LINE
  5
2F7
330
82
100
AcDbEntity
  8
0
  6
Continuous
 62
     7
100
AcDbLine
 10
651.4434703595467
 20
795.878231916374
 30
0.0
 11
652.6661548604635
 21
795.6183423028517
 31
0.0
  0
LINE
  5
31A
330
82
100
AcDbEntity
  8
0
  6
Continuous
 62
     7
100
AcDbLine
 10
372.1429038076387
 20
797.7821415753003
 30
0.0
 11
372.1373428805387
 21
804.3357486368003
 31
0.0
  0
LINE
  5
31B
330
82
100
AcDbEntity
  8
0
  6
Continuous
 62
     7
100
AcDbLine
 10
352.1373228384387
 20
804.3511713386004
 30
0.0
 11
352.1429117052387
 21
797.7651710153003
 31
0.0
  0
ARC
  5
31C
330
82
100
AcDbEntity
  8
0
  6
Continuous
 62
     7
100
AcDbCircle
 10
362.1913383111387
 20
768.9124834231003
 30
0.0
 40
30.4484219479703
100
AcDbArc
 50
73.7490801553005
 51
106.6235617618005
  0
ARC
  5
31D
330
82
100
AcDbEntity
  8
0
  6
Continuous
 62
     7
100
AcDbCircle
 10
353.8944435011388
 20
796.8232000411003
 30
0.0
 40
1.331088391538441
100
AcDbArc
 50
108.1147672107952
 51
160.0380933991079
  0
ARC
  5
31E
330
82
100
AcDbEntity
  8
0
  6
Continuous
 62
     7
100
AcDbCircle
 10
362.0637925490387
 20
832.1540467071003
 30
0.0
 40
36.87377674410537
100
AcDbArc
 50
259.6171948467999
 51
281.5349533945
  0
ARC
  5
31F
330
82
100
AcDbEntity
  8
0
  6
Continuous
 62
     7
100
AcDbCircle
 10
355.4091947646386
 20
799.3255668028003
 30
0.0
 40
3.441522850670471
100
AcDbArc
 50
216.5174655286022
 51
270.1508293658494
  0
SPLINE
  5
320
330
82
100
AcDbEntity
  8
0
  6
Continuous
 62
     7
100
AcDbSpline
210
0.0
220
0.0
230
1.0
 70
     8
 71
     3
 72
    23
 73
    19
 74
    17
 42
0.000000001
 43
0.0000000001
 44
0.00000001
 40
0.0
 40
0.0
 40
0.0
 40
0.0
 40
0.1472846370992512
 40
0.2915794409539255
 40
0.4726044561108935
 40
0.6521942516858821
 40
0.8454144876107029
 40
1.040358229846785
 40
1.287291488897503
 40
1.54972165758332
 40
1.871641819454057
 40
2.22298677249272
 40
2.598095111805059
 40
2.999311105439534
 40
3.413744302119044
 40
3.869907963723972
 40
3.896468772731473
 40
3.923128692562164
 40
3.923128692562164
 40
3.923128692562164
 40
3.923128692562164
 10
352.1429126365667
 20
797.7676241189583
 30
0.0
 10
352.1476481172675
 20
797.7187643955269
 30
0.0
 10
352.1570229622812
 20
797.622036787544
 30
0.0
 10
352.1862329739895
 20
797.46660237529
 30
0.0
 10
352.252954035456
 20
797.310422726807
 30
0.0
 10
352.3554575255738
 20
797.1561722013521
 30
0.0
 10
352.480208000447
 20
797.013149753489
 30
0.0
 10
352.6383890396748
 20
796.8717967704861
 30
0.0
 10
352.8299839654112
 20
796.735317699603
 30
0.0
 10
353.0701102142702
 20
796.5964625806743
 30
0.0
 10
353.3513385433624
 20
796.4609390188963
 30
0.0
 10
353.6760083518861
 20
796.3310424665343
 30
0.0
 10
354.0323918751836
 20
796.2111128442682
 30
0.0
 10
354.4128699903513
 20
796.0979325572196
 30
0.0
 10
354.8219572065565
 20
795.9864270415839
 30
0.0
 10
355.1143137388897
 20
795.922525572626
 30
0.0
 10
355.2812469119959
 20
795.8914879749603
 30
0.0
 10
355.2986935564778
 20
795.8882737071033
 30
0.0
 10
355.307433123756
 20
795.8866635799753
 30
0.0
 11
352.1429126365667
 21
797.7676241189583
 31
0.0
 11
352.1593253043856
 21
797.6212568060712
 31
0.0
 11
352.1884645550138
 21
797.4799348503691
 31
0.0
 11
352.2579540316117
 21
797.3127784260342
 31
0.0
 11
352.3559321864134
 21
797.162270033394
 31
0.0
 11
352.4826512151159
 21
797.0164058938626
 31
0.0
 11
352.6274155108816
 21
796.8858441800226
 31
0.0
 11
352.8277828841506
 21
796.7415217982003
 31
0.0
 11
353.054303976763
 21
796.6090159952987
 31
0.0
 11
353.3439006668464
 21
796.4684231525289
 31
0.0
 11
353.6697275220045
 21
796.3369692206728
 31
0.0
 11
354.0247736007971
 21
796.2159380353366
 31
0.0
 11
354.4090672610886
 21
796.1006442547188
 31
0.0
 11
354.8093654801143
 21
795.9933306478049
 31
0.0
 11
355.2551039709334
 21
795.8963642359123
 31
0.0
 11
355.2812157831042
 21
795.8915011250592
 31
0.0
 11
355.307433123756
 21
795.8866635799753
 31
0.0
  0
SPLINE
  5
321
330
82
100
AcDbEntity
  8
0
  6
Continuous
 62
     7
100
AcDbSpline
210
0.0
220
0.0
230
1.0
 70
     8
 71
     3
 72
    50
 73
    46
 74
    44
 42
0.000000001
 43
0.0000000001
 44
0.00000001
 40
0.0
 40
0.0
 40
0.0
 40
0.0
 40
0.0021653604016223
 40
0.0043298644522598
 40
0.1140513680080773
 40
0.2197128298849975
 40
0.3217739577219128
 40
0.4206861672944667
 40
0.5168921975527266
 40
0.6108260745894972
 40
0.7029134850850878
 40
0.7935725921310983
 40
0.9143511734054954
 40
1.033008284263007
 40
1.149285223787433
 40
1.262931956191739
 40
1.373709298914158
 40
1.481391623385434
 40
1.588394805414802
 40
1.692205233126325
 40
1.793108297975291
 40
1.891397033837079
 40
1.987371703684059
 40
2.081339100711988
 40
2.179449497365478
 40
2.275715086331594
 40
2.370287441348542
 40
2.463412254935523
 40
2.555443390542556
 40
2.628533636107574
 40
2.701850044912364
 40
2.776005862513927
 40
2.851592681441235
 40
2.92917401026504
 40
2.969790920636359
 40
3.010761051263342
 40
3.051807541993633
 40
3.092700100353455
 40
3.133270003356726
 40
3.17342833075857
 40
3.213187340955315
 40
3.25268366893355
 40
3.292199992777362
 40
3.29690574109625
 40
3.301614998464346
 40
3.301614998464346
 40
3.301614998464346
 40
3.301614998464346
 10
369.5846612779976
 20
796.0358037144283
 30
0.0
 10
369.5853659833485
 20
796.0359598124649
 30
0.0
 10
369.5867751153246
 20
796.036271946942
 30
0.0
 10
369.6238910524705
 20
796.0445004503209
 30
0.0
 10
369.6945424040499
 20
796.0608603580673
 30
0.0
 10
369.7971803007905
 20
796.0866160711819
 30
0.0
 10
369.8958710987367
 20
796.1132312126101
 30
0.0
 10
369.99108002784
 20
796.1405975185847
 30
0.0
 10
370.0832731601529
 20
796.1686066549146
 30
0.0
 10
370.1729167030084
 20
796.1971501274361
 30
0.0
 10
370.2604774015422
 20
796.2261191026513
 30
0.0
 10
370.356245760313
 20
796.2587529993226
 30
0.0
 10
370.460133104125
 20
796.2950119868199
 30
0.0
 10
370.5716716824971
 20
796.3352464235394
 30
0.0
 10
370.6804737898765
 20
796.3760371209615
 30
0.0
 10
370.7862158611998
 20
796.417476048089
 30
0.0
 10
370.8885742818663
 20
796.4596559170283
 30
0.0
 10
370.9880288098091
 20
796.5030178547424
 30
0.0
 10
371.0843151324935
 20
796.5477662885681
 30
0.0
 10
371.1773826298203
 20
796.593998214888
 30
0.0
 10
371.2665695331192
 20
796.64142841633
 30
0.0
 10
371.3520566105586
 20
796.6901648451263
 30
0.0
 10
371.4340253631253
 20
796.7403149311235
 30
0.0
 10
371.5142809545537
 20
796.793055304013
 30
0.0
 10
371.5927545890905
 20
796.8485932725976
 30
0.0
 10
371.6689622055777
 20
796.9075488942531
 30
0.0
 10
371.7408787006568
 20
796.9691613162335
 30
0.0
 10
371.8081246450009
 20
797.0338362513924
 30
0.0
 10
371.8662017527171
 20
797.097472561119
 30
0.0
 10
371.9158665515057
 20
797.1595794907082
 30
0.0
 10
371.9584387057968
 20
797.2195687873163
 30
0.0
 10
371.9980611154835
 20
797.2825277343907
 30
0.0
 10
372.0350172741334
 20
797.348716132329
 30
0.0
 10
372.0637404073531
 20
797.4066005645784
 30
0.0
 10
372.0857405690373
 20
797.454885553873
 30
0.0
 10
372.101532230362
 20
797.4925994417342
 30
0.0
 10
372.1158404542804
 20
797.5310037734977
 30
0.0
 10
372.1281890586499
 20
797.5699495777419
 30
0.0
 10
372.1380990987399
 20
797.6092902097769
 30
0.0
 10
372.1450875120302
 20
797.6488811808581
 30
0.0
 10
372.1486636444995
 20
797.6885814816785
 30
0.0
 10
372.1483296564526
 20
797.7282389744488
 30
0.0
 10
372.1449808471647
 20
797.7560194380894
 30
0.0
 10
372.1419277886728
 20
797.7720413728488
 30
0.0
 10
372.1413181575368
 20
797.7751199495887
 30
0.0
 10
372.1410132228027
 20
797.7766598105774
 30
0.0
 11
369.5846612779976
 21
796.0358037144283
 31
0.0
 11
369.5867753700939
 21
796.0362720700315
 31
0.0
 11
369.5888885511642
 21
796.0367406249386
 31
0.0
 11
369.6957806229551
 21
796.0614973103488
 31
0.0
 11
369.7982651158539
 21
796.0872125440933
 31
0.0
 11
369.8968080727458
 21
796.1137786778451
 31
0.0
 11
369.9918755365153
 21
796.1410880632768
 31
0.0
 11
370.0839335500472
 21
796.1690330520618
 31
0.0
 11
370.1734481562261
 21
796.1975059958726
 31
0.0
 11
370.260885397937
 21
796.2263992463825
 31
0.0
 11
370.3467113180644
 21
796.2556051552639
 31
0.0
 11
370.4607303343966
 21
796.2954439502365
 31
0.0
 11
370.5723320143169
 21
796.3357499667928
 31
0.0
 11
370.6811910938221
 21
796.3766159361346
 31
0.0
 11
370.7869823089091
 21
796.4181345894631
 31
0.0
 11
370.8893803955745
 21
796.4603986579792
 31
0.0
 11
370.9880600898151
 21
796.5035008728848
 31
0.0
 11
371.085076601134
 21
796.5486392986298
 31
0.0
 11
371.1780284864149
 21
796.594862149134
 31
0.0
 11
371.267097738648
 21
796.6422762481748
 31
0.0
 11
371.3524663508242
 21
796.6909884195312
 31
0.0
 11
371.4343163159333
 21
796.7411054869808
 31
0.0
 11
371.5128296269661
 21
796.7927342743021
 31
0.0
 11
371.5928400767044
 21
796.849514357488
 31
0.0
 11
371.6688998150389
 21
796.9085226603398
 31
0.0
 11
371.7406323650151
 21
796.9701535908046
 31
0.0
 11
371.8076612496789
 21
797.0348015568287
 31
0.0
 11
371.8696099920759
 21
797.1028609663589
 31
0.0
 11
371.9152620265181
 21
797.1599405226383
 31
0.0
 11
371.9577159230029
 21
797.2197147852787
 31
0.0
 11
371.9972538025314
 21
797.2824510696018
 31
0.0
 11
372.0341577861042
 21
797.3484166909277
 31
0.0
 11
372.0687099947223
 21
797.4178789645774
 31
0.0
 11
372.0855006881905
 21
797.4548628261527
 31
0.0
 11
372.1012694654081
 21
797.4926768085048
 31
0.0
 11
372.1155372833507
 21
797.5311637382525
 31
0.0
 11
372.1278250989936
 21
797.570166442015
 31
0.0
 11
372.1376538693124
 21
797.6095277464103
 31
0.0
 11
372.1445445512826
 21
797.6490904780582
 31
0.0
 11
372.1480181018795
 21
797.6886974635765
 31
0.0
 11
372.1475954780786
 21
797.7281915295847
 31
0.0
 11
372.1427976368556
 21
797.7674155027014
 31
0.0
 11
372.1419224734077
 21
797.7720391567949
 31
0.0
 11
372.1410132228027
 21
797.7766598105774
 31
0.0
  0
ARC
  5
322
330
82
100
AcDbEntity
  8
1
  6
Continuous
 62
     7
100
AcDbCircle
 10
634.1853062919291
 20
800.0577382287562
 30
0.0
 40
0.5000000000000455
100
AcDbArc
 50
167.9999999999715
 51
258.000000000007
  0
ARC
  5
323
330
82
100
AcDbEntity
  8
1
  6
Continuous
 62
     7
100
AcDbCircle
 10
652.7701107058723
 20
796.1074161032186
 30
0.0
 40
0.4999999999999746
100
AcDbArc
 50
258.0000000000098
 51
348.0000000000098
  0
LWPOLYLINE
  5
324
330
82
100
AcDbEntity
  8
0
  6
Continuous
 62
     7
100
AcDbPolyline
 90
       25
 70
     0
 43
0.0
 10
352.1429117052387
 20
797.7663351685003
 10
352.2326492919387
 20
798.0435172558003
 10
352.4992347909388
 20
798.3158844054003
 10
352.9379119380387
 20
798.5785769761003
 10
353.5408529667386
 20
798.8269029647004
 10
354.2972973762387
 20
799.0564348638003
 10
355.1937470427388
 20
799.2630748541003
 10
356.2142046383387
 20
799.4431386233003
 10
357.3404600127387
 20
799.5934075207003
 10
358.5524152247388
 20
799.7112049252003
 10
359.8284428688387
 20
799.7944241852003
 10
361.1457721952386
 20
799.8415844977003
 10
362.4808954871387
 20
799.8518439472003
 10
363.8099872722387
 20
799.8250162691004
 10
365.1093301112387
 20
799.7615820259003
 10
366.3557370408387
 20
799.6626737059003
 10
367.5269659823387
 20
799.5300552339004
 10
368.6021159617387
 20
799.3660940320003
 10
369.5620012684387
 20
799.1737163157003
 10
370.3894934831387
 20
798.9563530773003
 10
371.0698246239388
 20
798.7178860695003
 10
371.5908549009387
 20
798.4625677109003
 10
371.9432859896388
 20
798.1949577570003
 10
372.1208286686388
 20
797.9198283047003
 10
372.1428982197388
 20
797.7795357347003
  0
LWPOLYLINE
  5
325
330
82
100
AcDbEntity
  8
0
  6
Continuous
 62
     7
100
AcDbPolyline
 90
       11
 70
     0
 43
0.0
 10
369.4372832058486
 20
796.0250134110363
 10
369.5102746813386
 20
796.0434834004003
 10
370.2584079681387
 20
796.2642683179004
 10
370.8553726999387
 20
796.5040578038004
 10
371.2900488852388
 20
796.7583889604003
 10
371.5543386741388
 20
797.0225213558003
 10
371.6433190955386
 20
797.2915357441003
 10
371.5553323953386
 20
797.5604197473003
 10
371.2920177011388
 20
797.8241665751003
 10
370.8582802890387
 20
798.0778607071004
 10
370.7121595024316
 20
798.1443496883194
  0
ENDBLK
  5
84
330
82
100
AcDbEntity
  8
0
100
AcDbBlockEnd
  0
BLOCK
  5
86
330
85
100
AcDbEntity
  8
0
100
AcDbBlockBegin
  2
30-358-M1
 70
     0
 10
582.3308601234934
 20
1302.534948494536
 30
0.0
  3
30-358-M1
  1

  0
LINE
  5
326
330
85
100
AcDbEntity
  8
0
  6
Continuous
 62
     7
100
AcDbLine
 10
628.0030118509682
 20
802.6500723780001
 30
0.0
 11
633.7604778095682
 21
801.4262698114001
 31
0.0
  0
LINE
  5
327
330
85
100
AcDbEntity
  8
0
  6
Continuous
 62
     7
100
AcDbLine
 10
627.2148447319681
 20
803.7227389858001
 30
0.0
 11
627.2151129528683
 21
803.7277513639001
 31
0.0
  0
LINE
  5
328
330
85
100
AcDbEntity
  8
0
  6
Continuous
 62
     7
100
AcDbLine
 10
632.0426868482681
 20
826.4394758724002
 30
0.0
 11
632.0454733654682
 21
826.4454996668001
 31
0.0
  0
LINE
  5
329
330
85
100
AcDbEntity
  8
0
  6
Continuous
 62
     8
100
AcDbLine
 10
627.2178845687682
 20
803.7265574083001
 30
0.0
 11
627.2148447319681
 21
803.7227389858001
 31
0.0
  0
LINE
  5
32A
330
85
100
AcDbEntity
  8
0
  6
Continuous
 62
     7
100
AcDbLine
 10
653.7938224359681
 20
797.1679985047001
 30
0.0
 11
764.1080146863682
 21
773.7197026134002
 31
0.0
  0
LINE
  5
32B
330
85
100
AcDbEntity
  8
0
  6
Continuous
 62
     7
100
AcDbLine
 10
764.1029184891682
 20
799.2793105066002
 30
0.0
 11
633.2007901950682
 21
827.1035167844001
 31
0.0
  0
LINE
  5
32C
330
85
100
AcDbEntity
  8
0
  6
Continuous
 62
     7
100
AcDbLine
 10
764.0913514628681
 20
819.0024796775001
 30
0.0
 11
764.0913514628681
 21
799.2722603947001
 31
0.0
  0
LINE
  5
32D
330
85
100
AcDbEntity
  8
0
  6
Continuous
 62
     7
100
AcDbLine
 10
764.5913506134681
 20
819.5024796867001
 30
0.0
 11
798.5913524611682
 21
819.5024796867001
 31
0.0
  0
LINE
  5
32E
330
85
100
AcDbEntity
  8
0
  6
Continuous
 62
     7
100
AcDbLine
 10
799.0913516118682
 20
693.2000040532001
 30
0.0
 11
799.0913516118682
 21
819.0024796775001
 31
0.0
  0
LINE
  5
32F
330
85
100
AcDbEntity
  8
0
  6
Continuous
 62
     7
100
AcDbLine
 10
764.0913514628681
 20
773.7530588627001
 30
0.0
 11
764.0913514628681
 21
693.2000040532001
 31
0.0
  0
LINE
  5
330
330
85
100
AcDbEntity
  8
0
  6
Continuous
 62
     7
100
AcDbLine
 10
764.0913514628681
 20
693.2000040532001
 30
0.0
 11
799.0913516118682
 21
693.2000040532001
 31
0.0
  0
LINE
  5
331
330
85
100
AcDbEntity
  8
0
  6
Continuous
 62
     7
100
AcDbLine
 10
344.0917193173386
 20
818.7024756244003
 30
0.0
 11
344.0917193173386
 21
693.2
 31
0.0
  0
LINE
  5
332
330
85
100
AcDbEntity
  8
0
  6
Continuous
 62
     7
100
AcDbLine
 10
379.0917194663387
 20
692.9000000000003
 30
0.0
 11
379.0917194663387
 21
693.2
 31
0.0
  0
LINE
  5
333
330
85
100
AcDbEntity
  8
0
  6
Continuous
 62
     7
100
AcDbLine
 10
349.6968050702387
 20
814.8115611166004
 30
0.0
 11
349.1430583624388
 21
785.3339182675004
 31
0.0
  0
LINE
  5
393
330
85
100
AcDbEntity
  8
0
  6
Continuous
 62
     7
100
AcDbLine
 10
374.1382885007388
 20
784.8446647168004
 30
0.0
 11
374.6921553491386
 21
814.3421223849003
 31
0.0
  0
LINE
  5
394
330
85
100
AcDbEntity
  8
0
  6
Continuous
 62
     7
100
AcDbLine
 10
373.7612565262386
 20
819.2024756336003
 30
0.0
 11
378.5917203156387
 21
819.2024756336003
 31
0.0
  0
LINE
  5
395
330
85
100
AcDbEntity
  8
0
  6
Continuous
 62
     7
100
AcDbLine
 10
344.5918544410388
 20
819.2024756336003
 30
0.0
 11
350.6198519124387
 21
819.2024756336003
 31
0.0
  0
LINE
  5
396
330
85
100
AcDbEntity
  8
1
  6
Continuous
 62
     7
100
AcDbLine
 10
344.0917193173386
 20
693.2
 30
0.0
 11
379.0917194663387
 21
693.2
 31
0.0
  0
LINE
  5
397
330
85
100
AcDbEntity
  8
0
  6
Continuous
 62
     7
100
AcDbLine
 10
344.0917193173386
 20
693.2
 30
0.0
 11
344.0917193173386
 21
692.9000000000003
 31
0.0
  0
LINE
  5
398
330
85
100
AcDbEntity
  8
0
  6
Continuous
 62
     7
100
AcDbLine
 10
379.0917194663387
 20
693.2
 30
0.0
 11
379.0917194663387
 21
818.7024756244003
 31
0.0
  0
ARC
  5
399
330
85
100
AcDbEntity
  8
0
  6
Continuous
 62
     7
100
AcDbCircle
 10
726.7822064634682
 20
794.4328760989001
 30
0.0
 40
100.0
100
AcDbArc
 50
161.3330839216999
 51
174.6667303835001
  0
ARC
  5
39A
330
85
100
AcDbEntity
  8
0
  6
Continuous
 62
     7
100
AcDbCircle
 10
764.5913515373683
 20
819.0024796725002
 30
0.0
 40
0.5
100
AcDbArc
 50
90.0
 51
180.0
  0
ARC
  5
39B
330
85
100
AcDbEntity
  8
0
  6
Continuous
 62
     7
100
AcDbCircle
 10
798.5913515373683
 20
819.0024796725002
 30
0.0
 40
0.5
100
AcDbArc
 50
0.0
 51
90.0
  0
ARC
  5
39C
330
85
100
AcDbEntity
  8
0
  6
Continuous
 62
     7
100
AcDbCircle
 10
378.5917193918388
 20
818.7024756193003
 30
0.0
 40
0.5
100
AcDbArc
 50
0.0
 51
90.0
  0
ARC
  5
39D
330
85
100
AcDbEntity
  8
0
  6
Continuous
 62
     7
100
AcDbCircle
 10
344.5917193918388
 20
818.7024756193003
 30
0.0
 40
0.5
100
AcDbArc
 50
90.0
 51
180.0
  0
SPLINE
  5
39E
330
85
100
AcDbEntity
  8
0
  6
Continuous
 62
     7
100
AcDbSpline
210
0.0
220
0.0
230
1.0
 70
     8
 71
     3
 72
    11
 73
     7
 74
     5
 42
0.000000001
 43
0.0000000001
 44
0.00000001
 40
0.0
 40
0.0
 40
0.0
 40
0.0
 40
0.0081429540344735
 40
0.0162636415302373
 40
0.0694423936872531
 40
0.123582158278721
 40
0.123582158278721
 40
0.123582158278721
 40
0.123582158278721
 10
633.1152873321727
 20
827.1150083736052
 30
0.0
 10
633.1126980789865
 20
827.1158226084908
 30
0.0
 10
633.107526648574
 20
827.1174488381107
 30
0.0
 10
633.0852855328591
 20
827.1238895841452
 30
0.0
 10
633.0465867385315
 20
827.1279157215574
 30
0.0
 10
633.0108651995989
 20
827.1262256663053
 30
0.0
 10
632.992844490643
 20
827.1253730625381
 30
0.0
 11
633.1152873321727
 21
827.1150083736052
 31
0.0
 11
633.1075101662005
 21
827.1174215473899
 31
0.0
 11
633.0997007175641
 21
827.1196482226721
 31
0.0
 11
633.0469714983866
 21
827.1265481884539
 31
0.0
 11
632.992844490643
 21
827.1253730625381
 31
0.0
  0
SPLINE
  5
39F
330
85
100
AcDbEntity
  8
0
  6
Continuous
 62
     7
100
AcDbSpline
210
0.0
220
0.0
230
1.0
 70
     8
 71
     3
 72
    23
 73
    19
 74
    17
 42
0.000000001
 43
0.0000000001
 44
0.00000001
 40
0.0
 40
0.0
 40
0.0
 40
0.0
 40
0.0072345063634131
 40
0.0145920595923614
 40
0.0696430217414733
 40
0.1319062341022697
 40
0.1972302806877518
 40
0.3207034604276013
 40
0.4426124225505045
 40
0.5525900052980596
 40
0.6637500454435425
 40
0.7760444943489243
 40
0.8654796697376826
 40
0.9545558156523811
 40
1.042770563978465
 40
1.130216179299337
 40
1.219829992785897
 40
1.31021896263259
 40
1.31021896263259
 40
1.31021896263259
 40
1.31021896263259
 10
627.2124456449704
 20
803.5772244900932
 30
0.0
 10
627.2124853909614
 20
803.5748133163165
 30
0.0
 10
627.2125655733031
 20
803.5699499589807
 30
0.0
 10
627.2131641724649
 20
803.5467424603195
 30
0.0
 10
627.2170017607029
 20
803.505294884394
 30
0.0
 10
627.2267739399058
 20
803.4451744711702
 30
0.0
 10
627.2449951812273
 20
803.3634542661525
 30
0.0
 10
627.2763241009943
 20
803.2644539439143
 30
0.0
 10
627.3262639325615
 20
803.1566698514773
 30
0.0
 10
627.3868565622026
 20
803.0594143057127
 30
0.0
 10
627.4554730223676
 20
802.9717318757656
 30
0.0
 10
627.5276782698969
 20
802.8962504277965
 30
0.0
 10
627.6003388360953
 20
802.8319437170956
 30
0.0
 10
627.6720585380792
 20
802.7791434229053
 30
0.0
 10
627.7485951314661
 20
802.7348162018108
 30
0.0
 10
627.8306338637176
 20
802.7008849345552
 30
0.0
 10
627.9175981481267
 20
802.680163628112
 30
0.0
 10
627.9768695227239
 20
802.6708549222545
 30
0.0
 10
628.0066328331189
 20
802.6661805332182
 30
0.0
 11
627.2124456449704
 21
803.5772244900932
 31
0.0
 11
627.2125760073235
 21
803.5699911572848
 31
0.0
 11
627.2127734705165
 21
803.5626362532843
 31
0.0
 11
627.2173668046815
 21
803.5077772541024
 31
0.0
 11
627.2271896591279
 21
803.4462937674668
 31
0.0
 11
627.2414135023312
 21
803.3825370938054
 31
0.0
 11
627.2789485126477
 21
803.2649073790454
 31
0.0
 11
627.330254225369
 21
803.1543202221864
 31
0.0
 11
627.3882424706674
 21
803.0608727391556
 31
0.0
 11
627.4566209500399
 21
802.9732317792415
 31
0.0
 11
627.5341468139844
 21
802.8919927299492
 31
0.0
 11
627.6012812062207
 21
802.8329027671028
 31
0.0
 11
627.6731949020518
 21
802.7803387104333
 31
0.0
 11
627.7497103802081
 21
802.7364385570204
 31
0.0
 11
627.8306501194196
 21
802.7033403039445
 31
0.0
 11
627.9175297899969
 21
802.6813730892294
 31
0.0
 11
628.0066328331189
 21
802.6661805332182
 31
0.0
  0
SPLINE
  5
3A0
330
85
100
AcDbEntity
  8
0
  6
Continuous
 62
     7
100
AcDbSpline
210
0.0
220
0.0
230
1.0
 70
     8
 71
     3
 72
    17
 73
    13
 74
    11
 42
0.000000001
 43
0.0000000001
 44
0.00000001
 40
0.0
 40
0.0
 40
0.0
 40
0.0
 40
0.194158911369957
 40
0.385655175101857
 40
0.5118594824907418
 40
0.6383067948816907
 40
0.746534939828618
 40
0.8549007470377458
 40
0.9438705513023825
 40
1.027543329878766
 40
1.055070717976503
 40
1.08189167568455
 40
1.08189167568455
 40
1.08189167568455
 40
1.08189167568455
 10
632.992844490643
 20
827.1253730625381
 30
0.0
 10
632.9285206644522
 20
827.1183282928815
 30
0.0
 10
632.8007551351178
 20
827.1043353493952
 30
0.0
 10
632.6335987440776
 20
827.0641832532792
 30
0.0
 10
632.4996486787707
 20
826.999567861534
 30
0.0
 10
632.3992008471814
 20
826.9328594151607
 30
0.0
 10
632.3112261025652
 20
826.8595125304373
 30
0.0
 10
632.2401725021884
 20
826.7862542199188
 30
0.0
 10
632.1814880200413
 20
826.7131334306682
 30
0.0
 10
632.1444545098967
 20
826.6574374397247
 30
0.0
 10
632.1225314417879
 20
826.616976239878
 30
0.0
 10
632.1143272736066
 20
826.6008241386596
 30
0.0
 10
632.1102785154538
 20
826.5928530589212
 30
0.0
 11
632.992844490643
 21
827.1253730625381
 31
0.0
 11
632.8003351529579
 21
827.1001176182513
 31
0.0
 11
632.6151596590237
 21
827.0513236046304
 31
0.0
 11
632.5011875112975
 21
826.9971214205682
 31
0.0
 11
632.3956208511547
 21
826.9275182381741
 31
0.0
 11
632.3125551255442
 21
826.8581394480309
 31
0.0
 11
632.2370724960522
 21
826.7803865008525
 31
0.0
 11
632.1814741837275
 21
826.7109282114235
 31
0.0
 11
632.1357147976116
 21
826.6408767074815
 31
0.0
 11
632.1225291388272
 21
826.6167127765763
 31
0.0
 11
632.1102785154538
 21
826.5928530589212
 31
0.0
  0
SPLINE
  5
3A1
330
85
100
AcDbEntity
  8
0
  6
Continuous
 62
     7
100
AcDbSpline
210
0.0
220
0.0
230
1.0
 70
     8
 71
     3
 72
   117
 73
   113
 74
   111
 42
0.000000001
 43
0.0000000001
 44
0.00000001
 40
0.0
 40
0.0
 40
0.0
 40
0.0
 40
0.0075005537166996
 40
0.0172719677276386
 40
0.0315954659814943
 40
0.0527562730900307
 40
0.0830390216450434
 40
0.1256819338959439
 40
0.1794358379107861
 40
0.243265235105745
 40
0.3161343822971402
 40
0.3970074500698142
 40
0.5111208426351691
 40
0.6367118698085541
 40
0.7738031099106046
 40
0.9224174473874722
 40
1.08971969305817
 40
1.268920408632277
 40
1.459341782505595
 40
1.660306782335477
 40
1.875612110620364
 40
2.100726312154548
 40
2.335182512788559
 40
2.578515404718217
 40
2.866784408089932
 40
3.165399915199773
 40
3.473733399969016
 40
3.791162390235115
 40
4.117071106268247
 40
4.460609155600966
 40
4.811975998176987
 40
5.170686824788934
 40
5.536277723286496
 40
5.908308073109487
 40
6.27262858529088
 40
6.642253469788371
 40
7.016937607812394
 40
7.396491017952378
 40
7.710361070381637
 40
8.027115834750177
 40
8.346521775458788
 40
8.668403118204115
 40
8.992647888950982
 40
9.254798684476713
 40
9.518303857140072
 40
9.783060410125195
 40
10.04900893485623
 40
10.32264432972223
 40
10.59726976795702
 40
10.87267742866831
 40
11.14870291316813
 40
11.41907176231332
 40
11.68970549830533
 40
11.96039112707332
 40
12.23091739128735
 40
12.45457018280242
 40
12.67791275262839
 40
12.90086656502477
 40
13.12333440848868
 40
13.34520186322884
 40
13.60936320951262
 40
13.87245502513935
 40
14.13440693651742
 40
14.39510646825203
 40
14.65440235405975
 40
14.98523790400536
 40
15.31344437169119
 40
15.63894624727442
 40
15.96160150868144
 40
16.34284197661278
 40
16.71953742654863
 40
17.09142655350689
 40
17.45819287692296
 40
17.81947068241984
 40
18.18471881798883
 40
18.54334040710004
 40
18.89491985770475
 40
19.23902317882898
 40
19.57519982055318
 40
19.84646511095576
 40
20.11162684930258
 40
20.37029970744646
 40
20.62209534505212
 40
20.86662266437803
 40
21.10348805669313
 40
21.30704435724286
 40
21.50395372808489
 40
21.69392018641045
 40
21.87664709042523
 40
22.05183718727062
 40
22.21919266047228
 40
22.3784151780812
 40
22.51733357162896
 40
22.64858255994091
 40
22.77162126054213
 40
22.88590862287881
 40
22.99090345213864
 40
23.0887485271542
 40
23.17712226142877
 40
23.25692711996818
 40
23.32906554234949
 40
23.39443995019542
 40
23.43112553136159
 40
23.46461534164212
 40
23.49388834190124
 40
23.51792356242131
 40
23.53570023678647
 40
23.54619846743742
 40
23.54841333685081
 40
23.5555513118381
 40
23.55904021854898
 40
23.56288657331726
 40
23.56288657331726
 40
23.56288657331726
 40
23.56288657331726
 10
653.7959682031827
 20
797.1781480581042
 30
0.0
 10
653.7946381936416
 20
797.1802652685263
 30
0.0
 10
653.7915755157074
 20
797.1851407025176
 30
0.0
 10
653.7856779656214
 20
797.193868962079
 30
0.0
 10
653.7768873693146
 20
797.2061296000627
 30
0.0
 10
653.7637994137527
 20
797.2237172659602
 30
0.0
 10
653.7447983113749
 20
797.2486685324952
 30
0.0
 10
653.7189804512711
 20
797.2820831228183
 30
0.0
 10
653.6861509056471
 20
797.3242105974297
 30
0.0
 10
653.6469752085837
 20
797.3741657000585
 30
0.0
 10
653.6020832128336
 20
797.4311255896916
 30
0.0
 10
653.5466691120698
 20
797.5011336957924
 30
0.0
 10
653.4801608656294
 20
797.5847731539486
 30
0.0
 10
653.4017353197419
 20
797.6828775182796
 30
0.0
 10
653.3158452227021
 20
797.7897374089746
 30
0.0
 10
653.2209269297356
 20
797.9071782892394
 30
0.0
 10
653.1168256742562
 20
798.0352443396657
 30
0.0
 10
653.0035048182442
 20
798.1737739932826
 30
0.0
 10
652.882591469869
 20
798.3205885267756
 30
0.0
 10
652.7534759397922
 20
798.4762373674979
 30
0.0
 10
652.6163527497285
 20
798.6402669704297
 30
0.0
 10
652.47134846305
 20
798.8122566102302
 30
0.0
 10
652.3195158095335
 20
798.9907061936199
 30
0.0
 10
652.1531050385579
 20
799.1843888481159
 30
0.0
 10
651.971601703296
 20
799.3932957343995
 30
0.0
 10
651.7744067775726
 20
799.6172638757025
 30
0.0
 10
651.5691099152143
 20
799.8470391110483
 30
0.0
 10
651.3558767547805
 20
800.0819110564582
 30
0.0
 10
651.1326665306547
 20
800.3235590620691
 30
0.0
 10
650.899437253189
 20
800.5713343686288
 30
0.0
 10
650.6559266652139
 20
800.8244218644387
 30
0.0
 10
650.404157807415
 20
801.0797298638911
 30
0.0
 10
650.1440285376555
 20
801.3364226557237
 30
0.0
 10
649.8787437989156
 20
801.59049815064
 30
0.0
 10
649.6084581354978
 20
801.8412316575807
 30
0.0
 10
649.3330633665008
 20
802.0876792806806
 30
0.0
 10
649.0489134868266
 20
802.3318520495512
 30
0.0
 10
648.7737536626264
 20
802.5578440429249
 30
0.0
 10
648.5088554505286
 20
802.765761073669
 30
0.0
 10
648.255445160081
 20
802.9557237141054
 30
0.0
 10
647.9952829165571
 20
803.1409820364938
 30
0.0
 10
647.7281835690502
 20
803.3206149579103
 30
0.0
 10
647.4721183363565
 20
803.4822395371594
 30
0.0
 10
647.2283554633557
 20
803.6266558758359
 30
0.0
 10
646.9981233101994
 20
803.7548276644168
 30
0.0
 10
646.7631879383441
 20
803.8769393022899
 30
0.0
 10
646.5215976340944
 20
803.9933115842232
 30
0.0
 10
646.2733224978343
 20
804.1030707760053
 30
0.0
 10
646.0185063389711
 20
804.2054444035164
 30
0.0
 10
645.7594578812906
 20
804.2989655620067
 30
0.0
 10
645.4984736723676
 20
804.3824114824351
 30
0.0
 10
645.2360358156725
 20
804.4554319142835
 30
0.0
 10
644.9727776939876
 20
804.5181507507853
 30
0.0
 10
644.7073036638565
 20
804.5709725938843
 30
0.0
 10
644.4554952160865
 20
804.6113026008014
 30
0.0
 10
644.2181274371776
 20
804.6409385700397
 30
0.0
 10
643.9957602287875
 20
804.6618675913577
 30
0.0
 10
643.7732698780467
 20
804.6762158850773
 30
0.0
 10
643.5509533040346
 20
804.6841838230707
 30
0.0
 10
643.3147666901039
 20
804.6860876745936
 30
0.0
 10
643.065075418365
 20
804.6806972188393
 30
0.0
 10
642.8023260731327
 20
804.6669937807592
 30
0.0
 10
642.541233898019
 20
804.6458310765045
 30
0.0
 10
642.2820716173346
 20
804.6177498159805
 30
0.0
 10
642.0009504782723
 20
804.5800511492887
 30
0.0
 10
641.6987220533651
 20
804.5311528836569
 30
0.0
 10
641.3763167935242
 20
804.4696440971505
 30
0.0
 10
641.0582682639242
 20
804.4004546830757
 30
0.0
 10
640.7247385900778
 20
804.3197317601183
 30
0.0
 10
640.3766379509962
 20
804.2270331090233
 30
0.0
 10
640.0149837423328
 20
804.1218564330111
 30
0.0
 10
639.66018800589
 20
804.0106775004435
 30
0.0
 10
639.3123925477086
 20
803.8945736195008
 30
0.0
 10
638.9686368900046
 20
803.7735284374928
 30
0.0
 10
638.629204814939
 20
803.6484978431654
 30
0.0
 10
638.2945012972395
 20
803.5200815290448
 30
0.0
 10
637.9679495382991
 20
803.3901739826547
 30
0.0
 10
637.6497812757176
 20
803.2594948128724
 30
0.0
 10
637.3575843731726
 20
803.1360924529777
 30
0.0
 10
637.0905320171587
 20
803.0208170551285
 30
0.0
 10
636.8479040238635
 20
802.9141620393616
 30
0.0
 10
636.6118672234843
 20
802.808653211715
 30
0.0
 10
636.3827025288508
 20
802.7046359529934
 30
0.0
 10
636.160690964303
 20
802.6024555978718
 30
0.0
 10
635.9537429826869
 20
802.5060126822253
 30
0.0
 10
635.7615430276796
 20
802.4155047290508
 30
0.0
 10
635.583784501981
 20
802.3310268249533
 30
0.0
 10
635.4125689243568
 20
802.2489594952369
 30
0.0
 10
635.2481272609207
 20
802.1695116586661
 30
0.0
 10
635.0906905249869
 20
802.0928921611721
 30
0.0
 10
634.9404897129932
 20
802.0193098794064
 30
0.0
 10
634.8013057760904
 20
801.9507227812452
 30
0.0
 10
634.6730405122757
 20
801.887207193753
 30
0.0
 10
634.5556809071877
 20
801.8288484773066
 30
0.0
 10
634.4457534656552
 20
801.7739837189508
 30
0.0
 10
634.3437203306727
 20
801.7228990573714
 30
0.0
 10
634.2492441658148
 20
801.6754788795078
 30
0.0
 10
634.1625188472836
 20
801.6318723928475
 30
0.0
 10
634.0833203852798
 20
801.5919872312435
 30
0.0
 10
634.0117950399367
 20
801.5559190384909
 30
0.0
 10
633.9471225090861
 20
801.5232803789822
 30
0.0
 10
633.8952943878671
 20
801.4971143374316
 30
0.0
 10
633.8549374703789
 20
801.476760688187
 30
0.0
 10
633.8253806950705
 20
801.4618484878226
 30
0.0
 10
633.7993844641696
 20
801.4488458036474
 30
0.0
 10
633.7785895043841
 20
801.4382797671713
 30
0.0
 10
633.762027584898
 20
801.4304639782265
 30
0.0
 10
633.7544596639482
 20
801.4261534993607
 30
0.0
 10
633.7463607978804
 20
801.4232340832841
 30
0.0
 10
633.7547284712466
 20
801.4275099018655
 30
0.0
 10
633.7581434769861
 20
801.4294384384086
 30
0.0
 10
633.7603786479535
 20
801.430649180774
 30
0.0
 10
633.7615506931501
 20
801.4312840521801
 30
0.0
 11
653.7959682031827
 21
797.1781480581042
 31
0.0
 11
653.7919477641206
 21
797.1844800700854
 31
0.0
 11
653.7864975850848
 21
797.1925903153756
 31
0.0
 11
653.778187926102
 21
797.204257027283
 31
0.0
 11
653.7655890471985
 21
797.2212584391166
 31
0.0
 11
653.7472712084011
 21
797.2453727841847
 31
0.0
 11
653.721224341374
 21
797.2791363544808
 31
0.0
 11
653.6881955806101
 21
797.3215460603873
 31
0.0
 11
653.6488157635761
 21
797.3717797338762
 31
0.0
 11
653.6037157277367
 21
797.4290152069193
 31
0.0
 11
653.5535263105587
 21
797.4924303114885
 31
0.0
 11
653.4825054228506
 21
797.5817494015788
 31
0.0
 11
653.4040875426853
 21
797.6798500750735
 31
0.0
 11
653.3182054171823
 21
797.7867063734188
 31
0.0
 11
653.2247917934612
 21
797.9022923380606
 31
0.0
 11
653.1192627977706
 21
798.0321140358274
 31
0.0
 11
653.0057987367302
 21
798.1708180494732
 31
0.0
 11
652.8847416046843
 21
798.3178060436995
 31
0.0
 11
652.7564333959774
 21
798.4724796832078
 31
0.0
 11
652.6183373835913
 21
798.6376640522299
 31
0.0
 11
652.4732292034034
 21
798.8097687290697
 31
0.0
 11
652.3212926528506
 21
798.9883324281673
 31
0.0
 11
652.1627115293697
 21
799.1728938639634
 31
0.0
 11
651.9736294241114
 21
799.3904874663327
 31
0.0
 11
651.7762806162779
 21
799.6145960764956
 31
0.0
 11
651.5708306825381
 21
799.8445088046609
 31
0.0
 11
651.3574451995609
 21
800.0795147610374
 31
0.0
 11
651.136289744015
 21
800.3189030558342
 31
0.0
 11
650.9007767143465
 21
800.5690070426365
 31
0.0
 11
650.6571130062442
 21
800.8221604653568
 31
0.0
 11
650.4051971235726
 21
801.0775265657037
 31
0.0
 11
650.1449275701963
 21
801.3342685853853
 31
0.0
 11
649.8762028499799
 21
801.5915497661105
 31
0.0
 11
649.6090268388232
 21
801.839231849998
 31
0.0
 11
649.333508232259
 21
802.0856300088742
 31
0.0
 11
649.0492547087556
 21
802.3297368250096
 31
0.0
 11
648.7558739467817
 21
802.5705448806756
 31
0.0
 11
648.5089073975865
 21
802.7642506715148
 31
0.0
 11
648.255392592615
 21
802.9541554487698
 31
0.0
 11
647.9951472651486
 21
803.1393378575059
 31
0.0
 11
647.7279891484689
 21
803.318876542787
 31
0.0
 11
647.4537359758573
 21
803.4918501496786
 31
0.0
 11
647.2281598331301
 21
803.6254107854743
 31
0.0
 11
646.9978925218134
 21
803.7535198849389
 31
0.0
 11
646.7629398112829
 21
803.8755578141593
 31
0.0
 11
646.5233074709133
 21
803.9909049392214
 31
0.0
 11
646.2730180935278
 21
804.1015013084877
 31
0.0
 11
646.0181685573849
 21
804.203828456672
 31
0.0
 11
645.7591042177334
 21
804.2972899326928
 31
0.0
 11
645.4961704298214
 21
804.3812892854683
 31
0.0
 11
645.2356988372128
 21
804.4537728286318
 31
0.0
 11
644.9724337334488
 21
804.5164952663489
 31
0.0
 11
644.7069511486134
 21
804.5693129410909
 31
0.0
 11
644.4398271127897
 21
804.6120821953292
 31
0.0
 11
644.2179016870306
 21
804.639825240379
 31
0.0
 11
643.9955448895796
 21
804.6607861114903
 31
0.0
 11
643.7730551977274
 21
804.6751645493392
 31
0.0
 11
643.5507310887647
 21
804.6831602946017
 31
0.0
 11
643.3288710399822
 21
804.6849730879537
 31
0.0
 11
643.0647696801944
 21
804.6793438235496
 31
0.0
 11
642.8020312405399
 21
804.6657123978541
 31
0.0
 11
642.5409300081269
 21
804.6446185528822
 31
0.0
 11
642.2817402700634
 21
804.6166020306486
 31
0.0
 11
642.024736313458
 21
804.5822025731676
 31
0.0
 11
641.6981287074968
 21
804.529480349973
 31
0.0
 11
641.3757143293758
 21
804.4680926134533
 31
0.0
 11
641.0576259674332
 21
804.3990182695243
 31
0.0
 11
640.7439964100079
 21
804.3232362241022
 31
0.0
 11
640.3755653236865
 21
804.2252421987655
 31
0.0
 11
640.0138234603287
 21
804.1201599153873
 31
0.0
 11
639.6589152073965
 21
804.0090669149984
 31
0.0
 11
639.310984952351
 21
803.8930407386285
 31
0.0
 11
638.9701770826534
 21
803.7731589273086
 31
0.0
 11
638.6274225064775
 21
803.6469626475035
 31
0.0
 11
638.2925794784014
 21
803.5185508461902
 31
0.0
 11
637.9658804582316
 21
803.3886437243686
 31
0.0
 11
637.6475579057737
 21
803.2579614830386
 31
0.0
 11
637.3378442808346
 21
803.1272243232002
 31
0.0
 11
637.088785727775
 21
803.0197315563646
 31
0.0
 11
636.8460363979624
 21
802.9130380216214
 31
0.0
 11
636.6098772880468
 21
802.807489348764
 31
0.0
 11
636.3805893946783
 21
802.7034311675866
 31
0.0
 11
636.1584537145071
 21
802.6012091078832
 31
0.0
 11
635.943751244183
 21
802.501168799447
 31
0.0
 11
635.7595907634244
 21
802.4144503768403
 31
0.0
 11
635.5817420902247
 21
802.3299332202048
 31
0.0
 11
635.4104361762613
 21
802.247826343944
 31
0.0
 11
635.2459039732122
 21
802.1683387624604
 31
0.0
 11
635.0883764327554
 21
802.0916794901582
 31
0.0
 11
634.9380845065681
 21
802.0180575414396
 31
0.0
 11
634.7952591463284
 21
801.9476819307079
 31
0.0
 11
634.6707671757886
 21
801.8860372282849
 31
0.0
 11
634.5532452143464
 21
801.8276002065305
 31
0.0
 11
634.4431553167224
 21
801.7726571788869
 31
0.0
 11
634.3409595376374
 21
801.721494458797
 31
0.0
 11
634.2471199318126
 21
801.6743983597033
 31
0.0
 11
634.1597030835898
 21
801.6304443683995
 31
0.0
 11
634.0807731884843
 21
801.5906952983698
 31
0.0
 11
634.009514749259
 21
801.5547641101676
 31
0.0
 11
633.9451122686769
 21
801.5222637643465
 31
0.0
 11
633.8867502495007
 21
801.4928072214595
 31
0.0
 11
633.8539959909991
 21
801.4762847998603
 31
0.0
 11
633.8240864196707
 21
801.4612187806264
 31
0.0
 11
633.7979277135369
 21
801.4480798827444
 31
0.0
 11
633.7764260506182
 21
801.4373388252008
 31
0.0
 11
633.7604876089357
 21
801.429466326982
 31
0.0
 11
633.7510185665103
 21
801.4249331070746
 31
0.0
 11
633.7489251013628
 21
801.4242098844647
 31
0.0
 11
633.7551133915142
 21
801.4277673781389
 31
0.0
 11
633.7581732531635
 21
801.4294435991462
 31
0.0
 11
633.7615506931501
 21
801.4312840521801
 31
0.0
  0
SPLINE
  5
3A2
330
85
100
AcDbEntity
  8
0
  6
Continuous
 62
     7
100
AcDbSpline
210
0.0
220
0.0
230
1.0
 70
     8
 71
     3
 72
    69
 73
    65
 74
    63
 42
0.000000001
 43
0.0000000001
 44
0.00000001
 40
0.0
 40
0.0
 40
0.0
 40
0.0
 40
0.0223043361400994
 40
0.0583467145993965
 40
0.1219060659779588
 40
0.2174224882611041
 40
0.345127915977172
 40
0.5000023544890662
 40
0.6825667580193034
 40
0.888199885167535
 40
1.116699665190045
 40
1.450385020742241
 40
1.8196317893345
 40
2.220980461507252
 40
2.663940606439688
 40
3.134770268775831
 40
3.631032115163835
 40
4.297226303030835
 40
4.996934804765641
 40
5.726311167097578
 40
6.50377913866182
 40
7.305843580011778
 40
8.129883535159706
 40
9.148809750731024
 40
10.19311644914414
 40
10.91933004601057
 40
11.65470603187555
 40
12.39794059748264
 40
12.92072254431007
 40
13.44627077895618
 40
13.97407115597106
 40
14.51740944845529
 40
15.06165205167577
 40
15.60582117482222
 40
16.1359750375735
 40
16.66425176127647
 40
17.18964266163927
 40
17.72838152087084
 40
18.26207779666528
 40
18.78971930339683
 40
19.50444010078549
 40
20.203961172054
 40
20.8999731371773
 40
21.57650451364735
 40
22.35067292476232
 40
23.0920039976234
 40
23.57579754948551
 40
24.04185870739707
 40
24.48909213845706
 40
24.98738374522944
 40
25.45664298041249
 40
25.89518164124962
 40
26.31254564365456
 40
26.69197368032211
 40
27.0299187667381
 40
27.31046292762111
 40
27.5528983975783
 40
27.75984078430078
 40
27.89635930171059
 40
28.00537806141753
 40
28.0792646622029
 40
28.1104035212247
 40
28.11458164961252
 40
28.1289903750676
 40
28.1289903750676
 40
28.1289903750676
 40
28.1289903750676
 10
764.0969673379612
 20
799.2722603947391
 30
0.0
 10
764.1013799498147
 20
799.2662758386742
 30
0.0
 10
764.1129230738434
 20
799.2506206336127
 30
0.0
 10
764.1355185844787
 20
799.2168324378977
 30
0.0
 10
764.170673967928
 20
799.1621161486646
 30
0.0
 10
764.2215304244502
 20
799.0811696427096
 30
0.0
 10
764.2880681488058
 20
798.9741338208678
 30
0.0
 10
764.3694110989319
 20
798.84213591959
 30
0.0
 10
764.4638635543586
 20
798.6877063172719
 30
0.0
 10
764.5704921035967
 20
798.5119569341452
 30
0.0
 10
764.7024525850504
 20
798.2926587713449
 30
0.0
 10
764.8613730796667
 20
798.0259354898994
 30
0.0
 10
765.0480791643145
 20
797.7087050226567
 30
0.0
 10
765.2511987496899
 20
797.3588768658647
 30
0.0
 10
765.4688285602829
 20
796.9783285611079
 30
0.0
 10
765.6991063549831
 20
796.568581062937
 30
0.0
 10
765.9619075918858
 20
796.0917741869171
 30
0.0
 10
766.2558766968776
 20
795.5450585677531
 30
0.0
 10
766.5782922537709
 20
794.9254766492104
 30
0.0
 10
766.9077291252172
 20
794.267825662635
 30
0.0
 10
767.2402784385143
 20
793.573689684998
 30
0.0
 10
767.5710718464827
 20
792.8438976221798
 30
0.0
 10
767.9153669157918
 20
792.0321224871734
 30
0.0
 10
768.2639431266856
 20
791.1348104442774
 30
0.0
 10
768.5650868059103
 20
790.2547651223231
 30
0.0
 10
768.8035240060557
 20
789.4540525056382
 30
0.0
 10
768.9870270277976
 20
788.7421951696492
 30
0.0
 10
769.1265800129709
 20
788.089589930127
 30
0.0
 10
769.2285169436074
 20
787.5010605607536
 30
0.0
 10
769.3003680846265
 20
786.980507701519
 30
0.0
 10
769.3538199626425
 20
786.4508427925
 30
0.0
 10
769.3867371048357
 20
785.9132402838043
 30
0.0
 10
769.3976712109227
 20
785.3692768736595
 30
0.0
 10
769.3855810929879
 20
784.8297185924448
 30
0.0
 10
769.3502806987262
 20
784.2965210290108
 30
0.0
 10
769.2929803703371
 20
783.7715405285691
 30
0.0
 10
769.2130708538785
 20
783.2466260519874
 30
0.0
 10
769.1102493913199
 20
782.7238685517938
 30
0.0
 10
768.9855168402522
 20
782.2051466462917
 30
0.0
 10
768.8242127868717
 20
781.6353763574637
 30
0.0
 10
768.6196997578188
 20
781.0209321114365
 30
0.0
 10
768.3657420284724
 20
780.3647034734529
 30
0.0
 10
768.0884745804885
 20
779.7318879912293
 30
0.0
 10
767.7755818561756
 20
779.0881744678081
 30
0.0
 10
767.4314193264904
 20
778.443416804185
 30
0.0
 10
767.0966421056145
 20
777.8670313932087
 30
0.0
 10
766.8010760783209
 20
777.3869622554694
 30
0.0
 10
766.5495081505608
 20
776.9950304726639
 30
0.0
 10
766.2886840100217
 20
776.6033856254106
 30
0.0
 10
766.0209918676507
 20
776.2151026690369
 30
0.0
 10
765.7489097888507
 20
775.8334444816768
 30
0.0
 10
765.4874974428922
 20
775.4773626152564
 30
0.0
 10
765.239836586935
 20
775.148390498873
 30
0.0
 10
765.0090291507856
 20
774.8486736895054
 30
0.0
 10
764.8036099076618
 20
774.5871774676962
 30
0.0
 10
764.6243820529188
 20
774.3626324379048
 30
0.0
 10
764.4717147438544
 20
774.1744207363856
 30
0.0
 10
764.3461751037308
 20
774.0213393415195
 30
0.0
 10
764.2532836515697
 20
773.9104609028134
 30
0.0
 10
764.1763733249898
 20
773.81640698865
 30
0.0
 10
764.1475360486666
 20
773.7878043337541
 30
0.0
 10
764.1012339376641
 20
773.7276321042011
 30
0.0
 10
764.1089488402741
 20
773.7449002850844
 30
0.0
 10
764.1127340024642
 20
773.7494961194441
 30
0.0
 10
764.1156682952602
 20
773.7530588627332
 30
0.0
 11
764.0969673379612
 21
799.2722603947391
 31
0.0
 11
764.1100987249695
 21
799.2542312506409
 31
0.0
 11
764.1303507346925
 21
799.2244166706352
 31
0.0
 11
764.1648439898445
 21
799.1710312188145
 31
0.0
 11
764.2157668057756
 21
799.0902212339209
 31
0.0
 11
764.2832231924634
 21
798.9817854835354
 31
0.0
 11
764.3645009233906
 21
798.8499521732801
 31
0.0
 11
764.459763801167
 21
798.6942128257832
 31
0.0
 11
764.5664372577859
 21
798.5184124986353
 31
0.0
 11
764.6842593535141
 21
798.322631743597
 31
0.0
 11
764.8550609234912
 21
798.0359738608352
 31
0.0
 11
765.0423508962441
 21
797.7177512296233
 31
0.0
 11
765.2438724621488
 21
797.3706636101474
 31
0.0
 11
765.463750980649
 21
796.9861286606002
 31
0.0
 11
765.6944009748431
 21
796.5756641050725
 31
0.0
 11
765.9339210226493
 21
796.1410309643024
 31
0.0
 11
766.2492905043705
 21
795.5542117534958
 31
0.0
 11
766.5721587372866
 21
794.9334476342407
 31
0.0
 11
766.8986883222415
 21
794.2812449753757
 31
0.0
 11
767.2342855236519
 21
793.5799383624342
 31
0.0
 11
767.5650965942947
 21
792.8492733203354
 31
0.0
 11
767.8865216880399
 21
792.0905060589785
 31
0.0
 11
768.2544530153033
 21
791.1403286169434
 31
0.0
 11
768.5915384649593
 21
790.1519208670134
 31
0.0
 11
768.7983502036874
 21
789.4557778550843
 31
0.0
 11
768.9814355684767
 21
788.7435576715451
 31
0.0
 11
769.1363537892059
 21
788.0166477978701
 31
0.0
 11
769.2254107050894
 21
787.5015072057193
 31
0.0
 11
769.2970899522996
 21
786.9808700648283
 31
0.0
 11
769.3498930170493
 21
786.4557176352016
 31
0.0
 11
769.3830062977587
 21
785.9133893114625
 31
0.0
 11
769.3938153562549
 21
785.3692540567512
 31
0.0
 11
769.3814639210058
 21
784.8252251267904
 31
0.0
 11
769.3464814504168
 21
784.2962266911231
 31
0.0
 11
769.2891670916737
 21
783.771068275898
 31
0.0
 11
769.2100651770186
 21
783.2516662300101
 31
0.0
 11
769.1062433716855
 21
782.7230259069446
 31
0.0
 11
768.9815916637205
 21
782.204090779512
 31
0.0
 11
768.8379552423311
 21
781.696376156854
 31
0.0
 11
768.612670921682
 21
781.0180894969094
 31
0.0
 11
768.3605974748086
 21
780.365564626502
 31
0.0
 11
768.0816528894774
 21
779.727894983285
 31
0.0
 11
767.786262950237
 21
779.1192575812805
 31
0.0
 11
767.4221343287059
 21
778.4360686793505
 31
0.0
 11
767.0502340629057
 21
777.7947715938559
 31
0.0
 11
766.7966716792224
 21
777.3827493633929
 31
0.0
 11
766.5449982243372
 21
776.9904822668719
 31
0.0
 11
766.2971796675876
 21
776.6181870818605
 31
0.0
 11
766.0143971963005
 21
776.2079083969317
 31
0.0
 11
765.7420518718249
 21
775.8257667294355
 31
0.0
 11
765.4825983777005
 21
775.4722132802476
 31
0.0
 11
765.2315927178865
 21
775.1387633301159
 31
0.0
 11
765.0001005237302
 21
774.8381356549879
 31
0.0
 11
764.7913633122403
 21
774.5723619580737
 31
0.0
 11
764.6163018355948
 21
774.3531394555789
 31
0.0
 11
764.4636223394581
 21
774.1648207667752
 31
0.0
 11
764.3322045191483
 21
774.004962992715
 31
0.0
 11
764.2449447287655
 21
773.8999723522834
 31
0.0
 11
764.1748055029512
 21
773.8165123081276
 31
0.0
 11
764.1267404413765
 21
773.7603965382145
 31
0.0
 11
764.1057031437115
 21
773.7374387205114
 31
0.0
 11
764.1074071253146
 21
773.7412535848757
 31
0.0
 11
764.1156682952602
 21
773.7530588627332
 31
0.0
  0
SPLINE
  5
3A3
330
85
100
AcDbEntity
  8
0
  6
Continuous
 62
     7
100
AcDbSpline
210
0.0
220
0.0
230
1.0
 70
     8
 71
     3
 72
    17
 73
    13
 74
    11
 42
0.000000001
 43
0.0000000001
 44
0.00000001
 40
0.0
 40
0.0
 40
0.0
 40
0.0
 40
0.8378680591888947
 40
1.677484415489737
 40
2.544086701897137
 40
3.422172934960658
 40
4.293838706251515
 40
5.178931105963166
 40
6.113457730798673
 40
7.057470468886479
 40
7.755757098890692
 40
8.456558469648593
 40
8.456558469648593
 40
8.456558469648593
 40
8.456558469648593
 10
351.9175893841868
 20
777.5546478569853
 30
0.0
 10
351.7411731851492
 20
777.7711635529076
 30
0.0
 10
351.3879726880926
 20
778.2046467359539
 30
0.0
 10
350.8851614033546
 20
778.8886498788104
 30
0.0
 10
350.4456989751344
 20
779.6312607961295
 30
0.0
 10
350.0694569225133
 20
780.4190879080633
 30
0.0
 10
349.7531514037183
 20
781.2393410126738
 30
0.0
 10
349.4946311680965
 20
782.099253109963
 30
0.0
 10
349.2971765395321
 20
783.0000437952631
 30
0.0
 10
349.18738447886
 20
783.8534084003982
 30
0.0
 10
349.1554218039871
 20
784.6342270210112
 30
0.0
 10
349.1533895395577
 20
785.1005847696833
 30
0.0
 10
349.1523715882188
 20
785.3341827631343
 30
0.0
 11
351.9175893841868
 21
777.5546478569853
 31
0.0
 11
351.3937454576883
 21
778.2085671384505
 31
0.0
 11
350.9018936409241
 21
778.8890356660233
 31
0.0
 11
350.4589496402098
 21
779.6338847354247
 31
0.0
 11
350.0790021597035
 21
780.4255130231725
 31
0.0
 11
349.7651384394047
 21
781.2387108976916
 31
0.0
 11
349.5099752424842
 21
782.0862250864847
 31
0.0
 11
349.3112621310231
 21
782.9993806664546
 31
0.0
 11
349.1926326631194
 21
783.9359099507675
 31
0.0
 11
349.159704025309
 21
784.6334197521664
 31
0.0
 11
349.1523715882188
 21
785.3341827631343
 31
0.0
  0
SPLINE
  5
3A4
330
85
100
AcDbEntity
  8
0
  6
Continuous
 62
     7
100
AcDbSpline
210
0.0
220
0.0
230
1.0
 70
     8
 71
     3
 72
    25
 73
    21
 74
    19
 42
0.000000001
 43
0.0000000001
 44
0.00000001
 40
0.0
 40
0.0
 40
0.0
 40
0.0
 40
0.7634551701043409
 40
1.487530931595407
 40
2.141066041629057
 40
2.719891168372943
 40
3.081147196763439
 40
3.3994943582608
 40
3.667558603280761
 40
3.878364454183086
 40
3.992144616579544
 40
4.076493542562102
 40
4.143202462818587
 40
4.219998459027845
 40
4.332494646096714
 40
4.482560941532612
 40
4.66801867382064
 40
4.905311108797823
 40
5.011316909386283
 40
5.1226539752726
 40
5.1226539752726
 40
5.1226539752726
 40
5.1226539752726
 10
355.5673284670895
 20
802.4718462020503
 30
0.0
 10
355.337043876369
 20
802.5801453392381
 30
0.0
 10
354.8883528938336
 20
802.7911574924403
 30
0.0
 10
354.2491175679364
 20
803.1090318733567
 30
0.0
 10
353.6816198508305
 20
803.4309498920647
 30
0.0
 10
353.2303818517061
 20
803.7113603086314
 30
0.0
 10
352.8767703166239
 20
803.9369569376747
 30
0.0
 10
352.6098346753992
 20
804.1060107366125
 30
0.0
 10
352.3823182579026
 20
804.2430137182201
 30
0.0
 10
352.2067040202288
 20
804.3350785309035
 30
0.0
 10
352.0777208437325
 20
804.3794926286066
 30
0.0
 10
351.987912801482
 20
804.3899408388972
 30
0.0
 10
351.9138890786596
 20
804.3540703733868
 30
0.0
 10
351.8846160616392
 20
804.267533356196
 30
0.0
 10
351.8900761548502
 20
804.1546224899485
 30
0.0
 10
351.9152859269924
 20
804.0070081178209
 30
0.0
 10
351.9631173957215
 20
803.8219376281572
 30
0.0
 10
352.0268869183664
 20
803.6571314255466
 30
0.0
 10
352.090544670417
 20
803.5196161074654
 30
0.0
 10
352.1219994344742
 20
803.4543503367254
 30
0.0
 10
352.1381126000172
 20
803.4209169909703
 30
0.0
 11
355.5673284670895
 21
802.4718462020503
 31
0.0
 11
354.8776797302359
 21
802.7993342199298
 31
0.0
 11
354.2312889574654
 21
803.125623473559
 31
0.0
 11
353.6623450537189
 21
803.4471992411544
 31
0.0
 11
353.1695458321458
 21
803.750823111866
 31
0.0
 11
352.8645822176236
 21
803.9444803155874
 31
0.0
 11
352.595029699672
 21
804.1138507888064
 31
0.0
 11
352.3643369595414
 21
804.2503766180461
 31
0.0
 11
352.1753394259698
 21
804.3437524229629
 31
0.0
 11
352.0668897366947
 21
804.3781703063729
 31
0.0
 11
351.9826012878305
 21
804.3813638851386
 31
0.0
 11
351.9236945164695
 21
804.3500577758863
 31
0.0
 11
351.8927621869927
 21
804.2797668367964
 31
0.0
 11
351.8914083167055
 21
804.1672787965636
 31
0.0
 11
351.9151223106867
 21
804.0190980300648
 31
0.0
 11
351.9618075529602
 21
803.8396124911068
 31
0.0
 11
352.0459051458723
 21
803.6177222147926
 31
0.0
 11
352.0900414334967
 21
803.521341625958
 31
0.0
 11
352.1381126000172
 21
803.4209169909703
 31
0.0
  0
SPLINE
  5
3A5
330
85
100
AcDbEntity
  8
0
  6
Continuous
 62
     7
100
AcDbSpline
210
0.0
220
0.0
230
1.0
 70
     8
 71
     3
 72
    45
 73
    41
 74
    39
 42
0.000000001
 43
0.0000000001
 44
0.00000001
 40
0.0
 40
0.0
 40
0.0
 40
0.0
 40
0.1357204665149374
 40
0.2643647551726676
 40
0.4918544541625299
 40
0.6691231745494025
 40
0.8054851264681375
 40
0.9023657349956253
 40
0.9706510808615517
 40
1.040680372459184
 40
1.164953498710727
 40
1.340614943307867
 40
1.564849513040713
 40
1.83237056436563
 40
2.315219215788706
 40
2.875675019081057
 40
3.504045616642724
 40
4.193863228968937
 40
4.958861924133199
 40
5.781123061472164
 40
6.656597197012134
 40
7.582937544097994
 40
8.238247575550012
 40
8.912941826124086
 40
9.603847986813022
 40
10.308145802485
 40
11.02557519615477
 40
11.74845800213488
 40
12.47195101741015
 40
13.1911736186152
 40
13.85134086839517
 40
14.50094730531127
 40
15.13757312324014
 40
15.75826078430567
 40
16.40468621859861
 40
17.0293539210257
 40
17.63148170246373
 40
18.20737607371658
 40
18.40637442103241
 40
18.60347756446427
 40
18.60347756446427
 40
18.60347756446427
 40
18.60347756446427
 10
372.1380907325638
 20
803.4547947809443
 30
0.0
 10
372.1570872988935
 20
803.4958535725705
 30
0.0
 10
372.194089986653
 20
803.5758304392316
 30
0.0
 10
372.2604949424452
 20
803.7257471667344
 30
0.0
 10
372.322884004261
 20
803.8924943131885
 30
0.0
 10
372.3689539218713
 20
804.0673667580274
 30
0.0
 10
372.3882251099232
 20
804.2028934000357
 30
0.0
 10
372.3861928334541
 20
804.3048292575354
 30
0.0
 10
372.3411872677862
 20
804.3777009664691
 30
0.0
 10
372.2475826201038
 20
804.3920276740572
 30
0.0
 10
372.1297325411545
 20
804.352127453071
 30
0.0
 10
371.9732110954158
 20
804.2743038495396
 30
0.0
 10
371.782431148484
 20
804.1595149986265
 30
0.0
 10
371.5086015169435
 20
803.9847928939956
 30
0.0
 10
371.1416502152683
 20
803.7475468927729
 30
0.0
 10
370.6689952565031
 20
803.4523507491418
 30
0.0
 10
370.128138615375
 20
803.1364660581471
 30
0.0
 10
369.5146662742364
 20
802.8106304518424
 30
0.0
 10
368.8272061120427
 20
802.488097343956
 30
0.0
 10
368.0668860109095
 20
802.1776128234981
 30
0.0
 10
367.2405289646206
 20
801.8896039700306
 30
0.0
 10
366.4527142368734
 20
801.6637871891528
 30
0.0
 10
365.7200469956916
 20
801.4930171620806
 30
0.0
 10
365.0582407658415
 20
801.3663668885907
 30
0.0
 10
364.3757913835461
 20
801.2635636543266
 30
0.0
 10
363.6755059414396
 20
801.1873217242555
 30
0.0
 10
362.9619387988854
 20
801.1407064241172
 30
0.0
 10
362.2406734222691
 20
801.1235834266852
 30
0.0
 10
361.5187116892446
 20
801.1358151619403
 30
0.0
 10
360.818729616779
 20
801.1767202090265
 30
0.0
 10
360.145605069278
 20
801.2442828299999
 30
0.0
 10
359.5028554851861
 20
801.3337860267214
 30
0.0
 10
358.8768181374134
 20
801.4446849084356
 30
0.0
 10
358.2563650627754
 20
801.5785475530853
 30
0.0
 10
357.6454960908604
 20
801.7357184246824
 30
0.0
 10
357.0470941401922
 20
801.914540523019
 30
0.0
 10
356.4778137926384
 20
802.1072785309557
 30
0.0
 10
356.0487952218389
 20
802.270854021798
 30
0.0
 10
355.7494376780634
 20
802.3948044233443
 30
0.0
 10
355.6278375979604
 20
802.4462476506152
 30
0.0
 10
355.5673284670895
 20
802.4718462020503
 30
0.0
 11
372.1380907325638
 21
803.4547947809443
 31
0.0
 11
372.1947349111906
 21
803.5781296286362
 31
0.0
 11
372.246311347056
 21
803.6959821820598
 31
0.0
 11
372.3246888296478
 21
803.9095437270705
 31
0.0
 11
372.3686098335869
 21
804.0812852323397
 31
0.0
 11
372.3857987131638
 21
804.2165594882854
 31
0.0
 11
372.3755090712197
 21
804.3128921181305
 31
0.0
 11
372.335954556835
 21
804.368554753273
 31
0.0
 11
372.2678761212715
 21
804.3849690348247
 31
0.0
 11
372.1471285403809
 21
804.3555780086435
 31
0.0
 11
371.9887000723367
 21
804.2797007128936
 31
0.0
 11
371.7953038030957
 21
804.1662149191702
 31
0.0
 11
371.5691988571169
 21
804.0232321709738
 31
0.0
 11
371.1627488339846
 21
803.7625768453828
 31
0.0
 11
370.6868359102494
 21
803.466574148868
 31
0.0
 11
370.1438550552026
 21
803.1503125501519
 31
0.0
 11
369.5343801035175
 21
802.8272202700718
 31
0.0
 11
368.8419773388855
 21
802.5019489755397
 31
0.0
 11
368.0808519227988
 21
802.19081961516
 31
0.0
 11
367.2541180396405
 21
801.9027813392817
 31
0.0
 11
366.3635964720139
 21
801.6476778775793
 31
0.0
 11
365.7254485585689
 21
801.4986863413627
 31
0.0
 11
365.0628089188226
 21
801.371717685495
 31
0.0
 11
364.3795999405385
 21
801.2688740427709
 31
0.0
 11
363.6794223664887
 21
801.1928031683314
 31
0.0
 11
362.9635366878574
 21
801.1457645670146
 31
0.0
 11
362.2408603649213
 21
801.1284878939734
 31
0.0
 11
361.5174729282807
 21
801.1408474911631
 31
0.0
 11
360.7994902511684
 21
801.1830615342006
 31
0.0
 11
360.1426097811766
 21
801.2488554990287
 31
0.0
 11
359.499201246593
 21
801.3383763373238
 31
0.0
 11
358.8723543936668
 21
801.449531431706
 31
0.0
 11
358.2656672904825
 21
801.580618926917
 31
0.0
 11
357.6396065178934
 21
801.741596413199
 31
0.0
 11
357.0410565687901
 21
801.9203355998143
 31
0.0
 11
356.4708341174835
 21
802.1137373089383
 31
0.0
 11
355.9329005173034
 21
802.3193626195534
 31
0.0
 11
355.7489529678525
 21
802.3952812683945
 31
0.0
 11
355.5673284670895
 21
802.4718462020503
 31
0.0
  0
SPLINE
  5
3A6
330
85
100
AcDbEntity
  8
0
  6
Continuous
 62
     7
100
AcDbSpline
210
0.0
220
0.0
230
1.0
 70
     8
 71
     3
 72
    19
 73
    15
 74
    13
 42
0.000000001
 43
0.0000000001
 44
0.00000001
 40
0.0
 40
0.0
 40
0.0
 40
0.0
 40
0.3825241400938886
 40
0.7649205982301802
 40
1.464784712728946
 40
2.164930449972762
 40
2.864984231873909
 40
3.564298060995536
 40
4.263025762298514
 40
4.961889546681146
 40
5.660562127876253
 40
6.357497632704767
 40
6.793448043293693
 40
7.229588622200979
 40
7.229588622200979
 40
7.229588622200979
 40
7.229588622200979
 10
362.1849346189385
 20
826.8253690094093
 30
0.0
 10
362.057446919422
 20
826.8230719760274
 30
0.0
 10
361.8025140745551
 20
826.8184786614548
 30
0.0
 10
361.3145093722582
 20
826.8009183735143
 30
0.0
 10
360.7221702026834
 20
826.7493649116815
 30
0.0
 10
360.0292106982056
 20
826.64793549347
 30
0.0
 10
359.3425897448207
 20
826.5109278234855
 30
0.0
 10
358.664896342728
 20
826.3366237534449
 30
0.0
 10
357.998870800955
 20
826.1233414731485
 30
0.0
 10
357.3452322446627
 20
825.8755956967924
 30
0.0
 10
356.7043251110458
 20
825.5979638276558
 30
0.0
 10
356.1609442002425
 20
825.3180187952564
 30
0.0
 10
355.7142363248952
 20
825.0456803080493
 30
0.0
 10
355.4703027278939
 20
824.8875635959204
 30
0.0
 10
355.3483093372172
 20
824.8084879942584
 30
0.0
 11
362.1849346189385
 21
826.8253690094093
 31
0.0
 11
361.802494890988
 21
826.8173333257322
 31
0.0
 11
361.4203887216838
 21
826.8024361223321
 31
0.0
 11
360.7230876605807
 21
826.7425945880437
 31
0.0
 11
360.030207036119
 21
826.6419939227742
 31
0.0
 11
359.3437605200527
 21
826.5046386224242
 31
0.0
 11
358.6665893188305
 21
826.330056273971
 31
0.0
 11
358.0009442978335
 21
826.1176013204254
 31
0.0
 11
357.3472037194854
 21
825.8705510288821
 31
0.0
 11
356.7070543392572
 21
825.590636491444
 31
0.0
 11
356.0886493167467
 21
825.2692421429203
 31
0.0
 11
355.7153785021534
 21
825.0440274458468
 31
0.0
 11
355.3483093372172
 21
824.8084879942584
 31
0.0
  0
SPLINE
  5
3A7
330
85
100
AcDbEntity
  8
0
  6
Continuous
 62
     7
100
AcDbSpline
210
0.0
220
0.0
230
1.0
 70
     8
 71
     3
 72
    21
 73
    17
 74
    15
 42
0.000000001
 43
0.0000000001
 44
0.00000001
 40
0.0
 40
0.0
 40
0.0
 40
0.0
 40
0.1623071236232628
 40
0.3245817870853732
 40
1.019834220520547
 40
1.717629476926602
 40
2.415411723555135
 40
3.112778942294552
 40
3.811206508956985
 40
4.510385615046576
 40
5.209859741578496
 40
5.909676576242387
 40
6.610037982646819
 40
7.310173407014876
 40
7.68205181863437
 40
8.054019825226995
 40
8.054019825226995
 40
8.054019825226995
 40
8.054019825226995
 10
369.7021681098827
 20
824.3471475780353
 30
0.0
 10
369.6599258407244
 20
824.380950914466
 30
0.0
 10
369.5754497416757
 20
824.4485508158227
 30
0.0
 10
369.3070625150718
 20
824.6572323711728
 30
0.0
 10
368.8744860130244
 20
824.9449089360083
 30
0.0
 10
368.2654664452073
 20
825.2842624189589
 30
0.0
 10
367.643290080987
 20
825.6002817977574
 30
0.0
 10
367.0059719356744
 20
825.8854982904804
 30
0.0
 10
366.352341857097
 20
826.1324766696137
 30
0.0
 10
365.6851167979721
 20
826.3421101856036
 30
0.0
 10
365.0070002776228
 20
826.5150947514537
 30
0.0
 10
364.3202227714993
 20
826.6515790384206
 30
0.0
 10
363.6270006975141
 20
826.7518538670432
 30
0.0
 10
363.0379030620564
 20
826.802010183279
 30
0.0
 10
362.5568162696035
 20
826.8188246048958
 30
0.0
 10
362.3089051227441
 20
826.8231873708945
 30
0.0
 10
362.1849346189385
 20
826.8253690094093
 30
0.0
 11
369.7021681098827
 21
824.3471475780353
 31
0.0
 11
369.5752054318876
 21
824.4482617762693
 31
0.0
 11
369.4468655838256
 21
824.547569127415
 31
0.0
 11
368.8706286720185
 21
824.9365768035549
 31
0.0
 11
368.2633720553104
 21
825.2803174309777
 31
0.0
 11
367.640673927407
 21
825.5951937655459
 31
0.0
 11
367.0036525680308
 21
825.878962734376
 31
0.0
 11
366.3504230632263
 21
826.1261312646998
 31
0.0
 11
365.6834702222234
 21
826.335953408514
 31
0.0
 11
365.005732339351
 21
826.5089719488782
 31
0.0
 11
364.3193636769987
 21
826.6455064058645
 31
0.0
 11
363.6261131937378
 21
826.7450547021348
 31
0.0
 11
362.92843690427
 21
826.8036840945821
 31
0.0
 11
362.5568245678023
 21
826.8177490952668
 31
0.0
 11
362.1849346189385
 21
826.8253690094093
 31
0.0
  0
SPLINE
  5
3A8
330
85
100
AcDbEntity
  8
0
  6
Continuous
 62
     7
100
AcDbSpline
210
0.0
220
0.0
230
1.0
 70
     8
 71
     3
 72
    41
 73
    37
 74
    35
 42
0.000000001
 43
0.0000000001
 44
0.00000001
 40
0.0
 40
0.0
 40
0.0
 40
0.0
 40
0.1596628737076202
 40
0.3192065992065137
 40
1.112775623990596
 40
1.903526313493099
 40
2.710870172258217
 40
3.506328814958746
 40
4.227043428666358
 40
4.939329092144975
 40
5.65759558269474
 40
6.369133116327909
 40
7.206671996479617
 40
8.040974330011576
 40
8.891814443907352
 40
9.74550708071632
 40
10.75250319208153
 40
11.77038615214735
 40
12.83226062145986
 40
13.90890385540031
 40
14.94631141826692
 40
15.99572845305652
 40
17.0937228049634
 40
18.19852278754651
 40
19.15414470110386
 40
20.10892266275998
 40
21.08941730380301
 40
22.06359208346417
 40
22.97784898737729
 40
23.882638996889
 40
24.79938602732876
 40
25.70637818928365
 40
26.71441823043285
 40
27.70949586534671
 40
28.72220462248616
 40
29.73330143174706
 40
29.73330143174706
 40
29.73330143174706
 40
29.73330143174706
 10
374.1223777859098
 20
784.8443629682404
 30
0.0
 10
374.1238753864678
 20
784.7911629457361
 30
0.0
 10
374.1268694569258
 20
784.6848026008341
 30
0.0
 10
374.1321763480528
 20
784.3138906255525
 30
0.0
 10
374.0921186471132
 20
783.732377212873
 30
0.0
 10
373.9643955023195
 20
782.9450472873743
 30
0.0
 10
373.7991615543731
 20
782.164145397097
 30
0.0
 10
373.5915950479251
 20
781.417258022872
 30
0.0
 10
373.3399761968285
 20
780.7176952698037
 30
0.0
 10
373.0520056234628
 20
780.0604153142617
 30
0.0
 10
372.7232590441176
 20
779.4259794045012
 30
0.0
 10
372.3315658008621
 20
778.778988270203
 30
0.0
 10
371.8714321128342
 20
778.1303200447286
 30
0.0
 10
371.3328387697664
 20
777.483499260559
 30
0.0
 10
370.7427381381727
 20
776.8757336608134
 30
0.0
 10
370.0652749169728
 20
776.2761888331329
 30
0.0
 10
369.2970926435717
 20
775.6992193271174
 30
0.0
 10
368.4241561843949
 20
775.1523330520832
 30
0.0
 10
367.4878760706475
 20
774.6696585143196
 30
0.0
 10
366.5088565804879
 20
774.2637213886189
 30
0.0
 10
365.5048092800087
 20
773.9381383863182
 30
0.0
 10
364.4719885663031
 20
773.6882296988787
 30
0.0
 10
363.400750542977
 20
773.5149499190461
 30
0.0
 10
362.3505221435234
 20
773.4273453428005
 30
0.0
 10
361.3447946519281
 20
773.4161267700872
 30
0.0
 10
360.3819192020632
 20
773.4693813631422
 30
0.0
 10
359.4186874761193
 20
773.5886134927538
 30
0.0
 10
358.4791761573707
 20
773.7711153399061
 30
0.0
 10
357.5786030089827
 20
774.010113821822
 30
0.0
 10
356.7141279225202
 20
774.302665871842
 30
0.0
 10
355.8743225548878
 20
774.6538214183607
 30
0.0
 10
355.0297737857626
 20
775.0768881225881
 30
0.0
 10
354.1940324272586
 20
775.5712674450203
 30
0.0
 10
353.3768626049898
 20
776.1600446015832
 30
0.0
 10
352.6289563721253
 20
776.8353881996138
 30
0.0
 10
352.1545857657559
 20
777.3150219761717
 30
0.0
 10
351.9175893841868
 20
777.5546478569853
 30
0.0
 11
374.1223777859098
 21
784.8443629682404
 31
0.0
 11
374.1265023698214
 21
784.6847533741669
 31
0.0
 11
374.1284118248712
 21
784.5252210736618
 31
0.0
 11
374.0799571558989
 21
783.7331327274512
 31
0.0
 11
373.9591662986765
 21
782.9516621768815
 31
0.0
 11
373.7900857833924
 21
782.1622219409664
 31
0.0
 11
373.5750776930341
 21
781.3963721037254
 31
0.0
 11
373.3314308183763
 21
780.7180906321446
 31
0.0
 11
373.0458517773635
 21
780.0655605733738
 31
0.0
 11
372.7152681351993
 21
779.4278920020162
 31
0.0
 11
372.3466967447285
 21
778.8192535281523
 31
0.0
 11
371.8622306534265
 21
778.1360522531361
 31
0.0
 11
371.3285506917719
 21
777.4947675407273
 31
0.0
 11
370.7360045190755
 21
776.8841793548012
 31
0.0
 11
370.096911977101
 21
776.318183028732
 31
0.0
 11
369.292016061828
 21
775.7130518576836
 31
0.0
 11
368.4297081297824
 21
775.1722092271193
 31
0.0
 11
367.4861227980686
 21
774.6851526485902
 31
0.0
 11
366.4917580998131
 21
774.272357904945
 31
0.0
 11
365.5050589908646
 21
773.9519841854
 31
0.0
 11
364.4851302477159
 21
773.7049589395863
 31
0.0
 11
363.401279268856
 21
773.5292926289042
 31
0.0
 11
362.3003046475908
 21
773.4374346673828
 31
0.0
 11
361.3447429374822
 21
773.426708063588
 31
0.0
 11
360.3914274816028
 21
773.4795341730456
 31
0.0
 11
359.4183618004352
 21
773.6000037604318
 31
0.0
 11
358.462099519614
 21
773.785957926546
 31
0.0
 11
357.5785039393417
 21
774.0207440786124
 31
0.0
 11
356.7215915052777
 21
774.3111679792744
 31
0.0
 11
355.8757197284682
 21
774.664616781198
 31
0.0
 11
355.0646587489729
 21
775.070590758358
 31
0.0
 11
354.1985404560266
 21
775.5863269588115
 31
0.0
 11
353.3930902584081
 21
776.170646631752
 31
0.0
 11
352.6353208852902
 21
776.8424833718451
 31
0.0
 11
351.9175893841868
 21
777.5546478569853
 31
0.0
  0
LWPOLYLINE
  5
3A9
330
85
100
AcDbEntity
  8
0
  6
Continuous
 62
     7
100
AcDbPolyline
 90
       45
 70
     0
 43
0.0
 10
369.7183721913386
 20
824.3343926497004
 10
370.3467522962387
 20
823.8386733920004
 10
371.4102295442388
 20
822.8296231009003
 10
372.3443377046388
 20
821.7047211711003
 10
373.1359637557387
 20
820.4797588751003
 10
373.7739960877386
 20
819.1719316874003
 10
374.2494763090388
 20
817.7995987699003
 10
374.5557314931386
 20
816.3820247628004
 10
374.6884617238386
 20
814.9391090028004
 10
374.6458034245386
 20
813.4911072903003
 10
374.4283563672386
 20
812.0583462060004
 10
374.0391724957387
 20
810.6609385923003
 10
373.4837149484388
 20
809.3185013622003
 10
372.7697807579386
 20
808.0498779655004
 10
371.9073937489386
 20
806.8728790149003
 10
370.9086573897387
 20
805.8040252418003
 10
369.7875936730386
 20
804.8583230466004
 10
368.5599391563387
 20
804.0490456388003
 10
367.2429274982387
 20
803.3875551537003
 10
365.8550468488386
 20
802.8831368775003
 10
364.4157800107387
 20
802.5428725869003
 10
362.9453307465387
 20
802.3715371728003
 10
361.4643411809386
 20
802.3715371728003
 10
359.9936011695386
 20
802.5428725869003
 10
358.5537565621387
 20
802.8831368775003
 10
357.1650197944387
 20
803.3875551537003
 10
355.8468858926387
 20
804.0490456388003
 10
354.6178581407387
 20
804.8583230466004
 10
353.4951892896388
 20
805.8040252418003
 10
352.4946396453388
 20
806.8728790149003
 10
351.6302540181387
 20
808.0498779655004
 10
350.9141675411388
 20
809.3185013622003
 10
350.3564319788386
 20
810.6609385923003
 10
349.9648760287387
 20
812.0583462060004
 10
349.7449972881386
 20
813.4911072903003
 10
349.6998821600387
 20
814.9391090028004
 10
349.8301639436386
 20
816.3820247628004
 10
350.1340125902386
 20
817.7995987699003
 10
350.6071645050388
 20
819.1719316874003
 10
351.2429774953387
 20
820.4797588751003
 10
352.0325248344386
 20
821.7047211711003
 10
352.9647237836387
 20
822.8296231009003
 10
354.0264878636388
 20
823.8386733920004
 10
355.2029131195386
 20
824.7177073263003
 10
355.3302956959387
 20
824.8005731494003
  0
LWPOLYLINE
  5
3AA
330
85
100
AcDbEntity
  8
0
  6
Continuous
 62
     7
100
AcDbPolyline
 90
       52
 70
     1
 43
0.0
 10
362.1887165453386
 20
826.1454956137003
 10
363.6162535502388
 20
826.0593757496003
 10
365.0222966196386
 20
825.8023223371003
 10
366.3855314469388
 20
825.3782315642003
 10
367.6852931483386
 20
824.7935323507004
 10
368.9018788962387
 20
824.0570880935004
 10
370.0168452440387
 20
823.1800625563003
 10
371.0132924123386
 20
822.1757506017003
 10
371.8761134176386
 20
821.0593765598003
 10
372.5922296969386
 20
819.8478634349003
 10
373.1507848231386
 20
818.5595766754003
 10
373.5433130739386
 20
817.2140453007003
 10
373.7638632981386
 20
815.8316662066003
 10
373.8090920476386
 20
814.4333947912003
 10
373.6783138691387
 20
813.0404277236003
 10
373.3735115482386
 20
811.6738808804004
 10
372.8993053762388
 20
810.3544692040003
 10
372.2628833009387
 20
809.1021942437003
 10
371.4738938241387
 20
807.9360386819003
 10
370.5442960588387
 20
806.8736808837003
 10
369.4881827785387
 20
805.9312243477003
 10
368.3215629524386
 20
805.1229564935004
 10
367.0621214649386
 20
804.4611298010003
 10
365.7289504288387
 20
803.9557764769004
 10
364.3422593111386
 20
803.6145566494004
 10
362.9230688773387
 20
803.4426438153004
 10
361.4928924678386
 20
803.4426438153004
 10
360.0734101590388
 20
803.6145566494004
 10
358.6861398751387
 20
803.9557764769004
 10
357.3521113238387
 20
804.4611298010003
 10
356.0915471269386
 20
805.1229564935004
 10
354.9235554626387
 20
805.9312243477003
 10
353.8658426358386
 20
806.8736808837003
 10
352.9344418300386
 20
807.9360386819003
 10
352.1434732927387
 20
809.1021942437003
 10
351.5049259393386
 20
810.3544692040003
 10
351.0284808679387
 20
811.6738808804004
 10
350.7213595538387
 20
813.0404277236003
 10
350.5882167472387
 20
814.4333947912003
 10
350.6310734181386
 20
815.8316662066003
 10
350.8492767094388
 20
817.2140453007003
 10
351.2395213572386
 20
818.5595766754003
 10
351.7958916007387
 20
819.8478634349003
 10
352.5099515198388
 20
821.0593765598003
 10
353.3708782150386
 20
822.1757506017003
 10
354.3656201316387
 20
823.1800625563003
 10
355.4790986916387
 20
824.0570880935004
 10
356.6944341390388
 20
824.7935323507004
 10
357.9932037490387
 20
825.3782315642003
 10
359.3557188967386
 20
825.8023223371003
 10
360.7613257580388
 20
826.0593757496003
 10
362.1887165453386
 20
826.1454956137003
  0
ENDBLK
  5
87
330
85
100
AcDbEntity
  8
0
100
AcDbBlockEnd
  0
BLOCK
  5
89
330
88
100
AcDbEntity
  8
0
100
AcDbBlockBegin
  2
87-141-1
 70
     0
 10
622.9122789061751
 20
779.8412459197323
 30
0.0
  3
87-141-1
  1

  0
SPLINE
  5
3AB
330
88
100
AcDbEntity
  8
1
  6
Continuous
 62
     7
100
AcDbSpline
210
0.0
220
0.0
230
1.0
 70
     8
 71
     3
 72
    51
 73
    47
 74
    45
 42
0.000000001
 43
0.0000000001
 44
0.00000001
 40
0.0
 40
0.0
 40
0.0
 40
0.0
 40
0.1438417109903541
 40
0.2879749812067032
 40
0.6817489627420703
 40
1.077285643291134
 40
1.403647181920689
 40
1.732183683965051
 40
2.032499609320316
 40
2.332815534487871
 40
2.661352036179294
 40
2.987713574357875
 40
3.383250254454724
 40
3.777024236152589
 40
4.257694082842794
 40
4.737685641666903
 40
5.306825525701504
 40
5.875612914572305
 40
6.526100764602835
 40
7.176413963204648
 40
7.895138492016557
 40
8.613768207606569
 40
9.383700075355081
 40
10.1535821271358
 40
10.95518576127035
 40
11.75676765340666
 40
12.56907731286299
 40
13.38138697390741
 40
14.1829688678118
 40
14.98457250302134
 40
15.75445455548689
 40
16.524386423757
 40
17.24301613976382
 40
17.96174066897301
 40
18.61205386794619
 40
19.26254171839393
 40
19.83132910769768
 40
20.40046899228179
 40
20.88046055171133
 40
21.36113039923232
 40
21.75490438185771
 40
22.15044106324535
 40
22.47680260286151
 40
22.80533910640374
 40
23.1056550362657
 40
23.40597095409085
 40
23.40597095409085
 40
23.40597095409085
 40
23.40597095409085
 10
353.3715107503661
 20
778.6021301622034
 30
0.0
 10
353.3317952842237
 20
778.5752644893149
 30
0.0
 10
353.2522838546425
 20
778.5214786828046
 30
0.0
 10
353.067700426848
 20
778.3888532179856
 30
0.0
 10
352.8299084623677
 20
778.1869993008753
 30
0.0
 10
352.5773265602593
 20
777.9123008116069
 30
0.0
 10
352.3853070038555
 20
777.6169076150873
 30
0.0
 10
352.2730695713009
 20
777.3163171471932
 30
0.0
 10
352.2282896439741
 20
777.0064136136729
 30
0.0
 10
352.273071707679
 20
776.6965155029842
 30
0.0
 10
352.3852975167616
 20
776.3959072605644
 30
0.0
 10
352.5773648814814
 20
776.1005846613248
 30
0.0
 10
352.8297315243864
 20
775.8255691112502
 30
0.0
 10
353.1541458987463
 20
775.5522521512122
 30
0.0
 10
353.5303828681809
 20
775.301215497406
 30
0.0
 10
353.9770155282239
 20
775.0542395885392
 30
0.0
 10
354.4679988252672
 20
774.8299346030035
 30
0.0
 10
355.0243499634938
 20
774.6150255543005
 30
0.0
 10
355.6176718190418
 20
774.4233782523725
 30
0.0
 10
356.2673856668099
 20
774.2464325015109
 30
0.0
 10
356.9464702071358
 20
774.0934348643307
 30
0.0
 10
357.6701042405976
 20
773.9595017923074
 30
0.0
 10
358.4151097251337
 20
773.8501864395882
 30
0.0
 10
359.1908495563452
 20
773.7631019427641
 30
0.0
 10
359.9795855707137
 20
773.7011529278897
 30
0.0
 10
360.7839932369313
 20
773.6633466798518
 30
0.0
 10
361.5927632761597
 20
773.6509559112077
 30
0.0
 10
362.4015333160842
 20
773.6633466748783
 30
0.0
 10
363.2059409838591
 20
773.7011529220416
 30
0.0
 10
363.9946769994069
 20
773.7631019363985
 30
0.0
 10
364.7704168315477
 20
773.8501864330345
 30
0.0
 10
365.5154223161696
 20
773.9595017854297
 30
0.0
 10
366.2390563518239
 20
774.0934348577396
 30
0.0
 10
366.91814088652
 20
774.2464324930797
 30
0.0
 10
367.5678547553802
 20
774.4233782493405
 30
0.0
 10
368.1611765392525
 20
774.6150255314154
 30
0.0
 10
368.7175279154361
 20
774.8299346444027
 30
0.0
 10
369.2085103978113
 20
775.0542394079916
 30
0.0
 10
369.6551456532464
 20
775.3012160220526
 30
0.0
 10
370.0313738569399
 20
775.5522502920554
 30
0.0
 10
370.3558154322488
 20
775.8255746475298
 30
0.0
 10
370.6080903687209
 20
776.1005652630145
 30
0.0
 10
370.8004446124042
 20
776.3959658634335
 30
0.0
 10
370.911668737769
 20
776.6963017552316
 30
0.0
 10
370.9598922873481
 20
777.007135586884
 30
0.0
 10
370.9225488811129
 20
777.2051799972801
 30
0.0
 10
370.9038771817382
 20
777.3042022011741
 30
0.0
 11
353.3715107503661
 21
778.6021301622034
 31
0.0
 11
353.2527491273316
 21
778.5209752651097
 31
0.0
 11
353.1359086476869
 21
778.4365791627813
 31
0.0
 11
352.8359272784617
 21
778.1814926536368
 31
0.0
 11
352.5711134125471
 21
777.8876850937972
 31
0.0
 11
352.3963249467758
 21
777.6120751406996
 31
0.0
 11
352.28164937623
 21
777.3042022011741
 31
0.0
 11
352.2427632789842
 21
777.0064144803171
 31
0.0
 11
352.2816493762299
 21
776.7086267594598
 31
0.0
 11
352.3963249467758
 21
776.4007538199342
 31
0.0
 11
352.5711134125471
 21
776.1251438668367
 31
0.0
 11
352.8359272784617
 21
775.8313363069972
 31
0.0
 11
353.1359086476868
 21
775.5762497978526
 31
0.0
 11
353.5339800301294
 21
775.3068380750295
 31
0.0
 11
353.9535161688401
 21
775.0736400365856
 31
0.0
 11
354.4702749455797
 21
774.8351435491103
 31
0.0
 11
355.0005972602499
 21
774.6295290153391
 31
0.0
 11
355.6191460995299
 21
774.4282039631149
 31
0.0
 11
356.2464787715296
 21
774.2568535179462
 31
0.0
 11
356.9474192652166
 21
774.0979592991774
 31
0.0
 11
357.6539920489357
 21
773.9668731842303
 31
0.0
 11
358.4156791612654
 21
773.8544995932816
 31
0.0
 11
359.1807387822678
 21
773.7684638454232
 31
0.0
 11
359.9798533190905
 21
773.7053421943148
 31
0.0
 11
360.7805514793301
 21
773.6677126339637
 31
0.0
 11
361.5927632789843
 21
773.6551044384871
 31
0.0
 11
362.4049750786382
 21
773.6677126339637
 31
0.0
 11
363.2056732388778
 21
773.7053421943149
 31
0.0
 11
364.0047877757004
 21
773.7684638454232
 31
0.0
 11
364.7698473967029
 21
773.8544995932815
 31
0.0
 11
365.5315345090324
 21
773.9668731842303
 31
0.0
 11
366.2381072927515
 21
774.0979592991773
 31
0.0
 11
366.9390477864387
 21
774.2568535179462
 31
0.0
 11
367.5663804584384
 21
774.428203963115
 31
0.0
 11
368.1849292977184
 21
774.6295290153391
 31
0.0
 11
368.7152516123886
 21
774.8351435491102
 31
0.0
 11
369.2320103891281
 21
775.0736400365856
 31
0.0
 11
369.6515465278387
 21
775.3068380750295
 31
0.0
 11
370.0496179102814
 21
775.5762497978526
 31
0.0
 11
370.3495992795065
 21
775.8313363069971
 31
0.0
 11
370.6144131454211
 21
776.1251438668367
 31
0.0
 11
370.7892016111923
 21
776.4007538199342
 31
0.0
 11
370.9038771817382
 21
776.7086267594598
 31
0.0
 11
370.942763278984
 21
777.0064144803171
 31
0.0
 11
370.9038771817382
 21
777.3042022011741
 31
0.0
  0
SPLINE
  5
3AC
330
88
100
AcDbEntity
  8
1
  6
Continuous
 62
     7
100
AcDbSpline
210
0.0
220
0.0
230
1.0
 70
     8
 71
     3
 72
    11
 73
     7
 74
     5
 42
0.000000001
 43
0.0000000001
 44
0.00000001
 40
0.0
 40
0.0
 40
0.0
 40
0.0
 40
0.328536500794532
 40
0.6548980374131577
 40
1.010238400108453
 40
1.363587023739638
 40
1.363587023739638
 40
1.363587023739638
 40
1.363587023739638
 10
370.9038771817382
 20
777.3042022011741
 30
0.0
 10
370.8703139906733
 20
777.4089718880673
 30
0.0
 10
370.8034097884967
 20
777.6178176644905
 30
0.0
 10
370.6144759357293
 20
777.9005301475291
 30
0.0
 10
370.3845832242177
 20
778.1588161218262
 30
0.0
 10
370.2039084304583
 20
778.3114572438391
 30
0.0
 10
370.1138249178294
 20
778.3875633037669
 30
0.0
 11
370.9038771817382
 21
777.3042022011741
 31
0.0
 11
370.7892016111923
 21
777.6120751406997
 31
0.0
 11
370.614413145421
 21
777.8876850937971
 31
0.0
 11
370.3782907301728
 21
778.1532278955542
 31
0.0
 11
370.1138249178294
 21
778.3875633037669
 31
0.0
  0
ENDBLK
  5
8A
330
88
100
AcDbEntity
  8
0
100
AcDbBlockEnd
  0
BLOCK
  5
8D
330
8B
100
AcDbEntity
  8
0
100
AcDbBlockBegin
  2
87-141
 70
     0
 10
415.4524425370787
 20
934.5952052814675
 30
0.0
  3
87-141
  1

  0
INSERT
  5
8C
330
8B
100
AcDbEntity
  8
1
100
AcDbBlockReference
  2
87-141-1
 10
622.912278906175
 20
779.8412459197322
 30
0.0
 41
1.0
 42
1.0
 43
1.0
  0
ENDBLK
  5
8E
330
8B
100
AcDbEntity
  8
0
100
AcDbBlockEnd
  0
BLOCK
  5
90
330
8F
100
AcDbEntity
  8
0
100
AcDbBlockBegin
  2
開示A4
 70
     0
 10
0.0
 20
0.0
 30
0.0
  3
開示A4
  1

  0
POINT
  5
3AD
330
8F
100
AcDbEntity
  8
1
 62
     4
100
AcDbPoint
 10
34.0
 20
34.00000000000001
 30
0.0
  0
POINT
  5
3AE
330
8F
100
AcDbEntity
  8
1
 62
     4
100
AcDbPoint
 10
57.0
 20
12.25
 30
0.0
  0
POINT
  5
3AF
330
8F
100
AcDbEntity
  8
1
 62
     4
100
AcDbPoint
 10
57.0
 20
20.75000000000001
 30
0.0
  0
POINT
  5
3B0
330
8F
100
AcDbEntity
  8
1
 62
     4
100
AcDbPoint
 10
57.0
 20
24.75000000000001
 30
0.0
  0
POINT
  5
3B1
330
8F
100
AcDbEntity
  8
1
 62
     4
100
AcDbPoint
 10
57.0
 20
16.25
 30
0.0
  0
POINT
  5
3B2
330
8F
100
AcDbEntity
  8
1
 62
     4
100
AcDbPoint
 10
157.5
 20
19.00000000000001
 30
0.0
  0
POINT
  5
3B3
330
8F
100
AcDbEntity
  8
1
 62
     4
100
AcDbPoint
 10
47.5
 20
282.0000000000003
 30
0.0
  0
POINT
  5
3B4
330
8F
100
AcDbEntity
  8
1
 62
     4
100
AcDbPoint
 10
57.0
 20
22.75000000000001
 30
0.0
  0
POINT
  5
3B5
330
8F
100
AcDbEntity
  8
1
 62
     4
100
AcDbPoint
 10
57.0
 20
14.25
 30
0.0
  0
POINT
  5
3B6
330
8F
100
AcDbEntity
  8
1
 62
     4
100
AcDbPoint
 10
157.5
 20
12.5
 30
0.0
  0
POINT
  5
3B7
330
8F
100
AcDbEntity
  8
1
 62
     4
100
AcDbPoint
 10
163.25
 20
12.5
 30
0.0
  0
POINT
  5
3B8
330
8F
100
AcDbEntity
  8
1
 62
     4
100
AcDbPoint
 10
151.75
 20
12.5
 30
0.0
  0
POINT
  5
3B9
330
8F
100
AcDbEntity
  8
1
 62
     4
100
AcDbPoint
 10
134.75
 20
12.5
 30
0.0
  0
POINT
  5
3BA
330
8F
100
AcDbEntity
  8
1
 62
     4
100
AcDbPoint
 10
146.25
 20
12.5
 30
0.0
  0
POINT
  5
3BB
330
8F
100
AcDbEntity
  8
1
 62
     4
100
AcDbPoint
 10
140.5
 20
12.5
 30
0.0
  0
POINT
  5
3BC
330
8F
100
AcDbEntity
  8
1
 62
     4
100
AcDbPoint
 10
140.5
 20
19.00000000000001
 30
0.0
  0
POINT
  5
3BD
330
8F
100
AcDbEntity
  8
1
 62
     4
100
AcDbPoint
 10
117.75
 20
12.5
 30
0.0
  0
POINT
  5
3BE
330
8F
100
AcDbEntity
  8
1
 62
     4
100
AcDbPoint
 10
129.25
 20
12.5
 30
0.0
  0
POINT
  5
3BF
330
8F
100
AcDbEntity
  8
1
 62
     4
100
AcDbPoint
 10
123.5
 20
12.5
 30
0.0
  0
POINT
  5
3C0
330
8F
100
AcDbEntity
  8
1
 62
     4
100
AcDbPoint
 10
123.5
 20
19.00000000000001
 30
0.0
  0
POINT
  5
3C1
330
8F
100
AcDbEntity
  8
1
 62
     4
100
AcDbPoint
 10
100.75
 20
12.5
 30
0.0
  0
POINT
  5
3C2
330
8F
100
AcDbEntity
  8
1
 62
     4
100
AcDbPoint
 10
112.25
 20
12.5
 30
0.0
  0
POINT
  5
3C3
330
8F
100
AcDbEntity
  8
1
 62
     4
100
AcDbPoint
 10
106.5
 20
12.5
 30
0.0
  0
POINT
  5
3C4
330
8F
100
AcDbEntity
  8
1
 62
     4
100
AcDbPoint
 10
106.5
 20
19.00000000000001
 30
0.0
  0
POINT
  5
3C5
330
8F
100
AcDbEntity
  8
1
 62
     4
100
AcDbPoint
 10
85.25
 20
17.0
 30
0.0
  0
POINT
  5
3C6
330
8F
100
AcDbEntity
  8
1
 62
     4
100
AcDbPoint
 10
93.75
 20
17.0
 30
0.0
  0
LINE
  5
3C7
330
8F
100
AcDbEntity
  8
1
  6
Continuous
 62
     2
100
AcDbLine
 10
81.0
 20
27.00000000000001
 30
0.0
 11
81.0
 21
10.0
 31
0.0
  0
LINE
  5
3C8
330
8F
100
AcDbEntity
  8
1
  6
DOT_CENTER
 62
     2
100
AcDbLine
 10
187.0
 20
26.50000000000001
 30
0.0
 11
187.0
 21
20.50000000000001
 31
0.0
  0
LINE
  5
3C9
330
8F
100
AcDbEntity
  8
1
  6
DOT_CENTER
 62
     2
100
AcDbLine
 10
184.0
 20
23.50000000000001
 30
0.0
 11
197.0
 21
23.50000000000001
 31
0.0
  0
LINE
  5
3CA
330
8F
100
AcDbEntity
  8
1
  6
Continuous
 62
     7
100
AcDbLine
 10
196.0
 20
21.50000000000001
 30
0.0
 11
191.0
 21
22.30000000000001
 31
0.0
  0
LINE
  5
3CB
330
8F
100
AcDbEntity
  8
1
  6
Continuous
 62
     7
100
AcDbLine
 10
196.0
 20
25.50000000000001
 30
0.0
 11
196.0
 21
21.50000000000001
 31
0.0
  0
LINE
  5
3CC
330
8F
100
AcDbEntity
  8
1
  6
Continuous
 62
     7
100
AcDbLine
 10
191.0
 20
24.70000000000001
 30
0.0
 11
196.0
 21
25.50000000000001
 31
0.0
  0
LINE
  5
3CD
330
8F
100
AcDbEntity
  8
1
  6
Continuous
 62
     7
100
AcDbLine
 10
191.0
 20
24.70000000000001
 30
0.0
 11
191.0
 21
22.30000000000001
 31
0.0
  0
LINE
  5
3CE
330
8F
100
AcDbEntity
  8
1
  6
Continuous
 62
     2
100
AcDbLine
 10
33.0
 20
27.0
 30
0.0
 11
33.0
 21
10.0
 31
0.0
  0
LINE
  5
3CF
330
8F
100
AcDbEntity
  8
1
  6
Continuous
 62
     2
100
AcDbLine
 10
25.0
 20
18.50000000000001
 30
0.0
 11
81.0
 21
18.50000000000001
 31
0.0
  0
LINE
  5
3D0
330
8F
100
AcDbEntity
  8
1
  6
Continuous
 62
     7
100
AcDbLine
 10
200.0
 20
287.0000000000003
 30
0.0
 11
105.0
 21
287.0000000000003
 31
0.0
  0
LINE
  5
3D1
330
8F
100
AcDbEntity
  8
1
  6
Continuous
 62
     7
100
AcDbLine
 10
200.0
 20
10.0
 30
0.0
 11
200.0
 21
148.5
 31
0.0
  0
LINE
  5
3D2
330
8F
100
AcDbEntity
  8
1
  6
Continuous
 62
     7
100
AcDbLine
 10
25.0
 20
10.0
 30
0.0
 11
105.0
 21
10.0
 31
0.0
  0
LINE
  5
3D3
330
8F
100
AcDbEntity
  8
1
  6
PHANTOM
 62
     4
100
AcDbLine
 10
0.0
 20
297.0
 30
0.0
 11
0.0
 21
0.0
 31
0.0
  0
LINE
  5
3D4
330
8F
100
AcDbEntity
  8
1
  6
PHANTOM
 62
     4
100
AcDbLine
 10
210.0
 20
297.0
 30
0.0
 11
0.0
 21
297.0
 31
0.0
  0
LINE
  5
3D5
330
8F
100
AcDbEntity
  8
1
  6
PHANTOM
 62
     4
100
AcDbLine
 10
210.0
 20
0.0
 30
0.0
 11
210.0
 21
297.0
 31
0.0
  0
LINE
  5
3D6
330
8F
100
AcDbEntity
  8
1
  6
PHANTOM
 62
     4
100
AcDbLine
 10
0.0
 20
0.0
 30
0.0
 11
210.0
 21
0.0
 31
0.0
  0
LINE
  5
3D7
330
8F
100
AcDbEntity
  8
1
  6
Continuous
 62
     7
100
AcDbLine
 10
25.0
 20
41.0
 30
0.0
 11
200.0
 21
41.0
 31
0.0
  0
LINE
  5
3D8
330
8F
100
AcDbEntity
  8
1
  6
Continuous
 62
     7
100
AcDbLine
 10
200.0
 20
27.00000000000001
 30
0.0
 11
25.0
 21
27.00000000000001
 31
0.0
  0
LINE
  5
3D9
330
8F
100
AcDbEntity
  8
1
  6
Continuous
 62
     2
100
AcDbLine
 10
33.0
 20
41.00000000000001
 30
0.0
 11
33.0
 21
27.0
 31
0.0
  0
LINE
  5
3DA
330
8F
100
AcDbEntity
  8
1
  6
Continuous
 62
     2
100
AcDbLine
 10
55.0
 20
287.0000000000003
 30
0.0
 11
55.0
 21
277.0000000000003
 31
0.0
  0
LINE
  5
3DB
330
8F
100
AcDbEntity
  8
1
  6
Continuous
 62
     2
100
AcDbLine
 10
40.0
 20
287.0000000000003
 30
0.0
 11
40.0
 21
277.0000000000003
 31
0.0
  0
LINE
  5
3DC
330
8F
100
AcDbEntity
  8
1
  6
Continuous
 62
     7
100
AcDbLine
 10
25.0
 20
10.0
 30
0.0
 11
25.0
 21
148.5
 31
0.0
  0
LINE
  5
3DD
330
8F
100
AcDbEntity
  8
1
  6
Continuous
 62
     2
100
AcDbLine
 10
55.0
 20
277.0000000000003
 30
0.0
 11
25.0
 21
277.0000000000003
 31
0.0
  0
LINE
  5
3DE
330
8F
100
AcDbEntity
  8
1
  6
Continuous
 62
     2
100
AcDbLine
 10
166.0
 20
27.00000000000001
 30
0.0
 11
166.0
 21
10.0
 31
0.0
  0
LINE
  5
3DF
330
8F
100
AcDbEntity
  8
1
  6
Continuous
 62
     2
100
AcDbLine
 10
132.0
 20
27.00000000000001
 30
0.0
 11
132.0
 21
9.99999999999999
 31
0.0
  0
LINE
  5
3E0
330
8F
100
AcDbEntity
  8
1
  6
Continuous
 62
     2
100
AcDbLine
 10
149.0
 20
27.00000000000001
 30
0.0
 11
149.0
 21
10.0
 31
0.0
  0
LINE
  5
3E1
330
8F
100
AcDbEntity
  8
1
  6
Continuous
 62
     2
100
AcDbLine
 10
115.0
 20
27.00000000000001
 30
0.0
 11
115.0
 21
9.99999999999999
 31
0.0
  0
LINE
  5
3E2
330
8F
100
AcDbEntity
  8
1
  6
Continuous
 62
     2
100
AcDbLine
 10
98.0
 20
27.00000000000001
 30
0.0
 11
98.0
 21
9.99999999999999
 31
0.0
  0
LINE
  5
3E3
330
8F
100
AcDbEntity
  8
1
  6
Continuous
 62
     2
100
AcDbLine
 10
166.0
 20
20.00000000000001
 30
0.0
 11
200.0
 21
20.00000000000001
 31
0.0
  0
LINE
  5
3E4
330
8F
100
AcDbEntity
  8
1
  6
Continuous
 62
     2
100
AcDbLine
 10
105.0
 20
287.0000000000003
 30
0.0
 11
105.0
 21
292.0000000000003
 31
0.0
  0
LINE
  5
3E5
330
8F
100
AcDbEntity
  8
1
  6
Continuous
 62
     7
100
AcDbLine
 10
105.0
 20
287.0000000000003
 30
0.0
 11
25.0
 21
287.0000000000003
 31
0.0
  0
LINE
  5
3E6
330
8F
100
AcDbEntity
  8
1
  6
Continuous
 62
     2
100
AcDbLine
 10
25.0
 20
148.5
 30
0.0
 11
20.0
 21
148.5
 31
0.0
  0
LINE
  5
3E7
330
8F
100
AcDbEntity
  8
1
  6
Continuous
 62
     7
100
AcDbLine
 10
25.0
 20
148.5
 30
0.0
 11
25.0
 21
287.0000000000003
 31
0.0
  0
LINE
  5
3E8
330
8F
100
AcDbEntity
  8
1
  6
Continuous
 62
     2
100
AcDbLine
 10
200.0
 20
148.5
 30
0.0
 11
205.0
 21
148.5
 31
0.0
  0
LINE
  5
3E9
330
8F
100
AcDbEntity
  8
1
  6
Continuous
 62
     7
100
AcDbLine
 10
200.0
 20
148.5
 30
0.0
 11
200.0
 21
287.0000000000003
 31
0.0
  0
LINE
  5
3EA
330
8F
100
AcDbEntity
  8
1
  6
Continuous
 62
     2
100
AcDbLine
 10
105.0
 20
10.0
 30
0.0
 11
105.0
 21
5.0
 31
0.0
  0
LINE
  5
3EB
330
8F
100
AcDbEntity
  8
1
  6
Continuous
 62
     7
100
AcDbLine
 10
105.0
 20
10.0
 30
0.0
 11
200.0
 21
10.0
 31
0.0
  0
CIRCLE
  5
3EC
330
8F
100
AcDbEntity
  8
1
  6
DOT_CENTER
 62
     7
100
AcDbCircle
 10
89.5
 20
18.0
 30
0.0
 40
0.1000000000000227
  0
CIRCLE
  5
3ED
330
8F
100
AcDbEntity
  8
1
  6
DOT_CENTER
 62
     7
100
AcDbCircle
 10
89.5
 20
16.0
 30
0.0
 40
0.1000000000000227
  0
CIRCLE
  5
3EE
330
8F
100
AcDbEntity
  8
1
  6
Continuous
 62
     7
100
AcDbCircle
 10
187.0
 20
23.50000000000001
 30
0.0
 40
2.0
  0
CIRCLE
  5
3EF
330
8F
100
AcDbEntity
  8
1
  6
Continuous
 62
     7
100
AcDbCircle
 10
187.0
 20
23.50000000000001
 30
0.0
 40
1.200000000000102
  0
CIRCLE
  5
3F0
330
8F
100
AcDbEntity
  8
1
  6
Continuous
 62
     7
100
AcDbCircle
 10
154.5
 20
12.5
 30
0.0
 40
0.3000000000000114
  0
CIRCLE
  5
3F1
330
8F
100
AcDbEntity
  8
1
  6
Continuous
 62
     7
100
AcDbCircle
 10
160.5
 20
12.5
 30
0.0
 40
0.3000000000000114
  0
CIRCLE
  5
3F2
330
8F
100
AcDbEntity
  8
1
  6
Continuous
 62
     7
100
AcDbCircle
 10
143.5
 20
12.5
 30
0.0
 40
0.3000000000000114
  0
CIRCLE
  5
3F3
330
8F
100
AcDbEntity
  8
1
  6
Continuous
 62
     7
100
AcDbCircle
 10
137.5
 20
12.5
 30
0.0
 40
0.3000000000000114
  0
CIRCLE
  5
3F4
330
8F
100
AcDbEntity
  8
1
  6
Continuous
 62
     7
100
AcDbCircle
 10
126.5
 20
12.5
 30
0.0
 40
0.2999999999999972
  0
CIRCLE
  5
3F5
330
8F
100
AcDbEntity
  8
1
  6
Continuous
 62
     7
100
AcDbCircle
 10
120.5
 20
12.5
 30
0.0
 40
0.2999999999999972
  0
CIRCLE
  5
3F6
330
8F
100
AcDbEntity
  8
1
  6
Continuous
 62
     7
100
AcDbCircle
 10
109.5
 20
12.5
 30
0.0
 40
0.2999999999999972
  0
CIRCLE
  5
3F7
330
8F
100
AcDbEntity
  8
1
  6
Continuous
 62
     7
100
AcDbCircle
 10
103.5
 20
12.5
 30
0.0
 40
0.2999999999999972
  0
MTEXT
  5
3F9
330
8F
100
AcDbEntity
  8
1
 62
   250
100
AcDbMText
 10
25.0
 20
5.0
 30
0.0
 40
3.5
 41
0.0
 71
     4
 72
     1
  1
備考欄の文字列 原点位置=4
  7
CONVERTER_11
 73
     1
 44
0.54545454545455
  0
MTEXT
  5
3FA
330
8F
100
AcDbEntity
  8
1
 62
     2
100
AcDbMText
 10
89.5
 20
24.00000000000001
 30
0.0
 40
3.5
 41
0.0
 71
     5
 72
     1
  1
尺度
  7
CONVERTER_11
 73
     1
 44
0.54545454545455
  0
MTEXT
  5
3FB
330
8F
100
AcDbEntity
  8
1
 62
     2
100
AcDbMText
 10
135.5
 20
25.00000000000001
 30
0.0
 40
3.0
 41
0.0
 71
     5
 72
     1
  1
製図
  7
CONVERTER_11
 73
     1
 44
0.59090909090909
  0
MTEXT
  5
3FC
330
8F
100
AcDbEntity
  8
1
 62
     2
100
AcDbMText
 10
152.5
 20
25.00000000000001
 30
0.0
 40
3.0
 41
0.0
 71
     5
 72
     1
  1
設計
  7
CONVERTER_11
 73
     1
 44
0.59090909090909
  0
MTEXT
  5
3FD
330
8F
100
AcDbEntity
  8
1
 62
     2
100
AcDbMText
 10
118.5
 20
25.00000000000001
 30
0.0
 40
3.0
 41
0.0
 71
     5
 72
     1
  1
検図
  7
CONVERTER_11
 73
     1
 44
0.59090909090909
  0
MTEXT
  5
3FE
330
8F
100
AcDbEntity
  8
1
 62
     2
100
AcDbMText
 10
175.0
 20
23.50000000000001
 30
0.0
 40
3.5
 41
0.0
 71
     5
 72
     1
  1
第三角法
  7
CONVERTER_11
 73
     1
 44
0.54545454545455
  0
MTEXT
  5
3FF
330
8F
100
AcDbEntity
  8
1
 62
     2
100
AcDbMText
 10
101.5
 20
25.00000000000001
 30
0.0
 40
3.0
 41
0.0
 71
     5
 72
     1
  1
承認
  7
CONVERTER_11
 73
     1
 44
0.59090909090909
  0
MTEXT
  5
400
330
8F
100
AcDbEntity
  8
1
 62
     2
100
AcDbMText
 10
29.0
 20
14.25
 30
0.0
 40
3.5
 41
0.0
 71
     5
 72
     1
  1
品番
  7
CONVERTER_11
 73
     1
 44
0.72727272727273
  0
MTEXT
  5
401
330
8F
100
AcDbEntity
  8
1
 62
     2
100
AcDbMText
 10
29.0
 20
22.75
 30
0.0
 40
3.5
 41
0.0
 71
     5
 72
     1
  1
品名
  7
CONVERTER_11
 73
     1
 44
0.72727272727273
  0
MTEXT
  5
402
330
8F
100
AcDbEntity
  8
1
 62
     2
100
AcDbMText
 10
29.0
 20
34.00000000000001
 30
0.0
 40
3.5
 41
0.0
 71
     5
 72
     1
  1
備考
  7
CONVERTER_11
 73
     1
 44
0.45454545454545
  0
MTEXT
  5
403
330
8F
100
AcDbEntity
  8
1
 62
     2
100
AcDbMText
 10
32.5
 20
282.0000000000003
 30
0.0
 40
5.0
 41
0.0
 71
     5
 72
     1
  1
図番
  7
CONVERTER_11
 73
     1
 44
0.45454545454545
  0
MTEXT
  5
404
330
8F
100
AcDbEntity
  8
1
 62
     7
100
AcDbMText
 10
171.5
 20
15.0
 30
0.0
 40
2.5
 41
0.0
 71
     5
 72
     1
  1
株式会社
  7
CONVERTER_11
 73
     1
 44
1.0
  0
MTEXT
  5
405
330
8F
100
AcDbEntity
  8
1
 62
     7
100
AcDbMText
 10
188.5
 20
15.0
 30
0.0
 40
3.0
 41
0.0
 71
     5
 72
     1
  1
三栄水栓製作所
  7
CONVERTER_11
 73
     1
 44
1.0
  0
ENDBLK
  5
91
330
8F
100
AcDbEntity
  8
0
100
AcDbBlockEnd
  0
BLOCK
  5
93
330
92
100
AcDbEntity
  8
0
100
AcDbBlockBegin
  2
98-126
 70
     0
 10
1406.330860123493
 20
1302.647727390118
 30
0.0
  3
98-126
  1

  0
LINE
  5
406
330
92
100
AcDbEntity
  8
1
  6
Continuous
 62
     7
100
AcDbLine
 10
381.8417193918019
 20
688.6999999999998
 30
0.0
 11
341.3417193918019
 21
688.7000000000002
 31
0.0
  0
LINE
  5
407
330
92
100
AcDbEntity
  8
1
  6
Continuous
 62
     7
100
AcDbLine
 10
341.3417193918019
 20
688.7000000000002
 30
0.0
 11
341.3417193918019
 21
691.2
 31
0.0
  0
LINE
  5
408
330
92
100
AcDbEntity
  8
1
  6
Continuous
 62
     7
100
AcDbLine
 10
381.8417193918019
 20
691.2
 30
0.0
 11
381.8417193918019
 21
688.6999999999998
 31
0.0
  0
LINE
  5
409
330
92
100
AcDbEntity
  8
1
  6
Continuous
 62
     7
100
AcDbLine
 10
801.841719391802
 20
691.2
 30
0.0
 11
801.841719391802
 21
688.6999999999998
 31
0.0
  0
LINE
  5
40A
330
92
100
AcDbEntity
  8
1
  6
Continuous
 62
     7
100
AcDbLine
 10
761.341719391802
 20
688.7000000000002
 30
0.0
 11
761.341719391802
 21
691.2
 31
0.0
  0
LINE
  5
40B
330
92
100
AcDbEntity
  8
1
  6
Continuous
 62
     7
100
AcDbLine
 10
801.841719391802
 20
688.6999999999998
 30
0.0
 11
761.341719391802
 21
688.7000000000002
 31
0.0
  0
ENDBLK
  5
94
330
92
100
AcDbEntity
  8
0
100
AcDbBlockEnd
  0
BLOCK
  5
96
330
95
100
AcDbEntity
  8
0
100
AcDbBlockBegin
  2
92-64A
 70
     0
 10
710.6791750130905
 20
538.4741394466233
 30
0.0
  3
92-64A
  1

  0
LINE
  5
40C
330
95
100
AcDbEntity
  8
0
  6
Continuous
 62
     7
100
AcDbLine
 10
336.5917193918019
 20
673.2000000000006
 30
0.0
 11
336.5917193918019
 21
671.7000000000004
 31
0.0
  0
LINE
  5
40D
330
95
100
AcDbEntity
  8
0
  6
Continuous
 62
     7
100
AcDbLine
 10
386.5917193918019
 20
671.7000000000004
 30
0.0
 11
386.5917193918019
 21
673.2000000000006
 31
0.0
  0
LINE
  5
40E
330
95
100
AcDbEntity
  8
1
  6
Continuous
 62
     7
100
AcDbLine
 10
336.5917193918019
 20
673.2000000000006
 30
0.0
 11
386.5917193918019
 21
673.2000000000006
 31
0.0
  0
LINE
  5
40F
330
95
100
AcDbEntity
  8
1
  6
Continuous
 62
     7
100
AcDbLine
 10
336.6029719241913
 20
671.7000000000004
 30
0.0
 11
386.5917193918019
 21
671.7000000000004
 31
0.0
  0
LINE
  5
410
330
95
100
AcDbEntity
  8
1
  6
Continuous
 62
     7
100
AcDbLine
 10
756.6029719241914
 20
671.7000000000004
 30
0.0
 11
806.591719391802
 21
671.7000000000004
 31
0.0
  0
LINE
  5
411
330
95
100
AcDbEntity
  8
1
  6
Continuous
 62
     7
100
AcDbLine
 10
756.591719391802
 20
673.2000000000006
 30
0.0
 11
806.591719391802
 21
673.2000000000006
 31
0.0
  0
LINE
  5
412
330
95
100
AcDbEntity
  8
0
  6
Continuous
 62
     7
100
AcDbLine
 10
806.591719391802
 20
671.7000000000004
 30
0.0
 11
806.591719391802
 21
673.2000000000006
 31
0.0
  0
LINE
  5
413
330
95
100
AcDbEntity
  8
0
  6
Continuous
 62
     7
100
AcDbLine
 10
756.591719391802
 20
673.2000000000006
 30
0.0
 11
756.591719391802
 21
671.7000000000004
 31
0.0
  0
ENDBLK
  5
97
330
95
100
AcDbEntity
  8
0
100
AcDbBlockEnd
  0
BLOCK
  5
468
330
45F
100
AcDbEntity
  8
0
100
AcDbBlockBegin
  2
*D25
 70
     1
 10
0.0
 20
0.0
 30
0.0
  3
*D25
  1

  0
LINE
  5
460
330
45F
100
AcDbEntity
  8
1
  6
Continuous
 62
     2
100
AcDbLine
 10
532.5917193917887
 20
673.2000000000002
 30
0.0
 11
532.5917193917887
 21
638.2000000000002
 31
0.0
  0
LINE
  5
461
330
45F
100
AcDbEntity
  8
1
  6
Continuous
 62
     2
100
AcDbLine
 10
532.5917193917887
 20
688.6999999999999
 30
0.0
 11
532.5917193917887
 21
673.2000000000002
 31
0.0
  0
LINE
  5
462
330
45F
100
AcDbEntity
  8
1
  6
Continuous
 62
     2
100
AcDbLine
 10
532.5917193917887
 20
723.6999999999999
 30
0.0
 11
532.5917193917887
 21
688.6999999999999
 31
0.0
  0
LINE
  5
463
330
45F
100
AcDbEntity
  8
1
  6
Continuous
 62
     2
100
AcDbLine
 10
742.5917193917887
 20
673.2000000000002
 30
0.0
 11
527.5917193917887
 21
673.2000000000002
 31
0.0
  0
LINE
  5
464
330
45F
100
AcDbEntity
  8
1
  6
Continuous
 62
     2
100
AcDbLine
 10
742.5917193917887
 20
688.6999999999999
 30
0.0
 11
527.5917193917887
 21
688.6999999999999
 31
0.0
  0
SOLID
  5
465
330
45F
100
AcDbEntity
  8
1
 62
     2
100
AcDbTrace
 10
530.2878006840093
 20
706.1999999999999
 30
0.0
 11
534.8956380995681
 21
706.1999999999999
 31
0.0
 12
532.5917193917887
 22
688.6999999999999
 32
0.0
 13
532.5917193917887
 23
688.6999999999999
 33
0.0
  0
SOLID
  5
466
330
45F
100
AcDbEntity
  8
1
 62
     2
100
AcDbTrace
 10
534.8956380995681
 20
655.7000000000002
 30
0.0
 11
530.2878006840093
 21
655.7000000000002
 31
0.0
 12
532.5917193917887
 22
673.2000000000002
 32
0.0
 13
532.5917193917887
 23
673.2000000000002
 33
0.0
  0
MTEXT
  5
467
330
45F
100
AcDbEntity
  8
1
 62
     7
100
AcDbMText
 10
527.5917193917887
 20
670.267201861132
 30
0.0
 40
17.5
 41
0.0
 71
     7
 72
     1
  1
\C7;最大\C7;30最小5
  7
CONVERTER_11
 11
0.0
 21
1.0
 31
0.0
 73
     1
 44
0.45454545454545
  0
ENDBLK
  5
469
330
45F
100
AcDbEntity
  8
0
100
AcDbBlockEnd
  0
BLOCK
  5
473
330
46C
100
AcDbEntity
  8
0
100
AcDbBlockBegin
  2
*D26
 70
     1
 10
0.0
 20
0.0
 30
0.0
  3
*D26
  1

  0
LINE
  5
46D
330
46C
100
AcDbEntity
  8
1
  6
Continuous
 62
     2
100
AcDbLine
 10
781.5917193917887
 20
944.2736202853264
 30
0.0
 11
643.4157190329398
 21
944.2736202853264
 31
0.0
  0
LINE
  5
46E
330
46C
100
AcDbEntity
  8
1
  6
Continuous
 62
     2
100
AcDbLine
 10
643.4157190329398
 20
797.5895261894597
 30
0.0
 11
643.4157190329398
 21
949.2736202853264
 31
0.0
  0
LINE
  5
46F
330
46C
100
AcDbEntity
  8
1
  6
Continuous
 62
     2
100
AcDbLine
 10
781.5917193917887
 20
851.3026615000006
 30
0.0
 11
781.5917193917887
 21
949.2736202853264
 31
0.0
  0
SOLID
  5
470
330
46C
100
AcDbEntity
  8
1
 62
     2
100
AcDbTrace
 10
764.0917193917887
 20
941.969701577547
 30
0.0
 11
764.0917193917887
 21
946.5775389931058
 31
0.0
 12
781.5917193917887
 22
944.2736202853264
 32
0.0
 13
781.5917193917887
 23
944.2736202853264
 33
0.0
  0
SOLID
  5
471
330
46C
100
AcDbEntity
  8
1
 62
     2
100
AcDbTrace
 10
660.9157190329398
 20
946.5775389931058
 30
0.0
 11
660.9157190329398
 21
941.969701577547
 31
0.0
 12
643.4157190329398
 22
944.2736202853264
 32
0.0
 13
643.4157190329398
 23
944.2736202853264
 33
0.0
  0
MTEXT
  5
472
330
46C
100
AcDbEntity
  8
1
 62
     7
100
AcDbMText
 10
694.1287192123643
 20
949.2736202853264
 30
0.0
 40
17.5
 41
0.0
 71
     7
 72
     1
  1
138
  7
CONVERTER_12
 11
0.9999999999970619
 21
2.424068405545306E-6
 31
0.0
 73
     1
 44
0.60024009603842
  0
ENDBLK
  5
474
330
46C
100
AcDbEntity
  8
0
100
AcDbBlockEnd
  0
BLOCK
  5
480
330
477
100
AcDbEntity
  8
0
100
AcDbBlockBegin
  2
*D27
 70
     1
 10
0.0
 20
0.0
 30
0.0
  3
*D27
  1

  0
LINE
  5
478
330
477
100
AcDbEntity
  8
1
  6
Continuous
 62
     2
100
AcDbLine
 10
728.5917193917884
 20
555.6999999999999
 30
0.0
 11
763.5917193917884
 21
555.6999999999999
 31
0.0
  0
LINE
  5
479
330
477
100
AcDbEntity
  8
1
  6
Continuous
 62
     2
100
AcDbLine
 10
763.5917193917884
 20
555.6999999999999
 30
0.0
 11
799.5917193917884
 21
555.6999999999999
 31
0.0
  0
LINE
  5
47A
330
477
100
AcDbEntity
  8
1
  6
Continuous
 62
     2
100
AcDbLine
 10
799.5917193917884
 20
555.6999999999999
 30
0.0
 11
986.8012482390266
 21
555.6999999999999
 31
0.0
  0
LINE
  5
47B
330
477
100
AcDbEntity
  8
1
  6
Continuous
 62
     2
100
AcDbLine
 10
763.5917193917884
 20
664.2000000000004
 30
0.0
 11
763.5917193917884
 21
550.6999999999999
 31
0.0
  0
LINE
  5
47C
330
477
100
AcDbEntity
  8
1
  6
Continuous
 62
     2
100
AcDbLine
 10
799.5917193917884
 20
664.2000000000004
 30
0.0
 11
799.5917193917884
 21
550.6999999999999
 31
0.0
  0
SOLID
  5
47D
330
477
100
AcDbEntity
  8
1
 62
     2
100
AcDbTrace
 10
746.0917193917884
 20
553.3960812922205
 30
0.0
 11
746.0917193917884
 21
558.0039187077793
 31
0.0
 12
763.5917193917884
 22
555.6999999999999
 32
0.0
 13
763.5917193917884
 23
555.6999999999999
 33
0.0
  0
SOLID
  5
47E
330
477
100
AcDbEntity
  8
1
 62
     2
100
AcDbTrace
 10
817.0917193917884
 20
558.0039187077793
 30
0.0
 11
817.0917193917884
 21
553.3960812922205
 31
0.0
 12
799.5917193917884
 22
555.6999999999999
 32
0.0
 13
799.5917193917884
 23
555.6999999999999
 33
0.0
  0
MTEXT
  5
47F
330
477
100
AcDbEntity
  8
1
 62
     7
100
AcDbMText
 10
845.7512482393638
 20
560.699721716947
 30
0.0
 40
17.5
 41
0.0
 71
     7
 72
     1
  1
\C7;ロックナット対辺\C7;36
  7
CONVERTER_11
 11
0.9999999999970619
 21
2.424068405545306E-6
 31
0.0
 73
     1
 44
0.45454545454545
  0
ENDBLK
  5
481
330
477
100
AcDbEntity
  8
0
100
AcDbBlockEnd
  0
BLOCK
  5
48B
330
484
100
AcDbEntity
  8
0
100
AcDbBlockBegin
  2
*D28
 70
     1
 10
0.0
 20
0.0
 30
0.0
  3
*D28
  1

  0
LINE
  5
485
330
484
100
AcDbEntity
  8
1
  6
Continuous
 62
     2
100
AcDbLine
 10
361.5917193917892
 20
1151.499455290718
 30
0.0
 11
306.0587108027977
 21
1151.499455290718
 31
0.0
  0
LINE
  5
486
330
484
100
AcDbEntity
  8
1
  6
Continuous
 62
     2
100
AcDbLine
 10
361.5917193917892
 20
1104.499455290718
 30
0.0
 11
361.5917193917892
 21
1156.499455290718
 31
0.0
  0
LINE
  5
487
330
484
100
AcDbEntity
  8
1
  6
Continuous
 62
     2
100
AcDbLine
 10
306.0587108027977
 20
1041.573593128812
 30
0.0
 11
306.0587108027977
 21
1156.499455290718
 31
0.0
  0
SOLID
  5
488
330
484
100
AcDbEntity
  8
1
 62
     2
100
AcDbTrace
 10
344.0917193917892
 20
1149.195536582939
 30
0.0
 11
344.0917193917892
 21
1153.803373998498
 31
0.0
 12
361.5917193917892
 22
1151.499455290718
 32
0.0
 13
361.5917193917892
 23
1151.499455290718
 33
0.0
  0
SOLID
  5
489
330
484
100
AcDbEntity
  8
1
 62
     2
100
AcDbTrace
 10
323.5587108027977
 20
1153.803373998498
 30
0.0
 11
323.5587108027977
 21
1149.195536582939
 31
0.0
 12
306.0587108027977
 22
1151.499455290718
 32
0.0
 13
306.0587108027977
 23
1151.499455290718
 33
0.0
  0
MTEXT
  5
48A
330
484
100
AcDbEntity
  8
1
 62
     7
100
AcDbMText
 10
319.7543897688058
 20
1156.499455290718
 30
0.0
 40
17.5
 41
0.0
 71
     7
 72
     1
  1
56
  7
CONVERTER_12
 11
0.9999999999970619
 21
2.424068405545306E-6
 31
0.0
 73
     1
 44
0.60024009603842
  0
ENDBLK
  5
48C
330
484
100
AcDbEntity
  8
0
100
AcDbBlockEnd
  0
BLOCK
  5
496
330
48F
100
AcDbEntity
  8
0
100
AcDbBlockBegin
  2
*D29
 70
     1
 10
0.0
 20
0.0
 30
0.0
  3
*D29
  1

  0
LINE
  5
490
330
48F
100
AcDbEntity
  8
1
  6
Continuous
 62
     2
100
AcDbLine
 10
361.5917193917892
 20
1151.499455290718
 30
0.0
 11
417.1247279807799
 21
1151.499455290718
 31
0.0
  0
LINE
  5
491
330
48F
100
AcDbEntity
  8
1
  6
Continuous
 62
     2
100
AcDbLine
 10
361.5917193917892
 20
1104.499455290718
 30
0.0
 11
361.5917193917892
 21
1156.499455290718
 31
0.0
  0
LINE
  5
492
330
48F
100
AcDbEntity
  8
1
  6
Continuous
 62
     2
100
AcDbLine
 10
417.1247279807799
 20
1041.57359312881
 30
0.0
 11
417.1247279807799
 21
1156.499455290718
 31
0.0
  0
SOLID
  5
493
330
48F
100
AcDbEntity
  8
1
 62
     2
100
AcDbTrace
 10
379.0917193917892
 20
1153.803373998498
 30
0.0
 11
379.0917193917892
 21
1149.195536582939
 31
0.0
 12
361.5917193917892
 22
1151.499455290718
 32
0.0
 13
361.5917193917892
 23
1151.499455290718
 33
0.0
  0
SOLID
  5
494
330
48F
100
AcDbEntity
  8
1
 62
     2
100
AcDbTrace
 10
399.6247279807799
 20
1149.195536582939
 30
0.0
 11
399.6247279807799
 21
1153.803373998498
 31
0.0
 12
417.1247279807799
 22
1151.499455290718
 32
0.0
 13
417.1247279807799
 23
1151.499455290718
 33
0.0
  0
MTEXT
  5
495
330
48F
100
AcDbEntity
  8
1
 62
     7
100
AcDbMText
 10
376.3181591344649
 20
1156.499455290718
 30
0.0
 40
17.5
 41
0.0
 71
     7
 72
     1
  1
56
  7
CONVERTER_12
 11
0.9999999999970619
 21
2.424068405545306E-6
 31
0.0
 73
     1
 44
0.60024009603842
  0
ENDBLK
  5
497
330
48F
100
AcDbEntity
  8
0
100
AcDbBlockEnd
  0
BLOCK
  5
4A3
330
49A
100
AcDbEntity
  8
0
100
AcDbBlockBegin
  2
*D30
 70
     1
 10
0.0
 20
0.0
 30
0.0
  3
*D30
  1

  0
LINE
  5
49B
330
49A
100
AcDbEntity
  8
1
  6
Continuous
 62
     2
100
AcDbLine
 10
807.7063702851707
 20
944.2736202853264
 30
0.0
 11
842.7063702851707
 21
944.2736202853264
 31
0.0
  0
LINE
  5
49C
330
49A
100
AcDbEntity
  8
1
  6
Continuous
 62
     2
100
AcDbLine
 10
781.5917193917887
 20
944.2736202853264
 30
0.0
 11
807.7063702851707
 21
944.2736202853264
 31
0.0
  0
LINE
  5
49D
330
49A
100
AcDbEntity
  8
1
  6
Continuous
 62
     2
100
AcDbLine
 10
746.5917193917887
 20
944.2736202853264
 30
0.0
 11
781.5917193917887
 21
944.2736202853264
 31
0.0
  0
LINE
  5
49E
330
49A
100
AcDbEntity
  8
1
  6
Continuous
 62
     2
100
AcDbLine
 10
807.7063702851707
 20
839.2248321764109
 30
0.0
 11
807.7063702851707
 21
949.2736202853264
 31
0.0
  0
LINE
  5
49F
330
49A
100
AcDbEntity
  8
1
  6
Continuous
 62
     2
100
AcDbLine
 10
781.5917193917887
 20
851.3026615000006
 30
0.0
 11
781.5917193917887
 21
949.2736202853264
 31
0.0
  0
SOLID
  5
4A0
330
49A
100
AcDbEntity
  8
1
 62
     2
100
AcDbTrace
 10
764.0917193917887
 20
941.969701577547
 30
0.0
 11
764.0917193917887
 21
946.5775389931058
 31
0.0
 12
781.5917193917887
 22
944.2736202853264
 32
0.0
 13
781.5917193917887
 23
944.2736202853264
 33
0.0
  0
SOLID
  5
4A1
330
49A
100
AcDbEntity
  8
1
 62
     2
100
AcDbTrace
 10
825.2063702851707
 20
946.5775389931058
 30
0.0
 11
825.2063702851707
 21
941.969701577547
 31
0.0
 12
807.7063702851707
 22
944.2736202853264
 32
0.0
 13
807.7063702851707
 23
944.2736202853264
 33
0.0
  0
MTEXT
  5
4A2
330
49A
100
AcDbEntity
  8
1
 62
     7
100
AcDbMText
 10
788.4205532137107
 20
949.2736202853264
 30
0.0
 40
17.5
 41
0.0
 71
     7
 72
     1
  1
27
  7
CONVERTER_12
 11
0.9999999999970619
 21
2.424068405545306E-6
 31
0.0
 73
     1
 44
0.60024009603842
  0
ENDBLK
  5
4A4
330
49A
100
AcDbEntity
  8
0
100
AcDbBlockEnd
  0
BLOCK
  5
4B0
330
4A7
100
AcDbEntity
  8
0
100
AcDbBlockBegin
  2
*D31
 70
     1
 10
0.0
 20
0.0
 30
0.0
  3
*D31
  1

  0
LINE
  5
4A8
330
4A7
100
AcDbEntity
  8
1
  6
Continuous
 62
     2
100
AcDbLine
 10
804.0917193918021
 20
715.178464559748
 30
0.0
 11
839.0917193918021
 21
715.178464559748
 31
0.0
  0
LINE
  5
4A9
330
4A7
100
AcDbEntity
  8
1
  6
Continuous
 62
     2
100
AcDbLine
 10
759.091719391776
 20
715.178464559748
 30
0.0
 11
804.0917193918021
 21
715.178464559748
 31
0.0
  0
LINE
  5
4AA
330
4A7
100
AcDbEntity
  8
1
  6
Continuous
 62
     2
100
AcDbLine
 10
654.228995403673
 20
715.178464559748
 30
0.0
 11
759.091719391776
 21
715.178464559748
 31
0.0
  0
LINE
  5
4AB
330
4A7
100
AcDbEntity
  8
1
  6
Continuous
 62
     2
100
AcDbLine
 10
804.0917193918021
 20
692.9
 30
0.0
 11
804.0917193918021
 21
720.178464559748
 31
0.0
  0
LINE
  5
4AC
330
4A7
100
AcDbEntity
  8
1
  6
Continuous
 62
     2
100
AcDbLine
 10
759.091719391776
 20
692.9000000000002
 30
0.0
 11
759.091719391776
 21
720.178464559748
 31
0.0
  0
SOLID
  5
4AD
330
4A7
100
AcDbEntity
  8
1
 62
     2
100
AcDbTrace
 10
741.591719391776
 20
712.8745458519686
 30
0.0
 11
741.591719391776
 21
717.4823832675274
 31
0.0
 12
759.091719391776
 22
715.178464559748
 32
0.0
 13
759.091719391776
 23
715.178464559748
 33
0.0
  0
SOLID
  5
4AE
330
4A7
100
AcDbEntity
  8
1
 62
     2
100
AcDbTrace
 10
821.5917193918021
 20
717.4823832675274
 30
0.0
 11
821.5917193918021
 21
712.8745458519686
 31
0.0
 12
804.0917193918021
 22
715.178464559748
 32
0.0
 13
804.0917193918021
 23
715.178464559748
 33
0.0
  0
MTEXT
  5
4AF
330
4A7
100
AcDbEntity
  8
1
 62
     7
100
AcDbMText
 10
660.8789954037152
 20
720.1784297743664
 30
0.0
 40
17.5
 41
0.0
 71
     7
 72
     1
  1
\C7;{\Fgdt;n}\C7;45
  7
CONVERTER_12
 11
0.9999999999970619
 21
2.424068405545306E-6
 31
0.0
 73
     1
 44
0.60024009603842
  0
ENDBLK
  5
4B1
330
4A7
100
AcDbEntity
  8
0
100
AcDbBlockEnd
  0
BLOCK
  5
4BD
330
4B4
100
AcDbEntity
  8
0
100
AcDbBlockBegin
  2
*D32
 70
     1
 10
0.0
 20
0.0
 30
0.0
  3
*D32
  1

  0
LINE
  5
4B5
330
4B4
100
AcDbEntity
  8
1
  6
Continuous
 62
     2
100
AcDbLine
 10
797.5917193918018
 20
595.6999999999999
 30
0.0
 11
894.216719391789
 21
595.6999999999999
 31
0.0
  0
LINE
  5
4B6
330
4B4
100
AcDbEntity
  8
1
  6
Continuous
 62
     2
100
AcDbLine
 10
765.5917193918018
 20
595.6999999999999
 30
0.0
 11
797.5917193918018
 21
595.6999999999999
 31
0.0
  0
LINE
  5
4B7
330
4B4
100
AcDbEntity
  8
1
  6
Continuous
 62
     2
100
AcDbLine
 10
730.5917193918017
 20
595.6999999999999
 30
0.0
 11
765.5917193918018
 21
595.6999999999999
 31
0.0
  0
LINE
  5
4B8
330
4B4
100
AcDbEntity
  8
1
  6
Continuous
 62
     2
100
AcDbLine
 10
797.5917193918018
 20
646.6999999999999
 30
0.0
 11
797.5917193918018
 21
590.6999999999999
 31
0.0
  0
LINE
  5
4B9
330
4B4
100
AcDbEntity
  8
1
  6
Continuous
 62
     2
100
AcDbLine
 10
765.5917193918018
 20
646.6999999999997
 30
0.0
 11
765.5917193918018
 21
590.6999999999999
 31
0.0
  0
SOLID
  5
4BA
330
4B4
100
AcDbEntity
  8
1
 62
     2
100
AcDbTrace
 10
748.0917193918018
 20
593.3960812922205
 30
0.0
 11
748.0917193918018
 21
598.0039187077793
 31
0.0
 12
765.5917193918018
 22
595.6999999999999
 32
0.0
 13
765.5917193918018
 23
595.6999999999999
 33
0.0
  0
SOLID
  5
4BB
330
4B4
100
AcDbEntity
  8
1
 62
     2
100
AcDbTrace
 10
815.0917193918018
 20
598.0039187077793
 30
0.0
 11
815.0917193918018
 21
593.3960812922205
 31
0.0
 12
797.5917193918018
 22
595.6999999999999
 32
0.0
 13
797.5917193918018
 23
595.6999999999999
 33
0.0
  0
MTEXT
  5
4BC
330
4B4
100
AcDbEntity
  8
1
 62
     7
100
AcDbMText
 10
853.6167193918311
 20
600.6999652146183
 30
0.0
 40
17.5
 41
0.0
 71
     7
 72
     1
  1
\C7;{\Fgdt;n}\C7;32
  7
CONVERTER_12
 11
0.9999999999970619
 21
2.424068405545306E-6
 31
0.0
 73
     1
 44
0.60024009603842
  0
ENDBLK
  5
4BE
330
4B4
100
AcDbEntity
  8
0
100
AcDbBlockEnd
  0
BLOCK
  5
4C8
330
4C1
100
AcDbEntity
  8
0
100
AcDbBlockBegin
  2
*D33
 70
     1
 10
0.0
 20
0.0
 30
0.0
  3
*D33
  1

  0
LINE
  5
4C2
330
4C1
100
AcDbEntity
  8
1
  6
Continuous
 62
     2
100
AcDbLine
 10
910.591719391789
 20
691.2
 30
0.0
 11
910.591719391789
 21
872.3781451599124
 31
0.0
  0
LINE
  5
4C3
330
4C1
100
AcDbEntity
  8
1
  6
Continuous
 62
     2
100
AcDbLine
 10
727.1340932845607
 20
872.3781451599124
 30
0.0
 11
915.591719391789
 21
872.3781451599124
 31
0.0
  0
LINE
  5
4C4
330
4C1
100
AcDbEntity
  8
1
  6
Continuous
 62
     2
100
AcDbLine
 10
803.7917193918018
 20
691.2
 30
0.0
 11
915.591719391789
 21
691.2
 31
0.0
  0
SOLID
  5
4C5
330
4C1
100
AcDbEntity
  8
1
 62
     2
100
AcDbTrace
 10
908.2878006840095
 20
708.7
 30
0.0
 11
912.8956380995684
 21
708.7
 31
0.0
 12
910.591719391789
 22
691.2
 32
0.0
 13
910.591719391789
 23
691.2
 33
0.0
  0
SOLID
  5
4C6
330
4C1
100
AcDbEntity
  8
1
 62
     2
100
AcDbTrace
 10
912.8956380995684
 20
854.8781451599124
 30
0.0
 11
908.2878006840095
 21
854.8781451599124
 31
0.0
 12
910.591719391789
 22
872.3781451599124
 32
0.0
 13
910.591719391789
 23
872.3781451599124
 33
0.0
  0
MTEXT
  5
4C7
330
4C1
100
AcDbEntity
  8
1
 62
     7
100
AcDbMText
 10
905.591719391789
 20
752.878134302938
 30
0.0
 40
17.5
 41
0.0
 71
     7
 72
     1
  1
\C7;最大\C7;182
  7
CONVERTER_11
 11
0.0
 21
1.0
 31
0.0
 73
     1
 44
0.45454545454545
  0
ENDBLK
  5
4C9
330
4C1
100
AcDbEntity
  8
0
100
AcDbBlockEnd
  0
BLOCK
  5
4D5
330
4CC
100
AcDbEntity
  8
0
100
AcDbBlockBegin
  2
*D34
 70
     1
 10
0.0
 20
0.0
 30
0.0
  3
*D34
  1

  0
LINE
  5
4CD
330
4CC
100
AcDbEntity
  8
1
  6
Continuous
 62
     2
100
AcDbLine
 10
910.591719391789
 20
645.6999999999999
 30
0.0
 11
910.591719391789
 21
610.6999999999999
 31
0.0
  0
LINE
  5
4CE
330
4CC
100
AcDbEntity
  8
1
  6
Continuous
 62
     2
100
AcDbLine
 10
910.591719391789
 20
691.2
 30
0.0
 11
910.591719391789
 21
645.6999999999999
 31
0.0
  0
LINE
  5
4CF
330
4CC
100
AcDbEntity
  8
1
  6
Continuous
 62
     2
100
AcDbLine
 10
910.591719391789
 20
726.2
 30
0.0
 11
910.591719391789
 21
691.2
 31
0.0
  0
LINE
  5
4D0
330
4CC
100
AcDbEntity
  8
1
  6
Continuous
 62
     2
100
AcDbLine
 10
796.5917193918017
 20
645.6999999999999
 30
0.0
 11
915.591719391789
 21
645.6999999999999
 31
0.0
  0
LINE
  5
4D1
330
4CC
100
AcDbEntity
  8
1
  6
Continuous
 62
     2
100
AcDbLine
 10
803.7917193918017
 20
691.2
 30
0.0
 11
915.591719391789
 21
691.2
 31
0.0
  0
SOLID
  5
4D2
330
4CC
100
AcDbEntity
  8
1
 62
     2
100
AcDbTrace
 10
908.2878006840095
 20
708.7
 30
0.0
 11
912.8956380995684
 21
708.7
 31
0.0
 12
910.591719391789
 22
691.2
 32
0.0
 13
910.591719391789
 23
691.2
 33
0.0
  0
SOLID
  5
4D3
330
4CC
100
AcDbEntity
  8
1
 62
     2
100
AcDbTrace
 10
912.8956380995684
 20
628.1999999999999
 30
0.0
 11
908.2878006840095
 21
628.1999999999999
 31
0.0
 12
910.591719391789
 22
645.6999999999999
 32
0.0
 13
910.591719391789
 23
645.6999999999999
 33
0.0
  0
MTEXT
  5
4D4
330
4CC
100
AcDbEntity
  8
1
 62
     7
100
AcDbMText
 10
905.591719391789
 20
652.0155419804552
 30
0.0
 40
17.5
 41
0.0
 71
     7
 72
     1
  1
46
  7
CONVERTER_12
 11
0.0
 21
1.0
 31
0.0
 73
     1
 44
0.60024009603842
  0
ENDBLK
  5
4D6
330
4CC
100
AcDbEntity
  8
0
100
AcDbBlockEnd
  0
BLOCK
  5
4E0
330
4D9
100
AcDbEntity
  8
0
100
AcDbBlockBegin
  2
*D35
 70
     1
 10
0.0
 20
0.0
 30
0.0
  3
*D35
  1

  0
LINE
  5
4DA
330
4D9
100
AcDbEntity
  8
1
  6
Continuous
 62
     2
100
AcDbLine
 10
870.591719391789
 20
691.2
 30
0.0
 11
870.591719391789
 21
848.3026615000006
 31
0.0
  0
LINE
  5
4DB
330
4D9
100
AcDbEntity
  8
1
  6
Continuous
 62
     2
100
AcDbLine
 10
798.4917193917883
 20
848.3026615000006
 30
0.0
 11
875.591719391789
 21
848.3026615000006
 31
0.0
  0
LINE
  5
4DC
330
4D9
100
AcDbEntity
  8
1
  6
Continuous
 62
     2
100
AcDbLine
 10
803.7917193918018
 20
691.2
 30
0.0
 11
875.591719391789
 21
691.2
 31
0.0
  0
SOLID
  5
4DD
330
4D9
100
AcDbEntity
  8
1
 62
     2
100
AcDbTrace
 10
868.2878006840095
 20
708.7
 30
0.0
 11
872.8956380995684
 21
708.7
 31
0.0
 12
870.591719391789
 22
691.2
 32
0.0
 13
870.591719391789
 23
691.2
 33
0.0
  0
SOLID
  5
4DE
330
4D9
100
AcDbEntity
  8
1
 62
     2
100
AcDbTrace
 10
872.8956380995684
 20
830.8026615000006
 30
0.0
 11
868.2878006840095
 21
830.8026615000006
 31
0.0
 12
870.591719391789
 22
848.3026615000006
 32
0.0
 13
870.591719391789
 23
848.3026615000006
 33
0.0
  0
MTEXT
  5
4DF
330
4D9
100
AcDbEntity
  8
1
 62
     7
100
AcDbMText
 10
865.591719391789
 20
746.7243537319899
 30
0.0
 40
17.5
 41
0.0
 71
     7
 72
     1
  1
\C7;最小\C7;158
  7
CONVERTER_11
 11
0.0
 21
1.0
 31
0.0
 73
     1
 44
0.45454545454545
  0
ENDBLK
  5
4E1
330
4D9
100
AcDbEntity
  8
0
100
AcDbBlockEnd
  0
BLOCK
  5
4EB
330
4E4
100
AcDbEntity
  8
0
100
AcDbBlockBegin
  2
*D36
 70
     1
 10
0.0
 20
0.0
 30
0.0
  3
*D36
  1

  0
LINE
  5
4E5
330
4E4
100
AcDbEntity
  8
1
  6
Continuous
 62
     2
100
AcDbLine
 10
492.5917193917888
 20
691.2
 30
0.0
 11
492.5917193917888
 21
352.193333451585
 31
0.0
  0
LINE
  5
4E6
330
4E4
100
AcDbEntity
  8
1
  6
Continuous
 62
     2
100
AcDbLine
 10
790.5917193917903
 20
352.193333451585
 30
0.0
 11
487.5917193917888
 21
352.193333451585
 31
0.0
  0
LINE
  5
4E7
330
4E4
100
AcDbEntity
  8
1
  6
Continuous
 62
     2
100
AcDbLine
 10
759.3917193917756
 20
691.2
 30
0.0
 11
487.5917193917888
 21
691.2
 31
0.0
  0
SOLID
  5
4E8
330
4E4
100
AcDbEntity
  8
1
 62
     2
100
AcDbTrace
 10
494.8956380995682
 20
673.7
 30
0.0
 11
490.2878006840094
 21
673.7
 31
0.0
 12
492.5917193917888
 22
691.2
 32
0.0
 13
492.5917193917888
 23
691.2
 33
0.0
  0
SOLID
  5
4E9
330
4E4
100
AcDbEntity
  8
1
 62
     2
100
AcDbTrace
 10
490.2878006840094
 20
369.693333451585
 30
0.0
 11
494.8956380995682
 21
369.693333451585
 31
0.0
 12
492.5917193917888
 22
352.193333451585
 32
0.0
 13
492.5917193917888
 23
352.193333451585
 33
0.0
  0
MTEXT
  5
4EA
330
4E4
100
AcDbEntity
  8
1
 62
     7
100
AcDbMText
 10
487.5917193917888
 20
448.0991044533509
 30
0.0
 40
17.5
 41
0.0
 71
     7
 72
     1
  1
\C7;銅管直管時\C7;428
  7
CONVERTER_11
 11
0.0
 21
1.0
 31
0.0
 73
     1
 44
0.45454545454545
  0
ENDBLK
  5
4EC
330
4E4
100
AcDbEntity
  8
0
100
AcDbBlockEnd
  0
BLOCK
  5
4F6
330
4EF
100
AcDbEntity
  8
0
100
AcDbBlockBegin
  2
*D37
 70
     1
 10
0.0
 20
0.0
 30
0.0
  3
*D37
  1

  0
LINE
  5
4F0
330
4EF
100
AcDbEntity
  8
1
  6
Continuous
 62
     2
100
AcDbLine
 10
492.5917193917888
 20
797.5895261894597
 30
0.0
 11
492.5917193917888
 21
691.2
 31
0.0
  0
LINE
  5
4F1
330
4EF
100
AcDbEntity
  8
1
  6
Continuous
 62
     2
100
AcDbLine
 10
759.3917193917756
 20
691.2
 30
0.0
 11
487.5917193917888
 21
691.2
 31
0.0
  0
LINE
  5
4F2
330
4EF
100
AcDbEntity
  8
1
  6
Continuous
 62
     2
100
AcDbLine
 10
643.4157190329398
 20
797.5895261894597
 30
0.0
 11
487.5917193917888
 21
797.5895261894597
 31
0.0
  0
SOLID
  5
4F3
330
4EF
100
AcDbEntity
  8
1
 62
     2
100
AcDbTrace
 10
494.8956380995682
 20
780.0895261894597
 30
0.0
 11
490.2878006840094
 21
780.0895261894597
 31
0.0
 12
492.5917193917888
 22
797.5895261894597
 32
0.0
 13
492.5917193917888
 23
797.5895261894597
 33
0.0
  0
SOLID
  5
4F4
330
4EF
100
AcDbEntity
  8
1
 62
     2
100
AcDbTrace
 10
490.2878006840094
 20
708.7
 30
0.0
 11
494.8956380995682
 21
708.7
 31
0.0
 12
492.5917193917888
 22
691.2
 32
0.0
 13
492.5917193917888
 23
691.2
 33
0.0
  0
MTEXT
  5
4F5
330
4EF
100
AcDbEntity
  8
1
 62
     7
100
AcDbMText
 10
487.5917193917888
 20
721.62033267037
 30
0.0
 40
17.5
 41
0.0
 71
     7
 72
     1
  1
106
  7
CONVERTER_12
 11
0.0
 21
1.0
 31
0.0
 73
     1
 44
0.60024009603842
  0
ENDBLK
  5
4F7
330
4EF
100
AcDbEntity
  8
0
100
AcDbBlockEnd
  0
BLOCK
  5
4FE
330
4FA
100
AcDbEntity
  8
0
100
AcDbBlockBegin
  2
*D38
 70
     1
 10
0.0
 20
0.0
 30
0.0
  3
*D38
  1

  0
LINE
  5
4FB
330
4FA
100
AcDbEntity
  8
1
  6
Continuous
 62
     2
100
AcDbLine
 10
303.8460215921074
 20
489.0033829121409
 30
0.0
 11
142.4058932504529
 21
543.6400054907069
 31
0.0
  0
SOLID
  5
4FC
330
4FA
100
AcDbEntity
  8
1
 62
     2
100
AcDbTrace
 10
286.5310259825856
 20
492.4310597426335
 30
0.0
 11
288.0081681949765
 21
496.7957151164971
 31
0.0
 12
303.8460215921074
 22
489.0033829121409
 32
0.0
 13
303.8460215921074
 23
489.0033829121409
 33
0.0
  0
MTEXT
  5
4FD
330
4FA
100
AcDbEntity
  8
1
 62
     7
100
AcDbMText
 10
162.2428186376616
 20
542.2051218082041
 30
0.0
 40
17.5
 41
0.0
 71
     7
 72
     1
  1
\C7;銅管曲げR\C7;60\C7;以上
  7
CONVERTER_11
 11
0.9472242573329253
 21
-0.3205716867099905
 31
0.0
 73
     1
 44
0.45454545454545
  0
ENDBLK
  5
4FF
330
4FA
100
AcDbEntity
  8
0
100
AcDbBlockEnd
  0
BLOCK
  5
50A
330
501
100
AcDbEntity
  8
0
100
AcDbBlockBegin
  2
*D39
 70
     1
 10
0.0
 20
0.0
 30
0.0
  3
*D39
  1

  0
LINE
  5
502
330
501
100
AcDbEntity
  8
1
  6
Continuous
 62
     2
100
AcDbLine
 10
361.5917193917895
 20
964.0000000000002
 30
0.0
 11
361.5917193917895
 21
959.0000000000002
 31
0.0
  0
LINE
  5
503
330
501
100
AcDbEntity
  8
1
  6
Continuous
 62
     2
100
AcDbLine
 10
446.4445331341785
 20
999.1471862576166
 30
0.0
 11
449.9800670401113
 21
995.6116523516839
 31
0.0
  0
LINE
  5
504
330
501
100
AcDbEntity
  8
1
  6
Continuous
 62
     2
100
AcDbLine
 10
361.5917193917894
 20
1011.000000000001
 30
0.0
 11
361.5917193917895
 21
964.0000000000002
 31
0.0
  0
LINE
  5
505
330
501
100
AcDbEntity
  8
1
  6
Continuous
 62
     2
100
AcDbLine
 10
413.2105144184086
 20
1032.381204973386
 30
0.0
 11
446.4445331341785
 21
999.1471862576166
 31
0.0
  0
ARC
  5
506
330
501
100
AcDbEntity
  8
1
  6
Continuous
 62
     2
100
AcDbCircle
 10
361.5917193917892
 20
1084.000000000004
 30
0.0
 40
120.0000000000034
100
AcDbArc
 50
270.0000000000001
 51
315.0000000000007
  0
SOLID
  5
507
330
501
100
AcDbEntity
  8
1
 62
     2
100
AcDbTrace
 10
378.8773724026289
 20
967.5727078527244
 30
0.0
 11
379.213062894103
 21
962.9771145784933
 31
0.0
 12
361.5917193917895
 22
964.0000000000002
 32
0.0
 13
361.5917193917895
 23
964.0000000000002
 33
0.0
  0
SOLID
  5
508
330
501
100
AcDbEntity
  8
1
 62
     2
100
AcDbTrace
 10
434.7076508679999
 20
985.9637255555886
 30
0.0
 11
431.6954447231169
 21
989.4506697462737
 31
0.0
 12
446.4445331341785
 22
999.1471862576166
 32
0.0
 13
446.4445331341785
 23
999.1471862576166
 33
0.0
  0
MTEXT
  5
509
330
501
100
AcDbEntity
  8
1
 62
     7
100
AcDbMText
 10
390.0044064821336
 20
970.9147148727734
 30
0.0
 40
17.5
 41
0.0
 71
     7
 72
     1
  1
45{\Fgdt;~}
  7
CONVERTER_12
 11
0.9163183621966372
 21
0.4004505701098107
 31
0.0
 73
     1
 44
0.60024009603842
  0
ENDBLK
  5
50B
330
501
100
AcDbEntity
  8
0
100
AcDbBlockEnd
  0
BLOCK
  5
517
330
50E
100
AcDbEntity
  8
0
100
AcDbBlockBegin
  2
*D40
 70
     1
 10
0.0
 20
0.0
 30
0.0
  3
*D40
  1

  0
LINE
  5
50F
330
50E
100
AcDbEntity
  8
1
  6
Continuous
 62
     2
100
AcDbLine
 10
276.7389056494038
 20
999.1471862576186
 30
0.0
 11
273.203371743471
 21
995.6116523516858
 31
0.0
  0
LINE
  5
510
330
50E
100
AcDbEntity
  8
1
  6
Continuous
 62
     2
100
AcDbLine
 10
361.5917193917895
 20
964.0000000000039
 30
0.0
 11
361.5917193917895
 21
959.0000000000039
 31
0.0
  0
LINE
  5
511
330
50E
100
AcDbEntity
  8
1
  6
Continuous
 62
     2
100
AcDbLine
 10
309.9729243651717
 20
1032.381204973386
 30
0.0
 11
276.7389056494038
 21
999.1471862576186
 31
0.0
  0
LINE
  5
512
330
50E
100
AcDbEntity
  8
1
  6
Continuous
 62
     2
100
AcDbLine
 10
361.5917193917894
 20
1011.000000000001
 30
0.0
 11
361.5917193917895
 21
964.0000000000039
 31
0.0
  0
ARC
  5
513
330
50E
100
AcDbEntity
  8
1
  6
Continuous
 62
     2
100
AcDbCircle
 10
361.5917193917892
 20
1084.000000000002
 30
0.0
 40
119.9999999999984
100
AcDbArc
 50
224.9999999999994
 51
270.0000000000001
  0
SOLID
  5
514
330
50E
100
AcDbEntity
  8
1
 62
     2
100
AcDbTrace
 10
291.4879940604654
 20
989.4506697462757
 30
0.0
 11
288.4757879155824
 21
985.9637255555906
 31
0.0
 12
276.7389056494038
 22
999.1471862576186
 32
0.0
 13
276.7389056494038
 23
999.1471862576186
 33
0.0
  0
SOLID
  5
515
330
50E
100
AcDbEntity
  8
1
 62
     2
100
AcDbTrace
 10
343.9703758894761
 20
962.977114578497
 30
0.0
 11
344.3060663809502
 21
967.5727078527281
 31
0.0
 12
361.5917193917895
 22
964.0000000000039
 32
0.0
 13
361.5917193917895
 23
964.0000000000039
 33
0.0
  0
MTEXT
  5
516
330
50E
100
AcDbEntity
  8
1
 62
     7
100
AcDbMText
 10
301.9511279784699
 20
983.8073737450271
 30
0.0
 40
17.5
 41
0.0
 71
     7
 72
     1
  1
45{\Fgdt;~}
  7
CONVERTER_12
 11
0.931938888444573
 21
-0.3626153722674951
 31
0.0
 73
     1
 44
0.60024009603842
  0
ENDBLK
  5
518
330
50E
100
AcDbEntity
  8
0
100
AcDbBlockEnd
  0
BLOCK
  5
524
330
51B
100
AcDbEntity
  8
0
100
AcDbBlockBegin
  2
*D41
 70
     1
 10
0.0
 20
0.0
 30
0.0
  3
*D41
  1

  0
LINE
  5
51C
330
51B
100
AcDbEntity
  8
1
  6
Continuous
 62
     2
100
AcDbLine
 10
643.4157190329396
 20
794.5175613517059
 30
0.0
 11
643.4157190329357
 21
742.9223158529669
 31
0.0
  0
LINE
  5
51D
330
51B
100
AcDbEntity
  8
1
  6
Continuous
 62
     2
100
AcDbLine
 10
642.7919839583282
 20
794.650140334558
 30
0.0
 11
632.0507945787996
 21
744.1168175507977
 31
0.0
  0
LINE
  5
51E
330
51B
100
AcDbEntity
  8
1
  6
Continuous
 62
     2
100
AcDbLine
 10
643.4157190329357
 20
742.9223158529669
 30
0.0
 11
643.4157190329354
 21
737.9223158529669
 31
0.0
  0
LINE
  5
51F
330
51B
100
AcDbEntity
  8
1
  6
Continuous
 62
     2
100
AcDbLine
 10
632.0507945787996
 20
744.1168175507977
 30
0.0
 11
631.0112361211131
 21
739.2260795478934
 31
0.0
  0
ARC
  5
520
330
51B
100
AcDbEntity
  8
1
  6
Continuous
 62
     2
100
AcDbCircle
 10
643.4157190329398
 20
797.5845831362999
 30
0.0
 40
54.66226728333289
100
AcDbArc
 50
191.6273473515431
 51
297.5146693865185
  0
SOLID
  5
521
330
51B
100
AcDbEntity
  8
1
 62
     2
100
AcDbTrace
 10
614.899901255729
 20
748.2887355309007
 30
0.0
 11
616.5640756019732
 21
752.5855587054713
 31
0.0
 12
632.0507945787996
 22
744.1168175507977
 32
0.0
 13
632.0507945787996
 23
744.1168175507977
 33
0.0
  0
SOLID
  5
522
330
51B
100
AcDbEntity
  8
1
 62
     2
100
AcDbTrace
 10
660.3247663396478
 20
747.9861247545181
 30
0.0
 11
661.0592147089137
 21
743.437196172851
 31
0.0
 12
643.4157190329357
 22
742.9223158529669
 32
0.0
 13
643.4157190329357
 23
742.9223158529669
 33
0.0
  0
MTEXT
  5
523
330
51B
100
AcDbEntity
  8
1
 62
     7
100
AcDbMText
 10
594.346367051238
 20
779.2834871905087
 30
0.0
 40
17.5
 41
0.0
 71
     7
 72
     1
  1
12{\Fgdt;~}
  7
CONVERTER_12
 11
0.6288081598581498
 21
-0.7775604787383469
 31
0.0
 73
     1
 44
0.60024009603842
  0
ENDBLK
  5
525
330
51B
100
AcDbEntity
  8
0
100
AcDbBlockEnd
  0
ENDSEC
  0
SECTION
  2
ENTITIES
  0
INSERT
  5
98
330
1F
100
AcDbEntity
  8
1
100
AcDbBlockReference
  2
30-360X-470-C6
 10
582.3308601234933
 20
882.4329472335181
 30
0.0
 41
1.0
 42
1.0
 43
1.0
  0
INSERT
  5
99
330
1F
100
AcDbEntity
  8
1
100
AcDbBlockReference
  2
新コラム洗面混合栓ノーマル130618
 10
1050.0
 20
0.0
 30
0.0
 41
1.0
 42
1.0
 43
1.0
  0
INSERT
  5
9A
330
1F
100
AcDbEntity
  8
1
100
AcDbBlockReference
  2
V843FE__5
 10
1571.774563704627
 20
1533.449999999999
 30
0.0
 41
1.0
 42
1.0
 43
1.0
  0
INSERT
  5
9B
330
1F
100
AcDbEntity
  8
1
100
AcDbBlockReference
  2
V843FE__8
 10
1575.0
 20
1575.789999999999
 30
0.0
 41
1.0
 42
1.0
 43
1.0
  0
INSERT
  5
9C
330
1F
100
AcDbEntity
  8
1
100
AcDbBlockReference
  2
35-338-M11
 10
1196.330860123494
 20
1302.432947233518
 30
0.0
 41
1.0
 42
1.0
 43
1.0
  0
INSERT
  5
9D
330
1F
100
AcDbEntity
  8
0
100
AcDbBlockReference
  2
32-33-32
 10
660.0453288592439
 20
589.4495240620076
 30
0.0
 41
1.0
 42
1.0
 43
1.0
  0
INSERT
  5
9E
330
1F
100
AcDbEntity
  8
0
100
AcDbBlockReference
  2
73-1-32_5-C2
 10
648.3605951314332
 20
613.7927193282799
 30
0.0
 41
1.0
 42
1.0
 43
1.0
  0
INSERT
  5
9F
330
1F
100
AcDbEntity
  8
1
100
AcDbBlockReference
  2
27-21-M1
 10
632.116709991006
 20
885.3668266841773
 30
0.0
 41
1.0
 42
1.0
 43
1.0
  0
INSERT
  5
A0
330
1F
100
AcDbEntity
  8
1
100
AcDbBlockReference
  2
81-414-1-SH
 10
401.0891018826861
 20
926.7044784133406
 30
0.0
 41
1.0
 42
1.0
 43
1.0
  0
INSERT
  5
A1
330
1F
100
AcDbEntity
  8
0
100
AcDbBlockReference
  2
30-255-M11
 10
1596.363102955559
 20
859.7739273576102
 30
0.0
 41
1.0
 42
1.0
 43
1.0
  0
INSERT
  5
A2
330
1F
100
AcDbEntity
  8
1
100
AcDbBlockReference
  2
30-358-M1
 10
582.3308601234933
 20
1302.534948494536
 30
0.0
 41
1.0
 42
1.0
 43
1.0
  0
INSERT
  5
A3
330
1F
100
AcDbEntity
  8
1
100
AcDbBlockReference
  2
87-141
 10
415.4524425370786
 20
934.5952052814674
 30
0.0
 41
1.0
 42
1.0
 43
1.0
  0
INSERT
  5
A4
330
1F
100
AcDbEntity
  8
1
100
AcDbBlockReference
  2
開示A4
 10
0.0
 20
0.0
 30
0.0
 41
5.0
 42
5.0
 43
5.0
  0
INSERT
  5
A5
330
1F
100
AcDbEntity
  8
0
100
AcDbBlockReference
  2
98-126
 10
1406.330860123493
 20
1302.647727390118
 30
0.0
 41
1.0
 42
1.0
 43
1.0
  0
INSERT
  5
A6
330
1F
100
AcDbEntity
  8
0
100
AcDbBlockReference
  2
92-64A
 10
710.6791750130903
 20
538.4741394466232
 30
0.0
 41
1.0
 42
1.0
 43
1.0
  0
LINE
  5
414
330
1F
100
AcDbEntity
  8
1
  6
DASH_CENTER
 62
     2
100
AcDbLine
 10
377.1588897047756
 20
562.0590971233382
 30
0.0
 11
413.9499853741743
 21
500.6558181195496
 31
0.0
  0
LINE
  5
415
330
1F
100
AcDbEntity
  8
1
  6
DASH_CENTER
 62
     2
100
AcDbLine
 10
346.0245490788018
 20
562.0590971233382
 30
0.0
 11
309.2334534094028
 21
500.6558181195497
 31
0.0
  0
LINE
  5
416
330
1F
100
AcDbEntity
  8
1
  6
DASH_CENTER
 62
     2
100
AcDbLine
 10
368.5917193917886
 20
593.025976455024
 30
0.0
 11
368.5917193917886
 21
658.6999999999998
 31
0.0
  0
LINE
  5
417
330
1F
100
AcDbEntity
  8
1
  6
DASH_CENTER
 62
     2
100
AcDbLine
 10
354.5917193917888
 20
658.6999999999998
 30
0.0
 11
354.5917193917888
 21
593.0259764550241
 31
0.0
  0
LINE
  5
418
330
1F
100
AcDbEntity
  8
1
  6
DASH_CENTER
 62
     2
100
AcDbLine
 10
422.5171556871613
 20
342.1933334515853
 30
0.0
 11
422.5171556871613
 21
469.688938787864
 31
0.0
  0
LINE
  5
419
330
1F
100
AcDbEntity
  8
1
  6
DASH_CENTER
 62
     2
100
AcDbLine
 10
300.666283096416
 20
342.1933334515853
 30
0.0
 11
300.6662830964161
 21
469.688938787864
 31
0.0
  0
LINE
  5
41A
330
1F
100
AcDbEntity
  8
1
  6
DASH_CENTER
 62
     2
100
AcDbLine
 10
382.0911746825036
 20
1084.000000000001
 30
0.0
 11
341.0922641010741
 21
1084.000000000001
 31
0.0
  0
LINE
  5
41B
330
1F
100
AcDbEntity
  8
1
  6
Continuous
 62
     2
100
AcDbLine
 10
318.0
 20
939.0000000000034
 30
0.0
 11
281.0
 21
939.0000000000034
 31
0.0
  0
LINE
  5
41C
330
1F
100
AcDbEntity
  8
1
  6
Continuous
 62
     2
100
AcDbLine
 10
405.0
 20
939.0000000000034
 30
0.0
 11
441.0
 21
939.0000000000034
 31
0.0
  0
LINE
  5
41D
330
1F
100
AcDbEntity
  8
1
  6
Continuous
 62
     2
100
AcDbLine
 10
654.3701543828944
 20
830.3163291851956
 30
0.0
 11
691.3701543828944
 21
830.3163291851956
 31
0.0
  0
LINE
  5
41E
330
1F
100
AcDbEntity
  8
1
  6
Continuous
 62
     2
100
AcDbLine
 10
707.3701543828944
 20
891.3163291851954
 30
0.0
 11
742.3701543828944
 21
891.3163291851954
 31
0.0
  0
LINE
  5
41F
102
{ACAD_REACTORS
330
529
102
}
330
1F
100
AcDbEntity
  8
1
  6
PHANTOM
 62
     4
100
AcDbLine
 10
400.5917193917885
 20
688.6999999999999
 30
0.0
 11
400.5917193917885
 21
673.2000000000002
 31
0.0
  0
LINE
  5
420
102
{ACAD_REACTORS
330
529
102
}
330
1F
100
AcDbEntity
  8
1
  6
Continuous
 62
     2
100
AcDbLine
 10
380.5917193917885
 20
673.2000000000002
 30
0.0
 11
400.5917193917885
 21
673.2000000000002
 31
0.0
  0
LINE
  5
421
102
{ACAD_REACTORS
330
529
102
}
330
1F
100
AcDbEntity
  8
1
  6
Continuous
 62
     2
100
AcDbLine
 10
380.5917193917885
 20
673.2000000000002
 30
0.0
 11
380.5917193917885
 21
688.6999999999999
 31
0.0
  0
LINE
  5
422
102
{ACAD_REACTORS
330
529
102
}
330
1F
100
AcDbEntity
  8
1
  6
Continuous
 62
     2
100
AcDbLine
 10
380.5917193917885
 20
688.6999999999999
 30
0.0
 11
400.5917193917885
 21
688.6999999999999
 31
0.0
  0
LINE
  5
423
102
{ACAD_REACTORS
330
528
102
}
330
1F
100
AcDbEntity
  8
1
  6
PHANTOM
 62
     4
100
AcDbLine
 10
322.5917193917885
 20
688.6999999999999
 30
0.0
 11
322.5917193917885
 21
673.2000000000002
 31
0.0
  0
LINE
  5
424
102
{ACAD_REACTORS
330
528
102
}
330
1F
100
AcDbEntity
  8
1
  6
Continuous
 62
     2
100
AcDbLine
 10
342.5917193917885
 20
673.2000000000002
 30
0.0
 11
322.5917193917885
 21
673.2000000000002
 31
0.0
  0
LINE
  5
425
102
{ACAD_REACTORS
330
528
102
}
330
1F
100
AcDbEntity
  8
1
  6
Continuous
 62
     2
100
AcDbLine
 10
342.5917193917885
 20
688.6999999999999
 30
0.0
 11
342.5917193917885
 21
673.2000000000002
 31
0.0
  0
LINE
  5
426
102
{ACAD_REACTORS
330
528
102
}
330
1F
100
AcDbEntity
  8
1
  6
Continuous
 62
     2
100
AcDbLine
 10
322.5917193917885
 20
688.6999999999999
 30
0.0
 11
342.5917193917885
 21
688.6999999999999
 31
0.0
  0
LINE
  5
427
102
{ACAD_REACTORS
330
52A
102
}
330
1F
100
AcDbEntity
  8
1
  6
Continuous
 62
     2
100
AcDbLine
 10
742.5917193917887
 20
688.6999999999999
 30
0.0
 11
762.5917193917887
 21
688.6999999999999
 31
0.0
  0
LINE
  5
428
102
{ACAD_REACTORS
330
52A
102
}
330
1F
100
AcDbEntity
  8
1
  6
Continuous
 62
     2
100
AcDbLine
 10
762.5917193917887
 20
688.6999999999999
 30
0.0
 11
762.5917193917887
 21
673.2000000000002
 31
0.0
  0
LINE
  5
429
102
{ACAD_REACTORS
330
52A
102
}
330
1F
100
AcDbEntity
  8
1
  6
Continuous
 62
     2
100
AcDbLine
 10
762.5917193917887
 20
673.2000000000002
 30
0.0
 11
742.5917193917887
 21
673.2000000000002
 31
0.0
  0
LINE
  5
42A
102
{ACAD_REACTORS
330
52A
102
}
330
1F
100
AcDbEntity
  8
1
  6
PHANTOM
 62
     4
100
AcDbLine
 10
742.5917193917887
 20
688.6999999999999
 30
0.0
 11
742.5917193917887
 21
673.2000000000002
 31
0.0
  0
LINE
  5
42B
102
{ACAD_REACTORS
330
52B
102
}
330
1F
100
AcDbEntity
  8
1
  6
Continuous
 62
     2
100
AcDbLine
 10
800.5917193917887
 20
688.6999999999999
 30
0.0
 11
820.5917193917887
 21
688.6999999999999
 31
0.0
  0
LINE
  5
42C
102
{ACAD_REACTORS
330
52B
102
}
330
1F
100
AcDbEntity
  8
1
  6
Continuous
 62
     2
100
AcDbLine
 10
800.5917193917887
 20
673.2000000000002
 30
0.0
 11
800.5917193917887
 21
688.6999999999999
 31
0.0
  0
LINE
  5
42D
102
{ACAD_REACTORS
330
52B
102
}
330
1F
100
AcDbEntity
  8
1
  6
Continuous
 62
     2
100
AcDbLine
 10
800.5917193917887
 20
673.2000000000002
 30
0.0
 11
820.5917193917887
 21
673.2000000000002
 31
0.0
  0
LINE
  5
42E
102
{ACAD_REACTORS
330
52B
102
}
330
1F
100
AcDbEntity
  8
1
  6
PHANTOM
 62
     4
100
AcDbLine
 10
820.5917193917887
 20
688.6999999999999
 30
0.0
 11
820.5917193917887
 21
673.2000000000002
 31
0.0
  0
LINE
  5
42F
330
1F
100
AcDbEntity
  8
0
  6
DASH_CENTER
 62
     2
100
AcDbLine
 10
365.8417189667885
 20
900.1000000000024
 30
0.0
 11
365.841719391789
 21
900.1000000000024
 31
0.0
  0
LINE
  5
430
330
1F
100
AcDbEntity
  8
1
  6
DASH_CENTER
 62
     2
100
AcDbLine
 10
361.5917193917886
 20
851.3026615000006
 30
0.0
 11
361.5917193917886
 21
642.6999999999999
 31
0.0
  0
LINE
  5
431
330
1F
100
AcDbEntity
  8
1
  6
DASH_CENTER
 62
     2
100
AcDbLine
 10
781.5917193917887
 20
851.3026615000006
 30
0.0
 11
781.5917193917887
 21
642.6999999999999
 31
0.0
  0
LINE
  5
432
330
1F
100
AcDbEntity
  8
1
  6
DASH_CENTER
 62
     2
100
AcDbLine
 10
361.5917193917892
 20
1104.499455290718
 30
0.0
 11
361.5917193917894
 21
1011.000000000001
 31
0.0
  0
LINE
  5
433
330
1F
100
AcDbEntity
  8
1
  6
DASH_CENTER
 62
     2
100
AcDbLine
 10
347.0964155450945
 20
1098.495303846698
 30
0.0
 11
413.2105144184087
 21
1032.381204973386
 31
0.0
  0
LINE
  5
434
330
1F
100
AcDbEntity
  8
1
  6
DASH_CENTER
 62
     2
100
AcDbLine
 10
376.0870232384841
 20
1098.495303846697
 30
0.0
 11
309.9729243651717
 21
1032.381204973386
 31
0.0
  0
LINE
  5
435
330
1F
100
AcDbEntity
  8
1
  6
DASH_CENTER
 62
     2
100
AcDbLine
 10
642.7919839583282
 20
794.650140334558
 30
0.0
 11
644.3938928793191
 21
802.1865292496348
 31
0.0
  0
LINE
  5
436
330
1F
100
AcDbEntity
  8
1
  6
DASH_CENTER
 62
     2
100
AcDbLine
 10
643.4157190329396
 20
794.5175613517059
 30
0.0
 11
643.4157190329398
 21
797.5895261894597
 31
0.0
  0
LINE
  5
437
330
1F
100
AcDbEntity
  8
1
  6
DASH_CENTER
 62
     2
100
AcDbLine
 10
644.3938928793191
 20
802.1865292496348
 30
0.0
 11
649.6011041670985
 21
826.6845321719344
 31
0.0
  0
LINE
  5
438
330
1F
100
AcDbEntity
  8
1
  6
DASH_CENTER
 62
     2
100
AcDbLine
 10
784.0660327286952
 20
782.2567449167899
 30
0.0
 11
626.0330122637497
 21
815.8478210698169
 31
0.0
  0
LINE
  5
439
330
1F
100
AcDbEntity
  8
1
  6
DASH_CENTER
 62
     2
100
AcDbLine
 10
780.0917193917884
 20
837.3044784133381
 30
0.0
 11
760.5911746825028
 21
837.3044784133381
 31
0.0
  0
LINE
  5
43A
330
1F
100
AcDbEntity
  8
1
  6
DASH_CENTER
 62
     2
100
AcDbLine
 10
792.8292365665494
 20
849.1183094376303
 30
0.0
 11
780.4678996115407
 21
818.5229268496395
 31
0.0
  0
LINE
  5
43B
330
1F
100
AcDbEntity
  8
1
  6
DASH_CENTER
 62
     2
100
AcDbLine
 10
768.391174682503
 20
829.3044784133383
 30
0.0
 11
762.9911746825029
 21
829.3044784133383
 31
0.0
  0
LINE
  5
43C
330
1F
100
AcDbEntity
  8
1
  6
DASH_CENTER
 62
     2
100
AcDbLine
 10
778.5917193917865
 20
342.1933334515852
 30
0.0
 11
778.5917193917885
 21
645.6999999999999
 31
0.0
  0
ARC
  5
43D
330
1F
100
AcDbEntity
  8
1
  6
Continuous
 62
     2
100
AcDbCircle
 10
816.8396301693734
 20
765.2876695322657
 30
0.0
 40
150.0000000000001
100
AcDbArc
 50
133.2023811412279
 51
142.4876699724118
  0
ARC
  5
43E
330
1F
100
AcDbEntity
  8
1
  6
Continuous
 62
     2
100
AcDbCircle
 10
361.5917193917887
 20
1033.000000000003
 30
0.0
 40
119.9999999999995
100
AcDbArc
 50
254.927693903789
 51
285.0000000000001
  0
ARC
  5
43F
330
1F
100
AcDbEntity
  8
1
  6
DASH_CENTER
 62
     2
100
AcDbCircle
 10
362.2671556871613
 20
469.688938787864
 30
0.0
 40
60.25
100
AcDbArc
 50
0.0
 51
30.92884029725865
  0
ARC
  5
440
330
1F
100
AcDbEntity
  8
1
  6
DASH_CENTER
 62
     2
100
AcDbCircle
 10
428.8417193917886
 20
593.025976455024
 30
0.0
 40
60.25
100
AcDbArc
 50
180.0
 51
210.9288402972587
  0
ARC
  5
441
330
1F
100
AcDbEntity
  8
1
  6
DASH_CENTER
 62
     2
100
AcDbCircle
 10
360.9162830964161
 20
469.688938787864
 30
0.0
 40
60.25000000000008
100
AcDbArc
 50
149.0711597027415
 51
180.0
  0
ARC
  5
442
330
1F
100
AcDbEntity
  8
1
  6
DASH_CENTER
 62
     2
100
AcDbCircle
 10
294.3417193917887
 20
593.025976455024
 30
0.0
 40
60.24999999999991
100
AcDbArc
 50
329.0711597027413
 51
0.00000000000011
  0
SOLID
  5
443
330
1F
100
AcDbEntity
  8
1
 62
     2
100
AcDbTrace
 10
439.343357261657
 20
331.1898482392473
 30
0.0
 11
435.3528530032747
 21
328.8859295314679
 31
0.0
 12
428.5981051324657
 22
345.1933334515852
 32
0.0
 13
428.5981051324657
 23
345.1933334515852
 33
0.0
  0
LEADER
  5
444
330
1F
100
AcDbEntity
  8
1
  6
Continuous
 62
     2
100
AcDbLeader
  3
Standard
 71
     0
 76
     3
 10
428.5981051324657
 20
345.1933334515852
 30
0.0
 10
445.9186132081543
 20
315.1933334515852
 30
0.0
 10
501.8511394293867
 20
315.1933334515852
 30
0.0
  0
SOLID
  5
445
330
1F
100
AcDbEntity
  8
1
 62
     2
100
AcDbTrace
 10
701.4524882103556
 20
865.7857177672297
 30
0.0
 11
705.2065678044047
 21
863.1138173106692
 31
0.0
 12
693.1819785665244
 22
850.1922347809514
 32
0.0
 13
693.1819785665244
 23
850.1922347809514
 33
0.0
  0
LEADER
  5
446
330
1F
100
AcDbEntity
  8
1
  6
Continuous
 62
     2
100
AcDbLeader
  3
Standard
 71
     0
 76
     2
 10
693.1819785665244
 20
850.1922347809514
 30
0.0
 10
696.1172305891681
 20
854.3163291851954
 30
0.0
  0
SOLID
  5
447
330
1F
100
AcDbEntity
  8
1
 62
     2
100
AcDbTrace
 10
708.3704085482093
 20
866.3834392539362
 30
0.0
 11
705.30319280256
 21
869.8220949822501
 31
0.0
 12
719.8963923706775
 22
879.7516754254084
 32
0.0
 13
719.8963923706775
 23
879.7516754254084
 33
0.0
  0
LEADER
  5
448
330
1F
100
AcDbEntity
  8
1
  6
Continuous
 62
     2
100
AcDbLeader
  3
Standard
 71
     0
 76
     2
 10
719.8963923706775
 20
879.7516754254084
 30
0.0
 10
714.1530201145232
 20
874.6286962122963
 30
0.0
  0
SOLID
  5
449
330
1F
100
AcDbEntity
  8
1
 62
     2
100
AcDbTrace
 10
385.7380969447539
 20
913.1027154818615
 30
0.0
 11
384.2698085982437
 21
917.4703572917775
 31
0.0
 12
401.5917193917887
 22
920.8629150101553
 32
0.0
 13
401.5917193917887
 23
920.8629150101553
 33
0.0
  0
LEADER
  5
44A
330
1F
100
AcDbEntity
  8
1
  6
Continuous
 62
     2
100
AcDbLeader
  3
Standard
 71
     0
 76
     2
 10
401.5917193917887
 20
920.8629150101553
 30
0.0
 10
398.0585448642905
 20
919.6751530070685
 30
0.0
  0
SOLID
  5
44B
330
1F
100
AcDbEntity
  8
1
 62
     2
100
AcDbTrace
 10
338.9108542806292
 20
917.4562145369384
 30
0.0
 11
337.4390001064755
 21
913.0897730867126
 31
0.0
 12
321.591719391789
 22
920.8629150101553
 32
0.0
 13
321.591719391789
 23
920.8629150101553
 33
0.0
  0
LEADER
  5
44C
330
1F
100
AcDbEntity
  8
1
  6
Continuous
 62
     2
100
AcDbLeader
  3
Standard
 71
     0
 76
     2
 10
321.591719391789
 20
920.8629150101553
 30
0.0
 10
324.9382429307275
 20
919.7348580567214
 30
0.0
  0
SOLID
  5
44D
330
1F
100
AcDbEntity
  8
1
 62
     2
100
AcDbTrace
 10
745.2452521291906
 20
644.6925960798827
 30
0.0
 11
741.2547478708082
 21
646.9965147876621
 31
0.0
 12
751.9999999999995
 22
661.0
 32
0.0
 13
751.9999999999995
 23
661.0
 33
0.0
  0
LEADER
  5
44E
330
1F
100
AcDbEntity
  8
1
  6
Continuous
 62
     2
100
AcDbLeader
  3
Standard
 71
     0
 76
     3
 10
751.9999999999995
 20
661.0
 30
0.0
 10
706.389328734019
 20
582.0
 30
0.0
 10
529.1173295680571
 20
582.0
 30
0.0
  0
SOLID
  5
44F
330
1F
100
AcDbEntity
  8
1
 62
     2
100
AcDbTrace
 10
757.3369715209798
 20
635.8306601846787
 30
0.0
 11
753.3464672625973
 21
638.1345788924581
 31
0.0
 12
764.0917193917887
 22
652.138064104796
 32
0.0
 13
764.0917193917887
 23
652.138064104796
 33
0.0
  0
LEADER
  5
450
330
1F
100
AcDbEntity
  8
1
  6
Continuous
 62
     2
100
AcDbLeader
  3
Standard
 71
     0
 76
     3
 10
764.0917193917887
 20
652.138064104796
 30
0.0
 10
704.5126502023322
 20
548.9440892009954
 30
0.0
 10
602.396102607091
 20
548.9440892009954
 30
0.0
  0
MTEXT
  5
452
330
1F
100
AcDbEntity
  8
1
 62
     7
100
AcDbMText
 10
681.9946230601374
 20
878.1053430861559
 30
0.0
 40
17.5
 41
0.0
 71
     5
 72
     1
  1
25{\Fgdt;~}
  7
CONVERTER_12
 73
     1
 44
0.7202881152461
  0
MTEXT
  5
453
330
1F
100
AcDbEntity
  8
1
 62
     7
100
AcDbMText
 10
468.7499999999999
 20
85.0
 30
0.0
 40
17.5
 41
0.0
 71
     5
 72
     1
  1
5
  7
CONVERTER_12
 73
     1
 44
0.7202881152461
  0
MTEXT
  5
454
330
1F
100
AcDbEntity
  8
1
 62
     7
100
AcDbMText
 10
426.2499999999999
 20
85.0
 30
0.0
 40
17.5
 41
0.0
 71
     5
 72
     1
  1
1
  7
CONVERTER_12
 73
     1
 44
0.7202881152461
  0
MTEXT
  5
455
330
1F
100
AcDbEntity
  8
0
 62
     7
100
AcDbMText
 10
285.0
 20
113.7500000000001
 30
0.0
 40
17.5
 41
0.0
 71
     5
 72
     1
  1
シングルワンホール\P　　洗面混合栓
  7
CONVERTER_11
 73
     1
 44
0.54545454545455
  0
MTEXT
  5
456
330
1F
100
AcDbEntity
  8
0
 62
     7
100
AcDbMText
 10
284.9999999999999
 20
71.25
 30
0.0
 40
17.5
 41
0.0
 71
     5
 72
     1
  1
K4750NV-13
  7
CONVERTER_12
 73
     1
 44
0.7202881152461
  0
MTEXT
  5
457
330
1F
100
AcDbEntity
  8
1
 62
     7
100
AcDbMText
 10
421.5917193917887
 20
954.0000000000034
 30
0.0
 40
17.5
 41
0.0
 71
     5
 72
     1
  1
水側
  7
CONVERTER_11
 73
     1
 44
0.54545454545455
  0
MTEXT
  5
458
330
1F
100
AcDbEntity
  8
1
 62
     7
100
AcDbMText
 10
672.9618737746831
 20
845.3163291851956
 30
0.0
 40
17.5
 41
0.0
 71
     5
 72
     1
  1
止水
  7
CONVERTER_11
 73
     1
 44
0.54545454545455
  0
MTEXT
  5
459
330
1F
100
AcDbEntity
  8
1
 62
     7
100
AcDbMText
 10
724.9618737746831
 20
906.3163291851956
 30
0.0
 40
17.5
 41
0.0
 71
     5
 72
     1
  1
吐水
  7
CONVERTER_11
 73
     1
 44
0.54545454545455
  0
MTEXT
  5
45A
330
1F
100
AcDbEntity
  8
1
 62
     7
100
AcDbMText
 10
299.591719391789
 20
954.0000000000034
 30
0.0
 40
17.5
 41
0.0
 71
     5
 72
     1
  1
湯側
  7
CONVERTER_11
 73
     1
 44
0.54545454545455
  0
MTEXT
  5
45B
330
1F
100
AcDbEntity
  8
1
 62
     7
100
AcDbMText
 10
475.9431538402405
 20
330.1933334515852
 30
0.0
 40
17.5
 41
0.0
 71
     5
 72
     1
  1
G1/2
  7
CONVERTER_12
 73
     1
 44
0.7202881152461
  0
MTEXT
  5
45C
330
1F
100
AcDbEntity
  8
1
 62
     7
100
AcDbMText
 10
615.0926455875504
 20
597.0
 30
0.0
 40
17.5
 41
0.0
 71
     5
 72
     1
  1
取付穴径{\Fgdt;n}33-{\Fgdt;n}35
  7
CONVERTER_11
 73
     1
 44
0.54545454545455
  0
MTEXT
  5
45D
330
1F
100
AcDbEntity
  8
1
 62
     7
100
AcDbMText
 10
652.1876690844065
 20
563.9440892009954
 30
0.0
 40
17.5
 41
0.0
 71
     5
 72
     1
  1
M32X1,5
  7
CONVERTER_12
 73
     1
 44
0.7202881152461
  0
MTEXT
  5
45E
330
1F
100
AcDbEntity
  8
1
 62
     7
100
AcDbMText
 10
170.0
 20
170.0
 30
0.0
 40
17.5
 41
0.0
 71
     4
 72
     1
  1
JIS\P吐水口は固定式
  7
CONVERTER_11
 73
     1
 44
0.54545454545455
  0
DIMENSION
  5
46B
330
1F
100
AcDbEntity
  8
1
100
AcDbDimension
  2
*D25
 10
532.5917193917887
 20
688.6999999999999
 30
0.0
 11
518.8417193917887
 21
716.795326861132
 31
0.0
 70
    32
  1
最大30最小5
 71
     5
 42
-1.0
 53
90.0
  3
ME10_DIM_10
100
AcDbAlignedDimension
 13
742.5917193917887
 23
673.2000000000002
 33
0.0
 14
742.5917193917887
 24
688.6999999999999
 34
0.0
 50
90.0
100
AcDbRotatedDimension
  0
DIMENSION
  5
476
330
1F
100
AcDbEntity
  8
1
100
AcDbDimension
  2
*D26
 10
781.5917193917887
 20
944.2736202853264
 30
0.0
 11
712.5037192123643
 21
958.0236202853264
 31
0.0
 70
    32
  1
138
 71
     5
 42
-1.0
 53
0.00013888888889
  3
ME10_DIM_11
100
AcDbAlignedDimension
 13
643.4157190329398
 23
797.5895261894597
 33
0.0
 14
781.5917193917887
 24
851.3026615000006
 34
0.0
100
AcDbRotatedDimension
  0
DIMENSION
  5
483
330
1F
100
AcDbEntity
  8
1
100
AcDbDimension
  2
*D27
 10
763.5917193917884
 20
555.6999999999999
 30
0.0
 11
900.7231232390266
 21
569.4499999999999
 31
0.0
 70
    32
  1
<>
 71
     5
 42
-1.0
 53
0.00013888888889
  3
ME10_DIM_12
100
AcDbAlignedDimension
 13
799.5917193917882
 23
664.2000000000002
 33
0.0
 14
763.5917193917883
 24
664.2000000000002
 34
0.0
100
AcDbRotatedDimension
  0
DIMENSION
  5
48E
330
1F
100
AcDbEntity
  8
1
100
AcDbDimension
  2
*D28
 10
361.5917193917892
 20
1151.499455290718
 30
0.0
 11
332.8793897688058
 21
1165.249455290718
 31
0.0
 70
    32
  1
56
 71
     5
 42
-1.0
 53
0.00013888888889
  3
ME10_DIM_13
100
AcDbAlignedDimension
 13
306.0587108027977
 23
1041.573593128812
 33
0.0
 14
361.5917193917892
 24
1104.499455290718
 34
0.0
100
AcDbRotatedDimension
  0
DIMENSION
  5
499
330
1F
100
AcDbEntity
  8
1
100
AcDbDimension
  2
*D29
 10
361.5917193917892
 20
1151.499455290718
 30
0.0
 11
389.4431591344649
 21
1165.249455290718
 31
0.0
 70
    32
  1
56
 71
     5
 42
-1.0
 53
0.00013888888889
  3
ME10_DIM_14
100
AcDbAlignedDimension
 13
417.1247279807798
 23
1041.57359312881
 33
0.0
 14
361.5917193917892
 24
1104.499455290718
 34
0.0
100
AcDbRotatedDimension
  0
DIMENSION
  5
4A6
330
1F
100
AcDbEntity
  8
1
100
AcDbDimension
  2
*D30
 10
781.5917193917887
 20
944.2736202853264
 30
0.0
 11
801.5455532137107
 21
958.0236202853264
 31
0.0
 70
    32
  1
27
 71
     5
 42
-1.0
 53
0.00013888888889
  3
ME10_DIM_15
100
AcDbAlignedDimension
 13
807.7063702851705
 23
839.2248321764108
 33
0.0
 14
781.5917193917887
 24
851.3026615000006
 34
0.0
100
AcDbRotatedDimension
  0
DIMENSION
  5
4B3
330
1F
100
AcDbEntity
  8
1
100
AcDbDimension
  2
*D31
 10
759.091719391776
 20
715.178464559748
 30
0.0
 11
677.853995403673
 21
728.928464559748
 31
0.0
 70
    32
  1
<>
 71
     5
 42
-1.0
 53
0.00013888888889
  3
ME10_DIM_16
100
AcDbAlignedDimension
 13
804.0917193918016
 23
692.8999999999997
 33
0.0
 14
759.0917193917754
 24
692.8999999999997
 34
0.0
100
AcDbRotatedDimension
  0
DIMENSION
  5
4C0
330
1F
100
AcDbEntity
  8
1
100
AcDbDimension
  2
*D32
 10
765.5917193918018
 20
595.6999999999999
 30
0.0
 11
870.591719391789
 21
609.4499999999999
 31
0.0
 70
    32
  1
<>
 71
     5
 42
-1.0
 53
0.00013888888889
  3
ME10_DIM_17
100
AcDbAlignedDimension
 13
797.5917193918017
 23
646.6999999999997
 33
0.0
 14
765.5917193918016
 24
646.6999999999995
 34
0.0
100
AcDbRotatedDimension
  0
DIMENSION
  5
4CB
330
1F
100
AcDbEntity
  8
1
100
AcDbDimension
  2
*D33
 10
910.591719391789
 20
691.2
 30
0.0
 11
896.841719391789
 21
779.281259302938
 31
0.0
 70
    32
  1
最大182
 71
     5
 42
-1.0
 53
90.0
  3
ME10_DIM_18
100
AcDbAlignedDimension
 13
727.1340932845605
 23
872.3781451599122
 33
0.0
 14
803.7917193918016
 24
691.1999999999999
 34
0.0
 50
90.0
100
AcDbRotatedDimension
  0
DIMENSION
  5
4D8
330
1F
100
AcDbEntity
  8
1
100
AcDbDimension
  2
*D34
 10
910.591719391789
 20
691.2
 30
0.0
 11
896.841719391789
 21
665.1405419804552
 31
0.0
 70
    32
  1
46
 71
     5
 42
-1.0
 53
90.0
  3
ME10_DIM_19
100
AcDbAlignedDimension
 13
796.5917193918016
 23
645.6999999999998
 33
0.0
 14
803.7917193918016
 24
691.1999999999999
 34
0.0
 50
90.0
100
AcDbRotatedDimension
  0
DIMENSION
  5
4E3
330
1F
100
AcDbEntity
  8
1
100
AcDbDimension
  2
*D35
 10
870.591719391789
 20
691.2
 30
0.0
 11
856.841719391789
 21
773.12747873199
 31
0.0
 70
    32
  1
最小158
 71
     5
 42
-1.0
 53
90.0
  3
ME10_DIM_20
100
AcDbAlignedDimension
 13
798.491719391788
 23
848.3026615000005
 33
0.0
 14
803.7917193918016
 24
691.1999999999999
 34
0.0
 50
90.0
100
AcDbRotatedDimension
  0
DIMENSION
  5
4EE
330
1F
100
AcDbEntity
  8
1
100
AcDbDimension
  2
*D36
 10
492.5917193917888
 20
691.2
 30
0.0
 11
478.8417193917888
 21
493.708479453351
 31
0.0
 70
    32
  1
銅管直管時428
 71
     5
 42
-1.0
 53
90.0
  3
ME10_DIM_21
100
AcDbAlignedDimension
 13
790.5917193917902
 23
352.1933334515849
 33
0.0
 14
759.3917193917754
 24
691.1999999999999
 34
0.0
 50
90.0
100
AcDbRotatedDimension
  0
DIMENSION
  5
4F9
330
1F
100
AcDbEntity
  8
1
100
AcDbDimension
  2
*D37
 10
492.5917193917888
 20
797.5895261894597
 30
0.0
 11
478.8417193917888
 21
739.99533267037
 31
0.0
 70
    32
  1
106
 71
     5
 42
-1.0
 53
90.0
  3
ME10_DIM_22
100
AcDbAlignedDimension
 13
759.3917193917754
 23
691.1999999999999
 33
0.0
 14
643.4157190329398
 24
797.5895261894597
 34
0.0
 50
90.0
100
AcDbRotatedDimension
  0
INSERT
  5
500
330
1F
100
AcDbEntity
  8
1
100
AcDbBlockReference
  2
*D38
 10
0.0
 20
0.0
 30
0.0
  0
DIMENSION
  5
50D
330
1F
100
AcDbEntity
  8
1
100
AcDbDimension
  2
*D39
 10
407.5137312756025
 20
973.1344560986465
 30
0.0
 11
404.139592465958
 21
986.6411740166078
 31
0.0
 70
    37
  1
<>
 71
     5
 42
-1.0
  3
ME10_DIM_23
100
AcDb3PointAngularDimension
 13
361.5917193917894
 23
1011.000000000001
 33
0.0
 14
413.2105144184087
 24
1032.381204973386
 34
0.0
 15
361.5917193917892
 25
1084.000000000004
 35
0.0
  0
DIMENSION
  5
51A
330
1F
100
AcDbEntity
  8
1
100
AcDbDimension
  2
*D40
 10
315.6697075079785
 20
973.1344560986496
 30
0.0
 11
323.0638360883685
 21
984.9814931027679
 31
0.0
 70
    37
  1
<>
 71
     5
 42
-1.0
  3
ME10_DIM_24
100
AcDb3PointAngularDimension
 13
309.9729243651717
 23
1032.381204973386
 33
0.0
 14
361.5917193917894
 24
1011.000000000001
 34
0.0
 15
361.5917193917892
 25
1084.000000000002
 35
0.0
  0
DIMENSION
  5
527
330
1F
100
AcDbEntity
  8
1
100
AcDbDimension
  2
*D41
 10
637.701956215091
 20
743.2217614746542
 30
0.0
 11
611.6039568978402
 21
771.8586156302425
 31
0.0
 70
    37
  1
<>
 71
     5
 42
-1.0
  3
ME10_DIM_25
100
AcDb3PointAngularDimension
 13
642.7919839583282
 23
794.650140334558
 33
0.0
 14
643.4157190329396
 24
794.5175613517059
 34
0.0
 15
643.4157190329398
 25
797.5845831362999
 35
0.0
  0
HATCH
  5
528
330
1F
100
AcDbEntity
  8
1
  6
Continuous
 62
     4
100
AcDbHatch
 10
0.0
 20
0.0
 30
0.0
210
0.0
220
0.0
230
1.0
  2
CUSTOM0
 70
     0
 71
     1
 91
        1
 92
        1
 93
        4
 72
     1
 10
342.5917193917885
 20
688.6999999999999
 11
342.5917193917885
 21
673.2000000000002
 72
     1
 10
342.5917193917885
 20
673.2000000000002
 11
322.5917193917885
 21
673.2000000000002
 72
     1
 10
322.5917193917885
 20
673.2000000000002
 11
322.5917193917885
 21
688.6999999999999
 72
     1
 10
322.5917193917885
 20
688.6999999999999
 11
342.5917193917885
 21
688.6999999999999
 97
        4
330
425
330
424
330
423
330
426
 75
     1
 76
     2
 52
45.0
 41
2.0
 77
     0
 78
     2
 53
45.0
 43
0.0
 44
0.0
 45
-8.485281374238571
 46
0.0000000000000009
 79
     0
 53
45.0
 43
1.414213562373095
 44
-1.414213562373095
 45
-8.485281374238571
 46
0.0000000000000009
 79
     0
 98
        1
 10
0.0
 20
0.0
  0
HATCH
  5
529
330
1F
100
AcDbEntity
  8
1
  6
Continuous
 62
     4
100
AcDbHatch
 10
0.0
 20
0.0
 30
0.0
210
0.0
220
0.0
230
1.0
  2
CUSTOM1
 70
     0
 71
     1
 91
        1
 92
        1
 93
        4
 72
     1
 10
400.5917193917885
 20
688.6999999999999
 11
400.5917193917885
 21
673.2000000000002
 72
     1
 10
400.5917193917885
 20
673.2000000000002
 11
380.5917193917885
 21
673.2000000000002
 72
     1
 10
380.5917193917885
 20
673.2000000000002
 11
380.5917193917885
 21
688.6999999999999
 72
     1
 10
380.5917193917885
 20
688.6999999999999
 11
400.5917193917885
 21
688.6999999999999
 97
        4
330
41F
330
420
330
421
330
422
 75
     1
 76
     2
 52
45.0
 41
2.0
 77
     0
 78
     2
 53
45.0
 43
0.0
 44
0.0
 45
-8.485281374238571
 46
0.0000000000000009
 79
     0
 53
45.0
 43
1.414213562373095
 44
-1.414213562373095
 45
-8.485281374238571
 46
0.0000000000000009
 79
     0
 98
        1
 10
0.0
 20
0.0
  0
HATCH
  5
52A
330
1F
100
AcDbEntity
  8
1
  6
Continuous
 62
     4
100
AcDbHatch
 10
0.0
 20
0.0
 30
0.0
210
0.0
220
0.0
230
1.0
  2
CUSTOM2
 70
     0
 71
     1
 91
        1
 92
        1
 93
        4
 72
     1
 10
762.5917193917887
 20
688.6999999999999
 11
762.5917193917887
 21
673.2000000000002
 72
     1
 10
762.5917193917887
 20
673.2000000000002
 11
742.5917193917887
 21
673.2000000000002
 72
     1
 10
742.5917193917887
 20
673.2000000000002
 11
742.5917193917887
 21
688.6999999999999
 72
     1
 10
742.5917193917887
 20
688.6999999999999
 11
762.5917193917887
 21
688.6999999999999
 97
        4
330
428
330
429
330
42A
330
427
 75
     1
 76
     2
 52
45.0
 41
2.0
 77
     0
 78
     2
 53
45.0
 43
0.0
 44
0.0
 45
-8.485281374238571
 46
0.0000000000000009
 79
     0
 53
45.0
 43
1.414213562373095
 44
-1.414213562373095
 45
-8.485281374238571
 46
0.0000000000000009
 79
     0
 98
        1
 10
0.0
 20
0.0
  0
HATCH
  5
52B
330
1F
100
AcDbEntity
  8
1
  6
Continuous
 62
     4
100
AcDbHatch
 10
0.0
 20
0.0
 30
0.0
210
0.0
220
0.0
230
1.0
  2
CUSTOM3
 70
     0
 71
     1
 91
        1
 92
        1
 93
        4
 72
     1
 10
820.5917193917887
 20
688.6999999999999
 11
820.5917193917887
 21
673.2000000000002
 72
     1
 10
820.5917193917887
 20
673.2000000000002
 11
800.5917193917887
 21
673.2000000000002
 72
     1
 10
800.5917193917887
 20
673.2000000000002
 11
800.5917193917887
 21
688.6999999999999
 72
     1
 10
800.5917193917887
 20
688.6999999999999
 11
820.5917193917887
 21
688.6999999999999
 97
        4
330
42E
330
42D
330
42C
330
42B
 75
     1
 76
     2
 52
45.0
 41
2.0
 77
     0
 78
     2
 53
45.0
 43
0.0
 44
0.0
 45
-8.485281374238571
 46
0.0000000000000009
 79
     0
 53
45.0
 43
1.414213562373095
 44
-1.414213562373095
 45
-8.485281374238571
 46
0.0000000000000009
 79
     0
 98
        1
 10
0.0
 20
0.0
  0
ENDSEC
  0
SECTION
  2
OBJECTS
  0
DICTIONARY
  5
C
330
0
100
AcDbDictionary
281
     1
  3
ACAD_GROUP
350
D
  3
ACAD_LAYOUT
350
1A
  3
ACAD_MATERIAL
350
3B
  3
ACAD_MLEADERSTYLE
350
52E
  3
ACAD_MLINESTYLE
350
17
  3
ACAD_PLOTSETTINGS
350
19
  3
ACAD_PLOTSTYLENAME
350
E
  3
ACAD_VISUALSTYLE
350
2A
  3
AcDbVariableDictionary
350
52C
  0
DICTIONARY
  5
D
102
{ACAD_REACTORS
330
C
102
}
330
C
100
AcDbDictionary
281
     1
  0
DICTIONARY
  5
1A
102
{ACAD_REACTORS
330
C
102
}
330
C
100
AcDbDictionary
281
     1
  3
Layout1
350
1E
  3
Layout2
350
26
  3
Model
350
22
  0
DICTIONARY
  5
3B
102
{ACAD_REACTORS
330
C
102
}
330
C
100
AcDbDictionary
281
     1
  3
ByBlock
350
3D
  3
ByLayer
350
3C
  3
Global
350
3E
  0
DICTIONARY
  5
52E
102
{ACAD_REACTORS
330
C
102
}
330
C
100
AcDbDictionary
281
     1
  0
DICTIONARY
  5
17
102
{ACAD_REACTORS
330
C
102
}
330
C
100
AcDbDictionary
281
     1
  3
Standard
350
18
  0
DICTIONARY
  5
19
102
{ACAD_REACTORS
330
C
102
}
330
C
100
AcDbDictionary
281
     1
  0
ACDBDICTIONARYWDFLT
  5
E
102
{ACAD_REACTORS
330
C
102
}
330
C
100
AcDbDictionary
281
     1
  3
Normal
350
F
100
AcDbDictionaryWithDefault
340
F
  0
DICTIONARY
  5
2A
102
{ACAD_REACTORS
330
C
102
}
330
C
100
AcDbDictionary
281
     1
  3
2dWireframe
350
2F
  3
3D Hidden
350
31
  3
3dWireframe
350
30
  3
Basic
350
32
  3
Brighten
350
36
  3
ColorChange
350
3A
  3
Conceptual
350
34
  3
Dim
350
35
  3
Facepattern
350
39
  3
Flat
350
2B
  3
FlatWithEdges
350
2C
  3
Gouraud
350
2D
  3
GouraudWithEdges
350
2E
  3
Linepattern
350
38
  3
Realistic
350
33
  3
Thicken
350
37
  0
DICTIONARY
  5
52C
102
{ACAD_REACTORS
330
C
102
}
330
C
100
AcDbDictionary
281
     1
  3
DIMASSOC
350
52F
  3
HIDETEXT
350
530
  0
LAYOUT
  5
1E
102
{ACAD_REACTORS
330
1A
102
}
330
1A
100
AcDbPlotSettings
  1

  2
none_device
  4

  6

 40
0.0
 41
0.0
 42
0.0
 43
0.0
 44
0.0
 45
0.0
 46
0.0
 47
0.0
 48
0.0
 49
0.0
140
0.0
141
0.0
142
1.0
143
1.0
 70
   688
 72
     0
 73
     0
 74
     5
  7

 75
    16
147
1.0
148
0.0
149
0.0
100
AcDbLayout
  1
Layout1
 70
     1
 71
     1
 10
0.0
 20
0.0
 11
12.0
 21
9.0
 12
0.0
 22
0.0
 32
0.0
 14
1.00000000000000E+20
 24
1.00000000000000E+20
 34
1.00000000000000E+20
 15
-1.00000000000000E+20
 25
-1.00000000000000E+20
 35
-1.00000000000000E+20
146
0.0
 13
0.0
 23
0.0
 33
0.0
 16
1.0
 26
0.0
 36
0.0
 17
0.0
 27
1.0
 37
0.0
 76
     0
330
1B
  0
LAYOUT
  5
26
102
{ACAD_REACTORS
330
1A
102
}
330
1A
100
AcDbPlotSettings
  1

  2
none_device
  4

  6

 40
0.0
 41
0.0
 42
0.0
 43
0.0
 44
0.0
 45
0.0
 46
0.0
 47
0.0
 48
0.0
 49
0.0
140
0.0
141
0.0
142
1.0
143
1.0
 70
   688
 72
     0
 73
     0
 74
     5
  7

 75
    16
147
1.0
148
0.0
149
0.0
100
AcDbLayout
  1
Layout2
 70
     1
 71
     2
 10
0.0
 20
0.0
 11
0.0
 21
0.0
 12
0.0
 22
0.0
 32
0.0
 14
0.0
 24
0.0
 34
0.0
 15
0.0
 25
0.0
 35
0.0
146
0.0
 13
0.0
 23
0.0
 33
0.0
 16
1.0
 26
0.0
 36
0.0
 17
0.0
 27
1.0
 37
0.0
 76
     0
330
23
  0
LAYOUT
  5
22
102
{ACAD_REACTORS
330
1A
102
}
330
1A
100
AcDbPlotSettings
  1

  2
none_device
  4

  6

 40
0.0
 41
0.0
 42
0.0
 43
0.0
 44
0.0
 45
0.0
 46
0.0
 47
0.0
 48
0.0
 49
0.0
140
0.0
141
0.0
142
1.0
143
1.0
 70
  1712
 72
     0
 73
     0
 74
     0
  7

 75
     0
147
1.0
148
0.0
149
0.0
100
AcDbLayout
  1
Model
 70
     1
 71
     0
 10
0.0
 20
0.0
 11
12.0
 21
9.0
 12
0.0
 22
0.0
 32
0.0
 14
0.0
 24
0.0
 34
0.0
 15
1050.0
 25
1485.0
 35
0.0
146
0.0
 13
0.0
 23
0.0
 33
0.0
 16
1.0
 26
0.0
 36
0.0
 17
0.0
 27
1.0
 37
0.0
 76
     0
330
1F
331
29
  0
MATERIAL
  5
3D
102
{ACAD_REACTORS
330
3B
102
}
102
{ACAD_XDICTIONARY
360
553
102
}
330
3B
100
AcDbMaterial
  1
ByBlock
  0
MATERIAL
  5
3C
102
{ACAD_REACTORS
330
3B
102
}
102
{ACAD_XDICTIONARY
360
551
102
}
330
3B
100
AcDbMaterial
  1
ByLayer
  0
MATERIAL
  5
3E
102
{ACAD_REACTORS
330
3B
102
}
102
{ACAD_XDICTIONARY
360
555
102
}
330
3B
100
AcDbMaterial
  1
Global
  0
MLINESTYLE
  5
18
102
{ACAD_REACTORS
330
17
102
}
330
17
100
AcDbMlineStyle
  2
Standard
 70
     0
  3

 62
   256
 51
90.0
 52
90.0
 71
     2
 49
0.5
 62
   256
  6
BYLAYER
 49
-0.5
 62
   256
  6
BYLAYER
  0
ACDBPLACEHOLDER
  5
F
102
{ACAD_REACTORS
330
E
102
}
330
E
  0
VISUALSTYLE
  5
2F
102
{ACAD_REACTORS
330
2A
102
}
102
{ACAD_XDICTIONARY
360
539
102
}
330
2A
100
AcDbVisualStyle
  2
2dWireframe
 70
     4
 71
     0
 72
     2
 73
     0
 90
        0
 40
-0.6
 41
-30.0
 62
     5
 63
     7
 74
     1
 91
        4
 64
     7
 65
   257
 75
     1
175
     1
 42
1.0
 92
        0
 66
   257
 43
1.0
 76
     1
 77
     6
 78
     2
 67
     7
 79
     5
170
     0
171
     0
290
     0
174
     0
 93
        1
 44
0.0
173
     0
291
     0
 45
0.0
1001
ACAD
1000
AcDbSavedByObjectVersion
1070
     0
  0
VISUALSTYLE
  5
31
102
{ACAD_REACTORS
330
2A
102
}
102
{ACAD_XDICTIONARY
360
53D
102
}
330
2A
100
AcDbVisualStyle
  2
3D Hidden
 70
     6
 71
     1
 72
     2
 73
     2
 90
        0
 40
-0.6
 41
-30.0
 62
     5
 63
     7
 74
     2
 91
        2
 64
     7
 65
   257
 75
     2
175
     1
 42
40.0
 92
        0
 66
   257
 43
1.0
 76
     1
 77
     6
 78
     2
 67
     7
 79
     3
170
     0
171
     0
290
     0
174
     0
 93
        1
 44
0.0
173
     0
291
     0
 45
0.0
1001
ACAD
1000
AcDbSavedByObjectVersion
1070
     0
  0
VISUALSTYLE
  5
30
102
{ACAD_REACTORS
330
2A
102
}
102
{ACAD_XDICTIONARY
360
53B
102
}
330
2A
100
AcDbVisualStyle
  2
3dWireframe
 70
     5
 71
     0
 72
     2
 73
     0
 90
        0
 40
-0.6
 41
-30.0
 62
     5
 63
     7
 74
     1
 91
        4
 64
     7
 65
   257
 75
     1
175
     1
 42
1.0
 92
        0
 66
   257
 43
1.0
 76
     1
 77
     6
 78
     2
 67
     7
 79
     5
170
     0
171
     0
290
     0
174
     0
 93
        1
 44
0.0
173
     0
291
     0
 45
0.0
1001
ACAD
1000
AcDbSavedByObjectVersion
1070
     0
  0
VISUALSTYLE
  5
32
102
{ACAD_REACTORS
330
2A
102
}
102
{ACAD_XDICTIONARY
360
53F
102
}
330
2A
100
AcDbVisualStyle
  2
Basic
 70
     7
 71
     1
 72
     0
 73
     1
 90
        0
 40
-0.6
 41
-30.0
 62
     5
 63
     7
 74
     0
 91
        4
 64
     7
 65
   257
 75
     1
175
     1
 42
1.0
 92
        8
 66
     7
 43
1.0
 76
     1
 77
     6
 78
     2
 67
     7
 79
     5
170
     0
171
     0
290
     0
174
     0
 93
        1
 44
0.0
173
     0
291
     1
 45
0.0
1001
ACAD
1000
AcDbSavedByObjectVersion
1070
     0
  0
VISUALSTYLE
  5
36
102
{ACAD_REACTORS
330
2A
102
}
102
{ACAD_XDICTIONARY
360
547
102
}
330
2A
100
AcDbVisualStyle
  2
Brighten
 70
    12
 71
     2
 72
     2
 73
     0
 90
        0
 40
-0.6
 41
-30.0
 62
     5
 63
     7
 74
     1
 91
        4
 64
     7
 65
   257
 75
     1
175
     1
 42
1.0
 92
        8
 66
     7
 43
1.0
 76
     1
 77
     6
 78
     2
 67
     7
 79
     5
170
     0
171
     0
290
     0
174
     0
 93
        1
 44
50.0
173
     0
291
     1
 45
0.0
1001
ACAD
1000
AcDbSavedByObjectVersion
1070
     0
  0
VISUALSTYLE
  5
3A
102
{ACAD_REACTORS
330
2A
102
}
102
{ACAD_XDICTIONARY
360
54F
102
}
330
2A
100
AcDbVisualStyle
  2
ColorChange
 70
    16
 71
     2
 72
     2
 73
     3
 90
        0
 40
-0.6
 41
-30.0
 62
     5
 63
     8
 74
     1
 91
        4
 64
     7
 65
   257
 75
     1
175
     1
 42
1.0
 92
        8
 66
     8
 43
1.0
 76
     1
 77
     6
 78
     2
 67
     7
 79
     5
170
     0
171
     0
290
     0
174
     0
 93
        1
 44
0.0
173
     0
291
     1
 45
0.0
1001
ACAD
1000
AcDbSavedByObjectVersion
1070
     0
  0
VISUALSTYLE
  5
34
102
{ACAD_REACTORS
330
2A
102
}
102
{ACAD_XDICTIONARY
360
543
102
}
330
2A
100
AcDbVisualStyle
  2
Conceptual
 70
     9
 71
     3
 72
     2
 73
     0
 90
        0
 40
-0.6
 41
-30.0
 62
     5
 63
     7
 74
     2
 91
        2
 64
     7
 65
   257
 75
     1
175
     1
 42
40.0
 92
        8
 66
     7
 43
1.0
 76
     1
 77
     6
 78
     2
 67
     7
 79
     3
170
     0
171
     0
290
     0
174
     0
 93
        1
 44
0.0
173
     0
291
     0
 45
0.0
1001
ACAD
1000
AcDbSavedByObjectVersion
1070
     0
  0
VISUALSTYLE
  5
35
102
{ACAD_REACTORS
330
2A
102
}
102
{ACAD_XDICTIONARY
360
545
102
}
330
2A
100
AcDbVisualStyle
  2
Dim
 70
    11
 71
     2
 72
     2
 73
     0
 90
        0
 40
-0.6
 41
-30.0
 62
     5
 63
     7
 74
     1
 91
        4
 64
     7
 65
   257
 75
     1
175
     1
 42
1.0
 92
        8
 66
     7
 43
1.0
 76
     1
 77
     6
 78
     2
 67
     7
 79
     5
170
     0
171
     0
290
     0
174
     0
 93
        1
 44
-50.0
173
     0
291
     1
 45
0.0
1001
ACAD
1000
AcDbSavedByObjectVersion
1070
     0
  0
VISUALSTYLE
  5
39
102
{ACAD_REACTORS
330
2A
102
}
102
{ACAD_XDICTIONARY
360
54D
102
}
330
2A
100
AcDbVisualStyle
  2
Facepattern
 70
    15
 71
     2
 72
     2
 73
     0
 90
        0
 40
-0.6
 41
-30.0
 62
     5
 63
     7
 74
     1
 91
        4
 64
     7
 65
   257
 75
     1
175
     1
 42
1.0
 92
        8
 66
     7
 43
1.0
 76
     1
 77
     6
 78
     2
 67
     7
 79
     5
170
     0
171
     0
290
     0
174
     0
 93
        1
 44
0.0
173
     0
291
     1
 45
0.0
1001
ACAD
1000
AcDbSavedByObjectVersion
1070
     0
  0
VISUALSTYLE
  5
2B
102
{ACAD_REACTORS
330
2A
102
}
102
{ACAD_XDICTIONARY
360
531
102
}
330
2A
100
AcDbVisualStyle
  2
Flat
 70
     0
 71
     2
 72
     1
 73
     1
 90
        2
 40
-0.6
 41
30.0
 62
     5
 63
     7
 74
     0
 91
        4
 64
     7
 65
   257
 75
     1
175
     1
 42
1.0
 92
        8
 66
     7
 43
1.0
 76
     1
 77
     6
 78
     2
 67
     7
 79
     5
170
     0
171
     0
290
     0
174
     0
 93
       13
 44
0.0
173
     0
291
     1
 45
0.0
1001
ACAD
1000
AcDbSavedByObjectVersion
1070
     0
  0
VISUALSTYLE
  5
2C
102
{ACAD_REACTORS
330
2A
102
}
102
{ACAD_XDICTIONARY
360
533
102
}
330
2A
100
AcDbVisualStyle
  2
FlatWithEdges
 70
     1
 71
     2
 72
     1
 73
     1
 90
        2
 40
-0.6
 41
30.0
 62
     5
 63
     7
 74
     1
 91
        4
 64
     7
 65
   257
 75
     1
175
     1
 42
1.0
 92
        0
 66
   257
 43
1.0
 76
     1
 77
     6
 78
     2
 67
     7
 79
     5
170
     0
171
     0
290
     0
174
     0
 93
       13
 44
0.0
173
     0
291
     1
 45
0.0
1001
ACAD
1000
AcDbSavedByObjectVersion
1070
     0
  0
VISUALSTYLE
  5
2D
102
{ACAD_REACTORS
330
2A
102
}
102
{ACAD_XDICTIONARY
360
535
102
}
330
2A
100
AcDbVisualStyle
  2
Gouraud
 70
     2
 71
     2
 72
     2
 73
     1
 90
        2
 40
-0.6
 41
30.0
 62
     5
 63
     7
 74
     0
 91
        4
 64
     7
 65
   257
 75
     1
175
     1
 42
1.0
 92
        0
 66
     7
 43
1.0
 76
     1
 77
     6
 78
     2
 67
     7
 79
     5
170
     0
171
     0
290
     0
174
     0
 93
       13
 44
0.0
173
     0
291
     1
 45
0.0
1001
ACAD
1000
AcDbSavedByObjectVersion
1070
     0
  0
VISUALSTYLE
  5
2E
102
{ACAD_REACTORS
330
2A
102
}
102
{ACAD_XDICTIONARY
360
537
102
}
330
2A
100
AcDbVisualStyle
  2
GouraudWithEdges
 70
     3
 71
     2
 72
     2
 73
     1
 90
        2
 40
-0.6
 41
30.0
 62
     5
 63
     7
 74
     1
 91
        4
 64
     7
 65
   257
 75
     1
175
     1
 42
1.0
 92
        0
 66
   257
 43
1.0
 76
     1
 77
     6
 78
     2
 67
     7
 79
     5
170
     0
171
     0
290
     0
174
     0
 93
       13
 44
0.0
173
     0
291
     1
 45
0.0
1001
ACAD
1000
AcDbSavedByObjectVersion
1070
     0
  0
VISUALSTYLE
  5
38
102
{ACAD_REACTORS
330
2A
102
}
102
{ACAD_XDICTIONARY
360
54B
102
}
330
2A
100
AcDbVisualStyle
  2
Linepattern
 70
    14
 71
     2
 72
     2
 73
     0
 90
        0
 40
-0.6
 41
-30.0
 62
     5
 63
     7
 74
     1
 91
        4
 64
     7
 65
   257
 75
     7
175
     7
 42
1.0
 92
        8
 66
     7
 43
1.0
 76
     1
 77
     6
 78
     2
 67
     7
 79
     5
170
     0
171
     0
290
     0
174
     0
 93
        1
 44
0.0
173
     0
291
     1
 45
0.0
1001
ACAD
1000
AcDbSavedByObjectVersion
1070
     0
  0
VISUALSTYLE
  5
33
102
{ACAD_REACTORS
330
2A
102
}
102
{ACAD_XDICTIONARY
360
541
102
}
330
2A
100
AcDbVisualStyle
  2
Realistic
 70
     8
 71
     2
 72
     2
 73
     0
 90
        0
 40
-0.6
 41
-30.0
 62
     5
 63
     7
 74
     1
 91
        0
 64
     7
 65
   257
 75
     1
175
     1
 42
1.0
 92
        8
 66
     8
 43
1.0
 76
     1
 77
     6
 78
     2
 67
     7
 79
     5
170
     0
171
     0
290
     0
174
     0
 93
       13
 44
0.0
173
     0
291
     0
 45
0.0
1001
ACAD
1000
AcDbSavedByObjectVersion
1070
     0
  0
VISUALSTYLE
  5
37
102
{ACAD_REACTORS
330
2A
102
}
102
{ACAD_XDICTIONARY
360
549
102
}
330
2A
100
AcDbVisualStyle
  2
Thicken
 70
    13
 71
     2
 72
     2
 73
     0
 90
        0
 40
-0.6
 41
-30.0
 62
     5
 63
     7
 74
     1
 91
        4
 64
     7
 65
   257
 75
     1
175
     1
 42
1.0
 92
       12
 66
     7
 43
1.0
 76
     1
 77
     6
 78
     2
 67
     7
 79
     5
170
     0
171
     0
290
     0
174
     0
 93
        1
 44
0.0
173
     0
291
     1
 45
0.0
1001
ACAD
1000
AcDbSavedByObjectVersion
1070
     0
  0
DICTIONARYVAR
  5
52F
102
{ACAD_REACTORS
330
52C
102
}
330
52C
100
DictionaryVariables
280
     0
  1
2
  0
DICTIONARYVAR
  5
530
102
{ACAD_REACTORS
330
52C
102
}
330
52C
100
DictionaryVariables
280
     0
  1
1
  0
DICTIONARY
  5
553
330
3D
100
AcDbDictionary
280
     1
281
     1
  3
ACAD_XREC_ROUNDTRIP
360
554
  0
DICTIONARY
  5
551
330
3C
100
AcDbDictionary
280
     1
281
     1
  3
ACAD_XREC_ROUNDTRIP
360
552
  0
DICTIONARY
  5
555
330
3E
100
AcDbDictionary
280
     1
281
     1
  3
ACAD_XREC_ROUNDTRIP
360
556
  0
DICTIONARY
  5
539
330
2F
100
AcDbDictionary
280
     1
281
     1
  3
ACAD_XREC_ROUNDTRIP
360
53A
  0
DICTIONARY
  5
53D
330
31
100
AcDbDictionary
280
     1
281
     1
  3
ACAD_XREC_ROUNDTRIP
360
53E
  0
DICTIONARY
  5
53B
330
30
100
AcDbDictionary
280
     1
281
     1
  3
ACAD_XREC_ROUNDTRIP
360
53C
  0
DICTIONARY
  5
53F
330
32
100
AcDbDictionary
280
     1
281
     1
  3
ACAD_XREC_ROUNDTRIP
360
540
  0
DICTIONARY
  5
547
330
36
100
AcDbDictionary
280
     1
281
     1
  3
ACAD_XREC_ROUNDTRIP
360
548
  0
DICTIONARY
  5
54F
330
3A
100
AcDbDictionary
280
     1
281
     1
  3
ACAD_XREC_ROUNDTRIP
360
550
  0
DICTIONARY
  5
543
330
34
100
AcDbDictionary
280
     1
281
     1
  3
ACAD_XREC_ROUNDTRIP
360
544
  0
DICTIONARY
  5
545
330
35
100
AcDbDictionary
280
     1
281
     1
  3
ACAD_XREC_ROUNDTRIP
360
546
  0
DICTIONARY
  5
54D
330
39
100
AcDbDictionary
280
     1
281
     1
  3
ACAD_XREC_ROUNDTRIP
360
54E
  0
DICTIONARY
  5
531
330
2B
100
AcDbDictionary
280
     1
281
     1
  3
ACAD_XREC_ROUNDTRIP
360
532
  0
DICTIONARY
  5
533
330
2C
100
AcDbDictionary
280
     1
281
     1
  3
ACAD_XREC_ROUNDTRIP
360
534
  0
DICTIONARY
  5
535
330
2D
100
AcDbDictionary
280
     1
281
     1
  3
ACAD_XREC_ROUNDTRIP
360
536
  0
DICTIONARY
  5
537
330
2E
100
AcDbDictionary
280
     1
281
     1
  3
ACAD_XREC_ROUNDTRIP
360
538
  0
DICTIONARY
  5
54B
330
38
100
AcDbDictionary
280
     1
281
     1
  3
ACAD_XREC_ROUNDTRIP
360
54C
  0
DICTIONARY
  5
541
330
33
100
AcDbDictionary
280
     1
281
     1
  3
ACAD_XREC_ROUNDTRIP
360
542
  0
DICTIONARY
  5
549
330
37
100
AcDbDictionary
280
     1
281
     1
  3
ACAD_XREC_ROUNDTRIP
360
54A
  0
XRECORD
  5
554
102
{ACAD_REACTORS
330
553
102
}
330
553
100
AcDbXrecord
280
     1
102
MATERIAL
148
0.0
149
0.0
149
0.0
 93
        0
 94
      127
282
     0
 72
     1
 77
     1
171
     1
175
     1
179
     1
273
     0
  0
XRECORD
  5
552
102
{ACAD_REACTORS
330
551
102
}
330
551
100
AcDbXrecord
280
     1
102
MATERIAL
148
0.0
149
0.0
149
0.0
 93
        0
 94
      127
282
     0
 72
     1
 77
     1
171
     1
175
     1
179
     1
273
     0
  0
XRECORD
  5
556
102
{ACAD_REACTORS
330
555
102
}
330
555
100
AcDbXrecord
280
     1
102
MATERIAL
148
0.0
149
0.0
149
0.0
 93
        0
 94
      127
282
     0
 72
     1
 77
     1
171
     1
175
     1
179
     1
273
     0
  0
XRECORD
  5
53A
102
{ACAD_REACTORS
330
539
102
}
330
539
100
AcDbXrecord
280
     1
102
RTVSPropertyOp0
 70
     1
102
RTVSPropertyOp1
 70
     1
102
RTVSPropertyOp2
 70
     1
102
RTVSPropertyOp3
 70
     1
102
RTVSPropertyOp4
 70
     1
102
RTVSPropertyOp5
 70
     1
102
RTVSPropertyOp6
 70
     1
102
RTVSPropertyOp7
 70
     1
102
RTVSPropertyOp8
 70
     1
102
RTVSPropertyOp9
 70
     1
102
RTVSPropertyOp10
 70
     1
102
RTVSPropertyOp11
 70
     1
102
RTVSPropertyOp12
 70
     1
102
RTVSPropertyOp13
 70
     1
102
RTVSPropertyOp14
 70
     1
102
RTVSPropertyOp15
 70
     1
102
RTVSPropertyOp16
 70
     1
102
RTVSPropertyOp17
 70
     1
102
RTVSPropertyOp18
 70
     1
102
RTVSPropertyOp19
 70
     1
102
RTVSPropertyOp20
 70
     1
102
RTVSPropertyOp21
 70
     1
102
RTVSPropertyOp22
 70
     1
102
RTVSPropertyOp23
 70
     1
102
RTVSPropertyOp24
 70
     1
102
RTVSPropertyOp25
 70
     1
102
RTVSPropertyOp26
 70
     1
102
RTVSPropertyOp27
 70
     1
102
RTVSPropertyOp28
 70
     1
102
RTVSPropertyOp29
 70
     1
102
RTVSPropertyOp30
 70
     1
102
RTVSPropertyOp31
 70
     1
102
RTVSPropertyOp32
 70
     1
  0
XRECORD
  5
53E
102
{ACAD_REACTORS
330
53D
102
}
330
53D
100
AcDbXrecord
280
     1
102
RTVSPropertyOp0
 70
     1
102
RTVSPropertyOp1
 70
     1
102
RTVSPropertyOp2
 70
     1
102
RTVSPropertyOp3
 70
     1
102
RTVSPropertyOp4
 70
     1
102
RTVSPropertyOp5
 70
     1
102
RTVSPropertyOp6
 70
     1
102
RTVSPropertyOp7
 70
     1
102
RTVSPropertyOp8
 70
     1
102
RTVSPropertyOp9
 70
     1
102
RTVSPropertyOp10
 70
     1
102
RTVSPropertyOp11
 70
     1
102
RTVSPropertyOp12
 70
     1
102
RTVSPropertyOp13
 70
     1
102
RTVSPropertyOp14
 70
     1
102
RTVSPropertyOp15
 70
     1
102
RTVSPropertyOp16
 70
     1
102
RTVSPropertyOp17
 70
     1
102
RTVSPropertyOp18
 70
     1
102
RTVSPropertyOp19
 70
     1
102
RTVSPropertyOp20
 70
     1
102
RTVSPropertyOp21
 70
     1
102
RTVSPropertyOp22
 70
     1
102
RTVSPropertyOp23
 70
     1
102
RTVSPropertyOp24
 70
     1
102
RTVSPropertyOp25
 70
     1
102
RTVSPropertyOp26
 70
     1
102
RTVSPropertyOp27
 70
     1
102
RTVSPropertyOp28
 70
     1
102
RTVSPropertyOp29
 70
     1
102
RTVSPropertyOp30
 70
     1
102
RTVSPropertyOp31
 70
     1
102
RTVSPropertyOp32
 70
     1
  0
XRECORD
  5
53C
102
{ACAD_REACTORS
330
53B
102
}
330
53B
100
AcDbXrecord
280
     1
102
RTVSPropertyOp0
 70
     1
102
RTVSPropertyOp1
 70
     1
102
RTVSPropertyOp2
 70
     1
102
RTVSPropertyOp3
 70
     1
102
RTVSPropertyOp4
 70
     1
102
RTVSPropertyOp5
 70
     1
102
RTVSPropertyOp6
 70
     1
102
RTVSPropertyOp7
 70
     1
102
RTVSPropertyOp8
 70
     1
102
RTVSPropertyOp9
 70
     1
102
RTVSPropertyOp10
 70
     1
102
RTVSPropertyOp11
 70
     1
102
RTVSPropertyOp12
 70
     1
102
RTVSPropertyOp13
 70
     1
102
RTVSPropertyOp14
 70
     1
102
RTVSPropertyOp15
 70
     1
102
RTVSPropertyOp16
 70
     1
102
RTVSPropertyOp17
 70
     1
102
RTVSPropertyOp18
 70
     1
102
RTVSPropertyOp19
 70
     1
102
RTVSPropertyOp20
 70
     1
102
RTVSPropertyOp21
 70
     1
102
RTVSPropertyOp22
 70
     1
102
RTVSPropertyOp23
 70
     1
102
RTVSPropertyOp24
 70
     1
102
RTVSPropertyOp25
 70
     1
102
RTVSPropertyOp26
 70
     1
102
RTVSPropertyOp27
 70
     1
102
RTVSPropertyOp28
 70
     1
102
RTVSPropertyOp29
 70
     1
102
RTVSPropertyOp30
 70
     1
102
RTVSPropertyOp31
 70
     1
102
RTVSPropertyOp32
 70
     1
  0
XRECORD
  5
540
102
{ACAD_REACTORS
330
53F
102
}
330
53F
100
AcDbXrecord
280
     1
102
RTVSPropertyOp0
 70
     1
102
RTVSPropertyOp1
 70
     1
102
RTVSPropertyOp2
 70
     1
102
RTVSPropertyOp3
 70
     1
102
RTVSPropertyOp4
 70
     1
102
RTVSPropertyOp5
 70
     1
102
RTVSPropertyOp6
 70
     1
102
RTVSPropertyOp7
 70
     1
102
RTVSPropertyOp8
 70
     1
102
RTVSPropertyOp9
 70
     1
102
RTVSPropertyOp10
 70
     1
102
RTVSPropertyOp11
 70
     1
102
RTVSPropertyOp12
 70
     1
102
RTVSPropertyOp13
 70
     1
102
RTVSPropertyOp14
 70
     1
102
RTVSPropertyOp15
 70
     1
102
RTVSPropertyOp16
 70
     1
102
RTVSPropertyOp17
 70
     1
102
RTVSPropertyOp18
 70
     1
102
RTVSPropertyOp19
 70
     1
102
RTVSPropertyOp20
 70
     1
102
RTVSPropertyOp21
 70
     1
102
RTVSPropertyOp22
 70
     1
102
RTVSPropertyOp23
 70
     1
102
RTVSPropertyOp24
 70
     1
102
RTVSPropertyOp25
 70
     1
102
RTVSPropertyOp26
 70
     1
102
RTVSPropertyOp27
 70
     1
102
RTVSPropertyOp28
 70
     1
102
RTVSPropertyOp29
 70
     1
102
RTVSPropertyOp30
 70
     1
102
RTVSPropertyOp31
 70
     1
102
RTVSPropertyOp32
 70
     1
  0
XRECORD
  5
548
102
{ACAD_REACTORS
330
547
102
}
330
547
100
AcDbXrecord
280
     1
102
RTVSPropertyOp0
 70
     1
102
RTVSPropertyOp1
 70
     1
102
RTVSPropertyOp2
 70
     1
102
RTVSPropertyOp3
 70
     1
102
RTVSPropertyOp4
 70
     1
102
RTVSPropertyOp5
 70
     1
102
RTVSPropertyOp6
 70
     1
102
RTVSPropertyOp7
 70
     1
102
RTVSPropertyOp8
 70
     1
102
RTVSPropertyOp9
 70
     1
102
RTVSPropertyOp10
 70
     1
102
RTVSPropertyOp11
 70
     1
102
RTVSPropertyOp12
 70
     1
102
RTVSPropertyOp13
 70
     1
102
RTVSPropertyOp14
 70
     1
102
RTVSPropertyOp15
 70
     1
102
RTVSPropertyOp16
 70
     1
102
RTVSPropertyOp17
 70
     1
102
RTVSPropertyOp18
 70
     1
102
RTVSPropertyOp19
 70
     1
102
RTVSPropertyOp20
 70
     1
102
RTVSPropertyOp21
 70
     1
102
RTVSPropertyOp22
 70
     1
102
RTVSPropertyOp23
 70
     1
102
RTVSPropertyOp24
 70
     1
102
RTVSPropertyOp25
 70
     1
102
RTVSPropertyOp26
 70
     1
102
RTVSPropertyOp27
 70
     1
102
RTVSPropertyOp28
 70
     1
102
RTVSPropertyOp29
 70
     1
102
RTVSPropertyOp30
 70
     1
102
RTVSPropertyOp31
 70
     1
102
RTVSPropertyOp32
 70
     1
  0
XRECORD
  5
550
102
{ACAD_REACTORS
330
54F
102
}
330
54F
100
AcDbXrecord
280
     1
102
RTVSPropertyOp0
 70
     1
102
RTVSPropertyOp1
 70
     1
102
RTVSPropertyOp2
 70
     1
102
RTVSPropertyOp3
 70
     1
102
RTVSPropertyOp4
 70
     1
102
RTVSPropertyOp5
 70
     1
102
RTVSPropertyOp6
 70
     1
102
RTVSPropertyOp7
 70
     1
102
RTVSPropertyOp8
 70
     1
102
RTVSPropertyOp9
 70
     1
102
RTVSPropertyOp10
 70
     1
102
RTVSPropertyOp11
 70
     1
102
RTVSPropertyOp12
 70
     1
102
RTVSPropertyOp13
 70
     1
102
RTVSPropertyOp14
 70
     1
102
RTVSPropertyOp15
 70
     1
102
RTVSPropertyOp16
 70
     1
102
RTVSPropertyOp17
 70
     1
102
RTVSPropertyOp18
 70
     1
102
RTVSPropertyOp19
 70
     1
102
RTVSPropertyOp20
 70
     1
102
RTVSPropertyOp21
 70
     1
102
RTVSPropertyOp22
 70
     1
102
RTVSPropertyOp23
 70
     1
102
RTVSPropertyOp24
 70
     1
102
RTVSPropertyOp25
 70
     1
102
RTVSPropertyOp26
 70
     1
102
RTVSPropertyOp27
 70
     1
102
RTVSPropertyOp28
 70
     1
102
RTVSPropertyOp29
 70
     1
102
RTVSPropertyOp30
 70
     1
102
RTVSPropertyOp31
 70
     1
102
RTVSPropertyOp32
 70
     1
  0
XRECORD
  5
544
102
{ACAD_REACTORS
330
543
102
}
330
543
100
AcDbXrecord
280
     1
102
RTVSPropertyOp0
 70
     1
102
RTVSPropertyOp1
 70
     1
102
RTVSPropertyOp2
 70
     1
102
RTVSPropertyOp3
 70
     1
102
RTVSPropertyOp4
 70
     1
102
RTVSPropertyOp5
 70
     1
102
RTVSPropertyOp6
 70
     1
102
RTVSPropertyOp7
 70
     1
102
RTVSPropertyOp8
 70
     1
102
RTVSPropertyOp9
 70
     1
102
RTVSPropertyOp10
 70
     1
102
RTVSPropertyOp11
 70
     1
102
RTVSPropertyOp12
 70
     1
102
RTVSPropertyOp13
 70
     1
102
RTVSPropertyOp14
 70
     1
102
RTVSPropertyOp15
 70
     1
102
RTVSPropertyOp16
 70
     1
102
RTVSPropertyOp17
 70
     1
102
RTVSPropertyOp18
 70
     1
102
RTVSPropertyOp19
 70
     1
102
RTVSPropertyOp20
 70
     1
102
RTVSPropertyOp21
 70
     1
102
RTVSPropertyOp22
 70
     1
102
RTVSPropertyOp23
 70
     1
102
RTVSPropertyOp24
 70
     1
102
RTVSPropertyOp25
 70
     1
102
RTVSPropertyOp26
 70
     1
102
RTVSPropertyOp27
 70
     1
102
RTVSPropertyOp28
 70
     1
102
RTVSPropertyOp29
 70
     1
102
RTVSPropertyOp30
 70
     1
102
RTVSPropertyOp31
 70
     1
102
RTVSPropertyOp32
 70
     1
  0
XRECORD
  5
546
102
{ACAD_REACTORS
330
545
102
}
330
545
100
AcDbXrecord
280
     1
102
RTVSPropertyOp0
 70
     1
102
RTVSPropertyOp1
 70
     1
102
RTVSPropertyOp2
 70
     1
102
RTVSPropertyOp3
 70
     1
102
RTVSPropertyOp4
 70
     1
102
RTVSPropertyOp5
 70
     1
102
RTVSPropertyOp6
 70
     1
102
RTVSPropertyOp7
 70
     1
102
RTVSPropertyOp8
 70
     1
102
RTVSPropertyOp9
 70
     1
102
RTVSPropertyOp10
 70
     1
102
RTVSPropertyOp11
 70
     1
102
RTVSPropertyOp12
 70
     1
102
RTVSPropertyOp13
 70
     1
102
RTVSPropertyOp14
 70
     1
102
RTVSPropertyOp15
 70
     1
102
RTVSPropertyOp16
 70
     1
102
RTVSPropertyOp17
 70
     1
102
RTVSPropertyOp18
 70
     1
102
RTVSPropertyOp19
 70
     1
102
RTVSPropertyOp20
 70
     1
102
RTVSPropertyOp21
 70
     1
102
RTVSPropertyOp22
 70
     1
102
RTVSPropertyOp23
 70
     1
102
RTVSPropertyOp24
 70
     1
102
RTVSPropertyOp25
 70
     1
102
RTVSPropertyOp26
 70
     1
102
RTVSPropertyOp27
 70
     1
102
RTVSPropertyOp28
 70
     1
102
RTVSPropertyOp29
 70
     1
102
RTVSPropertyOp30
 70
     1
102
RTVSPropertyOp31
 70
     1
102
RTVSPropertyOp32
 70
     1
  0
XRECORD
  5
54E
102
{ACAD_REACTORS
330
54D
102
}
330
54D
100
AcDbXrecord
280
     1
102
RTVSPropertyOp0
 70
     1
102
RTVSPropertyOp1
 70
     1
102
RTVSPropertyOp2
 70
     1
102
RTVSPropertyOp3
 70
     1
102
RTVSPropertyOp4
 70
     1
102
RTVSPropertyOp5
 70
     1
102
RTVSPropertyOp6
 70
     1
102
RTVSPropertyOp7
 70
     1
102
RTVSPropertyOp8
 70
     1
102
RTVSPropertyOp9
 70
     1
102
RTVSPropertyOp10
 70
     1
102
RTVSPropertyOp11
 70
     1
102
RTVSPropertyOp12
 70
     1
102
RTVSPropertyOp13
 70
     1
102
RTVSPropertyOp14
 70
     1
102
RTVSPropertyOp15
 70
     1
102
RTVSPropertyOp16
 70
     1
102
RTVSPropertyOp17
 70
     1
102
RTVSPropertyOp18
 70
     1
102
RTVSPropertyOp19
 70
     1
102
RTVSPropertyOp20
 70
     1
102
RTVSPropertyOp21
 70
     1
102
RTVSPropertyOp22
 70
     1
102
RTVSPropertyOp23
 70
     1
102
RTVSPropertyOp24
 70
     1
102
RTVSPropertyOp25
 70
     1
102
RTVSPropertyOp26
 70
     1
102
RTVSPropertyOp27
 70
     1
102
RTVSPropertyOp28
 70
     1
102
RTVSPropertyOp29
 70
     1
102
RTVSPropertyOp30
 70
     1
102
RTVSPropertyOp31
 70
     1
102
RTVSPropertyOp32
 70
     1
  0
XRECORD
  5
532
102
{ACAD_REACTORS
330
531
102
}
330
531
100
AcDbXrecord
280
     1
102
RTVSPropertyOp0
 70
     1
102
RTVSPropertyOp1
 70
     1
102
RTVSPropertyOp2
 70
     1
102
RTVSPropertyOp3
 70
     1
102
RTVSPropertyOp4
 70
     1
102
RTVSPropertyOp5
 70
     1
102
RTVSPropertyOp6
 70
     1
102
RTVSPropertyOp7
 70
     1
102
RTVSPropertyOp8
 70
     1
102
RTVSPropertyOp9
 70
     1
102
RTVSPropertyOp10
 70
     1
102
RTVSPropertyOp11
 70
     1
102
RTVSPropertyOp12
 70
     1
102
RTVSPropertyOp13
 70
     1
102
RTVSPropertyOp14
 70
     1
102
RTVSPropertyOp15
 70
     1
102
RTVSPropertyOp16
 70
     1
102
RTVSPropertyOp17
 70
     1
102
RTVSPropertyOp18
 70
     1
102
RTVSPropertyOp19
 70
     1
102
RTVSPropertyOp20
 70
     1
102
RTVSPropertyOp21
 70
     1
102
RTVSPropertyOp22
 70
     1
102
RTVSPropertyOp23
 70
     1
102
RTVSPropertyOp24
 70
     1
102
RTVSPropertyOp25
 70
     1
102
RTVSPropertyOp26
 70
     1
102
RTVSPropertyOp27
 70
     1
102
RTVSPropertyOp28
 70
     1
102
RTVSPropertyOp29
 70
     1
102
RTVSPropertyOp30
 70
     1
102
RTVSPropertyOp31
 70
     1
102
RTVSPropertyOp32
 70
     1
  0
XRECORD
  5
534
102
{ACAD_REACTORS
330
533
102
}
330
533
100
AcDbXrecord
280
     1
102
RTVSPropertyOp0
 70
     1
102
RTVSPropertyOp1
 70
     1
102
RTVSPropertyOp2
 70
     1
102
RTVSPropertyOp3
 70
     1
102
RTVSPropertyOp4
 70
     1
102
RTVSPropertyOp5
 70
     1
102
RTVSPropertyOp6
 70
     1
102
RTVSPropertyOp7
 70
     1
102
RTVSPropertyOp8
 70
     1
102
RTVSPropertyOp9
 70
     1
102
RTVSPropertyOp10
 70
     1
102
RTVSPropertyOp11
 70
     1
102
RTVSPropertyOp12
 70
     1
102
RTVSPropertyOp13
 70
     1
102
RTVSPropertyOp14
 70
     1
102
RTVSPropertyOp15
 70
     1
102
RTVSPropertyOp16
 70
     1
102
RTVSPropertyOp17
 70
     1
102
RTVSPropertyOp18
 70
     1
102
RTVSPropertyOp19
 70
     1
102
RTVSPropertyOp20
 70
     1
102
RTVSPropertyOp21
 70
     1
102
RTVSPropertyOp22
 70
     1
102
RTVSPropertyOp23
 70
     1
102
RTVSPropertyOp24
 70
     1
102
RTVSPropertyOp25
 70
     1
102
RTVSPropertyOp26
 70
     1
102
RTVSPropertyOp27
 70
     1
102
RTVSPropertyOp28
 70
     1
102
RTVSPropertyOp29
 70
     1
102
RTVSPropertyOp30
 70
     1
102
RTVSPropertyOp31
 70
     1
102
RTVSPropertyOp32
 70
     1
  0
XRECORD
  5
536
102
{ACAD_REACTORS
330
535
102
}
330
535
100
AcDbXrecord
280
     1
102
RTVSPropertyOp0
 70
     1
102
RTVSPropertyOp1
 70
     1
102
RTVSPropertyOp2
 70
     1
102
RTVSPropertyOp3
 70
     1
102
RTVSPropertyOp4
 70
     1
102
RTVSPropertyOp5
 70
     1
102
RTVSPropertyOp6
 70
     1
102
RTVSPropertyOp7
 70
     1
102
RTVSPropertyOp8
 70
     1
102
RTVSPropertyOp9
 70
     1
102
RTVSPropertyOp10
 70
     1
102
RTVSPropertyOp11
 70
     1
102
RTVSPropertyOp12
 70
     1
102
RTVSPropertyOp13
 70
     1
102
RTVSPropertyOp14
 70
     1
102
RTVSPropertyOp15
 70
     1
102
RTVSPropertyOp16
 70
     1
102
RTVSPropertyOp17
 70
     1
102
RTVSPropertyOp18
 70
     1
102
RTVSPropertyOp19
 70
     1
102
RTVSPropertyOp20
 70
     1
102
RTVSPropertyOp21
 70
     1
102
RTVSPropertyOp22
 70
     1
102
RTVSPropertyOp23
 70
     1
102
RTVSPropertyOp24
 70
     1
102
RTVSPropertyOp25
 70
     1
102
RTVSPropertyOp26
 70
     1
102
RTVSPropertyOp27
 70
     1
102
RTVSPropertyOp28
 70
     1
102
RTVSPropertyOp29
 70
     1
102
RTVSPropertyOp30
 70
     1
102
RTVSPropertyOp31
 70
     1
102
RTVSPropertyOp32
 70
     1
  0
XRECORD
  5
538
102
{ACAD_REACTORS
330
537
102
}
330
537
100
AcDbXrecord
280
     1
102
RTVSPropertyOp0
 70
     1
102
RTVSPropertyOp1
 70
     1
102
RTVSPropertyOp2
 70
     1
102
RTVSPropertyOp3
 70
     1
102
RTVSPropertyOp4
 70
     1
102
RTVSPropertyOp5
 70
     1
102
RTVSPropertyOp6
 70
     1
102
RTVSPropertyOp7
 70
     1
102
RTVSPropertyOp8
 70
     1
102
RTVSPropertyOp9
 70
     1
102
RTVSPropertyOp10
 70
     1
102
RTVSPropertyOp11
 70
     1
102
RTVSPropertyOp12
 70
     1
102
RTVSPropertyOp13
 70
     1
102
RTVSPropertyOp14
 70
     1
102
RTVSPropertyOp15
 70
     1
102
RTVSPropertyOp16
 70
     1
102
RTVSPropertyOp17
 70
     1
102
RTVSPropertyOp18
 70
     1
102
RTVSPropertyOp19
 70
     1
102
RTVSPropertyOp20
 70
     1
102
RTVSPropertyOp21
 70
     1
102
RTVSPropertyOp22
 70
     1
102
RTVSPropertyOp23
 70
     1
102
RTVSPropertyOp24
 70
     1
102
RTVSPropertyOp25
 70
     1
102
RTVSPropertyOp26
 70
     1
102
RTVSPropertyOp27
 70
     1
102
RTVSPropertyOp28
 70
     1
102
RTVSPropertyOp29
 70
     1
102
RTVSPropertyOp30
 70
     1
102
RTVSPropertyOp31
 70
     1
102
RTVSPropertyOp32
 70
     1
  0
XRECORD
  5
54C
102
{ACAD_REACTORS
330
54B
102
}
330
54B
100
AcDbXrecord
280
     1
102
RTVSPropertyOp0
 70
     1
102
RTVSPropertyOp1
 70
     1
102
RTVSPropertyOp2
 70
     1
102
RTVSPropertyOp3
 70
     1
102
RTVSPropertyOp4
 70
     1
102
RTVSPropertyOp5
 70
     1
102
RTVSPropertyOp6
 70
     1
102
RTVSPropertyOp7
 70
     1
102
RTVSPropertyOp8
 70
     1
102
RTVSPropertyOp9
 70
     1
102
RTVSPropertyOp10
 70
     1
102
RTVSPropertyOp11
 70
     1
102
RTVSPropertyOp12
 70
     1
102
RTVSPropertyOp13
 70
     1
102
RTVSPropertyOp14
 70
     1
102
RTVSPropertyOp15
 70
     1
102
RTVSPropertyOp16
 70
     1
102
RTVSPropertyOp17
 70
     1
102
RTVSPropertyOp18
 70
     1
102
RTVSPropertyOp19
 70
     1
102
RTVSPropertyOp20
 70
     1
102
RTVSPropertyOp21
 70
     1
102
RTVSPropertyOp22
 70
     1
102
RTVSPropertyOp23
 70
     1
102
RTVSPropertyOp24
 70
     1
102
RTVSPropertyOp25
 70
     1
102
RTVSPropertyOp26
 70
     1
102
RTVSPropertyOp27
 70
     1
102
RTVSPropertyOp28
 70
     1
102
RTVSPropertyOp29
 70
     1
102
RTVSPropertyOp30
 70
     1
102
RTVSPropertyOp31
 70
     1
102
RTVSPropertyOp32
 70
     1
  0
XRECORD
  5
542
102
{ACAD_REACTORS
330
541
102
}
330
541
100
AcDbXrecord
280
     1
102
RTVSPropertyOp0
 70
     1
102
RTVSPropertyOp1
 70
     1
102
RTVSPropertyOp2
 70
     1
102
RTVSPropertyOp3
 70
     1
102
RTVSPropertyOp4
 70
     1
102
RTVSPropertyOp5
 70
     1
102
RTVSPropertyOp6
 70
     1
102
RTVSPropertyOp7
 70
     1
102
RTVSPropertyOp8
 70
     1
102
RTVSPropertyOp9
 70
     1
102
RTVSPropertyOp10
 70
     1
102
RTVSPropertyOp11
 70
     1
102
RTVSPropertyOp12
 70
     1
102
RTVSPropertyOp13
 70
     1
102
RTVSPropertyOp14
 70
     1
102
RTVSPropertyOp15
 70
     1
102
RTVSPropertyOp16
 70
     1
102
RTVSPropertyOp17
 70
     1
102
RTVSPropertyOp18
 70
     1
102
RTVSPropertyOp19
 70
     1
102
RTVSPropertyOp20
 70
     1
102
RTVSPropertyOp21
 70
     1
102
RTVSPropertyOp22
 70
     1
102
RTVSPropertyOp23
 70
     1
102
RTVSPropertyOp24
 70
     1
102
RTVSPropertyOp25
 70
     1
102
RTVSPropertyOp26
 70
     1
102
RTVSPropertyOp27
 70
     1
102
RTVSPropertyOp28
 70
     1
102
RTVSPropertyOp29
 70
     1
102
RTVSPropertyOp30
 70
     1
102
RTVSPropertyOp31
 70
     1
102
RTVSPropertyOp32
 70
     1
  0
XRECORD
  5
54A
102
{ACAD_REACTORS
330
549
102
}
330
549
100
AcDbXrecord
280
     1
102
RTVSPropertyOp0
 70
     1
102
RTVSPropertyOp1
 70
     1
102
RTVSPropertyOp2
 70
     1
102
RTVSPropertyOp3
 70
     1
102
RTVSPropertyOp4
 70
     1
102
RTVSPropertyOp5
 70
     1
102
RTVSPropertyOp6
 70
     1
102
RTVSPropertyOp7
 70
     1
102
RTVSPropertyOp8
 70
     1
102
RTVSPropertyOp9
 70
     1
102
RTVSPropertyOp10
 70
     1
102
RTVSPropertyOp11
 70
     1
102
RTVSPropertyOp12
 70
     1
102
RTVSPropertyOp13
 70
     1
102
RTVSPropertyOp14
 70
     1
102
RTVSPropertyOp15
 70
     1
102
RTVSPropertyOp16
 70
     1
102
RTVSPropertyOp17
 70
     1
102
RTVSPropertyOp18
 70
     1
102
RTVSPropertyOp19
 70
     1
102
RTVSPropertyOp20
 70
     1
102
RTVSPropertyOp21
 70
     1
102
RTVSPropertyOp22
 70
     1
102
RTVSPropertyOp23
 70
     1
102
RTVSPropertyOp24
 70
     1
102
RTVSPropertyOp25
 70
     1
102
RTVSPropertyOp26
 70
     1
102
RTVSPropertyOp27
 70
     1
102
RTVSPropertyOp28
 70
     1
102
RTVSPropertyOp29
 70
     1
102
RTVSPropertyOp30
 70
     1
102
RTVSPropertyOp31
 70
     1
102
RTVSPropertyOp32
 70
     1
  0
ENDSEC
  0
EOF
