  0
SECTION
  2
HEADER
  9
$ACADVER
  1
AC1015
  9
$ACADMAINTVER
 70
     6
  9
$DWGCODEPAGE
  3
DOS932
  9
$INSBASE
 10
0.0
 20
0.0
 30
0.0
  9
$EXTMIN
 10
0.0
 20
0.0
 30
0.0
  9
$EXTMAX
 10
1050.0
 20
1485.0
 30
0.0
  9
$LIMMIN
 10
0.0
 20
0.0
  9
$LIMMAX
 10
12.0
 20
9.0
  9
$ORTHOMODE
 70
     0
  9
$REGENMODE
 70
     1
  9
$FILLMODE
 70
     1
  9
$QTEXTMODE
 70
     0
  9
$MIRRTEXT
 70
     1
  9
$LTSCALE
 40
1.0
  9
$ATTMODE
 70
     1
  9
$TEXTSIZE
 40
0.2
  9
$TRACEWID
 40
0.05
  9
$TEXTSTYLE
  7
Standard
  9
$CLAYER
  8
0
  9
$CELTYPE
  6
ByLayer
  9
$CECOLOR
 62
   256
  9
$CELTSCALE
 40
1.0
  9
$DISPSILH
 70
     0
  9
$DIMSCALE
 40
1.0
  9
$DIMASZ
 40
0.18
  9
$DIMEXO
 40
0.0625
  9
$DIMDLI
 40
0.38
  9
$DIMRND
 40
0.0
  9
$DIMDLE
 40
0.0
  9
$DIMEXE
 40
0.18
  9
$DIMTP
 40
0.0
  9
$DIMTM
 40
0.0
  9
$DIMTXT
 40
0.18
  9
$DIMCEN
 40
0.09
  9
$DIMTSZ
 40
0.0
  9
$DIMTOL
 70
     0
  9
$DIMLIM
 70
     0
  9
$DIMTIH
 70
     1
  9
$DIMTOH
 70
     1
  9
$DIMSE1
 70
     0
  9
$DIMSE2
 70
     0
  9
$DIMTAD
 70
     0
  9
$DIMZIN
 70
     0
  9
$DIMBLK
  1

  9
$DIMASO
 70
     1
  9
$DIMSHO
 70
     1
  9
$DIMPOST
  1

  9
$DIMAPOST
  1

  9
$DIMALT
 70
     0
  9
$DIMALTD
 70
     2
  9
$DIMALTF
 40
25.4
  9
$DIMLFAC
 40
1.0
  9
$DIMTOFL
 70
     0
  9
$DIMTVP
 40
0.0
  9
$DIMTIX
 70
     0
  9
$DIMSOXD
 70
     0
  9
$DIMSAH
 70
     0
  9
$DIMBLK1
  1

  9
$DIMBLK2
  1

  9
$DIMSTYLE
  2
Standard
  9
$DIMCLRD
 70
     0
  9
$DIMCLRE
 70
     0
  9
$DIMCLRT
 70
     0
  9
$DIMTFAC
 40
1.0
  9
$DIMGAP
 40
0.09
  9
$DIMJUST
 70
     0
  9
$DIMSD1
 70
     0
  9
$DIMSD2
 70
     0
  9
$DIMTOLJ
 70
     1
  9
$DIMTZIN
 70
     0
  9
$DIMALTZ
 70
     0
  9
$DIMALTTZ
 70
     0
  9
$DIMUPT
 70
     0
  9
$DIMDEC
 70
     4
  9
$DIMTDEC
 70
     4
  9
$DIMALTU
 70
     2
  9
$DIMALTTD
 70
     2
  9
$DIMTXSTY
  7
Standard
  9
$DIMAUNIT
 70
     0
  9
$DIMADEC
 70
     0
  9
$DIMALTRND
 40
0.0
  9
$DIMAZIN
 70
     0
  9
$DIMDSEP
 70
    46
  9
$DIMATFIT
 70
     3
  9
$DIMFRAC
 70
     0
  9
$DIMLDRBLK
  1

  9
$DIMLUNIT
 70
     2
  9
$DIMLWD
 70
    -2
  9
$DIMLWE
 70
    -2
  9
$DIMTMOVE
 70
     0
  9
$LUNITS
 70
     2
  9
$LUPREC
 70
     4
  9
$SKETCHINC
 40
0.1
  9
$FILLETRAD
 40
0.5
  9
$AUNITS
 70
     0
  9
$AUPREC
 70
     0
  9
$MENU
  1
.
  9
$ELEVATION
 40
0.0
  9
$PELEVATION
 40
0.0
  9
$THICKNESS
 40
0.0
  9
$LIMCHECK
 70
     0
  9
$CHAMFERA
 40
0.5
  9
$CHAMFERB
 40
0.5
  9
$CHAMFERC
 40
1.0
  9
$CHAMFERD
 40
0.0
  9
$SKPOLY
 70
     0
  9
$TDCREATE
 40
2456184.349154363
  9
$TDUCREATE
 40
2456183.974154363
  9
$TDUPDATE
 40
2456184.349154375
  9
$TDUUPDATE
 40
2456183.974154375
  9
$TDINDWG
 40
0.0000000116
  9
$TDUSRTIMER
 40
0.0000000116
  9
$USRTIMER
 70
     1
  9
$ANGBASE
 50
0.0
  9
$ANGDIR
 70
     0
  9
$PDMODE
 70
     0
  9
$PDSIZE
 40
0.0
  9
$PLINEWID
 40
0.0
  9
$SPLFRAME
 70
     0
  9
$SPLINETYPE
 70
     6
  9
$SPLINESEGS
 70
     8
  9
$HANDSEED
  5
46A
  9
$SURFTAB1
 70
     6
  9
$SURFTAB2
 70
     6
  9
$SURFTYPE
 70
     6
  9
$SURFU
 70
     6
  9
$SURFV
 70
     6
  9
$UCSBASE
  2

  9
$UCSNAME
  2

  9
$UCSORG
 10
0.0
 20
0.0
 30
0.0
  9
$UCSXDIR
 10
1.0
 20
0.0
 30
0.0
  9
$UCSYDIR
 10
0.0
 20
1.0
 30
0.0
  9
$UCSORTHOREF
  2

  9
$UCSORTHOVIEW
 70
     0
  9
$UCSORGTOP
 10
0.0
 20
0.0
 30
0.0
  9
$UCSORGBOTTOM
 10
0.0
 20
0.0
 30
0.0
  9
$UCSORGLEFT
 10
0.0
 20
0.0
 30
0.0
  9
$UCSORGRIGHT
 10
0.0
 20
0.0
 30
0.0
  9
$UCSORGFRONT
 10
0.0
 20
0.0
 30
0.0
  9
$UCSORGBACK
 10
0.0
 20
0.0
 30
0.0
  9
$PUCSBASE
  2

  9
$PUCSNAME
  2

  9
$PUCSORG
 10
0.0
 20
0.0
 30
0.0
  9
$PUCSXDIR
 10
1.0
 20
0.0
 30
0.0
  9
$PUCSYDIR
 10
0.0
 20
1.0
 30
0.0
  9
$PUCSORTHOREF
  2

  9
$PUCSORTHOVIEW
 70
     0
  9
$PUCSORGTOP
 10
0.0
 20
0.0
 30
0.0
  9
$PUCSORGBOTTOM
 10
0.0
 20
0.0
 30
0.0
  9
$PUCSORGLEFT
 10
0.0
 20
0.0
 30
0.0
  9
$PUCSORGRIGHT
 10
0.0
 20
0.0
 30
0.0
  9
$PUCSORGFRONT
 10
0.0
 20
0.0
 30
0.0
  9
$PUCSORGBACK
 10
0.0
 20
0.0
 30
0.0
  9
$USERI1
 70
     0
  9
$USERI2
 70
     0
  9
$USERI3
 70
     0
  9
$USERI4
 70
     0
  9
$USERI5
 70
     0
  9
$USERR1
 40
13.2
  9
$USERR2
 40
0.0
  9
$USERR3
 40
0.0
  9
$USERR4
 40
0.0
  9
$USERR5
 40
0.0
  9
$WORLDVIEW
 70
     1
  9
$SHADEDGE
 70
     3
  9
$SHADEDIF
 70
    70
  9
$TILEMODE
 70
     1
  9
$MAXACTVP
 70
    64
  9
$PINSBASE
 10
0.0
 20
0.0
 30
0.0
  9
$PLIMCHECK
 70
     0
  9
$PEXTMIN
 10
1.00000000000000E+20
 20
1.00000000000000E+20
 30
1.00000000000000E+20
  9
$PEXTMAX
 10
-1.00000000000000E+20
 20
-1.00000000000000E+20
 30
-1.00000000000000E+20
  9
$PLIMMIN
 10
0.0
 20
0.0
  9
$PLIMMAX
 10
12.0
 20
9.0
  9
$UNITMODE
 70
     0
  9
$VISRETAIN
 70
     1
  9
$PLINEGEN
 70
     0
  9
$PSLTSCALE
 70
     1
  9
$TREEDEPTH
 70
  3020
  9
$CMLSTYLE
  2
Standard
  9
$CMLJUST
 70
     0
  9
$CMLSCALE
 40
1.0
  9
$PROXYGRAPHICS
 70
     1
  9
$MEASUREMENT
 70
     1
  9
$CELWEIGHT
370
    -1
  9
$ENDCAPS
280
     0
  9
$JOINSTYLE
280
     0
  9
$LWDISPLAY
290
     0
  9
$INSUNITS
 70
     1
  9
$HYPERLINKBASE
  1

  9
$STYLESHEET
  1

  9
$XEDIT
290
     1
  9
$CEPSNTYPE
380
     0
  9
$PSTYLEMODE
290
     0
  9
$FINGERPRINTGUID
  2
{FAEB1C30-E019-11D5-929B-00C0DF256EC4}
  9
$VERSIONGUID
  2
{FAEB1C32-E019-11D5-929B-00C0DF256EC4}
  9
$EXTNAMES
290
     1
  9
$PSVPSCALE
 40
0.0
  9
$OLESTARTUP
290
     0
  0
ENDSEC
  0
SECTION
  2
CLASSES
  0
CLASS
  1
ACDBDICTIONARYWDFLT
  2
AcDbDictionaryWithDefault
  3
ObjectDBX Classes
 90
        0
280
     0
281
     0
  0
CLASS
  1
TABLESTYLE
  2
AcDbTableStyle
  3
ObjectDBX Classes
 90
     2047
280
     0
281
     0
  0
CLASS
  1
DICTIONARYVAR
  2
AcDbDictionaryVar
  3
ObjectDBX Classes
 90
        0
280
     0
281
     0
  0
CLASS
  1

  2
exOdDbCircle
  3

 90
        0
280
     0
281
     1
  0
CLASS
  1

  2
exOdDbSpline
  3

 90
        0
280
     0
281
     1
  0
CLASS
  1
ACDBPLACEHOLDER
  2
AcDbPlaceHolder
  3
ObjectDBX Classes
 90
        0
280
     0
281
     0
  0
CLASS
  1
LAYOUT
  2
AcDbLayout
  3
ObjectDBX Classes
 90
        0
280
     0
281
     0
  0
ENDSEC
  0
SECTION
  2
TABLES
  0
TABLE
  2
VPORT
  5
8
330
0
100
AcDbSymbolTable
 70
     2
  0
VPORT
  5
29
330
8
100
AcDbSymbolTableRecord
100
AcDbViewportTableRecord
  2
*Active
 70
     0
 10
0.0
 20
0.0
 11
1.0
 21
1.0
 12
525.0
 22
742.5
 13
0.0
 23
0.0
 14
0.5
 24
0.5
 15
0.5
 25
0.5
 16
0.0
 26
0.0
 36
1.0
 17
0.0
 27
0.0
 37
0.0
 40
1633.5
 41
1.60267857142857
 42
50.0
 43
0.0
 44
0.0
 50
0.0
 51
0.0
 71
     0
 72
   100
 73
     1
 74
     3
 75
     0
 76
     0
 77
     0
 78
     0
281
     0
 65
     1
110
0.0
120
0.0
130
0.0
111
1.0
121
0.0
131
0.0
112
0.0
122
1.0
132
0.0
 79
     0
146
0.0
  0
ENDTAB
  0
TABLE
  2
LTYPE
  5
5
330
0
100
AcDbSymbolTable
 70
     8
  0
LTYPE
  5
14
330
5
100
AcDbSymbolTableRecord
100
AcDbLinetypeTableRecord
  2
ByBlock
 70
     0
  3

 72
    65
 73
     0
 40
0.0
  0
LTYPE
  5
15
330
5
100
AcDbSymbolTableRecord
100
AcDbLinetypeTableRecord
  2
ByLayer
 70
     0
  3

 72
    65
 73
     0
 40
0.0
  0
LTYPE
  5
16
330
5
100
AcDbSymbolTableRecord
100
AcDbLinetypeTableRecord
  2
Continuous
 70
     0
  3
Solid line
 72
    65
 73
     0
 40
0.0
  0
LTYPE
  5
2E
330
5
100
AcDbSymbolTableRecord
100
AcDbLinetypeTableRecord
  2
DASHED
 70
     0
  3
Dashed
 72
    65
 73
     2
 40
15.0
 49
7.0
 74
     0
 49
-8.0
 74
     0
  0
LTYPE
  5
2F
330
5
100
AcDbSymbolTableRecord
100
AcDbLinetypeTableRecord
  2
DOTTED
 70
     0
  3
Dotted
 72
    65
 73
     2
 40
1.0
 49
0.0
 74
     0
 49
-1.0
 74
     0
  0
LTYPE
  5
30
330
5
100
AcDbSymbolTableRecord
100
AcDbLinetypeTableRecord
  2
DOT_CENTER
 70
     0
  3
Dot_Center
 72
    65
 73
     4
 40
14.0
 49
12.0
 74
     0
 49
-1.0
 74
     0
 49
0.0
 74
     0
 49
-1.0
 74
     0
  0
LTYPE
  5
31
330
5
100
AcDbSymbolTableRecord
100
AcDbLinetypeTableRecord
  2
LONG_DASHED
 70
     0
  3
Long_Dashed
 72
    65
 73
     2
 40
15.0
 49
10.0
 74
     0
 49
-5.0
 74
     0
  0
LTYPE
  5
32
330
5
100
AcDbSymbolTableRecord
100
AcDbLinetypeTableRecord
  2
DASH_CENTER
 70
     0
  3
Dash_Center
 72
    65
 73
     4
 40
14.0
 49
11.0
 74
     0
 49
-1.0
 74
     0
 49
1.0
 74
     0
 49
-1.0
 74
     0
  0
LTYPE
  5
33
330
5
100
AcDbSymbolTableRecord
100
AcDbLinetypeTableRecord
  2
PHANTOM
 70
     0
  3
Phantom
 72
    65
 73
     6
 40
13.0
 49
10.0
 74
     0
 49
-1.0
 74
     0
 49
0.0
 74
     0
 49
-1.0
 74
     0
 49
0.0
 74
     0
 49
-1.0
 74
     0
  0
LTYPE
  5
34
330
5
100
AcDbSymbolTableRecord
100
AcDbLinetypeTableRecord
  2
CENTER_DASH_DASH
 70
     0
  3
Center_Dash_Dash
 72
    65
 73
     6
 40
14.0
 49
9.0
 74
     0
 49
-1.0
 74
     0
 49
1.0
 74
     0
 49
-1.0
 74
     0
 49
1.0
 74
     0
 49
-1.0
 74
     0
  0
ENDTAB
  0
TABLE
  2
LAYER
  5
2
330
0
100
AcDbSymbolTable
 70
     2
  0
LAYER
  5
10
330
2
100
AcDbSymbolTableRecord
100
AcDbLayerTableRecord
  2
0
 70
     0
 62
     7
  6
Continuous
370
    -3
390
F
  0
LAYER
  5
35
330
2
100
AcDbSymbolTableRecord
100
AcDbLayerTableRecord
  2
1
 70
     0
 62
     7
  6
Continuous
370
    -3
390
F
  0
ENDTAB
  0
TABLE
  2
STYLE
  5
3
330
0
100
AcDbSymbolTable
 70
     3
  0
STYLE
  5
11
330
3
100
AcDbSymbolTableRecord
100
AcDbTextStyleTableRecord
  2
Standard
 70
     0
 40
0.0
 41
1.0
 50
0.0
 71
     0
 42
0.2
  3
txt
  4

  0
STYLE
  5
384
330
3
100
AcDbSymbolTableRecord
100
AcDbTextStyleTableRecord
  2
CONVERTER_1
 70
     0
 40
0.0
 41
0.89
 50
0.0
 71
     0
 42
0.2
  3
msmincho.ttc
  4

1001
ACAD
1000
MS Mincho
1071
    32785
  0
STYLE
  5
3CA
330
3
100
AcDbSymbolTableRecord
100
AcDbTextStyleTableRecord
  2
CONVERTER_2
 70
     0
 40
0.0
 41
0.9
 50
0.0
 71
     0
 42
0.2
  3
txt.shx
  4

  0
ENDTAB
  0
TABLE
  2
VIEW
  5
6
330
0
100
AcDbSymbolTable
 70
     0
  0
ENDTAB
  0
TABLE
  2
UCS
  5
7
330
0
100
AcDbSymbolTable
 70
     0
  0
ENDTAB
  0
TABLE
  2
APPID
  5
9
330
0
100
AcDbSymbolTable
 70
     1
  0
APPID
  5
12
330
9
100
AcDbSymbolTableRecord
100
AcDbRegAppTableRecord
  2
ACAD
 70
     0
  0
ENDTAB
  0
TABLE
  2
DIMSTYLE
  5
A
330
0
100
AcDbSymbolTable
 70
    13
100
AcDbDimStyleTable
  0
DIMSTYLE
105
27
330
A
100
AcDbSymbolTableRecord
100
AcDbDimStyleTableRecord
  2
Standard
 70
     0
340
11
  0
DIMSTYLE
105
3E4
102
{ACAD_REACTORS
330
3E5
102
}
330
A
100
AcDbSymbolTableRecord
100
AcDbDimStyleTableRecord
  2
ME10_DIM_0
 70
     0
  3
最大<>
 41
17.5
 42
0.0
 44
5.0
 73
     0
 74
     0
 77
     1
 78
     8
140
17.5
147
0.625
172
     1
173
     1
176
     2
177
     2
178
     7
271
     2
340
384
  0
DIMSTYLE
105
3EF
102
{ACAD_REACTORS
330
3F0
102
}
330
A
100
AcDbSymbolTableRecord
100
AcDbDimStyleTableRecord
  2
ME10_DIM_1
 70
     0
  3
最小<>
 41
17.5
 42
0.0
 44
5.0
 73
     0
 74
     0
 77
     1
 78
     8
140
17.5
147
0.625
172
     1
173
     1
176
     2
177
     2
178
     7
271
     2
340
384
  0
DIMSTYLE
105
3FA
102
{ACAD_REACTORS
330
3FB
102
}
330
A
100
AcDbSymbolTableRecord
100
AcDbDimStyleTableRecord
  2
ME10_DIM_2
 70
     0
 41
17.5
 42
0.0
 44
5.0
 73
     0
 74
     0
 77
     1
 78
     8
140
17.5
147
0.625
172
     1
173
     1
176
     2
177
     2
178
     7
271
     2
340
3CA
  0
DIMSTYLE
105
405
102
{ACAD_REACTORS
330
406
102
}
330
A
100
AcDbSymbolTableRecord
100
AcDbDimStyleTableRecord
  2
ME10_DIM_3
 70
     0
 41
17.5
 42
0.0
 44
5.0
 73
     0
 74
     0
 77
     1
 78
     8
140
17.5
147
0.625
172
     1
173
     1
176
     2
177
     2
178
     7
271
     2
340
3CA
  0
DIMSTYLE
105
412
102
{ACAD_REACTORS
330
413
102
}
330
A
100
AcDbSymbolTableRecord
100
AcDbDimStyleTableRecord
  2
ME10_DIM_4
 70
     0
 41
17.5
 42
0.0
 44
5.0
 73
     0
 74
     0
 77
     1
 78
     8
140
17.5
147
0.625
172
     1
173
     1
176
     2
177
     2
178
     7
271
     2
340
384
  0
DIMSTYLE
105
41F
102
{ACAD_REACTORS
330
420
102
}
330
A
100
AcDbSymbolTableRecord
100
AcDbDimStyleTableRecord
  2
ME10_DIM_5
 70
     0
  3
最大<>
 41
17.5
 42
0.0
 44
5.0
 73
     0
 74
     0
 77
     1
 78
     8
140
17.5
147
0.625
172
     1
173
     1
176
     2
177
     2
178
     7
271
     2
340
384
  0
DIMSTYLE
105
42A
102
{ACAD_REACTORS
330
42B
102
}
330
A
100
AcDbSymbolTableRecord
100
AcDbDimStyleTableRecord
  2
ME10_DIM_6
 70
     0
 41
17.5
 42
0.0
 44
5.0
 73
     0
 74
     0
 77
     1
 78
     8
140
17.5
147
0.625
172
     1
173
     1
176
     2
177
     2
178
     7
271
     2
340
3CA
  0
DIMSTYLE
105
435
102
{ACAD_REACTORS
330
436
102
}
330
A
100
AcDbSymbolTableRecord
100
AcDbDimStyleTableRecord
  2
ME10_DIM_7
 70
     0
 41
17.5
 42
0.0
 44
5.0
 73
     0
 74
     0
 77
     1
 78
     8
140
17.5
147
0.625
172
     1
173
     1
176
     2
177
     2
178
     7
271
     2
340
3CA
  0
DIMSTYLE
105
440
102
{ACAD_REACTORS
330
441
102
}
330
A
100
AcDbSymbolTableRecord
100
AcDbDimStyleTableRecord
  2
ME10_DIM_8
 70
     0
 41
17.5
 42
0.0
 44
5.0
 73
     0
 74
     0
 77
     1
 78
     8
140
17.5
147
0.625
172
     1
173
     1
176
     2
177
     2
178
     7
271
     2
340
3CA
  0
DIMSTYLE
105
44B
102
{ACAD_REACTORS
330
44C
102
}
330
A
100
AcDbSymbolTableRecord
100
AcDbDimStyleTableRecord
  2
ME10_DIM_9
 70
     0
 41
17.5
 42
0.0
 44
5.0
 73
     0
 74
     0
 77
     1
 78
     8
140
17.5
147
0.625
172
     1
173
     1
176
     2
177
     2
178
     7
271
     2
340
3CA
  0
DIMSTYLE
105
456
102
{ACAD_REACTORS
330
457
102
}
330
A
100
AcDbSymbolTableRecord
100
AcDbDimStyleTableRecord
  2
ME10_DIM_10
 70
     0
 41
17.5
 42
0.0
 44
5.0
 73
     0
 74
     0
 77
     1
 78
     8
140
17.5
147
0.625
172
     1
173
     1
176
     2
177
     2
178
     7
271
     2
340
3CA
  0
DIMSTYLE
105
463
102
{ACAD_REACTORS
330
464
102
}
330
A
100
AcDbSymbolTableRecord
100
AcDbDimStyleTableRecord
  2
ME10_DIM_11
 70
     0
 41
17.5
 42
0.0
 44
5.0
 73
     0
 74
     0
 77
     1
 78
     8
140
17.5
147
0.625
172
     1
173
     1
176
     2
177
     2
178
     7
271
     2
340
3CA
  0
ENDTAB
  0
TABLE
  2
BLOCK_RECORD
  5
1
330
0
100
AcDbSymbolTable
 70
    40
  0
BLOCK_RECORD
  5
1F
330
1
100
AcDbSymbolTableRecord
100
AcDbBlockTableRecord
  2
*Model_Space
340
22
  0
BLOCK_RECORD
  5
1B
330
1
100
AcDbSymbolTableRecord
100
AcDbBlockTableRecord
  2
*Paper_Space
340
1E
  0
BLOCK_RECORD
  5
23
330
1
100
AcDbSymbolTableRecord
100
AcDbBlockTableRecord
  2
*Paper_Space0
340
26
  0
BLOCK_RECORD
  5
36
330
1
100
AcDbSymbolTableRecord
100
AcDbBlockTableRecord
  2
87-163-M21__1
340
0
102
{BLKREFS
331
8C
102
}
  0
BLOCK_RECORD
  5
39
330
1
100
AcDbSymbolTableRecord
100
AcDbBlockTableRecord
  2
84-360A-M22
340
0
102
{BLKREFS
331
3D
102
}
  0
BLOCK_RECORD
  5
3C
330
1
100
AcDbSymbolTableRecord
100
AcDbBlockTableRecord
  2
87-163-M21__2
340
0
102
{BLKREFS
331
8D
102
}
  0
BLOCK_RECORD
  5
40
330
1
100
AcDbSymbolTableRecord
100
AcDbBlockTableRecord
  2
84-360A-__F_
340
0
102
{BLKREFS
331
44
102
}
  0
BLOCK_RECORD
  5
43
330
1
100
AcDbSymbolTableRecord
100
AcDbBlockTableRecord
  2
87-163-__F_
340
0
102
{BLKREFS
331
8E
102
}
  0
BLOCK_RECORD
  5
47
330
1
100
AcDbSymbolTableRecord
100
AcDbBlockTableRecord
  2
37-364-M11
340
0
102
{BLKREFS
331
8F
102
}
  0
BLOCK_RECORD
  5
4A
330
1
100
AcDbSymbolTableRecord
100
AcDbBlockTableRecord
  2
01-76
340
0
102
{BLKREFS
331
90
102
}
  0
BLOCK_RECORD
  5
4D
330
1
100
AcDbSymbolTableRecord
100
AcDbBlockTableRecord
  2
50-13
340
0
102
{BLKREFS
331
91
102
}
  0
BLOCK_RECORD
  5
50
330
1
100
AcDbSymbolTableRecord
100
AcDbBlockTableRecord
  2
32-16__3
340
0
102
{BLKREFS
331
92
102
}
  0
BLOCK_RECORD
  5
53
330
1
100
AcDbSymbolTableRecord
100
AcDbBlockTableRecord
  2
35-276__4
340
0
102
{BLKREFS
331
93
102
}
  0
BLOCK_RECORD
  5
56
330
1
100
AcDbSymbolTableRecord
100
AcDbBlockTableRecord
  2
32-16__5
340
0
102
{BLKREFS
331
94
102
}
  0
BLOCK_RECORD
  5
59
330
1
100
AcDbSymbolTableRecord
100
AcDbBlockTableRecord
  2
31-28
340
0
102
{BLKREFS
331
95
102
}
  0
BLOCK_RECORD
  5
5C
330
1
100
AcDbSymbolTableRecord
100
AcDbBlockTableRecord
  2
73-1-21_5__6
340
0
102
{BLKREFS
331
96
102
}
  0
BLOCK_RECORD
  5
5F
330
1
100
AcDbSymbolTableRecord
100
AcDbBlockTableRecord
  2
92-53__7
340
0
102
{BLKREFS
331
97
102
}
  0
BLOCK_RECORD
  5
62
330
1
100
AcDbSymbolTableRecord
100
AcDbBlockTableRecord
  2
32-25__8
340
0
102
{BLKREFS
331
98
102
}
  0
BLOCK_RECORD
  5
65
330
1
100
AcDbSymbolTableRecord
100
AcDbBlockTableRecord
  2
73-1-21_5__9
340
0
102
{BLKREFS
331
99
102
}
  0
BLOCK_RECORD
  5
68
330
1
100
AcDbSymbolTableRecord
100
AcDbBlockTableRecord
  2
32-25__10
340
0
102
{BLKREFS
331
9A
102
}
  0
BLOCK_RECORD
  5
6B
330
1
100
AcDbSymbolTableRecord
100
AcDbBlockTableRecord
  2
92-53__11
340
0
102
{BLKREFS
331
9B
102
}
  0
BLOCK_RECORD
  5
6E
330
1
100
AcDbSymbolTableRecord
100
AcDbBlockTableRecord
  2
98-119
340
0
102
{BLKREFS
331
9C
102
}
  0
BLOCK_RECORD
  5
71
330
1
100
AcDbSymbolTableRecord
100
AcDbBlockTableRecord
  2
82-20-M21
340
0
102
{BLKREFS
331
7C
102
}
  0
BLOCK_RECORD
  5
74
330
1
100
AcDbSymbolTableRecord
100
AcDbBlockTableRecord
  2
35-217
340
0
102
{BLKREFS
331
78
102
}
  0
BLOCK_RECORD
  5
77
330
1
100
AcDbSymbolTableRecord
100
AcDbBlockTableRecord
  2
61-116A-M1
340
0
102
{BLKREFS
331
7D
102
}
  0
BLOCK_RECORD
  5
7B
330
1
100
AcDbSymbolTableRecord
100
AcDbBlockTableRecord
  2
61-116AX-M1
340
0
102
{BLKREFS
331
9D
102
}
  0
BLOCK_RECORD
  5
80
330
1
100
AcDbSymbolTableRecord
100
AcDbBlockTableRecord
  2
35-276__12
340
0
102
{BLKREFS
331
9E
102
}
  0
BLOCK_RECORD
  5
83
330
1
100
AcDbSymbolTableRecord
100
AcDbBlockTableRecord
  2
30-247-M11
340
0
102
{BLKREFS
331
9F
102
}
  0
BLOCK_RECORD
  5
86
330
1
100
AcDbSymbolTableRecord
100
AcDbBlockTableRecord
  2
34-167-M1
340
0
102
{BLKREFS
331
A0
102
}
  0
BLOCK_RECORD
  5
89
330
1
100
AcDbSymbolTableRecord
100
AcDbBlockTableRecord
  2
_J__A4
340
0
102
{BLKREFS
331
A1
102
}
  0
BLOCK_RECORD
  5
3DB
330
1
100
AcDbSymbolTableRecord
100
AcDbBlockTableRecord
  2
*D028
340
0
  0
BLOCK_RECORD
  5
3E6
330
1
100
AcDbSymbolTableRecord
100
AcDbBlockTableRecord
  2
*D129
340
0
  0
BLOCK_RECORD
  5
3F1
330
1
100
AcDbSymbolTableRecord
100
AcDbBlockTableRecord
  2
*D230
340
0
  0
BLOCK_RECORD
  5
3FC
330
1
100
AcDbSymbolTableRecord
100
AcDbBlockTableRecord
  2
*D331
340
0
  0
BLOCK_RECORD
  5
407
330
1
100
AcDbSymbolTableRecord
100
AcDbBlockTableRecord
  2
*D432
340
0
  0
BLOCK_RECORD
  5
414
330
1
100
AcDbSymbolTableRecord
100
AcDbBlockTableRecord
  2
*D533
340
0
  0
BLOCK_RECORD
  5
421
330
1
100
AcDbSymbolTableRecord
100
AcDbBlockTableRecord
  2
*D634
340
0
  0
BLOCK_RECORD
  5
42C
330
1
100
AcDbSymbolTableRecord
100
AcDbBlockTableRecord
  2
*D735
340
0
  0
BLOCK_RECORD
  5
437
330
1
100
AcDbSymbolTableRecord
100
AcDbBlockTableRecord
  2
*D836
340
0
  0
BLOCK_RECORD
  5
442
330
1
100
AcDbSymbolTableRecord
100
AcDbBlockTableRecord
  2
*D937
340
0
  0
BLOCK_RECORD
  5
44D
330
1
100
AcDbSymbolTableRecord
100
AcDbBlockTableRecord
  2
*D1038
340
0
  0
BLOCK_RECORD
  5
458
330
1
100
AcDbSymbolTableRecord
100
AcDbBlockTableRecord
  2
*D1139
340
0
  0
ENDTAB
  0
ENDSEC
  0
SECTION
  2
BLOCKS
  0
BLOCK
  5
20
330
1F
100
AcDbEntity
  8
0
100
AcDbBlockBegin
  2
*Model_Space
 70
     0
 71
     0
 10
0.0
 20
0.0
 30
0.0
  3
*Model_Space
  1

  0
ENDBLK
  5
21
330
1F
100
AcDbEntity
  8
0
100
AcDbBlockEnd
  0
BLOCK
  5
1C
330
1B
100
AcDbEntity
 67
     1
  8
0
100
AcDbBlockBegin
  2
*Paper_Space
 70
     0
 71
     0
 10
0.0
 20
0.0
 30
0.0
  3
*Paper_Space
  1

  0
ENDBLK
  5
1D
330
1B
100
AcDbEntity
 67
     1
  8
0
100
AcDbBlockEnd
  0
BLOCK
  5
24
330
23
100
AcDbEntity
  8
0
100
AcDbBlockBegin
  2
*Paper_Space0
 70
     0
 71
     0
 10
0.0
 20
0.0
 30
0.0
  3
*Paper_Space0
  1

  0
ENDBLK
  5
25
330
23
100
AcDbEntity
  8
0
100
AcDbBlockEnd
  0
BLOCK
  5
37
330
36
100
AcDbEntity
  8
0
100
AcDbBlockBegin
  2
87-163-M21__1
 70
     0
 71
     0
 10
1238.0
 20
1656.888381068716
 30
0.0
  3
87-163-M21__1
  1

  0
LINE
  5
A2
330
36
100
AcDbEntity
  8
1
  6
Continuous
 62
     7
100
AcDbLine
 10
303.7873649720041
 20
633.1362897557901
 30
0.0
 11
294.2873649720016
 21
633.13628975579
 31
0.0
  0
LINE
  5
A3
330
36
100
AcDbEntity
  8
1
  6
Continuous
 62
     7
100
AcDbLine
 10
343.2873649720016
 20
633.13628975579
 30
0.0
 11
333.7873649720042
 21
633.1362897557901
 31
0.0
  0
LINE
  5
A4
330
36
100
AcDbEntity
  8
1
  6
Continuous
 62
     7
100
AcDbLine
 10
343.7873649720016
 20
633.63628975579
 30
0.0
 11
343.7873649720016
 21
655.13628975579
 31
0.0
  0
LINE
  5
A5
330
36
100
AcDbEntity
  8
1
  6
Continuous
 62
     7
100
AcDbLine
 10
293.7873649720016
 20
655.13628975579
 30
0.0
 11
293.7873649720016
 21
633.63628975579
 31
0.0
  0
ARC
  5
A6
330
36
100
AcDbEntity
  8
1
  6
Continuous
 62
     7
100
AcDbCircle
 10
253.7873649720016
 20
655.13628975579
 30
0.0
 40
90.00000000000003
100
AcDbArc
 50
0.0
 51
19.81251447871895
  0
ARC
  5
A7
330
36
100
AcDbEntity
  8
1
  6
Continuous
 62
     7
100
AcDbCircle
 10
383.7873649720016
 20
655.13628975579
 30
0.0
 40
89.99999999999994
100
AcDbArc
 50
160.1874855212811
 51
180.0
  0
ARC
  5
A8
330
36
100
AcDbEntity
  8
1
  6
Continuous
 62
     7
100
AcDbCircle
 10
329.0519057529593
 20
682.2517632171102
 30
0.0
 40
9.999999999999792
100
AcDbArc
 50
19.81251447871927
 51
61.67754931155984
  0
ARC
  5
A9
330
36
100
AcDbEntity
  8
1
  6
Continuous
 62
     7
100
AcDbCircle
 10
308.522824191044
 20
682.2517632171102
 30
0.0
 40
10.00000000000003
100
AcDbArc
 50
118.3170853905368
 51
160.1874855212811
  0
ARC
  5
AA
330
36
100
AcDbEntity
  8
1
  6
Continuous
 62
     7
100
AcDbCircle
 10
343.2873649720016
 20
633.63628975579
 30
0.0
 40
0.5
100
AcDbArc
 50
-90.0
 51
0.0
  0
ARC
  5
AB
330
36
100
AcDbEntity
  8
1
  6
Continuous
 62
     7
100
AcDbCircle
 10
294.2873649720016
 20
633.63628975579
 30
0.0
 40
0.5
100
AcDbArc
 50
180.0
 51
-90.0
  0
ENDBLK
  5
38
330
36
100
AcDbEntity
  8
0
100
AcDbBlockEnd
  0
BLOCK
  5
3A
330
39
100
AcDbEntity
  8
0
100
AcDbBlockBegin
  2
84-360A-M22
 70
     0
 71
     0
 10
1472.184695213957
 20
765.252473930434
 30
0.0
  3
84-360A-M22
  1

  0
LINE
  5
AC
330
39
100
AcDbEntity
  8
1
  6
Continuous
 62
     7
100
AcDbLine
 10
334.1439594195795
 20
1209.103338251519
 30
0.0
 11
333.6303011839182
 21
1208.803128186005
 31
0.0
  0
LINE
  5
AD
102
{ACAD_REACTORS
330
C4
330
C4
102
}
330
39
100
AcDbEntity
  8
1
  6
Continuous
 62
     7
100
AcDbLine
 10
334.6920630686473
 20
1238.902688661719
 30
0.0
 11
336.700808389232
 21
1237.303128186004
 31
0.0
  0
LINE
  5
AE
330
39
100
AcDbEntity
  8
1
  6
Continuous
 62
     7
100
AcDbLine
 10
303.3998037507768
 20
1209.103338251519
 30
0.0
 11
303.9134619864376
 21
1208.803128186005
 31
0.0
  0
LINE
  5
AF
102
{ACAD_REACTORS
330
C3
330
C3
102
}
330
39
100
AcDbEntity
  8
1
  6
Continuous
 62
     7
100
AcDbLine
 10
302.851700101709
 20
1238.902688661719
 30
0.0
 11
300.8429547811243
 21
1237.303128186004
 31
0.0
  0
LINE
  5
B0
102
{ACAD_REACTORS
330
C4
330
C4
102
}
330
39
100
AcDbEntity
  8
1
  6
Continuous
 62
     7
100
AcDbLine
 10
336.1967952558996
 20
1210.303128186004
 30
0.0
 11
334.1439594195795
 21
1209.103338251519
 31
0.0
  0
LINE
  5
B1
330
39
100
AcDbEntity
  8
1
  6
Continuous
 62
     7
100
AcDbLine
 10
334.1891867893196
 20
1239.303128186005
 30
0.0
 11
334.6920630686473
 21
1238.902688661719
 31
0.0
  0
LINE
  5
B2
102
{ACAD_REACTORS
330
C3
330
C3
102
}
330
39
100
AcDbEntity
  8
1
  6
Continuous
 62
     7
100
AcDbLine
 10
301.3469679144564
 20
1210.303128186005
 30
0.0
 11
303.3998037507768
 21
1209.103338251519
 31
0.0
  0
LINE
  5
B3
330
39
100
AcDbEntity
  8
1
  6
Continuous
 62
     7
100
AcDbLine
 10
303.3545763810362
 20
1239.303128186005
 30
0.0
 11
302.851700101709
 21
1238.902688661719
 31
0.0
  0
ARC
  5
B4
102
{ACAD_REACTORS
330
C4
330
C4
102
}
330
39
100
AcDbEntity
  8
1
  6
Continuous
 62
     7
100
AcDbCircle
 10
-256.7095561331847
 20
1234.875706058435
 30
0.0
 40
591.4153293443075
100
AcDbArc
 50
-2.49759447786897
 51
0.39013342878283
  0
ARC
  5
B5
102
{ACAD_REACTORS
330
C3
330
C3
102
}
330
39
100
AcDbEntity
  8
1
  6
Continuous
 62
     7
100
AcDbCircle
 10
894.2533193035401
 20
1234.875706058435
 30
0.0
 40
591.4153293443068
100
AcDbArc
 50
179.6098665712172
 51
-177.502405522131
  0
ARC
  5
B6
330
39
100
AcDbEntity
  8
1
  6
Continuous
 62
     7
100
AcDbCircle
 10
318.7718815851777
 20
1238.303128186005
 30
0.0
 40
45.00000000000122
100
AcDbArc
 50
-108.2947052080017
 51
-71.70529479199779
  0
ARC
  5
B7
330
39
100
AcDbEntity
  8
1
  6
Continuous
 62
     7
100
AcDbCircle
 10
-256.7095561331847
 20
1234.875706058435
 30
0.0
 40
590.915329344307
100
AcDbArc
 50
-2.64851804730885
 51
-2.52884588327043
  0
ARC
  5
B8
330
39
100
AcDbEntity
  8
1
  6
Continuous
 62
     7
100
AcDbCircle
 10
-256.7095561331847
 20
1234.875706058435
 30
0.0
 40
590.9153293443076
100
AcDbArc
 50
-2.52884588327043
 51
0.42929158021493
  0
ARC
  5
B9
330
39
100
AcDbEntity
  8
1
  6
Continuous
 62
     7
100
AcDbCircle
 10
894.2533193035401
 20
1234.875706058435
 30
0.0
 40
590.9153293443073
100
AcDbArc
 50
179.5707084197851
 51
-177.4711541167296
  0
ARC
  5
BA
330
39
100
AcDbEntity
  8
1
  6
Continuous
 62
     7
100
AcDbCircle
 10
894.2533193035401
 20
1234.875706058435
 30
0.0
 40
590.915329344307
100
AcDbArc
 50
177.2239373385471
 51
179.5707084197851
  0
ARC
  5
BB
102
{ACAD_REACTORS
330
C3
330
C3
102
}
330
39
100
AcDbEntity
  8
1
  6
Continuous
 62
     7
100
AcDbCircle
 10
894.2533193035401
 20
1234.875706058435
 30
0.0
 40
593.4153293443067
100
AcDbArc
 50
179.7656254835274
 51
-177.6267757220829
  0
ARC
  5
BC
102
{ACAD_REACTORS
330
C4
330
C4
102
}
330
39
100
AcDbEntity
  8
1
  6
Continuous
 62
     7
100
AcDbCircle
 10
-256.7095561331847
 20
1234.875706058435
 30
0.0
 40
593.4153293443076
100
AcDbArc
 50
-2.37322427791725
 51
0.23437451647258
  0
ARC
  5
BD
330
39
100
AcDbEntity
  8
1
  6
Continuous
 62
     7
100
AcDbCircle
 10
-256.7095561331847
 20
1234.875706058435
 30
0.0
 40
590.9153293443076
100
AcDbArc
 50
0.42929158021493
 51
2.77606266145281
  0
ARC
  5
BE
330
39
100
AcDbEntity
  8
1
  6
Continuous
 62
     7
100
AcDbCircle
 10
-256.7095561331847
 20
1234.875706058435
 30
0.0
 40
590.9153293443076
100
AcDbArc
 50
-3.81319314609997
 51
-2.64851804730885
  0
ARC
  5
BF
330
39
100
AcDbEntity
  8
1
  6
Continuous
 62
     7
100
AcDbCircle
 10
894.2533193035401
 20
1234.875706058435
 30
0.0
 40
590.9153293443071
100
AcDbArc
 50
-177.4711541167296
 51
-177.3514819526912
  0
ARC
  5
C0
330
39
100
AcDbEntity
  8
1
  6
Continuous
 62
     7
100
AcDbCircle
 10
318.7718815851781
 20
1243.303128186005
 30
0.0
 40
24.99999999999919
100
AcDbArc
 50
53.8701568634348
 51
126.1298431365653
  0
ARC
  5
C1
330
39
100
AcDbEntity
  8
1
  6
Continuous
 62
     7
100
AcDbCircle
 10
894.2533193035401
 20
1234.875706058435
 30
0.0
 40
590.915329344307
100
AcDbArc
 50
-177.3514819526912
 51
-176.1868068539
  0
ARC
  5
C2
330
39
100
AcDbEntity
  8
1
  6
Continuous
 62
     7
100
AcDbCircle
 10
318.7718815851777
 20
1250.065815317921
 30
0.0
 40
45.00000000000081
100
AcDbArc
 50
-109.2049558336897
 51
-70.79504416631028
  0
HATCH
  5
C3
330
39
100
AcDbEntity
  8
1
  6
Continuous
 62
     2
100
AcDbHatch
 10
0.0
 20
0.0
 30
0.0
210
0.0
220
0.0
230
1.0
  2
CUSTOM0
 70
     0
 71
     1
 91
        1
 92
        1
 93
        4
 72
     2
 10
894.2533193035401
 20
1234.875706058435
 40
593.4153293443067
 50
179.7656254835274
 51
182.3732242779171
 73
     1
 72
     1
 10
301.3469679144564
 20
1210.303128186005
 11
303.3998037507768
 21
1209.103338251519
 72
     2
 10
894.2533193035401
 20
1234.875706058435
 40
591.4153293443068
 50
177.502405522131
 51
180.3901334287829
 73
     0
 72
     1
 10
302.851700101709
 20
1238.902688661719
 11
300.8429547811243
 21
1237.303128186004
 97
        4
330
BB
330
B2
330
B5
330
AF
 75
     1
 76
     2
 52
45.0
 41
0.5
 77
     0
 78
     1
 53
45.0
 43
0.0
 44
0.0
 45
-1.414213562373095
 46
0.0000000000000001
 79
     0
 98
        1
 10
0.0
 20
0.0
  0
HATCH
  5
C4
330
39
100
AcDbEntity
  8
1
  6
Continuous
 62
     2
100
AcDbHatch
 10
0.0
 20
0.0
 30
0.0
210
0.0
220
0.0
230
1.0
  2
CUSTOM1
 70
     0
 71
     1
 91
        1
 92
        1
 93
        4
 72
     2
 10
-256.7095561331847
 20
1234.875706058435
 40
593.4153293443076
 50
359.7656254835274
 51
362.3732242779173
 73
     0
 72
     1
 10
336.1967952558996
 20
1210.303128186004
 11
334.1439594195795
 21
1209.103338251519
 72
     2
 10
-256.7095561331847
 20
1234.875706058435
 40
591.4153293443075
 50
357.502405522131
 51
360.3901334287828
 73
     1
 72
     1
 10
334.6920630686473
 20
1238.902688661719
 11
336.700808389232
 21
1237.303128186004
 97
        4
330
B4
330
B0
330
BC
330
AD
 75
     1
 76
     2
 52
45.0
 41
0.5
 77
     0
 78
     1
 53
45.0
 43
0.0
 44
0.0
 45
-1.414213562373095
 46
0.0000000000000001
 79
     0
 98
        1
 10
0.0
 20
0.0
  0
ENDBLK
  5
3B
330
39
100
AcDbEntity
  8
0
100
AcDbBlockEnd
  0
BLOCK
  5
3E
330
3C
100
AcDbEntity
  8
0
100
AcDbBlockBegin
  2
87-163-M21__2
 70
     0
 71
     0
 10
4289.914153234306
 20
3745.4099997565
 30
0.0
  3
87-163-M21__2
  1

  0
INSERT
  5
3D
330
3C
100
AcDbEntity
  8
1
100
AcDbBlockReference
  2
84-360A-M22
 10
1472.184695213957
 20
765.252473930434
 30
0.0
  0
LINE
  5
C5
330
3C
100
AcDbEntity
  8
1
  6
Continuous
 62
     7
100
AcDbLine
 10
336.9508104799993
 20
1237.303128186005
 30
0.0
 11
334.4391938038068
 21
1239.303128186005
 31
0.0
  0
LINE
  5
C6
330
3C
100
AcDbEntity
  8
1
  6
Continuous
 62
     7
100
AcDbLine
 10
336.4470097768526
 20
1210.303128186005
 30
0.0
 11
333.8805447844061
 21
1208.803128186005
 31
0.0
  0
LINE
  5
C7
330
3C
100
AcDbEntity
  8
1
  6
Continuous
 62
     7
100
AcDbLine
 10
301.0967533935036
 20
1210.303128186005
 30
0.0
 11
303.66321838595
 21
1208.803128186005
 31
0.0
  0
LINE
  5
C8
330
3C
100
AcDbEntity
  8
1
  6
Continuous
 62
     7
100
AcDbLine
 10
303.1045693665492
 20
1239.303128186005
 30
0.0
 11
300.5929526903565
 21
1237.303128186005
 31
0.0
  0
ARC
  5
C9
330
3C
100
AcDbEntity
  8
1
  6
PHANTOM
 62
     5
100
AcDbCircle
 10
-94.11403280678601
 20
1644.270867909316
 30
0.0
 40
591.1653293443067
100
AcDbArc
 50
-52.05485973262184
 51
-49.00455263677871
  0
ARC
  5
CA
330
3C
100
AcDbEntity
  8
1
  6
PHANTOM
 62
     5
100
AcDbCircle
 10
719.7396213084899
 20
830.4172137940409
 30
0.0
 40
591.1653293443084
100
AcDbArc
 50
142.0548597326217
 51
142.2854734842086
  0
ARC
  5
CB
330
3C
100
AcDbEntity
  8
1
  6
PHANTOM
 62
     5
100
AcDbCircle
 10
260.789125527881
 20
1185.320372128709
 30
0.0
 40
10.99999999999941
100
AcDbArc
 50
142.285473484212
 51
-52.28547348421152
  0
ARC
  5
CC
330
3C
100
AcDbEntity
  8
1
  6
PHANTOM
 62
     5
100
AcDbCircle
 10
260.789125527881
 20
1185.320372128709
 30
0.0
 40
18.00000000000043
100
AcDbArc
 50
180.0
 51
-52.28547348421042
  0
ARC
  5
CD
330
3C
100
AcDbEntity
  8
1
  6
PHANTOM
 62
     5
100
AcDbCircle
 10
265.3853196055948
 20
1189.916566206422
 30
0.0
 40
12.49999999999981
100
AcDbArc
 50
161.278227584037
 51
-71.2782275840451
  0
ARC
  5
CE
330
3C
100
AcDbEntity
  8
1
  6
PHANTOM
 62
     5
100
AcDbCircle
 10
-94.11403280678601
 20
1644.270867909316
 30
0.0
 40
591.165329344307
100
AcDbArc
 50
-52.28547348420858
 51
-52.05485973262184
  0
ARC
  5
CF
330
3C
100
AcDbEntity
  8
1
  6
PHANTOM
 62
     5
100
AcDbCircle
 10
1037.618356888396
 20
584.6038455507958
 30
0.0
 40
1000.000000000001
100
AcDbArc
 50
138.3405795102228
 51
142.2854734842087
  0
ARC
  5
D0
330
3C
100
AcDbEntity
  8
1
  6
PHANTOM
 62
     5
100
AcDbCircle
 10
719.7396213084899
 20
830.4172137940409
 30
0.0
 40
591.1653293443063
100
AcDbArc
 50
138.8032659793444
 51
142.0548597326217
  0
ARC
  5
D1
330
3C
100
AcDbEntity
  8
1
  6
PHANTOM
 62
     5
100
AcDbCircle
 10
315.2363476792448
 20
1239.767594280071
 30
0.0
 40
45.00000000000002
100
AcDbArc
 50
-153.6386848085104
 51
-118.8957749554338
  0
ARC
  5
D2
330
3C
100
AcDbEntity
  8
1
  6
PHANTOM
 62
     5
100
AcDbCircle
 10
-339.9274010500282
 20
1962.149603489221
 30
0.0
 40
999.9999999999961
100
AcDbArc
 50
-52.28547348420874
 51
-50.62158374272966
  0
ARC
  5
D3
330
3C
100
AcDbEntity
  8
1
  6
PHANTOM
 62
     5
100
AcDbCircle
 10
322.307415491111
 20
1239.767594280071
 30
0.0
 40
44.99999999999954
100
AcDbArc
 50
-61.10422504456555
 51
-26.36131519148717
  0
ARC
  5
D4
330
3C
100
AcDbEntity
  8
1
  6
PHANTOM
 62
     5
100
AcDbCircle
 10
731.6577959771412
 20
1644.270867909316
 30
0.0
 40
591.1653293443056
100
AcDbArc
 50
-130.9954473632213
 51
-127.9451402673781
  0
ARC
  5
D5
330
3C
100
AcDbEntity
  8
1
  6
PHANTOM
 62
     5
100
AcDbCircle
 10
-82.19585813813447
 20
830.4172137940409
 30
0.0
 40
591.1653293443071
100
AcDbArc
 50
37.94514026737801
 51
41.19673402065573
  0
ARC
  5
D6
330
3C
100
AcDbEntity
  8
1
  6
PHANTOM
 62
     5
100
AcDbCircle
 10
-82.19585813813447
 20
830.4172137940409
 30
0.0
 40
591.1653293443078
100
AcDbArc
 50
37.71452651579136
 51
37.94514026737801
  0
ARC
  5
D7
330
3C
100
AcDbEntity
  8
1
  6
PHANTOM
 62
     5
100
AcDbCircle
 10
372.158443564761
 20
1189.916566206422
 30
0.0
 40
12.4999999999998
100
AcDbArc
 50
-108.7217724159564
 51
18.7217724159499
  0
ARC
  5
D8
330
3C
100
AcDbEntity
  8
1
  6
PHANTOM
 62
     5
100
AcDbCircle
 10
376.7546376424748
 20
1185.320372128709
 30
0.0
 40
11.00000000000146
100
AcDbArc
 50
-127.7145265157887
 51
37.71452651578744
  0
ARC
  5
D9
330
3C
100
AcDbEntity
  8
1
  6
PHANTOM
 62
     5
100
AcDbCircle
 10
731.6577959771412
 20
1644.270867909316
 30
0.0
 40
591.1653293443064
100
AcDbArc
 50
-127.9451402673781
 51
-127.7145265157914
  0
ARC
  5
DA
330
3C
100
AcDbEntity
  8
1
  6
PHANTOM
 62
     5
100
AcDbCircle
 10
-400.0745937180373
 20
584.6038455507985
 30
0.0
 40
999.999999999996
100
AcDbArc
 50
37.71452651579132
 51
41.65942048977719
  0
ARC
  5
DB
330
3C
100
AcDbEntity
  8
1
  6
PHANTOM
 62
     5
100
AcDbCircle
 10
977.471164220387
 20
1962.149603489223
 30
0.0
 40
1000.000000000001
100
AcDbArc
 50
-129.3784162572704
 51
-127.7145265157914
  0
ARC
  5
DC
330
3C
100
AcDbEntity
  8
1
  6
Continuous
 62
     7
100
AcDbCircle
 10
318.7718815851781
 20
1243.303128186005
 30
0.0
 40
25.00000000000049
100
AcDbArc
 50
53.13010235415796
 51
53.87015686343603
  0
ARC
  5
DD
330
3C
100
AcDbEntity
  8
1
  6
Continuous
 62
     7
100
AcDbCircle
 10
894.2533193035401
 20
1234.875706058436
 30
0.0
 40
593.6653293443075
100
AcDbArc
 50
179.7657241821592
 51
-177.6277756885002
  0
ARC
  5
DE
330
3C
100
AcDbEntity
  8
1
  6
Continuous
 62
     7
100
AcDbCircle
 10
-256.7095561331847
 20
1234.875706058436
 30
0.0
 40
591.1653293443075
100
AcDbArc
 50
0.42911003218283
 51
2.75625041500966
  0
ARC
  5
DF
330
3C
100
AcDbEntity
  8
1
  6
Continuous
 62
     7
100
AcDbCircle
 10
894.2533193035401
 20
1234.875706058436
 30
0.0
 40
591.1653293443075
100
AcDbArc
 50
-172.9451402673781
 51
-172.7145265157912
  0
ARC
  5
E0
330
3C
100
AcDbEntity
  8
1
  6
Continuous
 62
     7
100
AcDbCircle
 10
318.7718815851781
 20
1161.303128186005
 30
0.0
 40
11.00000000000062
100
AcDbArc
 50
-172.7145265157863
 51
-7.28547348421387
  0
ARC
  5
E1
330
3C
100
AcDbEntity
  8
1
  6
Continuous
 62
     7
100
AcDbCircle
 10
318.7718815851781
 20
1243.303128186005
 30
0.0
 40
25.00000000000097
100
AcDbArc
 50
126.8698976458435
 51
-177.4999067616171
  0
ARC
  5
E2
330
3C
100
AcDbEntity
  8
1
  6
Continuous
 62
     7
100
AcDbCircle
 10
318.7718815851781
 20
1238.303128186005
 30
0.0
 40
45.00000000000031
100
AcDbArc
 50
-108.6386848085116
 51
-71.36131519148931
  0
ARC
  5
E3
330
3C
100
AcDbEntity
  8
1
  6
Continuous
 62
     7
100
AcDbCircle
 10
318.7718815851781
 20
1161.303128186005
 30
0.0
 40
18.00000000000036
100
AcDbArc
 50
-172.7145265157911
 51
-7.28547348420904
  0
ARC
  5
E4
330
3C
100
AcDbEntity
  8
1
  6
Continuous
 62
     7
100
AcDbCircle
 10
318.7718815851781
 20
1167.803128186007
 30
0.0
 40
12.49999999999994
100
AcDbArc
 50
-153.7217724159555
 51
-26.27822758404544
  0
ARC
  5
E5
330
3C
100
AcDbEntity
  8
1
  6
Continuous
 62
     7
100
AcDbCircle
 10
1292.843828418203
 20
1285.833615990888
 30
0.0
 40
1000.000000000001
100
AcDbArc
 50
-177.4999067616166
 51
-172.7145265157913
  0
ARC
  5
E6
330
3C
100
AcDbEntity
  8
1
  6
Continuous
 62
     7
100
AcDbCircle
 10
-655.3000652478421
 20
1285.833615990888
 30
0.0
 40
999.999999999996
100
AcDbArc
 50
-7.28547348420871
 51
-2.50009323838342
  0
ARC
  5
E7
330
3C
100
AcDbEntity
  8
1
  6
Continuous
 62
     7
100
AcDbCircle
 10
894.2533193035401
 20
1234.875706058436
 30
0.0
 40
591.1653293443075
100
AcDbArc
 50
177.2437495849904
 51
179.5708899678172
  0
ARC
  5
E8
330
3C
100
AcDbEntity
  8
1
  6
Continuous
 62
     7
100
AcDbCircle
 10
318.7718815851781
 20
1243.303128186005
 30
0.0
 40
25.00000000000043
100
AcDbArc
 50
-2.50009323838299
 51
53.13010235415796
  0
ARC
  5
E9
330
3C
100
AcDbEntity
  8
1
  6
Continuous
 62
     7
100
AcDbCircle
 10
318.7718815851781
 20
1243.303128186005
 30
0.0
 40
25.0000000000006
100
AcDbArc
 50
126.1298431365661
 51
126.8698976458435
  0
ARC
  5
EA
330
3C
100
AcDbEntity
  8
1
  6
Continuous
 62
     7
100
AcDbCircle
 10
894.2533193035401
 20
1234.875706058436
 30
0.0
 40
591.1653293443072
100
AcDbArc
 50
-177.4722242438574
 51
-176.1967340206557
  0
ARC
  5
EB
330
3C
100
AcDbEntity
  8
1
  6
Continuous
 62
     7
100
AcDbCircle
 10
894.2533193035401
 20
1234.875706058436
 30
0.0
 40
591.1653293443072
100
AcDbArc
 50
-176.1967340206557
 51
-172.9451402673781
  0
ARC
  5
EC
330
3C
100
AcDbEntity
  8
1
  6
Continuous
 62
     7
100
AcDbCircle
 10
-256.7095561331847
 20
1234.875706058436
 30
0.0
 40
591.1653293443073
100
AcDbArc
 50
-3.80326597934432
 51
-2.52777575614264
  0
ARC
  5
ED
330
3C
100
AcDbEntity
  8
1
  6
Continuous
 62
     7
100
AcDbCircle
 10
-256.7095561331847
 20
1234.875706058436
 30
0.0
 40
591.1653293443077
100
AcDbArc
 50
-7.05485973262194
 51
-3.80326597934432
  0
ARC
  5
EE
330
3C
100
AcDbEntity
  8
1
  6
Continuous
 62
     7
100
AcDbCircle
 10
-256.7095561331847
 20
1234.875706058436
 30
0.0
 40
591.165329344308
100
AcDbArc
 50
-7.28547348420878
 51
-7.05485973262194
  0
ARC
  5
EF
330
3C
100
AcDbEntity
  8
1
  6
Continuous
 62
     7
100
AcDbCircle
 10
-256.7095561331847
 20
1234.875706058436
 30
0.0
 40
593.6653293443076
100
AcDbArc
 50
-2.37222431149986
 51
0.23427581784084
  0
ARC
  5
F0
330
3C
100
AcDbEntity
  8
1
  6
PHANTOM
 62
     5
100
AcDbCircle
 10
376.7546376424748
 20
1185.320372128709
 30
0.0
 40
17.99999999999935
100
AcDbArc
 50
0.98903805652016
 51
37.71452651578978
  0
ARC
  5
F1
330
3C
100
AcDbEntity
  8
1
  6
PHANTOM
 62
     5
100
AcDbCircle
 10
260.789125527881
 20
1185.320372128709
 30
0.0
 40
17.99999999999954
100
AcDbArc
 50
142.2854734842107
 51
180.0
  0
ARC
  5
F2
330
3C
100
AcDbEntity
  8
1
  6
PHANTOM
 62
     5
100
AcDbCircle
 10
376.7546376424748
 20
1185.320372128709
 30
0.0
 40
18.0000000000006
100
AcDbArc
 50
-127.7145265157902
 51
0.98903805652016
  0
ENDBLK
  5
3F
330
3C
100
AcDbEntity
  8
0
100
AcDbBlockEnd
  0
BLOCK
  5
41
330
40
100
AcDbEntity
  8
0
100
AcDbBlockBegin
  2
84-360A-__F_
 70
     0
 71
     0
 10
628.7873649720018
 20
523.1362897557901
 30
0.0
  3
84-360A-__F_
  1

  0
LINE
  5
F3
330
40
100
AcDbEntity
  8
1
  6
PHANTOM
 62
     5
100
AcDbLine
 10
787.9645375055575
 20
695.8038515984742
 30
0.0
 11
785.6631978210239
 21
695.602510465156
 31
0.0
  0
LINE
  5
F4
330
40
100
AcDbEntity
  8
1
  6
PHANTOM
 62
     5
100
AcDbLine
 10
829.7283775780356
 20
635.7344658381896
 30
0.0
 11
829.3057593162953
 21
634.8281580511537
 31
0.0
  0
LINE
  5
F5
330
40
100
AcDbEntity
  8
1
  6
Continuous
 62
     7
100
AcDbLine
 10
760.5500521039171
 20
684.9274803377946
 30
0.0
 11
763.054395650729
 21
682.3378198966582
 31
0.0
  0
LINE
  5
F6
330
40
100
AcDbEntity
  8
1
  6
Continuous
 62
     7
100
AcDbLine
 10
794.7873649720018
 20
669.0210104219229
 30
0.0
 11
792.7873649720018
 21
669.5362897557905
 31
0.0
  0
LINE
  5
F7
330
40
100
AcDbEntity
  8
1
  6
Continuous
 62
     7
100
AcDbLine
 10
765.7873649720018
 20
680.940689859706
 30
0.0
 11
764.2873649720018
 21
681.9264981453732
 31
0.0
  0
LINE
  5
F8
330
40
100
AcDbEntity
  8
1
  6
Continuous
 62
     7
100
AcDbLine
 10
760.5500521039171
 20
684.9274803377946
 30
0.0
 11
758.5494204669876
 21
683.772415123665
 31
0.0
  0
LINE
  5
F9
102
{ACAD_REACTORS
330
10C
330
10C
102
}
330
40
100
AcDbEntity
  8
1
  6
Continuous
 62
     7
100
AcDbLine
 10
765.7873649720018
 20
680.940689859706
 30
0.0
 11
764.2873649720018
 21
681.9264981453732
 31
0.0
  0
LINE
  5
FA
102
{ACAD_REACTORS
330
10C
330
10C
102
}
330
40
100
AcDbEntity
  8
1
  6
Continuous
 62
     7
100
AcDbLine
 10
794.7873649720018
 20
669.0210104219229
 30
0.0
 11
792.7873649720018
 21
669.5362897557905
 31
0.0
  0
LINE
  5
FB
330
40
100
AcDbEntity
  8
1
  6
PHANTOM
 62
     4
100
AcDbLine
 10
798.7873649720018
 20
672.1820513358405
 30
0.0
 11
798.7873649720018
 21
630.1362897557899
 31
0.0
  0
LINE
  5
FC
330
40
100
AcDbEntity
  8
1
  6
Continuous
 62
     7
100
AcDbLine
 10
823.7873649720018
 20
648.1362897557899
 30
0.0
 11
823.7873649720018
 21
647.1362897557899
 31
0.0
  0
LINE
  5
FD
330
40
100
AcDbEntity
  8
1
  6
Continuous
 62
     7
100
AcDbLine
 10
823.7873649720018
 20
647.1362897557899
 30
0.0
 11
820.8077993681523
 21
647.1362897557899
 31
0.0
  0
ARC
  5
FE
330
40
100
AcDbEntity
  8
1
  6
PHANTOM
 62
     5
100
AcDbCircle
 10
820.6652997076694
 20
639.9606484555968
 30
0.0
 40
10.00000000000047
100
AcDbArc
 50
-1.77436604267475
 51
29.6997515601383
  0
ARC
  5
FF
330
40
100
AcDbEntity
  8
1
  6
PHANTOM
 62
     5
100
AcDbCircle
 10
820.6652997076694
 20
639.9606484555968
 30
0.0
 40
9.999999999999819
100
AcDbArc
 50
-25.00000000000163
 51
29.6997515601383
  0
ARC
  5
100
330
40
100
AcDbEntity
  8
1
  6
PHANTOM
 62
     5
100
AcDbCircle
 10
820.6652997076694
 20
639.9606484555968
 30
0.0
 40
9.999999999999819
100
AcDbArc
 50
-25.00000000000163
 51
29.6997515601383
  0
ARC
  5
101
330
40
100
AcDbEntity
  8
1
  6
PHANTOM
 62
     5
100
AcDbCircle
 10
655.3146774703473
 20
545.6472689038865
 30
0.0
 40
200.357142857143
100
AcDbArc
 50
29.69975156013758
 51
48.54229199834968
  0
ARC
  5
102
330
40
100
AcDbEntity
  8
1
  6
Continuous
 62
     7
100
AcDbCircle
 10
694.0505058686149
 20
473.4396073745361
 30
0.0
 40
220.0
100
AcDbArc
 50
71.38191495189241
 51
71.72042120108429
  0
ARC
  5
103
330
40
100
AcDbEntity
  8
1
  6
Continuous
 62
     7
100
AcDbCircle
 10
703.7873649720018
 20
492.7791468986475
 30
0.0
 40
200.3571428571425
100
AcDbArc
 50
54.69975156013975
 51
73.54229199835179
  0
ARC
  5
104
330
40
100
AcDbEntity
  8
1
  6
Continuous
 62
     7
100
AcDbCircle
 10
694.0505058686149
 20
473.4396073745361
 30
0.0
 40
219.5515342386307
100
AcDbArc
 50
63.27423731996625
 51
70.92881112818711
  0
ARC
  5
105
102
{ACAD_REACTORS
330
10C
330
10C
102
}
330
40
100
AcDbEntity
  8
1
  6
Continuous
 62
     7
100
AcDbCircle
 10
694.0505058686149
 20
473.4396073745361
 30
0.0
 40
220.0
100
AcDbArc
 50
62.74865308431205
 51
71.38191495189241
  0
ARC
  5
106
330
40
100
AcDbEntity
  8
1
  6
Continuous
 62
     7
100
AcDbCircle
 10
694.0505058686149
 20
473.4396073745361
 30
0.0
 40
219.9999999999998
100
AcDbArc
 50
57.03802307375572
 51
62.74865308431205
  0
ARC
  5
107
102
{ACAD_REACTORS
330
10C
330
10C
102
}
330
40
100
AcDbEntity
  8
1
  6
Continuous
 62
     7
100
AcDbCircle
 10
694.0505058686149
 20
473.4396073745361
 30
0.0
 40
219.5515342386307
100
AcDbArc
 50
63.27423731996625
 51
70.92881112818711
  0
ARC
  5
108
330
40
100
AcDbEntity
  8
1
  6
Continuous
 62
     7
100
AcDbCircle
 10
808.3077993681523
 20
649.6362897557899
 30
0.0
 40
10.0
100
AcDbArc
 50
0.0
 51
57.03802307375751
  0
ARC
  5
109
330
40
100
AcDbEntity
  8
1
  6
Continuous
 62
     7
100
AcDbCircle
 10
820.8077993681523
 20
649.6362897557899
 30
0.0
 40
2.5
100
AcDbArc
 50
180.0
 51
-90.0
  0
ARC
  5
10A
330
40
100
AcDbEntity
  8
1
  6
Continuous
 62
     7
100
AcDbCircle
 10
813.7873649720018
 20
648.1362897557899
 30
0.0
 40
10.0
100
AcDbArc
 50
0.0
 51
54.69975156014129
  0
ARC
  5
10B
330
40
100
AcDbEntity
  8
1
  6
PHANTOM
 62
     5
100
AcDbCircle
 10
820.6652997076694
 20
639.9606484555968
 30
0.0
 40
9.999999999999819
100
AcDbArc
 50
-25.00000000000163
 51
-1.77436604267475
  0
HATCH
  5
10C
330
40
100
AcDbEntity
  8
1
  6
Continuous
 62
     2
100
AcDbHatch
 10
0.0
 20
0.0
 30
0.0
210
0.0
220
0.0
230
1.0
  2
CUSTOM2
 70
     0
 71
     1
 91
        1
 92
        1
 93
        4
 72
     1
 10
794.7873649720018
 20
669.0210104219229
 11
792.7873649720018
 21
669.5362897557905
 72
     2
 10
694.0505058686149
 20
473.4396073745361
 40
219.5515342386307
 50
63.27423731996625
 51
70.92881112818711
 73
     1
 72
     1
 10
765.7873649720018
 20
680.940689859706
 11
764.2873649720018
 21
681.9264981453732
 72
     2
 10
694.0505058686149
 20
473.4396073745361
 40
220.0
 50
288.6180850481076
 51
297.251346915688
 73
     0
 97
        4
330
FA
330
107
330
F9
330
105
 75
     1
 76
     2
 52
45.0
 41
0.5
 77
     0
 78
     1
 53
45.0
 43
0.0
 44
0.0
 45
-1.414213562373095
 46
0.0000000000000001
 79
     0
 98
        1
 10
0.0
 20
0.0
  0
ENDBLK
  5
42
330
40
100
AcDbEntity
  8
0
100
AcDbBlockEnd
  0
BLOCK
  5
45
330
43
100
AcDbEntity
  8
0
100
AcDbBlockBegin
  2
87-163-__F_
 70
     0
 71
     0
 10
2499.633568777156
 20
2639.72264016396
 30
0.0
  3
87-163-__F_
  1

  0
INSERT
  5
44
330
43
100
AcDbEntity
  8
1
100
AcDbBlockReference
  2
84-360A-__F_
 10
628.7873649720018
 20
523.1362897557901
 30
0.0
  0
LINE
  5
10D
330
43
100
AcDbEntity
  8
1
  6
PHANTOM
 62
     5
100
AcDbLine
 10
829.3057593162953
 20
634.8281580511527
 30
0.0
 11
825.4293881178278
 21
626.5152531895762
 31
0.0
  0
LINE
  5
10E
330
43
100
AcDbEntity
  8
1
  6
PHANTOM
 62
     5
100
AcDbLine
 10
824.8468247017581
 20
626.2435994073028
 30
0.0
 11
821.497286321694
 21
627.1411055112583
 31
0.0
  0
LINE
  5
10F
330
43
100
AcDbEntity
  8
1
  6
PHANTOM
 62
     5
100
AcDbLine
 10
733.3446346680862
 20
724.8140600372469
 30
0.0
 11
732.864332269703
 21
723.784048219977
 31
0.0
  0
LINE
  5
110
330
43
100
AcDbEntity
  8
1
  6
PHANTOM
 62
     5
100
AcDbLine
 10
823.7873649720018
 20
648.1362897557899
 30
0.0
 11
823.7873649720018
 21
647.1362897557899
 31
0.0
  0
LINE
  5
111
330
43
100
AcDbEntity
  8
1
  6
Continuous
 62
     7
100
AcDbLine
 10
823.7873649720018
 20
647.1362897557899
 30
0.0
 11
820.8077993681523
 21
647.1362897557899
 31
0.0
  0
LINE
  5
112
330
43
100
AcDbEntity
  8
1
  6
Continuous
 62
     7
100
AcDbLine
 10
698.7873649720018
 20
688.1362897557899
 30
0.0
 11
698.7873649720018
 21
686.9997974603446
 31
0.0
  0
LINE
  5
113
330
43
100
AcDbEntity
  8
1
  6
PHANTOM
 62
     4
100
AcDbLine
 10
798.7873649720018
 20
672.1820513358405
 30
0.0
 11
798.7873649720018
 21
630.1362897557899
 31
0.0
  0
LINE
  5
114
330
43
100
AcDbEntity
  8
1
  6
Continuous
 62
     7
100
AcDbLine
 10
773.7873649720018
 20
633.6362897557899
 30
0.0
 11
773.7873649720018
 21
656.1362897557899
 31
0.0
  0
LINE
  5
115
330
43
100
AcDbEntity
  8
1
  6
Continuous
 62
     7
100
AcDbLine
 10
796.1627050662241
 20
633.1362897557899
 30
0.0
 11
774.2873649720018
 21
633.1362897557899
 31
0.0
  0
LINE
  5
116
330
43
100
AcDbEntity
  8
1
  6
Continuous
 62
     7
100
AcDbLine
 10
823.7873649720018
 20
647.1362897557899
 30
0.0
 11
823.7873649720018
 21
637.9640140890904
 31
0.0
  0
LINE
  5
117
330
43
100
AcDbEntity
  8
1
  6
Continuous
 62
     7
100
AcDbLine
 10
823.3741890608353
 20
637.4716102125847
 30
0.0
 11
801.372150396232
 21
633.592057165424
 31
0.0
  0
LINE
  5
118
330
43
100
AcDbEntity
  8
1
  6
Continuous
 62
     7
100
AcDbLine
 10
798.7873649720018
 20
633.1362897557899
 30
0.0
 11
796.1627050662241
 21
633.1362897557899
 31
0.0
  0
LINE
  5
119
330
43
100
AcDbEntity
  8
1
  6
Continuous
 62
     7
100
AcDbLine
 10
794.7873649720018
 20
669.0210104219229
 30
0.0
 11
792.7873649720018
 21
669.5362897557905
 31
0.0
  0
LINE
  5
11A
330
43
100
AcDbEntity
  8
1
  6
Continuous
 62
     7
100
AcDbLine
 10
765.7873649720018
 20
680.940689859706
 30
0.0
 11
764.2873649720018
 21
681.9264981453732
 31
0.0
  0
ARC
  5
11B
330
43
100
AcDbEntity
  8
1
  6
PHANTOM
 62
     5
100
AcDbCircle
 10
737.8761736032693
 20
722.7009687285433
 30
0.0
 40
5.000000000000322
100
AcDbArc
 50
65.00000000000057
 51
90.0
  0
ARC
  5
11C
330
43
100
AcDbEntity
  8
1
  6
PHANTOM
 62
     5
100
AcDbCircle
 10
775.1056253016172
 20
670.0324968858902
 30
0.0
 40
14.00000000000035
100
AcDbArc
 50
20.27842980764776
 51
41.49354248246961
  0
ARC
  5
11D
330
43
100
AcDbEntity
  8
1
  6
PHANTOM
 62
     5
100
AcDbCircle
 10
635.7859715365403
 20
546.8008691486116
 30
0.0
 40
200.0000000000003
100
AcDbArc
 50
41.49354248247084
 51
60.68838098644658
  0
ARC
  5
11E
330
43
100
AcDbEntity
  8
1
  6
PHANTOM
 62
     5
100
AcDbCircle
 10
655.3146774703473
 20
545.6472689038865
 30
0.0
 40
200.3571428571426
100
AcDbArc
 50
64.42805402126206
 51
64.9999999999979
  0
ARC
  5
11F
330
43
100
AcDbEntity
  8
1
  6
PHANTOM
 62
     5
100
AcDbCircle
 10
737.8761736032693
 20
722.7009687285433
 30
0.0
 40
5.0
100
AcDbArc
 50
90.0
 51
154.9999999999984
  0
ARC
  5
120
330
43
100
AcDbEntity
  8
1
  6
PHANTOM
 62
     5
100
AcDbCircle
 10
638.3168436671231
 20
532.2346681045692
 30
0.0
 40
220.0000000000007
100
AcDbArc
 50
47.95175246216941
 51
61.94185502721906
  0
ARC
  5
121
330
43
100
AcDbEntity
  8
1
  6
Continuous
 62
     7
100
AcDbCircle
 10
759.7873649720018
 20
656.1362897557899
 30
0.0
 40
14.0
100
AcDbArc
 50
0.0
 51
66.49354248247413
  0
ARC
  5
122
330
43
100
AcDbEntity
  8
1
  6
Continuous
 62
     7
100
AcDbCircle
 10
703.7873649720018
 20
492.7791468986475
 30
0.0
 40
200.3571428571426
100
AcDbArc
 50
89.42805402126429
 51
90.0
  0
ARC
  5
123
330
43
100
AcDbEntity
  8
1
  6
Continuous
 62
     7
100
AcDbCircle
 10
703.7873649720018
 20
688.1362897557899
 30
0.0
 40
5.0
100
AcDbArc
 50
90.0
 51
180.0
  0
ARC
  5
124
330
43
100
AcDbEntity
  8
1
  6
Continuous
 62
     7
100
AcDbCircle
 10
685.6008141832745
 20
485.5714760277779
 30
0.0
 40
200.0000000000002
100
AcDbArc
 50
66.493542482473
 51
85.68838098644866
  0
ARC
  5
125
330
43
100
AcDbEntity
  8
1
  6
Continuous
 62
     7
100
AcDbCircle
 10
694.0505058686149
 20
473.4396073745361
 30
0.0
 40
220.0
100
AcDbArc
 50
71.38191495189241
 51
86.94185502722125
  0
ARC
  5
126
330
43
100
AcDbEntity
  8
1
  6
Continuous
 62
     7
100
AcDbCircle
 10
820.8077993681523
 20
649.6362897557899
 30
0.0
 40
2.5
100
AcDbArc
 50
180.0
 51
-90.0
  0
ARC
  5
127
330
43
100
AcDbEntity
  8
1
  6
Continuous
 62
     7
100
AcDbCircle
 10
808.3077993681523
 20
649.6362897557899
 30
0.0
 40
10.0
100
AcDbArc
 50
0.0
 51
57.03802307375532
  0
ARC
  5
128
330
43
100
AcDbEntity
  8
1
  6
Continuous
 62
     7
100
AcDbCircle
 10
694.0505058686149
 20
473.4396073745361
 30
0.0
 40
219.5515342386307
100
AcDbArc
 50
63.27423731996625
 51
70.92881112818711
  0
ARC
  5
129
330
43
100
AcDbEntity
  8
1
  6
Continuous
 62
     7
100
AcDbCircle
 10
694.0505058686149
 20
473.4396073745361
 30
0.0
 40
220.0000000000001
100
AcDbArc
 50
57.03802307375562
 51
62.74865308431205
  0
ARC
  5
12A
330
43
100
AcDbEntity
  8
1
  6
PHANTOM
 62
     5
100
AcDbCircle
 10
824.9762342243093
 20
626.7265623204473
 30
0.0
 40
0.5000000000000006
100
AcDbArc
 50
-104.9999999999944
 51
-25.00000000007059
  0
ARC
  5
12B
330
43
100
AcDbEntity
  8
1
  6
PHANTOM
 62
     5
100
AcDbCircle
 10
734.6769478437764
 20
722.9388116964954
 30
0.0
 40
2.000000000000123
100
AcDbArc
 50
154.9999999999948
 51
-119.3116190135691
  0
ARC
  5
12C
330
43
100
AcDbEntity
  8
1
  6
Continuous
 62
     7
100
AcDbCircle
 10
700.7873649720018
 20
686.9997974603446
 30
0.0
 40
2.0
100
AcDbArc
 50
180.0
 51
-94.31161901355407
  0
ARC
  5
12D
330
43
100
AcDbEntity
  8
1
  6
Continuous
 62
     7
100
AcDbCircle
 10
796.1627050662241
 20
663.1362897557899
 30
0.0
 40
30.0
100
AcDbArc
 50
-90.0
 51
-80.00000000000004
  0
ARC
  5
12E
330
43
100
AcDbEntity
  8
1
  6
Continuous
 62
     7
100
AcDbCircle
 10
823.2873649720018
 20
637.9640140890904
 30
0.0
 40
0.4999999999996145
100
AcDbArc
 50
-79.99999999998705
 51
0.0
  0
ARC
  5
12F
330
43
100
AcDbEntity
  8
1
  6
Continuous
 62
     7
100
AcDbCircle
 10
774.2873649720018
 20
633.6362897557899
 30
0.0
 40
0.5
100
AcDbArc
 50
180.0
 51
-90.0
  0
ENDBLK
  5
46
330
43
100
AcDbEntity
  8
0
100
AcDbBlockEnd
  0
BLOCK
  5
48
330
47
100
AcDbEntity
  8
0
100
AcDbBlockBegin
  2
37-364-M11
 70
     0
 71
     0
 10
1854.0
 20
382.8883810687154
 30
0.0
  3
37-364-M11
  1

  0
LINE
  5
130
330
47
100
AcDbEntity
  8
1
  6
Continuous
 62
     7
100
AcDbLine
 10
333.7873649720042
 20
581.4362897557883
 30
0.0
 11
342.7873649720038
 21
581.4362897557882
 31
0.0
  0
LINE
  5
131
330
47
100
AcDbEntity
  8
1
  6
Continuous
 62
     7
100
AcDbLine
 10
822.7873649720041
 20
581.4362897557882
 30
0.0
 11
774.7873649720025
 21
581.4362897557882
 31
0.0
  0
LINE
  5
132
330
47
100
AcDbEntity
  8
1
  6
Continuous
 62
     7
100
AcDbLine
 10
294.7873649720043
 20
581.4362897557882
 30
0.0
 11
294.7873649720043
 21
617.6317445410542
 31
0.0
  0
LINE
  5
133
330
47
100
AcDbEntity
  8
1
  6
PHANTOM
 62
     4
100
AcDbLine
 10
798.7873649720041
 20
644.6362897557902
 30
0.0
 11
798.7873649720041
 21
578.4362897557882
 31
0.0
  0
LINE
  5
134
330
47
100
AcDbEntity
  8
1
  6
Continuous
 62
     7
100
AcDbLine
 10
822.7873649720041
 20
617.6317445410542
 30
0.0
 11
822.7873649720041
 21
581.4362897557882
 31
0.0
  0
LINE
  5
135
330
47
100
AcDbEntity
  8
1
  6
Continuous
 62
     7
100
AcDbLine
 10
821.787364972002
 20
581.4362897557882
 30
0.0
 11
820.9356639876439
 21
581.4362897557882
 31
0.0
  0
LINE
  5
136
330
47
100
AcDbEntity
  8
1
  6
Continuous
 62
     7
100
AcDbLine
 10
774.7873649720025
 20
581.4362897557882
 30
0.0
 11
774.7873649720025
 21
617.6317445410542
 31
0.0
  0
LINE
  5
137
330
47
100
AcDbEntity
  8
1
  6
Continuous
 62
     7
100
AcDbLine
 10
342.7873649720038
 20
617.6317445410542
 30
0.0
 11
342.7873649720038
 21
581.4362897557882
 31
0.0
  0
LINE
  5
138
330
47
100
AcDbEntity
  8
1
  6
Continuous
 62
     7
100
AcDbLine
 10
294.7873649720043
 20
581.4362897557882
 30
0.0
 11
303.7873649720041
 21
581.4362897557883
 31
0.0
  0
ARC
  5
139
330
47
100
AcDbEntity
  8
1
  6
Continuous
 62
     7
100
AcDbCircle
 10
780.6228189075971
 20
617.6317445410542
 30
0.0
 40
42.16454606440698
100
AcDbArc
 50
0.0
 51
26.69763098062842
  0
ARC
  5
13A
330
47
100
AcDbEntity
  8
1
  6
Continuous
 62
     7
100
AcDbCircle
 10
336.9519110364126
 20
617.6317445410542
 30
0.0
 40
42.16454606440835
100
AcDbArc
 50
158.4252223544024
 51
180.0
  0
ARC
  5
13B
330
47
100
AcDbEntity
  8
1
  6
Continuous
 62
     7
100
AcDbCircle
 10
816.9519110364095
 20
617.6317445410542
 30
0.0
 40
42.16454606440683
100
AcDbArc
 50
158.4252223544017
 51
180.0
  0
ARC
  5
13C
330
47
100
AcDbEntity
  8
1
  6
Continuous
 62
     7
100
AcDbCircle
 10
300.6228189075957
 20
617.6317445410542
 30
0.0
 40
42.16454606440811
100
AcDbArc
 50
0.0
 51
21.5747776455977
  0
ENDBLK
  5
49
330
47
100
AcDbEntity
  8
0
100
AcDbBlockEnd
  0
BLOCK
  5
4B
330
4A
100
AcDbEntity
  8
0
100
AcDbBlockBegin
  2
01-76
 70
     0
 71
     0
 10
0.0
 20
1485.0
 30
0.0
  3
01-76
  1

  0
LINE
  5
13D
330
4A
100
AcDbEntity
  8
1
  6
Continuous
 62
     7
100
AcDbLine
 10
788.5373649720042
 20
475.6362897557898
 30
0.0
 11
788.5373649720041
 21
473.6362897557896
 31
0.0
  0
LINE
  5
13E
330
4A
100
AcDbEntity
  8
1
  6
PHANTOM
 62
     4
100
AcDbLine
 10
798.7873649720041
 20
470.6362897557896
 30
0.0
 11
798.7873649720041
 21
501.1362897557896
 31
0.0
  0
LINE
  5
13F
330
4A
100
AcDbEntity
  8
1
  6
Continuous
 62
     7
100
AcDbLine
 10
809.0373649720041
 20
473.6362897557896
 30
0.0
 11
809.0373649720041
 21
475.6362897557898
 31
0.0
  0
LINE
  5
140
330
4A
100
AcDbEntity
  8
1
  6
Continuous
 62
     7
100
AcDbLine
 10
788.5373649720041
 20
473.6362897557896
 30
0.0
 11
809.0373649720041
 21
473.6362897557896
 31
0.0
  0
LINE
  5
141
330
4A
100
AcDbEntity
  8
1
  6
Continuous
 62
     7
100
AcDbLine
 10
227.5373649720041
 20
475.6362897557893
 30
0.0
 11
227.5373649720041
 21
473.6362897557897
 31
0.0
  0
LINE
  5
142
330
4A
100
AcDbEntity
  8
1
  6
Continuous
 62
     7
100
AcDbLine
 10
430.5373649720041
 20
475.6362897557893
 30
0.0
 11
430.5373649720041
 21
473.6362897557897
 31
0.0
  0
LINE
  5
143
330
4A
100
AcDbEntity
  8
1
  6
Continuous
 62
     7
100
AcDbLine
 10
207.0373649720041
 20
473.6362897557897
 30
0.0
 11
207.0373649720041
 21
475.6362897557893
 31
0.0
  0
LINE
  5
144
330
4A
100
AcDbEntity
  8
1
  6
Continuous
 62
     7
100
AcDbLine
 10
207.0373649720041
 20
473.6362897557897
 30
0.0
 11
227.5373649720041
 21
473.6362897557897
 31
0.0
  0
LINE
  5
145
330
4A
100
AcDbEntity
  8
1
  6
PHANTOM
 62
     4
100
AcDbLine
 10
217.2873649720041
 20
497.6362897557897
 30
0.0
 11
217.2873649720041
 21
470.6362897557897
 31
0.0
  0
LINE
  5
146
330
4A
100
AcDbEntity
  8
1
  6
PHANTOM
 62
     4
100
AcDbLine
 10
420.2873649720041
 20
470.6362897557897
 30
0.0
 11
420.2873649720041
 21
497.6362897557897
 31
0.0
  0
LINE
  5
147
330
4A
100
AcDbEntity
  8
1
  6
Continuous
 62
     7
100
AcDbLine
 10
410.0373649720041
 20
473.6362897557897
 30
0.0
 11
430.5373649720041
 21
473.6362897557897
 31
0.0
  0
LINE
  5
148
330
4A
100
AcDbEntity
  8
1
  6
Continuous
 62
     7
100
AcDbLine
 10
410.0373649720041
 20
473.6362897557897
 30
0.0
 11
410.0373649720041
 21
475.6362897557893
 31
0.0
  0
ENDBLK
  5
4C
330
4A
100
AcDbEntity
  8
0
100
AcDbBlockEnd
  0
BLOCK
  5
4E
330
4D
100
AcDbEntity
  8
0
100
AcDbBlockBegin
  2
50-13
 70
     0
 71
     0
 10
1050.0
 20
1485.0
 30
0.0
  3
50-13
  1

  0
LINE
  5
149
330
4D
100
AcDbEntity
  8
1
  6
PHANTOM
 62
     4
100
AcDbLine
 10
192.7873649720036
 20
1243.31861157283
 30
0.0
 11
444.7873649720038
 21
1243.31861157283
 31
0.0
  0
LINE
  5
14A
330
4D
100
AcDbEntity
  8
1
  6
PHANTOM
 62
     4
100
AcDbLine
 10
318.7873649720041
 20
1271.361000168887
 30
0.0
 11
318.7873649720041
 21
1215.276222976772
 31
0.0
  0
LINE
  5
14B
330
4D
100
AcDbEntity
  8
1
  6
PHANTOM
 62
     4
100
AcDbLine
 10
419.7873649720041
 20
1268.318611572829
 30
0.0
 11
419.7873649720041
 21
1218.31861157283
 31
0.0
  0
LINE
  5
14C
330
4D
100
AcDbEntity
  8
1
  6
PHANTOM
 62
     4
100
AcDbLine
 10
217.7873649720041
 20
1268.31861157283
 30
0.0
 11
217.7873649720041
 21
1218.318611572829
 31
0.0
  0
LINE
  5
14D
330
4D
100
AcDbEntity
  8
1
  6
Continuous
 62
     7
100
AcDbLine
 10
776.5373649720043
 20
498.6362897557898
 30
0.0
 11
821.037364972004
 21
498.6362897557898
 31
0.0
  0
LINE
  5
14E
330
4D
100
AcDbEntity
  8
1
  6
Continuous
 62
     7
100
AcDbLine
 10
298.0452455330144
 20
498.6362897557893
 30
0.0
 11
339.0452455330144
 21
498.6362897557893
 31
0.0
  0
LINE
  5
14F
330
4D
100
AcDbEntity
  8
1
  6
PHANTOM
 62
     4
100
AcDbLine
 10
318.7873649720041
 20
510.1362897557896
 30
0.0
 11
318.7873649720041
 21
472.6362897557893
 31
0.0
  0
LINE
  5
150
330
4D
100
AcDbEntity
  8
1
  6
PHANTOM
 62
     4
100
AcDbLine
 10
798.7873649720042
 20
472.6362897557898
 30
0.0
 11
798.7873649720042
 21
503.13628975579
 31
0.0
  0
LINE
  5
151
330
4D
100
AcDbEntity
  8
1
  6
Continuous
 62
     7
100
AcDbLine
 10
823.8297535680612
 20
475.6362897557898
 30
0.0
 11
822.8297535680612
 21
475.6362897557898
 31
0.0
  0
LINE
  5
152
330
4D
100
AcDbEntity
  8
1
  6
Continuous
 62
     7
100
AcDbLine
 10
773.7449763759456
 20
475.6362897557898
 30
0.0
 11
774.7449763759456
 21
475.6362897557898
 31
0.0
  0
LINE
  5
153
330
4D
100
AcDbEntity
  8
1
  6
Continuous
 62
     7
100
AcDbLine
 10
774.9949763759456
 20
498.6362897557898
 30
0.0
 11
776.5373649720043
 21
498.6362897557898
 31
0.0
  0
LINE
  5
154
330
4D
100
AcDbEntity
  8
1
  6
Continuous
 62
     7
100
AcDbLine
 10
822.5797535680612
 20
498.6362897557898
 30
0.0
 11
821.037364972004
 21
498.6362897557898
 31
0.0
  0
LINE
  5
155
330
4D
100
AcDbEntity
  8
1
  6
Continuous
 62
     7
100
AcDbLine
 10
823.8297535680612
 20
497.3862897557898
 30
0.0
 11
823.8297535680612
 21
475.6362897557898
 31
0.0
  0
LINE
  5
156
330
4D
100
AcDbEntity
  8
1
  6
Continuous
 62
     7
100
AcDbLine
 10
773.7449763759456
 20
497.3862897557898
 30
0.0
 11
773.7449763759456
 21
475.6362897557898
 31
0.0
  0
LINE
  5
157
330
4D
100
AcDbEntity
  8
1
  6
Continuous
 62
     7
100
AcDbLine
 10
341.7873649720038
 20
498.6362897557893
 30
0.0
 11
342.7873649720036
 21
498.6362897557893
 31
0.0
  0
LINE
  5
158
330
4D
100
AcDbEntity
  8
1
  6
Continuous
 62
     7
100
AcDbLine
 10
441.7873649720041
 20
475.6362897557893
 30
0.0
 11
441.7873649720036
 21
491.973527284097
 31
0.0
  0
LINE
  5
159
330
4D
100
AcDbEntity
  8
1
  6
Continuous
 62
     7
100
AcDbLine
 10
195.7873649720041
 20
475.6362897557893
 30
0.0
 11
441.7873649720041
 21
475.6362897557893
 31
0.0
  0
LINE
  5
15A
330
4D
100
AcDbEntity
  8
1
  6
Continuous
 62
     7
100
AcDbLine
 10
195.7873649720041
 20
491.973527284097
 30
0.0
 11
195.7873649720041
 21
475.6362897557893
 31
0.0
  0
LINE
  5
15B
330
4D
100
AcDbEntity
  8
1
  6
Continuous
 62
     7
100
AcDbLine
 10
294.7873649720041
 20
498.6362897557893
 30
0.0
 11
295.7873649720043
 21
498.6362897557893
 31
0.0
  0
LINE
  5
15C
330
4D
100
AcDbEntity
  8
0
  6
Continuous
 62
     7
100
AcDbLine
 10
776.7873649720043
 20
498.8862897557898
 30
0.0
 11
776.7873649720043
 21
499.1362897557897
 31
0.0
  0
LINE
  5
15D
330
4D
100
AcDbEntity
  8
0
  6
Continuous
 62
     7
100
AcDbLine
 10
774.7449763759456
 20
475.6362897557898
 30
0.0
 11
822.8297535680612
 21
475.6362897557898
 31
0.0
  0
LINE
  5
15E
330
4D
100
AcDbEntity
  8
0
  6
Continuous
 62
     7
100
AcDbLine
 10
820.787364972004
 20
499.1328266489742
 30
0.0
 11
820.787364972004
 21
498.8862897557898
 31
0.0
  0
ARC
  5
15F
330
4D
100
AcDbEntity
  8
1
  6
Continuous
 62
     7
100
AcDbCircle
 10
217.7873649720041
 20
1243.31861157283
 30
0.0
 40
21.99999999999915
100
AcDbArc
 50
93.45075904091468
 51
180.0
  0
ARC
  5
160
330
4D
100
AcDbEntity
  8
1
  6
Continuous
 62
     7
100
AcDbCircle
 10
419.7873649720041
 20
1243.31861157283
 30
0.0
 40
22.00000000000097
100
AcDbArc
 50
-86.54924095908561
 51
0.0
  0
ARC
  5
161
330
4D
100
AcDbEntity
  8
1
  6
Continuous
 62
     7
100
AcDbCircle
 10
318.787364972004
 20
-431.6389998311354
 30
0.0
 40
1700.000000000022
100
AcDbArc
 50
86.54924095908557
 51
90.0
  0
ARC
  5
162
330
4D
100
AcDbEntity
  8
1
  6
Continuous
 62
     7
100
AcDbCircle
 10
318.787364972004
 20
2918.276222976794
 30
0.0
 40
1700.000000000022
100
AcDbArc
 50
-89.21197207289903
 51
-86.54924095908557
  0
ARC
  5
163
330
4D
100
AcDbEntity
  8
1
  6
Continuous
 62
     7
100
AcDbCircle
 10
419.7873649720041
 20
1243.31861157283
 30
0.0
 40
21.99999999999966
100
AcDbArc
 50
0.0
 51
86.54924095908532
  0
ARC
  5
164
330
4D
100
AcDbEntity
  8
1
  6
Continuous
 62
     7
100
AcDbCircle
 10
217.7873649720041
 20
1243.31861157283
 30
0.0
 40
22.00000000000051
100
AcDbArc
 50
180.0
 51
-93.45075904091441
  0
ARC
  5
165
330
4D
100
AcDbEntity
  8
1
  6
Continuous
 62
     7
100
AcDbCircle
 10
318.787364972004
 20
-431.6389998311354
 30
0.0
 40
1700.000000000022
100
AcDbArc
 50
90.0
 51
93.45075904091442
  0
ARC
  5
166
330
4D
100
AcDbEntity
  8
1
  6
Continuous
 62
     7
100
AcDbCircle
 10
342.7873649719911
 20
-1201.363710244689
 30
0.0
 40
1700.000000000478
100
AcDbArc
 50
86.78894490300496
 51
89.99999999999957
  0
ARC
  5
167
330
4D
100
AcDbEntity
  8
1
  6
Continuous
 62
     7
100
AcDbCircle
 10
294.7873649720166
 20
-1201.363710244689
 30
0.0
 40
1700.000000000478
100
AcDbArc
 50
90.00000000000043
 51
93.21105509699505
  0
ARC
  5
168
330
4D
100
AcDbEntity
  8
1
  6
Continuous
 62
     7
100
AcDbCircle
 10
318.787364972004
 20
2918.276222976794
 30
0.0
 40
1700.000000000023
100
AcDbArc
 50
-93.45075904091442
 51
-90.788027927101
  0
ARC
  5
169
330
4D
100
AcDbEntity
  8
1
  6
Continuous
 62
     7
100
AcDbCircle
 10
822.5797535680612
 20
497.3862897557898
 30
0.0
 40
1.25
100
AcDbArc
 50
0.0
 51
90.0
  0
ARC
  5
16A
330
4D
100
AcDbEntity
  8
1
  6
Continuous
 62
     7
100
AcDbCircle
 10
774.9949763759456
 20
497.3862897557898
 30
0.0
 40
1.25
100
AcDbArc
 50
90.0
 51
180.0
  0
ARC
  5
16B
330
4D
100
AcDbEntity
  8
1
  6
Continuous
 62
     7
100
AcDbCircle
 10
437.7873649720036
 20
491.973527284097
 30
0.0
 40
4.0
100
AcDbArc
 50
0.0
 51
86.78894490300449
  0
ARC
  5
16C
330
4D
100
AcDbEntity
  8
1
  6
Continuous
 62
     7
100
AcDbCircle
 10
199.7873649720041
 20
491.973527284097
 30
0.0
 40
4.000000000000116
100
AcDbArc
 50
93.21105509699429
 51
180.0
  0
ARC
  5
16D
330
4D
100
AcDbEntity
  8
0
  6
Continuous
 62
     7
100
AcDbCircle
 10
341.7873649720038
 20
499.6362897557895
 30
0.0
 40
1.00000000000019
100
AcDbArc
 50
-149.7706169852657
 51
-90.0
  0
ARC
  5
16E
330
4D
100
AcDbEntity
  8
0
  6
Continuous
 62
     7
100
AcDbCircle
 10
776.5373649720043
 20
498.8862897557898
 30
0.0
 40
0.25
100
AcDbArc
 50
-90.0
 51
0.0
  0
ARC
  5
16F
330
4D
100
AcDbEntity
  8
0
  6
Continuous
 62
     7
100
AcDbCircle
 10
821.037364972004
 20
498.8862897557898
 30
0.0
 40
0.25
100
AcDbArc
 50
180.0
 51
-90.0
  0
ARC
  5
170
330
4D
100
AcDbEntity
  8
0
  6
Continuous
 62
     7
100
AcDbCircle
 10
295.7873649720043
 20
499.6362897557895
 30
0.0
 40
1.000000000000227
100
AcDbArc
 50
-90.0
 51
-30.22938301473926
  0
ENDBLK
  5
4F
330
4D
100
AcDbEntity
  8
0
100
AcDbBlockEnd
  0
BLOCK
  5
51
330
50
100
AcDbEntity
  8
0
100
AcDbBlockBegin
  2
32-16__3
 70
     0
 71
     0
 10
0.0
 20
1485.0
 30
0.0
  3
32-16__3
  1

  0
LINE
  5
171
330
50
100
AcDbEntity
  8
1
  6
PHANTOM
 62
     4
100
AcDbLine
 10
217.2873649720037
 20
407.636289755789
 30
0.0
 11
217.2873649720037
 21
427.636289755789
 31
0.0
  0
LINE
  5
172
330
50
100
AcDbEntity
  8
1
  6
Continuous
 62
     7
100
AcDbLine
 10
229.2873694232453
 20
424.636289755789
 30
0.0
 11
230.5373649720038
 21
423.9146044892277
 31
0.0
  0
LINE
  5
173
330
50
100
AcDbEntity
  8
1
  6
Continuous
 62
     7
100
AcDbLine
 10
230.5373649720038
 20
411.3579750223505
 30
0.0
 11
230.5373649720038
 21
423.9146044892277
 31
0.0
  0
LINE
  5
174
330
50
100
AcDbEntity
  8
1
  6
Continuous
 62
     7
100
AcDbLine
 10
230.5373649720038
 20
411.3579750223505
 30
0.0
 11
229.2873694232453
 21
410.636289755789
 31
0.0
  0
LINE
  5
175
330
50
100
AcDbEntity
  8
1
  6
Continuous
 62
     7
100
AcDbLine
 10
230.4886954491976
 20
423.9146044892277
 30
0.0
 11
230.5373649720038
 21
423.9146044892277
 31
0.0
  0
LINE
  5
176
330
50
100
AcDbEntity
  8
1
  6
Continuous
 62
     7
100
AcDbLine
 10
230.4886954491976
 20
411.3579750223505
 30
0.0
 11
230.5373649720038
 21
411.3579750223505
 31
0.0
  0
LINE
  5
177
330
50
100
AcDbEntity
  8
1
  6
Continuous
 62
     7
100
AcDbLine
 10
230.4886954491976
 20
423.9146044892277
 30
0.0
 11
230.4886954491976
 21
411.3579750223505
 31
0.0
  0
LINE
  5
178
330
50
100
AcDbEntity
  8
1
  6
Continuous
 62
     7
100
AcDbLine
 10
222.9054162355647
 20
423.9146044892277
 30
0.0
 11
224.8706441856364
 21
423.9146044892277
 31
0.0
  0
LINE
  5
179
330
50
100
AcDbEntity
  8
1
  6
Continuous
 62
     7
100
AcDbLine
 10
222.9054162355647
 20
411.3579750223505
 30
0.0
 11
224.8706441856364
 21
411.3579750223505
 31
0.0
  0
LINE
  5
17A
330
50
100
AcDbEntity
  8
1
  6
Continuous
 62
     7
100
AcDbLine
 10
224.8706441856364
 20
411.3579750223505
 30
0.0
 11
224.8706441856364
 21
423.9146044892277
 31
0.0
  0
LINE
  5
17B
330
50
100
AcDbEntity
  8
1
  6
Continuous
 62
     7
100
AcDbLine
 10
222.9054162355647
 20
423.9146044892277
 30
0.0
 11
222.9054162355647
 21
411.3579750223505
 31
0.0
  0
LINE
  5
17C
330
50
100
AcDbEntity
  8
1
  6
Continuous
 62
     7
100
AcDbLine
 10
211.6693137084426
 20
411.3579750223505
 30
0.0
 11
211.6693137084426
 21
423.9146044892277
 31
0.0
  0
LINE
  5
17D
330
50
100
AcDbEntity
  8
1
  6
Continuous
 62
     7
100
AcDbLine
 10
209.7040857583709
 20
423.9146044892277
 30
0.0
 11
209.7040857583709
 21
411.3579750223505
 31
0.0
  0
LINE
  5
17E
330
50
100
AcDbEntity
  8
1
  6
Continuous
 62
     7
100
AcDbLine
 10
209.7040857583709
 20
411.3579750223505
 30
0.0
 11
211.6693137084426
 21
411.3579750223505
 31
0.0
  0
LINE
  5
17F
330
50
100
AcDbEntity
  8
1
  6
Continuous
 62
     7
100
AcDbLine
 10
209.7040857583709
 20
423.9146044892277
 30
0.0
 11
211.6693137084426
 21
423.9146044892277
 31
0.0
  0
LINE
  5
180
330
50
100
AcDbEntity
  8
1
  6
Continuous
 62
     7
100
AcDbLine
 10
204.0860344948099
 20
411.3579750223505
 30
0.0
 11
204.0860344948099
 21
423.9146044892277
 31
0.0
  0
LINE
  5
181
330
50
100
AcDbEntity
  8
1
  6
Continuous
 62
     7
100
AcDbLine
 10
204.0373649720037
 20
411.3579750223505
 30
0.0
 11
204.0860344948099
 21
411.3579750223505
 31
0.0
  0
LINE
  5
182
330
50
100
AcDbEntity
  8
1
  6
Continuous
 62
     7
100
AcDbLine
 10
204.0373649720037
 20
423.9146044892277
 30
0.0
 11
204.0860344948099
 21
423.9146044892277
 31
0.0
  0
LINE
  5
183
330
50
100
AcDbEntity
  8
1
  6
Continuous
 62
     7
100
AcDbLine
 10
205.2873605207621
 20
410.636289755789
 30
0.0
 11
204.0373649720037
 21
411.3579750223505
 31
0.0
  0
LINE
  5
184
330
50
100
AcDbEntity
  8
1
  6
Continuous
 62
     7
100
AcDbLine
 10
204.0373649720037
 20
423.9146044892277
 30
0.0
 11
204.0373649720037
 21
417.6362897557891
 31
0.0
  0
LINE
  5
185
330
50
100
AcDbEntity
  8
1
  6
Continuous
 62
     7
100
AcDbLine
 10
205.2873605207621
 20
424.636289755789
 30
0.0
 11
229.2873694232453
 21
424.636289755789
 31
0.0
  0
LINE
  5
186
330
50
100
AcDbEntity
  8
1
  6
Continuous
 62
     7
100
AcDbLine
 10
204.0373649720037
 20
423.9146044892277
 30
0.0
 11
205.2873605207621
 21
424.636289755789
 31
0.0
  0
LINE
  5
187
330
50
100
AcDbEntity
  8
1
  6
Continuous
 62
     7
100
AcDbLine
 10
205.2873605207621
 20
410.636289755789
 30
0.0
 11
229.2873694232453
 21
410.636289755789
 31
0.0
  0
LINE
  5
188
330
50
100
AcDbEntity
  8
1
  6
Continuous
 62
     7
100
AcDbLine
 10
204.0373649720037
 20
417.6362897557891
 30
0.0
 11
204.0373649720037
 21
411.3579750223505
 31
0.0
  0
ARC
  5
189
330
50
100
AcDbEntity
  8
1
  6
Continuous
 62
     7
100
AcDbCircle
 10
227.6796698174169
 20
418.8086422938622
 30
0.0
 40
5.827647461926877
100
AcDbArc
 50
61.18277603035593
 51
118.8172239696426
  0
ARC
  5
18A
330
50
100
AcDbEntity
  8
1
  6
Continuous
 62
     7
100
AcDbCircle
 10
227.6796698174169
 20
416.4639372177158
 30
0.0
 40
5.827647461926595
100
AcDbArc
 50
-118.8172239696437
 51
-61.18277603035485
  0
ARC
  5
18B
330
50
100
AcDbEntity
  8
1
  6
Continuous
 62
     7
100
AcDbCircle
 10
217.2873649720037
 20
402.4082278079238
 30
0.0
 40
22.22806194786516
100
AcDbArc
 50
75.35994059492818
 51
104.6400594050721
  0
ARC
  5
18C
330
50
100
AcDbEntity
  8
1
  6
Continuous
 62
     7
100
AcDbCircle
 10
217.2873649720037
 20
432.8643517036544
 30
0.0
 40
22.22806194786519
100
AcDbArc
 50
-104.6400594050721
 51
-75.35994059492818
  0
ARC
  5
18D
330
50
100
AcDbEntity
  8
1
  6
Continuous
 62
     7
100
AcDbCircle
 10
206.8950601265904
 20
416.4639372177158
 30
0.0
 40
5.827647461926595
100
AcDbArc
 50
-118.8172239696437
 51
-61.18277603035657
  0
ARC
  5
18E
330
50
100
AcDbEntity
  8
1
  6
Continuous
 62
     7
100
AcDbCircle
 10
206.8950601265904
 20
418.8086422938622
 30
0.0
 40
5.82764746192678
100
AcDbArc
 50
61.18277603035764
 51
118.8172239696426
  0
ENDBLK
  5
52
330
50
100
AcDbEntity
  8
0
100
AcDbBlockEnd
  0
BLOCK
  5
54
330
53
100
AcDbEntity
  8
0
100
AcDbBlockBegin
  2
35-276__4
 70
     0
 71
     0
 10
0.0
 20
1485.0
 30
0.0
  3
35-276__4
  1

  0
LINE
  5
18F
330
53
100
AcDbEntity
  8
1
  6
Continuous
 62
     2
100
AcDbLine
 10
226.6028649720041
 20
424.636289755789
 30
0.0
 11
226.6028649720041
 21
449.6362897557895
 31
0.0
  0
LINE
  5
190
330
53
100
AcDbEntity
  8
1
  6
Continuous
 62
     2
100
AcDbLine
 10
207.9718649720041
 20
424.636289755789
 30
0.0
 11
207.9718649720041
 21
449.6362897557895
 31
0.0
  0
LINE
  5
191
330
53
100
AcDbEntity
  8
1
  6
Continuous
 62
     7
100
AcDbLine
 10
206.8098649720041
 20
473.6362897557895
 30
0.0
 11
206.8098649720041
 21
459.6362897557892
 31
0.0
  0
LINE
  5
192
330
53
100
AcDbEntity
  8
1
  6
Continuous
 62
     2
100
AcDbLine
 10
226.6028649720041
 20
459.6362897557895
 30
0.0
 11
226.6028649720041
 21
469.6362897557896
 31
0.0
  0
LINE
  5
193
330
53
100
AcDbEntity
  8
1
  6
Continuous
 62
     2
100
AcDbLine
 10
207.9718649720041
 20
459.6362897557895
 30
0.0
 11
207.9718649720041
 21
469.6362897557895
 31
0.0
  0
LINE
  5
194
330
53
100
AcDbEntity
  8
1
  6
Continuous
 62
     7
100
AcDbLine
 10
227.7648649720041
 20
473.6362897557895
 30
0.0
 11
227.7648649720041
 21
459.6362897557895
 31
0.0
  0
LINE
  5
195
330
53
100
AcDbEntity
  8
1
  6
PHANTOM
 62
     4
100
AcDbLine
 10
217.2873649720041
 20
482.1362897557895
 30
0.0
 11
217.2873649720041
 21
415.1362897557895
 31
0.0
  0
LINE
  5
196
330
53
100
AcDbEntity
  8
1
  6
Continuous
 62
     7
100
AcDbLine
 10
206.8098649720041
 20
469.6362897557895
 30
0.0
 11
227.7648649720041
 21
469.6362897557896
 31
0.0
  0
LINE
  5
197
330
53
100
AcDbEntity
  8
0
  6
Continuous
 62
     2
100
AcDbLine
 10
206.8098649720041
 20
471.6489327941845
 30
0.0
 11
207.9718649720041
 21
469.6362897557895
 31
0.0
  0
LINE
  5
198
330
53
100
AcDbEntity
  8
0
  6
Continuous
 62
     2
100
AcDbLine
 10
226.6028649720041
 20
469.6362897557896
 30
0.0
 11
227.7648649720041
 21
471.6489327941846
 31
0.0
  0
LINE
  5
199
330
53
100
AcDbEntity
  8
1
  6
Continuous
 62
     7
100
AcDbLine
 10
206.8098649720041
 20
473.6362897557895
 30
0.0
 11
207.0373649720041
 21
473.6362897557898
 31
0.0
  0
LINE
  5
19A
330
53
100
AcDbEntity
  8
1
  6
Continuous
 62
     7
100
AcDbLine
 10
227.7648649720041
 20
473.6362897557895
 30
0.0
 11
227.5373649720041
 21
473.6362897557898
 31
0.0
  0
LINE
  5
19B
330
53
100
AcDbEntity
  8
1
  6
PHANTOM
 62
     4
100
AcDbLine
 10
214.0001852472311
 20
417.6362897557898
 30
0.0
 11
221.5001852472311
 21
417.6362897557898
 31
0.0
  0
LINE
  5
19C
330
53
100
AcDbEntity
  8
1
  6
Continuous
 62
     7
100
AcDbLine
 10
227.7648649720041
 20
449.6362897557895
 30
0.0
 11
227.7648649720041
 21
424.6356669828555
 31
0.0
  0
LINE
  5
19D
330
53
100
AcDbEntity
  8
1
  6
Continuous
 62
     7
100
AcDbLine
 10
206.8098649720017
 20
449.6362897557895
 30
0.0
 11
206.8098649719989
 21
424.636289755789
 31
0.0
  0
ENDBLK
  5
55
330
53
100
AcDbEntity
  8
0
100
AcDbBlockEnd
  0
BLOCK
  5
57
330
56
100
AcDbEntity
  8
0
100
AcDbBlockBegin
  2
32-16__5
 70
     0
 71
     0
 10
0.0
 20
1485.0
 30
0.0
  3
32-16__5
  1

  0
LINE
  5
19E
330
56
100
AcDbEntity
  8
1
  6
Continuous
 62
     7
100
AcDbLine
 10
408.2873605207623
 20
410.636289755789
 30
0.0
 11
432.2873694232454
 21
410.636289755789
 31
0.0
  0
LINE
  5
19F
330
56
100
AcDbEntity
  8
1
  6
Continuous
 62
     7
100
AcDbLine
 10
407.0373649720038
 20
423.9146044892277
 30
0.0
 11
408.2873605207623
 21
424.636289755789
 31
0.0
  0
LINE
  5
1A0
330
56
100
AcDbEntity
  8
1
  6
Continuous
 62
     7
100
AcDbLine
 10
408.2873605207623
 20
424.636289755789
 30
0.0
 11
432.2873694232454
 21
424.636289755789
 31
0.0
  0
LINE
  5
1A1
330
56
100
AcDbEntity
  8
1
  6
Continuous
 62
     7
100
AcDbLine
 10
407.0373649720038
 20
423.9146044892277
 30
0.0
 11
407.0373649720038
 21
411.3579750223505
 31
0.0
  0
LINE
  5
1A2
330
56
100
AcDbEntity
  8
1
  6
Continuous
 62
     7
100
AcDbLine
 10
408.2873605207623
 20
410.636289755789
 30
0.0
 11
407.0373649720038
 21
411.3579750223505
 31
0.0
  0
LINE
  5
1A3
330
56
100
AcDbEntity
  8
1
  6
Continuous
 62
     7
100
AcDbLine
 10
407.0373649720038
 20
423.9146044892277
 30
0.0
 11
407.0860344948101
 21
423.9146044892277
 31
0.0
  0
LINE
  5
1A4
330
56
100
AcDbEntity
  8
1
  6
Continuous
 62
     7
100
AcDbLine
 10
407.0373649720038
 20
411.3579750223505
 30
0.0
 11
407.0860344948101
 21
411.3579750223505
 31
0.0
  0
LINE
  5
1A5
330
56
100
AcDbEntity
  8
1
  6
Continuous
 62
     7
100
AcDbLine
 10
407.0860344948101
 20
411.3579750223505
 30
0.0
 11
407.0860344948101
 21
423.9146044892277
 31
0.0
  0
LINE
  5
1A6
330
56
100
AcDbEntity
  8
1
  6
Continuous
 62
     7
100
AcDbLine
 10
412.7040857583711
 20
423.9146044892277
 30
0.0
 11
414.6693137084428
 21
423.9146044892277
 31
0.0
  0
LINE
  5
1A7
330
56
100
AcDbEntity
  8
1
  6
Continuous
 62
     7
100
AcDbLine
 10
412.7040857583711
 20
411.3579750223505
 30
0.0
 11
414.6693137084428
 21
411.3579750223505
 31
0.0
  0
LINE
  5
1A8
330
56
100
AcDbEntity
  8
1
  6
Continuous
 62
     7
100
AcDbLine
 10
412.7040857583711
 20
423.9146044892277
 30
0.0
 11
412.7040857583711
 21
411.3579750223505
 31
0.0
  0
LINE
  5
1A9
330
56
100
AcDbEntity
  8
1
  6
Continuous
 62
     7
100
AcDbLine
 10
414.6693137084428
 20
411.3579750223505
 30
0.0
 11
414.6693137084428
 21
423.9146044892277
 31
0.0
  0
LINE
  5
1AA
330
56
100
AcDbEntity
  8
1
  6
Continuous
 62
     7
100
AcDbLine
 10
425.9054162355649
 20
423.9146044892277
 30
0.0
 11
425.9054162355649
 21
411.3579750223505
 31
0.0
  0
LINE
  5
1AB
330
56
100
AcDbEntity
  8
1
  6
Continuous
 62
     7
100
AcDbLine
 10
427.8706441856366
 20
411.3579750223505
 30
0.0
 11
427.8706441856366
 21
423.9146044892277
 31
0.0
  0
LINE
  5
1AC
330
56
100
AcDbEntity
  8
1
  6
Continuous
 62
     7
100
AcDbLine
 10
425.9054162355649
 20
411.3579750223505
 30
0.0
 11
427.8706441856366
 21
411.3579750223505
 31
0.0
  0
LINE
  5
1AD
330
56
100
AcDbEntity
  8
1
  6
Continuous
 62
     7
100
AcDbLine
 10
425.9054162355649
 20
423.9146044892277
 30
0.0
 11
427.8706441856366
 21
423.9146044892277
 31
0.0
  0
LINE
  5
1AE
330
56
100
AcDbEntity
  8
1
  6
Continuous
 62
     7
100
AcDbLine
 10
433.4886954491977
 20
423.9146044892277
 30
0.0
 11
433.4886954491977
 21
411.3579750223505
 31
0.0
  0
LINE
  5
1AF
330
56
100
AcDbEntity
  8
1
  6
Continuous
 62
     7
100
AcDbLine
 10
433.4886954491977
 20
411.3579750223505
 30
0.0
 11
433.537364972004
 21
411.3579750223505
 31
0.0
  0
LINE
  5
1B0
330
56
100
AcDbEntity
  8
1
  6
Continuous
 62
     7
100
AcDbLine
 10
433.4886954491977
 20
423.9146044892277
 30
0.0
 11
433.537364972004
 21
423.9146044892277
 31
0.0
  0
LINE
  5
1B1
330
56
100
AcDbEntity
  8
1
  6
Continuous
 62
     7
100
AcDbLine
 10
433.537364972004
 20
411.3579750223505
 30
0.0
 11
432.2873694232454
 21
410.636289755789
 31
0.0
  0
LINE
  5
1B2
330
56
100
AcDbEntity
  8
1
  6
Continuous
 62
     7
100
AcDbLine
 10
433.537364972004
 20
411.3579750223505
 30
0.0
 11
433.537364972004
 21
423.9146044892277
 31
0.0
  0
LINE
  5
1B3
330
56
100
AcDbEntity
  8
1
  6
Continuous
 62
     7
100
AcDbLine
 10
432.2873694232454
 20
424.636289755789
 30
0.0
 11
433.537364972004
 21
423.9146044892277
 31
0.0
  0
LINE
  5
1B4
330
56
100
AcDbEntity
  8
1
  6
Continuous
 62
     7
100
AcDbLine
 10
797.6527400860113
 20
423.9146044892277
 30
0.0
 11
799.9219898579972
 21
423.9146044892277
 31
0.0
  0
LINE
  5
1B5
330
56
100
AcDbEntity
  8
1
  6
Continuous
 62
     7
100
AcDbLine
 10
797.6527400860113
 20
411.3579750223505
 30
0.0
 11
797.6527400860113
 21
423.9146044892277
 31
0.0
  0
LINE
  5
1B6
330
56
100
AcDbEntity
  8
1
  6
Continuous
 62
     7
100
AcDbLine
 10
787.9219898579971
 20
423.9146044892277
 30
0.0
 11
787.9219898579971
 21
411.3579750223505
 31
0.0
  0
LINE
  5
1B7
330
56
100
AcDbEntity
  8
1
  6
Continuous
 62
     7
100
AcDbLine
 10
786.7873649720044
 20
423.9146044892277
 30
0.0
 11
787.9219898579971
 21
423.9146044892277
 31
0.0
  0
LINE
  5
1B8
330
56
100
AcDbEntity
  8
1
  6
Continuous
 62
     7
100
AcDbLine
 10
786.7873649720044
 20
411.3579750223505
 30
0.0
 11
787.9219898579971
 21
411.3579750223505
 31
0.0
  0
LINE
  5
1B9
330
56
100
AcDbEntity
  8
1
  6
Continuous
 62
     7
100
AcDbLine
 10
809.6527400860114
 20
411.3579750223505
 30
0.0
 11
810.7873649720041
 21
411.3579750223505
 31
0.0
  0
LINE
  5
1BA
330
56
100
AcDbEntity
  8
1
  6
Continuous
 62
     7
100
AcDbLine
 10
809.6527400860114
 20
423.9146044892277
 30
0.0
 11
810.7873649720041
 21
423.9146044892277
 31
0.0
  0
LINE
  5
1BB
330
56
100
AcDbEntity
  8
1
  6
Continuous
 62
     7
100
AcDbLine
 10
809.6527400860114
 20
411.3579750223505
 30
0.0
 11
809.6527400860114
 21
423.9146044892277
 31
0.0
  0
LINE
  5
1BC
330
56
100
AcDbEntity
  8
1
  6
Continuous
 62
     7
100
AcDbLine
 10
799.9219898579972
 20
423.9146044892277
 30
0.0
 11
799.9219898579972
 21
411.3579750223505
 31
0.0
  0
LINE
  5
1BD
330
56
100
AcDbEntity
  8
1
  6
Continuous
 62
     7
100
AcDbLine
 10
797.6527400860113
 20
411.3579750223505
 30
0.0
 11
799.9219898579972
 21
411.3579750223505
 31
0.0
  0
LINE
  5
1BE
330
56
100
AcDbEntity
  8
1
  6
PHANTOM
 62
     4
100
AcDbLine
 10
798.7873649720042
 20
427.636289755789
 30
0.0
 11
798.7873649720042
 21
407.636289755789
 31
0.0
  0
LINE
  5
1BF
330
56
100
AcDbEntity
  8
1
  6
PHANTOM
 62
     4
100
AcDbLine
 10
420.2873649720038
 20
407.636289755789
 30
0.0
 11
420.2873649720038
 21
427.636289755789
 31
0.0
  0
LINE
  5
1C0
330
56
100
AcDbEntity
  8
1
  6
Continuous
 62
     7
100
AcDbLine
 10
786.7873649720044
 20
411.3579750223505
 30
0.0
 11
786.7873649720044
 21
423.9146044892277
 31
0.0
  0
LINE
  5
1C1
330
56
100
AcDbEntity
  8
1
  6
Continuous
 62
     7
100
AcDbLine
 10
810.7873649720041
 20
423.9146044892277
 30
0.0
 11
810.7873649720041
 21
411.3579750223505
 31
0.0
  0
LINE
  5
1C2
330
56
100
AcDbEntity
  8
1
  6
Continuous
 62
     7
100
AcDbLine
 10
786.7873649720044
 20
423.9146044892277
 30
0.0
 11
786.7873649720044
 21
424.636289755789
 31
0.0
  0
LINE
  5
1C3
330
56
100
AcDbEntity
  8
1
  6
Continuous
 62
     7
100
AcDbLine
 10
786.7873649720044
 20
424.636289755789
 30
0.0
 11
810.7873649720044
 21
424.636289755789
 31
0.0
  0
LINE
  5
1C4
330
56
100
AcDbEntity
  8
1
  6
Continuous
 62
     7
100
AcDbLine
 10
810.7873649720044
 20
424.636289755789
 30
0.0
 11
810.7873649720041
 21
423.9146044892277
 31
0.0
  0
LINE
  5
1C5
330
56
100
AcDbEntity
  8
1
  6
Continuous
 62
     7
100
AcDbLine
 10
786.7873649720044
 20
410.6362897557892
 30
0.0
 11
786.7873649720044
 21
411.3579750223505
 31
0.0
  0
LINE
  5
1C6
330
56
100
AcDbEntity
  8
1
  6
Continuous
 62
     7
100
AcDbLine
 10
810.7873649720044
 20
410.6362897557892
 30
0.0
 11
810.7873649720041
 21
411.3579750223505
 31
0.0
  0
LINE
  5
1C7
330
56
100
AcDbEntity
  8
1
  6
Continuous
 62
     7
100
AcDbLine
 10
786.7873649720044
 20
410.6362897557892
 30
0.0
 11
810.7873649720044
 21
410.6362897557892
 31
0.0
  0
ARC
  5
1C8
330
56
100
AcDbEntity
  8
1
  6
Continuous
 62
     7
100
AcDbCircle
 10
409.8950601265906
 20
418.8086422938622
 30
0.0
 40
5.827647461926794
100
AcDbArc
 50
61.1827760303574
 51
118.8172239696421
  0
ARC
  5
1C9
330
56
100
AcDbEntity
  8
1
  6
Continuous
 62
     7
100
AcDbCircle
 10
409.8950601265906
 20
416.4639372177158
 30
0.0
 40
5.827647461926568
100
AcDbArc
 50
-118.8172239696432
 51
-61.18277603035633
  0
ARC
  5
1CA
330
56
100
AcDbEntity
  8
1
  6
Continuous
 62
     7
100
AcDbCircle
 10
420.2873649720038
 20
432.8643517036544
 30
0.0
 40
22.22806194786515
100
AcDbArc
 50
-104.6400594050718
 51
-75.35994059492782
  0
ARC
  5
1CB
330
56
100
AcDbEntity
  8
1
  6
Continuous
 62
     7
100
AcDbCircle
 10
420.2873649720038
 20
402.4082278079238
 30
0.0
 40
22.2280619478652
100
AcDbArc
 50
75.35994059492782
 51
104.6400594050718
  0
ARC
  5
1CC
330
56
100
AcDbEntity
  8
1
  6
Continuous
 62
     7
100
AcDbCircle
 10
430.6796698174171
 20
416.4639372177158
 30
0.0
 40
5.827647461926595
100
AcDbArc
 50
-118.8172239696437
 51
-61.18277603035583
  0
ARC
  5
1CD
330
56
100
AcDbEntity
  8
1
  6
Continuous
 62
     7
100
AcDbCircle
 10
430.6796698174171
 20
418.8086422938622
 30
0.0
 40
5.827647461926822
100
AcDbArc
 50
61.18277603035691
 51
118.8172239696426
  0
ARC
  5
1CE
330
56
100
AcDbEntity
  8
1
  6
Continuous
 62
     7
100
AcDbCircle
 10
792.7873649720042
 20
407.8750326365705
 30
0.0
 40
16.76125711921851
100
AcDbArc
 50
73.12557511448483
 51
106.8744248855152
  0
ARC
  5
1CF
330
56
100
AcDbEntity
  8
1
  6
Continuous
 62
     7
100
AcDbCircle
 10
792.7873649720042
 20
427.3975468750079
 30
0.0
 40
16.76125711921867
100
AcDbArc
 50
-106.874424885515
 51
-73.12557511448502
  0
ARC
  5
1D0
330
56
100
AcDbEntity
  8
1
  6
Continuous
 62
     7
100
AcDbCircle
 10
804.7873649720043
 20
427.3975468750079
 30
0.0
 40
16.76125711921867
100
AcDbArc
 50
-106.874424885515
 51
-73.12557511448502
  0
ARC
  5
1D1
330
56
100
AcDbEntity
  8
1
  6
Continuous
 62
     7
100
AcDbCircle
 10
804.7873649720043
 20
407.8750326365705
 30
0.0
 40
16.76125711921851
100
AcDbArc
 50
73.12557511448483
 51
106.8744248855152
  0
ENDBLK
  5
58
330
56
100
AcDbEntity
  8
0
100
AcDbBlockEnd
  0
BLOCK
  5
5A
330
59
100
AcDbEntity
  8
0
100
AcDbBlockBegin
  2
31-28
 70
     0
 71
     0
 10
-1704.069259549624
 20
1350.307846306129
 30
0.0
  3
31-28
  1

  0
LINE
  5
1D2
330
59
100
AcDbEntity
  8
0
  6
PHANTOM
 62
     4
100
AcDbLine
 10
308.2873649720041
 20
561.1126672444354
 30
0.0
 11
329.2873649720051
 21
561.1126672444354
 31
0.0
  0
LINE
  5
1D3
330
59
100
AcDbEntity
  8
1
  6
Continuous
 62
     7
100
AcDbLine
 10
735.3226779273819
 20
561.1126672444361
 30
0.0
 11
735.3226779273819
 21
568.6126672444359
 31
0.0
  0
LINE
  5
1D4
330
59
100
AcDbEntity
  8
1
  6
Continuous
 62
     7
100
AcDbLine
 10
739.3226779273819
 20
561.1126672444359
 30
0.0
 11
739.3226779273819
 21
568.6126672444359
 31
0.0
  0
LINE
  5
1D5
330
59
100
AcDbEntity
  8
1
  6
Continuous
 62
     7
100
AcDbLine
 10
739.8226779273819
 20
561.1126672444359
 30
0.0
 11
739.8226779273819
 21
565.1126672444359
 31
0.0
  0
LINE
  5
1D6
330
59
100
AcDbEntity
  8
1
  6
Continuous
 62
     7
100
AcDbLine
 10
735.3226779273819
 20
568.6126672444359
 30
0.0
 11
739.3226779273819
 21
568.6126672444359
 31
0.0
  0
LINE
  5
1D7
330
59
100
AcDbEntity
  8
1
  6
Continuous
 62
     7
100
AcDbLine
 10
739.8226779273819
 20
565.1126672444359
 30
0.0
 11
739.8226779273819
 21
568.1126672444359
 31
0.0
  0
LINE
  5
1D8
330
59
100
AcDbEntity
  8
1
  6
Continuous
 62
     7
100
AcDbLine
 10
739.8226779273819
 20
565.1126672444359
 30
0.0
 11
740.7873649720043
 21
565.1126672444359
 31
0.0
  0
LINE
  5
1D9
330
59
100
AcDbEntity
  8
1
  6
Continuous
 62
     7
100
AcDbLine
 10
735.3226779273819
 20
568.6126672444359
 30
0.0
 11
734.8226779273819
 21
568.1126672444359
 31
0.0
  0
LINE
  5
1DA
330
59
100
AcDbEntity
  8
1
  6
Continuous
 62
     7
100
AcDbLine
 10
739.8226779273819
 20
568.1126672444359
 30
0.0
 11
739.3226779273819
 21
568.6126672444359
 31
0.0
  0
LINE
  5
1DB
330
59
100
AcDbEntity
  8
1
  6
Continuous
 62
     7
100
AcDbLine
 10
739.3226779273819
 20
567.6126672444359
 30
0.0
 11
735.3226779273819
 21
567.6126672444359
 31
0.0
  0
LINE
  5
1DC
330
59
100
AcDbEntity
  8
1
  6
Continuous
 62
     7
100
AcDbLine
 10
738.8226779273819
 20
566.6126672444359
 30
0.0
 11
735.8226779273819
 21
566.6126672444359
 31
0.0
  0
LINE
  5
1DD
330
59
100
AcDbEntity
  8
1
  6
Continuous
 62
     7
100
AcDbLine
 10
738.3226779273819
 20
565.6126672444359
 30
0.0
 11
736.3226779273819
 21
565.6126672444359
 31
0.0
  0
LINE
  5
1DE
330
59
100
AcDbEntity
  8
1
  6
Continuous
 62
     7
100
AcDbLine
 10
737.8226779273819
 20
564.6126672444359
 30
0.0
 11
736.8226779273819
 21
564.6126672444359
 31
0.0
  0
LINE
  5
1DF
330
59
100
AcDbEntity
  8
1
  6
Continuous
 62
     7
100
AcDbLine
 10
739.3226779273819
 20
553.6126672444359
 30
0.0
 11
735.3226779273819
 21
553.6126672444359
 31
0.0
  0
LINE
  5
1E0
330
59
100
AcDbEntity
  8
1
  6
Continuous
 62
     7
100
AcDbLine
 10
739.8226779273819
 20
554.1126672444359
 30
0.0
 11
739.8226779273819
 21
557.1126672444359
 31
0.0
  0
LINE
  5
1E1
330
59
100
AcDbEntity
  8
1
  6
Continuous
 62
     7
100
AcDbLine
 10
740.7873649720043
 20
557.1126672444361
 30
0.0
 11
739.8226779273819
 21
557.1126672444359
 31
0.0
  0
LINE
  5
1E2
330
59
100
AcDbEntity
  8
1
  6
Continuous
 62
     7
100
AcDbLine
 10
734.8226779273819
 20
554.1126672444359
 30
0.0
 11
735.3226779273819
 21
553.6126672444359
 31
0.0
  0
LINE
  5
1E3
330
59
100
AcDbEntity
  8
1
  6
Continuous
 62
     7
100
AcDbLine
 10
739.3226779273819
 20
553.6126672444359
 30
0.0
 11
739.8226779273819
 21
554.1126672444359
 31
0.0
  0
LINE
  5
1E4
330
59
100
AcDbEntity
  8
1
  6
Continuous
 62
     7
100
AcDbLine
 10
739.8226779273819
 20
557.1126672444359
 30
0.0
 11
739.8226779273819
 21
561.1126672444359
 31
0.0
  0
LINE
  5
1E5
330
59
100
AcDbEntity
  8
1
  6
Continuous
 62
     7
100
AcDbLine
 10
735.3226779273819
 20
554.6126672444359
 30
0.0
 11
739.3226779273819
 21
554.6126672444359
 31
0.0
  0
LINE
  5
1E6
330
59
100
AcDbEntity
  8
1
  6
Continuous
 62
     7
100
AcDbLine
 10
735.8226779273819
 20
555.6126672444359
 30
0.0
 11
738.8226779273819
 21
555.6126672444359
 31
0.0
  0
LINE
  5
1E7
330
59
100
AcDbEntity
  8
1
  6
Continuous
 62
     7
100
AcDbLine
 10
736.3226779273819
 20
556.6126672444359
 30
0.0
 11
738.3226779273819
 21
556.6126672444359
 31
0.0
  0
LINE
  5
1E8
330
59
100
AcDbEntity
  8
1
  6
Continuous
 62
     7
100
AcDbLine
 10
736.8226779273819
 20
557.6126672444359
 30
0.0
 11
737.8226779273819
 21
557.6126672444359
 31
0.0
  0
LINE
  5
1E9
330
59
100
AcDbEntity
  8
1
  6
Continuous
 62
     7
100
AcDbLine
 10
735.3226779273819
 20
553.6126672444359
 30
0.0
 11
735.3226779273819
 21
561.1126672444361
 31
0.0
  0
LINE
  5
1EA
330
59
100
AcDbEntity
  8
1
  6
Continuous
 62
     7
100
AcDbLine
 10
739.3226779273819
 20
553.6126672444359
 30
0.0
 11
739.3226779273819
 21
561.1126672444359
 31
0.0
  0
LINE
  5
1EB
330
59
100
AcDbEntity
  8
1
  6
Continuous
 62
     7
100
AcDbLine
 10
734.8226779273819
 20
554.1126672444359
 30
0.0
 11
734.8226779273819
 21
568.1126672444359
 31
0.0
  0
CIRCLE
  5
1EC
330
59
100
AcDbEntity
  8
0
  6
Continuous
 62
     7
100
AcDbCircle
 10
318.7873649720046
 20
561.1126672444354
 30
0.0
 40
7.000000000000455
  0
CIRCLE
  5
1ED
330
59
100
AcDbEntity
  8
0
  6
Continuous
 62
     7
100
AcDbCircle
 10
318.7873649720046
 20
561.1126672444354
 30
0.0
 40
7.500000000000455
  0
CIRCLE
  5
1EE
330
59
100
AcDbEntity
  8
0
  6
Continuous
 62
     7
100
AcDbCircle
 10
318.7873649720046
 20
561.1126672444354
 30
0.0
 40
2.5
  0
ENDBLK
  5
5B
330
59
100
AcDbEntity
  8
0
100
AcDbBlockEnd
  0
BLOCK
  5
5D
330
5C
100
AcDbEntity
  8
0
100
AcDbBlockBegin
  2
73-1-21_5__6
 70
     0
 71
     0
 10
326.0121835635439
 20
475.5234182913308
 30
0.0
  3
73-1-21_5__6
  1

  0
LINE
  5
1EF
330
5C
100
AcDbEntity
  8
1
  6
Continuous
 62
     7
100
AcDbLine
 10
787.0625463804645
 20
455.6362897557895
 30
0.0
 11
789.8580295361289
 21
455.6362897557895
 31
0.0
  0
LINE
  5
1F0
330
5C
100
AcDbEntity
  8
1
  6
Continuous
 62
     7
100
AcDbLine
 10
790.7240549399137
 20
455.6362897557895
 30
0.0
 11
798.2873649636849
 21
455.6362897557895
 31
0.0
  0
LINE
  5
1F1
330
5C
100
AcDbEntity
  8
1
  6
Continuous
 62
     7
100
AcDbLine
 10
811.1565332032959
 20
457.1362897557895
 30
0.0
 11
817.0505319788557
 21
457.1362897557895
 31
0.0
  0
LINE
  5
1F2
330
5C
100
AcDbEntity
  8
1
  6
Continuous
 62
     7
100
AcDbLine
 10
803.6683481589341
 20
457.1362897557895
 30
0.0
 11
810.4494264221096
 21
457.1362897557895
 31
0.0
  0
LINE
  5
1F3
330
5C
100
AcDbEntity
  8
1
  6
Continuous
 62
     7
100
AcDbLine
 10
794.8723076113643
 20
457.1362897557895
 30
0.0
 11
802.702422332645
 21
457.1362897557895
 31
0.0
  0
LINE
  5
1F4
330
5C
100
AcDbEntity
  8
1
  6
Continuous
 62
     7
100
AcDbLine
 10
787.1253035218999
 20
457.1362897557895
 30
0.0
 11
793.9063817850754
 21
457.1362897557895
 31
0.0
  0
LINE
  5
1F5
330
5C
100
AcDbEntity
  8
1
  6
Continuous
 62
     7
100
AcDbLine
 10
780.5241979651537
 20
457.1362897557895
 30
0.0
 11
786.4181967407135
 21
457.1362897557895
 31
0.0
  0
LINE
  5
1F6
330
5C
100
AcDbEntity
  8
1
  6
Continuous
 62
     7
100
AcDbLine
 10
820.2873649720048
 20
457.1362897557895
 30
0.0
 11
820.2873649720048
 21
458.1362897557895
 31
0.0
  0
LINE
  5
1F7
330
5C
100
AcDbEntity
  8
1
  6
Continuous
 62
     7
100
AcDbLine
 10
817.0505319788557
 20
457.1362897557895
 30
0.0
 11
820.2873649720048
 21
457.1362897557895
 31
0.0
  0
LINE
  5
1F8
330
5C
100
AcDbEntity
  8
1
  6
Continuous
 62
     7
100
AcDbLine
 10
807.7167004078801
 20
455.6362897557895
 30
0.0
 11
810.5121835635448
 21
455.6362897557895
 31
0.0
  0
LINE
  5
1F9
330
5C
100
AcDbEntity
  8
1
  6
Continuous
 62
     7
100
AcDbLine
 10
799.2873649803242
 20
455.6362897557895
 30
0.0
 11
806.8506750040957
 21
455.6362897557895
 31
0.0
  0
LINE
  5
1FA
330
5C
100
AcDbEntity
  8
1
  6
Continuous
 62
     7
100
AcDbLine
 10
820.2873649720048
 20
458.1362897557895
 30
0.0
 11
798.7873649720045
 21
458.1362897557895
 31
0.0
  0
LINE
  5
1FB
330
5C
100
AcDbEntity
  8
1
  6
Continuous
 62
     7
100
AcDbLine
 10
798.7873649720045
 20
458.1362897557895
 30
0.0
 11
777.2873649720045
 21
458.1362897557895
 31
0.0
  0
LINE
  5
1FC
330
5C
100
AcDbEntity
  8
1
  6
Continuous
 62
     7
100
AcDbLine
 10
777.2873649720045
 20
457.1362897557895
 30
0.0
 11
780.5241979651537
 21
457.1362897557895
 31
0.0
  0
LINE
  5
1FD
330
5C
100
AcDbEntity
  8
1
  6
Continuous
 62
     7
100
AcDbLine
 10
777.2873649720045
 20
458.1362897557895
 30
0.0
 11
777.2873649720045
 21
457.1362897557895
 31
0.0
  0
LINE
  5
1FE
330
5C
100
AcDbEntity
  8
1
  6
Continuous
 62
     7
100
AcDbLine
 10
432.6565332032956
 20
457.1362897557895
 30
0.0
 11
438.5505319788556
 21
457.1362897557895
 31
0.0
  0
LINE
  5
1FF
330
5C
100
AcDbEntity
  8
1
  6
Continuous
 62
     7
100
AcDbLine
 10
425.1683481589337
 20
457.1362897557895
 30
0.0
 11
431.9494264221091
 21
457.1362897557895
 31
0.0
  0
LINE
  5
200
330
5C
100
AcDbEntity
  8
1
  6
Continuous
 62
     7
100
AcDbLine
 10
416.372307611364
 20
457.1362897557895
 30
0.0
 11
424.2024223326445
 21
457.1362897557895
 31
0.0
  0
LINE
  5
201
330
5C
100
AcDbEntity
  8
1
  6
Continuous
 62
     7
100
AcDbLine
 10
408.6253035218995
 20
457.1362897557895
 30
0.0
 11
415.4063817850749
 21
457.1362897557895
 31
0.0
  0
LINE
  5
202
330
5C
100
AcDbEntity
  8
1
  6
Continuous
 62
     7
100
AcDbLine
 10
402.0241979651531
 20
457.1362897557895
 30
0.0
 11
407.918196740713
 21
457.1362897557895
 31
0.0
  0
LINE
  5
203
330
5C
100
AcDbEntity
  8
1
  6
Continuous
 62
     7
100
AcDbLine
 10
441.7873649720045
 20
457.1362897557895
 30
0.0
 11
441.7873649720045
 21
458.1362897557895
 31
0.0
  0
LINE
  5
204
330
5C
100
AcDbEntity
  8
1
  6
Continuous
 62
     7
100
AcDbLine
 10
438.5505319788556
 20
457.1362897557895
 30
0.0
 11
441.7873649720045
 21
457.1362897557895
 31
0.0
  0
LINE
  5
205
330
5C
100
AcDbEntity
  8
1
  6
Continuous
 62
     7
100
AcDbLine
 10
429.2167004078797
 20
455.6362897557895
 30
0.0
 11
432.0121835635446
 21
455.6362897557895
 31
0.0
  0
LINE
  5
206
330
5C
100
AcDbEntity
  8
1
  6
Continuous
 62
     7
100
AcDbLine
 10
420.787364980324
 20
455.6362897557895
 30
0.0
 11
428.3506750040954
 21
455.6362897557895
 31
0.0
  0
LINE
  5
207
330
5C
100
AcDbEntity
  8
1
  6
Continuous
 62
     7
100
AcDbLine
 10
441.7873649720045
 20
458.1362897557895
 30
0.0
 11
420.2873649720041
 21
458.1362897557895
 31
0.0
  0
LINE
  5
208
330
5C
100
AcDbEntity
  8
1
  6
Continuous
 62
     7
100
AcDbLine
 10
420.2873649720041
 20
458.1362897557895
 30
0.0
 11
398.7873649720041
 21
458.1362897557895
 31
0.0
  0
LINE
  5
209
330
5C
100
AcDbEntity
  8
1
  6
Continuous
 62
     7
100
AcDbLine
 10
412.2240549399132
 20
455.6362897557895
 30
0.0
 11
419.7873649636845
 21
455.6362897557895
 31
0.0
  0
LINE
  5
20A
330
5C
100
AcDbEntity
  8
1
  6
Continuous
 62
     7
100
AcDbLine
 10
408.562546380464
 20
455.6362897557895
 30
0.0
 11
411.3580295361289
 21
455.6362897557895
 31
0.0
  0
LINE
  5
20B
330
5C
100
AcDbEntity
  8
1
  6
Continuous
 62
     7
100
AcDbLine
 10
398.7873649720041
 20
457.1362897557895
 30
0.0
 11
402.0241979651531
 21
457.1362897557895
 31
0.0
  0
LINE
  5
20C
330
5C
100
AcDbEntity
  8
1
  6
Continuous
 62
     7
100
AcDbLine
 10
398.7873649720041
 20
458.1362897557895
 30
0.0
 11
398.7873649720041
 21
457.1362897557895
 31
0.0
  0
ARC
  5
20D
330
5C
100
AcDbEntity
  8
1
  6
Continuous
 62
     7
100
AcDbCircle
 10
810.5121835635448
 20
465.6362897557895
 30
0.0
 40
10.0
100
AcDbArc
 50
-90.0
 51
-64.15806723683167
  0
ARC
  5
20E
330
5C
100
AcDbEntity
  8
1
  6
Continuous
 62
     7
100
AcDbCircle
 10
787.0625463804645
 20
465.6362897557895
 30
0.0
 40
10.0
100
AcDbArc
 50
-115.8419327631672
 51
-90.0
  0
ARC
  5
20F
330
5C
100
AcDbEntity
  8
1
  6
Continuous
 62
     7
100
AcDbCircle
 10
432.0121835635446
 20
465.6362897557895
 30
0.0
 40
10.0
100
AcDbArc
 50
-90.0
 51
-64.15806723683284
  0
ARC
  5
210
330
5C
100
AcDbEntity
  8
1
  6
Continuous
 62
     7
100
AcDbCircle
 10
408.562546380464
 20
465.6362897557895
 30
0.0
 40
9.999999999999929
100
AcDbArc
 50
-115.8419327631663
 51
-90.0
  0
SPLINE
  5
211
330
5C
100
AcDbEntity
  8
1
  6
Continuous
 62
     7
100
AcDbSpline
210
0.0
220
0.0
230
1.0
 70
     8
 71
     3
 72
    31
 73
    27
 74
    25
 42
0.0000000001
 43
0.0000000001
 44
0.00000001
 40
0.0
 40
0.0
 40
0.0
 40
0.0
 40
0.270965971033547
 40
0.5252266839305346
 40
1.065749190585288
 40
1.674599336098015
 40
2.320394600531583
 40
2.934363290976073
 40
3.290221352613464
 40
3.646480795373162
 40
4.682658409192215
 40
5.750236620427348
 40
6.77582265510615
 40
7.208802821952834
 40
7.646130370974075
 40
8.816358620109844
 40
10.01163910179155
 40
11.17461240778426
 40
11.65874765657596
 40
12.14501675690617
 40
13.0808659941476
 40
14.04099014689927
 40
14.98716393936297
 40
15.89608035137183
 40
16.14448975988064
 40
16.39628796123941
 40
16.39628796123941
 40
16.39628796123941
 40
16.39628796123941
 10
405.3213023192428
 20
456.176145098566
 30
0.0
 10
405.4046988736384
 20
456.1418458155961
 30
0.0
 10
405.5663505214424
 20
456.0753618265298
 30
0.0
 10
405.9130696508912
 20
455.9781955314134
 30
0.0
 10
406.3932140459655
 20
456.1099774387935
 30
0.0
 10
406.8673517097366
 20
456.4770159342197
 30
0.0
 10
407.3458240513473
 20
456.8719636853642
 30
0.0
 10
407.8263436321615
 20
457.1441420304748
 30
0.0
 10
408.2722172314008
 20
457.1924015770605
 30
0.0
 10
408.8547988486464
 20
457.1190478382189
 30
0.0
 10
409.5955428832563
 20
456.7112492131494
 30
0.0
 10
410.3924614369855
 20
456.0552858052165
 30
0.0
 10
411.1550771579357
 20
455.6369346683606
 30
0.0
 10
411.790658041017
 20
455.5792777705777
 30
0.0
 10
412.4714813797856
 20
455.6476215558018
 30
0.0
 10
413.3384515445718
 20
456.0528311567622
 30
0.0
 10
414.2990263800776
 20
456.7156545173641
 30
0.0
 10
415.1756986258134
 20
457.131506973883
 30
0.0
 10
415.8890581233056
 20
457.1980230185344
 30
0.0
 10
416.5259053002621
 20
457.1382428067797
 30
0.0
 10
417.2730512417598
 20
456.8335529449203
 30
0.0
 10
418.0755926908996
 20
456.3321004793598
 30
0.0
 10
418.8812345603094
 20
455.8505595385271
 30
0.0
 10
419.5663665426759
 20
455.6349660749392
 30
0.0
 10
420.0369095502923
 20
455.6267913377567
 30
0.0
 10
420.2035036191182
 20
455.6331093487493
 30
0.0
 10
420.2873649720041
 20
455.6362897557895
 30
0.0
 11
405.3213023192428
 21
456.176145098566
 31
0.0
 11
405.5739458935722
 21
456.0781972460717
 31
0.0
 11
405.8213023192428
 21
456.0193473624497
 31
0.0
 11
406.350025617417
 21
456.1316694625375
 31
0.0
 11
406.8552119492354
 21
456.4715006998227
 31
0.0
 11
407.3676670714249
 21
456.8644908667563
 31
0.0
 11
407.918196740713
 21
457.1362897557895
 31
0.0
 11
408.2715480186051
 21
457.1784541299025
 31
0.0
 11
408.6253035218995
 21
457.1362897557895
 31
0.0
 11
409.5623799329455
 21
456.6940773099663
 31
0.0
 11
410.4288713021123
 21
456.0704460533223
 31
0.0
 11
411.3580295361289
 21
455.6362897557895
 31
0.0
 11
411.788857798492
 21
455.593175567501
 31
0.0
 11
412.2240549399132
 21
455.6362897557895
 31
0.0
 11
413.309233674376
 21
456.0742638067847
 31
0.0
 11
414.3297484590563
 21
456.6965539353728
 31
0.0
 11
415.4063817850749
 21
457.1362897557895
 31
0.0
 11
415.8882728256403
 21
457.1828511576733
 31
0.0
 11
416.372307611364
 21
457.1362897557895
 31
0.0
 11
417.2509979037783
 21
456.8142382616736
 31
0.0
 11
418.0813707784827
 21
456.3322431603994
 31
0.0
 11
418.9109764097877
 21
455.8772713568202
 31
0.0
 11
419.7873649720041
 21
455.6362897557895
 31
0.0
 11
420.0356698720323
 21
455.6290848367968
 31
0.0
 11
420.2873649720041
 21
455.6362897557895
 31
0.0
  0
SPLINE
  5
212
330
5C
100
AcDbEntity
  8
1
  6
Continuous
 62
     7
100
AcDbSpline
210
0.0
220
0.0
230
1.0
 70
     8
 71
     3
 72
    31
 73
    27
 74
    25
 42
0.0000000001
 43
0.0000000001
 44
0.00000001
 40
0.0
 40
0.0
 40
0.0
 40
0.0
 40
0.2709659710333999
 40
0.5252266839305244
 40
1.065749190585334
 40
1.67459933609806
 40
2.320394600531673
 40
2.934363290976265
 40
3.290221352613487
 40
3.646480795373297
 40
4.682658409192403
 40
5.750236620427456
 40
6.775822655106283
 40
7.208802821953023
 40
7.646130370974264
 40
8.816358620110032
 40
10.01163910179169
 40
11.1746124077844
 40
11.6587476565761
 40
12.14501675690642
 40
13.08086599414785
 40
14.04099014689952
 40
14.98716393936312
 40
15.89608035137198
 40
16.14448975988102
 40
16.39628796123996
 40
16.39628796123996
 40
16.39628796123996
 40
16.39628796123996
 10
435.253427624766
 20
456.176145098566
 30
0.0
 10
435.1700310703705
 20
456.141845815596
 30
0.0
 10
435.0083794225666
 20
456.0753618265298
 30
0.0
 10
434.6616602931177
 20
455.9781955314136
 30
0.0
 10
434.1815158980434
 20
456.1099774387932
 30
0.0
 10
433.7073782342721
 20
456.4770159342201
 30
0.0
 10
433.2289058926613
 20
456.8719636853642
 30
0.0
 10
432.7483863118473
 20
457.1441420304747
 30
0.0
 10
432.3025127126079
 20
457.1924015770607
 30
0.0
 10
431.7199310953621
 20
457.1190478382188
 30
0.0
 10
430.9791870607523
 20
456.7112492131493
 30
0.0
 10
430.182268507023
 20
456.0552858052165
 30
0.0
 10
429.4196527860729
 20
455.6369346683608
 30
0.0
 10
428.7840719029917
 20
455.5792777705775
 30
0.0
 10
428.1032485642227
 20
455.6476215558021
 30
0.0
 10
427.236278399437
 20
456.0528311567622
 30
0.0
 10
426.2757035639309
 20
456.7156545173641
 30
0.0
 10
425.3990313181952
 20
457.1315069738828
 30
0.0
 10
424.6856718207032
 20
457.1980230185346
 30
0.0
 10
424.0488246437463
 20
457.1382428067795
 30
0.0
 10
423.3016787022486
 20
456.8335529449204
 30
0.0
 10
422.499137253109
 20
456.3321004793599
 30
0.0
 10
421.6934953836993
 20
455.8505595385271
 30
0.0
 10
421.0083634013325
 20
455.6349660749393
 30
0.0
 10
420.5378203937162
 20
455.6267913377566
 30
0.0
 10
420.3712263248903
 20
455.6331093487491
 30
0.0
 10
420.2873649720041
 20
455.6362897557895
 30
0.0
 11
435.253427624766
 21
456.176145098566
 31
0.0
 11
435.0007840504368
 21
456.0781972460718
 31
0.0
 11
434.753427624766
 21
456.0193473624497
 31
0.0
 11
434.2247043265917
 21
456.1316694625375
 31
0.0
 11
433.7195179947734
 21
456.4715006998227
 31
0.0
 11
433.2070628725838
 21
456.8644908667563
 31
0.0
 11
432.6565332032956
 21
457.1362897557895
 31
0.0
 11
432.3031819254037
 21
457.1784541299025
 31
0.0
 11
431.9494264221091
 21
457.1362897557895
 31
0.0
 11
431.0123500110631
 21
456.6940773099663
 31
0.0
 11
430.1458586418963
 21
456.0704460533223
 31
0.0
 11
429.2167004078797
 21
455.6362897557895
 31
0.0
 11
428.7858721455166
 21
455.593175567501
 31
0.0
 11
428.3506750040954
 21
455.6362897557895
 31
0.0
 11
427.2654962696327
 21
456.0742638067847
 31
0.0
 11
426.2449814849524
 21
456.6965539353728
 31
0.0
 11
425.1683481589337
 21
457.1362897557895
 31
0.0
 11
424.6864571183683
 21
457.1828511576733
 31
0.0
 11
424.2024223326445
 21
457.1362897557895
 31
0.0
 11
423.3237320402303
 21
456.8142382616736
 31
0.0
 11
422.4933591655259
 21
456.3322431603994
 31
0.0
 11
421.6637535342209
 21
455.8772713568202
 31
0.0
 11
420.7873649720045
 21
455.6362897557895
 31
0.0
 11
420.5390600719761
 21
455.6290848367968
 31
0.0
 11
420.2873649720041
 21
455.6362897557895
 31
0.0
  0
SPLINE
  5
213
330
5C
100
AcDbEntity
  8
1
  6
Continuous
 62
     7
100
AcDbSpline
210
0.0
220
0.0
230
1.0
 70
     8
 71
     3
 72
    31
 73
    27
 74
    25
 42
0.0000000001
 43
0.0000000001
 44
0.00000001
 40
0.0
 40
0.0
 40
0.0
 40
0.0
 40
0.270965971033547
 40
0.5252266839305346
 40
1.065749190585288
 40
1.67459933609792
 40
2.320394600531488
 40
2.934363290976029
 40
3.290221352613308
 40
3.646480795373005
 40
4.682658409192035
 40
5.75023662042695
 40
6.775822655105646
 40
7.208802821952669
 40
7.646130370974079
 40
8.816358620109817
 40
10.01163910179157
 40
11.17461240778421
 40
11.65874765657568
 40
12.14501675690589
 40
13.08086599414743
 40
14.0409901468991
 40
14.9871639393628
 40
15.89608035137171
 40
16.14448975988053
 40
16.3962879612393
 40
16.3962879612393
 40
16.3962879612393
 40
16.3962879612393
 10
783.8213023192434
 20
456.176145098566
 30
0.0
 10
783.904698873639
 20
456.1418458155961
 30
0.0
 10
784.0663505214428
 20
456.0753618265298
 30
0.0
 10
784.4130696508917
 20
455.9781955314134
 30
0.0
 10
784.893214045966
 20
456.1099774387935
 30
0.0
 10
785.367351709737
 20
456.4770159342198
 30
0.0
 10
785.8458240513478
 20
456.8719636853642
 30
0.0
 10
786.3263436321619
 20
457.1441420304748
 30
0.0
 10
786.7722172314012
 20
457.1924015770605
 30
0.0
 10
787.3547988486471
 20
457.1190478382191
 30
0.0
 10
788.0955428832565
 20
456.7112492131494
 30
0.0
 10
788.8924614369856
 20
456.0552858052166
 30
0.0
 10
789.6550771579358
 20
455.6369346683607
 30
0.0
 10
790.2906580410173
 20
455.5792777705777
 30
0.0
 10
790.9714813797859
 20
455.6476215558018
 30
0.0
 10
791.8384515445723
 20
456.0528311567622
 30
0.0
 10
792.799026380078
 20
456.7156545173642
 30
0.0
 10
793.6756986258137
 20
457.1315069738828
 30
0.0
 10
794.3890581233061
 20
457.1980230185345
 30
0.0
 10
795.0259053002625
 20
457.1382428067797
 30
0.0
 10
795.7730512417603
 20
456.8335529449204
 30
0.0
 10
796.5755926909001
 20
456.33210047936
 30
0.0
 10
797.3812345603096
 20
455.8505595385273
 30
0.0
 10
798.0663665426768
 20
455.6349660749392
 30
0.0
 10
798.5369095502924
 20
455.6267913377567
 30
0.0
 10
798.7035036191184
 20
455.6331093487491
 30
0.0
 10
798.7873649720045
 20
455.6362897557895
 30
0.0
 11
783.8213023192434
 21
456.176145098566
 31
0.0
 11
784.0739458935727
 21
456.0781972460717
 31
0.0
 11
784.3213023192434
 21
456.0193473624497
 31
0.0
 11
784.8500256174176
 21
456.1316694625375
 31
0.0
 11
785.3552119492358
 21
456.4715006998227
 31
0.0
 11
785.8676670714253
 21
456.8644908667563
 31
0.0
 11
786.4181967407135
 21
457.1362897557895
 31
0.0
 11
786.7715480186055
 21
457.1784541299025
 31
0.0
 11
787.1253035218999
 21
457.1362897557895
 31
0.0
 11
788.0623799329459
 21
456.6940773099663
 31
0.0
 11
788.9288713021125
 21
456.0704460533224
 31
0.0
 11
789.8580295361289
 21
455.6362897557895
 31
0.0
 11
790.2888577984924
 21
455.593175567501
 31
0.0
 11
790.7240549399137
 21
455.6362897557895
 31
0.0
 11
791.8092336743764
 21
456.0742638067848
 31
0.0
 11
792.8297484590568
 21
456.6965539353728
 31
0.0
 11
793.9063817850754
 21
457.1362897557895
 31
0.0
 11
794.3882728256406
 21
457.1828511576733
 31
0.0
 11
794.8723076113643
 21
457.1362897557895
 31
0.0
 11
795.7509979037786
 21
456.8142382616736
 31
0.0
 11
796.581370778483
 21
456.3322431603994
 31
0.0
 11
797.4109764097881
 21
455.8772713568202
 31
0.0
 11
798.2873649720045
 21
455.6362897557895
 31
0.0
 11
798.5356698720327
 21
455.6290848367969
 31
0.0
 11
798.7873649720045
 21
455.6362897557895
 31
0.0
  0
SPLINE
  5
214
330
5C
100
AcDbEntity
  8
1
  6
Continuous
 62
     7
100
AcDbSpline
210
0.0
220
0.0
230
1.0
 70
     8
 71
     3
 72
    31
 73
    27
 74
    25
 42
0.0000000001
 43
0.0000000001
 44
0.00000001
 40
0.0
 40
0.0
 40
0.0
 40
0.0
 40
0.270965971033441
 40
0.5252266839305393
 40
1.065749190585293
 40
1.674599336097925
 40
2.320394600531583
 40
2.934363290976022
 40
3.290221352613301
 40
3.646480795372885
 40
4.682658409192042
 40
5.750236620427142
 40
6.775822655105917
 40
7.208802821952713
 40
7.646130370974011
 40
8.816358620109726
 40
10.01163910179148
 40
11.17461240778403
 40
11.65874765657562
 40
12.14501675690594
 40
13.08086599414738
 40
14.04099014689904
 40
14.98716393936275
 40
15.89608035137177
 40
16.14448975988058
 40
16.39628796123958
 40
16.39628796123958
 40
16.39628796123958
 40
16.39628796123958
 10
813.753427624766
 20
456.176145098566
 30
0.0
 10
813.6700310703706
 20
456.1418458155961
 30
0.0
 10
813.5083794225668
 20
456.0753618265298
 30
0.0
 10
813.1616602931173
 20
455.9781955314134
 30
0.0
 10
812.6815158980435
 20
456.1099774387933
 30
0.0
 10
812.2073782342723
 20
456.4770159342199
 30
0.0
 10
811.7289058926615
 20
456.8719636853642
 30
0.0
 10
811.2483863118475
 20
457.1441420304748
 30
0.0
 10
810.8025127126081
 20
457.1924015770604
 30
0.0
 10
810.2199310953627
 20
457.1190478382191
 30
0.0
 10
809.4791870607528
 20
456.7112492131492
 30
0.0
 10
808.6822685070233
 20
456.0552858052166
 30
0.0
 10
807.9196527860731
 20
455.6369346683605
 30
0.0
 10
807.2840719029922
 20
455.5792777705777
 30
0.0
 10
806.6032485642231
 20
455.647621555802
 30
0.0
 10
805.7362783994373
 20
456.0528311567623
 30
0.0
 10
804.7757035639314
 20
456.715654517364
 30
0.0
 10
803.8990313181956
 20
457.131506973883
 30
0.0
 10
803.1856718207037
 20
457.1980230185343
 30
0.0
 10
802.5488246437468
 20
457.1382428067798
 30
0.0
 10
801.8016787022492
 20
456.8335529449201
 30
0.0
 10
800.9991372531094
 20
456.33210047936
 30
0.0
 10
800.1934953836995
 20
455.850559538527
 30
0.0
 10
799.508363401333
 20
455.6349660749393
 30
0.0
 10
799.0378203937166
 20
455.6267913377566
 30
0.0
 10
798.8712263248907
 20
455.6331093487492
 30
0.0
 10
798.7873649720045
 20
455.6362897557895
 30
0.0
 11
813.753427624766
 21
456.176145098566
 31
0.0
 11
813.5007840504368
 21
456.0781972460717
 31
0.0
 11
813.253427624766
 21
456.0193473624497
 31
0.0
 11
812.7247043265918
 21
456.1316694625375
 31
0.0
 11
812.2195179947736
 21
456.4715006998227
 31
0.0
 11
811.707062872584
 21
456.8644908667563
 31
0.0
 11
811.1565332032959
 21
457.1362897557895
 31
0.0
 11
810.8031819254039
 21
457.1784541299025
 31
0.0
 11
810.4494264221096
 21
457.1362897557895
 31
0.0
 11
809.5123500110635
 21
456.6940773099663
 31
0.0
 11
808.6458586418967
 21
456.0704460533223
 31
0.0
 11
807.7167004078801
 21
455.6362897557895
 31
0.0
 11
807.2858721455169
 21
455.593175567501
 31
0.0
 11
806.8506750040957
 21
455.6362897557895
 31
0.0
 11
805.765496269633
 21
456.0742638067847
 31
0.0
 11
804.7449814849526
 21
456.6965539353728
 31
0.0
 11
803.6683481589341
 21
457.1362897557895
 31
0.0
 11
803.1864571183688
 21
457.1828511576733
 31
0.0
 11
802.702422332645
 21
457.1362897557895
 31
0.0
 11
801.8237320402308
 21
456.8142382616736
 31
0.0
 11
800.9933591655264
 21
456.3322431603994
 31
0.0
 11
800.1637535342213
 21
455.8772713568202
 31
0.0
 11
799.2873649720048
 21
455.6362897557895
 31
0.0
 11
799.0390600719766
 21
455.6290848367968
 31
0.0
 11
798.7873649720045
 21
455.6362897557895
 31
0.0
  0
ARC
  5
215
330
5C
100
AcDbEntity
  8
1
  6
Continuous
 62
     7
100
AcDbCircle
 10
817.0505319788557
 20
452.1362897557895
 30
0.0
 40
5.0
100
AcDbArc
 50
90.0
 51
115.8419327631636
  0
ARC
  5
216
330
5C
100
AcDbEntity
  8
1
  6
Continuous
 62
     7
100
AcDbCircle
 10
780.5241979651537
 20
452.1362897557895
 30
0.0
 40
4.999999999999902
100
AcDbArc
 50
64.15806723683519
 51
90.0
  0
ARC
  5
217
330
5C
100
AcDbEntity
  8
1
  6
Continuous
 62
     7
100
AcDbCircle
 10
438.5505319788556
 20
452.1362897557895
 30
0.0
 40
5.0
100
AcDbArc
 50
90.0
 51
115.8419327631666
  0
ARC
  5
218
330
5C
100
AcDbEntity
  8
1
  6
Continuous
 62
     7
100
AcDbCircle
 10
402.0241979651531
 20
452.1362897557895
 30
0.0
 40
5.000000000000027
100
AcDbArc
 50
64.15806723683225
 51
90.0
  0
ENDBLK
  5
5E
330
5C
100
AcDbEntity
  8
0
100
AcDbBlockEnd
  0
BLOCK
  5
60
330
5F
100
AcDbEntity
  8
0
100
AcDbBlockBegin
  2
92-53__7
 70
     0
 71
     0
 10
22.47081715283278
 20
275.4522930483096
 30
0.0
  3
92-53__7
  1

  0
LINE
  5
219
330
5F
100
AcDbEntity
  8
1
  6
Continuous
 62
     7
100
AcDbLine
 10
198.7873649720039
 20
458.1362897557892
 30
0.0
 11
235.7873649720039
 21
458.1362897557896
 31
0.0
  0
LINE
  5
21A
330
5F
100
AcDbEntity
  8
1
  6
Continuous
 62
     7
100
AcDbLine
 10
198.787364972004
 20
459.6362897557891
 30
0.0
 11
198.7873649720039
 21
458.1362897557892
 31
0.0
  0
LINE
  5
21B
330
5F
100
AcDbEntity
  8
1
  6
Continuous
 62
     7
100
AcDbLine
 10
198.787364972004
 20
459.6362897557891
 30
0.0
 11
235.787364972004
 21
459.6362897557895
 31
0.0
  0
LINE
  5
21C
330
5F
100
AcDbEntity
  8
1
  6
Continuous
 62
     7
100
AcDbLine
 10
235.7873649720039
 20
458.1362897557896
 30
0.0
 11
235.787364972004
 21
459.6362897557895
 31
0.0
  0
ENDBLK
  5
61
330
5F
100
AcDbEntity
  8
0
100
AcDbBlockEnd
  0
BLOCK
  5
63
330
62
100
AcDbEntity
  8
0
100
AcDbBlockBegin
  2
32-25__8
 70
     0
 71
     0
 10
230.6043082770933
 20
423.2137131666528
 30
0.0
  3
32-25__8
  1

  0
LINE
  5
21D
330
62
100
AcDbEntity
  8
1
  6
Continuous
 62
     7
100
AcDbLine
 10
210.3591617417283
 20
450.7043851838649
 30
0.0
 11
210.3591617417283
 21
455.6362897557895
 31
0.0
  0
LINE
  5
21E
330
62
100
AcDbEntity
  8
1
  6
Continuous
 62
     7
100
AcDbLine
 10
224.2155682022794
 20
450.7043851838649
 30
0.0
 11
224.2155682022794
 21
455.6362897557895
 31
0.0
  0
LINE
  5
21F
330
62
100
AcDbEntity
  8
1
  6
Continuous
 62
     7
100
AcDbLine
 10
206.8982655824869
 20
449.6362897557895
 30
0.0
 11
205.2873649720039
 21
449.6362897557899
 31
0.0
  0
LINE
  5
220
330
62
100
AcDbEntity
  8
1
  6
Continuous
 62
     7
100
AcDbLine
 10
227.5880637510379
 20
449.6362897557895
 30
0.0
 11
217.2873649720039
 21
449.6362897557895
 31
0.0
  0
LINE
  5
221
330
62
100
AcDbEntity
  8
1
  6
Continuous
 62
     7
100
AcDbLine
 10
217.2873649720039
 20
449.6362897557895
 30
0.0
 11
206.8982655824869
 21
449.6362897557895
 31
0.0
  0
LINE
  5
222
330
62
100
AcDbEntity
  8
1
  6
Continuous
 62
     7
100
AcDbLine
 10
204.2353350987715
 20
450.2436794862958
 30
0.0
 11
203.4373694232454
 21
450.7043851838649
 31
0.0
  0
LINE
  5
223
330
62
100
AcDbEntity
  8
1
  6
Continuous
 62
     7
100
AcDbLine
 10
230.3362267289919
 20
450.2418503735292
 30
0.0
 11
229.2873649720039
 21
449.6362897557895
 31
0.0
  0
LINE
  5
224
330
62
100
AcDbEntity
  8
1
  6
Continuous
 62
     7
100
AcDbLine
 10
227.764864972004
 20
449.6362897557895
 30
0.0
 11
227.5880637510379
 21
449.6362897557895
 31
0.0
  0
LINE
  5
225
330
62
100
AcDbEntity
  8
1
  6
Continuous
 62
     7
100
AcDbLine
 10
203.4373694232454
 20
450.7043851838649
 30
0.0
 11
203.4373694232454
 21
455.6362897557895
 31
0.0
  0
LINE
  5
226
330
62
100
AcDbEntity
  8
1
  6
Continuous
 62
     7
100
AcDbLine
 10
205.2873649720039
 20
449.6362897557899
 30
0.0
 11
204.2353350987715
 21
450.2436794862958
 31
0.0
  0
LINE
  5
227
330
62
100
AcDbEntity
  8
1
  6
Continuous
 62
     7
100
AcDbLine
 10
206.7873649720039
 20
455.6362897557895
 30
0.0
 11
203.4373694232454
 21
455.6362897557895
 31
0.0
  0
LINE
  5
228
330
62
100
AcDbEntity
  8
1
  6
Continuous
 62
     7
100
AcDbLine
 10
231.1373605207624
 20
450.7043851838649
 30
0.0
 11
230.3362267289919
 21
450.2418503735292
 31
0.0
  0
LINE
  5
229
330
62
100
AcDbEntity
  8
1
  6
Continuous
 62
     7
100
AcDbLine
 10
231.1373605207624
 20
455.6362897557899
 30
0.0
 11
231.1373605207624
 21
450.7043851838649
 31
0.0
  0
LINE
  5
22A
330
62
100
AcDbEntity
  8
1
  6
Continuous
 62
     7
100
AcDbLine
 10
231.1373605207624
 20
455.6362897557899
 30
0.0
 11
227.7873649720039
 21
455.6362897557895
 31
0.0
  0
LINE
  5
22B
330
62
100
AcDbEntity
  8
1
  6
Continuous
 62
     7
100
AcDbLine
 10
229.2873649720039
 20
449.6362897557895
 30
0.0
 11
227.7873649720039
 21
449.6362897557899
 31
0.0
  0
ARC
  5
22C
330
62
100
AcDbEntity
  8
1
  6
Continuous
 62
     7
100
AcDbCircle
 10
206.8982655824869
 20
455.7774217762534
 30
0.0
 40
6.141132020463836
100
AcDbArc
 50
-115.6976475036658
 51
-90.0
  0
ARC
  5
22D
330
62
100
AcDbEntity
  8
1
  6
Continuous
 62
     7
100
AcDbCircle
 10
227.6764643615208
 20
455.7737635507197
 30
0.0
 40
6.138110397458544
100
AcDbArc
 50
-90.82519809322565
 51
-89.17480190677144
  0
ARC
  5
22E
330
62
100
AcDbEntity
  8
1
  6
Continuous
 62
     7
100
AcDbCircle
 10
227.6764643615208
 20
455.7737635507197
 30
0.0
 40
6.138110397458462
100
AcDbArc
 50
-124.3215966385209
 51
-90.82519809322565
  0
ARC
  5
22F
330
62
100
AcDbEntity
  8
1
  6
Continuous
 62
     7
100
AcDbCircle
 10
217.2873649720039
 20
472.6402398485388
 30
0.0
 40
23.00395009274924
100
AcDbArc
 50
-107.5281601363351
 51
-90.0
  0
ARC
  5
230
330
62
100
AcDbEntity
  8
1
  6
Continuous
 62
     7
100
AcDbCircle
 10
227.6764643615208
 20
455.7737635507197
 30
0.0
 40
6.138110397458548
100
AcDbArc
 50
-89.17480190677144
 51
-64.32159663851908
  0
ARC
  5
231
330
62
100
AcDbEntity
  8
1
  6
Continuous
 62
     7
100
AcDbCircle
 10
206.8982655824869
 20
455.7774217762534
 30
0.0
 40
6.141132020463886
100
AcDbArc
 50
-90.0
 51
-55.69764750367043
  0
ARC
  5
232
330
62
100
AcDbEntity
  8
1
  6
Continuous
 62
     7
100
AcDbCircle
 10
217.2873649720039
 20
472.6402398485388
 30
0.0
 40
23.00395009274928
100
AcDbArc
 50
-90.0
 51
-72.47183986366518
  0
ENDBLK
  5
64
330
62
100
AcDbEntity
  8
0
100
AcDbBlockEnd
  0
BLOCK
  5
66
330
65
100
AcDbEntity
  8
0
100
AcDbBlockBegin
  2
73-1-21_5__9
 70
     0
 71
     0
 10
123.012183563544
 20
475.5234182913312
 30
0.0
  3
73-1-21_5__9
  1

  0
LINE
  5
233
330
65
100
AcDbEntity
  8
1
  6
Continuous
 62
     7
100
AcDbLine
 10
195.7873649720039
 20
458.1362897557895
 30
0.0
 11
195.7873649720039
 21
457.1362897557895
 31
0.0
  0
LINE
  5
234
330
65
100
AcDbEntity
  8
1
  6
Continuous
 62
     7
100
AcDbLine
 10
195.7873649720039
 20
457.1362897557895
 30
0.0
 11
199.0241979651528
 21
457.1362897557899
 31
0.0
  0
LINE
  5
235
330
65
100
AcDbEntity
  8
1
  6
Continuous
 62
     7
100
AcDbLine
 10
205.5625463804638
 20
455.6362897557895
 30
0.0
 11
208.3580295361284
 21
455.6362897557895
 31
0.0
  0
LINE
  5
236
330
65
100
AcDbEntity
  8
1
  6
Continuous
 62
     7
100
AcDbLine
 10
209.2240549399128
 20
455.6362897557899
 30
0.0
 11
216.7873649636843
 21
455.6362897557899
 31
0.0
  0
LINE
  5
237
330
65
100
AcDbEntity
  8
1
  6
Continuous
 62
     7
100
AcDbLine
 10
217.2873649720039
 20
458.1362897557895
 30
0.0
 11
195.7873649720039
 21
458.1362897557895
 31
0.0
  0
LINE
  5
238
330
65
100
AcDbEntity
  8
1
  6
Continuous
 62
     7
100
AcDbLine
 10
238.787364972004
 20
458.1362897557895
 30
0.0
 11
217.2873649720039
 21
458.1362897557895
 31
0.0
  0
LINE
  5
239
330
65
100
AcDbEntity
  8
1
  6
Continuous
 62
     7
100
AcDbLine
 10
217.7873649803236
 20
455.6362897557899
 30
0.0
 11
225.350675004095
 21
455.6362897557895
 31
0.0
  0
LINE
  5
23A
330
65
100
AcDbEntity
  8
1
  6
Continuous
 62
     7
100
AcDbLine
 10
226.2167004078795
 20
455.6362897557895
 30
0.0
 11
229.0121835635442
 21
455.6362897557899
 31
0.0
  0
LINE
  5
23B
330
65
100
AcDbEntity
  8
1
  6
Continuous
 62
     7
100
AcDbLine
 10
235.5505319788553
 20
457.1362897557895
 30
0.0
 11
238.787364972004
 21
457.1362897557895
 31
0.0
  0
LINE
  5
23C
330
65
100
AcDbEntity
  8
1
  6
Continuous
 62
     7
100
AcDbLine
 10
238.787364972004
 20
457.1362897557895
 30
0.0
 11
238.787364972004
 21
458.1362897557895
 31
0.0
  0
LINE
  5
23D
330
65
100
AcDbEntity
  8
1
  6
Continuous
 62
     7
100
AcDbLine
 10
199.0241979651528
 20
457.1362897557899
 30
0.0
 11
204.9181967407128
 21
457.1362897557895
 31
0.0
  0
LINE
  5
23E
330
65
100
AcDbEntity
  8
1
  6
Continuous
 62
     7
100
AcDbLine
 10
205.6253035218993
 20
457.1362897557895
 30
0.0
 11
212.4063817850747
 21
457.1362897557895
 31
0.0
  0
LINE
  5
23F
330
65
100
AcDbEntity
  8
1
  6
Continuous
 62
     7
100
AcDbLine
 10
213.3723076113636
 20
457.1362897557895
 30
0.0
 11
221.2024223326442
 21
457.1362897557895
 31
0.0
  0
LINE
  5
240
330
65
100
AcDbEntity
  8
1
  6
Continuous
 62
     7
100
AcDbLine
 10
222.1683481589333
 20
457.1362897557895
 30
0.0
 11
228.9494264221087
 21
457.1362897557895
 31
0.0
  0
LINE
  5
241
330
65
100
AcDbEntity
  8
1
  6
Continuous
 62
     7
100
AcDbLine
 10
229.6565332032952
 20
457.1362897557899
 30
0.0
 11
235.5505319788553
 21
457.1362897557895
 31
0.0
  0
ARC
  5
242
330
65
100
AcDbEntity
  8
1
  6
Continuous
 62
     7
100
AcDbCircle
 10
205.5625463804638
 20
465.6362897557899
 30
0.0
 40
9.999999999999966
100
AcDbArc
 50
-115.8419327631667
 51
-90.0
  0
ARC
  5
243
330
65
100
AcDbEntity
  8
1
  6
Continuous
 62
     7
100
AcDbCircle
 10
229.0121835635442
 20
465.6362897557895
 30
0.0
 40
9.999999999999602
100
AcDbArc
 50
-90.0
 51
-64.1580672368317
  0
SPLINE
  5
244
330
65
100
AcDbEntity
  8
1
  6
Continuous
 62
     7
100
AcDbSpline
210
0.0
220
0.0
230
1.0
 70
     8
 71
     3
 72
    31
 73
    27
 74
    25
 42
0.0000000001
 43
0.0000000001
 44
0.00000001
 40
0.0
 40
0.0
 40
0.0
 40
0.0
 40
0.2709659710335556
 40
0.5252266839306513
 40
1.065749190585405
 40
1.67459933609825
 40
2.320394600532024
 40
2.934363290976642
 40
3.290221352613907
 40
3.646480795373694
 40
4.682658409192845
 40
5.750236620427843
 40
6.775822655106493
 40
7.208802821953347
 40
7.646130370974672
 40
8.816358620110414
 40
10.01163910179207
 40
11.17461240778481
 40
11.65874765657645
 40
12.14501675690672
 40
13.08086599414821
 40
14.04099014689984
 40
14.98716393936355
 40
15.89608035137246
 40
16.14448975988136
 40
16.39628796124016
 40
16.39628796124016
 40
16.39628796124016
 40
16.39628796124016
 10
232.2534276247656
 20
456.1761450985664
 30
0.0
 10
232.1700310703702
 20
456.1418458155964
 30
0.0
 10
232.0083794225662
 20
456.07536182653
 30
0.0
 10
231.6616602931171
 20
455.9781955314133
 30
0.0
 10
231.1815158980431
 20
456.1099774387936
 30
0.0
 10
230.7073782342716
 20
456.4770159342199
 30
0.0
 10
230.228905892661
 20
456.8719636853647
 30
0.0
 10
229.7483863118468
 20
457.1441420304752
 30
0.0
 10
229.3025127126074
 20
457.1924015770609
 30
0.0
 10
228.7199310953617
 20
457.1190478382187
 30
0.0
 10
227.9791870607522
 20
456.7112492131492
 30
0.0
 10
227.1822685070226
 20
456.0552858052163
 30
0.0
 10
226.4196527860727
 20
455.6369346683609
 30
0.0
 10
225.7840719029913
 20
455.5792777705776
 30
0.0
 10
225.1032485642224
 20
455.6476215558021
 30
0.0
 10
224.2362783994364
 20
456.052831156762
 30
0.0
 10
223.2757035639307
 20
456.7156545173643
 30
0.0
 10
222.3990313181949
 20
457.1315069738829
 30
0.0
 10
221.6856718207026
 20
457.1980230185345
 30
0.0
 10
221.0488246437461
 20
457.1382428067796
 30
0.0
 10
220.3016787022484
 20
456.8335529449205
 30
0.0
 10
219.4991372531086
 20
456.3321004793598
 30
0.0
 10
218.6934953836988
 20
455.8505595385273
 30
0.0
 10
218.0083634013323
 20
455.6349660749394
 30
0.0
 10
217.5378203937159
 20
455.6267913377566
 30
0.0
 10
217.37122632489
 20
455.6331093487491
 30
0.0
 10
217.2873649720039
 20
455.6362897557895
 30
0.0
 11
232.2534276247656
 21
456.1761450985664
 31
0.0
 11
232.0007840504363
 21
456.0781972460719
 31
0.0
 11
231.7534276247656
 21
456.0193473624497
 31
0.0
 11
231.2247043265914
 21
456.1316694625375
 31
0.0
 11
230.719517994773
 21
456.4715006998229
 31
0.0
 11
230.2070628725834
 21
456.8644908667567
 31
0.0
 11
229.6565332032952
 21
457.1362897557899
 31
0.0
 11
229.3031819254032
 21
457.1784541299028
 31
0.0
 11
228.9494264221087
 21
457.1362897557895
 31
0.0
 11
228.0123500110628
 21
456.694077309966
 31
0.0
 11
227.145858641896
 21
456.0704460533221
 31
0.0
 11
226.2167004078795
 21
455.6362897557895
 31
0.0
 11
225.7858721455162
 21
455.593175567501
 31
0.0
 11
225.350675004095
 21
455.6362897557895
 31
0.0
 11
224.2654962696323
 21
456.0742638067847
 31
0.0
 11
223.244981484952
 21
456.6965539353728
 31
0.0
 11
222.1683481589333
 21
457.1362897557895
 31
0.0
 11
221.6864571183679
 21
457.1828511576733
 31
0.0
 11
221.2024223326442
 21
457.1362897557895
 31
0.0
 11
220.3237320402299
 21
456.8142382616736
 31
0.0
 11
219.4933591655255
 21
456.3322431603994
 31
0.0
 11
218.6637535342205
 21
455.8772713568202
 31
0.0
 11
217.787364972004
 21
455.6362897557895
 31
0.0
 11
217.5390600719757
 21
455.6290848367968
 31
0.0
 11
217.2873649720039
 21
455.6362897557895
 31
0.0
  0
SPLINE
  5
245
330
65
100
AcDbEntity
  8
1
  6
Continuous
 62
     7
100
AcDbSpline
210
0.0
220
0.0
230
1.0
 70
     8
 71
     3
 72
    31
 73
    27
 74
    25
 42
0.0000000001
 43
0.0000000001
 44
0.00000001
 40
0.0
 40
0.0
 40
0.0
 40
0.0
 40
0.2709659710336086
 40
0.525226683930649
 40
1.065749190585351
 40
1.674599336098054
 40
2.320394600531734
 40
2.934363290976326
 40
3.290221352613611
 40
3.646480795373372
 40
4.682658409192424
 40
5.750236620427498
 40
6.775822655106124
 40
7.208802821952904
 40
7.646130370974195
 40
8.816358620110059
 40
10.01163910179169
 40
11.17461240778433
 40
11.65874765657588
 40
12.14501675690603
 40
13.08086599414749
 40
14.04099014689901
 40
14.98716393936268
 40
15.89608035137164
 40
16.14448975988043
 40
16.39628796123922
 40
16.39628796123922
 40
16.39628796123922
 40
16.39628796123922
 10
202.3213023192425
 20
456.1761450985664
 30
0.0
 10
202.404698873638
 20
456.1418458155964
 30
0.0
 10
202.566350521442
 20
456.07536182653
 30
0.0
 10
202.913069650891
 20
455.9781955314135
 30
0.0
 10
203.393214045965
 20
456.1099774387932
 30
0.0
 10
203.8673517097364
 20
456.4770159342199
 30
0.0
 10
204.3458240513471
 20
456.8719636853639
 30
0.0
 10
204.8263436321612
 20
457.1441420304748
 30
0.0
 10
205.2722172314006
 20
457.1924015770608
 30
0.0
 10
205.8547988486462
 20
457.1190478382187
 30
0.0
 10
206.595542883256
 20
456.7112492131494
 30
0.0
 10
207.3924614369852
 20
456.0552858052163
 30
0.0
 10
208.1550771579353
 20
455.6369346683605
 30
0.0
 10
208.7906580410166
 20
455.5792777705778
 30
0.0
 10
209.4714813797854
 20
455.6476215558026
 30
0.0
 10
210.3384515445713
 20
456.0528311567626
 30
0.0
 10
211.2990263800774
 20
456.7156545173646
 30
0.0
 10
212.1756986258131
 20
457.1315069738827
 30
0.0
 10
212.8890581233053
 20
457.1980230185345
 30
0.0
 10
213.5259053002618
 20
457.1382428067797
 30
0.0
 10
214.2730512417594
 20
456.8335529449205
 30
0.0
 10
215.0755926908994
 20
456.3321004793604
 30
0.0
 10
215.8812345603092
 20
455.8505595385279
 30
0.0
 10
216.5663665426756
 20
455.6349660749398
 30
0.0
 10
217.036909550292
 20
455.6267913377569
 30
0.0
 10
217.2035036191179
 20
455.6331093487493
 30
0.0
 10
217.2873649720039
 20
455.6362897557895
 30
0.0
 11
202.3213023192425
 21
456.1761450985664
 31
0.0
 11
202.5739458935719
 21
456.0781972460719
 31
0.0
 11
202.8213023192425
 21
456.0193473624497
 31
0.0
 11
203.3500256174167
 21
456.1316694625373
 31
0.0
 11
203.855211949235
 21
456.4715006998226
 31
0.0
 11
204.3676670714247
 21
456.8644908667562
 31
0.0
 11
204.9181967407128
 21
457.1362897557895
 31
0.0
 11
205.2715480186048
 21
457.1784541299026
 31
0.0
 11
205.6253035218993
 21
457.1362897557895
 31
0.0
 11
206.5623799329452
 21
456.6940773099662
 31
0.0
 11
207.428871302112
 21
456.0704460533221
 31
0.0
 11
208.3580295361284
 21
455.6362897557895
 31
0.0
 11
208.7888577984916
 21
455.5931755675011
 31
0.0
 11
209.2240549399128
 21
455.6362897557899
 31
0.0
 11
210.3092336743756
 21
456.0742638067852
 31
0.0
 11
211.329748459056
 21
456.6965539353731
 31
0.0
 11
212.4063817850747
 21
457.1362897557895
 31
0.0
 11
212.88827282564
 21
457.1828511576733
 31
0.0
 11
213.3723076113636
 21
457.1362897557895
 31
0.0
 11
214.2509979037779
 21
456.8142382616737
 31
0.0
 11
215.0813707784824
 21
456.3322431603999
 31
0.0
 11
215.9109764097875
 21
455.8772713568209
 31
0.0
 11
216.7873649720039
 21
455.6362897557899
 31
0.0
 11
217.0356698720321
 21
455.6290848367971
 31
0.0
 11
217.2873649720039
 21
455.6362897557895
 31
0.0
  0
ARC
  5
246
330
65
100
AcDbEntity
  8
1
  6
Continuous
 62
     7
100
AcDbCircle
 10
199.0241979651528
 20
452.1362897557895
 30
0.0
 40
5.000000000000385
100
AcDbArc
 50
64.15806723683424
 51
90.0
  0
ARC
  5
247
330
65
100
AcDbEntity
  8
1
  6
Continuous
 62
     7
100
AcDbCircle
 10
235.5505319788553
 20
452.1362897557895
 30
0.0
 40
5.0
100
AcDbArc
 50
90.0
 51
115.8419327631658
  0
ENDBLK
  5
67
330
65
100
AcDbEntity
  8
0
100
AcDbBlockEnd
  0
BLOCK
  5
69
330
68
100
AcDbEntity
  8
0
100
AcDbBlockBegin
  2
32-25__10
 70
     0
 71
     0
 10
328.6321964242621
 20
423.7137131666524
 30
0.0
  3
32-25__10
  1

  0
LINE
  5
248
330
68
100
AcDbEntity
  8
1
  6
Continuous
 62
     7
100
AcDbLine
 10
787.0625463804641
 20
455.6362897557895
 30
0.0
 11
786.7873649720042
 21
455.6362897557895
 31
0.0
  0
LINE
  5
249
330
68
100
AcDbEntity
  8
1
  6
Continuous
 62
     7
100
AcDbLine
 10
413.3591617417284
 20
450.7043851838649
 30
0.0
 11
413.3591617417284
 21
455.6362897557895
 31
0.0
  0
LINE
  5
24A
330
68
100
AcDbEntity
  8
1
  6
Continuous
 62
     7
100
AcDbLine
 10
427.2155682022794
 20
450.7043851838649
 30
0.0
 11
427.2155682022794
 21
455.6362897557895
 31
0.0
  0
LINE
  5
24B
330
68
100
AcDbEntity
  8
1
  6
Continuous
 62
     7
100
AcDbLine
 10
409.8982655824868
 20
449.6362897557895
 30
0.0
 11
408.287364972004
 21
449.6362897557895
 31
0.0
  0
LINE
  5
24C
330
68
100
AcDbEntity
  8
1
  6
Continuous
 62
     7
100
AcDbLine
 10
430.5880637510378
 20
449.6362897557895
 30
0.0
 11
420.2873649720038
 21
449.6362897557895
 31
0.0
  0
LINE
  5
24D
330
68
100
AcDbEntity
  8
1
  6
Continuous
 62
     7
100
AcDbLine
 10
420.2873649720038
 20
449.6362897557895
 30
0.0
 11
409.8982655824868
 21
449.6362897557895
 31
0.0
  0
LINE
  5
24E
330
68
100
AcDbEntity
  8
1
  6
Continuous
 62
     7
100
AcDbLine
 10
407.2353350987714
 20
450.2436794862958
 30
0.0
 11
406.4373694232455
 21
450.7043851838649
 31
0.0
  0
LINE
  5
24F
330
68
100
AcDbEntity
  8
1
  6
Continuous
 62
     7
100
AcDbLine
 10
433.3362267289917
 20
450.2418503735292
 30
0.0
 11
432.2873649720038
 21
449.6362897557895
 31
0.0
  0
LINE
  5
250
330
68
100
AcDbEntity
  8
1
  6
Continuous
 62
     7
100
AcDbLine
 10
430.7648649720039
 20
449.6362897557895
 30
0.0
 11
430.5880637510378
 21
449.6362897557895
 31
0.0
  0
LINE
  5
251
330
68
100
AcDbEntity
  8
1
  6
Continuous
 62
     7
100
AcDbLine
 10
406.4373694232455
 20
450.7043851838649
 30
0.0
 11
406.4373694232453
 21
455.6362897557895
 31
0.0
  0
LINE
  5
252
330
68
100
AcDbEntity
  8
1
  6
Continuous
 62
     7
100
AcDbLine
 10
408.287364972004
 20
449.6362897557895
 30
0.0
 11
407.2353350987714
 21
450.2436794862958
 31
0.0
  0
LINE
  5
253
330
68
100
AcDbEntity
  8
1
  6
Continuous
 62
     7
100
AcDbLine
 10
409.787364972004
 20
455.6362897557895
 30
0.0
 11
406.4373694232453
 21
455.6362897557895
 31
0.0
  0
LINE
  5
254
330
68
100
AcDbEntity
  8
1
  6
Continuous
 62
     7
100
AcDbLine
 10
434.1373605207623
 20
450.7043851838649
 30
0.0
 11
433.3362267289917
 21
450.2418503735292
 31
0.0
  0
LINE
  5
255
330
68
100
AcDbEntity
  8
1
  6
Continuous
 62
     7
100
AcDbLine
 10
434.1373605207623
 20
455.6362897557895
 30
0.0
 11
434.1373605207623
 21
450.7043851838649
 31
0.0
  0
LINE
  5
256
330
68
100
AcDbEntity
  8
1
  6
Continuous
 62
     7
100
AcDbLine
 10
434.1373605207623
 20
455.6362897557895
 30
0.0
 11
430.7873649720038
 21
455.6362897557895
 31
0.0
  0
LINE
  5
257
330
68
100
AcDbEntity
  8
1
  6
Continuous
 62
     7
100
AcDbLine
 10
432.2873649720038
 20
449.6362897557895
 30
0.0
 11
430.7873649720038
 21
449.6362897557895
 31
0.0
  0
LINE
  5
258
330
68
100
AcDbEntity
  8
1
  6
Continuous
 62
     7
100
AcDbLine
 10
786.7873649720042
 20
449.6362897557895
 30
0.0
 11
809.0880637510383
 21
449.6362897557895
 31
0.0
  0
LINE
  5
259
330
68
100
AcDbEntity
  8
1
  6
Continuous
 62
     7
100
AcDbLine
 10
809.2648649720042
 20
449.6362897557895
 30
0.0
 11
809.0880637510383
 21
449.6362897557895
 31
0.0
  0
LINE
  5
25A
330
68
100
AcDbEntity
  8
1
  6
Continuous
 62
     7
100
AcDbLine
 10
810.7873649720042
 20
449.6362897557895
 30
0.0
 11
809.2873649720042
 21
449.6362897557895
 31
0.0
  0
LINE
  5
25B
330
68
100
AcDbEntity
  8
1
  6
Continuous
 62
     7
100
AcDbLine
 10
810.7873649720042
 20
449.6362897557895
 30
0.0
 11
810.7873649720042
 21
450.7043851838649
 31
0.0
  0
LINE
  5
25C
330
68
100
AcDbEntity
  8
1
  6
Continuous
 62
     7
100
AcDbLine
 10
810.7873649720042
 20
455.6362897557895
 30
0.0
 11
810.5121835635446
 21
455.6362897557895
 31
0.0
  0
LINE
  5
25D
330
68
100
AcDbEntity
  8
1
  6
Continuous
 62
     7
100
AcDbLine
 10
786.7873649720042
 20
449.6362897557895
 30
0.0
 11
786.7873649720042
 21
450.7043851838649
 31
0.0
  0
LINE
  5
25E
330
68
100
AcDbEntity
  8
1
  6
Continuous
 62
     7
100
AcDbLine
 10
810.7873649720042
 20
450.7043851838649
 30
0.0
 11
810.7873649720042
 21
455.6362897557895
 31
0.0
  0
LINE
  5
25F
330
68
100
AcDbEntity
  8
1
  6
Continuous
 62
     7
100
AcDbLine
 10
786.7873649720042
 20
450.7043851838649
 30
0.0
 11
786.7873649720042
 21
455.6362897557895
 31
0.0
  0
LINE
  5
260
330
68
100
AcDbEntity
  8
1
  6
Continuous
 62
     7
100
AcDbLine
 10
798.7873649720042
 20
450.7043851838649
 30
0.0
 11
798.7873649720042
 21
455.6362897557895
 31
0.0
  0
ARC
  5
261
330
68
100
AcDbEntity
  8
1
  6
Continuous
 62
     7
100
AcDbCircle
 10
409.8982655824868
 20
455.777421776253
 30
0.0
 40
6.141132020463465
100
AcDbArc
 50
-115.6976475036672
 51
-90.0
  0
ARC
  5
262
330
68
100
AcDbEntity
  8
1
  6
Continuous
 62
     7
100
AcDbCircle
 10
430.6764643615207
 20
455.7737635507197
 30
0.0
 40
6.138110397458544
100
AcDbArc
 50
-90.82519809322565
 51
-89.17480190677118
  0
ARC
  5
263
330
68
100
AcDbEntity
  8
1
  6
Continuous
 62
     7
100
AcDbCircle
 10
430.6764643615207
 20
455.7737635507197
 30
0.0
 40
6.138110397458381
100
AcDbArc
 50
-124.3215966385198
 51
-90.82519809322565
  0
ARC
  5
264
330
68
100
AcDbEntity
  8
1
  6
Continuous
 62
     7
100
AcDbCircle
 10
420.2873649720038
 20
472.6402398485384
 30
0.0
 40
23.00395009274878
100
AcDbArc
 50
-107.5281601363348
 51
-90.0
  0
ARC
  5
265
330
68
100
AcDbEntity
  8
1
  6
Continuous
 62
     7
100
AcDbCircle
 10
430.6764643615207
 20
455.7737635507197
 30
0.0
 40
6.138110397458548
100
AcDbArc
 50
-89.17480190677118
 51
-64.32159663852004
  0
ARC
  5
266
330
68
100
AcDbEntity
  8
1
  6
Continuous
 62
     7
100
AcDbCircle
 10
409.8982655824868
 20
455.777421776253
 30
0.0
 40
6.141132020463488
100
AcDbArc
 50
-90.0
 51
-55.69764750366615
  0
ARC
  5
267
330
68
100
AcDbEntity
  8
1
  6
Continuous
 62
     7
100
AcDbCircle
 10
420.2873649720038
 20
472.6402398485384
 30
0.0
 40
23.00395009274888
100
AcDbArc
 50
-90.0
 51
-72.47183986366454
  0
ARC
  5
268
330
68
100
AcDbEntity
  8
1
  6
Continuous
 62
     7
100
AcDbCircle
 10
809.1764643615211
 20
455.7737635507197
 30
0.0
 40
6.138110397458543
100
AcDbArc
 50
-90.82519809322511
 51
-89.17480190677277
  0
ARC
  5
269
330
68
100
AcDbEntity
  8
1
  6
Continuous
 62
     7
100
AcDbCircle
 10
804.7873649720042
 20
467.0227642538605
 30
0.0
 40
17.38647449807094
100
AcDbArc
 50
-110.1876462291006
 51
-69.81235377089945
  0
ARC
  5
26A
330
68
100
AcDbEntity
  8
1
  6
Continuous
 62
     7
100
AcDbCircle
 10
792.7873649720042
 20
467.0227642538605
 30
0.0
 40
17.38647449807094
100
AcDbArc
 50
-110.1876462291006
 51
-69.81235377089945
  0
ENDBLK
  5
6A
330
68
100
AcDbEntity
  8
0
100
AcDbBlockEnd
  0
BLOCK
  5
6C
330
6B
100
AcDbEntity
  8
0
100
AcDbBlockBegin
  2
92-53__11
 70
     0
 71
     0
 10
120.4987053000016
 20
275.4522930483092
 30
0.0
  3
92-53__11
  1

  0
LINE
  5
26B
330
6B
100
AcDbEntity
  8
1
  6
Continuous
 62
     7
100
AcDbLine
 10
780.2873649720041
 20
459.6362897557894
 30
0.0
 11
780.2873649720041
 21
458.1362897557895
 31
0.0
  0
LINE
  5
26C
330
6B
100
AcDbEntity
  8
1
  6
Continuous
 62
     7
100
AcDbLine
 10
780.2873649720041
 20
459.6362897557894
 30
0.0
 11
817.2873649720041
 21
459.6362897557894
 31
0.0
  0
LINE
  5
26D
330
6B
100
AcDbEntity
  8
1
  6
Continuous
 62
     7
100
AcDbLine
 10
401.7873649720041
 20
459.6362897557894
 30
0.0
 11
401.787364972004
 21
458.1362897557895
 31
0.0
  0
LINE
  5
26E
330
6B
100
AcDbEntity
  8
1
  6
Continuous
 62
     7
100
AcDbLine
 10
401.7873649720041
 20
459.6362897557894
 30
0.0
 11
438.7873649720038
 21
459.6362897557894
 31
0.0
  0
LINE
  5
26F
330
6B
100
AcDbEntity
  8
1
  6
Continuous
 62
     7
100
AcDbLine
 10
788.2873649720041
 20
458.1362897557895
 30
0.0
 11
817.287364972004
 21
458.1362897557895
 31
0.0
  0
LINE
  5
270
330
6B
100
AcDbEntity
  8
1
  6
Continuous
 62
     7
100
AcDbLine
 10
817.287364972004
 20
458.1362897557895
 30
0.0
 11
817.2873649720041
 21
459.6362897557894
 31
0.0
  0
LINE
  5
271
330
6B
100
AcDbEntity
  8
1
  6
Continuous
 62
     7
100
AcDbLine
 10
780.2873649720041
 20
458.1362897557895
 30
0.0
 11
788.2873649720041
 21
458.1362897557895
 31
0.0
  0
LINE
  5
272
330
6B
100
AcDbEntity
  8
1
  6
Continuous
 62
     7
100
AcDbLine
 10
409.787364972004
 20
458.1362897557895
 30
0.0
 11
438.7873649720038
 21
458.1362897557895
 31
0.0
  0
LINE
  5
273
330
6B
100
AcDbEntity
  8
1
  6
Continuous
 62
     7
100
AcDbLine
 10
438.7873649720038
 20
458.1362897557895
 30
0.0
 11
438.7873649720038
 21
459.6362897557894
 31
0.0
  0
LINE
  5
274
330
6B
100
AcDbEntity
  8
1
  6
Continuous
 62
     7
100
AcDbLine
 10
401.787364972004
 20
458.1362897557895
 30
0.0
 11
409.787364972004
 21
458.1362897557895
 31
0.0
  0
ENDBLK
  5
6D
330
6B
100
AcDbEntity
  8
0
100
AcDbBlockEnd
  0
BLOCK
  5
6F
330
6E
100
AcDbEntity
  8
0
100
AcDbBlockBegin
  2
98-119
 70
     0
 71
     0
 10
197.787364972004
 20
475.1362897557893
 30
0.0
  3
98-119
  1

  0
LINE
  5
275
330
6E
100
AcDbEntity
  8
1
  6
Continuous
 62
     7
100
AcDbLine
 10
788.5373649720042
 20
474.6362897557897
 30
0.0
 11
775.7873649720042
 21
474.6362897557897
 31
0.0
  0
LINE
  5
276
330
6E
100
AcDbEntity
  8
1
  6
Continuous
 62
     7
100
AcDbLine
 10
430.5373649720041
 20
474.6362897557897
 30
0.0
 11
439.7873649720041
 21
474.6362897557897
 31
0.0
  0
LINE
  5
277
330
6E
100
AcDbEntity
  8
1
  6
Continuous
 62
     7
100
AcDbLine
 10
439.7873649720041
 20
474.6362897557897
 30
0.0
 11
439.7873649720041
 21
475.6362897557893
 31
0.0
  0
LINE
  5
278
330
6E
100
AcDbEntity
  8
1
  6
Continuous
 62
     7
100
AcDbLine
 10
410.037364972004
 20
474.6362897557897
 30
0.0
 11
227.5373649720039
 21
474.6362897557897
 31
0.0
  0
LINE
  5
279
330
6E
100
AcDbEntity
  8
1
  6
Continuous
 62
     7
100
AcDbLine
 10
197.787364972004
 20
475.6362897557893
 30
0.0
 11
197.787364972004
 21
474.6362897557897
 31
0.0
  0
LINE
  5
27A
330
6E
100
AcDbEntity
  8
1
  6
Continuous
 62
     7
100
AcDbLine
 10
197.787364972004
 20
474.6362897557897
 30
0.0
 11
207.0373649720041
 21
474.6362897557897
 31
0.0
  0
LINE
  5
27B
330
6E
100
AcDbEntity
  8
1
  6
Continuous
 62
     7
100
AcDbLine
 10
775.7873649720042
 20
475.6362897557893
 30
0.0
 11
775.7873649720042
 21
474.6362897557897
 31
0.0
  0
LINE
  5
27C
330
6E
100
AcDbEntity
  8
1
  6
Continuous
 62
     7
100
AcDbLine
 10
821.7873649720042
 20
474.6362897557897
 30
0.0
 11
821.7873649720042
 21
475.6362897557893
 31
0.0
  0
LINE
  5
27D
330
6E
100
AcDbEntity
  8
1
  6
Continuous
 62
     7
100
AcDbLine
 10
821.7873649720042
 20
474.6362897557897
 30
0.0
 11
809.0373649720041
 21
474.6362897557897
 31
0.0
  0
ENDBLK
  5
70
330
6E
100
AcDbEntity
  8
0
100
AcDbBlockEnd
  0
BLOCK
  5
72
330
71
100
AcDbEntity
  8
0
100
AcDbBlockBegin
  2
82-20-M21
 70
     0
 71
     0
 10
316.345770524076
 20
142.1104655659787
 30
0.0
  3
82-20-M21
  1

  0
LINE
  5
27E
330
71
100
AcDbEntity
  8
1
  6
Continuous
 62
     7
100
AcDbLine
 10
531.4581913271775
 20
662.1685821825354
 30
0.0
 11
534.188848690276
 21
661.8815785286148
 31
0.0
  0
LINE
  5
27F
330
71
100
AcDbEntity
  8
1
  6
Continuous
 62
     7
100
AcDbLine
 10
555.9667761067829
 20
672.9658862400304
 30
0.0
 11
554.9423971667618
 21
663.2195716654211
 31
0.0
  0
LINE
  5
280
330
71
100
AcDbEntity
  8
1
  6
Continuous
 62
     7
100
AcDbLine
 10
554.9423971667618
 20
663.2195716654211
 30
0.0
 11
553.8639252840569
 21
660.5429185603276
 31
0.0
  0
LINE
  5
281
330
71
100
AcDbEntity
  8
1
  6
Continuous
 62
     7
100
AcDbLine
 10
530.0793497825541
 20
665.8327832471076
 30
0.0
 11
530.5777469942698
 21
662.9903945217312
 31
0.0
  0
LINE
  5
282
330
71
100
AcDbEntity
  8
1
  6
Continuous
 62
     7
100
AcDbLine
 10
531.1037287225761
 20
675.5790978217168
 30
0.0
 11
530.0793497825541
 21
665.8327832471076
 31
0.0
  0
LINE
  5
283
330
71
100
AcDbEntity
  8
1
  6
Continuous
 62
     7
100
AcDbLine
 10
550.1011990161685
 20
660.2091231163356
 30
0.0
 11
552.8318563792661
 21
659.9221194624153
 31
0.0
  0
LINE
  5
284
330
71
100
AcDbEntity
  8
1
  6
Continuous
 62
     7
100
AcDbLine
 10
534.188848690276
 20
661.8815785286148
 30
0.0
 11
542.1450238532218
 21
661.0453508224754
 31
0.0
  0
LINE
  5
285
330
71
100
AcDbEntity
  8
1
  6
Continuous
 62
     7
100
AcDbLine
 10
542.1450238532218
 20
661.0453508224754
 30
0.0
 11
550.1011990161685
 21
660.2091231163356
 31
0.0
  0
LINE
  5
286
330
71
100
AcDbEntity
  8
1
  6
Continuous
 62
     7
100
AcDbLine
 10
530.0793497825541
 20
665.8327832471076
 30
0.0
 11
554.9423971667618
 21
663.2195716654211
 31
0.0
  0
LINE
  5
287
330
71
100
AcDbEntity
  8
1
  6
Continuous
 62
     7
100
AcDbLine
 10
531.323538794303
 20
675.757096508137
 30
0.0
 11
555.7887774203625
 21
673.1856963117575
 31
0.0
  0
LINE
  5
288
330
71
100
AcDbEntity
  8
1
  6
Continuous
 62
     7
100
AcDbLine
 10
306.287364972005
 20
674.4713964099481
 30
0.0
 11
306.2873649720038
 21
664.5261774562644
 31
0.0
  0
LINE
  5
289
330
71
100
AcDbEntity
  8
1
  6
Continuous
 62
     7
100
AcDbLine
 10
331.2873649720044
 20
674.4713964099474
 30
0.0
 11
331.2873649720041
 21
664.5261774562644
 31
0.0
  0
LINE
  5
28A
330
71
100
AcDbEntity
  8
1
  6
Continuous
 62
     7
100
AcDbLine
 10
306.2873649720038
 20
664.5261774562644
 30
0.0
 11
306.9664417262724
 21
661.0453508224754
 31
0.0
  0
LINE
  5
28B
330
71
100
AcDbEntity
  8
1
  6
Continuous
 62
     7
100
AcDbLine
 10
331.2873649720041
 20
664.5261774562644
 30
0.0
 11
330.6082882177356
 21
661.0453508224754
 31
0.0
  0
SPLINE
  5
28C
330
71
100
AcDbEntity
  8
1
  6
Continuous
 62
     7
100
AcDbSpline
210
0.0
220
0.0
230
1.0
 70
     8
 71
     3
 72
    43
 73
    39
 74
    37
 42
0.0000000001
 43
0.0000000001
 44
0.00000001
 40
0.0
 40
0.0
 40
0.0
 40
0.0
 40
0.2318307229146926
 40
0.4415720784544304
 40
0.799936730630112
 40
1.162959137108324
 40
1.684959041216324
 40
2.205541504920434
 40
2.869354267635294
 40
3.533394311546334
 40
4.322290042160785
 40
5.111109156236081
 40
6.001345595101682
 40
6.891582172344628
 40
7.856662958964765
 40
8.821736654542269
 40
9.832674747314901
 40
10.843610954309
 40
11.8699968133456
 40
12.89638267238227
 40
13.90731887937642
 40
14.91825697214894
 40
15.88333066772632
 40
16.84841145434645
 40
17.73864803158941
 40
18.62888447045507
 40
19.41770358453035
 40
20.20659931514487
 40
20.87063935905578
 40
21.53445212177073
 40
22.05503458547486
 40
22.57703448958275
 40
22.94005689606096
 40
23.29842154823673
 40
23.50816290377648
 40
23.73999362669126
 40
23.80818871458927
 40
23.86185055091775
 40
23.86185055091775
 40
23.86185055091775
 40
23.86185055091775
 10
330.5487738944361
 20
661.1484666896411
 30
0.0
 10
330.4879079312685
 20
661.1968932141571
 30
0.0
 10
330.371975454653
 20
661.2891320719498
 30
0.0
 10
330.119274365923
 20
661.3829213600802
 30
0.0
 10
329.8159927617917
 20
661.4474483659971
 30
0.0
 10
329.4115573264559
 20
661.5386817847113
 30
0.0
 10
328.9504557637993
 20
661.6225769506741
 30
0.0
 10
328.3875238826836
 20
661.7046158613841
 30
0.0
 10
327.7755400062438
 20
661.7765640971828
 30
0.0
 10
327.0736028357918
 20
661.8483832554916
 30
0.0
 10
326.3290359877987
 20
661.9120872547196
 30
0.0
 10
325.5084957684867
 20
661.9712351580683
 30
0.0
 10
324.6535539680872
 20
662.0220713631328
 30
0.0
 10
323.7394526179692
 20
662.0668794578824
 30
0.0
 10
322.8000144065769
 20
662.1033532458509
 30
0.0
 10
321.8200709505173
 20
662.1324942344933
 30
0.0
 10
320.8246236654812
 20
662.1531780835228
 30
0.0
 10
319.8086042297282
 20
662.1658341335739
 30
0.0
 10
318.7873649720087
 20
662.169966626664
 30
0.0
 10
317.7661257142609
 20
662.1658341336162
 30
0.0
 10
316.7501062785912
 20
662.1531780833553
 30
0.0
 10
315.7546589932559
 20
662.132494235107
 30
0.0
 10
314.7747155382626
 20
662.1033532436745
 30
0.0
 10
313.8352773230322
 20
662.0668794657519
 30
0.0
 10
312.9211759861791
 20
662.0220713362843
 30
0.0
 10
312.0662341389809
 20
661.9712352537047
 30
0.0
 10
311.2456940754324
 20
661.9120869426786
 30
0.0
 10
310.5011266912775
 20
661.8483843467401
 30
0.0
 10
309.7991912225165
 20
661.7765607346181
 30
0.0
 10
309.1872016797483
 20
661.7046273292244
 30
0.0
 10
308.6242866777974
 20
661.6225442409043
 30
0.0
 10
308.1631315143919
 20
661.5387893634581
 30
0.0
 10
307.758839142118
 20
661.4471815077225
 30
0.0
 10
307.4551422559466
 20
661.3837414138852
 30
0.0
 10
307.2034276870684
 20
661.2873701206587
 30
0.0
 10
307.0669143297687
 20
661.1878916247449
 30
0.0
 10
306.9778503175597
 20
661.1040784862233
 30
0.0
 10
306.9699297064544
 20
661.0633057936872
 30
0.0
 10
306.9664417262724
 20
661.0453508225812
 30
0.0
 11
330.5487738944361
 21
661.1484666896411
 31
0.0
 11
330.3596817753785
 21
661.2825922077107
 31
0.0
 11
330.1654648159852
 21
661.3617831725214
 31
0.0
 11
329.8175890586535
 21
661.4478510607836
 31
0.0
 11
329.4628544703903
 21
661.524978484538
 31
0.0
 11
328.94950716191
 21
661.6196275244949
 31
0.0
 11
328.4345033553584
 21
661.6956352922139
 31
0.0
 11
327.7754397367291
 21
661.7748977079124
 31
0.0
 11
327.1148471264137
 21
661.84247420615
 31
0.0
 11
326.3288754040879
 21
661.91033380743
 31
0.0
 11
325.5421127146065
 21
661.9672553777756
 31
0.0
 11
324.6534716874707
 21
662.020528654145
 31
0.0
 11
323.7643074508178
 21
662.0642107296302
 31
0.0
 11
322.7999626554209
 21
662.1018941516378
 31
0.0
 11
321.8353169778477
 21
662.1306335781285
 31
0.0
 11
320.8246000025986
 21
662.1517765051289
 31
0.0
 11
319.8137421627098
 21
662.1643638855901
 31
0.0
 11
318.787364972004
 21
662.1685821825354
 31
0.0
 11
317.7609877812981
 21
662.1643638855899
 31
0.0
 11
316.7501299414092
 21
662.1517765051284
 31
0.0
 11
315.7394129661602
 21
662.1306335781283
 31
0.0
 11
314.7747672885872
 21
662.1018941516378
 31
0.0
 11
313.8104224931902
 21
662.0642107296303
 31
0.0
 11
312.9212582565373
 21
662.020528654145
 31
0.0
 11
312.0326172294015
 21
661.9672553777755
 31
0.0
 11
311.2458545399201
 21
661.9103338074301
 31
0.0
 11
310.4598828175942
 21
661.84247420615
 31
0.0
 11
309.7992902072789
 21
661.7748977079125
 31
0.0
 11
309.1402265886495
 21
661.6956352922142
 31
0.0
 11
308.6252227820979
 21
661.6196275244955
 31
0.0
 11
308.1118754736177
 21
661.5249784845382
 31
0.0
 11
307.7571408853546
 21
661.4478510607836
 31
0.0
 11
307.4092651280228
 21
661.3617831725215
 31
0.0
 11
307.2150481686294
 21
661.282592207711
 31
0.0
 11
307.0259560495718
 21
661.1484666896412
 31
0.0
 11
306.9813203071278
 21
661.0969087561111
 31
0.0
 11
306.9664417262724
 21
661.0453508225812
 31
0.0
  0
SPLINE
  5
28D
330
71
100
AcDbEntity
  8
1
  6
Continuous
 62
     7
100
AcDbSpline
210
0.0
220
0.0
230
1.0
 70
     8
 71
     3
 72
    45
 73
    41
 74
    39
 42
0.0000000001
 43
0.0000000001
 44
0.00000001
 40
0.0
 40
0.0
 40
0.0
 40
0.0
 40
0.0610247928785807
 40
0.1364005621412819
 40
0.3842484357113213
 40
0.6104818055612148
 40
0.9930447554263993
 40
1.379335528015165
 40
1.932223375040983
 40
2.483948764957909
 40
3.186800877627688
 40
3.889794105536008
 40
4.724457479132118
 40
5.559056671656212
 40
6.500695680746075
 40
7.442328696515767
 40
8.462964465771499
 40
9.483592645125235
 40
10.55264079656092
 40
11.62168640671646
 40
12.70704318138015
 40
13.79239995604395
 40
14.86144556619943
 40
15.93049371763506
 40
16.95112189698875
 40
17.97175766624436
 40
18.91339068201406
 40
19.85502969110392
 40
20.68962888362806
 40
21.52429225722434
 40
22.22728548513263
 40
22.93013759780238
 40
23.48186298771919
 40
24.03475083474508
 40
24.42104160733389
 40
24.8036045571991
 40
25.02983792704879
 40
25.27768580061879
 40
25.35306156991193
 40
25.4140863627907
 40
25.4140863627907
 40
25.4140863627907
 40
25.4140863627907
 10
306.2873649720038
 20
674.4713964099474
 30
0.0
 10
306.2909365945981
 20
674.4918500264581
 30
0.0
 10
306.2989197651529
 20
674.5375672613443
 30
0.0
 10
306.3907588272498
 20
674.6329309700711
 30
0.0
 10
306.5345345247036
 20
674.7455976064064
 30
0.0
 10
306.8010369855041
 20
674.8563301228925
 30
0.0
 10
307.1240090246334
 20
674.9317781140874
 30
0.0
 10
307.5520187813372
 20
675.0364879891129
 30
0.0
 10
308.0399771022563
 20
675.1318292800493
 30
0.0
 10
308.6351663431969
 20
675.2258011156918
 30
0.0
 10
309.2825183631177
 20
675.3083816625992
 30
0.0
 10
310.0248383040596
 20
675.3905906844019
 30
0.0
 10
310.8122685170929
 20
675.463476522482
 30
0.0
 10
311.6799543610799
 20
675.5311838615177
 30
0.0
 10
312.5840660586515
 20
675.5893893468431
 30
0.0
 10
313.5506932536626
 20
675.6406796905924
 30
0.0
 10
314.5441347012898
 20
675.6824299218622
 30
0.0
 10
315.5803840929857
 20
675.7157867358178
 30
0.0
 10
316.633041039659
 20
675.7394639219617
 30
0.0
 10
317.707441185735
 20
675.7539507987784
 30
0.0
 10
318.7873649720041
 20
675.7586812710335
 30
0.0
 10
319.8672887582729
 20
675.7539507987785
 30
0.0
 10
320.9416889043491
 20
675.7394639219613
 30
0.0
 10
321.9943458510223
 20
675.715786735818
 30
0.0
 10
323.0305952427183
 20
675.6824299218619
 30
0.0
 10
324.0240366903452
 20
675.6406796905926
 30
0.0
 10
324.9906638853563
 20
675.5893893468425
 30
0.0
 10
325.894775582928
 20
675.5311838615177
 30
0.0
 10
326.762461426915
 20
675.4634765224821
 30
0.0
 10
327.5498916399484
 20
675.390590684402
 30
0.0
 10
328.2922115808902
 20
675.308381662599
 30
0.0
 10
328.939563600811
 20
675.2258011156916
 30
0.0
 10
329.5347528417517
 20
675.1318292800495
 30
0.0
 10
330.0227111626707
 20
675.0364879891124
 30
0.0
 10
330.4507209193748
 20
674.9317781140868
 30
0.0
 10
330.7736929585029
 20
674.8563301228918
 30
0.0
 10
331.0401954193066
 20
674.7455976064072
 30
0.0
 10
331.1839711167586
 20
674.6329309700627
 30
0.0
 10
331.2758101788755
 20
674.5375672613297
 30
0.0
 10
331.2837933494153
 20
674.4918500264294
 30
0.0
 10
331.287364972002
 20
674.4713964099167
 30
0.0
 11
306.2873649720038
 21
674.4713964099474
 31
0.0
 11
306.303007387308
 21
674.530382342078
 31
0.0
 11
306.3499346331776
 21
674.5893682741894
 31
0.0
 11
306.5465954407962
 21
674.7402095655521
 31
0.0
 11
306.7535348644016
 21
674.8316295447224
 31
0.0
 11
307.1226574685119
 21
674.9321427963085
 31
0.0
 11
307.4986218439408
 21
675.020863421845
 31
0.0
 11
308.0409123425541
 21
675.1285945060436
 31
0.0
 11
308.5857399205872
 21
675.2155647083746
 31
0.0
 11
309.2826916953674
 21
675.306445486954
 31
0.0
 11
309.9814114927204
 21
675.3838413736141
 31
0.0
 11
310.8124562544156
 21
675.4614786796064
 31
0.0
 11
311.6445080741476
 21
675.5266368060578
 31
0.0
 11
312.5841701348995
 21
675.587622337319
 31
0.0
 11
313.5244744428144
 21
675.6376277860628
 31
0.0
 11
314.5441984058836
 21
675.6807602868814
 31
0.0
 11
315.5642962565141
 21
675.7136579407461
 31
0.0
 11
316.6330704300433
 21
675.7378595127016
 31
0.0
 11
317.7020189379339
 21
675.752267984908
 31
0.0
 11
318.787364972004
 21
675.7570965081371
 31
0.0
 11
319.8727110060743
 21
675.752267984908
 31
0.0
 11
320.9416595139648
 21
675.7378595127016
 31
0.0
 11
322.0104336874939
 21
675.7136579407461
 31
0.0
 11
323.0305315381244
 21
675.6807602868812
 31
0.0
 11
324.0502555011934
 21
675.6376277860627
 31
0.0
 11
324.9905598091084
 21
675.5876223373188
 31
0.0
 11
325.9302218698603
 21
675.5266368060577
 31
0.0
 11
326.7622736895923
 21
675.4614786796064
 31
0.0
 11
327.5933184512877
 21
675.3838413736141
 31
0.0
 11
328.2920382486407
 21
675.3064454869538
 31
0.0
 11
328.9889900234208
 21
675.2155647083746
 31
0.0
 11
329.5338176014539
 21
675.1285945060436
 31
0.0
 11
330.0761081000671
 21
675.0208634218446
 31
0.0
 11
330.452072475496
 21
674.932142796308
 31
0.0
 11
330.8211950796064
 21
674.8316295447222
 31
0.0
 11
331.0281345032116
 21
674.7402095655519
 31
0.0
 11
331.2247953108299
 21
674.5893682741888
 31
0.0
 11
331.2717225567172
 21
674.5303823420527
 31
0.0
 11
331.287364972002
 21
674.4713964099167
 31
0.0
  0
SPLINE
  5
28E
330
71
100
AcDbEntity
  8
1
  6
Continuous
 62
     7
100
AcDbSpline
210
0.0
220
0.0
230
1.0
 70
     8
 71
     3
 72
    43
 73
    39
 74
    37
 42
0.0000000001
 43
0.0000000001
 44
0.00000001
 40
0.0
 40
0.0
 40
0.0
 40
0.0
 40
0.248468695102457
 40
0.4756776002629884
 40
0.8590104299735175
 40
1.245834300511797
 40
1.798935425458053
 40
2.350938867127106
 40
3.053990033242239
 40
3.757162933004952
 40
4.591927242329264
 40
5.426630490358485
 40
6.368327741285041
 40
7.310017764956156
 40
8.330679060628668
 40
9.351332719010649
 40
10.4203886225364
 40
11.48944186755693
 40
12.5748004581415
 40
13.66015904872613
 40
14.72921229374666
 40
15.79826819727235
 40
16.81892185565427
 40
17.83958315132674
 40
18.78127317499803
 40
19.72297042592446
 40
20.55767367395367
 40
21.39243798327798
 40
22.09561088304071
 40
22.79866204915593
 40
23.35066549082509
 40
23.90376661577137
 40
24.29059048630948
 40
24.67392331601998
 40
24.90113222118047
 40
25.1496009162832
 40
25.22568697377019
 40
25.28762725723727
 40
25.28762725723727
 40
25.28762725723727
 40
25.28762725723727
 10
331.2248751418699
 20
664.6460530175432
 30
0.0
 10
331.1621274429557
 20
664.7010048918745
 30
0.0
 10
331.042000942395
 20
664.8062067793843
 30
0.0
 10
330.7738464286967
 20
664.9159590286271
 30
0.0
 10
330.4511642726638
 20
664.9944185297271
 30
0.0
 10
330.0228258888528
 20
665.1003929406789
 30
0.0
 10
329.5348791827387
 20
665.1973319979942
 30
0.0
 10
328.9396741341241
 20
665.2927876525239
 30
0.0
 10
328.2922864379144
 20
665.3767771184571
 30
0.0
 10
327.5499513275865
 20
665.4603174448605
 30
0.0
 10
326.7625017927359
 20
665.5343840095201
 30
0.0
 10
325.8948136415518
 20
665.6031926295793
 30
0.0
 10
324.9906895465268
 20
665.6623481234324
 30
0.0
 10
324.0240593757702
 20
665.7144726496415
 30
0.0
 10
323.0306100367367
 20
665.7569019748465
 30
0.0
 10
321.9943581488313
 20
665.7908013424478
 30
0.0
 10
320.9416957944551
 20
665.8148638652314
 30
0.0
 10
319.8672926469122
 20
665.8295863477683
 30
0.0
 10
318.7873649720114
 20
665.8343937943947
 30
0.0
 10
317.7074372970666
 20
665.8295863478143
 30
0.0
 10
316.6330341496537
 20
665.8148638650509
 30
0.0
 10
315.5803717948091
 20
665.7908013431112
 30
0.0
 10
314.544119908574
 20
665.7569019724953
 30
0.0
 10
313.5506705635276
 20
665.7144726581447
 30
0.0
 10
312.5840404135552
 20
665.6623480944149
 30
0.0
 10
311.6799162451923
 20
665.6031927329543
 30
0.0
 10
310.8122283381811
 20
665.5343836721061
 30
0.0
 10
310.0247779626163
 20
665.460318625131
 30
0.0
 10
309.2824455225359
 20
665.3767734783121
 30
0.0
 10
308.6350489288568
 20
665.29280007437
 30
0.0
 10
308.0398704076522
 20
665.1972965317275
 30
0.0
 10
307.5518393725279
 20
665.1005097077851
 30
0.0
 10
307.1237273808131
 20
664.9941266067251
 30
0.0
 10
306.8003826720197
 20
664.9168631666378
 30
0.0
 10
306.5338152542871
 20
664.8042458420046
 30
0.0
 10
306.3901706613002
 20
664.689985408147
 30
0.0
 10
306.2988203602539
 20
664.5932169706775
 30
0.0
 10
306.2909133141207
 20
664.5469431543831
 30
0.0
 10
306.2873649720037
 20
664.5261774564842
 30
0.0
 11
331.2248751418699
 21
664.6460530175432
 31
0.0
 11
331.0288929689752
 21
664.7987870358671
 31
0.0
 11
330.8216219431872
 21
664.8918601708365
 31
0.0
 11
330.4522621877773
 21
664.9944146900809
 31
0.0
 11
330.0761152569497
 21
665.084670954391
 31
0.0
 11
329.5339332346093
 21
665.1940304947507
 31
0.0
 11
328.98905076124
 21
665.2824097334295
 31
0.0
 11
328.292096585567
 21
665.3747992306018
 31
0.0
 11
327.5933376063046
 21
665.4534631731733
 31
0.0
 11
326.7623096261142
 21
665.5323551769654
 31
0.0
 11
325.9302371375015
 21
665.5985736484404
 31
0.0
 11
324.9905816789366
 21
665.6605521252835
 31
0.0
 11
324.050263933035
 21
665.7113717811681
 31
0.0
 11
323.030544312991
 21
665.7552052955291
 31
0.0
 11
322.0104383704336
 21
665.7886381585159
 31
0.0
 11
320.9416654284165
 21
665.8132333465682
 31
0.0
 11
319.8727124698031
 21
665.8278761933098
 31
0.0
 11
318.787364972004
 21
665.8327832471078
 31
0.0
 11
317.7020174742049
 21
665.8278761933098
 31
0.0
 11
316.6330645155915
 21
665.8132333465682
 31
0.0
 11
315.5642915735745
 21
665.7886381585161
 31
0.0
 11
314.5441856310171
 21
665.7552052955293
 31
0.0
 11
313.5244660109731
 21
665.7113717811681
 31
0.0
 11
312.5841482650714
 21
665.6605521252833
 31
0.0
 11
311.6444928065066
 21
665.5985736484404
 31
0.0
 11
310.8124203178939
 21
665.5323551769657
 31
0.0
 11
309.9813923377035
 21
665.4534631731735
 31
0.0
 11
309.2826333584411
 21
665.3747992306019
 31
0.0
 11
308.585679182768
 21
665.2824097334294
 31
0.0
 11
308.0407967093986
 21
665.1940304947506
 31
0.0
 11
307.4986146870582
 21
665.0846709543907
 31
0.0
 11
307.1224677562307
 21
664.9944146900809
 31
0.0
 11
306.7531080008209
 21
664.8918601708366
 31
0.0
 11
306.5458369750328
 21
664.7987870358674
 31
0.0
 11
306.3498548021379
 21
664.6460530175432
 31
0.0
 11
306.3029874295946
 21
664.5861152370137
 31
0.0
 11
306.2873649720037
 21
664.5261774564842
 31
0.0
  0
SPLINE
  5
28F
330
71
100
AcDbEntity
  8
1
  6
Continuous
 62
     7
100
AcDbSpline
210
0.0
220
0.0
230
1.0
 70
     8
 71
     3
 72
     9
 73
     5
 74
     3
 42
0.0000000001
 43
0.0000000001
 44
0.00000001
 40
0.0
 40
0.0
 40
0.0
 40
0.0
 40
0.061940283511451
 40
0.1380263410572323
 40
0.1380263410572323
 40
0.1380263410572323
 40
0.1380263410572323
 10
331.2873649720041
 20
664.5261774563782
 30
0.0
 10
331.2838426750197
 20
664.5469901717628
 30
0.0
 10
331.275993667277
 20
664.5933687607708
 30
0.0
 10
331.2430404003564
 20
664.6273313675187
 30
0.0
 10
331.2248751418699
 20
664.6460530175432
 30
0.0
 11
331.2873649720041
 21
664.5261774563782
 31
0.0
 11
331.2717425144409
 21
664.5861152369607
 31
0.0
 11
331.2248751418699
 21
664.6460530175432
 31
0.0
  0
SPLINE
  5
290
330
71
100
AcDbEntity
  8
1
  6
Continuous
 62
     7
100
AcDbSpline
210
0.0
220
0.0
230
1.0
 70
     8
 71
     3
 72
    45
 73
    41
 74
    39
 42
0.0000000001
 43
0.0000000001
 44
0.00000001
 40
0.0
 40
0.0
 40
0.0
 40
0.0
 40
0.0536618363920506
 40
0.1218569243800042
 40
0.3536876472948014
 40
0.5634290028344104
 40
0.9217936550101478
 40
1.284816061488353
 40
1.806815965596338
 40
2.327398429300448
 40
2.991211192015407
 40
3.655251235926379
 40
4.444146966540839
 40
5.232966080616176
 40
6.123202519481771
 40
7.01343909672471
 40
7.978519883344847
 40
8.943593578922297
 40
9.954531671694872
 40
10.96546787868903
 40
11.99185373772569
 40
13.01823959676229
 40
14.02917580375633
 40
15.04011389652897
 40
16.00518759210642
 40
16.9702683787265
 40
17.8605049559695
 40
18.75074139483521
 40
19.53956050891049
 40
20.328456239525
 40
20.99249628343594
 40
21.65630904615076
 40
22.17689150985491
 40
22.69889141396292
 40
23.06191382044118
 40
23.42027847261697
 40
23.63001982815658
 40
23.86185055107131
 40
23.93004563895927
 40
23.98370747528077
 40
23.98370747528077
 40
23.98370747528077
 40
23.98370747528077
 10
306.9664417262724
 20
661.0453508225284
 30
0.0
 10
306.9699297064337
 20
661.0273958513944
 30
0.0
 10
306.9778503174923
 20
660.9866231587918
 30
0.0
 10
307.0669143297519
 20
660.9028100202168
 30
0.0
 10
307.2034276870658
 20
660.8033315242942
 30
0.0
 10
307.4551422559477
 20
660.7069602310646
 30
0.0
 10
307.7588391421174
 20
660.6435201372289
 30
0.0
 10
308.163131514392
 20
660.5519122814926
 30
0.0
 10
308.6242866777973
 20
660.468157404047
 30
0.0
 10
309.1872016797482
 20
660.3860743157264
 30
0.0
 10
309.7991912225164
 20
660.3141409103326
 30
0.0
 10
310.5011266912774
 20
660.2423172982109
 30
0.0
 10
311.2456940754324
 20
660.1786147022722
 30
0.0
 10
312.0662341389809
 20
660.119466391246
 30
0.0
 10
312.921175986179
 20
660.0686303086666
 30
0.0
 10
313.835277323032
 20
660.0238221791992
 30
0.0
 10
314.7747155382626
 20
659.9873484012769
 30
0.0
 10
315.754658993256
 20
659.9582074098435
 30
0.0
 10
316.7501062785908
 20
659.9375235615958
 30
0.0
 10
317.7661257142622
 20
659.9248675113313
 30
0.0
 10
318.7873649720039
 20
659.9207350182992
 30
0.0
 10
319.8086042297458
 20
659.9248675113311
 30
0.0
 10
320.8246236654171
 20
659.9375235615959
 30
0.0
 10
321.8200709507519
 20
659.9582074098435
 30
0.0
 10
322.8000144057453
 20
659.9873484012768
 30
0.0
 10
323.7394526209758
 20
660.0238221791994
 30
0.0
 10
324.6535539578289
 20
660.0686303086667
 30
0.0
 10
325.5084958050272
 20
660.1194663912459
 30
0.0
 10
326.3290358685756
 20
660.1786147022725
 30
0.0
 10
327.0736032527307
 20
660.2423172982108
 30
0.0
 10
327.7755387214913
 20
660.3141409103328
 30
0.0
 10
328.3875282642598
 20
660.3860743157266
 30
0.0
 10
328.9504432662105
 20
660.4681574040467
 30
0.0
 10
329.4115984296161
 20
660.5519122814928
 30
0.0
 10
329.8158908018901
 20
660.6435201372285
 30
0.0
 10
330.1195876880616
 20
660.7069602310656
 30
0.0
 10
330.3713022569394
 20
660.8033315242919
 30
0.0
 10
330.5078156142374
 20
660.9028100202042
 30
0.0
 10
330.5968796264407
 20
660.9866231587203
 30
0.0
 10
330.6048002375512
 20
661.027395851249
 30
0.0
 10
330.6082882177356
 20
661.0453508223519
 30
0.0
 11
306.9664417262724
 21
661.0453508225284
 31
0.0
 11
306.9813203070821
 21
660.9937928889191
 31
0.0
 11
307.0259560495719
 21
660.9422349553097
 31
0.0
 11
307.2150481686294
 21
660.8081094372398
 31
0.0
 11
307.4092651280227
 21
660.7289184724293
 31
0.0
 11
307.7571408853545
 21
660.6428505841674
 31
0.0
 11
308.1118754736176
 21
660.5657231604127
 31
0.0
 11
308.6252227820979
 21
660.4710741204556
 31
0.0
 11
309.1402265886495
 21
660.3950663527367
 31
0.0
 11
309.7992902072789
 21
660.3158039370383
 31
0.0
 11
310.4598828175942
 21
660.2482274388008
 31
0.0
 11
311.2458545399201
 21
660.1803678375206
 31
0.0
 11
312.0326172294015
 21
660.1234462671753
 31
0.0
 11
312.9212582565373
 21
660.070172990806
 31
0.0
 11
313.8104224931902
 21
660.0264909153209
 31
0.0
 11
314.7747672885871
 21
659.9888074933133
 31
0.0
 11
315.7394129661602
 21
659.9600680668225
 31
0.0
 11
316.7501299414092
 21
659.9389251398221
 31
0.0
 11
317.7609877812981
 21
659.9263377593609
 31
0.0
 11
318.787364972004
 21
659.9221194624155
 31
0.0
 11
319.8137421627098
 21
659.9263377593608
 31
0.0
 11
320.8246000025986
 21
659.938925139822
 31
0.0
 11
321.8353169778477
 21
659.9600680668225
 31
0.0
 11
322.7999626554208
 21
659.9888074933134
 31
0.0
 11
323.7643074508177
 21
660.0264909153209
 31
0.0
 11
324.6534716874706
 21
660.070172990806
 31
0.0
 11
325.5421127146066
 21
660.1234462671753
 31
0.0
 11
326.3288754040879
 21
660.1803678375208
 31
0.0
 11
327.1148471264138
 21
660.2482274388008
 31
0.0
 11
327.7754397367291
 21
660.3158039370385
 31
0.0
 11
328.4345033553584
 21
660.3950663527367
 31
0.0
 11
328.9495071619101
 21
660.4710741204555
 31
0.0
 11
329.4628544703903
 21
660.5657231604127
 31
0.0
 11
329.8175890586535
 21
660.6428505841674
 31
0.0
 11
330.1654648159853
 21
660.7289184724293
 31
0.0
 11
330.3596817753787
 21
660.8081094372398
 31
0.0
 11
330.5487738944362
 21
660.9422349553096
 31
0.0
 11
330.5934096368751
 21
660.9937928888307
 31
0.0
 11
330.6082882177356
 21
661.0453508223519
 31
0.0
  0
SPLINE
  5
291
330
71
100
AcDbEntity
  8
1
  6
Continuous
 62
     7
100
AcDbSpline
210
0.0
220
0.0
230
1.0
 70
     8
 71
     3
 72
     9
 73
     5
 74
     3
 42
0.0000000001
 43
0.0000000001
 44
0.00000001
 40
0.0
 40
0.0
 40
0.0
 40
0.0
 40
0.0536618364203786
 40
0.1218569244482481
 40
0.1218569244482481
 40
0.1218569244482481
 40
0.1218569244482481
 10
330.6082882177356
 20
661.0453508223519
 30
0.0
 10
330.604814543068
 20
661.0633432350496
 30
0.0
 10
330.5969264173574
 20
661.1042009510911
 30
0.0
 10
330.5660521410413
 20
661.132583111784
 30
0.0
 10
330.5487738944361
 20
661.1484666896411
 30
0.0
 11
330.6082882177356
 21
661.0453508223519
 31
0.0
 11
330.5934096369463
 21
661.0969087559965
 31
0.0
 11
330.5487738944361
 21
661.1484666896411
 31
0.0
  0
ARC
  5
292
330
71
100
AcDbEntity
  8
1
  6
Continuous
 62
     7
100
AcDbCircle
 10
531.3026331016488
 20
675.5581921290634
 30
0.0
 40
0.2000000000000256
100
AcDbArc
 50
83.99999999980908
 51
174.0000000000086
  0
ARC
  5
293
330
71
100
AcDbEntity
  8
1
  6
Continuous
 62
     7
100
AcDbCircle
 10
555.7678717277088
 20
672.986791932684
 30
0.0
 40
0.2000000000004185
100
AcDbArc
 50
-6.00000000001536
 51
83.99999999993524
  0
ARC
  5
294
330
71
100
AcDbEntity
  8
1
  6
Continuous
 62
     7
100
AcDbCircle
 10
531.5627197904457
 20
663.1631040779038
 30
0.0
 40
0.9999999999999968
100
AcDbArc
 50
-170.0546040990607
 51
-96.00000000003341
  0
ARC
  5
295
330
71
100
AcDbEntity
  8
1
  6
Continuous
 62
     7
100
AcDbCircle
 10
552.9363848425335
 20
660.9166413577834
 30
0.0
 40
0.9999999999998608
100
AcDbArc
 50
-95.99999999998295
 51
-21.9453959009047
  0
ENDBLK
  5
73
330
71
100
AcDbEntity
  8
0
100
AcDbBlockEnd
  0
BLOCK
  5
75
330
74
100
AcDbEntity
  8
0
100
AcDbBlockBegin
  2
35-217
 70
     0
 71
     0
 10
1053.905114522056
 20
-510.7044606505089
 30
0.0
  3
35-217
  1

  0
LINE
  5
296
330
74
100
AcDbEntity
  8
1
  6
Continuous
 62
     7
100
AcDbLine
 10
767.7364463430047
 20
558.1126672444353
 30
0.0
 11
759.275343988206
 21
564.1126672444349
 31
0.0
  0
LINE
  5
297
330
74
100
AcDbEntity
  8
1
  6
Continuous
 62
     7
100
AcDbLine
 10
773.3771812462048
 20
554.1126672444353
 30
0.0
 11
767.7364463430047
 21
558.1126672444353
 31
0.0
  0
LINE
  5
298
330
74
100
AcDbEntity
  8
1
  6
Continuous
 62
     7
100
AcDbLine
 10
759.275343988206
 20
564.1126672444349
 30
0.0
 11
753.6346090850059
 21
568.1126672444353
 31
0.0
  0
LINE
  5
299
330
74
100
AcDbEntity
  8
1
  6
Continuous
 62
     7
100
AcDbLine
 10
741.2873649720043
 20
554.1126672444353
 30
0.0
 11
773.3771812462048
 21
554.1126672444353
 31
0.0
  0
LINE
  5
29A
330
74
100
AcDbEntity
  8
1
  6
Continuous
 62
     7
100
AcDbLine
 10
741.2873649720043
 20
554.1126672444353
 30
0.0
 11
740.7873649720043
 21
554.6126672444353
 31
0.0
  0
LINE
  5
29B
330
74
100
AcDbEntity
  8
1
  6
Continuous
 62
     7
100
AcDbLine
 10
741.2873649720043
 20
568.1126672444353
 30
0.0
 11
740.7873649720043
 21
567.6126672444353
 31
0.0
  0
LINE
  5
29C
330
74
100
AcDbEntity
  8
1
  6
Continuous
 62
     7
100
AcDbLine
 10
740.7873649720043
 20
554.6126672444353
 30
0.0
 11
740.7873649720043
 21
555.1126672444353
 31
0.0
  0
LINE
  5
29D
330
74
100
AcDbEntity
  8
1
  6
PHANTOM
 62
     4
100
AcDbLine
 10
737.7873649720043
 20
561.1126672444353
 30
0.0
 11
765.3025239203673
 21
561.1126672444353
 31
0.0
  0
LINE
  5
29E
330
74
100
AcDbEntity
  8
1
  6
Continuous
 62
     7
100
AcDbLine
 10
740.7873649720043
 20
567.1126672444353
 30
0.0
 11
740.7873649720043
 21
555.1126672444353
 31
0.0
  0
LINE
  5
29F
330
74
100
AcDbEntity
  8
1
  6
Continuous
 62
     7
100
AcDbLine
 10
753.6346090850059
 20
568.1126672444353
 30
0.0
 11
741.2873649720043
 21
568.1126672444353
 31
0.0
  0
LINE
  5
2A0
330
74
100
AcDbEntity
  8
1
  6
Continuous
 62
     7
100
AcDbLine
 10
740.7873649720043
 20
567.6126672444353
 30
0.0
 11
740.7873649720043
 21
567.1126672444353
 31
0.0
  0
LINE
  5
2A1
330
74
100
AcDbEntity
  8
1
  6
Continuous
 62
     7
100
AcDbLine
 10
741.2873649720043
 20
568.1126672444353
 30
0.0
 11
741.2873649720043
 21
554.1126672444353
 31
0.0
  0
ENDBLK
  5
76
330
74
100
AcDbEntity
  8
0
100
AcDbBlockEnd
  0
BLOCK
  5
79
330
77
100
AcDbEntity
  8
0
100
AcDbBlockBegin
  2
61-116A-M1
 70
     0
 71
     0
 10
1025.35508114871
 20
441.6162373046502
 30
0.0
  3
61-116A-M1
  1

  0
INSERT
  5
78
330
77
100
AcDbEntity
  8
0
100
AcDbBlockReference
  2
35-217
 10
1053.905114522056
 20
-510.7044606505089
 30
0.0
  0
LINE
  5
2A2
330
77
100
AcDbEntity
  8
1
  6
Continuous
 62
     7
100
AcDbLine
 10
333.7873649720042
 20
581.1126672444352
 30
0.0
 11
342.2873649720039
 21
581.1126672444352
 31
0.0
  0
LINE
  5
2A3
330
77
100
AcDbEntity
  8
1
  6
Continuous
 62
     7
100
AcDbLine
 10
774.7873649720038
 20
580.4663476505045
 30
0.0
 11
774.7873649720038
 21
576.4050070168412
 31
0.0
  0
LINE
  5
2A4
330
77
100
AcDbEntity
  8
1
  6
Continuous
 62
     7
100
AcDbLine
 10
559.4685084332257
 20
672.797600364
 30
0.0
 11
559.5207726648598
 21
673.2948613116863
 31
0.0
  0
LINE
  5
2A5
330
77
100
AcDbEntity
  8
1
  6
Continuous
 62
     7
100
AcDbLine
 10
528.7413566457519
 20
686.5849910899339
 30
0.0
 11
528.8981493406525
 21
688.0767739329864
 31
0.0
  0
LINE
  5
2A6
330
77
100
AcDbEntity
  8
1
  6
Continuous
 62
     7
100
AcDbLine
 10
577.7179375908738
 20
690.9896736596194
 30
0.0
 11
537.690552209742
 21
695.1967213897905
 31
0.0
  0
LINE
  5
2A7
330
77
100
AcDbEntity
  8
1
  6
Continuous
 62
     7
100
AcDbLine
 10
562.1540035471628
 20
673.5208517333053
 30
0.0
 11
560.0702978441775
 21
673.7398580277364
 31
0.0
  0
LINE
  5
2A8
330
77
100
AcDbEntity
  8
1
  6
Continuous
 62
     7
100
AcDbLine
 10
575.7318967887866
 20
672.0937576476244
 30
0.0
 11
562.1540035471628
 21
673.5208517333053
 31
0.0
  0
LINE
  5
2A9
330
77
100
AcDbEntity
  8
1
  6
Continuous
 62
     7
100
AcDbLine
 10
653.5451619360767
 20
662.3811821901577
 30
0.0
 11
774.7873649720038
 21
576.4050070168412
 31
0.0
  0
LINE
  5
2AA
330
77
100
AcDbEntity
  8
1
  6
Continuous
 62
     7
100
AcDbLine
 10
776.6373649720038
 20
581.1126672444352
 30
0.0
 11
776.6373649720038
 21
581.536289755788
 31
0.0
  0
LINE
  5
2AB
330
77
100
AcDbEntity
  8
1
  6
Continuous
 62
     7
100
AcDbLine
 10
820.9373649720035
 20
581.1126672444352
 30
0.0
 11
820.9373649720035
 21
581.5362897557882
 31
0.0
  0
LINE
  5
2AC
330
77
100
AcDbEntity
  8
1
  6
Continuous
 62
     7
100
AcDbLine
 10
822.0373649720038
 20
538.5126672444353
 30
0.0
 11
775.5373649720038
 21
538.5126672444353
 31
0.0
  0
LINE
  5
2AD
330
77
100
AcDbEntity
  8
1
  6
Continuous
 62
     7
100
AcDbLine
 10
774.7873649720038
 20
580.4663476505045
 30
0.0
 11
774.7873649720038
 21
580.6126672444352
 31
0.0
  0
LINE
  5
2AE
330
77
100
AcDbEntity
  8
1
  6
Continuous
 62
     7
100
AcDbLine
 10
776.6373649720038
 20
581.1126672444352
 30
0.0
 11
822.2873649720038
 21
581.1126672444352
 31
0.0
  0
LINE
  5
2AF
330
77
100
AcDbEntity
  8
1
  6
Continuous
 62
     7
100
AcDbLine
 10
822.7873649720038
 20
580.6126672444352
 30
0.0
 11
822.7873649720038
 21
539.0126672444353
 31
0.0
  0
LINE
  5
2B0
330
77
100
AcDbEntity
  8
1
  6
Continuous
 62
     7
100
AcDbLine
 10
776.6373649720038
 20
581.1126672444352
 30
0.0
 11
775.2873649720038
 21
581.1126672444352
 31
0.0
  0
LINE
  5
2B1
330
77
100
AcDbEntity
  8
1
  6
Continuous
 62
     7
100
AcDbLine
 10
775.2873649720038
 20
538.5126672444353
 30
0.0
 11
775.5373649720038
 21
538.5126672444353
 31
0.0
  0
LINE
  5
2B2
330
77
100
AcDbEntity
  8
1
  6
Continuous
 62
     7
100
AcDbLine
 10
822.2873649720038
 20
538.5126672444353
 30
0.0
 11
822.0373649720038
 21
538.5126672444353
 31
0.0
  0
LINE
  5
2B3
330
77
100
AcDbEntity
  8
1
  6
PHANTOM
 62
     4
100
AcDbLine
 10
798.7873649720038
 20
535.5126672444353
 30
0.0
 11
798.7873649720038
 21
588.6126672444352
 31
0.0
  0
LINE
  5
2B4
330
77
100
AcDbEntity
  8
1
  6
Continuous
 62
     7
100
AcDbLine
 10
774.7873649720038
 20
556.1126672444353
 30
0.0
 11
774.7873649720038
 21
568.1126672444353
 31
0.0
  0
LINE
  5
2B5
330
77
100
AcDbEntity
  8
1
  6
Continuous
 62
     7
100
AcDbLine
 10
774.7873649720038
 20
543.012667244435
 30
0.0
 11
774.7873649720038
 21
539.0126672444353
 31
0.0
  0
LINE
  5
2B6
330
77
100
AcDbEntity
  8
1
  6
Continuous
 62
     7
100
AcDbLine
 10
774.7873649720038
 20
576.4050070168412
 30
0.0
 11
774.7873649720038
 21
568.1126672444353
 31
0.0
  0
LINE
  5
2B7
330
77
100
AcDbEntity
  8
1
  6
Continuous
 62
     7
100
AcDbLine
 10
774.7873649720038
 20
545.8121548668036
 30
0.0
 11
774.7873649720038
 21
543.012667244435
 31
0.0
  0
LINE
  5
2B8
330
77
100
AcDbEntity
  8
1
  6
Continuous
 62
     7
100
AcDbLine
 10
774.7873649720038
 20
553.1126672444353
 30
0.0
 11
774.7873649720038
 21
545.8121548668036
 31
0.0
  0
LINE
  5
2B9
330
77
100
AcDbEntity
  8
1
  6
Continuous
 62
     7
100
AcDbLine
 10
774.7873649720038
 20
556.1126672444353
 30
0.0
 11
774.7873649720038
 21
553.1126672444353
 31
0.0
  0
LINE
  5
2BA
330
77
100
AcDbEntity
  8
1
  6
PHANTOM
 62
     4
100
AcDbLine
 10
541.8314384634198
 20
658.0617851363704
 30
0.0
 11
544.1833288869377
 21
680.4385277821574
 31
0.0
  0
LINE
  5
2BB
330
77
100
AcDbEntity
  8
1
  6
Continuous
 62
     7
100
AcDbLine
 10
642.5546382429991
 20
646.8825245401609
 30
0.0
 11
774.7873649720038
 21
553.1126672444353
 31
0.0
  0
LINE
  5
2BC
330
77
100
AcDbEntity
  8
1
  6
Continuous
 62
     7
100
AcDbLine
 10
527.6438077814407
 20
676.1425111885668
 30
0.0
 11
528.7413566457519
 21
686.5849910899339
 31
0.0
  0
LINE
  5
2BD
330
77
100
AcDbEntity
  8
1
  6
Continuous
 62
     7
100
AcDbLine
 10
527.6438077814407
 20
676.1425111885668
 30
0.0
 11
559.4685084332257
 21
672.797600364
 31
0.0
  0
LINE
  5
2BE
330
77
100
AcDbEntity
  8
0
  6
Continuous
 62
     7
100
AcDbLine
 10
326.7873649720041
 20
695.1967213897904
 30
0.0
 11
310.7873649720042
 21
695.1967213897904
 31
0.0
  0
LINE
  5
2BF
330
77
100
AcDbEntity
  8
0
  6
Continuous
 62
     7
100
AcDbLine
 10
334.7873649720042
 20
674.5183765839817
 30
0.0
 11
334.7873649720042
 21
687.1065719197416
 31
0.0
  0
LINE
  5
2C0
330
77
100
AcDbEntity
  8
1
  6
Continuous
 62
     7
100
AcDbLine
 10
303.7873649720041
 20
568.1126672444354
 30
0.0
 11
303.7873649720041
 21
673.9538848848852
 31
0.0
  0
LINE
  5
2C1
330
77
100
AcDbEntity
  8
1
  6
Continuous
 62
     7
100
AcDbLine
 10
333.7873649720042
 20
568.1126672444354
 30
0.0
 11
333.7873649720042
 21
673.9538848848852
 31
0.0
  0
LINE
  5
2C2
330
77
100
AcDbEntity
  8
0
  6
Continuous
 62
     7
100
AcDbLine
 10
302.7873649719901
 20
687.1065719197388
 30
0.0
 11
302.7873649720042
 21
674.5183765839817
 31
0.0
  0
LINE
  5
2C3
330
77
100
AcDbEntity
  8
1
  6
Continuous
 62
     7
100
AcDbLine
 10
303.7873649720036
 20
982.1710001688871
 30
0.0
 11
303.7873649720042
 21
1151.329951065874
 31
0.0
  0
LINE
  5
2C4
330
77
100
AcDbEntity
  8
0
  6
Continuous
 62
     7
100
AcDbLine
 10
313.7873649720036
 20
972.1710001688871
 30
0.0
 11
323.7873649720042
 21
972.1710001688871
 31
0.0
  0
LINE
  5
2C5
330
77
100
AcDbEntity
  8
1
  6
PHANTOM
 62
     4
100
AcDbLine
 10
318.7873649720039
 20
535.5126672444353
 30
0.0
 11
318.7873649720039
 21
588.6126672444352
 31
0.0
  0
LINE
  5
2C6
330
77
100
AcDbEntity
  8
1
  6
PHANTOM
 62
     4
100
AcDbLine
 10
318.7873649720039
 20
535.5126672444353
 30
0.0
 11
318.7873649720039
 21
588.6126672444352
 31
0.0
  0
LINE
  5
2C7
330
77
100
AcDbEntity
  8
1
  6
Continuous
 62
     7
100
AcDbLine
 10
296.6373649720038
 20
581.1126672444352
 30
0.0
 11
295.2873649720039
 21
581.1126672444352
 31
0.0
  0
LINE
  5
2C8
330
77
100
AcDbEntity
  8
1
  6
Continuous
 62
     7
100
AcDbLine
 10
296.6373649720038
 20
581.1126672444352
 30
0.0
 11
303.7873649720041
 21
581.1126672444352
 31
0.0
  0
LINE
  5
2C9
330
77
100
AcDbEntity
  8
1
  6
Continuous
 62
     7
100
AcDbLine
 10
340.9373649720035
 20
581.1126672444352
 30
0.0
 11
340.9373649720035
 21
581.5362897557882
 31
0.0
  0
LINE
  5
2CA
330
77
100
AcDbEntity
  8
1
  6
Continuous
 62
     7
100
AcDbLine
 10
296.6373649720038
 20
581.1126672444352
 30
0.0
 11
296.6373649720038
 21
581.536289755788
 31
0.0
  0
LINE
  5
2CB
330
77
100
AcDbEntity
  8
1
  6
Continuous
 62
     7
100
AcDbLine
 10
294.7873649720039
 20
580.6126672444352
 30
0.0
 11
294.7873649720042
 21
539.0126672444353
 31
0.0
  0
LINE
  5
2CC
330
77
100
AcDbEntity
  8
1
  6
Continuous
 62
     7
100
AcDbLine
 10
342.7873649720039
 20
580.6126672444352
 30
0.0
 11
342.7873649720042
 21
539.0126672444353
 31
0.0
  0
LINE
  5
2CD
330
77
100
AcDbEntity
  8
1
  6
Continuous
 62
     7
100
AcDbLine
 10
295.2873649720042
 20
538.5126672444353
 30
0.0
 11
342.2873649720042
 21
538.5126672444353
 31
0.0
  0
LINE
  5
2CE
330
77
100
AcDbEntity
  8
1
  6
Continuous
 62
     7
100
AcDbLine
 10
333.7873649720042
 20
1151.37663541867
 30
0.0
 11
333.7873649720042
 21
982.1710001688871
 31
0.0
  0
ARC
  5
2CF
330
77
100
AcDbEntity
  8
1
  6
Continuous
 62
     7
100
AcDbCircle
 10
560.9933834680398
 20
531.8661704006986
 30
0.0
 40
159.9999999999976
100
AcDbArc
 50
54.65849966865297
 51
83.99999999999653
  0
ARC
  5
2D0
330
77
100
AcDbEntity
  8
1
  6
Continuous
 62
     7
100
AcDbCircle
 10
560.9933834680398
 20
531.8661704006986
 30
0.0
 40
140.9999999999999
100
AcDbArc
 50
62.85545892935468
 51
83.9999999999969
  0
ARC
  5
2D1
330
77
100
AcDbEntity
  8
1
  6
Continuous
 62
     7
100
AcDbCircle
 10
560.9933834680398
 20
531.8661704006986
 30
0.0
 40
141.0000000000001
100
AcDbArc
 50
54.65849966865276
 51
62.85545892935468
  0
ARC
  5
2D2
330
77
100
AcDbEntity
  8
1
  6
Continuous
 62
     7
100
AcDbCircle
 10
318.7873649720041
 20
568.1126672444354
 30
0.0
 40
15.0
100
AcDbArc
 50
180.0
 51
0.0
  0
ARC
  5
2D3
330
77
100
AcDbEntity
  8
1
  6
Continuous
 62
     7
100
AcDbCircle
 10
310.7873649720042
 20
687.1967213897904
 30
0.0
 40
8.0
100
AcDbArc
 50
90.0
 51
-179.354379306832
  0
ARC
  5
2D4
330
77
100
AcDbEntity
  8
1
  6
Continuous
 62
     7
100
AcDbCircle
 10
326.7873649720041
 20
687.1967213897904
 30
0.0
 40
8.000507916810719
100
AcDbArc
 50
-0.6456206931497
 51
90.0
  0
SPLINE
  5
2D5
330
77
100
AcDbEntity
  8
0
  6
Continuous
 62
     7
100
AcDbSpline
210
0.0
220
0.0
230
1.0
 70
     8
 71
     3
 72
     9
 73
     5
 74
     3
 42
0.0000000001
 43
0.0000000001
 44
0.00000001
 40
0.0
 40
0.0
 40
0.0
 40
0.0
 40
0.0771680644963304
 40
0.1729208165959259
 40
0.1729208165959259
 40
0.1729208165959259
 40
0.1729208165959259
 10
334.7873649720042
 20
674.5183765839572
 30
0.0
 10
334.7827975044868
 20
674.5442922749486
 30
0.0
 10
334.7725625683374
 20
674.602365034426
 30
0.0
 10
334.7304908521376
 20
674.6442325585709
 30
0.0
 10
334.7071941624099
 20
674.6674161794871
 30
0.0
 11
334.7873649720042
 21
674.5183765839572
 31
0.0
 11
334.7673222696122
 21
674.5928963817222
 31
0.0
 11
334.7071941624099
 21
674.6674161794871
 31
0.0
  0
SPLINE
  5
2D6
330
77
100
AcDbEntity
  8
0
  6
Continuous
 62
     7
100
AcDbSpline
210
0.0
220
0.0
230
1.0
 70
     8
 71
     3
 72
    17
 73
    13
 74
    11
 42
0.0000000001
 43
0.0000000001
 44
0.00000001
 40
0.0
 40
0.0
 40
0.0
 40
0.0
 40
0.2814393100730184
 40
0.5628809367578309
 40
1.2688072360546
 40
1.976290555282773
 40
2.470198747252808
 40
2.959085039578493
 40
3.247666348000577
 40
3.564285779321497
 40
3.660038531393789
 40
3.737206595869846
 40
3.737206595869846
 40
3.737206595869846
 40
3.737206595869846
 10
331.2873649720157
 20
673.5044674936135
 30
0.0
 10
331.3804155538745
 20
673.516403852514
 30
0.0
 10
331.5665174835194
 20
673.540276668567
 30
0.0
 10
331.985707864797
 20
673.596491123508
 30
0.0
 10
332.5438850193201
 20
673.6842522468925
 30
0.0
 10
333.1684321815391
 20
673.8045537511736
 30
0.0
 10
333.7161720421464
 20
673.936902522361
 30
0.0
 10
334.1291874045399
 20
674.0316031107881
 30
0.0
 10
334.4702416637635
 20
674.1713987683745
 30
0.0
 10
334.6544074855736
 20
674.3139672896809
 30
0.0
 10
334.7724694171847
 20
674.4345737456395
 30
0.0
 10
334.7827687615288
 20
674.4925181659256
 30
0.0
 10
334.7873649720042
 20
674.5183765839572
 30
0.0
 11
331.2873649720157
 21
673.5044674936135
 31
0.0
 11
331.5664825912382
 21
673.5405429685782
 31
0.0
 11
331.8453822084426
 21
673.5782840967313
 31
0.0
 11
332.54270619238
 21
673.6881531163157
 31
0.0
 11
333.2369525712307
 21
673.8243684327774
 31
0.0
 11
333.717998938077
 21
673.9363492125528
 31
0.0
 11
334.1902208202121
 21
674.0629047373502
 31
0.0
 11
334.4547603299652
 21
674.1782217757714
 31
0.0
 11
334.7071941624099
 21
674.3693369884763
 31
0.0
 11
334.7673222695989
 21
674.4438567862168
 31
0.0
 11
334.7873649720042
 21
674.5183765839572
 31
0.0
  0
SPLINE
  5
2D7
330
77
100
AcDbEntity
  8
0
  6
Continuous
 62
     7
100
AcDbSpline
210
0.0
220
0.0
230
1.0
 70
     8
 71
     3
 72
    13
 73
     9
 74
     7
 42
0.0000000001
 43
0.0000000001
 44
0.00000001
 40
0.0
 40
0.0
 40
0.0
 40
0.0
 40
0.281873465429099
 40
0.5654702615154169
 40
1.272953580743633
 40
1.978879880040346
 40
2.260321506734099
 40
2.541760816816155
 40
2.541760816816155
 40
2.541760816816155
 40
2.541760816816155
 10
303.7873649720041
 20
673.9538848848852
 30
0.0
 10
303.8785291420287
 20
673.9311295161517
 30
0.0
 10
304.0614148456764
 20
673.8854796558894
 30
0.0
 10
304.4755236678189
 20
673.7928291871849
 30
0.0
 10
305.0307121792179
 20
673.6836840104273
 30
0.0
 10
305.5890348030608
 20
673.5965455898011
 30
0.0
 10
306.0082105071351
 20
673.5402683069101
 30
0.0
 10
306.1943137390295
 20
673.5164010653011
 30
0.0
 10
306.2873649720103
 20
673.5044674936112
 30
0.0
 11
303.7873649720041
 21
673.9538848848852
 31
0.0
 11
304.0611231886226
 21
673.8867351317443
 31
0.0
 11
304.3377773727775
 21
673.8243684327775
 31
0.0
 11
305.0320237516282
 21
673.6881531163156
 31
0.0
 11
305.7293477355656
 21
673.5782840967312
 31
0.0
 11
306.0082473527788
 21
673.5405429685769
 31
0.0
 11
306.2873649720103
 21
673.5044674936112
 31
0.0
  0
SPLINE
  5
2D8
330
77
100
AcDbEntity
  8
0
  6
Continuous
 62
     7
100
AcDbSpline
210
0.0
220
0.0
230
1.0
 70
     8
 71
     3
 72
    47
 73
    43
 74
    41
 42
0.0000000001
 43
0.0000000001
 44
0.00000001
 40
0.0
 40
0.0
 40
0.0
 40
0.0
 40
0.3166194313208292
 40
0.6052007397428747
 40
1.09408703206867
 40
1.58799522403868
 40
2.295478543266818
 40
3.001404842563623
 40
3.900852164910525
 40
4.800500683153442
 40
5.86876743941877
 40
6.936948673551148
 40
8.142187355973002
 40
9.347419664150603
 40
10.65380751426086
 40
11.96018568916754
 40
13.32855944209607
 40
14.69693006292973
 40
16.08618488927326
 40
17.47543971561685
 40
18.84381033645057
 40
20.2121840893791
 40
21.51856226428586
 40
22.82495011439604
 40
24.0301824225737
 40
25.2354211049956
 40
26.30360233912798
 40
27.37186909539336
 40
28.27151761363622
 40
29.17096493598302
 40
29.87689123527975
 40
30.58437455450795
 40
31.07828274647796
 40
31.56716903880376
 40
31.85575034722585
 40
32.17236977854665
 40
32.341603816906
 40
32.51083785526533
 40
32.82745728658616
 40
33.11603859500831
 40
33.3242875040222
 40
33.53339586014314
 40
33.53339586014314
 40
33.53339586014314
 40
33.53339586014314
 10
334.7071941624099
 20
674.6674161794871
 30
0.0
 10
334.6262347965961
 20
674.7362536937014
 30
0.0
 10
334.4714853932658
 20
674.8678328401575
 30
0.0
 10
334.1286119895621
 20
675.0040025841643
 30
0.0
 10
333.7163593929358
 20
675.1002301324429
 30
0.0
 10
333.168352411519
 20
675.2320133410285
 30
0.0
 10
332.5439360863341
 20
675.3527532585456
 30
0.0
 10
331.7820512516521
 20
675.4713966046467
 30
0.0
 10
330.9534966831587
 20
675.57568433437
 30
0.0
 10
330.0033370892992
 20
675.679527721572
 30
0.0
 10
328.9954478497658
 20
675.7716074011391
 30
0.0
 10
327.8848117139613
 20
675.8571359769268
 30
0.0
 10
326.7275615180735
 20
675.9306595691775
 30
0.0
 10
325.4902817054991
 20
675.9954507834603
 30
0.0
 10
324.2186846867921
 20
676.0481907315257
 30
0.0
 10
322.8922879960532
 20
676.0903278795446
 30
0.0
 10
321.5448926022386
 20
676.1202372669893
 30
0.0
 10
320.1696634662371
 20
676.1385374741885
 30
0.0
 10
318.7873649720157
 20
676.1445130926995
 30
0.0
 10
317.4050664777257
 20
676.1385374743334
 30
0.0
 10
316.0298373419271
 20
676.1202372664201
 30
0.0
 10
314.6824419473808
 20
676.0903278816402
 30
0.0
 10
313.3560452592508
 20
676.0481907240951
 30
0.0
 10
312.0844482311526
 20
675.9954508103242
 30
0.0
 10
310.847168451037
 20
675.9306594775114
 30
0.0
 10
309.6899181406224
 20
675.8571363034766
 30
0.0
 10
308.5792823860871
 20
675.771606335416
 30
0.0
 10
307.5713918339219
 20
675.6795314491549
 30
0.0
 10
306.6212364082101
 20
675.5756728412302
 30
0.0
 10
305.7926679541711
 20
675.4714358170122
 30
0.0
 10
305.0308245062073
 20
675.3526413400529
 30
0.0
 10
304.4062766626013
 20
675.2323816851107
 30
0.0
 10
303.8586221108897
 20
675.0993115176616
 30
0.0
 10
303.4453407349084
 20
675.0068407375861
 30
0.0
 10
303.1049249191648
 20
674.861696680223
 30
0.0
 10
302.8995395323303
 20
674.7202108110901
 30
0.0
 10
302.7482963775244
 20
674.5184010859459
 30
0.0
 10
302.8995142222717
 20
674.3164016716489
 30
0.0
 10
303.1051273897719
 20
674.1759791389243
 30
0.0
 10
303.3574297444139
 20
674.0644619367193
 30
0.0
 10
303.5854964650128
 20
674.0075064766555
 30
0.0
 10
303.7199831553213
 20
673.9717832699317
 30
0.0
 10
303.7873649720041
 20
673.9538848848852
 30
0.0
 11
334.7071941624099
 21
674.6674161794871
 31
0.0
 11
334.4547603299653
 21
674.8585313921921
 31
0.0
 11
334.1902208202122
 21
674.973848430613
 31
0.0
 11
333.717998938077
 21
675.1004039554103
 31
0.0
 11
333.2369525712307
 21
675.2123847351857
 31
0.0
 11
332.5427061923801
 21
675.3486000516475
 31
0.0
 11
331.8453822084426
 21
675.4584690712321
 31
0.0
 11
330.9532874940605
 21
675.5732406105985
 31
0.0
 11
330.0589661832795
 21
675.6709997506293
 31
0.0
 11
328.9952115789576
 21
675.7690813713623
 31
0.0
 11
327.9302062276151
 21
675.8513902443015
 31
0.0
 11
326.7274321329906
 21
675.9284276307192
 31
0.0
 11
325.5238562885463
 21
675.991594895543
 31
0.0
 11
324.2186051915794
 21
676.0460814882274
 31
0.0
 11
322.912888166115
 21
676.0876385006898
 31
0.0
 11
321.5448559744405
 21
676.1182105507703
 31
0.0
 11
320.1766064083337
 21
676.1364116718662
 31
0.0
 11
318.7873649720042
 21
676.1425111885671
 31
0.0
 11
317.3981235356746
 21
676.1364116718662
 31
0.0
 11
316.0298739695678
 21
676.1182105507704
 31
0.0
 11
314.6618417778933
 21
676.0876385006898
 31
0.0
 11
313.3561247524288
 21
676.0460814882271
 31
0.0
 11
312.0508736554619
 21
675.9915948955429
 31
0.0
 11
310.8472978110176
 21
675.9284276307191
 31
0.0
 11
309.644523716393
 21
675.8513902443015
 31
0.0
 11
308.5795183650506
 21
675.7690813713623
 31
0.0
 11
307.5157637607286
 21
675.6709997506293
 31
0.0
 11
306.6214424499476
 21
675.5732406105985
 31
0.0
 11
305.7293477355656
 21
675.458469071232
 31
0.0
 11
305.0320237516282
 21
675.3486000516475
 31
0.0
 11
304.3377773727775
 21
675.2123847351857
 31
0.0
 11
303.8567310059312
 21
675.1004039554103
 31
0.0
 11
303.384509123796
 21
674.973848430613
 31
0.0
 11
303.1199696140429
 21
674.8585313921919
 31
0.0
 11
302.8675357815983
 21
674.6674161794871
 31
0.0
 11
302.7873649720041
 21
674.5183765839817
 31
0.0
 11
302.8675357815982
 21
674.3693369884762
 31
0.0
 11
303.1199696140428
 21
674.1782217757713
 31
0.0
 11
303.384509123796
 21
674.0629047373502
 31
0.0
 11
303.5851320587882
 21
674.0070652704779
 31
0.0
 11
303.7873649720041
 21
673.9538848848852
 31
0.0
  0
ARC
  5
2D9
330
77
100
AcDbEntity
  8
1
  6
Continuous
 62
     7
100
AcDbCircle
 10
536.8543245035996
 20
687.2405462268445
 30
0.0
 40
7.999999999999945
100
AcDbArc
 50
83.99999999999166
 51
173.9999999999957
  0
ARC
  5
2DA
330
77
100
AcDbEntity
  8
1
  6
Continuous
 62
     7
100
AcDbCircle
 10
560.0180336125438
 20
673.2425970800523
 30
0.0
 40
0.4999999999999869
100
AcDbArc
 50
84.00000000001774
 51
173.9999999999775
  0
ARC
  5
2DB
330
77
100
AcDbEntity
  8
1
  6
Continuous
 62
     7
100
AcDbCircle
 10
822.2873649720038
 20
580.6126672444352
 30
0.0
 40
0.5
100
AcDbArc
 50
0.0
 51
90.0
  0
ARC
  5
2DC
330
77
100
AcDbEntity
  8
1
  6
Continuous
 62
     7
100
AcDbCircle
 10
775.2873649720038
 20
580.6126672444352
 30
0.0
 40
0.5
100
AcDbArc
 50
90.0
 51
180.0
  0
ARC
  5
2DD
330
77
100
AcDbEntity
  8
1
  6
Continuous
 62
     7
100
AcDbCircle
 10
775.2873649720038
 20
539.0126672444353
 30
0.0
 40
0.5
100
AcDbArc
 50
180.0
 51
-90.0
  0
ARC
  5
2DE
330
77
100
AcDbEntity
  8
1
  6
Continuous
 62
     7
100
AcDbCircle
 10
822.2873649720038
 20
539.0126672444353
 30
0.0
 40
0.5
100
AcDbArc
 50
-90.0
 51
0.0
  0
ARC
  5
2DF
330
77
100
AcDbEntity
  8
1
  6
Continuous
 62
     7
100
AcDbCircle
 10
342.2873649720042
 20
539.0126672444353
 30
0.0
 40
0.5
100
AcDbArc
 50
-90.0
 51
0.0
  0
ARC
  5
2E0
330
77
100
AcDbEntity
  8
0
  6
Continuous
 62
     7
100
AcDbCircle
 10
313.7873649720036
 20
982.1710001688871
 30
0.0
 40
10.0
100
AcDbArc
 50
180.0
 51
-90.0
  0
ARC
  5
2E1
330
77
100
AcDbEntity
  8
0
  6
Continuous
 62
     7
100
AcDbCircle
 10
323.7873649720042
 20
982.1710001688871
 30
0.0
 40
10.0
100
AcDbArc
 50
-90.0
 51
0.0
  0
ARC
  5
2E2
330
77
100
AcDbEntity
  8
1
  6
Continuous
 62
     7
100
AcDbCircle
 10
342.2873649720042
 20
539.0126672444353
 30
0.0
 40
0.5
100
AcDbArc
 50
-90.0
 51
0.0
  0
ARC
  5
2E3
330
77
100
AcDbEntity
  8
1
  6
Continuous
 62
     7
100
AcDbCircle
 10
295.2873649720039
 20
580.6126672444352
 30
0.0
 40
0.5
100
AcDbArc
 50
90.0
 51
180.0
  0
ARC
  5
2E4
330
77
100
AcDbEntity
  8
1
  6
Continuous
 62
     7
100
AcDbCircle
 10
342.2873649720039
 20
580.6126672444352
 30
0.0
 40
0.5
100
AcDbArc
 50
0.0
 51
90.0
  0
ARC
  5
2E5
330
77
100
AcDbEntity
  8
1
  6
Continuous
 62
     7
100
AcDbCircle
 10
295.2873649720042
 20
539.0126672444353
 30
0.0
 40
0.5
100
AcDbArc
 50
180.0
 51
-90.0
  0
ARC
  5
2E6
330
77
100
AcDbEntity
  8
1
  6
Continuous
 62
     7
100
AcDbCircle
 10
295.2873649720042
 20
539.0126672444353
 30
0.0
 40
0.5
100
AcDbArc
 50
180.0
 51
-90.0
  0
ENDBLK
  5
7A
330
77
100
AcDbEntity
  8
0
100
AcDbBlockEnd
  0
BLOCK
  5
7E
330
7B
100
AcDbEntity
  8
0
100
AcDbBlockBegin
  2
61-116AX-M1
 70
     0
 71
     0
 10
1855.04592852764
 20
294.773181015671
 30
0.0
  3
61-116AX-M1
  1

  0
INSERT
  5
7C
330
7B
100
AcDbEntity
  8
0
100
AcDbBlockReference
  2
82-20-M21
 10
316.345770524076
 20
142.1104655659787
 30
0.0
  0
INSERT
  5
7D
330
7B
100
AcDbEntity
  8
0
100
AcDbBlockReference
  2
61-116A-M1
 10
1025.35508114871
 20
441.6162373046502
 30
0.0
  0
LINE
  5
2E7
330
7B
100
AcDbEntity
  8
1
  6
PHANTOM
 62
     4
100
AcDbLine
 10
648.0499000895368
 20
654.6318533651584
 30
0.0
 11
778.7345214430568
 21
561.9598000982008
 31
0.0
  0
LINE
  5
2E8
330
7B
100
AcDbEntity
  8
1
  6
PHANTOM
 62
     4
100
AcDbLine
 10
563.1470239481976
 20
682.9688097393025
 30
0.0
 11
525.7577909596469
 21
686.8985764797367
 31
0.0
  0
LINE
  5
2E9
330
7B
100
AcDbEntity
  8
1
  6
PHANTOM
 62
     4
100
AcDbLine
 10
576.7249171898327
 20
681.5417156536205
 30
0.0
 11
563.1470239481976
 21
682.9688097393025
 31
0.0
  0
LINE
  5
2EA
330
7B
100
AcDbEntity
  8
1
  6
PHANTOM
 62
     4
100
AcDbLine
 10
318.7873649720041
 20
523.5126672444353
 30
0.0
 11
318.7873649720041
 21
710.1967213897904
 31
0.0
  0
LINE
  5
2EB
330
7B
100
AcDbEntity
  8
1
  6
PHANTOM
 62
     4
100
AcDbLine
 10
318.7873649720041
 20
954.6832504524393
 30
0.0
 11
318.7873649720042
 21
1182.140804714027
 31
0.0
  0
ARC
  5
2EC
330
7B
100
AcDbEntity
  8
1
  6
PHANTOM
 62
     4
100
AcDbCircle
 10
560.9933834680398
 20
531.8661704006986
 30
0.0
 40
150.4999999999974
100
AcDbArc
 50
54.65849966865302
 51
83.99999999999571
  0
ENDBLK
  5
7F
330
7B
100
AcDbEntity
  8
0
100
AcDbBlockEnd
  0
BLOCK
  5
81
330
80
100
AcDbEntity
  8
0
100
AcDbBlockBegin
  2
35-276__12
 70
     0
 71
     0
 10
0.0
 20
1485.0
 30
0.0
  3
35-276__12
  1

  0
LINE
  5
2ED
330
80
100
AcDbEntity
  8
1
  6
Continuous
 62
     2
100
AcDbLine
 10
808.1028649720042
 20
424.636289755789
 30
0.0
 11
808.1028649720042
 21
449.6362897557895
 31
0.0
  0
LINE
  5
2EE
330
80
100
AcDbEntity
  8
1
  6
Continuous
 62
     2
100
AcDbLine
 10
789.4718649720044
 20
424.636289755789
 30
0.0
 11
789.4718649720044
 21
449.6362897557895
 31
0.0
  0
LINE
  5
2EF
330
80
100
AcDbEntity
  8
1
  6
Continuous
 62
     2
100
AcDbLine
 10
429.6028649720043
 20
424.5359423790155
 30
0.0
 11
429.6028649720043
 21
449.6362897557895
 31
0.0
  0
LINE
  5
2F0
330
80
100
AcDbEntity
  8
1
  6
Continuous
 62
     2
100
AcDbLine
 10
410.9718649720043
 20
424.636289755789
 30
0.0
 11
410.9718649720043
 21
449.6362897557895
 31
0.0
  0
LINE
  5
2F1
330
80
100
AcDbEntity
  8
1
  6
PHANTOM
 62
     4
100
AcDbLine
 10
420.2873649720042
 20
482.1362897557895
 30
0.0
 11
420.2873649720042
 21
415.1362897557895
 31
0.0
  0
LINE
  5
2F2
330
80
100
AcDbEntity
  8
1
  6
Continuous
 62
     7
100
AcDbLine
 10
430.7648649720042
 20
471.6362897557895
 30
0.0
 11
430.7648649720042
 21
459.6362897557895
 31
0.0
  0
LINE
  5
2F3
330
80
100
AcDbEntity
  8
1
  6
Continuous
 62
     7
100
AcDbLine
 10
409.8098649720042
 20
469.6362897557895
 30
0.0
 11
430.7648649720042
 21
469.6362897557896
 31
0.0
  0
LINE
  5
2F4
330
80
100
AcDbEntity
  8
1
  6
Continuous
 62
     7
100
AcDbLine
 10
409.8098649720042
 20
471.6489327941845
 30
0.0
 11
409.8098649720033
 21
459.6362897557895
 31
0.0
  0
LINE
  5
2F5
330
80
100
AcDbEntity
  8
0
  6
Continuous
 62
     2
100
AcDbLine
 10
409.8098649720042
 20
471.6489327941845
 30
0.0
 11
410.9718649720042
 21
469.6362897557895
 31
0.0
  0
LINE
  5
2F6
330
80
100
AcDbEntity
  8
0
  6
Continuous
 62
     2
100
AcDbLine
 10
429.6028649720042
 20
469.6362897557896
 30
0.0
 11
430.7648649720042
 21
471.6489327941846
 31
0.0
  0
LINE
  5
2F7
330
80
100
AcDbEntity
  8
1
  6
Continuous
 62
     7
100
AcDbLine
 10
409.8098649720042
 20
473.6362897557895
 30
0.0
 11
410.0373649720041
 21
473.6362897557898
 31
0.0
  0
LINE
  5
2F8
330
80
100
AcDbEntity
  8
1
  6
Continuous
 62
     7
100
AcDbLine
 10
430.7648649720042
 20
473.6362897557895
 30
0.0
 11
430.5373649720041
 21
473.6362897557898
 31
0.0
  0
LINE
  5
2F9
330
80
100
AcDbEntity
  8
1
  6
Continuous
 62
     7
100
AcDbLine
 10
430.7648649720042
 20
473.6362897557895
 30
0.0
 11
430.7648649720042
 21
471.6362897557895
 31
0.0
  0
LINE
  5
2FA
330
80
100
AcDbEntity
  8
1
  6
Continuous
 62
     7
100
AcDbLine
 10
409.8098649720042
 20
473.6362897557895
 30
0.0
 11
409.8098649720042
 21
471.6489327941845
 31
0.0
  0
LINE
  5
2FB
330
80
100
AcDbEntity
  8
1
  6
Continuous
 62
     2
100
AcDbLine
 10
429.6028649720043
 20
459.6362897557895
 30
0.0
 11
429.6028649720042
 21
469.6362897557896
 31
0.0
  0
LINE
  5
2FC
330
80
100
AcDbEntity
  8
1
  6
Continuous
 62
     2
100
AcDbLine
 10
410.9718649720043
 20
459.6362897557895
 30
0.0
 11
410.9718649720043
 21
469.6236467173944
 31
0.0
  0
LINE
  5
2FD
330
80
100
AcDbEntity
  8
1
  6
Continuous
 62
     2
100
AcDbLine
 10
410.9718649720043
 20
469.6236467173944
 30
0.0
 11
410.9718649720042
 21
469.6362897557895
 31
0.0
  0
LINE
  5
2FE
330
80
100
AcDbEntity
  8
1
  6
Continuous
 62
     2
100
AcDbLine
 10
789.4718649720043
 20
469.6236467173944
 30
0.0
 11
789.4718649720041
 21
469.6362897557895
 31
0.0
  0
LINE
  5
2FF
330
80
100
AcDbEntity
  8
1
  6
Continuous
 62
     2
100
AcDbLine
 10
789.4718649720043
 20
459.6362897557895
 30
0.0
 11
789.4718649720043
 21
469.6236467173944
 31
0.0
  0
LINE
  5
300
330
80
100
AcDbEntity
  8
1
  6
Continuous
 62
     2
100
AcDbLine
 10
808.1028649720042
 20
459.6362897557895
 30
0.0
 11
808.1028649720042
 21
469.6362897557896
 31
0.0
  0
LINE
  5
301
330
80
100
AcDbEntity
  8
1
  6
Continuous
 62
     7
100
AcDbLine
 10
788.3098649720042
 20
473.6362897557895
 30
0.0
 11
788.3098649720042
 21
471.6489327941845
 31
0.0
  0
LINE
  5
302
330
80
100
AcDbEntity
  8
1
  6
Continuous
 62
     7
100
AcDbLine
 10
809.2648649720043
 20
473.6362897557895
 30
0.0
 11
809.2648649720043
 21
471.6362897557895
 31
0.0
  0
LINE
  5
303
330
80
100
AcDbEntity
  8
1
  6
Continuous
 62
     7
100
AcDbLine
 10
809.2648649720043
 20
473.6362897557895
 30
0.0
 11
809.0373649720041
 21
473.6362897557896
 31
0.0
  0
LINE
  5
304
330
80
100
AcDbEntity
  8
1
  6
Continuous
 62
     7
100
AcDbLine
 10
788.3098649720042
 20
473.6362897557895
 30
0.0
 11
788.5373649720042
 21
473.6362897557896
 31
0.0
  0
LINE
  5
305
330
80
100
AcDbEntity
  8
0
  6
Continuous
 62
     2
100
AcDbLine
 10
808.1028649720042
 20
469.6362897557896
 30
0.0
 11
809.2648649720043
 21
471.6489327941846
 31
0.0
  0
LINE
  5
306
330
80
100
AcDbEntity
  8
0
  6
Continuous
 62
     2
100
AcDbLine
 10
788.3098649720042
 20
471.6489327941845
 30
0.0
 11
789.4718649720041
 21
469.6362897557895
 31
0.0
  0
LINE
  5
307
330
80
100
AcDbEntity
  8
1
  6
Continuous
 62
     7
100
AcDbLine
 10
788.3098649720042
 20
471.6489327941845
 30
0.0
 11
788.3098649720033
 21
459.6362897557895
 31
0.0
  0
LINE
  5
308
330
80
100
AcDbEntity
  8
1
  6
Continuous
 62
     7
100
AcDbLine
 10
788.3098649720042
 20
469.6362897557895
 30
0.0
 11
809.2648649720043
 21
469.6362897557896
 31
0.0
  0
LINE
  5
309
330
80
100
AcDbEntity
  8
1
  6
Continuous
 62
     7
100
AcDbLine
 10
809.2648649720043
 20
471.6362897557895
 30
0.0
 11
809.2648649720043
 21
459.6362897557895
 31
0.0
  0
LINE
  5
30A
330
80
100
AcDbEntity
  8
1
  6
PHANTOM
 62
     4
100
AcDbLine
 10
798.7873649720042
 20
482.1362897557895
 30
0.0
 11
798.7873649720042
 21
414.1362897557889
 31
0.0
  0
LINE
  5
30B
330
80
100
AcDbEntity
  8
1
  6
Continuous
 62
     7
100
AcDbLine
 10
430.7648649720043
 20
449.6362897557896
 30
0.0
 11
430.7648649720039
 21
424.6356669828555
 31
0.0
  0
LINE
  5
30C
330
80
100
AcDbEntity
  8
1
  6
Continuous
 62
     7
100
AcDbLine
 10
409.8098649720023
 20
449.6362897557895
 30
0.0
 11
409.8098649719981
 21
424.6356669828554
 31
0.0
  0
LINE
  5
30D
330
80
100
AcDbEntity
  8
1
  6
Continuous
 62
     7
100
AcDbLine
 10
809.2648649720042
 20
449.6362897557896
 30
0.0
 11
809.264864972004
 21
424.636289755789
 31
0.0
  0
LINE
  5
30E
330
80
100
AcDbEntity
  8
1
  6
Continuous
 62
     7
100
AcDbLine
 10
788.3098649720023
 20
449.6362897557895
 30
0.0
 11
788.3098649719988
 21
424.636289755789
 31
0.0
  0
ENDBLK
  5
82
330
80
100
AcDbEntity
  8
0
100
AcDbBlockEnd
  0
BLOCK
  5
84
330
83
100
AcDbEntity
  8
0
100
AcDbBlockBegin
  2
30-247-M11
 70
     0
 71
     0
 10
0.0
 20
1485.0
 30
0.0
  3
30-247-M11
  1

  0
LINE
  5
30F
330
83
100
AcDbEntity
  8
1
  6
Continuous
 62
     7
100
AcDbLine
 10
342.7856643806201
 20
500.1372967194732
 30
0.0
 11
342.7856643806201
 21
514.1372967194736
 31
0.0
  0
LINE
  5
310
330
83
100
AcDbEntity
  8
1
  6
Continuous
 62
     7
100
AcDbLine
 10
342.7856643806201
 20
530.1372967194736
 30
0.0
 11
342.7856643806201
 21
537.1872967194738
 31
0.0
  0
LINE
  5
311
330
83
100
AcDbEntity
  8
1
  6
Continuous
 62
     7
100
AcDbLine
 10
294.7856643806201
 20
514.1372967194736
 30
0.0
 11
294.7856643806201
 21
500.1372967194732
 31
0.0
  0
LINE
  5
312
330
83
100
AcDbEntity
  8
1
  6
Continuous
 62
     7
100
AcDbLine
 10
294.7856643806201
 20
537.1872967194738
 30
0.0
 11
294.7856643806201
 21
530.1372967194736
 31
0.0
  0
LINE
  5
313
330
83
100
AcDbEntity
  8
1
  6
PHANTOM
 62
     4
100
AcDbLine
 10
318.7873649720041
 20
600.2356306345248
 30
0.0
 11
318.7873649720041
 21
496.1362897557897
 31
0.0
  0
LINE
  5
314
330
83
100
AcDbEntity
  8
1
  6
Continuous
 62
     7
100
AcDbLine
 10
294.7856643806201
 20
500.1372967194732
 30
0.0
 11
294.7856643806201
 21
499.1362897557897
 31
0.0
  0
LINE
  5
315
330
83
100
AcDbEntity
  8
1
  6
Continuous
 62
     7
100
AcDbLine
 10
342.7856643806201
 20
499.1362897557897
 30
0.0
 11
342.7856643806201
 21
500.1372967194732
 31
0.0
  0
LINE
  5
316
330
83
100
AcDbEntity
  8
1
  6
Continuous
 62
     7
100
AcDbLine
 10
294.7856643806201
 20
499.1362897557897
 30
0.0
 11
342.7856643806201
 21
499.1362897557897
 31
0.0
  0
LINE
  5
317
330
83
100
AcDbEntity
  8
1
  6
Continuous
 62
     7
100
AcDbLine
 10
295.7302633574541
 20
538.1372967194739
 30
0.0
 11
295.2856643806201
 21
538.1372967194739
 31
0.0
  0
LINE
  5
318
330
83
100
AcDbEntity
  8
1
  6
Continuous
 62
     7
100
AcDbLine
 10
294.7856643806201
 20
537.6372967194739
 30
0.0
 11
294.7856643806201
 21
537.0872967194739
 31
0.0
  0
LINE
  5
319
330
83
100
AcDbEntity
  8
1
  6
Continuous
 62
     7
100
AcDbLine
 10
341.8444665865541
 20
538.1372967194739
 30
0.0
 11
342.2856643806201
 21
538.1372967194739
 31
0.0
  0
LINE
  5
31A
330
83
100
AcDbEntity
  8
1
  6
Continuous
 62
     7
100
AcDbLine
 10
341.8444665865541
 20
538.1372967194739
 30
0.0
 11
341.1943057656571
 21
538.5126672444353
 31
0.0
  0
LINE
  5
31B
330
83
100
AcDbEntity
  8
1
  6
Continuous
 62
     7
100
AcDbLine
 10
342.7856643806201
 20
537.6372967194739
 30
0.0
 11
342.7856643806201
 21
537.0872967194739
 31
0.0
  0
LINE
  5
31C
330
83
100
AcDbEntity
  8
1
  6
Continuous
 62
     7
100
AcDbLine
 10
295.7302633574541
 20
538.1372967194739
 30
0.0
 11
341.8444665865541
 21
538.1372967194739
 31
0.0
  0
LINE
  5
31D
330
83
100
AcDbEntity
  8
1
  6
Continuous
 62
     7
100
AcDbLine
 10
296.3804241783511
 20
538.5126672444353
 30
0.0
 11
295.7302633574541
 21
538.1372967194739
 31
0.0
  0
LINE
  5
31E
330
83
100
AcDbEntity
  8
1
  6
Continuous
 62
     7
100
AcDbLine
 10
776.3804241783512
 20
538.5126672444353
 30
0.0
 11
775.7302633574542
 21
538.1372967194739
 31
0.0
  0
LINE
  5
31F
330
83
100
AcDbEntity
  8
1
  6
Continuous
 62
     7
100
AcDbLine
 10
775.7302633574542
 20
538.1372967194739
 30
0.0
 11
821.8444665865542
 21
538.1372967194739
 31
0.0
  0
LINE
  5
320
330
83
100
AcDbEntity
  8
1
  6
Continuous
 62
     7
100
AcDbLine
 10
821.8444665865542
 20
538.1372967194739
 30
0.0
 11
821.1943057656572
 21
538.5126672444353
 31
0.0
  0
LINE
  5
321
330
83
100
AcDbEntity
  8
1
  6
Continuous
 62
     7
100
AcDbLine
 10
821.8444665865542
 20
538.1372967194739
 30
0.0
 11
822.2856643806202
 21
538.1372967194739
 31
0.0
  0
LINE
  5
322
330
83
100
AcDbEntity
  8
1
  6
Continuous
 62
     7
100
AcDbLine
 10
775.7302633574542
 20
538.1372967194739
 30
0.0
 11
775.2856643806202
 21
538.1372967194739
 31
0.0
  0
LINE
  5
323
330
83
100
AcDbEntity
  8
1
  6
Continuous
 62
     7
100
AcDbLine
 10
774.7856643806202
 20
499.1362897557897
 30
0.0
 11
822.7856643806202
 21
499.1362897557897
 31
0.0
  0
LINE
  5
324
330
83
100
AcDbEntity
  8
1
  6
Continuous
 62
     7
100
AcDbLine
 10
774.7856643806202
 20
537.6372967194739
 30
0.0
 11
774.7856643806202
 21
499.1362897557897
 31
0.0
  0
LINE
  5
325
330
83
100
AcDbEntity
  8
1
  6
Continuous
 62
     7
100
AcDbLine
 10
822.7856643806202
 20
499.1362897557897
 30
0.0
 11
822.7856643806202
 21
537.6372967194739
 31
0.0
  0
LINE
  5
326
330
83
100
AcDbEntity
  8
1
  6
PHANTOM
 62
     4
100
AcDbLine
 10
798.7873649720041
 20
600.2356306345248
 30
0.0
 11
798.7873649720041
 21
496.1362897557897
 31
0.0
  0
LINE
  5
327
330
83
100
AcDbEntity
  8
1
  6
PHANTOM
 62
     4
100
AcDbLine
 10
291.7856643806201
 20
522.1362897557904
 30
0.0
 11
345.789065563388
 21
522.1362897557904
 31
0.0
  0
ARC
  5
328
330
83
100
AcDbEntity
  8
1
  6
Continuous
 62
     7
100
AcDbCircle
 10
363.2227170249992
 20
522.1372967194736
 30
0.0
 40
21.94705266747958
100
AcDbArc
 50
158.6223458056402
 51
-158.6223458056402
  0
ARC
  5
329
330
83
100
AcDbEntity
  8
1
  6
Continuous
 62
     7
100
AcDbCircle
 10
274.3486117362411
 20
522.1372967194736
 30
0.0
 40
21.94705266747953
100
AcDbArc
 50
-21.3776541943599
 51
21.3776541943599
  0
ARC
  5
32A
330
83
100
AcDbEntity
  8
1
  6
Continuous
 62
     7
100
AcDbCircle
 10
295.2856643806201
 20
537.6372967194739
 30
0.0
 40
0.5
100
AcDbArc
 50
90.0
 51
180.0
  0
ARC
  5
32B
330
83
100
AcDbEntity
  8
1
  6
Continuous
 62
     7
100
AcDbCircle
 10
342.2856643806201
 20
537.6372967194739
 30
0.0
 40
0.5
100
AcDbArc
 50
0.0
 51
90.0
  0
ARC
  5
32C
330
83
100
AcDbEntity
  8
1
  6
Continuous
 62
     7
100
AcDbCircle
 10
822.2856643806202
 20
537.6372967194739
 30
0.0
 40
0.5
100
AcDbArc
 50
0.0
 51
90.0
  0
ARC
  5
32D
330
83
100
AcDbEntity
  8
1
  6
Continuous
 62
     7
100
AcDbCircle
 10
775.2856643806202
 20
537.6372967194739
 30
0.0
 40
0.5
100
AcDbArc
 50
90.0
 51
180.0
  0
ENDBLK
  5
85
330
83
100
AcDbEntity
  8
0
100
AcDbBlockEnd
  0
BLOCK
  5
87
330
86
100
AcDbEntity
  8
0
100
AcDbBlockBegin
  2
34-167-M1
 70
     0
 71
     0
 10
0.0
 20
1485.0
 30
0.0
  3
34-167-M1
  1

  0
LINE
  5
32E
330
86
100
AcDbEntity
  8
1
  6
PHANTOM
 62
     4
100
AcDbLine
 10
310.2995169416394
 20
522.136289754998
 30
0.0
 11
291.2995169416462
 21
522.136289754998
 31
0.0
  0
LINE
  5
32F
330
86
100
AcDbEntity
  8
1
  6
PHANTOM
 62
     4
100
AcDbLine
 10
327.2752130023688
 20
522.138303684173
 30
0.0
 11
346.275213002362
 21
522.138303684173
 31
0.0
  0
LINE
  5
330
330
86
100
AcDbEntity
  8
1
  6
Continuous
 62
     7
100
AcDbLine
 10
806.6238182513912
 20
523.1362897557904
 30
0.0
 11
790.9509116926181
 21
523.1362897557904
 31
0.0
  0
LINE
  5
331
330
86
100
AcDbEntity
  8
1
  6
Continuous
 62
     7
100
AcDbLine
 10
790.9509116926181
 20
521.1362897557904
 30
0.0
 11
806.6238182513912
 21
521.1362897557904
 31
0.0
  0
LINE
  5
332
330
86
100
AcDbEntity
  8
1
  6
PHANTOM
 62
     4
100
AcDbLine
 10
798.7873649720041
 20
511.2362897557899
 30
0.0
 11
798.7873649720041
 21
533.0362897557909
 31
0.0
  0
LINE
  5
333
330
86
100
AcDbEntity
  8
1
  6
PHANTOM
 62
     4
100
AcDbLine
 10
787.8873649720042
 20
522.1362897557904
 30
0.0
 11
809.6873649720051
 21
522.1362897557904
 31
0.0
  0
ARC
  5
334
330
86
100
AcDbEntity
  8
1
  6
Continuous
 62
     7
100
AcDbCircle
 10
326.2995169416462
 20
522.136289754998
 30
0.0
 40
31.9999999999999
100
AcDbArc
 50
167.1205931262172
 51
180.0
  0
ARC
  5
335
330
86
100
AcDbEntity
  8
1
  6
Continuous
 62
     7
100
AcDbCircle
 10
311.275213002362
 20
522.138303684173
 30
0.0
 40
31.99999999999992
100
AcDbArc
 50
-12.89031856394198
 51
0.0
  0
ARC
  5
336
330
86
100
AcDbEntity
  8
1
  6
Continuous
 62
     7
100
AcDbCircle
 10
311.275213002362
 20
522.138303684173
 30
0.0
 40
32.0
100
AcDbArc
 50
0.0
 51
12.88809728965893
  0
ARC
  5
337
330
86
100
AcDbEntity
  8
1
  6
Continuous
 62
     7
100
AcDbCircle
 10
326.2995169416462
 20
522.136289754998
 30
0.0
 40
32.0
100
AcDbArc
 50
180.0
 51
-167.1228142545818
  0
CIRCLE
  5
338
330
86
100
AcDbEntity
  8
1
  6
Continuous
 62
     7
100
AcDbCircle
 10
798.7873649720041
 20
522.1362897557904
 30
0.0
 40
7.900000000001
  0
ENDBLK
  5
88
330
86
100
AcDbEntity
  8
0
100
AcDbBlockEnd
  0
BLOCK
  5
8A
330
89
100
AcDbEntity
  8
0
100
AcDbBlockBegin
  2
_J__A4
 70
     0
 71
     0
 10
0.0
 20
0.0
 30
0.0
  3
_J__A4
  1

  0
POINT
  5
339
330
89
100
AcDbEntity
  8
1
 62
     4
100
AcDbPoint
 10
34.0
 20
34.00000000000001
 30
0.0
  0
POINT
  5
33A
330
89
100
AcDbEntity
  8
1
 62
     4
100
AcDbPoint
 10
57.0
 20
12.25
 30
0.0
  0
POINT
  5
33B
330
89
100
AcDbEntity
  8
1
 62
     4
100
AcDbPoint
 10
57.0
 20
20.75000000000001
 30
0.0
  0
POINT
  5
33C
330
89
100
AcDbEntity
  8
1
 62
     4
100
AcDbPoint
 10
57.0
 20
24.75000000000001
 30
0.0
  0
POINT
  5
33D
330
89
100
AcDbEntity
  8
1
 62
     4
100
AcDbPoint
 10
57.0
 20
16.25
 30
0.0
  0
POINT
  5
33E
330
89
100
AcDbEntity
  8
1
 62
     4
100
AcDbPoint
 10
157.5
 20
19.00000000000001
 30
0.0
  0
POINT
  5
33F
330
89
100
AcDbEntity
  8
1
 62
     4
100
AcDbPoint
 10
47.5
 20
282.0000000000003
 30
0.0
  0
POINT
  5
340
330
89
100
AcDbEntity
  8
1
 62
     4
100
AcDbPoint
 10
57.0
 20
22.75000000000001
 30
0.0
  0
POINT
  5
341
330
89
100
AcDbEntity
  8
1
 62
     4
100
AcDbPoint
 10
57.0
 20
14.25
 30
0.0
  0
POINT
  5
342
330
89
100
AcDbEntity
  8
1
 62
     4
100
AcDbPoint
 10
157.5
 20
12.5
 30
0.0
  0
POINT
  5
343
330
89
100
AcDbEntity
  8
1
 62
     4
100
AcDbPoint
 10
163.25
 20
12.5
 30
0.0
  0
POINT
  5
344
330
89
100
AcDbEntity
  8
1
 62
     4
100
AcDbPoint
 10
151.75
 20
12.5
 30
0.0
  0
POINT
  5
345
330
89
100
AcDbEntity
  8
1
 62
     4
100
AcDbPoint
 10
134.75
 20
12.5
 30
0.0
  0
POINT
  5
346
330
89
100
AcDbEntity
  8
1
 62
     4
100
AcDbPoint
 10
146.25
 20
12.5
 30
0.0
  0
POINT
  5
347
330
89
100
AcDbEntity
  8
1
 62
     4
100
AcDbPoint
 10
140.5
 20
12.5
 30
0.0
  0
POINT
  5
348
330
89
100
AcDbEntity
  8
1
 62
     4
100
AcDbPoint
 10
140.5
 20
19.00000000000001
 30
0.0
  0
POINT
  5
349
330
89
100
AcDbEntity
  8
1
 62
     4
100
AcDbPoint
 10
117.75
 20
12.5
 30
0.0
  0
POINT
  5
34A
330
89
100
AcDbEntity
  8
1
 62
     4
100
AcDbPoint
 10
129.25
 20
12.5
 30
0.0
  0
POINT
  5
34B
330
89
100
AcDbEntity
  8
1
 62
     4
100
AcDbPoint
 10
123.5
 20
12.5
 30
0.0
  0
POINT
  5
34C
330
89
100
AcDbEntity
  8
1
 62
     4
100
AcDbPoint
 10
123.5
 20
19.00000000000001
 30
0.0
  0
POINT
  5
34D
330
89
100
AcDbEntity
  8
1
 62
     4
100
AcDbPoint
 10
100.75
 20
12.5
 30
0.0
  0
POINT
  5
34E
330
89
100
AcDbEntity
  8
1
 62
     4
100
AcDbPoint
 10
112.25
 20
12.5
 30
0.0
  0
POINT
  5
34F
330
89
100
AcDbEntity
  8
1
 62
     4
100
AcDbPoint
 10
106.5
 20
12.5
 30
0.0
  0
POINT
  5
350
330
89
100
AcDbEntity
  8
1
 62
     4
100
AcDbPoint
 10
106.5
 20
19.00000000000001
 30
0.0
  0
POINT
  5
351
330
89
100
AcDbEntity
  8
1
 62
     4
100
AcDbPoint
 10
85.25
 20
17.0
 30
0.0
  0
POINT
  5
352
330
89
100
AcDbEntity
  8
1
 62
     4
100
AcDbPoint
 10
93.75
 20
17.0
 30
0.0
  0
LINE
  5
353
330
89
100
AcDbEntity
  8
1
  6
Continuous
 62
     2
100
AcDbLine
 10
81.0
 20
27.00000000000001
 30
0.0
 11
81.0
 21
10.0
 31
0.0
  0
LINE
  5
354
330
89
100
AcDbEntity
  8
1
  6
DOT_CENTER
 62
     2
100
AcDbLine
 10
187.0
 20
26.50000000000001
 30
0.0
 11
187.0
 21
20.50000000000001
 31
0.0
  0
LINE
  5
355
330
89
100
AcDbEntity
  8
1
  6
DOT_CENTER
 62
     2
100
AcDbLine
 10
184.0
 20
23.50000000000001
 30
0.0
 11
197.0
 21
23.50000000000001
 31
0.0
  0
LINE
  5
356
330
89
100
AcDbEntity
  8
1
  6
Continuous
 62
     7
100
AcDbLine
 10
196.0
 20
21.50000000000001
 30
0.0
 11
191.0
 21
22.30000000000001
 31
0.0
  0
LINE
  5
357
330
89
100
AcDbEntity
  8
1
  6
Continuous
 62
     7
100
AcDbLine
 10
196.0
 20
25.50000000000001
 30
0.0
 11
196.0
 21
21.50000000000001
 31
0.0
  0
LINE
  5
358
330
89
100
AcDbEntity
  8
1
  6
Continuous
 62
     7
100
AcDbLine
 10
191.0
 20
24.70000000000001
 30
0.0
 11
196.0
 21
25.50000000000001
 31
0.0
  0
LINE
  5
359
330
89
100
AcDbEntity
  8
1
  6
Continuous
 62
     7
100
AcDbLine
 10
191.0
 20
24.70000000000001
 30
0.0
 11
191.0
 21
22.30000000000001
 31
0.0
  0
LINE
  5
35A
330
89
100
AcDbEntity
  8
1
  6
Continuous
 62
     2
100
AcDbLine
 10
33.0
 20
27.0
 30
0.0
 11
33.0
 21
10.0
 31
0.0
  0
LINE
  5
35B
330
89
100
AcDbEntity
  8
1
  6
Continuous
 62
     2
100
AcDbLine
 10
25.0
 20
18.50000000000001
 30
0.0
 11
81.0
 21
18.50000000000001
 31
0.0
  0
LINE
  5
35C
330
89
100
AcDbEntity
  8
1
  6
Continuous
 62
     7
100
AcDbLine
 10
200.0
 20
287.0000000000003
 30
0.0
 11
105.0
 21
287.0000000000003
 31
0.0
  0
LINE
  5
35D
330
89
100
AcDbEntity
  8
1
  6
Continuous
 62
     7
100
AcDbLine
 10
200.0
 20
10.0
 30
0.0
 11
200.0
 21
148.5
 31
0.0
  0
LINE
  5
35E
330
89
100
AcDbEntity
  8
1
  6
Continuous
 62
     7
100
AcDbLine
 10
25.0
 20
10.0
 30
0.0
 11
105.0
 21
10.0
 31
0.0
  0
LINE
  5
35F
330
89
100
AcDbEntity
  8
1
  6
PHANTOM
 62
     4
100
AcDbLine
 10
0.0
 20
297.0
 30
0.0
 11
0.0
 21
0.0
 31
0.0
  0
LINE
  5
360
330
89
100
AcDbEntity
  8
1
  6
PHANTOM
 62
     4
100
AcDbLine
 10
210.0
 20
297.0
 30
0.0
 11
0.0
 21
297.0
 31
0.0
  0
LINE
  5
361
330
89
100
AcDbEntity
  8
1
  6
PHANTOM
 62
     4
100
AcDbLine
 10
210.0
 20
0.0
 30
0.0
 11
210.0
 21
297.0
 31
0.0
  0
LINE
  5
362
330
89
100
AcDbEntity
  8
1
  6
PHANTOM
 62
     4
100
AcDbLine
 10
0.0
 20
0.0
 30
0.0
 11
210.0
 21
0.0
 31
0.0
  0
LINE
  5
363
330
89
100
AcDbEntity
  8
1
  6
Continuous
 62
     7
100
AcDbLine
 10
25.0
 20
41.0
 30
0.0
 11
200.0
 21
41.0
 31
0.0
  0
LINE
  5
364
330
89
100
AcDbEntity
  8
1
  6
Continuous
 62
     7
100
AcDbLine
 10
200.0
 20
27.00000000000001
 30
0.0
 11
25.0
 21
27.00000000000001
 31
0.0
  0
LINE
  5
365
330
89
100
AcDbEntity
  8
1
  6
Continuous
 62
     2
100
AcDbLine
 10
33.0
 20
41.00000000000001
 30
0.0
 11
33.0
 21
27.0
 31
0.0
  0
LINE
  5
366
330
89
100
AcDbEntity
  8
1
  6
Continuous
 62
     2
100
AcDbLine
 10
55.0
 20
287.0000000000003
 30
0.0
 11
55.0
 21
277.0000000000003
 31
0.0
  0
LINE
  5
367
330
89
100
AcDbEntity
  8
1
  6
Continuous
 62
     2
100
AcDbLine
 10
40.0
 20
287.0000000000003
 30
0.0
 11
40.0
 21
277.0000000000003
 31
0.0
  0
LINE
  5
368
330
89
100
AcDbEntity
  8
1
  6
Continuous
 62
     7
100
AcDbLine
 10
25.0
 20
10.0
 30
0.0
 11
25.0
 21
148.5
 31
0.0
  0
LINE
  5
369
330
89
100
AcDbEntity
  8
1
  6
Continuous
 62
     2
100
AcDbLine
 10
55.0
 20
277.0000000000003
 30
0.0
 11
25.0
 21
277.0000000000003
 31
0.0
  0
LINE
  5
36A
330
89
100
AcDbEntity
  8
1
  6
Continuous
 62
     2
100
AcDbLine
 10
166.0
 20
27.00000000000001
 30
0.0
 11
166.0
 21
10.0
 31
0.0
  0
LINE
  5
36B
330
89
100
AcDbEntity
  8
1
  6
Continuous
 62
     2
100
AcDbLine
 10
132.0
 20
27.00000000000001
 30
0.0
 11
132.0
 21
9.99999999999999
 31
0.0
  0
LINE
  5
36C
330
89
100
AcDbEntity
  8
1
  6
Continuous
 62
     2
100
AcDbLine
 10
149.0
 20
27.00000000000001
 30
0.0
 11
149.0
 21
10.0
 31
0.0
  0
LINE
  5
36D
330
89
100
AcDbEntity
  8
1
  6
Continuous
 62
     2
100
AcDbLine
 10
115.0
 20
27.00000000000001
 30
0.0
 11
115.0
 21
9.99999999999999
 31
0.0
  0
LINE
  5
36E
330
89
100
AcDbEntity
  8
1
  6
Continuous
 62
     2
100
AcDbLine
 10
98.0
 20
27.00000000000001
 30
0.0
 11
98.0
 21
9.99999999999999
 31
0.0
  0
LINE
  5
36F
330
89
100
AcDbEntity
  8
1
  6
Continuous
 62
     2
100
AcDbLine
 10
166.0
 20
20.00000000000001
 30
0.0
 11
200.0
 21
20.00000000000001
 31
0.0
  0
LINE
  5
370
330
89
100
AcDbEntity
  8
1
  6
Continuous
 62
     2
100
AcDbLine
 10
105.0
 20
287.0000000000003
 30
0.0
 11
105.0
 21
292.0000000000003
 31
0.0
  0
LINE
  5
371
330
89
100
AcDbEntity
  8
1
  6
Continuous
 62
     7
100
AcDbLine
 10
105.0
 20
287.0000000000003
 30
0.0
 11
25.0
 21
287.0000000000003
 31
0.0
  0
LINE
  5
372
330
89
100
AcDbEntity
  8
1
  6
Continuous
 62
     2
100
AcDbLine
 10
25.0
 20
148.5
 30
0.0
 11
20.0
 21
148.5
 31
0.0
  0
LINE
  5
373
330
89
100
AcDbEntity
  8
1
  6
Continuous
 62
     7
100
AcDbLine
 10
25.0
 20
148.5
 30
0.0
 11
25.0
 21
287.0000000000003
 31
0.0
  0
LINE
  5
374
330
89
100
AcDbEntity
  8
1
  6
Continuous
 62
     2
100
AcDbLine
 10
200.0
 20
148.5
 30
0.0
 11
205.0
 21
148.5
 31
0.0
  0
LINE
  5
375
330
89
100
AcDbEntity
  8
1
  6
Continuous
 62
     7
100
AcDbLine
 10
200.0
 20
148.5
 30
0.0
 11
200.0
 21
287.0000000000003
 31
0.0
  0
LINE
  5
376
330
89
100
AcDbEntity
  8
1
  6
Continuous
 62
     2
100
AcDbLine
 10
105.0
 20
10.0
 30
0.0
 11
105.0
 21
5.0
 31
0.0
  0
LINE
  5
377
330
89
100
AcDbEntity
  8
1
  6
Continuous
 62
     7
100
AcDbLine
 10
105.0
 20
10.0
 30
0.0
 11
200.0
 21
10.0
 31
0.0
  0
CIRCLE
  5
378
330
89
100
AcDbEntity
  8
1
  6
DOT_CENTER
 62
     7
100
AcDbCircle
 10
89.5
 20
18.0
 30
0.0
 40
0.1000000000000227
  0
CIRCLE
  5
379
330
89
100
AcDbEntity
  8
1
  6
DOT_CENTER
 62
     7
100
AcDbCircle
 10
89.5
 20
16.0
 30
0.0
 40
0.1000000000000227
  0
CIRCLE
  5
37A
330
89
100
AcDbEntity
  8
1
  6
Continuous
 62
     7
100
AcDbCircle
 10
187.0
 20
23.50000000000001
 30
0.0
 40
2.0
  0
CIRCLE
  5
37B
330
89
100
AcDbEntity
  8
1
  6
Continuous
 62
     7
100
AcDbCircle
 10
187.0
 20
23.50000000000001
 30
0.0
 40
1.200000000000102
  0
CIRCLE
  5
37C
330
89
100
AcDbEntity
  8
1
  6
Continuous
 62
     7
100
AcDbCircle
 10
154.5
 20
12.5
 30
0.0
 40
0.3000000000000114
  0
CIRCLE
  5
37D
330
89
100
AcDbEntity
  8
1
  6
Continuous
 62
     7
100
AcDbCircle
 10
160.5
 20
12.5
 30
0.0
 40
0.3000000000000114
  0
CIRCLE
  5
37E
330
89
100
AcDbEntity
  8
1
  6
Continuous
 62
     7
100
AcDbCircle
 10
143.5
 20
12.5
 30
0.0
 40
0.3000000000000114
  0
CIRCLE
  5
37F
330
89
100
AcDbEntity
  8
1
  6
Continuous
 62
     7
100
AcDbCircle
 10
137.5
 20
12.5
 30
0.0
 40
0.3000000000000114
  0
CIRCLE
  5
380
330
89
100
AcDbEntity
  8
1
  6
Continuous
 62
     7
100
AcDbCircle
 10
126.5
 20
12.5
 30
0.0
 40
0.2999999999999972
  0
CIRCLE
  5
381
330
89
100
AcDbEntity
  8
1
  6
Continuous
 62
     7
100
AcDbCircle
 10
120.5
 20
12.5
 30
0.0
 40
0.2999999999999972
  0
CIRCLE
  5
382
330
89
100
AcDbEntity
  8
1
  6
Continuous
 62
     7
100
AcDbCircle
 10
109.5
 20
12.5
 30
0.0
 40
0.2999999999999972
  0
CIRCLE
  5
383
330
89
100
AcDbEntity
  8
1
  6
Continuous
 62
     7
100
AcDbCircle
 10
103.5
 20
12.5
 30
0.0
 40
0.2999999999999972
  0
MTEXT
  5
385
330
89
100
AcDbEntity
  8
1
 62
   250
100
AcDbMText
 10
25.0
 20
5.0
 30
0.0
 40
3.5
 41
0.0
 71
     4
 72
     1
  1
備考欄の文字列 原点位置=4
  7
CONVERTER_1
 73
     1
 44
0.7202881152461
  0
MTEXT
  5
386
330
89
100
AcDbEntity
  8
1
 62
     2
100
AcDbMText
 10
89.5
 20
24.00000000000001
 30
0.0
 40
3.5
 41
0.0
 71
     5
 72
     1
  1
尺度
  7
CONVERTER_1
 73
     1
 44
0.7202881152461
  0
MTEXT
  5
387
330
89
100
AcDbEntity
  8
1
 62
     2
100
AcDbMText
 10
135.5
 20
25.00000000000001
 30
0.0
 40
3.0
 41
0.0
 71
     5
 72
     1
  1
製図
  7
CONVERTER_1
 73
     1
 44
0.78031212484994
  0
MTEXT
  5
388
330
89
100
AcDbEntity
  8
1
 62
     2
100
AcDbMText
 10
152.5
 20
25.00000000000001
 30
0.0
 40
3.0
 41
0.0
 71
     5
 72
     1
  1
設計
  7
CONVERTER_1
 73
     1
 44
0.78031212484994
  0
MTEXT
  5
389
330
89
100
AcDbEntity
  8
1
 62
     2
100
AcDbMText
 10
118.5
 20
25.00000000000001
 30
0.0
 40
3.0
 41
0.0
 71
     5
 72
     1
  1
検図
  7
CONVERTER_1
 73
     1
 44
0.78031212484994
  0
MTEXT
  5
38A
330
89
100
AcDbEntity
  8
1
 62
     2
100
AcDbMText
 10
175.0
 20
23.50000000000001
 30
0.0
 40
3.5
 41
0.0
 71
     5
 72
     1
  1
第三角法
  7
CONVERTER_1
 73
     1
 44
0.7202881152461
  0
MTEXT
  5
38B
330
89
100
AcDbEntity
  8
1
 62
     2
100
AcDbMText
 10
101.5
 20
25.00000000000001
 30
0.0
 40
3.0
 41
0.0
 71
     5
 72
     1
  1
承認
  7
CONVERTER_1
 73
     1
 44
0.78031212484994
  0
MTEXT
  5
38C
330
89
100
AcDbEntity
  8
1
 62
     2
100
AcDbMText
 10
29.0
 20
14.25
 30
0.0
 40
3.5
 41
0.0
 71
     5
 72
     1
  1
品番
  7
CONVERTER_1
 73
     1
 44
0.96038415366146
  0
MTEXT
  5
38D
330
89
100
AcDbEntity
  8
1
 62
     2
100
AcDbMText
 10
29.0
 20
22.75
 30
0.0
 40
3.5
 41
0.0
 71
     5
 72
     1
  1
品名
  7
CONVERTER_1
 73
     1
 44
0.96038415366146
  0
MTEXT
  5
38E
330
89
100
AcDbEntity
  8
1
 62
     2
100
AcDbMText
 10
29.0
 20
34.00000000000001
 30
0.0
 40
3.5
 41
0.0
 71
     5
 72
     1
  1
備考
  7
CONVERTER_1
 73
     1
 44
0.60024009603842
  0
MTEXT
  5
38F
330
89
100
AcDbEntity
  8
1
 62
     2
100
AcDbMText
 10
32.5
 20
282.0000000000003
 30
0.0
 40
5.0
 41
0.0
 71
     5
 72
     1
  1
図番
  7
CONVERTER_1
 73
     1
 44
0.60024009603842
  0
MTEXT
  5
390
330
89
100
AcDbEntity
  8
1
 62
     7
100
AcDbMText
 10
171.5
 20
15.0
 30
0.0
 40
2.5
 41
0.0
 71
     5
 72
     1
  1
株式会社
  7
CONVERTER_1
 73
     1
 44
1.32052821128451
  0
MTEXT
  5
391
330
89
100
AcDbEntity
  8
1
 62
     7
100
AcDbMText
 10
188.5
 20
15.0
 30
0.0
 40
3.0
 41
0.0
 71
     5
 72
     1
  1
三栄水栓製作所
  7
CONVERTER_1
 73
     1
 44
1.32052821128451
  0
ENDBLK
  5
8B
330
89
100
AcDbEntity
  8
0
100
AcDbBlockEnd
  0
BLOCK
  5
3E2
330
3DB
100
AcDbEntity
  8
0
100
AcDbBlockBegin
  2
*D028
 70
     1
 71
     0
 10
0.0
 20
0.0
 30
0.0
  3
*D028
  1

  0
LINE
  5
3DC
330
3DB
100
AcDbEntity
  8
1
  6
Continuous
 62
     2
100
AcDbLine
 10
919.3516363355212
 20
727.7009687285433
 30
0.0
 11
919.3516363355212
 21
475.6362897557898
 31
0.0
  0
LINE
  5
3DD
330
3DB
100
AcDbEntity
  8
1
  6
Continuous
 62
     2
100
AcDbLine
 10
737.8761736032693
 20
727.7009687285433
 30
0.0
 11
924.3516363355212
 21
727.7009687285433
 31
0.0
  0
LINE
  5
3DE
330
3DB
100
AcDbEntity
  8
1
  6
Continuous
 62
     2
100
AcDbLine
 10
823.8297535680612
 20
475.6362897557898
 30
0.0
 11
924.3516363355212
 21
475.6362897557898
 31
0.0
  0
SOLID
  5
3DF
330
3DB
100
AcDbEntity
  8
1
 62
     2
100
AcDbTrace
 10
921.6555550433006
 20
710.2009687285433
 30
0.0
 11
917.0477176277418
 21
710.2009687285433
 31
0.0
 12
919.3516363355212
 22
727.7009687285433
 32
0.0
 13
919.3516363355212
 23
727.7009687285433
 33
0.0
  0
SOLID
  5
3E0
330
3DB
100
AcDbEntity
  8
1
 62
     2
100
AcDbTrace
 10
917.0477176277418
 20
493.1362897557898
 30
0.0
 11
921.6555550433006
 21
493.1362897557898
 31
0.0
 12
919.3516363355212
 22
475.6362897557898
 32
0.0
 13
919.3516363355212
 23
475.6362897557898
 33
0.0
  0
MTEXT
  5
3E1
330
3DB
100
AcDbEntity
  8
1
 62
     7
100
AcDbMText
 10
914.3516363355212
 20
547.4550666249781
 30
0.0
 40
17.5
 41
0.0
 71
     7
 72
     1
  1
\C7;最大\C7;252
  7
CONVERTER_1
 11
0.0
 21
1.0
 31
0.0
 73
     1
 44
0.60024009603842
  0
ENDBLK
  5
3E3
330
3DB
100
AcDbEntity
  8
0
100
AcDbBlockEnd
  0
BLOCK
  5
3ED
330
3E6
100
AcDbEntity
  8
0
100
AcDbBlockBegin
  2
*D129
 70
     1
 71
     0
 10
0.0
 20
0.0
 30
0.0
  3
*D129
  1

  0
LINE
  5
3E7
330
3E6
100
AcDbEntity
  8
1
  6
Continuous
 62
     2
100
AcDbLine
 10
879.3516363355212
 20
693.1362897557899
 30
0.0
 11
879.3516363355212
 21
475.6362897557897
 31
0.0
  0
LINE
  5
3E8
330
3E6
100
AcDbEntity
  8
1
  6
Continuous
 62
     2
100
AcDbLine
 10
703.7873649720018
 20
693.1362897557899
 30
0.0
 11
884.3516363355212
 21
693.1362897557899
 31
0.0
  0
LINE
  5
3E9
330
3E6
100
AcDbEntity
  8
1
  6
Continuous
 62
     2
100
AcDbLine
 10
823.8297535680612
 20
475.6362897557897
 30
0.0
 11
884.3516363355212
 21
475.6362897557897
 31
0.0
  0
SOLID
  5
3EA
330
3E6
100
AcDbEntity
  8
1
 62
     2
100
AcDbTrace
 10
881.6555550433006
 20
675.6362897557899
 30
0.0
 11
877.0477176277418
 21
675.6362897557899
 31
0.0
 12
879.3516363355212
 22
693.1362897557899
 32
0.0
 13
879.3516363355212
 23
693.1362897557899
 33
0.0
  0
SOLID
  5
3EB
330
3E6
100
AcDbEntity
  8
1
 62
     2
100
AcDbTrace
 10
877.0477176277418
 20
493.1362897557897
 30
0.0
 11
881.6555550433006
 21
493.1362897557897
 31
0.0
 12
879.3516363355212
 22
475.6362897557897
 32
0.0
 13
879.3516363355212
 23
475.6362897557897
 33
0.0
  0
MTEXT
  5
3EC
330
3E6
100
AcDbEntity
  8
1
 62
     7
100
AcDbMText
 10
874.3516363355212
 20
521.9591636104613
 30
0.0
 40
17.5
 41
0.0
 71
     7
 72
     1
  1
\C7;最小\C7;218
  7
CONVERTER_1
 11
0.0
 21
1.0
 31
0.0
 73
     1
 44
0.60024009603842
  0
ENDBLK
  5
3EE
330
3E6
100
AcDbEntity
  8
0
100
AcDbBlockEnd
  0
BLOCK
  5
3F8
330
3F1
100
AcDbEntity
  8
0
100
AcDbBlockBegin
  2
*D230
 70
     1
 71
     0
 10
0.0
 20
0.0
 30
0.0
  3
*D230
  1

  0
LINE
  5
3F2
330
3F1
100
AcDbEntity
  8
1
  6
Continuous
 62
     2
100
AcDbLine
 10
773.7449763759456
 20
320.636289755789
 30
0.0
 11
823.8297535680612
 21
320.636289755789
 31
0.0
  0
LINE
  5
3F3
330
3F1
100
AcDbEntity
  8
1
  6
Continuous
 62
     2
100
AcDbLine
 10
773.7449763759456
 20
475.6362897557898
 30
0.0
 11
773.7449763759456
 21
315.636289755789
 31
0.0
  0
LINE
  5
3F4
330
3F1
100
AcDbEntity
  8
1
  6
Continuous
 62
     2
100
AcDbLine
 10
823.8297535680612
 20
475.6362897557898
 30
0.0
 11
823.8297535680612
 21
315.636289755789
 31
0.0
  0
SOLID
  5
3F5
330
3F1
100
AcDbEntity
  8
1
 62
     2
100
AcDbTrace
 10
791.2449763759456
 20
322.9402084635684
 30
0.0
 11
791.2449763759456
 21
318.3323710480096
 31
0.0
 12
773.7449763759456
 22
320.636289755789
 32
0.0
 13
773.7449763759456
 23
320.636289755789
 33
0.0
  0
SOLID
  5
3F6
330
3F1
100
AcDbEntity
  8
1
 62
     2
100
AcDbTrace
 10
806.3297535680612
 20
318.3323710480096
 30
0.0
 11
806.3297535680612
 21
322.9402084635684
 31
0.0
 12
823.8297535680612
 22
320.636289755789
 32
0.0
 13
823.8297535680612
 23
320.636289755789
 33
0.0
  0
MTEXT
  5
3F7
330
3F1
100
AcDbEntity
  8
1
 62
     7
100
AcDbMText
 10
785.6623649720042
 20
325.636289755789
 30
0.0
 40
17.5
 41
0.0
 71
     7
 72
     1
  1
50
  7
CONVERTER_2
 11
0.9999999999970621
 21
2.424068405545307E-6
 31
0.0
 73
     1
 44
0.60024009603842
  0
ENDBLK
  5
3F9
330
3F1
100
AcDbEntity
  8
0
100
AcDbBlockEnd
  0
BLOCK
  5
403
330
3FC
100
AcDbEntity
  8
0
100
AcDbBlockBegin
  2
*D331
 70
     1
 71
     0
 10
0.0
 20
0.0
 30
0.0
  3
*D331
  1

  0
LINE
  5
3FD
330
3FC
100
AcDbEntity
  8
1
  6
Continuous
 62
     2
100
AcDbLine
 10
155.7873649720041
 20
475.6362897557893
 30
0.0
 11
155.7873649720041
 21
417.6362897557891
 31
0.0
  0
LINE
  5
3FE
330
3FC
100
AcDbEntity
  8
1
  6
Continuous
 62
     2
100
AcDbLine
 10
195.7873649720041
 20
475.6362897557893
 30
0.0
 11
150.7873649720041
 21
475.6362897557893
 31
0.0
  0
LINE
  5
3FF
330
3FC
100
AcDbEntity
  8
1
  6
Continuous
 62
     2
100
AcDbLine
 10
204.0373649720037
 20
417.6362897557891
 30
0.0
 11
150.7873649720041
 21
417.6362897557891
 31
0.0
  0
SOLID
  5
400
330
3FC
100
AcDbEntity
  8
1
 62
     2
100
AcDbTrace
 10
158.0912836797835
 20
458.1362897557893
 30
0.0
 11
153.4834462642247
 21
458.1362897557893
 31
0.0
 12
155.7873649720041
 22
475.6362897557893
 32
0.0
 13
155.7873649720041
 23
475.6362897557893
 33
0.0
  0
SOLID
  5
401
330
3FC
100
AcDbEntity
  8
1
 62
     2
100
AcDbTrace
 10
153.4834462642247
 20
435.1362897557891
 30
0.0
 11
158.0912836797835
 21
435.1362897557891
 31
0.0
 12
155.7873649720041
 22
417.6362897557891
 32
0.0
 13
155.7873649720041
 23
417.6362897557891
 33
0.0
  0
MTEXT
  5
402
330
3FC
100
AcDbEntity
  8
1
 62
     7
100
AcDbMText
 10
150.7873649720041
 20
433.5112897557892
 30
0.0
 40
17.5
 41
0.0
 71
     7
 72
     1
  1
58
  7
CONVERTER_2
 11
0.0
 21
1.0
 31
0.0
 73
     1
 44
0.60024009603842
  0
ENDBLK
  5
404
330
3FC
100
AcDbEntity
  8
0
100
AcDbBlockEnd
  0
BLOCK
  5
410
330
407
100
AcDbEntity
  8
0
100
AcDbBlockBegin
  2
*D432
 70
     1
 71
     0
 10
0.0
 20
0.0
 30
0.0
  3
*D432
  1

  0
LINE
  5
408
330
407
100
AcDbEntity
  8
0
  6
Continuous
 62
     2
100
AcDbLine
 10
770.2988510400516
 20
417.5734553623281
 30
0.0
 11
805.2988510400516
 21
417.5734553623281
 31
0.0
  0
LINE
  5
409
330
407
100
AcDbEntity
  8
0
  6
Continuous
 62
     2
100
AcDbLine
 10
805.2988510400516
 20
417.5734553623281
 30
0.0
 11
829.2988510400516
 21
417.5734553623281
 31
0.0
  0
LINE
  5
40A
330
407
100
AcDbEntity
  8
0
  6
Continuous
 62
     2
100
AcDbLine
 10
829.2988510400516
 20
417.5734553623281
 30
0.0
 11
927.6478151987391
 21
417.5734553623281
 31
0.0
  0
LINE
  5
40B
330
407
100
AcDbEntity
  8
0
  6
Continuous
 62
     2
100
AcDbLine
 10
810.7873649720042
 20
449.6362897557896
 30
0.0
 11
831.7988510400516
 21
413.2433283434059
 31
0.0
  0
LINE
  5
40C
330
407
100
AcDbEntity
  8
0
  6
Continuous
 62
     2
100
AcDbLine
 10
786.7873649720042
 20
449.6362897557896
 30
0.0
 11
807.7988510400516
 21
413.2433283434059
 31
0.0
  0
SOLID
  5
40D
330
407
100
AcDbEntity
  8
0
 62
     2
100
AcDbTrace
 10
787.7988510400516
 20
415.2695366545487
 30
0.0
 11
787.7988510400516
 21
419.8773740701075
 31
0.0
 12
805.2988510400516
 22
417.5734553623281
 32
0.0
 13
805.2988510400516
 23
417.5734553623281
 33
0.0
  0
SOLID
  5
40E
330
407
100
AcDbEntity
  8
0
 62
     2
100
AcDbTrace
 10
846.7988510400516
 20
419.8773740701075
 30
0.0
 11
846.7988510400516
 21
415.2695366545487
 31
0.0
 12
829.2988510400516
 22
417.5734553623281
 32
0.0
 13
829.2988510400516
 23
417.5734553623281
 33
0.0
  0
MTEXT
  5
40F
330
407
100
AcDbEntity
  8
0
 62
     7
100
AcDbMText
 10
866.3978151987391
 20
422.5734553623281
 30
0.0
 40
17.5
 41
0.0
 71
     7
 72
     1
  1
対辺24
  7
CONVERTER_1
 11
0.9999999999970621
 21
2.424068405545307E-6
 31
0.0
 73
     1
 44
0.60024009603842
  0
ENDBLK
  5
411
330
407
100
AcDbEntity
  8
0
100
AcDbBlockEnd
  0
BLOCK
  5
41D
330
414
100
AcDbEntity
  8
0
100
AcDbBlockBegin
  2
*D533
 70
     1
 71
     0
 10
0.0
 20
0.0
 30
0.0
  3
*D533
  1

  0
LINE
  5
415
330
414
100
AcDbEntity
  8
1
  6
Continuous
 62
     2
100
AcDbLine
 10
491.7873649720076
 20
509.6362897557897
 30
0.0
 11
491.7873649720076
 21
474.6362897557897
 31
0.0
  0
LINE
  5
416
330
414
100
AcDbEntity
  8
1
  6
Continuous
 62
     2
100
AcDbLine
 10
491.7873649720076
 20
474.6362897557897
 30
0.0
 11
491.7873649720076
 21
459.6362897557887
 31
0.0
  0
LINE
  5
417
330
414
100
AcDbEntity
  8
1
  6
Continuous
 62
     2
100
AcDbLine
 10
491.7873649720076
 20
459.6362897557887
 30
0.0
 11
491.7873649720076
 21
309.4765675335671
 31
0.0
  0
LINE
  5
418
330
414
100
AcDbEntity
  8
1
  6
Continuous
 62
     2
100
AcDbLine
 10
453.2031783815479
 20
459.6362897557887
 30
0.0
 11
496.7873649720076
 21
459.6362897557887
 31
0.0
  0
LINE
  5
419
330
414
100
AcDbEntity
  8
1
  6
Continuous
 62
     2
100
AcDbLine
 10
453.2031783815479
 20
474.6362897557897
 30
0.0
 11
496.7873649720076
 21
474.6362897557897
 31
0.0
  0
SOLID
  5
41A
330
414
100
AcDbEntity
  8
1
 62
     2
100
AcDbTrace
 10
489.4834462642282
 20
492.1362897557897
 30
0.0
 11
494.091283679787
 21
492.1362897557897
 31
0.0
 12
491.7873649720076
 22
474.6362897557897
 32
0.0
 13
491.7873649720076
 23
474.6362897557897
 33
0.0
  0
SOLID
  5
41B
330
414
100
AcDbEntity
  8
1
 62
     2
100
AcDbTrace
 10
494.091283679787
 20
442.1362897557887
 30
0.0
 11
489.4834462642282
 21
442.1362897557887
 31
0.0
 12
491.7873649720076
 22
459.6362897557887
 32
0.0
 13
491.7873649720076
 23
459.6362897557887
 33
0.0
  0
MTEXT
  5
41C
330
414
100
AcDbEntity
  8
1
 62
     7
100
AcDbMText
 10
486.7873649720076
 20
293.3960119780115
 30
0.0
 40
17.5
 41
0.0
 71
     7
 72
     1
  1
\C7;最大\C7;37最小5
  7
CONVERTER_1
 11
0.0
 21
1.0
 31
0.0
 73
     1
 44
0.60024009603842
  0
ENDBLK
  5
41E
330
414
100
AcDbEntity
  8
0
100
AcDbBlockEnd
  0
BLOCK
  5
428
330
421
100
AcDbEntity
  8
0
100
AcDbBlockBegin
  2
*D634
 70
     1
 71
     0
 10
0.0
 20
0.0
 30
0.0
  3
*D634
  1

  0
LINE
  5
422
330
421
100
AcDbEntity
  8
1
  6
Continuous
 62
     2
100
AcDbLine
 10
195.7873649720041
 20
280.636289755789
 30
0.0
 11
441.7873649720041
 21
280.636289755789
 31
0.0
  0
LINE
  5
423
330
421
100
AcDbEntity
  8
1
  6
Continuous
 62
     2
100
AcDbLine
 10
195.7873649720041
 20
475.6362897557893
 30
0.0
 11
195.7873649720041
 21
275.636289755789
 31
0.0
  0
LINE
  5
424
330
421
100
AcDbEntity
  8
1
  6
Continuous
 62
     2
100
AcDbLine
 10
441.7873649720041
 20
475.6362897557893
 30
0.0
 11
441.7873649720041
 21
275.636289755789
 31
0.0
  0
SOLID
  5
425
330
421
100
AcDbEntity
  8
1
 62
     2
100
AcDbTrace
 10
213.2873649720041
 20
282.9402084635684
 30
0.0
 11
213.2873649720041
 21
278.3323710480096
 31
0.0
 12
195.7873649720041
 22
280.636289755789
 32
0.0
 13
195.7873649720041
 23
280.636289755789
 33
0.0
  0
SOLID
  5
426
330
421
100
AcDbEntity
  8
1
 62
     2
100
AcDbTrace
 10
424.2873649720041
 20
278.3323710480096
 30
0.0
 11
424.2873649720041
 21
282.9402084635684
 31
0.0
 12
441.7873649720041
 22
280.636289755789
 32
0.0
 13
441.7873649720041
 23
280.636289755789
 33
0.0
  0
MTEXT
  5
427
330
421
100
AcDbEntity
  8
1
 62
     7
100
AcDbMText
 10
297.7873649720041
 20
285.636289755789
 30
0.0
 40
17.5
 41
0.0
 71
     7
 72
     1
  1
246
  7
CONVERTER_2
 11
0.9999999999970621
 21
2.424068405545307E-6
 31
0.0
 73
     1
 44
0.60024009603842
  0
ENDBLK
  5
429
330
421
100
AcDbEntity
  8
0
100
AcDbBlockEnd
  0
BLOCK
  5
433
330
42C
100
AcDbEntity
  8
0
100
AcDbBlockBegin
  2
*D735
 70
     1
 71
     0
 10
0.0
 20
0.0
 30
0.0
  3
*D735
  1

  0
LINE
  5
42D
330
42C
100
AcDbEntity
  8
1
  6
Continuous
 62
     2
100
AcDbLine
 10
798.7873649720041
 20
777.7009687285433
 30
0.0
 11
541.8314384634198
 21
777.7009687285433
 31
0.0
  0
LINE
  5
42E
330
42C
100
AcDbEntity
  8
1
  6
Continuous
 62
     2
100
AcDbLine
 10
541.8314384634198
 20
658.0617851363704
 30
0.0
 11
541.8314384634198
 21
782.7009687285433
 31
0.0
  0
LINE
  5
42F
330
42C
100
AcDbEntity
  8
1
  6
Continuous
 62
     2
100
AcDbLine
 10
798.7873649720041
 20
695.8131828691228
 30
0.0
 11
798.7873649720041
 21
782.7009687285433
 31
0.0
  0
SOLID
  5
430
330
42C
100
AcDbEntity
  8
1
 62
     2
100
AcDbTrace
 10
781.2873649720041
 20
775.3970500207639
 30
0.0
 11
781.2873649720041
 21
780.0048874363228
 31
0.0
 12
798.7873649720041
 22
777.7009687285433
 32
0.0
 13
798.7873649720041
 23
777.7009687285433
 33
0.0
  0
SOLID
  5
431
330
42C
100
AcDbEntity
  8
1
 62
     2
100
AcDbTrace
 10
559.3314384634198
 20
780.0048874363228
 30
0.0
 11
559.3314384634198
 21
775.3970500207639
 31
0.0
 12
541.8314384634198
 22
777.7009687285433
 32
0.0
 13
541.8314384634198
 23
777.7009687285433
 33
0.0
  0
MTEXT
  5
432
330
42C
100
AcDbEntity
  8
1
 62
     7
100
AcDbMText
 10
649.4661944126132
 20
782.7009687285433
 30
0.0
 40
17.5
 41
0.0
 71
     7
 72
     1
  1
257
  7
CONVERTER_2
 11
0.9999999999970621
 21
2.424068405545307E-6
 31
0.0
 73
     1
 44
0.60024009603842
  0
ENDBLK
  5
434
330
42C
100
AcDbEntity
  8
0
100
AcDbBlockEnd
  0
BLOCK
  5
43E
330
437
100
AcDbEntity
  8
0
100
AcDbBlockBegin
  2
*D836
 70
     1
 71
     0
 10
0.0
 20
0.0
 30
0.0
  3
*D836
  1

  0
LINE
  5
438
330
437
100
AcDbEntity
  8
1
  6
Continuous
 62
     2
100
AcDbLine
 10
217.2873649720037
 20
320.636289755789
 30
0.0
 11
420.2873649720042
 21
320.636289755789
 31
0.0
  0
LINE
  5
439
330
437
100
AcDbEntity
  8
1
  6
Continuous
 62
     2
100
AcDbLine
 10
420.2873649720042
 20
395.6362897557891
 30
0.0
 11
420.2873649720042
 21
315.636289755789
 31
0.0
  0
LINE
  5
43A
330
437
100
AcDbEntity
  8
1
  6
Continuous
 62
     2
100
AcDbLine
 10
217.2873649720037
 20
395.6362897557892
 30
0.0
 11
217.2873649720037
 21
315.636289755789
 31
0.0
  0
SOLID
  5
43B
330
437
100
AcDbEntity
  8
1
 62
     2
100
AcDbTrace
 10
234.7873649720037
 20
322.9402084635684
 30
0.0
 11
234.7873649720037
 21
318.3323710480096
 31
0.0
 12
217.2873649720037
 22
320.636289755789
 32
0.0
 13
217.2873649720037
 23
320.636289755789
 33
0.0
  0
SOLID
  5
43C
330
437
100
AcDbEntity
  8
1
 62
     2
100
AcDbTrace
 10
402.7873649720042
 20
318.3323710480096
 30
0.0
 11
402.7873649720042
 21
322.9402084635684
 31
0.0
 12
420.2873649720042
 22
320.636289755789
 32
0.0
 13
420.2873649720042
 23
320.636289755789
 33
0.0
  0
MTEXT
  5
43D
330
437
100
AcDbEntity
  8
1
 62
     7
100
AcDbMText
 10
297.7873649720041
 20
325.636289755789
 30
0.0
 40
17.5
 41
0.0
 71
     7
 72
     1
  1
203
  7
CONVERTER_2
 11
0.9999999999970621
 21
2.424068405545307E-6
 31
0.0
 73
     1
 44
0.60024009603842
  0
ENDBLK
  5
43F
330
437
100
AcDbEntity
  8
0
100
AcDbBlockEnd
  0
BLOCK
  5
449
330
442
100
AcDbEntity
  8
0
100
AcDbBlockBegin
  2
*D937
 70
     1
 71
     0
 10
0.0
 20
0.0
 30
0.0
  3
*D937
  1

  0
LINE
  5
443
330
442
100
AcDbEntity
  8
1
  6
Continuous
 62
     2
100
AcDbLine
 10
242.7891255278806
 20
922.1710001688871
 30
0.0
 11
318.7873649720042
 21
922.1710001688871
 31
0.0
  0
LINE
  5
444
330
442
100
AcDbEntity
  8
1
  6
Continuous
 62
     2
100
AcDbLine
 10
318.7873649720042
 20
954.6832504524392
 30
0.0
 11
318.7873649720042
 21
917.1710001688871
 31
0.0
  0
LINE
  5
445
330
442
100
AcDbEntity
  8
1
  6
Continuous
 62
     2
100
AcDbLine
 10
242.7891255278806
 20
1185.320372128709
 30
0.0
 11
242.7891255278806
 21
917.1710001688871
 31
0.0
  0
SOLID
  5
446
330
442
100
AcDbEntity
  8
1
 62
     2
100
AcDbTrace
 10
260.2891255278806
 20
924.4749188766665
 30
0.0
 11
260.2891255278806
 21
919.8670814611077
 31
0.0
 12
242.7891255278806
 22
922.1710001688871
 32
0.0
 13
242.7891255278806
 23
922.1710001688871
 33
0.0
  0
SOLID
  5
447
330
442
100
AcDbEntity
  8
1
 62
     2
100
AcDbTrace
 10
301.2873649720042
 20
919.8670814611077
 30
0.0
 11
301.2873649720042
 21
924.4749188766665
 31
0.0
 12
318.7873649720042
 22
922.1710001688871
 32
0.0
 13
318.7873649720042
 23
922.1710001688871
 33
0.0
  0
MTEXT
  5
448
330
442
100
AcDbEntity
  8
1
 62
     7
100
AcDbMText
 10
267.6632452499424
 20
927.1710001688871
 30
0.0
 40
17.5
 41
0.0
 71
     7
 72
     1
  1
76
  7
CONVERTER_2
 11
0.9999999999970621
 21
2.424068405545307E-6
 31
0.0
 73
     1
 44
0.60024009603842
  0
ENDBLK
  5
44A
330
442
100
AcDbEntity
  8
0
100
AcDbBlockEnd
  0
BLOCK
  5
454
330
44D
100
AcDbEntity
  8
0
100
AcDbBlockBegin
  2
*D1038
 70
     1
 71
     0
 10
0.0
 20
0.0
 30
0.0
  3
*D1038
  1

  0
LINE
  5
44E
330
44D
100
AcDbEntity
  8
1
  6
Continuous
 62
     2
100
AcDbLine
 10
318.7873649720041
 20
922.1710001688871
 30
0.0
 11
394.7519559284314
 21
922.1710001688871
 31
0.0
  0
LINE
  5
44F
330
44D
100
AcDbEntity
  8
1
  6
Continuous
 62
     2
100
AcDbLine
 10
394.7519559284314
 20
1185.631072167248
 30
0.0
 11
394.7519559284314
 21
917.1710001688871
 31
0.0
  0
LINE
  5
450
330
44D
100
AcDbEntity
  8
1
  6
Continuous
 62
     2
100
AcDbLine
 10
318.7873649720041
 20
954.6832504524392
 30
0.0
 11
318.7873649720041
 21
917.1710001688871
 31
0.0
  0
SOLID
  5
451
330
44D
100
AcDbEntity
  8
1
 62
     2
100
AcDbTrace
 10
336.2873649720041
 20
924.4749188766665
 30
0.0
 11
336.2873649720041
 21
919.8670814611077
 31
0.0
 12
318.7873649720041
 22
922.1710001688871
 32
0.0
 13
318.7873649720041
 23
922.1710001688871
 33
0.0
  0
SOLID
  5
452
330
44D
100
AcDbEntity
  8
1
 62
     2
100
AcDbTrace
 10
377.2519559284314
 20
919.8670814611077
 30
0.0
 11
377.2519559284314
 21
924.4749188766665
 31
0.0
 12
394.7519559284314
 22
922.1710001688871
 32
0.0
 13
394.7519559284314
 23
922.1710001688871
 33
0.0
  0
MTEXT
  5
453
330
44D
100
AcDbEntity
  8
1
 62
     7
100
AcDbMText
 10
343.6165436082596
 20
927.1710001688871
 30
0.0
 40
17.5
 41
0.0
 71
     7
 72
     1
  1
76
  7
CONVERTER_2
 11
0.9999999999970621
 21
2.424068405545307E-6
 31
0.0
 73
     1
 44
0.60024009603842
  0
ENDBLK
  5
455
330
44D
100
AcDbEntity
  8
0
100
AcDbBlockEnd
  0
BLOCK
  5
461
330
458
100
AcDbEntity
  8
0
100
AcDbBlockBegin
  2
*D1139
 70
     1
 71
     0
 10
0.0
 20
0.0
 30
0.0
  3
*D1139
  1

  0
LINE
  5
459
330
458
100
AcDbEntity
  8
1
  6
Continuous
 62
     2
100
AcDbLine
 10
763.7873649720041
 20
777.7009687285433
 30
0.0
 11
798.7873649720041
 21
777.7009687285433
 31
0.0
  0
LINE
  5
45A
330
458
100
AcDbEntity
  8
1
  6
Continuous
 62
     2
100
AcDbLine
 10
798.7873649720041
 20
777.7009687285433
 30
0.0
 11
830.6605048417761
 21
777.7009687285433
 31
0.0
  0
LINE
  5
45B
330
458
100
AcDbEntity
  8
1
  6
Continuous
 62
     2
100
AcDbLine
 10
830.6605048417761
 20
777.7009687285433
 30
0.0
 11
865.6605048417761
 21
777.7009687285433
 31
0.0
  0
LINE
  5
45C
330
458
100
AcDbEntity
  8
1
  6
Continuous
 62
     2
100
AcDbLine
 10
830.6605048417761
 20
639.6510126580254
 30
0.0
 11
830.6605048417761
 21
782.7009687285433
 31
0.0
  0
LINE
  5
45D
330
458
100
AcDbEntity
  8
1
  6
Continuous
 62
     2
100
AcDbLine
 10
798.7873649720041
 20
695.8131828691228
 30
0.0
 11
798.7873649720041
 21
782.7009687285433
 31
0.0
  0
SOLID
  5
45E
330
458
100
AcDbEntity
  8
1
 62
     2
100
AcDbTrace
 10
781.2873649720041
 20
775.3970500207639
 30
0.0
 11
781.2873649720041
 21
780.0048874363228
 31
0.0
 12
798.7873649720041
 22
777.7009687285433
 32
0.0
 13
798.7873649720041
 23
777.7009687285433
 33
0.0
  0
SOLID
  5
45F
330
458
100
AcDbEntity
  8
1
 62
     2
100
AcDbTrace
 10
848.1605048417761
 20
780.0048874363228
 30
0.0
 11
848.1605048417761
 21
775.3970500207639
 31
0.0
 12
830.6605048417761
 22
777.7009687285433
 32
0.0
 13
830.6605048417761
 23
777.7009687285433
 33
0.0
  0
MTEXT
  5
460
330
458
100
AcDbEntity
  8
1
 62
     7
100
AcDbMText
 10
801.6569550239882
 20
782.7009687285433
 30
0.0
 40
17.5
 41
0.0
 71
     7
 72
     1
  1
32
  7
CONVERTER_2
 11
0.9999999999970621
 21
2.424068405545307E-6
 31
0.0
 73
     1
 44
0.60024009603842
  0
ENDBLK
  5
462
330
458
100
AcDbEntity
  8
0
100
AcDbBlockEnd
  0
ENDSEC
  0
SECTION
  2
ENTITIES
  0
INSERT
  5
8C
330
1F
100
AcDbEntity
  8
1
100
AcDbBlockReference
  2
87-163-M21__1
 10
1238.0
 20
1656.888381068716
 30
0.0
  0
INSERT
  5
8D
330
1F
100
AcDbEntity
  8
1
100
AcDbBlockReference
  2
87-163-M21__2
 10
4289.914153234306
 20
3745.4099997565
 30
0.0
  0
INSERT
  5
8E
330
1F
100
AcDbEntity
  8
1
100
AcDbBlockReference
  2
87-163-__F_
 10
2499.633568777156
 20
2639.72264016396
 30
0.0
  0
INSERT
  5
8F
330
1F
100
AcDbEntity
  8
1
100
AcDbBlockReference
  2
37-364-M11
 10
1854.0
 20
382.8883810687154
 30
0.0
  0
INSERT
  5
90
330
1F
100
AcDbEntity
  8
0
100
AcDbBlockReference
  2
01-76
 10
0.0
 20
1485.0
 30
0.0
  0
INSERT
  5
91
330
1F
100
AcDbEntity
  8
0
100
AcDbBlockReference
  2
50-13
 10
1050.0
 20
1485.0
 30
0.0
  0
INSERT
  5
92
330
1F
100
AcDbEntity
  8
1
100
AcDbBlockReference
  2
32-16__3
 10
0.0
 20
1485.0
 30
0.0
  0
INSERT
  5
93
330
1F
100
AcDbEntity
  8
1
100
AcDbBlockReference
  2
35-276__4
 10
0.0
 20
1485.0
 30
0.0
  0
INSERT
  5
94
330
1F
100
AcDbEntity
  8
1
100
AcDbBlockReference
  2
32-16__5
 10
0.0
 20
1485.0
 30
0.0
  0
INSERT
  5
95
330
1F
100
AcDbEntity
  8
0
100
AcDbBlockReference
  2
31-28
 10
-1704.069259549624
 20
1350.307846306129
 30
0.0
  0
INSERT
  5
96
330
1F
100
AcDbEntity
  8
0
100
AcDbBlockReference
  2
73-1-21_5__6
 10
326.0121835635439
 20
475.5234182913308
 30
0.0
  0
INSERT
  5
97
330
1F
100
AcDbEntity
  8
0
100
AcDbBlockReference
  2
92-53__7
 10
22.47081715283278
 20
275.4522930483096
 30
0.0
  0
INSERT
  5
98
330
1F
100
AcDbEntity
  8
0
100
AcDbBlockReference
  2
32-25__8
 10
230.6043082770933
 20
423.2137131666528
 30
0.0
  0
INSERT
  5
99
330
1F
100
AcDbEntity
  8
0
100
AcDbBlockReference
  2
73-1-21_5__9
 10
123.012183563544
 20
475.5234182913312
 30
0.0
  0
INSERT
  5
9A
330
1F
100
AcDbEntity
  8
0
100
AcDbBlockReference
  2
32-25__10
 10
328.6321964242621
 20
423.7137131666524
 30
0.0
  0
INSERT
  5
9B
330
1F
100
AcDbEntity
  8
0
100
AcDbBlockReference
  2
92-53__11
 10
120.4987053000016
 20
275.4522930483092
 30
0.0
  0
INSERT
  5
9C
330
1F
100
AcDbEntity
  8
1
100
AcDbBlockReference
  2
98-119
 10
197.787364972004
 20
475.1362897557893
 30
0.0
  0
INSERT
  5
9D
330
1F
100
AcDbEntity
  8
0
100
AcDbBlockReference
  2
61-116AX-M1
 10
1855.04592852764
 20
294.773181015671
 30
0.0
  0
INSERT
  5
9E
330
1F
100
AcDbEntity
  8
1
100
AcDbBlockReference
  2
35-276__12
 10
0.0
 20
1485.0
 30
0.0
  0
INSERT
  5
9F
330
1F
100
AcDbEntity
  8
1
100
AcDbBlockReference
  2
30-247-M11
 10
0.0
 20
1485.0
 30
0.0
  0
INSERT
  5
A0
330
1F
100
AcDbEntity
  8
1
100
AcDbBlockReference
  2
34-167-M1
 10
0.0
 20
1485.0
 30
0.0
  0
INSERT
  5
A1
330
1F
100
AcDbEntity
  8
1
100
AcDbBlockReference
  2
_J__A4
 10
0.0
 20
0.0
 30
0.0
 41
5.0
 42
5.0
 43
5.0
  0
LINE
  5
392
330
1F
100
AcDbEntity
  8
1
  6
DASH_CENTER
 62
     2
100
AcDbLine
 10
797.5195101867803
 20
625.7023318518958
 30
0.0
 11
810.6629381269161
 21
653.8885040287357
 31
0.0
  0
LINE
  5
393
330
1F
100
AcDbEntity
  8
1
  6
DASH_CENTER
 62
     2
100
AcDbLine
 10
303.7873649720036
 20
561.1126672444354
 30
0.0
 11
333.7873649720056
 21
561.1126672444354
 31
0.0
  0
LINE
  5
394
330
1F
100
AcDbEntity
  8
1
  6
DASH_CENTER
 62
     2
100
AcDbLine
 10
308.1497964805544
 20
1253.925213290628
 30
0.0
 11
400.0891614216316
 21
1161.985848349552
 31
0.0
  0
LINE
  5
395
330
1F
100
AcDbEntity
  8
1
  6
DASH_CENTER
 62
     2
100
AcDbLine
 10
237.4546017487253
 20
1161.985848349552
 30
0.0
 11
329.3784833029765
 21
1253.909729903803
 31
0.0
  0
LINE
  5
396
102
{ACAD_REACTORS
330
467
330
467
102
}
330
1F
100
AcDbEntity
  8
1
  6
PHANTOM
 62
     4
100
AcDbLine
 10
453.2031783815479
 20
474.6362897557897
 30
0.0
 11
453.2031783815479
 21
459.6362897557887
 31
0.0
  0
LINE
  5
397
102
{ACAD_REACTORS
330
465
330
465
102
}
330
1F
100
AcDbEntity
  8
1
  6
PHANTOM
 62
     4
100
AcDbLine
 10
187.5781609685168
 20
474.6362897557897
 30
0.0
 11
187.5781609685168
 21
459.6362897557891
 31
0.0
  0
LINE
  5
398
102
{ACAD_REACTORS
330
466
330
466
102
}
330
1F
100
AcDbEntity
  8
1
  6
PHANTOM
 62
     2
100
AcDbLine
 10
227.7648649720041
 20
474.6362897557897
 30
0.0
 11
409.8098649720033
 21
474.6362897557896
 31
0.0
  0
LINE
  5
399
102
{ACAD_REACTORS
330
465
330
465
102
}
330
1F
100
AcDbEntity
  8
1
  6
PHANTOM
 62
     4
100
AcDbLine
 10
206.8098649720041
 20
459.6362897557893
 30
0.0
 11
206.8098649720041
 21
474.6362897557897
 31
0.0
  0
LINE
  5
39A
102
{ACAD_REACTORS
330
466
330
466
102
}
330
1F
100
AcDbEntity
  8
1
  6
PHANTOM
 62
     4
100
AcDbLine
 10
227.7648649720041
 20
459.6362897557896
 30
0.0
 11
227.7648649720041
 21
474.6362897557897
 31
0.0
  0
LINE
  5
39B
102
{ACAD_REACTORS
330
466
330
466
102
}
330
1F
100
AcDbEntity
  8
1
  6
PHANTOM
 62
     4
100
AcDbLine
 10
409.8098649720033
 20
459.6362897557896
 30
0.0
 11
409.8098649720033
 21
474.6362897557896
 31
0.0
  0
LINE
  5
39C
102
{ACAD_REACTORS
330
467
330
467
102
}
330
1F
100
AcDbEntity
  8
1
  6
PHANTOM
 62
     4
100
AcDbLine
 10
430.7648649720042
 20
459.6362897557896
 30
0.0
 11
430.7648649720042
 21
474.6362897557897
 31
0.0
  0
LINE
  5
39D
102
{ACAD_REACTORS
330
469
330
469
102
}
330
1F
100
AcDbEntity
  8
1
  6
PHANTOM
 62
     4
100
AcDbLine
 10
833.852915130815
 20
459.6362897557887
 30
0.0
 11
833.852915130815
 21
474.6362897557897
 31
0.0
  0
LINE
  5
39E
102
{ACAD_REACTORS
330
469
330
469
102
}
330
1F
100
AcDbEntity
  8
1
  6
PHANTOM
 62
     4
100
AcDbLine
 10
809.2648649720043
 20
459.6362897557896
 30
0.0
 11
809.2648649720043
 21
474.6362897557897
 31
0.0
  0
LINE
  5
39F
102
{ACAD_REACTORS
330
468
330
468
102
}
330
1F
100
AcDbEntity
  8
1
  6
PHANTOM
 62
     4
100
AcDbLine
 10
788.3098649720034
 20
459.6362897557896
 30
0.0
 11
788.3098649720034
 21
474.6362897557897
 31
0.0
  0
LINE
  5
3A0
102
{ACAD_REACTORS
330
468
330
468
102
}
330
1F
100
AcDbEntity
  8
1
  6
PHANTOM
 62
     4
100
AcDbLine
 10
764.5278642749471
 20
474.6362897557897
 30
0.0
 11
764.5278642749471
 21
459.6362897557887
 31
0.0
  0
LINE
  5
3A1
330
1F
100
AcDbEntity
  8
1
  6
DASH_CENTER
 62
     2
100
AcDbLine
 10
318.7873649720041
 20
1283.361000168887
 30
0.0
 11
318.7873649720041
 21
954.6832504524392
 31
0.0
  0
LINE
  5
3A2
102
{ACAD_REACTORS
330
468
330
468
102
}
330
1F
100
AcDbEntity
  8
1
  6
CENTER_DASH_DASH
 62
     2
100
AcDbLine
 10
788.3098649720034
 20
459.6362897557896
 30
0.0
 11
764.5278642749471
 21
459.6362897557887
 31
0.0
  0
LINE
  5
3A3
102
{ACAD_REACTORS
330
467
330
467
102
}
330
1F
100
AcDbEntity
  8
1
  6
CENTER_DASH_DASH
 62
     2
100
AcDbLine
 10
430.7648649720042
 20
474.6362897557897
 30
0.0
 11
453.2031783815479
 21
474.6362897557897
 31
0.0
  0
LINE
  5
3A4
102
{ACAD_REACTORS
330
467
330
467
102
}
330
1F
100
AcDbEntity
  8
1
  6
CENTER_DASH_DASH
 62
     2
100
AcDbLine
 10
430.7648649720042
 20
459.6362897557896
 30
0.0
 11
453.2031783815479
 21
459.6362897557887
 31
0.0
  0
LINE
  5
3A5
102
{ACAD_REACTORS
330
466
330
466
102
}
330
1F
100
AcDbEntity
  8
1
  6
CENTER_DASH_DASH
 62
     2
100
AcDbLine
 10
409.8098649720033
 20
459.6362897557896
 30
0.0
 11
227.7648649720041
 21
459.6362897557896
 31
0.0
  0
LINE
  5
3A6
102
{ACAD_REACTORS
330
465
330
465
102
}
330
1F
100
AcDbEntity
  8
1
  6
CENTER_DASH_DASH
 62
     2
100
AcDbLine
 10
206.8098649720041
 20
459.6362897557893
 30
0.0
 11
187.5781609685168
 21
459.6362897557891
 31
0.0
  0
LINE
  5
3A7
102
{ACAD_REACTORS
330
465
330
465
102
}
330
1F
100
AcDbEntity
  8
1
  6
CENTER_DASH_DASH
 62
     2
100
AcDbLine
 10
206.8098649720041
 20
474.6362897557897
 30
0.0
 11
187.5781609685168
 21
474.6362897557897
 31
0.0
  0
LINE
  5
3A8
102
{ACAD_REACTORS
330
468
330
468
102
}
330
1F
100
AcDbEntity
  8
1
  6
CENTER_DASH_DASH
 62
     2
100
AcDbLine
 10
788.3098649720034
 20
474.6362897557897
 30
0.0
 11
764.5278642749471
 21
474.6362897557897
 31
0.0
  0
LINE
  5
3A9
102
{ACAD_REACTORS
330
469
330
469
102
}
330
1F
100
AcDbEntity
  8
1
  6
CENTER_DASH_DASH
 62
     2
100
AcDbLine
 10
809.2648649720043
 20
474.6362897557897
 30
0.0
 11
833.852915130815
 21
474.6362897557897
 31
0.0
  0
LINE
  5
3AA
102
{ACAD_REACTORS
330
469
330
469
102
}
330
1F
100
AcDbEntity
  8
1
  6
CENTER_DASH_DASH
 62
     2
100
AcDbLine
 10
809.2648649720043
 20
459.6362897557896
 30
0.0
 11
833.852915130815
 21
459.6362897557887
 31
0.0
  0
LINE
  5
3AB
330
1F
100
AcDbEntity
  8
1
  6
DASH_CENTER
 62
     2
100
AcDbLine
 10
217.2873649720042
 20
511.8688268366216
 30
0.0
 11
217.2873649720037
 21
395.6362897557892
 31
0.0
  0
LINE
  5
3AC
330
1F
100
AcDbEntity
  8
1
  6
DASH_CENTER
 62
     2
100
AcDbLine
 10
183.7873649720036
 20
1243.31861157283
 30
0.0
 11
455.7873649720038
 21
1243.31861157283
 31
0.0
  0
LINE
  5
3AD
330
1F
100
AcDbEntity
  8
1
  6
DASH_CENTER
 62
     2
100
AcDbLine
 10
648.0499000895374
 20
654.6318533651584
 30
0.0
 11
783.7873649720043
 21
558.376690013675
 31
0.0
  0
LINE
  5
3AE
330
1F
100
AcDbEntity
  8
1
  6
DASH_CENTER
 62
     2
100
AcDbLine
 10
576.7249171898327
 20
681.5417156536205
 30
0.0
 11
523.0950592525306
 21
687.1784408595313
 31
0.0
  0
LINE
  5
3AF
330
1F
100
AcDbEntity
  8
1
  6
DASH_CENTER
 62
     2
100
AcDbLine
 10
541.8314384634198
 20
658.0617851363705
 30
0.0
 11
546.0497902457644
 21
698.1967213897905
 31
0.0
  0
LINE
  5
3B0
330
1F
100
AcDbEntity
  8
1
  6
Continuous
 62
     2
100
AcDbLine
 10
730.0
 20
747.2469929757272
 30
0.0
 11
771.0
 21
747.2469929757272
 31
0.0
  0
LINE
  5
3B1
330
1F
100
AcDbEntity
  8
1
  6
Continuous
 62
     2
100
AcDbLine
 10
623.5171035419053
 20
694.9717903764479
 30
0.0
 11
667.0
 21
694.9717903764479
 31
0.0
  0
LINE
  5
3B2
330
1F
100
AcDbEntity
  8
1
  6
DASH_CENTER
 62
     2
100
AcDbLine
 10
318.7873649720041
 20
710.1967213897904
 30
0.0
 11
318.7873649720041
 21
446.6832504524392
 31
0.0
  0
LINE
  5
3B3
330
1F
100
AcDbEntity
  8
1
  6
DASH_CENTER
 62
     2
100
AcDbLine
 10
420.2873649720042
 20
395.6362897557891
 30
0.0
 11
420.2873649720038
 21
511.8688268366216
 31
0.0
  0
LINE
  5
3B4
330
1F
100
AcDbEntity
  8
1
  6
DASH_CENTER
 62
     2
100
AcDbLine
 10
798.7873649720042
 20
395.6362897557892
 30
0.0
 11
798.7873649720041
 21
695.8131828691228
 31
0.0
  0
LINE
  5
3B5
330
1F
100
AcDbEntity
  8
1
  6
DASH_CENTER
 62
     2
100
AcDbLine
 10
719.8226779273819
 20
561.1126672444359
 30
0.0
 11
785.8226779273819
 21
561.1126672444354
 31
0.0
  0
LINE
  5
3B6
330
1F
100
AcDbEntity
  8
1
  6
DASH_CENTER
 62
     2
100
AcDbLine
 10
775.8873649720033
 20
522.1362897557904
 30
0.0
 11
821.6873649720051
 21
522.1362897557904
 31
0.0
  0
LINE
  5
3B7
330
1F
100
AcDbEntity
  8
1
  6
DASH_CENTER
 62
     2
100
AcDbLine
 10
279.2995169416462
 20
522.138303684173
 30
0.0
 11
358.2752130023621
 21
522.138303684173
 31
0.0
  0
LINE
  5
3B8
330
1F
100
AcDbEntity
  8
1
  6
Continuous
 62
     2
100
AcDbLine
 10
350.0
 20
1048.462910916579
 30
0.0
 11
392.0
 21
1048.462910916579
 31
0.0
  0
LINE
  5
3B9
330
1F
100
AcDbEntity
  8
1
  6
Continuous
 62
     2
100
AcDbLine
 10
250.0
 20
1048.462910916579
 30
0.0
 11
291.0
 21
1048.462910916579
 31
0.0
  0
ARC
  5
3BA
330
1F
100
AcDbEntity
  8
1
  6
Continuous
 62
     2
100
AcDbCircle
 10
292.8117642928553
 20
1269.344345736235
 30
0.0
 40
149.6262517834888
100
AcDbArc
 50
-69.07657856698715
 51
-53.98698420057493
  0
ARC
  5
3BB
330
1F
100
AcDbEntity
  8
1
  6
DASH_CENTER
 62
     2
100
AcDbCircle
 10
560.9933834680395
 20
531.8661704006986
 30
0.0
 40
150.4999999999979
100
AcDbArc
 50
54.65849966865273
 51
83.99999999999558
  0
ARC
  5
3BC
330
1F
100
AcDbEntity
  8
0
  6
Continuous
 62
     2
100
AcDbCircle
 10
789.7873649720058
 20
634.636289755786
 30
0.0
 40
134.5000000000027
100
AcDbArc
 50
124.1059124431767
 51
144.5803587738509
  0
ARC
  5
3BD
330
1F
100
AcDbEntity
  8
1
  6
Continuous
 62
     2
100
AcDbCircle
 10
344.7629656511531
 20
1269.344345736235
 30
0.0
 40
149.626251783489
100
AcDbArc
 50
-126.0130157994251
 51
-110.9234214330129
  0
SOLID
  5
3BE
330
1F
100
AcDbEntity
  8
1
 62
     2
100
AcDbTrace
 10
366.5045872565477
 20
1137.943019109218
 30
0.0
 11
364.3070155831573
 21
1141.993061626098
 31
0.0
 12
380.7873649720041
 22
1148.31414740574
 32
0.0
 13
380.7873649720041
 23
1148.31414740574
 33
0.0
  0
LEADER
  5
3BF
330
1F
100
AcDbEntity
  8
1
  6
Continuous
 62
     2
100
AcDbLeader
  3
Standard
 71
     0
 76
     2
 10
380.7873649720041
 20
1148.31414740574
 30
0.0
 10
376.2775575730627
 20
1145.867105195429
 30
0.0
  0
SOLID
  5
3C0
330
1F
100
AcDbEntity
  8
0
 62
     2
100
AcDbTrace
 10
688.8474829141672
 20
727.96321415052
 30
0.0
 11
692.5317337790713
 21
725.1958216570927
 31
0.0
 12
680.1793918898817
 22
712.5871860741032
 32
0.0
 13
680.1793918898817
 23
712.5871860741032
 33
0.0
  0
LEADER
  5
3C1
330
1F
100
AcDbEntity
  8
0
  6
Continuous
 62
     2
100
AcDbLeader
  3
Standard
 71
     0
 76
     2
 10
680.1793918898817
 20
712.5871860741032
 30
0.0
 10
684.38613578262
 20
718.1876565032383
 30
0.0
  0
SOLID
  5
3C2
330
1F
100
AcDbEntity
  8
0
 62
     2
100
AcDbTrace
 10
701.4011817263366
 20
734.0289155277068
 30
0.0
 11
698.7440575196573
 21
737.7934681702531
 31
0.0
 12
714.3699277315928
 22
746.0026229094331
 32
0.0
 13
714.3699277315928
 23
746.0026229094331
 33
0.0
  0
LEADER
  5
3C3
330
1F
100
AcDbEntity
  8
0
  6
Continuous
 62
     2
100
AcDbLeader
  3
Standard
 71
     0
 76
     2
 10
714.3699277315928
 20
746.0026229094331
 30
0.0
 10
710.1141770889113
 20
742.9987977211603
 30
0.0
  0
SOLID
  5
3C4
330
1F
100
AcDbEntity
  8
1
 62
     2
100
AcDbTrace
 10
273.267714360851
 20
1141.993061626098
 30
0.0
 11
271.0701426874605
 21
1137.943019109218
 31
0.0
 12
256.7873649720041
 22
1148.31414740574
 32
0.0
 13
256.7873649720041
 23
1148.31414740574
 33
0.0
  0
LEADER
  5
3C5
330
1F
100
AcDbEntity
  8
1
  6
Continuous
 62
     2
100
AcDbLeader
  3
Standard
 71
     0
 76
     2
 10
256.7873649720041
 20
1148.31414740574
 30
0.0
 10
261.2971723709455
 20
1145.867105195429
 30
0.0
  0
SOLID
  5
3C6
330
1F
100
AcDbEntity
  8
1
 62
     2
100
AcDbTrace
 10
740.0054087102474
 20
430.7295621421496
 30
0.0
 11
736.0149044518649
 21
433.0334808499291
 31
0.0
 12
746.7601565810563
 22
447.0369660622669
 32
0.0
 13
746.7601565810563
 23
447.0369660622669
 33
0.0
  0
LEADER
  5
3C7
330
1F
100
AcDbEntity
  8
1
  6
Continuous
 62
     2
100
AcDbLeader
  3
Standard
 71
     0
 76
     3
 10
746.7601565810563
 20
447.0369660622669
 30
0.0
 10
721.8093864507428
 20
403.8209645085919
 30
0.0
 10
606.4025068855195
 20
403.8209645085919
 30
0.0
  0
SOLID
  5
3C8
330
1F
100
AcDbEntity
  8
1
 62
     2
100
AcDbTrace
 10
403.0551171011916
 20
420.8288858356723
 30
0.0
 11
399.0646128428092
 21
423.1328045434518
 31
0.0
 12
409.8098649720005
 22
437.1362897557896
 32
0.0
 13
409.8098649720005
 23
437.1362897557896
 33
0.0
  0
LEADER
  5
3C9
330
1F
100
AcDbEntity
  8
1
  6
Continuous
 62
     2
100
AcDbLeader
  3
Standard
 71
     0
 76
     3
 10
409.8098649720005
 20
437.1362897557896
 30
0.0
 10
365.6425693789943
 20
360.6362897557898
 30
0.0
 10
287.880680529537
 20
360.6362897557898
 30
0.0
  0
MTEXT
  5
3CB
330
1F
100
AcDbEntity
  8
1
 62
     7
100
AcDbMText
 10
285.0
 20
71.25
 30
0.0
 40
17.5
 41
0.0
 71
     5
 72
     1
  1
K676BK-13
  7
CONVERTER_2
 73
     1
 44
0.7202881152461
  0
MTEXT
  5
3CC
330
1F
100
AcDbEntity
  8
1
 62
     7
100
AcDbMText
 10
285.0
 20
113.7500000000001
 30
0.0
 40
17.5
 41
0.0
 71
     5
 72
     1
  1
シングル台付分岐混合栓
  7
CONVERTER_1
 73
     1
 44
0.7202881152461
  0
MTEXT
  5
3CD
330
1F
100
AcDbEntity
  8
0
 62
     7
100
AcDbMText
 10
749.3881363347624
 20
762.246992975727
 30
0.0
 40
17.5
 41
0.0
 71
     5
 72
     1
  1
吐水
  7
CONVERTER_1
 73
     1
 44
1.32052821128451
  0
MTEXT
  5
3CE
330
1F
100
AcDbEntity
  8
0
 62
     7
100
AcDbMText
 10
645.2197519908779
 20
709.9717903764479
 30
0.0
 40
17.5
 41
0.0
 71
     5
 72
     1
  1
止水
  7
CONVERTER_1
 73
     1
 44
1.32052821128451
  0
MTEXT
  5
3CF
330
1F
100
AcDbEntity
  8
1
 62
     7
100
AcDbMText
 10
368.7873649720041
 20
1103.462910916579
 30
0.0
 40
17.5
 41
0.0
 71
     5
 72
     1
  1
45{\Fgdt;~}
  7
CONVERTER_2
 73
     1
 44
1.32052821128451
  0
MTEXT
  5
3D0
330
1F
100
AcDbEntity
  8
1
 62
     7
100
AcDbMText
 10
664.1059466681312
 20
388.8209645085919
 30
0.0
 40
17.5
 41
0.0
 71
     5
 72
     1
  1
{\Fgdt;n}23～{\Fgdt;n}27
  7
CONVERTER_1
 73
     1
 44
0.7202881152461
  0
MTEXT
  5
3D1
330
1F
100
AcDbEntity
  8
1
 62
     7
100
AcDbMText
 10
664.1059466681312
 20
418.8209645085919
 30
0.0
 40
17.5
 41
0.0
 71
     5
 72
     1
  1
取付穴径
  7
CONVERTER_1
 73
     1
 44
0.7202881152461
  0
MTEXT
  5
3D2
330
1F
100
AcDbEntity
  8
1
 62
     7
100
AcDbMText
 10
325.7873649720041
 20
375.6362897557896
 30
0.0
 40
17.5
 41
0.0
 71
     5
 72
     1
  1
PJ1/2
  7
CONVERTER_2
 73
     1
 44
1.32052821128451
  0
MTEXT
  5
3D3
330
1F
100
AcDbEntity
  8
1
 62
     7
100
AcDbMText
 10
426.25
 20
85.0
 30
0.0
 40
17.5
 41
0.0
 71
     5
 72
     1
  1
1
  7
CONVERTER_2
 73
     1
 44
0.7202881152461
  0
MTEXT
  5
3D4
330
1F
100
AcDbEntity
  8
1
 62
     7
100
AcDbMText
 10
468.75
 20
85.0
 30
0.0
 40
17.5
 41
0.0
 71
     5
 72
     1
  1
5
  7
CONVERTER_2
 73
     1
 44
0.7202881152461
  0
MTEXT
  5
3D5
330
1F
100
AcDbEntity
  8
1
 62
     7
100
AcDbMText
 10
268.7676385035175
 20
1103.462910916579
 30
0.0
 40
17.5
 41
0.0
 71
     5
 72
     1
  1
45{\Fgdt;~}
  7
CONVERTER_2
 73
     1
 44
1.32052821128451
  0
MTEXT
  5
3D6
330
1F
100
AcDbEntity
  8
1
 62
     7
100
AcDbMText
 10
170.0
 20
170.0
 30
0.0
 40
17.5
 41
0.0
 71
     4
 72
     1
  1
JIS\P吐水口は回転式(120{\Fgdt;~})
  7
CONVERTER_1
 73
     1
 44
0.90036014405762
  0
MTEXT
  5
3D7
330
1F
100
AcDbEntity
  8
1
 62
     7
100
AcDbMText
 10
894.7519239806671
 20
454.556540913774
 30
0.0
 40
17.5
 41
0.0
 71
     5
 72
     1
  1
ロックナット
  7
CONVERTER_1
 73
     1
 44
0.7202881152461
  0
MTEXT
  5
3D8
330
1F
100
AcDbEntity
  8
1
 62
     7
100
AcDbMText
 10
368.7873649720041
 20
1063.462910916579
 30
0.0
 40
17.5
 41
0.0
 71
     5
 72
     1
  1
水側
  7
CONVERTER_1
 73
     1
 44
1.32052821128451
  0
MTEXT
  5
3D9
330
1F
100
AcDbEntity
  8
1
 62
     7
100
AcDbMText
 10
268.7676385035175
 20
1063.462910916579
 30
0.0
 40
17.5
 41
0.0
 71
     5
 72
     1
  1
湯側
  7
CONVERTER_1
 73
     1
 44
1.32052821128451
  0
MTEXT
  5
3DA
330
1F
100
AcDbEntity
  8
1
 62
     7
100
AcDbMText
 10
670.437988912443
 20
743.131392299353
 30
0.0
 40
17.5
 41
0.0
 71
     5
 72
     1
  1
25{\Fgdt;~}
  7
CONVERTER_2
 73
     1
 44
0.7202881152461
  0
DIMENSION
  5
3E5
330
1F
100
AcDbEntity
  8
1
100
AcDbDimension
  2
*D028
 10
919.3516363355212
 20
727.7009687285433
 30
0.0
 11
905.6016363355212
 21
605.195344402756
 31
0.0
  1
最大252
 71
     5
 42
0.0
 53
90.0
  3
ME10_DIM_0
100
AcDbAlignedDimension
 13
823.8297535680613
 23
475.6362897557898
 33
0.0
 14
737.8761736032693
 24
727.7009687285433
 34
0.0
 50
90.0
100
AcDbRotatedDimension
  0
DIMENSION
  5
3F0
330
1F
100
AcDbEntity
  8
1
100
AcDbDimension
  2
*D129
 10
879.3516363355212
 20
693.1362897557899
 30
0.0
 11
865.6016363355212
 21
577.0744413882391
 31
0.0
  1
最小218
 71
     5
 42
0.0
 53
90.0
  3
ME10_DIM_1
100
AcDbAlignedDimension
 13
823.8297535680613
 23
475.6362897557898
 33
0.0
 14
703.7873649720018
 24
693.1362897557899
 34
0.0
 50
90.0
100
AcDbRotatedDimension
  0
DIMENSION
  5
3FB
330
1F
100
AcDbEntity
  8
1
100
AcDbDimension
  2
*D230
 10
773.7449763759456
 20
320.636289755789
 30
0.0
 11
798.7873649720042
 21
334.386289755789
 31
0.0
  1
50
 71
     5
 42
0.0
 53
0.00013888888889
  3
ME10_DIM_2
100
AcDbAlignedDimension
 13
823.8297535680613
 23
475.6362897557898
 33
0.0
 14
773.7449763759457
 24
475.6362897557898
 34
0.0
100
AcDbRotatedDimension
  0
DIMENSION
  5
406
330
1F
100
AcDbEntity
  8
1
100
AcDbDimension
  2
*D331
 10
155.7873649720041
 20
475.6362897557893
 30
0.0
 11
142.0373649720041
 21
446.6362897557892
 31
0.0
  1
<>
 71
     5
 42
0.0
 53
90.0
  3
ME10_DIM_3
100
AcDbAlignedDimension
 13
204.0373649720037
 23
417.6362897557891
 33
0.0
 14
195.7873649720041
 24
475.6362897557893
 34
0.0
 50
90.0
100
AcDbRotatedDimension
  0
DIMENSION
  5
413
330
1F
100
AcDbEntity
  8
0
100
AcDbDimension
  2
*D432
 10
805.2988510400516
 20
417.5734553623281
 30
0.0
 11
897.0228151987391
 21
431.3234553623281
 31
0.0
 70
     1
  1
対辺24
 71
     5
 42
0.0
 52
120.0
 53
0.00013888888889
  3
ME10_DIM_4
100
AcDbAlignedDimension
 13
810.7873649720043
 23
449.6362897557896
 33
0.0
 14
786.7873649720042
 24
449.6362897557896
 34
0.0
  0
DIMENSION
  5
420
330
1F
100
AcDbEntity
  8
1
100
AcDbDimension
  2
*D533
 10
491.7873649720076
 20
474.6362897557897
 30
0.0
 11
478.0373649720076
 21
368.6362897557893
 31
0.0
  1
最大37最小5
 71
     5
 42
0.0
 53
90.0
  3
ME10_DIM_5
100
AcDbAlignedDimension
 13
453.2031783815479
 23
459.6362897557887
 33
0.0
 14
453.2031783815479
 24
474.6362897557897
 34
0.0
 50
90.0
100
AcDbRotatedDimension
  0
DIMENSION
  5
42B
330
1F
100
AcDbEntity
  8
1
100
AcDbDimension
  2
*D634
 10
195.7873649720041
 20
280.636289755789
 30
0.0
 11
318.7873649720041
 21
294.386289755789
 31
0.0
  1
<>
 71
     5
 42
0.0
 53
0.00013888888889
  3
ME10_DIM_6
100
AcDbAlignedDimension
 13
441.7873649720042
 23
475.6362897557893
 33
0.0
 14
195.7873649720041
 24
475.6362897557893
 34
0.0
100
AcDbRotatedDimension
  0
DIMENSION
  5
436
330
1F
100
AcDbEntity
  8
1
100
AcDbDimension
  2
*D735
 10
798.7873649720041
 20
777.7009687285433
 30
0.0
 11
670.4661944126132
 21
791.4509687285433
 31
0.0
  1
257
 71
     5
 42
0.0
 53
0.00013888888889
  3
ME10_DIM_7
100
AcDbAlignedDimension
 13
541.8314384634198
 23
658.0617851363705
 33
0.0
 14
798.7873649720041
 24
695.8131828691228
 34
0.0
100
AcDbRotatedDimension
  0
DIMENSION
  5
441
330
1F
100
AcDbEntity
  8
1
100
AcDbDimension
  2
*D836
 10
217.2873649720037
 20
320.636289755789
 30
0.0
 11
318.7873649720041
 21
334.386289755789
 31
0.0
  1
<>
 71
     5
 42
0.0
 53
0.00013888888889
  3
ME10_DIM_8
100
AcDbAlignedDimension
 13
420.2873649720042
 23
395.6362897557891
 33
0.0
 14
217.2873649720037
 24
395.6362897557892
 34
0.0
100
AcDbRotatedDimension
  0
DIMENSION
  5
44C
330
1F
100
AcDbEntity
  8
1
100
AcDbDimension
  2
*D937
 10
242.7891255278806
 20
922.1710001688871
 30
0.0
 11
280.7882452499424
 21
935.9210001688871
 31
0.0
  1
<>
 71
     5
 42
0.0
 53
0.00013888888889
  3
ME10_DIM_9
100
AcDbAlignedDimension
 13
318.7873649720041
 23
954.6832504524392
 33
0.0
 14
242.7891255278806
 24
1185.320372128709
 34
0.0
100
AcDbRotatedDimension
  0
DIMENSION
  5
457
330
1F
100
AcDbEntity
  8
1
100
AcDbDimension
  2
*D1038
 10
318.7873649720041
 20
922.1710001688871
 30
0.0
 11
356.7415436082596
 21
935.9210001688871
 31
0.0
  1
76
 71
     5
 42
0.0
 53
0.00013888888889
  3
ME10_DIM_10
100
AcDbAlignedDimension
 13
394.7519559284314
 23
1185.631072167248
 33
0.0
 14
318.7873649720041
 24
954.6832504524392
 34
0.0
100
AcDbRotatedDimension
  0
DIMENSION
  5
464
330
1F
100
AcDbEntity
  8
1
100
AcDbDimension
  2
*D1139
 10
798.7873649720041
 20
777.7009687285433
 30
0.0
 11
814.7819550239882
 21
791.4509687285433
 31
0.0
  1
32
 71
     5
 42
0.0
 53
0.00013888888889
  3
ME10_DIM_11
100
AcDbAlignedDimension
 13
830.6605048417761
 23
639.6510126580254
 33
0.0
 14
798.7873649720041
 24
695.8131828691228
 34
0.0
100
AcDbRotatedDimension
  0
HATCH
  5
465
330
1F
100
AcDbEntity
  8
1
  6
Continuous
 62
     2
100
AcDbHatch
 10
0.0
 20
0.0
 30
0.0
210
0.0
220
0.0
230
1.0
  2
CUSTOM3
 70
     0
 71
     1
 91
        1
 92
        1
 93
        4
 72
     1
 10
187.5781609685168
 20
474.6362897557897
 11
187.5781609685168
 21
459.6362897557891
 72
     1
 10
187.5781609685168
 20
459.6362897557891
 11
206.8098649720041
 21
459.6362897557893
 72
     1
 10
206.8098649720041
 20
459.6362897557893
 11
206.8098649720041
 21
474.6362897557897
 72
     1
 10
206.8098649720041
 20
474.6362897557897
 11
187.5781609685168
 21
474.6362897557897
 97
        4
330
399
330
3A6
330
397
330
3A7
 75
     1
 76
     2
 52
45.0
 41
5.0
 77
     0
 78
     2
 53
45.0
 43
0.0
 44
0.0
 45
-21.21320343559643
 46
0.0000000000000022
 79
     0
 53
45.0
 43
3.535533905932738
 44
-3.535533905932737
 45
-21.21320343559643
 46
0.0000000000000022
 79
     0
 98
        1
 10
0.0
 20
0.0
  0
HATCH
  5
466
330
1F
100
AcDbEntity
  8
1
  6
Continuous
 62
     2
100
AcDbHatch
 10
0.0
 20
0.0
 30
0.0
210
0.0
220
0.0
230
1.0
  2
CUSTOM4
 70
     0
 71
     1
 91
        1
 92
        1
 93
        4
 72
     1
 10
227.7648649720041
 20
474.6362897557897
 11
227.7648649720041
 21
459.6362897557896
 72
     1
 10
227.7648649720041
 20
459.6362897557896
 11
409.8098649720033
 21
459.6362897557896
 72
     1
 10
409.8098649720033
 20
459.6362897557896
 11
409.8098649720033
 21
474.6362897557896
 72
     1
 10
409.8098649720033
 20
474.6362897557896
 11
227.7648649720041
 21
474.6362897557897
 97
        4
330
39B
330
3A5
330
39A
330
398
 75
     1
 76
     2
 52
45.0
 41
5.0
 77
     0
 78
     2
 53
45.0
 43
0.0
 44
0.0
 45
-21.21320343559643
 46
0.0000000000000022
 79
     0
 53
45.0
 43
3.535533905932738
 44
-3.535533905932737
 45
-21.21320343559643
 46
0.0000000000000022
 79
     0
 98
        1
 10
0.0
 20
0.0
  0
HATCH
  5
467
330
1F
100
AcDbEntity
  8
1
  6
Continuous
 62
     2
100
AcDbHatch
 10
0.0
 20
0.0
 30
0.0
210
0.0
220
0.0
230
1.0
  2
CUSTOM5
 70
     0
 71
     1
 91
        1
 92
        1
 93
        4
 72
     1
 10
453.2031783815479
 20
474.6362897557897
 11
453.2031783815479
 21
459.6362897557887
 72
     1
 10
453.2031783815479
 20
459.6362897557887
 11
430.7648649720042
 21
459.6362897557896
 72
     1
 10
430.7648649720042
 20
459.6362897557896
 11
430.7648649720042
 21
474.6362897557897
 72
     1
 10
430.7648649720042
 20
474.6362897557897
 11
453.2031783815479
 21
474.6362897557897
 97
        4
330
396
330
3A4
330
39C
330
3A3
 75
     1
 76
     2
 52
45.0
 41
5.0
 77
     0
 78
     2
 53
45.0
 43
0.0
 44
0.0
 45
-21.21320343559643
 46
0.0000000000000022
 79
     0
 53
45.0
 43
3.535533905932738
 44
-3.535533905932737
 45
-21.21320343559643
 46
0.0000000000000022
 79
     0
 98
        1
 10
0.0
 20
0.0
  0
HATCH
  5
468
330
1F
100
AcDbEntity
  8
1
  6
Continuous
 62
     2
100
AcDbHatch
 10
0.0
 20
0.0
 30
0.0
210
0.0
220
0.0
230
1.0
  2
CUSTOM6
 70
     0
 71
     1
 91
        1
 92
        1
 93
        4
 72
     1
 10
764.5278642749471
 20
474.6362897557897
 11
764.5278642749471
 21
459.6362897557887
 72
     1
 10
764.5278642749471
 20
459.6362897557887
 11
788.3098649720034
 21
459.6362897557896
 72
     1
 10
788.3098649720034
 20
459.6362897557896
 11
788.3098649720034
 21
474.6362897557897
 72
     1
 10
788.3098649720034
 20
474.6362897557897
 11
764.5278642749471
 21
474.6362897557897
 97
        4
330
39F
330
3A2
330
3A0
330
3A8
 75
     1
 76
     2
 52
45.0
 41
5.0
 77
     0
 78
     2
 53
45.0
 43
0.0
 44
0.0
 45
-21.21320343559643
 46
0.0000000000000022
 79
     0
 53
45.0
 43
3.535533905932738
 44
-3.535533905932737
 45
-21.21320343559643
 46
0.0000000000000022
 79
     0
 98
        1
 10
0.0
 20
0.0
  0
HATCH
  5
469
330
1F
100
AcDbEntity
  8
1
  6
Continuous
 62
     2
100
AcDbHatch
 10
0.0
 20
0.0
 30
0.0
210
0.0
220
0.0
230
1.0
  2
CUSTOM7
 70
     0
 71
     1
 91
        1
 92
        1
 93
        4
 72
     1
 10
809.2648649720043
 20
474.6362897557897
 11
809.2648649720043
 21
459.6362897557896
 72
     1
 10
809.2648649720043
 20
459.6362897557896
 11
833.852915130815
 21
459.6362897557887
 72
     1
 10
833.852915130815
 20
459.6362897557887
 11
833.852915130815
 21
474.6362897557897
 72
     1
 10
833.852915130815
 20
474.6362897557897
 11
809.2648649720043
 21
474.6362897557897
 97
        4
330
39D
330
3AA
330
39E
330
3A9
 75
     1
 76
     2
 52
45.0
 41
5.0
 77
     0
 78
     2
 53
45.0
 43
0.0
 44
0.0
 45
-21.21320343559643
 46
0.0000000000000022
 79
     0
 53
45.0
 43
3.535533905932738
 44
-3.535533905932737
 45
-21.21320343559643
 46
0.0000000000000022
 79
     0
 98
        1
 10
0.0
 20
0.0
  0
ENDSEC
  0
SECTION
  2
OBJECTS
  0
DICTIONARY
  5
C
330
0
100
AcDbDictionary
281
     1
  3
ACAD_GROUP
350
D
  3
ACAD_LAYOUT
350
1A
  3
ACAD_MLINESTYLE
350
17
  3
ACAD_PLOTSETTINGS
350
19
  3
ACAD_PLOTSTYLENAME
350
E
  3
ACAD_TABLESTYLE
350
2A
  3
AcDbVariableDictionary
350
2C
  0
DICTIONARY
  5
D
102
{ACAD_REACTORS
330
C
102
}
330
C
100
AcDbDictionary
281
     1
  0
DICTIONARY
  5
1A
102
{ACAD_REACTORS
330
C
102
}
330
C
100
AcDbDictionary
281
     1
  3
Layout1
350
1E
  3
Layout2
350
26
  3
Model
350
22
  0
DICTIONARY
  5
17
102
{ACAD_REACTORS
330
C
102
}
330
C
100
AcDbDictionary
281
     1
  3
Standard
350
18
  0
DICTIONARY
  5
19
102
{ACAD_REACTORS
330
C
102
}
330
C
100
AcDbDictionary
281
     1
  0
ACDBDICTIONARYWDFLT
  5
E
102
{ACAD_REACTORS
330
C
102
}
330
C
100
AcDbDictionary
281
     1
  3
Normal
350
F
100
AcDbDictionaryWithDefault
340
F
  0
DICTIONARY
  5
2A
102
{ACAD_REACTORS
330
C
102
}
330
C
100
AcDbDictionary
281
     1
  3
Standard
350
2B
  0
DICTIONARY
  5
2C
102
{ACAD_REACTORS
330
C
102
}
330
C
100
AcDbDictionary
281
     1
  3
CTABLESTYLE
350
2D
  0
LAYOUT
  5
1E
102
{ACAD_REACTORS
330
1A
102
}
330
1A
100
AcDbPlotSettings
  1

  2

  4

  6

 40
0.0
 41
0.0
 42
0.0
 43
0.0
 44
0.0
 45
0.0
 46
0.0
 47
0.0
 48
0.0
 49
0.0
140
0.0
141
0.0
142
1.0
143
1.0
 70
   688
 72
     0
 73
     0
 74
     5
  7

 75
    16
147
1.0
148
0.0
149
0.0
100
AcDbLayout
  1
Layout1
 70
     1
 71
     1
 10
0.0
 20
0.0
 11
12.0
 21
9.0
 12
0.0
 22
0.0
 32
0.0
 14
1.00000000000000E+20
 24
1.00000000000000E+20
 34
1.00000000000000E+20
 15
-1.00000000000000E+20
 25
-1.00000000000000E+20
 35
-1.00000000000000E+20
146
0.0
 13
0.0
 23
0.0
 33
0.0
 16
1.0
 26
0.0
 36
0.0
 17
0.0
 27
1.0
 37
0.0
 76
     0
330
1B
  0
LAYOUT
  5
26
102
{ACAD_REACTORS
330
1A
102
}
330
1A
100
AcDbPlotSettings
  1

  2

  4

  6

 40
0.0
 41
0.0
 42
0.0
 43
0.0
 44
0.0
 45
0.0
 46
0.0
 47
0.0
 48
0.0
 49
0.0
140
0.0
141
0.0
142
1.0
143
1.0
 70
   688
 72
     0
 73
     0
 74
     5
  7

 75
    16
147
1.0
148
0.0
149
0.0
100
AcDbLayout
  1
Layout2
 70
     1
 71
     2
 10
0.0
 20
0.0
 11
0.0
 21
0.0
 12
0.0
 22
0.0
 32
0.0
 14
0.0
 24
0.0
 34
0.0
 15
0.0
 25
0.0
 35
0.0
146
0.0
 13
0.0
 23
0.0
 33
0.0
 16
1.0
 26
0.0
 36
0.0
 17
0.0
 27
1.0
 37
0.0
 76
     0
330
23
  0
LAYOUT
  5
22
102
{ACAD_REACTORS
330
1A
102
}
330
1A
100
AcDbPlotSettings
  1

  2

  4

  6

 40
0.0
 41
0.0
 42
0.0
 43
0.0
 44
0.0
 45
0.0
 46
0.0
 47
0.0
 48
0.0
 49
0.0
140
0.0
141
0.0
142
1.0
143
1.0
 70
  1712
 72
     0
 73
     0
 74
     0
  7

 75
     0
147
1.0
148
0.0
149
0.0
100
AcDbLayout
  1
Model
 70
     1
 71
     0
 10
0.0
 20
0.0
 11
0.0
 21
0.0
 12
0.0
 22
0.0
 32
0.0
 14
0.0
 24
0.0
 34
0.0
 15
1050.0
 25
1485.0
 35
0.0
146
0.0
 13
0.0
 23
0.0
 33
0.0
 16
1.0
 26
0.0
 36
0.0
 17
0.0
 27
1.0
 37
0.0
 76
     0
330
1F
  0
MLINESTYLE
  5
18
102
{ACAD_REACTORS
330
17
102
}
330
17
100
AcDbMlineStyle
  2
Standard
 70
     0
  3

 62
   256
 51
90.0
 52
90.0
 71
     2
 49
0.5
 62
   256
  6
BYLAYER
 49
-0.5
 62
   256
  6
BYLAYER
  0
ACDBPLACEHOLDER
  5
F
102
{ACAD_REACTORS
330
E
102
}
330
E
  0
TABLESTYLE
  5
2B
102
{ACAD_REACTORS
330
2A
102
}
330
2A
100
AcDbTableStyle
  3
Standard
 70
     0
 71
     0
 40
0.06
 41
0.06
280
     0
281
     0
  7
Standard
140
0.18
170
     2
 62
     0
 63
     7
283
     0
274
    -2
284
     1
 64
     0
275
    -2
285
     1
 65
     0
276
    -2
286
     1
 66
     0
277
    -2
287
     1
 67
     0
278
    -2
288
     1
 68
     0
279
    -2
289
     1
 69
     0
  7
Standard
140
0.25
170
     5
 62
     0
 63
     7
283
     0
274
    -2
284
     1
 64
     0
275
    -2
285
     1
 65
     0
276
    -2
286
     1
 66
     0
277
    -2
287
     1
 67
     0
278
    -2
288
     1
 68
     0
279
    -2
289
     1
 69
     0
  7
Standard
140
0.18
170
     5
 62
     0
 63
     7
283
     0
274
    -2
284
     1
 64
     0
275
    -2
285
     1
 65
     0
276
    -2
286
     1
 66
     0
277
    -2
287
     1
 67
     0
278
    -2
288
     1
 68
     0
279
    -2
289
     1
 69
     0
  0
DICTIONARYVAR
  5
2D
102
{ACAD_REACTORS
330
2C
102
}
330
2C
100
DictionaryVariables
280
     0
  1
Standard
  0
ENDSEC
  0
EOF
