  0
SECTION
  2
HEADER
  9
$ACADVER
  1
AC1015
  9
$ACADMAINTVER
 70
     6
  9
$DWGCODEPAGE
  3
ANSI_932
  9
$INSBASE
 10
0.0
 20
0.0
 30
0.0
  9
$EXTMIN
 10
0.0
 20
0.0
 30
0.0
  9
$EXTMAX
 10
1050.0
 20
1485.0
 30
0.0
  9
$LIMMIN
 10
0.0
 20
0.0
  9
$LIMMAX
 10
12.0
 20
9.0
  9
$ORTHOMODE
 70
     0
  9
$REGENMODE
 70
     1
  9
$FILLMODE
 70
     1
  9
$QTEXTMODE
 70
     0
  9
$MIRRTEXT
 70
     1
  9
$LTSCALE
 40
1.0
  9
$ATTMODE
 70
     1
  9
$TEXTSIZE
 40
0.2
  9
$TRACEWID
 40
0.05
  9
$TEXTSTYLE
  7
Standard
  9
$CLAYER
  8
0
  9
$CELTYPE
  6
ByLayer
  9
$CECOLOR
 62
   256
  9
$CELTSCALE
 40
1.0
  9
$DISPSILH
 70
     0
  9
$DIMSCALE
 40
1.0
  9
$DIMASZ
 40
0.18
  9
$DIMEXO
 40
0.0625
  9
$DIMDLI
 40
0.38
  9
$DIMRND
 40
0.0
  9
$DIMDLE
 40
0.0
  9
$DIMEXE
 40
0.18
  9
$DIMTP
 40
0.0
  9
$DIMTM
 40
0.0
  9
$DIMTXT
 40
0.18
  9
$DIMCEN
 40
0.09
  9
$DIMTSZ
 40
0.0
  9
$DIMTOL
 70
     0
  9
$DIMLIM
 70
     0
  9
$DIMTIH
 70
     1
  9
$DIMTOH
 70
     1
  9
$DIMSE1
 70
     0
  9
$DIMSE2
 70
     0
  9
$DIMTAD
 70
     0
  9
$DIMZIN
 70
     0
  9
$DIMBLK
  1

  9
$DIMASO
 70
     1
  9
$DIMSHO
 70
     1
  9
$DIMPOST
  1

  9
$DIMAPOST
  1

  9
$DIMALT
 70
     0
  9
$DIMALTD
 70
     2
  9
$DIMALTF
 40
25.4
  9
$DIMLFAC
 40
1.0
  9
$DIMTOFL
 70
     0
  9
$DIMTVP
 40
0.0
  9
$DIMTIX
 70
     0
  9
$DIMSOXD
 70
     0
  9
$DIMSAH
 70
     0
  9
$DIMBLK1
  1

  9
$DIMBLK2
  1

  9
$DIMSTYLE
  2
Standard
  9
$DIMCLRD
 70
     0
  9
$DIMCLRE
 70
     0
  9
$DIMCLRT
 70
     0
  9
$DIMTFAC
 40
1.0
  9
$DIMGAP
 40
0.09
  9
$DIMJUST
 70
     0
  9
$DIMSD1
 70
     0
  9
$DIMSD2
 70
     0
  9
$DIMTOLJ
 70
     1
  9
$DIMTZIN
 70
     0
  9
$DIMALTZ
 70
     0
  9
$DIMALTTZ
 70
     0
  9
$DIMUPT
 70
     0
  9
$DIMDEC
 70
     4
  9
$DIMTDEC
 70
     4
  9
$DIMALTU
 70
     2
  9
$DIMALTTD
 70
     2
  9
$DIMTXSTY
  7
Standard
  9
$DIMAUNIT
 70
     0
  9
$DIMADEC
 70
     0
  9
$DIMALTRND
 40
0.0
  9
$DIMAZIN
 70
     0
  9
$DIMDSEP
 70
    46
  9
$DIMATFIT
 70
     3
  9
$DIMFRAC
 70
     0
  9
$DIMLDRBLK
  1

  9
$DIMLUNIT
 70
     2
  9
$DIMLWD
 70
    -2
  9
$DIMLWE
 70
    -2
  9
$DIMTMOVE
 70
     0
  9
$LUNITS
 70
     2
  9
$LUPREC
 70
     4
  9
$SKETCHINC
 40
0.1
  9
$FILLETRAD
 40
0.5
  9
$AUNITS
 70
     0
  9
$AUPREC
 70
     0
  9
$MENU
  1
.
  9
$ELEVATION
 40
0.0
  9
$PELEVATION
 40
0.0
  9
$THICKNESS
 40
0.0
  9
$LIMCHECK
 70
     0
  9
$CHAMFERA
 40
0.5
  9
$CHAMFERB
 40
0.5
  9
$CHAMFERC
 40
1.0
  9
$CHAMFERD
 40
0.0
  9
$SKPOLY
 70
     0
  9
$TDCREATE
 40
2456891.548237778
  9
$TDUCREATE
 40
2456891.173237778
  9
$TDUPDATE
 40
2456891.548238866
  9
$TDUUPDATE
 40
2456891.173238866
  9
$TDINDWG
 40
0.0000000116
  9
$TDUSRTIMER
 40
0.0000000116
  9
$USRTIMER
 70
     1
  9
$ANGBASE
 50
0.0
  9
$ANGDIR
 70
     0
  9
$PDMODE
 70
     0
  9
$PDSIZE
 40
0.0
  9
$PLINEWID
 40
0.0
  9
$SPLFRAME
 70
     0
  9
$SPLINETYPE
 70
     6
  9
$SPLINESEGS
 70
     8
  9
$HANDSEED
  5
529
  9
$SURFTAB1
 70
     6
  9
$SURFTAB2
 70
     6
  9
$SURFTYPE
 70
     6
  9
$SURFU
 70
     6
  9
$SURFV
 70
     6
  9
$UCSBASE
  2

  9
$UCSNAME
  2

  9
$UCSORG
 10
0.0
 20
0.0
 30
0.0
  9
$UCSXDIR
 10
1.0
 20
0.0
 30
0.0
  9
$UCSYDIR
 10
0.0
 20
1.0
 30
0.0
  9
$UCSORTHOREF
  2

  9
$UCSORTHOVIEW
 70
     0
  9
$UCSORGTOP
 10
0.0
 20
0.0
 30
0.0
  9
$UCSORGBOTTOM
 10
0.0
 20
0.0
 30
0.0
  9
$UCSORGLEFT
 10
0.0
 20
0.0
 30
0.0
  9
$UCSORGRIGHT
 10
0.0
 20
0.0
 30
0.0
  9
$UCSORGFRONT
 10
0.0
 20
0.0
 30
0.0
  9
$UCSORGBACK
 10
0.0
 20
0.0
 30
0.0
  9
$PUCSBASE
  2

  9
$PUCSNAME
  2

  9
$PUCSORG
 10
0.0
 20
0.0
 30
0.0
  9
$PUCSXDIR
 10
1.0
 20
0.0
 30
0.0
  9
$PUCSYDIR
 10
0.0
 20
1.0
 30
0.0
  9
$PUCSORTHOREF
  2

  9
$PUCSORTHOVIEW
 70
     0
  9
$PUCSORGTOP
 10
0.0
 20
0.0
 30
0.0
  9
$PUCSORGBOTTOM
 10
0.0
 20
0.0
 30
0.0
  9
$PUCSORGLEFT
 10
0.0
 20
0.0
 30
0.0
  9
$PUCSORGRIGHT
 10
0.0
 20
0.0
 30
0.0
  9
$PUCSORGFRONT
 10
0.0
 20
0.0
 30
0.0
  9
$PUCSORGBACK
 10
0.0
 20
0.0
 30
0.0
  9
$USERI1
 70
     0
  9
$USERI2
 70
     0
  9
$USERI3
 70
     0
  9
$USERI4
 70
     0
  9
$USERI5
 70
     0
  9
$USERR1
 40
18.1
  9
$USERR2
 40
0.0
  9
$USERR3
 40
0.0
  9
$USERR4
 40
0.0
  9
$USERR5
 40
0.0
  9
$WORLDVIEW
 70
     1
  9
$SHADEDGE
 70
     3
  9
$SHADEDIF
 70
    70
  9
$TILEMODE
 70
     1
  9
$MAXACTVP
 70
    64
  9
$PINSBASE
 10
0.0
 20
0.0
 30
0.0
  9
$PLIMCHECK
 70
     0
  9
$PEXTMIN
 10
1.00000000000000E+20
 20
1.00000000000000E+20
 30
1.00000000000000E+20
  9
$PEXTMAX
 10
-1.00000000000000E+20
 20
-1.00000000000000E+20
 30
-1.00000000000000E+20
  9
$PLIMMIN
 10
0.0
 20
0.0
  9
$PLIMMAX
 10
12.0
 20
9.0
  9
$UNITMODE
 70
     0
  9
$VISRETAIN
 70
     1
  9
$PLINEGEN
 70
     0
  9
$PSLTSCALE
 70
     1
  9
$TREEDEPTH
 70
  3020
  9
$CMLSTYLE
  2
Standard
  9
$CMLJUST
 70
     0
  9
$CMLSCALE
 40
1.0
  9
$PROXYGRAPHICS
 70
     1
  9
$MEASUREMENT
 70
     1
  9
$CELWEIGHT
370
    -1
  9
$ENDCAPS
280
     0
  9
$JOINSTYLE
280
     0
  9
$LWDISPLAY
290
     0
  9
$INSUNITS
 70
     4
  9
$HYPERLINKBASE
  1

  9
$STYLESHEET
  1

  9
$XEDIT
290
     1
  9
$CEPSNTYPE
380
     0
  9
$PSTYLEMODE
290
     1
  9
$FINGERPRINTGUID
  2
{99C9BBAD-82B7-423B-899B-F3847CAD9D09}
  9
$VERSIONGUID
  2
{FAEB1C32-E019-11D5-929B-00C0DF256EC4}
  9
$EXTNAMES
290
     1
  9
$PSVPSCALE
 40
0.0
  9
$OLESTARTUP
290
     0
  0
ENDSEC
  0
SECTION
  2
CLASSES
  0
CLASS
  1
ACDBDICTIONARYWDFLT
  2
AcDbDictionaryWithDefault
  3
ObjectDBX Classes
 90
        0
280
     0
281
     0
  0
CLASS
  1
VISUALSTYLE
  2
AcDbVisualStyle
  3
ObjectDBX Classes
 90
     4095
280
     0
281
     0
  0
CLASS
  1
MATERIAL
  2
AcDbMaterial
  3
ObjectDBX Classes
 90
     1153
280
     0
281
     0
  0
CLASS
  1
DICTIONARYVAR
  2
AcDbDictionaryVar
  3
ObjectDBX Classes
 90
        0
280
     0
281
     0
  0
CLASS
  1
ACDBPLACEHOLDER
  2
AcDbPlaceHolder
  3
ObjectDBX Classes
 90
        0
280
     0
281
     0
  0
CLASS
  1
LAYOUT
  2
AcDbLayout
  3
ObjectDBX Classes
 90
        0
280
     0
281
     0
  0
ENDSEC
  0
SECTION
  2
TABLES
  0
TABLE
  2
VPORT
  5
8
330
0
100
AcDbSymbolTable
 70
     1
  0
VPORT
  5
29
330
8
100
AcDbSymbolTableRecord
100
AcDbViewportTableRecord
  2
*Active
 70
     0
 10
0.0
 20
0.0
 11
1.0
 21
1.0
 12
525.0
 22
742.5
 13
0.0
 23
0.0
 14
0.5
 24
0.5
 15
0.5
 25
0.5
 16
0.0
 26
0.0
 36
1.0
 17
0.0
 27
0.0
 37
0.0
 40
1633.5
 41
1.60267857142857
 42
50.0
 43
0.0
 44
0.0
 50
0.0
 51
0.0
 71
     0
 72
   100
 73
     1
 74
     3
 75
     0
 76
     0
 77
     0
 78
     0
281
     0
 65
     1
110
0.0
120
0.0
130
0.0
111
1.0
121
0.0
131
0.0
112
0.0
122
1.0
132
0.0
 79
     0
146
0.0
  0
ENDTAB
  0
TABLE
  2
LTYPE
  5
5
330
0
100
AcDbSymbolTable
 70
     8
  0
LTYPE
  5
14
330
5
100
AcDbSymbolTableRecord
100
AcDbLinetypeTableRecord
  2
ByBlock
 70
     0
  3

 72
    65
 73
     0
 40
0.0
  0
LTYPE
  5
15
330
5
100
AcDbSymbolTableRecord
100
AcDbLinetypeTableRecord
  2
ByLayer
 70
     0
  3

 72
    65
 73
     0
 40
0.0
  0
LTYPE
  5
16
330
5
100
AcDbSymbolTableRecord
100
AcDbLinetypeTableRecord
  2
Continuous
 70
     0
  3
Solid line
 72
    65
 73
     0
 40
0.0
  0
LTYPE
  5
3F
330
5
100
AcDbSymbolTableRecord
100
AcDbLinetypeTableRecord
  2
DASHED
 70
     0
  3
Dashed
 72
    65
 73
     2
 40
15.0
 49
7.0
 74
     0
 49
-8.0
 74
     0
  0
LTYPE
  5
40
330
5
100
AcDbSymbolTableRecord
100
AcDbLinetypeTableRecord
  2
DOTTED
 70
     0
  3
Dotted
 72
    65
 73
     2
 40
1.0
 49
0.0
 74
     0
 49
-1.0
 74
     0
  0
LTYPE
  5
41
330
5
100
AcDbSymbolTableRecord
100
AcDbLinetypeTableRecord
  2
DOT_CENTER
 70
     0
  3
Dot_Center
 72
    65
 73
     4
 40
14.0
 49
12.0
 74
     0
 49
-1.0
 74
     0
 49
0.0
 74
     0
 49
-1.0
 74
     0
  0
LTYPE
  5
42
330
5
100
AcDbSymbolTableRecord
100
AcDbLinetypeTableRecord
  2
LONG_DASHED
 70
     0
  3
Long_Dashed
 72
    65
 73
     2
 40
15.0
 49
10.0
 74
     0
 49
-5.0
 74
     0
  0
LTYPE
  5
43
330
5
100
AcDbSymbolTableRecord
100
AcDbLinetypeTableRecord
  2
DASH_CENTER
 70
     0
  3
Dash_Center
 72
    65
 73
     4
 40
14.0
 49
11.0
 74
     0
 49
-1.0
 74
     0
 49
1.0
 74
     0
 49
-1.0
 74
     0
  0
LTYPE
  5
44
330
5
100
AcDbSymbolTableRecord
100
AcDbLinetypeTableRecord
  2
PHANTOM
 70
     0
  3
Phantom
 72
    65
 73
     6
 40
13.0
 49
10.0
 74
     0
 49
-1.0
 74
     0
 49
0.0
 74
     0
 49
-1.0
 74
     0
 49
0.0
 74
     0
 49
-1.0
 74
     0
  0
LTYPE
  5
45
330
5
100
AcDbSymbolTableRecord
100
AcDbLinetypeTableRecord
  2
CENTER_DASH_DASH
 70
     0
  3
Center_Dash_Dash
 72
    65
 73
     6
 40
14.0
 49
9.0
 74
     0
 49
-1.0
 74
     0
 49
1.0
 74
     0
 49
-1.0
 74
     0
 49
1.0
 74
     0
 49
-1.0
 74
     0
  0
ENDTAB
  0
TABLE
  2
LAYER
  5
2
330
0
100
AcDbSymbolTable
 70
     2
  0
LAYER
  5
10
330
2
100
AcDbSymbolTableRecord
100
AcDbLayerTableRecord
  2
0
 70
     0
 62
     7
  6
Continuous
370
    -3
390
F
  0
LAYER
  5
46
330
2
100
AcDbSymbolTableRecord
100
AcDbLayerTableRecord
  2
1
 70
     0
 62
     7
  6
Continuous
370
    -3
390
F
  0
ENDTAB
  0
TABLE
  2
STYLE
  5
3
330
0
100
AcDbSymbolTable
 70
     3
  0
STYLE
  5
11
330
3
100
AcDbSymbolTableRecord
100
AcDbTextStyleTableRecord
  2
Standard
 70
     0
 40
0.0
 41
1.0
 50
0.0
 71
     0
 42
0.2
  3
txt
  4

  0
STYLE
  5
18D
330
3
100
AcDbSymbolTableRecord
100
AcDbTextStyleTableRecord
  2
CONVERTER_11
 70
     0
 40
0.0
 41
0.89
 50
0.0
 71
     0
 42
0.2
  3
MS Mincho.ttf
  4

1001
ACAD
1000
MS Mincho
1071
    32785
  0
STYLE
  5
43D
330
3
100
AcDbSymbolTableRecord
100
AcDbTextStyleTableRecord
  2
CONVERTER_12
 70
     0
 40
0.0
 41
0.9
 50
0.0
 71
     0
 42
0.2
  3
txt.shx
  4

  0
ENDTAB
  0
TABLE
  2
VIEW
  5
6
330
0
100
AcDbSymbolTable
 70
     0
  0
ENDTAB
  0
TABLE
  2
UCS
  5
7
330
0
100
AcDbSymbolTable
 70
     0
  0
ENDTAB
  0
TABLE
  2
APPID
  5
9
330
0
100
AcDbSymbolTable
 70
     1
  0
APPID
  5
12
330
9
100
AcDbSymbolTableRecord
100
AcDbRegAppTableRecord
  2
ACAD
 70
     0
  0
ENDTAB
  0
TABLE
  2
DIMSTYLE
  5
A
330
0
100
AcDbSymbolTable
 70
    16
100
AcDbDimStyleTable
  0
DIMSTYLE
105
27
330
A
100
AcDbSymbolTableRecord
100
AcDbDimStyleTableRecord
  2
Standard
 70
     0
178
     0
340
11
  0
DIMSTYLE
105
457
102
{ACAD_REACTORS
330
458
102
}
330
A
100
AcDbSymbolTableRecord
100
AcDbDimStyleTableRecord
  2
ME10_DIM_10
 70
     0
 41
17.5
 42
0.0
 44
5.0
 73
     0
 74
     0
 77
     1
 78
     8
140
17.5
147
5.0
172
     1
173
     1
174
     1
175
     1
176
     2
177
     2
271
     2
178
     7
271
     2
340
43D
  0
DIMSTYLE
105
462
102
{ACAD_REACTORS
330
463
102
}
330
A
100
AcDbSymbolTableRecord
100
AcDbDimStyleTableRecord
  2
ME10_DIM_11
 70
     0
 41
17.5
 42
0.0
 44
5.0
 73
     0
 74
     0
 77
     1
 78
     8
140
17.5
147
5.0
172
     1
173
     1
174
     1
175
     1
176
     2
177
     2
271
     2
178
     7
271
     2
340
43D
  0
DIMSTYLE
105
46F
102
{ACAD_REACTORS
330
470
102
}
330
A
100
AcDbSymbolTableRecord
100
AcDbDimStyleTableRecord
  2
ME10_DIM_12
 70
     0
 41
17.5
 42
0.0
 44
5.0
 73
     0
 74
     0
 77
     1
 78
     8
140
17.5
147
5.0
172
     1
173
     1
174
     1
175
     1
176
     2
177
     2
271
     2
178
     7
271
     2
340
43D
  0
DIMSTYLE
105
47A
102
{ACAD_REACTORS
330
47B
102
}
330
A
100
AcDbSymbolTableRecord
100
AcDbDimStyleTableRecord
  2
ME10_DIM_13
 70
     0
 41
17.5
 42
0.0
 44
5.0
 73
     0
 74
     0
 77
     1
 78
     8
140
17.5
147
5.0
172
     1
173
     1
174
     1
175
     1
176
     2
177
     2
271
     2
178
     7
271
     2
340
43D
  0
DIMSTYLE
105
485
102
{ACAD_REACTORS
330
486
102
}
330
A
100
AcDbSymbolTableRecord
100
AcDbDimStyleTableRecord
  2
ME10_DIM_14
 70
     0
 41
17.5
 42
0.0
 44
5.0
 73
     0
 74
     0
 77
     1
 78
     8
140
17.5
147
5.0
172
     1
173
     1
174
     1
175
     1
176
     2
177
     2
271
     2
178
     7
271
     2
340
43D
  0
DIMSTYLE
105
490
102
{ACAD_REACTORS
330
491
102
}
330
A
100
AcDbSymbolTableRecord
100
AcDbDimStyleTableRecord
  2
ME10_DIM_15
 70
     0
 41
17.5
 42
0.0
 44
5.0
 73
     0
 74
     0
 77
     1
 78
     8
140
17.5
147
5.0
172
     1
173
     1
174
     1
175
     1
176
     2
177
     2
271
     2
178
     7
271
     2
340
43D
  0
DIMSTYLE
105
49D
102
{ACAD_REACTORS
330
49E
102
}
330
A
100
AcDbSymbolTableRecord
100
AcDbDimStyleTableRecord
  2
ME10_DIM_16
 70
     0
 41
17.5
 42
0.0
 44
5.0
 73
     0
 74
     0
 77
     1
 78
     8
140
17.5
147
5.0
172
     1
173
     1
174
     1
175
     1
176
     2
177
     2
271
     2
178
     7
271
     2
340
18D
  0
DIMSTYLE
105
4AA
102
{ACAD_REACTORS
330
4AB
102
}
330
A
100
AcDbSymbolTableRecord
100
AcDbDimStyleTableRecord
  2
ME10_DIM_17
 70
     0
  3
最大<>
 41
17.5
 42
0.0
 44
5.0
 73
     0
 74
     0
 77
     1
 78
     8
140
17.5
147
5.0
172
     1
173
     1
174
     1
175
     1
176
     2
177
     2
271
     2
178
     7
271
     2
340
18D
  0
DIMSTYLE
105
4B5
102
{ACAD_REACTORS
330
4B6
102
}
330
A
100
AcDbSymbolTableRecord
100
AcDbDimStyleTableRecord
  2
ME10_DIM_18
 70
     0
 41
17.5
 42
0.0
 44
5.0
 73
     0
 74
     0
 77
     1
 78
     8
140
17.5
147
5.0
172
     1
173
     1
174
     1
175
     1
176
     2
177
     2
271
     2
178
     7
271
     2
340
43D
  0
DIMSTYLE
105
4C0
102
{ACAD_REACTORS
330
4C1
102
}
330
A
100
AcDbSymbolTableRecord
100
AcDbDimStyleTableRecord
  2
ME10_DIM_19
 70
     0
  3
最小<>
 41
17.5
 42
0.0
 44
5.0
 73
     0
 74
     0
 77
     1
 78
     8
140
17.5
147
5.0
172
     1
173
     1
174
     1
175
     1
176
     2
177
     2
271
     2
178
     7
271
     2
340
18D
  0
DIMSTYLE
105
4CB
102
{ACAD_REACTORS
330
4CC
102
}
330
A
100
AcDbSymbolTableRecord
100
AcDbDimStyleTableRecord
  2
ME10_DIM_20
 70
     0
  3
最大<>
 41
17.5
 42
0.0
 44
5.0
 73
     0
 74
     0
 77
     1
 78
     8
140
17.5
147
5.0
172
     1
173
     1
174
     1
175
     1
176
     2
177
     2
271
     2
178
     7
271
     2
340
18D
  0
DIMSTYLE
105
4D6
102
{ACAD_REACTORS
330
4D7
102
}
330
A
100
AcDbSymbolTableRecord
100
AcDbDimStyleTableRecord
  2
ME10_DIM_21
 70
     0
 41
17.5
 42
0.0
 44
5.0
 73
     0
 74
     0
 77
     1
 78
     8
140
17.5
147
5.0
172
     1
173
     1
174
     1
175
     1
176
     2
177
     2
271
     2
178
     7
271
     2
340
43D
  0
DIMSTYLE
105
4E1
102
{ACAD_REACTORS
330
4E2
102
}
330
A
100
AcDbSymbolTableRecord
100
AcDbDimStyleTableRecord
  2
ME10_DIM_22
 70
     0
 41
17.5
 42
0.0
 44
5.0
 73
     0
 74
     0
 77
     1
 78
     8
140
17.5
147
5.0
172
     1
173
     1
174
     1
175
     1
176
     2
177
     2
271
     2
178
     7
271
     2
340
43D
  0
DIMSTYLE
105
4EC
102
{ACAD_REACTORS
330
4ED
102
}
330
A
100
AcDbSymbolTableRecord
100
AcDbDimStyleTableRecord
  2
ME10_DIM_23
 70
     0
 41
17.5
 42
0.0
 44
5.0
 73
     0
 74
     0
 77
     1
 78
     8
140
17.5
147
5.0
172
     1
173
     1
174
     1
175
     1
176
     2
177
     2
271
     2
178
     7
271
     2
340
43D
  0
DIMSTYLE
105
4F7
102
{ACAD_REACTORS
330
4F8
102
}
330
A
100
AcDbSymbolTableRecord
100
AcDbDimStyleTableRecord
  2
ME10_DIM_24
 70
     0
 41
17.5
 42
0.0
 44
5.0
 73
     0
 74
     0
 77
     1
 78
     8
140
17.5
147
5.0
172
     1
173
     1
174
     1
175
     1
176
     2
177
     2
271
     2
178
     7
271
     2
340
43D
  0
ENDTAB
  0
TABLE
  2
BLOCK_RECORD
  5
1
330
0
100
AcDbSymbolTable
 70
    42
  0
BLOCK_RECORD
  5
1F
330
1
100
AcDbSymbolTableRecord
100
AcDbBlockTableRecord
  2
*Model_Space
340
22
  0
BLOCK_RECORD
  5
1B
330
1
100
AcDbSymbolTableRecord
100
AcDbBlockTableRecord
  2
*Paper_Space
340
1E
  0
BLOCK_RECORD
  5
23
330
1
100
AcDbSymbolTableRecord
100
AcDbBlockTableRecord
  2
*Paper_Space0
340
26
  0
BLOCK_RECORD
  5
47
330
1
100
AcDbSymbolTableRecord
100
AcDbBlockTableRecord
  2
30-252A-C2__1
340
0
102
{BLKREFS
331
4B
102
}
  0
BLOCK_RECORD
  5
4A
330
1
100
AcDbSymbolTableRecord
100
AcDbBlockTableRecord
  2
V872FE__2
340
0
102
{BLKREFS
331
9A
102
}
  0
BLOCK_RECORD
  5
4E
330
1
100
AcDbSymbolTableRecord
100
AcDbBlockTableRecord
  2
30-252A-C2__3
340
0
102
{BLKREFS
331
52
102
}
  0
BLOCK_RECORD
  5
51
330
1
100
AcDbSymbolTableRecord
100
AcDbBlockTableRecord
  2
V872FE__4
340
0
102
{BLKREFS
331
9B
102
}
  0
BLOCK_RECORD
  5
55
330
1
100
AcDbSymbolTableRecord
100
AcDbBlockTableRecord
  2
開示A4
340
0
102
{BLKREFS
331
9C
102
}
  0
BLOCK_RECORD
  5
58
330
1
100
AcDbSymbolTableRecord
100
AcDbBlockTableRecord
  2
61-115A-M1
340
0
102
{BLKREFS
331
5F
102
}
  0
BLOCK_RECORD
  5
5B
330
1
100
AcDbSymbolTableRecord
100
AcDbBlockTableRecord
  2
82-20-M21
340
0
102
{BLKREFS
331
60
102
}
  0
BLOCK_RECORD
  5
5E
330
1
100
AcDbSymbolTableRecord
100
AcDbBlockTableRecord
  2
61-115AX-M1
340
0
102
{BLKREFS
331
9D
102
}
  0
BLOCK_RECORD
  5
63
330
1
100
AcDbSymbolTableRecord
100
AcDbBlockTableRecord
  2
01-76
340
0
102
{BLKREFS
331
9E
102
}
  0
BLOCK_RECORD
  5
66
330
1
100
AcDbSymbolTableRecord
100
AcDbBlockTableRecord
  2
50-13
340
0
102
{BLKREFS
331
9F
102
}
  0
BLOCK_RECORD
  5
69
330
1
100
AcDbSymbolTableRecord
100
AcDbBlockTableRecord
  2
32-16__5
340
0
102
{BLKREFS
331
A0
102
}
  0
BLOCK_RECORD
  5
6C
330
1
100
AcDbSymbolTableRecord
100
AcDbBlockTableRecord
  2
35-276__6
340
0
102
{BLKREFS
331
A1
102
}
  0
BLOCK_RECORD
  5
6F
330
1
100
AcDbSymbolTableRecord
100
AcDbBlockTableRecord
  2
32-16__7
340
0
102
{BLKREFS
331
A2
102
}
  0
BLOCK_RECORD
  5
72
330
1
100
AcDbSymbolTableRecord
100
AcDbBlockTableRecord
  2
73-1-21_5__8
340
0
102
{BLKREFS
331
A3
102
}
  0
BLOCK_RECORD
  5
75
330
1
100
AcDbSymbolTableRecord
100
AcDbBlockTableRecord
  2
92-53A__9
340
0
102
{BLKREFS
331
A4
102
}
  0
BLOCK_RECORD
  5
78
330
1
100
AcDbSymbolTableRecord
100
AcDbBlockTableRecord
  2
32-25__10
340
0
102
{BLKREFS
331
A5
102
}
  0
BLOCK_RECORD
  5
7B
330
1
100
AcDbSymbolTableRecord
100
AcDbBlockTableRecord
  2
73-1-21_5__11
340
0
102
{BLKREFS
331
A6
102
}
  0
BLOCK_RECORD
  5
7E
330
1
100
AcDbSymbolTableRecord
100
AcDbBlockTableRecord
  2
32-25__12
340
0
102
{BLKREFS
331
A7
102
}
  0
BLOCK_RECORD
  5
81
330
1
100
AcDbSymbolTableRecord
100
AcDbBlockTableRecord
  2
92-53A__13
340
0
102
{BLKREFS
331
A8
102
}
  0
BLOCK_RECORD
  5
84
330
1
100
AcDbSymbolTableRecord
100
AcDbBlockTableRecord
  2
98-119A
340
0
102
{BLKREFS
331
A9
102
}
  0
BLOCK_RECORD
  5
87
330
1
100
AcDbSymbolTableRecord
100
AcDbBlockTableRecord
  2
35-276__14
340
0
102
{BLKREFS
331
AA
102
}
  0
BLOCK_RECORD
  5
8A
330
1
100
AcDbSymbolTableRecord
100
AcDbBlockTableRecord
  2
30-310-M11
340
0
102
{BLKREFS
331
AB
102
}
  0
BLOCK_RECORD
  5
8D
330
1
100
AcDbSymbolTableRecord
100
AcDbBlockTableRecord
  2
34-167-M1
340
0
102
{BLKREFS
331
AC
102
}
  0
BLOCK_RECORD
  5
90
330
1
100
AcDbSymbolTableRecord
100
AcDbBlockTableRecord
  2
84-360A-M22
340
0
102
{BLKREFS
331
94
102
}
  0
BLOCK_RECORD
  5
93
330
1
100
AcDbSymbolTableRecord
100
AcDbBlockTableRecord
  2
87-163A-M21
340
0
102
{BLKREFS
331
AD
102
}
  0
BLOCK_RECORD
  5
97
330
1
100
AcDbSymbolTableRecord
100
AcDbBlockTableRecord
  2
37-364-M11
340
0
102
{BLKREFS
331
AE
102
}
  0
BLOCK_RECORD
  5
44E
330
1
100
AcDbSymbolTableRecord
100
AcDbBlockTableRecord
  2
*D27
340
0
  0
BLOCK_RECORD
  5
459
330
1
100
AcDbSymbolTableRecord
100
AcDbBlockTableRecord
  2
*D28
340
0
  0
BLOCK_RECORD
  5
464
330
1
100
AcDbSymbolTableRecord
100
AcDbBlockTableRecord
  2
*D29
340
0
  0
BLOCK_RECORD
  5
471
330
1
100
AcDbSymbolTableRecord
100
AcDbBlockTableRecord
  2
*D30
340
0
  0
BLOCK_RECORD
  5
47C
330
1
100
AcDbSymbolTableRecord
100
AcDbBlockTableRecord
  2
*D31
340
0
  0
BLOCK_RECORD
  5
487
330
1
100
AcDbSymbolTableRecord
100
AcDbBlockTableRecord
  2
*D32
340
0
  0
BLOCK_RECORD
  5
492
330
1
100
AcDbSymbolTableRecord
100
AcDbBlockTableRecord
  2
*D33
340
0
  0
BLOCK_RECORD
  5
49F
330
1
100
AcDbSymbolTableRecord
100
AcDbBlockTableRecord
  2
*D34
340
0
  0
BLOCK_RECORD
  5
4AC
330
1
100
AcDbSymbolTableRecord
100
AcDbBlockTableRecord
  2
*D35
340
0
  0
BLOCK_RECORD
  5
4B7
330
1
100
AcDbSymbolTableRecord
100
AcDbBlockTableRecord
  2
*D36
340
0
  0
BLOCK_RECORD
  5
4C2
330
1
100
AcDbSymbolTableRecord
100
AcDbBlockTableRecord
  2
*D37
340
0
  0
BLOCK_RECORD
  5
4CD
330
1
100
AcDbSymbolTableRecord
100
AcDbBlockTableRecord
  2
*D38
340
0
  0
BLOCK_RECORD
  5
4D8
330
1
100
AcDbSymbolTableRecord
100
AcDbBlockTableRecord
  2
*D39
340
0
  0
BLOCK_RECORD
  5
4E3
330
1
100
AcDbSymbolTableRecord
100
AcDbBlockTableRecord
  2
*D40
340
0
  0
BLOCK_RECORD
  5
4EE
330
1
100
AcDbSymbolTableRecord
100
AcDbBlockTableRecord
  2
*D41
340
0
  0
ENDTAB
  0
ENDSEC
  0
SECTION
  2
BLOCKS
  0
BLOCK
  5
20
330
1F
100
AcDbEntity
  8
0
100
AcDbBlockBegin
  2
*Model_Space
 70
     0
 10
0.0
 20
0.0
 30
0.0
  3
*Model_Space
  1

  0
ENDBLK
  5
21
330
1F
100
AcDbEntity
  8
0
100
AcDbBlockEnd
  0
BLOCK
  5
1C
330
1B
100
AcDbEntity
 67
     1
  8
0
100
AcDbBlockBegin
  2
*Paper_Space
 70
     0
 10
0.0
 20
0.0
 30
0.0
  3
*Paper_Space
  1

  0
ENDBLK
  5
1D
330
1B
100
AcDbEntity
 67
     1
  8
0
100
AcDbBlockEnd
  0
BLOCK
  5
24
330
23
100
AcDbEntity
  8
0
100
AcDbBlockBegin
  2
*Paper_Space0
 70
     0
 10
0.0
 20
0.0
 30
0.0
  3
*Paper_Space0
  1

  0
ENDBLK
  5
25
330
23
100
AcDbEntity
  8
0
100
AcDbBlockEnd
  0
BLOCK
  5
48
330
47
100
AcDbEntity
  8
0
100
AcDbBlockBegin
  2
30-252A-C2__1
 70
     0
 10
834.9341280730371
 20
2861.065470378917
 30
0.0
  3
30-252A-C2__1
  1

  0
LINE
  5
AF
330
47
100
AcDbEntity
  8
1
  6
Continuous
 62
     7
100
AcDbLine
 10
407.3950601265909
 20
424.1362897557885
 30
0.0
 11
407.2873649720042
 21
424.1362897557885
 31
0.0
  0
LINE
  5
B0
330
47
100
AcDbEntity
  8
1
  6
Continuous
 62
     7
100
AcDbLine
 10
407.7873649720056
 20
424.6362897557895
 30
0.0
 11
407.2873649720042
 21
424.1362897557885
 31
0.0
  0
LINE
  5
B1
330
47
100
AcDbEntity
  8
1
  6
Continuous
 62
     7
100
AcDbLine
 10
407.2873649720042
 20
396.2262243958469
 30
0.0
 11
407.2873649720042
 21
424.1362897557885
 31
0.0
  0
LINE
  5
B2
330
47
100
AcDbEntity
  8
0
  6
Continuous
 62
     7
100
AcDbLine
 10
430.6373649720043
 20
391.6362897557895
 30
0.0
 11
409.9373649720043
 21
391.6362897557895
 31
0.0
  0
LINE
  5
B3
330
47
100
AcDbEntity
  8
1
  6
Continuous
 62
     7
100
AcDbLine
 10
415.2873649720042
 20
409.4362897557896
 30
0.0
 11
412.3950601265909
 21
409.4362897557896
 31
0.0
  0
LINE
  5
B4
330
47
100
AcDbEntity
  8
1
  6
Continuous
 62
     7
100
AcDbLine
 10
415.2873649720042
 20
409.6362897557895
 30
0.0
 11
412.3950601265909
 21
409.6362897557895
 31
0.0
  0
LINE
  5
B5
330
47
100
AcDbEntity
  8
1
  6
Continuous
 62
     7
100
AcDbLine
 10
415.2873649720042
 20
409.8362897557897
 30
0.0
 11
412.3950601265909
 21
409.8362897557897
 31
0.0
  0
LINE
  5
B6
330
47
100
AcDbEntity
  8
1
  6
Continuous
 62
     7
100
AcDbLine
 10
412.3950601265909
 20
424.1362897557885
 30
0.0
 11
412.3950601265909
 21
396.2262243958469
 31
0.0
  0
LINE
  5
B7
330
47
100
AcDbEntity
  8
1
  6
Continuous
 62
     7
100
AcDbLine
 10
415.2873649720042
 20
396.2262243958469
 30
0.0
 11
415.2873649720042
 21
424.1362897557885
 31
0.0
  0
LINE
  5
B8
330
47
100
AcDbEntity
  8
1
  6
Continuous
 62
     7
100
AcDbLine
 10
428.1796698174177
 20
409.4362897557896
 30
0.0
 11
425.2873649720042
 21
409.4362897557896
 31
0.0
  0
LINE
  5
B9
330
47
100
AcDbEntity
  8
1
  6
Continuous
 62
     7
100
AcDbLine
 10
428.1796698174177
 20
409.6362897557895
 30
0.0
 11
425.2873649720042
 21
409.6362897557895
 31
0.0
  0
LINE
  5
BA
330
47
100
AcDbEntity
  8
1
  6
Continuous
 62
     7
100
AcDbLine
 10
428.1796698174177
 20
409.8362897557897
 30
0.0
 11
425.2873649720042
 21
409.8362897557897
 31
0.0
  0
LINE
  5
BB
330
47
100
AcDbEntity
  8
1
  6
Continuous
 62
     7
100
AcDbLine
 10
425.2873649720042
 20
424.1362897557885
 30
0.0
 11
425.2873649720042
 21
396.2262243958469
 31
0.0
  0
LINE
  5
BC
330
47
100
AcDbEntity
  8
1
  6
Continuous
 62
     7
100
AcDbLine
 10
428.1796698174177
 20
396.2262243958469
 30
0.0
 11
428.1796698174177
 21
424.1362897557885
 31
0.0
  0
LINE
  5
BD
330
47
100
AcDbEntity
  8
1
  6
Continuous
 62
     7
100
AcDbLine
 10
433.1796698174177
 20
424.1362897557885
 30
0.0
 11
433.1796698174177
 21
396.2262243958469
 31
0.0
  0
LINE
  5
BE
330
47
100
AcDbEntity
  8
1
  6
Continuous
 62
     7
100
AcDbLine
 10
433.1796698174177
 20
396.2262243958469
 30
0.0
 11
433.2873649720042
 21
396.2262243958469
 31
0.0
  0
LINE
  5
BF
330
47
100
AcDbEntity
  8
1
  6
Continuous
 62
     7
100
AcDbLine
 10
425.2873649720042
 20
396.2262243958469
 30
0.0
 11
428.1796698174177
 21
396.2262243958469
 31
0.0
  0
LINE
  5
C0
330
47
100
AcDbEntity
  8
1
  6
Continuous
 62
     7
100
AcDbLine
 10
412.3950601265909
 20
396.2262243958469
 30
0.0
 11
415.2873649720042
 21
396.2262243958469
 31
0.0
  0
LINE
  5
C1
330
47
100
AcDbEntity
  8
1
  6
Continuous
 62
     7
100
AcDbLine
 10
407.2873649720042
 20
396.2262243958469
 30
0.0
 11
407.3950601265909
 21
396.2262243958469
 31
0.0
  0
LINE
  5
C2
330
47
100
AcDbEntity
  8
1
  6
Continuous
 62
     7
100
AcDbLine
 10
407.3950601265909
 20
424.1362897557885
 30
0.0
 11
407.3950601265909
 21
396.2262243958469
 31
0.0
  0
LINE
  5
C3
330
47
100
AcDbEntity
  8
1
  6
Continuous
 62
     7
100
AcDbLine
 10
433.2873649720042
 20
424.1362897557895
 30
0.0
 11
433.1796698174177
 21
424.1362897557885
 31
0.0
  0
LINE
  5
C4
330
47
100
AcDbEntity
  8
1
  6
Continuous
 62
     7
100
AcDbLine
 10
415.2873649720042
 20
424.1362897557885
 30
0.0
 11
412.3950601265909
 21
424.1362897557885
 31
0.0
  0
LINE
  5
C5
330
47
100
AcDbEntity
  8
1
  6
Continuous
 62
     7
100
AcDbLine
 10
428.1796698174177
 20
424.1362897557885
 30
0.0
 11
425.2873649720042
 21
424.1362897557885
 31
0.0
  0
LINE
  5
C6
330
47
100
AcDbEntity
  8
0
  6
PHANTOM
 62
     4
100
AcDbLine
 10
420.2873649720042
 20
427.6362897557895
 30
0.0
 11
420.2873649720042
 21
366.2186278852857
 31
0.0
  0
LINE
  5
C7
330
47
100
AcDbEntity
  8
1
  6
Continuous
 62
     7
100
AcDbLine
 10
430.6373649720043
 20
384.6362897557891
 30
0.0
 11
430.6373649720043
 21
386.6489327941843
 31
0.0
  0
LINE
  5
C8
330
47
100
AcDbEntity
  8
1
  6
Continuous
 62
     7
100
AcDbLine
 10
430.6373649720043
 20
384.6362897557891
 30
0.0
 11
409.9373649720043
 21
384.6362897557891
 31
0.0
  0
LINE
  5
C9
330
47
100
AcDbEntity
  8
1
  6
Continuous
 62
     2
100
AcDbLine
 10
429.4753649720043
 20
384.6362897557891
 30
0.0
 11
429.4753649720043
 21
376.6362897557897
 31
0.0
  0
LINE
  5
CA
330
47
100
AcDbEntity
  8
1
  6
Continuous
 62
     7
100
AcDbLine
 10
430.6373649720043
 20
386.6489327941843
 30
0.0
 11
430.6373649720043
 21
391.6362897557895
 31
0.0
  0
LINE
  5
CB
330
47
100
AcDbEntity
  8
1
  6
Continuous
 62
     2
100
AcDbLine
 10
430.6373649720043
 20
386.6489327941843
 30
0.0
 11
429.4753649720043
 21
384.6362897557891
 31
0.0
  0
LINE
  5
CC
330
47
100
AcDbEntity
  8
1
  6
Continuous
 62
     7
100
AcDbLine
 10
430.6373649720043
 20
391.6362897557895
 30
0.0
 11
433.2873649720042
 21
396.2262243958469
 31
0.0
  0
LINE
  5
CD
330
47
100
AcDbEntity
  8
1
  6
Continuous
 62
     7
100
AcDbLine
 10
409.9373649720043
 20
386.6489327941843
 30
0.0
 11
409.9373649720043
 21
384.6362897557891
 31
0.0
  0
LINE
  5
CE
330
47
100
AcDbEntity
  8
1
  6
Continuous
 62
     7
100
AcDbLine
 10
409.9373649720043
 20
391.6362897557895
 30
0.0
 11
409.9373649720043
 21
386.6489327941843
 31
0.0
  0
LINE
  5
CF
330
47
100
AcDbEntity
  8
1
  6
Continuous
 62
     2
100
AcDbLine
 10
411.0993649720043
 20
384.6362897557891
 30
0.0
 11
409.9373649720043
 21
386.6489327941843
 31
0.0
  0
LINE
  5
D0
330
47
100
AcDbEntity
  8
1
  6
Continuous
 62
     7
100
AcDbLine
 10
409.9373649720043
 20
391.6362897557895
 30
0.0
 11
407.2873649720042
 21
396.2262243958469
 31
0.0
  0
LINE
  5
D1
330
47
100
AcDbEntity
  8
1
  6
Continuous
 62
     7
100
AcDbLine
 10
433.2873649720042
 20
424.1362897557895
 30
0.0
 11
432.7873649720033
 21
424.6362897557895
 31
0.0
  0
LINE
  5
D2
330
47
100
AcDbEntity
  8
0
  6
Continuous
 62
     7
100
AcDbLine
 10
433.2873649720042
 20
424.1362897557895
 30
0.0
 11
433.2873649720033
 21
424.1362897557906
 31
0.0
  0
LINE
  5
D3
330
47
100
AcDbEntity
  8
1
  6
Continuous
 62
     7
100
AcDbLine
 10
432.7873649720033
 20
424.6362897557895
 30
0.0
 11
407.7873649720056
 21
424.6362897557895
 31
0.0
  0
LINE
  5
D4
330
47
100
AcDbEntity
  8
1
  6
Continuous
 62
     7
100
AcDbLine
 10
433.2873649720042
 20
424.1362897557895
 30
0.0
 11
433.2873649720042
 21
396.2262243958469
 31
0.0
  0
LINE
  5
D5
330
47
100
AcDbEntity
  8
1
  6
Continuous
 62
     7
100
AcDbLine
 10
409.9373649720043
 20
384.6362897557891
 30
0.0
 11
409.9373649720043
 21
376.6361652714106
 31
0.0
  0
LINE
  5
D6
330
47
100
AcDbEntity
  8
1
  6
Continuous
 62
     2
100
AcDbLine
 10
411.0993649720043
 20
376.6362897557897
 30
0.0
 11
411.0993649720043
 21
384.6362897557891
 31
0.0
  0
LINE
  5
D7
330
47
100
AcDbEntity
  8
1
  6
Continuous
 62
     7
100
AcDbLine
 10
430.6373649720043
 20
376.6362897557897
 30
0.0
 11
430.6373649720043
 21
384.6362897557891
 31
0.0
  0
LINE
  5
D8
330
47
100
AcDbEntity
  8
1
  6
PHANTOM
 62
     4
100
AcDbLine
 10
798.7873649720044
 20
427.6362897557896
 30
0.0
 11
798.7873649720044
 21
366.6362897557898
 31
0.0
  0
LINE
  5
D9
330
47
100
AcDbEntity
  8
1
  6
Continuous
 62
     2
100
AcDbLine
 10
807.9753649720045
 20
384.6362897557898
 30
0.0
 11
807.9753649720045
 21
376.6362897557898
 31
0.0
  0
LINE
  5
DA
330
47
100
AcDbEntity
  8
1
  6
Continuous
 62
     7
100
AcDbLine
 10
809.1174919909267
 20
409.43628975579
 30
0.0
 11
810.7873649720048
 21
409.43628975579
 31
0.0
  0
LINE
  5
DB
330
47
100
AcDbEntity
  8
1
  6
Continuous
 62
     7
100
AcDbLine
 10
809.1174919909267
 20
409.6362897557896
 30
0.0
 11
810.5873649720045
 21
409.6362897557896
 31
0.0
  0
LINE
  5
DC
330
47
100
AcDbEntity
  8
1
  6
Continuous
 62
     7
100
AcDbLine
 10
809.1174919909267
 20
409.8362897557898
 30
0.0
 11
810.7873649720048
 21
409.8362897557898
 31
0.0
  0
LINE
  5
DD
330
47
100
AcDbEntity
  8
1
  6
Continuous
 62
     7
100
AcDbLine
 10
797.1174919909267
 20
409.43628975579
 30
0.0
 11
800.457237953082
 21
409.43628975579
 31
0.0
  0
LINE
  5
DE
330
47
100
AcDbEntity
  8
1
  6
Continuous
 62
     7
100
AcDbLine
 10
797.1174919909267
 20
409.6362897557896
 30
0.0
 11
800.457237953082
 21
409.6362897557896
 31
0.0
  0
LINE
  5
DF
330
47
100
AcDbEntity
  8
1
  6
Continuous
 62
     7
100
AcDbLine
 10
797.1174919909267
 20
409.8362897557898
 30
0.0
 11
800.457237953082
 21
409.8362897557898
 31
0.0
  0
LINE
  5
E0
330
47
100
AcDbEntity
  8
1
  6
Continuous
 62
     7
100
AcDbLine
 10
810.7873649720044
 20
394.494173588278
 30
0.0
 11
810.7873649720048
 21
409.43628975579
 31
0.0
  0
LINE
  5
E1
330
47
100
AcDbEntity
  8
1
  6
Continuous
 62
     7
100
AcDbLine
 10
809.1373649720047
 20
386.6489327941848
 30
0.0
 11
809.1373649720047
 21
391.6362897557898
 31
0.0
  0
LINE
  5
E2
330
47
100
AcDbEntity
  8
1
  6
Continuous
 62
     7
100
AcDbLine
 10
788.4373649720044
 20
391.6362897557898
 30
0.0
 11
788.4373649720044
 21
386.6489327941848
 31
0.0
  0
LINE
  5
E3
330
47
100
AcDbEntity
  8
1
  6
Continuous
 62
     7
100
AcDbLine
 10
807.9753649720045
 20
384.6362897557898
 30
0.0
 11
788.4373649720044
 21
384.6362897557898
 31
0.0
  0
LINE
  5
E4
330
47
100
AcDbEntity
  8
1
  6
Continuous
 62
     7
100
AcDbLine
 10
788.4373649720044
 20
386.6489327941848
 30
0.0
 11
788.4373649720044
 21
384.6362897557898
 31
0.0
  0
LINE
  5
E5
330
47
100
AcDbEntity
  8
1
  6
Continuous
 62
     2
100
AcDbLine
 10
789.5993649720044
 20
384.6362897557898
 30
0.0
 11
788.4373649720044
 21
386.6489327941848
 31
0.0
  0
LINE
  5
E6
330
47
100
AcDbEntity
  8
1
  6
Continuous
 62
     7
100
AcDbLine
 10
788.4373649720044
 20
384.6362897557898
 30
0.0
 11
788.4373649720044
 21
376.6362897557896
 31
0.0
  0
LINE
  5
E7
330
47
100
AcDbEntity
  8
1
  6
Continuous
 62
     2
100
AcDbLine
 10
809.1373649720047
 20
386.6489327941848
 30
0.0
 11
807.9753649720045
 21
384.6362897557898
 31
0.0
  0
LINE
  5
E8
330
47
100
AcDbEntity
  8
1
  6
Continuous
 62
     7
100
AcDbLine
 10
809.1373649720047
 20
384.6362897557898
 30
0.0
 11
807.9753649720045
 21
384.6362897557898
 31
0.0
  0
LINE
  5
E9
330
47
100
AcDbEntity
  8
1
  6
Continuous
 62
     7
100
AcDbLine
 10
809.1373649720047
 20
384.6362897557898
 30
0.0
 11
809.1373649720047
 21
386.6489327941848
 31
0.0
  0
LINE
  5
EA
330
47
100
AcDbEntity
  8
1
  6
Continuous
 62
     7
100
AcDbLine
 10
788.4373649720044
 20
391.6362897557898
 30
0.0
 11
786.7873649720048
 21
394.494173588278
 31
0.0
  0
LINE
  5
EB
330
47
100
AcDbEntity
  8
1
  6
Continuous
 62
     7
100
AcDbLine
 10
809.1373649720047
 20
391.6362897557898
 30
0.0
 11
810.7873649720044
 21
394.494173588278
 31
0.0
  0
LINE
  5
EC
330
47
100
AcDbEntity
  8
0
  6
Continuous
 62
     7
100
AcDbLine
 10
809.1373649720047
 20
391.6362897557898
 30
0.0
 11
788.4373649720044
 21
391.6362897557898
 31
0.0
  0
LINE
  5
ED
330
47
100
AcDbEntity
  8
1
  6
Continuous
 62
     7
100
AcDbLine
 10
786.7873649720048
 20
424.6362897557896
 30
0.0
 11
786.7873649720048
 21
424.1362897557896
 31
0.0
  0
LINE
  5
EE
330
47
100
AcDbEntity
  8
1
  6
Continuous
 62
     7
100
AcDbLine
 10
788.4572379530823
 20
424.1362897557885
 30
0.0
 11
786.7873649720048
 21
424.1362897557896
 31
0.0
  0
LINE
  5
EF
330
47
100
AcDbEntity
  8
1
  6
Continuous
 62
     7
100
AcDbLine
 10
797.1174919909267
 20
396.2262243958472
 30
0.0
 11
800.457237953082
 21
396.2262243958472
 31
0.0
  0
LINE
  5
F0
330
47
100
AcDbEntity
  8
1
  6
Continuous
 62
     7
100
AcDbLine
 10
788.4572379530823
 20
396.2262243958472
 30
0.0
 11
786.7873649720048
 21
396.2262243958472
 31
0.0
  0
LINE
  5
F1
330
47
100
AcDbEntity
  8
1
  6
Continuous
 62
     7
100
AcDbLine
 10
809.1174919909267
 20
396.2262243958472
 30
0.0
 11
810.7873649720048
 21
396.2262243958472
 31
0.0
  0
LINE
  5
F2
330
47
100
AcDbEntity
  8
1
  6
Continuous
 62
     7
100
AcDbLine
 10
809.1174919909267
 20
424.1362897557885
 30
0.0
 11
810.7873649720048
 21
424.1362897557896
 31
0.0
  0
LINE
  5
F3
330
47
100
AcDbEntity
  8
1
  6
Continuous
 62
     7
100
AcDbLine
 10
797.1174919909267
 20
424.1362897557885
 30
0.0
 11
800.457237953082
 21
424.1362897557885
 31
0.0
  0
LINE
  5
F4
330
47
100
AcDbEntity
  8
1
  6
Continuous
 62
     7
100
AcDbLine
 10
786.7873649720048
 20
424.1362897557896
 30
0.0
 11
786.7873649720048
 21
409.8362897557898
 31
0.0
  0
LINE
  5
F5
330
47
100
AcDbEntity
  8
1
  6
Continuous
 62
     7
100
AcDbLine
 10
788.4572379530823
 20
424.1362897557885
 30
0.0
 11
788.4572379530823
 21
396.2262243958472
 31
0.0
  0
LINE
  5
F6
330
47
100
AcDbEntity
  8
1
  6
Continuous
 62
     7
100
AcDbLine
 10
797.1174919909267
 20
424.1362897557885
 30
0.0
 11
797.1174919909267
 21
396.2262243958472
 31
0.0
  0
LINE
  5
F7
330
47
100
AcDbEntity
  8
1
  6
Continuous
 62
     7
100
AcDbLine
 10
800.457237953082
 20
396.2262243958472
 30
0.0
 11
800.457237953082
 21
424.1362897557885
 31
0.0
  0
LINE
  5
F8
330
47
100
AcDbEntity
  8
1
  6
Continuous
 62
     7
100
AcDbLine
 10
809.1174919909267
 20
424.1362897557885
 30
0.0
 11
809.1174919909267
 21
396.2262243958472
 31
0.0
  0
LINE
  5
F9
330
47
100
AcDbEntity
  8
1
  6
Continuous
 62
     7
100
AcDbLine
 10
810.7873649720048
 20
424.6362897557896
 30
0.0
 11
810.7873649720048
 21
424.1362897557896
 31
0.0
  0
LINE
  5
FA
330
47
100
AcDbEntity
  8
1
  6
Continuous
 62
     7
100
AcDbLine
 10
786.7873649720048
 20
424.6362897557896
 30
0.0
 11
810.7873649720048
 21
424.6362897557896
 31
0.0
  0
LINE
  5
FB
330
47
100
AcDbEntity
  8
1
  6
Continuous
 62
     7
100
AcDbLine
 10
786.7873649720048
 20
409.8362897557898
 30
0.0
 11
788.4572379530823
 21
409.8362897557898
 31
0.0
  0
LINE
  5
FC
330
47
100
AcDbEntity
  8
1
  6
Continuous
 62
     7
100
AcDbLine
 10
810.7873649720048
 20
409.8362897557898
 30
0.0
 11
810.7873649720048
 21
424.1362897557896
 31
0.0
  0
LINE
  5
FD
330
47
100
AcDbEntity
  8
1
  6
Continuous
 62
     7
100
AcDbLine
 10
786.7873649720048
 20
409.43628975579
 30
0.0
 11
788.4572379530823
 21
409.43628975579
 31
0.0
  0
LINE
  5
FE
330
47
100
AcDbEntity
  8
1
  6
Continuous
 62
     7
100
AcDbLine
 10
786.7873649720048
 20
409.8362897557898
 30
0.0
 11
786.9873649720046
 21
409.6362897557896
 31
0.0
  0
LINE
  5
FF
330
47
100
AcDbEntity
  8
1
  6
Continuous
 62
     7
100
AcDbLine
 10
786.9873649720046
 20
409.6362897557896
 30
0.0
 11
786.7873649720048
 21
409.43628975579
 31
0.0
  0
LINE
  5
100
330
47
100
AcDbEntity
  8
1
  6
Continuous
 62
     7
100
AcDbLine
 10
810.7873649720048
 20
409.8362897557898
 30
0.0
 11
810.5873649720045
 21
409.6362897557896
 31
0.0
  0
LINE
  5
101
330
47
100
AcDbEntity
  8
1
  6
Continuous
 62
     7
100
AcDbLine
 10
810.5873649720045
 20
409.6362897557896
 30
0.0
 11
810.7873649720048
 21
409.43628975579
 31
0.0
  0
LINE
  5
102
330
47
100
AcDbEntity
  8
1
  6
Continuous
 62
     7
100
AcDbLine
 10
786.9873649720046
 20
409.6362897557896
 30
0.0
 11
788.4572379530823
 21
409.6362897557896
 31
0.0
  0
LINE
  5
103
330
47
100
AcDbEntity
  8
1
  6
Continuous
 62
     7
100
AcDbLine
 10
786.7873649720048
 20
409.43628975579
 30
0.0
 11
786.7873649720048
 21
394.494173588278
 31
0.0
  0
LINE
  5
104
330
47
100
AcDbEntity
  8
1
  6
Continuous
 62
     2
100
AcDbLine
 10
789.5993649720044
 20
376.6362897557896
 30
0.0
 11
789.5993649720044
 21
384.6362897557898
 31
0.0
  0
LINE
  5
105
330
47
100
AcDbEntity
  8
1
  6
Continuous
 62
     7
100
AcDbLine
 10
809.1373649720044
 20
376.6362897557898
 30
0.0
 11
809.1373649720047
 21
384.6362897557898
 31
0.0
  0
ARC
  5
106
330
47
100
AcDbEntity
  8
1
  6
Continuous
 62
     7
100
AcDbCircle
 10
409.8950601265909
 20
397.1644185832799
 30
0.0
 40
2.670244995001969
100
AcDbArc
 50
200.5699920921007
 51
339.4300079078993
  0
ARC
  5
107
330
47
100
AcDbEntity
  8
1
  6
Continuous
 62
     7
100
AcDbCircle
 10
420.2873649720042
 20
402.5770773569327
 30
0.0
 40
8.082903768654711
100
AcDbArc
 50
231.7867892982615
 51
308.2132107017385
  0
ARC
  5
108
330
47
100
AcDbEntity
  8
1
  6
Continuous
 62
     7
100
AcDbCircle
 10
430.6796698174179
 20
397.1644185832799
 30
0.0
 40
2.670244995002181
100
AcDbArc
 50
200.569992092099
 51
339.4300079078976
  0
ARC
  5
109
330
47
100
AcDbEntity
  8
1
  6
Continuous
 62
     7
100
AcDbCircle
 10
430.6796698174177
 20
418.1362897558022
 30
0.0
 40
6.499999999987354
100
AcDbArc
 50
67.38013505191313
 51
112.6198649480869
  0
ARC
  5
10A
330
47
100
AcDbEntity
  8
1
  6
Continuous
 62
     7
100
AcDbCircle
 10
409.895060126591
 20
418.1362897558022
 30
0.0
 40
6.499999999987333
100
AcDbArc
 50
67.3801350519136
 51
112.6198649480873
  0
ARC
  5
10B
330
47
100
AcDbEntity
  8
1
  6
Continuous
 62
     7
100
AcDbCircle
 10
420.2873649720044
 20
399.3862897558439
 30
0.0
 40
25.24999999994563
100
AcDbArc
 50
78.57881372497633
 51
101.4211862750247
  0
ARC
  5
10C
330
47
100
AcDbEntity
  8
1
  6
Continuous
 62
     7
100
AcDbCircle
 10
792.7873649720045
 20
400.7728577657189
 30
0.0
 40
6.278684177439652
100
AcDbArc
 50
226.3971810273176
 51
313.6028189726824
  0
ARC
  5
10D
330
47
100
AcDbEntity
  8
1
  6
Continuous
 62
     7
100
AcDbCircle
 10
804.7873649720042
 20
400.7728577657189
 30
0.0
 40
6.278684177439652
100
AcDbArc
 50
226.3971810273176
 51
313.6028189726846
  0
ARC
  5
10E
330
47
100
AcDbEntity
  8
1
  6
Continuous
 62
     7
100
AcDbCircle
 10
792.7873649720045
 20
405.6362897558262
 30
0.0
 40
18.99999999996325
100
AcDbArc
 50
76.82644889271508
 51
103.1735511072849
  0
ARC
  5
10F
330
47
100
AcDbEntity
  8
1
  6
Continuous
 62
     7
100
AcDbCircle
 10
804.7873649720042
 20
405.6362897558262
 30
0.0
 40
18.99999999996333
100
AcDbArc
 50
76.82644889271408
 51
103.1735511072849
  0
ENDBLK
  5
49
330
47
100
AcDbEntity
  8
0
100
AcDbBlockEnd
  0
BLOCK
  5
4C
330
4A
100
AcDbEntity
  8
0
100
AcDbBlockBegin
  2
V872FE__2
 70
     0
 10
993.5000000000001
 20
4521.832338129498
 30
0.0
  3
V872FE__2
  1

  0
INSERT
  5
4B
330
4A
100
AcDbEntity
  8
1
100
AcDbBlockReference
  2
30-252A-C2__1
 10
834.934128073037
 20
2861.065470378916
 30
0.0
 41
1.0
 42
1.0
 43
1.0
  0
LINE
  5
110
330
4A
100
AcDbEntity
  8
1
  6
PHANTOM
 62
     4
100
AcDbLine
 10
420.2873649720042
 20
432.1362897557895
 30
0.0
 11
420.2873649720042
 21
359.1362897557895
 31
0.0
  0
LINE
  5
111
330
4A
100
AcDbEntity
  8
1
  6
PHANTOM
 62
     4
100
AcDbLine
 10
798.7873649720042
 20
432.1362897557895
 30
0.0
 11
798.7873649720042
 21
359.1362897557895
 31
0.0
  0
ENDBLK
  5
4D
330
4A
100
AcDbEntity
  8
0
100
AcDbBlockEnd
  0
BLOCK
  5
4F
330
4E
100
AcDbEntity
  8
0
100
AcDbBlockBegin
  2
30-252A-C2__3
 70
     0
 10
57.78736497200327
 20
539.6743585336727
 30
0.0
  3
30-252A-C2__3
  1

  0
LINE
  5
112
330
4E
100
AcDbEntity
  8
1
  6
Continuous
 62
     7
100
AcDbLine
 10
206.9373649720034
 20
384.6362897557895
 30
0.0
 11
206.9373649720034
 21
376.6362897557897
 31
0.0
  0
LINE
  5
113
330
4E
100
AcDbEntity
  8
1
  6
Continuous
 62
     7
100
AcDbLine
 10
230.2873649720033
 20
424.1362897557883
 30
0.0
 11
230.2873649720033
 21
396.2262243958471
 31
0.0
  0
LINE
  5
114
330
4E
100
AcDbEntity
  8
1
  6
Continuous
 62
     7
100
AcDbLine
 10
229.7873649720024
 20
424.6362897557895
 30
0.0
 11
204.7873649720044
 21
424.6362897557895
 31
0.0
  0
LINE
  5
115
330
4E
100
AcDbEntity
  8
0
  6
Continuous
 62
     7
100
AcDbLine
 10
230.2873649720024
 20
424.1362897557904
 30
0.0
 11
230.2873649720024
 21
424.1362897557904
 31
0.0
  0
LINE
  5
116
330
4E
100
AcDbEntity
  8
1
  6
Continuous
 62
     7
100
AcDbLine
 10
230.2873649720033
 20
424.1362897557883
 30
0.0
 11
229.7873649720024
 21
424.6362897557895
 31
0.0
  0
LINE
  5
117
330
4E
100
AcDbEntity
  8
1
  6
Continuous
 62
     7
100
AcDbLine
 10
206.9373649720034
 20
391.6362897557895
 30
0.0
 11
204.2873649720033
 21
396.2262243958471
 31
0.0
  0
LINE
  5
118
330
4E
100
AcDbEntity
  8
1
  6
Continuous
 62
     2
100
AcDbLine
 10
208.0993649720034
 20
384.6362897557895
 30
0.0
 11
206.9373649720034
 21
386.6489327941843
 31
0.0
  0
LINE
  5
119
330
4E
100
AcDbEntity
  8
1
  6
Continuous
 62
     7
100
AcDbLine
 10
206.9373649720034
 20
391.6362897557895
 30
0.0
 11
206.9373649720034
 21
386.6489327941843
 31
0.0
  0
LINE
  5
11A
330
4E
100
AcDbEntity
  8
1
  6
Continuous
 62
     7
100
AcDbLine
 10
206.9373649720034
 20
386.6489327941843
 30
0.0
 11
206.9373649720034
 21
384.6362897557895
 31
0.0
  0
LINE
  5
11B
330
4E
100
AcDbEntity
  8
1
  6
Continuous
 62
     7
100
AcDbLine
 10
227.6373649720034
 20
391.6362897557895
 30
0.0
 11
230.2873649720033
 21
396.2262243958471
 31
0.0
  0
LINE
  5
11C
330
4E
100
AcDbEntity
  8
1
  6
Continuous
 62
     2
100
AcDbLine
 10
227.6373649720034
 20
386.6489327941843
 30
0.0
 11
226.4753649720034
 21
384.6362897557895
 31
0.0
  0
LINE
  5
11D
330
4E
100
AcDbEntity
  8
1
  6
Continuous
 62
     7
100
AcDbLine
 10
227.6373649720034
 20
386.6489327941843
 30
0.0
 11
227.6373649720034
 21
391.6362897557895
 31
0.0
  0
LINE
  5
11E
330
4E
100
AcDbEntity
  8
1
  6
Continuous
 62
     2
100
AcDbLine
 10
226.4753649720034
 20
384.6362897557895
 30
0.0
 11
226.4753649720034
 21
376.6362897557897
 31
0.0
  0
LINE
  5
11F
330
4E
100
AcDbEntity
  8
1
  6
Continuous
 62
     7
100
AcDbLine
 10
227.6373649720034
 20
384.6362897557895
 30
0.0
 11
206.9373649720034
 21
384.6362897557895
 31
0.0
  0
LINE
  5
120
330
4E
100
AcDbEntity
  8
1
  6
Continuous
 62
     7
100
AcDbLine
 10
227.6373649720034
 20
384.6362897557895
 30
0.0
 11
227.6373649720034
 21
386.6489327941843
 31
0.0
  0
LINE
  5
121
330
4E
100
AcDbEntity
  8
0
  6
PHANTOM
 62
     4
100
AcDbLine
 10
217.2873649720033
 20
427.6362897557895
 30
0.0
 11
217.2873649720033
 21
366.2186278852859
 31
0.0
  0
LINE
  5
122
330
4E
100
AcDbEntity
  8
1
  6
Continuous
 62
     7
100
AcDbLine
 10
225.1796698174168
 20
424.1362897557883
 30
0.0
 11
222.2873649720033
 21
424.1362897557883
 31
0.0
  0
LINE
  5
123
330
4E
100
AcDbEntity
  8
1
  6
Continuous
 62
     7
100
AcDbLine
 10
212.2873649720033
 20
424.1362897557883
 30
0.0
 11
209.39506012659
 21
424.1362897557883
 31
0.0
  0
LINE
  5
124
330
4E
100
AcDbEntity
  8
1
  6
Continuous
 62
     7
100
AcDbLine
 10
230.2873649720033
 20
424.1362897557883
 30
0.0
 11
230.1796698174168
 21
424.1362897557883
 31
0.0
  0
LINE
  5
125
330
4E
100
AcDbEntity
  8
1
  6
Continuous
 62
     7
100
AcDbLine
 10
204.39506012659
 20
424.1362897557883
 30
0.0
 11
204.39506012659
 21
396.2262243958471
 31
0.0
  0
LINE
  5
126
330
4E
100
AcDbEntity
  8
1
  6
Continuous
 62
     7
100
AcDbLine
 10
204.2873649720033
 20
396.2262243958471
 30
0.0
 11
204.39506012659
 21
396.2262243958471
 31
0.0
  0
LINE
  5
127
330
4E
100
AcDbEntity
  8
1
  6
Continuous
 62
     7
100
AcDbLine
 10
209.39506012659
 20
396.2262243958471
 30
0.0
 11
212.2873649720033
 21
396.2262243958471
 31
0.0
  0
LINE
  5
128
330
4E
100
AcDbEntity
  8
1
  6
Continuous
 62
     7
100
AcDbLine
 10
222.2873649720033
 20
396.2262243958471
 30
0.0
 11
225.1796698174168
 21
396.2262243958471
 31
0.0
  0
LINE
  5
129
330
4E
100
AcDbEntity
  8
1
  6
Continuous
 62
     7
100
AcDbLine
 10
230.1796698174168
 20
396.2262243958471
 30
0.0
 11
230.2873649720033
 21
396.2262243958471
 31
0.0
  0
LINE
  5
12A
330
4E
100
AcDbEntity
  8
1
  6
Continuous
 62
     7
100
AcDbLine
 10
230.1796698174168
 20
424.1362897557883
 30
0.0
 11
230.1796698174168
 21
396.2262243958471
 31
0.0
  0
LINE
  5
12B
330
4E
100
AcDbEntity
  8
1
  6
Continuous
 62
     7
100
AcDbLine
 10
225.1796698174168
 20
396.2262243958471
 30
0.0
 11
225.1796698174168
 21
424.1362897557883
 31
0.0
  0
LINE
  5
12C
330
4E
100
AcDbEntity
  8
1
  6
Continuous
 62
     7
100
AcDbLine
 10
222.2873649720033
 20
424.1362897557883
 30
0.0
 11
222.2873649720033
 21
396.2262243958471
 31
0.0
  0
LINE
  5
12D
330
4E
100
AcDbEntity
  8
1
  6
Continuous
 62
     7
100
AcDbLine
 10
225.1796698174168
 20
409.8362897557896
 30
0.0
 11
222.2873649720033
 21
409.8362897557896
 31
0.0
  0
LINE
  5
12E
330
4E
100
AcDbEntity
  8
1
  6
Continuous
 62
     7
100
AcDbLine
 10
225.1796698174168
 20
409.6362897557895
 30
0.0
 11
222.2873649720033
 21
409.6362897557895
 31
0.0
  0
LINE
  5
12F
330
4E
100
AcDbEntity
  8
1
  6
Continuous
 62
     7
100
AcDbLine
 10
225.1796698174168
 20
409.4362897557895
 30
0.0
 11
222.2873649720033
 21
409.4362897557895
 31
0.0
  0
LINE
  5
130
330
4E
100
AcDbEntity
  8
1
  6
Continuous
 62
     7
100
AcDbLine
 10
212.2873649720033
 20
396.2262243958471
 30
0.0
 11
212.2873649720033
 21
424.1362897557883
 31
0.0
  0
LINE
  5
131
330
4E
100
AcDbEntity
  8
1
  6
Continuous
 62
     7
100
AcDbLine
 10
209.39506012659
 20
424.1362897557883
 30
0.0
 11
209.39506012659
 21
396.2262243958471
 31
0.0
  0
LINE
  5
132
330
4E
100
AcDbEntity
  8
1
  6
Continuous
 62
     7
100
AcDbLine
 10
212.2873649720033
 20
409.8362897557896
 30
0.0
 11
209.39506012659
 21
409.8362897557896
 31
0.0
  0
LINE
  5
133
330
4E
100
AcDbEntity
  8
1
  6
Continuous
 62
     7
100
AcDbLine
 10
212.2873649720033
 20
409.6362897557895
 30
0.0
 11
209.39506012659
 21
409.6362897557895
 31
0.0
  0
LINE
  5
134
330
4E
100
AcDbEntity
  8
1
  6
Continuous
 62
     7
100
AcDbLine
 10
212.2873649720033
 20
409.4362897557895
 30
0.0
 11
209.39506012659
 21
409.4362897557895
 31
0.0
  0
LINE
  5
135
330
4E
100
AcDbEntity
  8
0
  6
Continuous
 62
     7
100
AcDbLine
 10
227.6373649720034
 20
391.6362897557895
 30
0.0
 11
206.9373649720034
 21
391.6362897557895
 31
0.0
  0
LINE
  5
136
330
4E
100
AcDbEntity
  8
1
  6
Continuous
 62
     7
100
AcDbLine
 10
204.2873649720033
 20
396.2262243958471
 30
0.0
 11
204.2873649720033
 21
424.1362897557883
 31
0.0
  0
LINE
  5
137
330
4E
100
AcDbEntity
  8
1
  6
Continuous
 62
     7
100
AcDbLine
 10
204.7873649720044
 20
424.6362897557895
 30
0.0
 11
204.2873649720033
 21
424.1362897557883
 31
0.0
  0
LINE
  5
138
330
4E
100
AcDbEntity
  8
1
  6
Continuous
 62
     7
100
AcDbLine
 10
204.39506012659
 20
424.1362897557883
 30
0.0
 11
204.2873649720033
 21
424.1362897557883
 31
0.0
  0
LINE
  5
139
330
4E
100
AcDbEntity
  8
1
  6
Continuous
 62
     2
100
AcDbLine
 10
208.0993649720034
 20
376.6362897557897
 30
0.0
 11
208.0993649720034
 21
384.6362897557895
 31
0.0
  0
LINE
  5
13A
330
4E
100
AcDbEntity
  8
1
  6
Continuous
 62
     7
100
AcDbLine
 10
227.6373649720034
 20
376.6362897557897
 30
0.0
 11
227.6373649720034
 21
384.6362897557895
 31
0.0
  0
ARC
  5
13B
330
4E
100
AcDbEntity
  8
1
  6
Continuous
 62
     7
100
AcDbCircle
 10
217.2873649720035
 20
399.3862897558439
 30
0.0
 40
25.24999999994547
100
AcDbArc
 50
78.57881372497619
 51
101.4211862750247
  0
ARC
  5
13C
330
4E
100
AcDbEntity
  8
1
  6
Continuous
 62
     7
100
AcDbCircle
 10
206.89506012659
 20
418.1362897558024
 30
0.0
 40
6.499999999986987
100
AcDbArc
 50
67.3801350519118
 51
112.6198649480882
  0
ARC
  5
13D
330
4E
100
AcDbEntity
  8
1
  6
Continuous
 62
     7
100
AcDbCircle
 10
227.6796698174168
 20
418.1362897558024
 30
0.0
 40
6.499999999986987
100
AcDbArc
 50
67.3801350519118
 51
112.6198649480882
  0
ARC
  5
13E
330
4E
100
AcDbEntity
  8
1
  6
Continuous
 62
     7
100
AcDbCircle
 10
227.6796698174168
 20
397.1644185832801
 30
0.0
 40
2.670244995001969
100
AcDbArc
 50
200.5699920921007
 51
339.4300079078993
  0
ARC
  5
13F
330
4E
100
AcDbEntity
  8
1
  6
Continuous
 62
     7
100
AcDbCircle
 10
217.2873649720033
 20
402.5770773569329
 30
0.0
 40
8.082903768654667
100
AcDbArc
 50
231.7867892982613
 51
308.2132107017387
  0
ARC
  5
140
330
4E
100
AcDbEntity
  8
1
  6
Continuous
 62
     7
100
AcDbCircle
 10
206.89506012659
 20
397.1644185832801
 30
0.0
 40
2.670244995001969
100
AcDbArc
 50
200.5699920921007
 51
339.4300079078993
  0
ENDBLK
  5
50
330
4E
100
AcDbEntity
  8
0
100
AcDbBlockEnd
  0
BLOCK
  5
53
330
51
100
AcDbEntity
  8
0
100
AcDbBlockBegin
  2
V872FE__4
 70
     0
 10
204.2873649720033
 20
352.2186278852863
 30
0.0
  3
V872FE__4
  1

  0
INSERT
  5
52
330
51
100
AcDbEntity
  8
1
100
AcDbBlockReference
  2
30-252A-C2__3
 10
57.78736497200326
 20
539.6743585336726
 30
0.0
 41
1.0
 42
1.0
 43
1.0
  0
LINE
  5
141
330
51
100
AcDbEntity
  8
1
  6
PHANTOM
 62
     4
100
AcDbLine
 10
217.2873649720034
 20
361.6362897557894
 30
0.0
 11
217.2873649720034
 21
422.6362897557894
 31
0.0
  0
ENDBLK
  5
54
330
51
100
AcDbEntity
  8
0
100
AcDbBlockEnd
  0
BLOCK
  5
56
330
55
100
AcDbEntity
  8
0
100
AcDbBlockBegin
  2
開示A4
 70
     0
 10
0.0
 20
0.0
 30
0.0
  3
開示A4
  1

  0
POINT
  5
142
330
55
100
AcDbEntity
  8
1
 62
     4
100
AcDbPoint
 10
34.0
 20
34.00000000000001
 30
0.0
  0
POINT
  5
143
330
55
100
AcDbEntity
  8
1
 62
     4
100
AcDbPoint
 10
57.0
 20
12.25
 30
0.0
  0
POINT
  5
144
330
55
100
AcDbEntity
  8
1
 62
     4
100
AcDbPoint
 10
57.0
 20
20.75000000000001
 30
0.0
  0
POINT
  5
145
330
55
100
AcDbEntity
  8
1
 62
     4
100
AcDbPoint
 10
57.0
 20
24.75000000000001
 30
0.0
  0
POINT
  5
146
330
55
100
AcDbEntity
  8
1
 62
     4
100
AcDbPoint
 10
57.0
 20
16.25
 30
0.0
  0
POINT
  5
147
330
55
100
AcDbEntity
  8
1
 62
     4
100
AcDbPoint
 10
157.5
 20
19.00000000000001
 30
0.0
  0
POINT
  5
148
330
55
100
AcDbEntity
  8
1
 62
     4
100
AcDbPoint
 10
47.5
 20
282.0000000000003
 30
0.0
  0
POINT
  5
149
330
55
100
AcDbEntity
  8
1
 62
     4
100
AcDbPoint
 10
57.0
 20
22.75000000000001
 30
0.0
  0
POINT
  5
14A
330
55
100
AcDbEntity
  8
1
 62
     4
100
AcDbPoint
 10
57.0
 20
14.25
 30
0.0
  0
POINT
  5
14B
330
55
100
AcDbEntity
  8
1
 62
     4
100
AcDbPoint
 10
157.5
 20
12.5
 30
0.0
  0
POINT
  5
14C
330
55
100
AcDbEntity
  8
1
 62
     4
100
AcDbPoint
 10
163.25
 20
12.5
 30
0.0
  0
POINT
  5
14D
330
55
100
AcDbEntity
  8
1
 62
     4
100
AcDbPoint
 10
151.75
 20
12.5
 30
0.0
  0
POINT
  5
14E
330
55
100
AcDbEntity
  8
1
 62
     4
100
AcDbPoint
 10
134.75
 20
12.5
 30
0.0
  0
POINT
  5
14F
330
55
100
AcDbEntity
  8
1
 62
     4
100
AcDbPoint
 10
146.25
 20
12.5
 30
0.0
  0
POINT
  5
150
330
55
100
AcDbEntity
  8
1
 62
     4
100
AcDbPoint
 10
140.5
 20
12.5
 30
0.0
  0
POINT
  5
151
330
55
100
AcDbEntity
  8
1
 62
     4
100
AcDbPoint
 10
140.5
 20
19.00000000000001
 30
0.0
  0
POINT
  5
152
330
55
100
AcDbEntity
  8
1
 62
     4
100
AcDbPoint
 10
117.75
 20
12.5
 30
0.0
  0
POINT
  5
153
330
55
100
AcDbEntity
  8
1
 62
     4
100
AcDbPoint
 10
129.25
 20
12.5
 30
0.0
  0
POINT
  5
154
330
55
100
AcDbEntity
  8
1
 62
     4
100
AcDbPoint
 10
123.5
 20
12.5
 30
0.0
  0
POINT
  5
155
330
55
100
AcDbEntity
  8
1
 62
     4
100
AcDbPoint
 10
123.5
 20
19.00000000000001
 30
0.0
  0
POINT
  5
156
330
55
100
AcDbEntity
  8
1
 62
     4
100
AcDbPoint
 10
100.75
 20
12.5
 30
0.0
  0
POINT
  5
157
330
55
100
AcDbEntity
  8
1
 62
     4
100
AcDbPoint
 10
112.25
 20
12.5
 30
0.0
  0
POINT
  5
158
330
55
100
AcDbEntity
  8
1
 62
     4
100
AcDbPoint
 10
106.5
 20
12.5
 30
0.0
  0
POINT
  5
159
330
55
100
AcDbEntity
  8
1
 62
     4
100
AcDbPoint
 10
106.5
 20
19.00000000000001
 30
0.0
  0
POINT
  5
15A
330
55
100
AcDbEntity
  8
1
 62
     4
100
AcDbPoint
 10
85.25
 20
17.0
 30
0.0
  0
POINT
  5
15B
330
55
100
AcDbEntity
  8
1
 62
     4
100
AcDbPoint
 10
93.75
 20
17.0
 30
0.0
  0
LINE
  5
15C
330
55
100
AcDbEntity
  8
1
  6
Continuous
 62
     2
100
AcDbLine
 10
33.0
 20
41.00000000000001
 30
0.0
 11
33.0
 21
27.0
 31
0.0
  0
LINE
  5
15D
330
55
100
AcDbEntity
  8
1
  6
Continuous
 62
     2
100
AcDbLine
 10
81.0
 20
27.00000000000001
 30
0.0
 11
81.0
 21
10.0
 31
0.0
  0
LINE
  5
15E
330
55
100
AcDbEntity
  8
1
  6
DOT_CENTER
 62
     2
100
AcDbLine
 10
187.0
 20
26.50000000000001
 30
0.0
 11
187.0
 21
20.50000000000001
 31
0.0
  0
LINE
  5
15F
330
55
100
AcDbEntity
  8
1
  6
DOT_CENTER
 62
     2
100
AcDbLine
 10
184.0
 20
23.50000000000001
 30
0.0
 11
197.0
 21
23.50000000000001
 31
0.0
  0
LINE
  5
160
330
55
100
AcDbEntity
  8
1
  6
Continuous
 62
     7
100
AcDbLine
 10
196.0
 20
21.50000000000001
 30
0.0
 11
191.0
 21
22.30000000000001
 31
0.0
  0
LINE
  5
161
330
55
100
AcDbEntity
  8
1
  6
Continuous
 62
     7
100
AcDbLine
 10
196.0
 20
25.50000000000001
 30
0.0
 11
196.0
 21
21.50000000000001
 31
0.0
  0
LINE
  5
162
330
55
100
AcDbEntity
  8
1
  6
Continuous
 62
     7
100
AcDbLine
 10
191.0
 20
24.70000000000001
 30
0.0
 11
196.0
 21
25.50000000000001
 31
0.0
  0
LINE
  5
163
330
55
100
AcDbEntity
  8
1
  6
Continuous
 62
     7
100
AcDbLine
 10
191.0
 20
24.70000000000001
 30
0.0
 11
191.0
 21
22.30000000000001
 31
0.0
  0
LINE
  5
164
330
55
100
AcDbEntity
  8
1
  6
Continuous
 62
     2
100
AcDbLine
 10
33.0
 20
27.0
 30
0.0
 11
33.0
 21
10.0
 31
0.0
  0
LINE
  5
165
330
55
100
AcDbEntity
  8
1
  6
Continuous
 62
     2
100
AcDbLine
 10
25.0
 20
18.50000000000001
 30
0.0
 11
81.0
 21
18.50000000000001
 31
0.0
  0
LINE
  5
166
330
55
100
AcDbEntity
  8
1
  6
Continuous
 62
     7
100
AcDbLine
 10
200.0
 20
287.0000000000003
 30
0.0
 11
105.0
 21
287.0000000000003
 31
0.0
  0
LINE
  5
167
330
55
100
AcDbEntity
  8
1
  6
Continuous
 62
     7
100
AcDbLine
 10
200.0
 20
10.0
 30
0.0
 11
200.0
 21
148.5
 31
0.0
  0
LINE
  5
168
330
55
100
AcDbEntity
  8
1
  6
Continuous
 62
     7
100
AcDbLine
 10
25.0
 20
10.0
 30
0.0
 11
105.0
 21
10.0
 31
0.0
  0
LINE
  5
169
330
55
100
AcDbEntity
  8
1
  6
PHANTOM
 62
     4
100
AcDbLine
 10
0.0
 20
297.0
 30
0.0
 11
0.0
 21
0.0
 31
0.0
  0
LINE
  5
16A
330
55
100
AcDbEntity
  8
1
  6
PHANTOM
 62
     4
100
AcDbLine
 10
210.0
 20
297.0
 30
0.0
 11
0.0
 21
297.0
 31
0.0
  0
LINE
  5
16B
330
55
100
AcDbEntity
  8
1
  6
PHANTOM
 62
     4
100
AcDbLine
 10
210.0
 20
0.0
 30
0.0
 11
210.0
 21
297.0
 31
0.0
  0
LINE
  5
16C
330
55
100
AcDbEntity
  8
1
  6
PHANTOM
 62
     4
100
AcDbLine
 10
0.0
 20
0.0
 30
0.0
 11
210.0
 21
0.0
 31
0.0
  0
LINE
  5
16D
330
55
100
AcDbEntity
  8
1
  6
Continuous
 62
     7
100
AcDbLine
 10
25.0
 20
41.0
 30
0.0
 11
200.0
 21
41.0
 31
0.0
  0
LINE
  5
16E
330
55
100
AcDbEntity
  8
1
  6
Continuous
 62
     7
100
AcDbLine
 10
200.0
 20
27.00000000000001
 30
0.0
 11
25.0
 21
27.00000000000001
 31
0.0
  0
LINE
  5
16F
330
55
100
AcDbEntity
  8
1
  6
Continuous
 62
     2
100
AcDbLine
 10
55.0
 20
287.0000000000003
 30
0.0
 11
55.0
 21
277.0000000000003
 31
0.0
  0
LINE
  5
170
330
55
100
AcDbEntity
  8
1
  6
Continuous
 62
     2
100
AcDbLine
 10
40.0
 20
287.0000000000003
 30
0.0
 11
40.0
 21
277.0000000000003
 31
0.0
  0
LINE
  5
171
330
55
100
AcDbEntity
  8
1
  6
Continuous
 62
     7
100
AcDbLine
 10
25.0
 20
10.0
 30
0.0
 11
25.0
 21
148.5
 31
0.0
  0
LINE
  5
172
330
55
100
AcDbEntity
  8
1
  6
Continuous
 62
     2
100
AcDbLine
 10
55.0
 20
277.0000000000003
 30
0.0
 11
25.0
 21
277.0000000000003
 31
0.0
  0
LINE
  5
173
330
55
100
AcDbEntity
  8
1
  6
Continuous
 62
     2
100
AcDbLine
 10
166.0
 20
27.00000000000001
 30
0.0
 11
166.0
 21
10.0
 31
0.0
  0
LINE
  5
174
330
55
100
AcDbEntity
  8
1
  6
Continuous
 62
     2
100
AcDbLine
 10
132.0
 20
27.00000000000001
 30
0.0
 11
132.0
 21
9.99999999999999
 31
0.0
  0
LINE
  5
175
330
55
100
AcDbEntity
  8
1
  6
Continuous
 62
     2
100
AcDbLine
 10
149.0
 20
27.00000000000001
 30
0.0
 11
149.0
 21
10.0
 31
0.0
  0
LINE
  5
176
330
55
100
AcDbEntity
  8
1
  6
Continuous
 62
     2
100
AcDbLine
 10
115.0
 20
27.00000000000001
 30
0.0
 11
115.0
 21
9.99999999999999
 31
0.0
  0
LINE
  5
177
330
55
100
AcDbEntity
  8
1
  6
Continuous
 62
     2
100
AcDbLine
 10
98.0
 20
27.00000000000001
 30
0.0
 11
98.0
 21
9.99999999999999
 31
0.0
  0
LINE
  5
178
330
55
100
AcDbEntity
  8
1
  6
Continuous
 62
     2
100
AcDbLine
 10
166.0
 20
20.00000000000001
 30
0.0
 11
200.0
 21
20.00000000000001
 31
0.0
  0
LINE
  5
179
330
55
100
AcDbEntity
  8
1
  6
Continuous
 62
     2
100
AcDbLine
 10
105.0
 20
287.0000000000003
 30
0.0
 11
105.0
 21
292.0000000000003
 31
0.0
  0
LINE
  5
17A
330
55
100
AcDbEntity
  8
1
  6
Continuous
 62
     7
100
AcDbLine
 10
105.0
 20
287.0000000000003
 30
0.0
 11
25.0
 21
287.0000000000003
 31
0.0
  0
LINE
  5
17B
330
55
100
AcDbEntity
  8
1
  6
Continuous
 62
     2
100
AcDbLine
 10
25.0
 20
148.5
 30
0.0
 11
20.0
 21
148.5
 31
0.0
  0
LINE
  5
17C
330
55
100
AcDbEntity
  8
1
  6
Continuous
 62
     7
100
AcDbLine
 10
25.0
 20
148.5
 30
0.0
 11
25.0
 21
287.0000000000003
 31
0.0
  0
LINE
  5
17D
330
55
100
AcDbEntity
  8
1
  6
Continuous
 62
     2
100
AcDbLine
 10
200.0
 20
148.5
 30
0.0
 11
205.0
 21
148.5
 31
0.0
  0
LINE
  5
17E
330
55
100
AcDbEntity
  8
1
  6
Continuous
 62
     7
100
AcDbLine
 10
200.0
 20
148.5
 30
0.0
 11
200.0
 21
287.0000000000003
 31
0.0
  0
LINE
  5
17F
330
55
100
AcDbEntity
  8
1
  6
Continuous
 62
     2
100
AcDbLine
 10
105.0
 20
10.0
 30
0.0
 11
105.0
 21
5.0
 31
0.0
  0
LINE
  5
180
330
55
100
AcDbEntity
  8
1
  6
Continuous
 62
     7
100
AcDbLine
 10
105.0
 20
10.0
 30
0.0
 11
200.0
 21
10.0
 31
0.0
  0
CIRCLE
  5
181
330
55
100
AcDbEntity
  8
1
  6
DOT_CENTER
 62
     7
100
AcDbCircle
 10
89.5
 20
18.0
 30
0.0
 40
0.1000000000000227
  0
CIRCLE
  5
182
330
55
100
AcDbEntity
  8
1
  6
DOT_CENTER
 62
     7
100
AcDbCircle
 10
89.5
 20
16.0
 30
0.0
 40
0.1000000000000227
  0
CIRCLE
  5
183
330
55
100
AcDbEntity
  8
1
  6
Continuous
 62
     7
100
AcDbCircle
 10
187.0
 20
23.50000000000001
 30
0.0
 40
2.0
  0
CIRCLE
  5
184
330
55
100
AcDbEntity
  8
1
  6
Continuous
 62
     7
100
AcDbCircle
 10
187.0
 20
23.50000000000001
 30
0.0
 40
1.200000000000102
  0
CIRCLE
  5
185
330
55
100
AcDbEntity
  8
1
  6
Continuous
 62
     7
100
AcDbCircle
 10
154.5
 20
12.5
 30
0.0
 40
0.3000000000000114
  0
CIRCLE
  5
186
330
55
100
AcDbEntity
  8
1
  6
Continuous
 62
     7
100
AcDbCircle
 10
160.5
 20
12.5
 30
0.0
 40
0.3000000000000114
  0
CIRCLE
  5
187
330
55
100
AcDbEntity
  8
1
  6
Continuous
 62
     7
100
AcDbCircle
 10
143.5
 20
12.5
 30
0.0
 40
0.3000000000000114
  0
CIRCLE
  5
188
330
55
100
AcDbEntity
  8
1
  6
Continuous
 62
     7
100
AcDbCircle
 10
137.5
 20
12.5
 30
0.0
 40
0.3000000000000114
  0
CIRCLE
  5
189
330
55
100
AcDbEntity
  8
1
  6
Continuous
 62
     7
100
AcDbCircle
 10
126.5
 20
12.5
 30
0.0
 40
0.2999999999999972
  0
CIRCLE
  5
18A
330
55
100
AcDbEntity
  8
1
  6
Continuous
 62
     7
100
AcDbCircle
 10
120.5
 20
12.5
 30
0.0
 40
0.2999999999999972
  0
CIRCLE
  5
18B
330
55
100
AcDbEntity
  8
1
  6
Continuous
 62
     7
100
AcDbCircle
 10
109.5
 20
12.5
 30
0.0
 40
0.2999999999999972
  0
CIRCLE
  5
18C
330
55
100
AcDbEntity
  8
1
  6
Continuous
 62
     7
100
AcDbCircle
 10
103.5
 20
12.5
 30
0.0
 40
0.2999999999999972
  0
MTEXT
  5
18E
330
55
100
AcDbEntity
  8
1
 62
   250
100
AcDbMText
 10
25.0
 20
5.0
 30
0.0
 40
3.5
 41
0.0
 71
     4
 72
     1
  1
備考欄の文字列 原点位置=4
  7
CONVERTER_11
 73
     1
 44
0.54545454545455
  0
MTEXT
  5
18F
330
55
100
AcDbEntity
  8
1
 62
     2
100
AcDbMText
 10
89.5
 20
24.00000000000001
 30
0.0
 40
3.5
 41
0.0
 71
     5
 72
     1
  1
尺度
  7
CONVERTER_11
 73
     1
 44
0.54545454545455
  0
MTEXT
  5
190
330
55
100
AcDbEntity
  8
1
 62
     2
100
AcDbMText
 10
135.5
 20
25.00000000000001
 30
0.0
 40
3.0
 41
0.0
 71
     5
 72
     1
  1
製図
  7
CONVERTER_11
 73
     1
 44
0.59090909090909
  0
MTEXT
  5
191
330
55
100
AcDbEntity
  8
1
 62
     2
100
AcDbMText
 10
152.5
 20
25.00000000000001
 30
0.0
 40
3.0
 41
0.0
 71
     5
 72
     1
  1
設計
  7
CONVERTER_11
 73
     1
 44
0.59090909090909
  0
MTEXT
  5
192
330
55
100
AcDbEntity
  8
1
 62
     2
100
AcDbMText
 10
118.5
 20
25.00000000000001
 30
0.0
 40
3.0
 41
0.0
 71
     5
 72
     1
  1
検図
  7
CONVERTER_11
 73
     1
 44
0.59090909090909
  0
MTEXT
  5
193
330
55
100
AcDbEntity
  8
1
 62
     2
100
AcDbMText
 10
175.0
 20
23.50000000000001
 30
0.0
 40
3.5
 41
0.0
 71
     5
 72
     1
  1
第三角法
  7
CONVERTER_11
 73
     1
 44
0.54545454545455
  0
MTEXT
  5
194
330
55
100
AcDbEntity
  8
1
 62
     2
100
AcDbMText
 10
101.5
 20
25.00000000000001
 30
0.0
 40
3.0
 41
0.0
 71
     5
 72
     1
  1
承認
  7
CONVERTER_11
 73
     1
 44
0.59090909090909
  0
MTEXT
  5
195
330
55
100
AcDbEntity
  8
1
 62
     2
100
AcDbMText
 10
29.0
 20
14.25
 30
0.0
 40
3.5
 41
0.0
 71
     5
 72
     1
  1
品番
  7
CONVERTER_11
 73
     1
 44
0.72727272727273
  0
MTEXT
  5
196
330
55
100
AcDbEntity
  8
1
 62
     2
100
AcDbMText
 10
29.0
 20
22.75
 30
0.0
 40
3.5
 41
0.0
 71
     5
 72
     1
  1
品名
  7
CONVERTER_11
 73
     1
 44
0.72727272727273
  0
MTEXT
  5
197
330
55
100
AcDbEntity
  8
1
 62
     2
100
AcDbMText
 10
29.0
 20
34.00000000000001
 30
0.0
 40
3.5
 41
0.0
 71
     5
 72
     1
  1
備考
  7
CONVERTER_11
 73
     1
 44
0.45454545454545
  0
MTEXT
  5
198
330
55
100
AcDbEntity
  8
1
 62
     2
100
AcDbMText
 10
32.5
 20
282.0000000000003
 30
0.0
 40
5.0
 41
0.0
 71
     5
 72
     1
  1
図番
  7
CONVERTER_11
 73
     1
 44
0.45454545454545
  0
MTEXT
  5
199
330
55
100
AcDbEntity
  8
1
 62
     7
100
AcDbMText
 10
171.5
 20
15.0
 30
0.0
 40
2.5
 41
0.0
 71
     5
 72
     1
  1
株式会社
  7
CONVERTER_11
 73
     1
 44
1.0
  0
MTEXT
  5
19A
330
55
100
AcDbEntity
  8
1
 62
     7
100
AcDbMText
 10
188.5
 20
15.0
 30
0.0
 40
3.0
 41
0.0
 71
     5
 72
     1
  1
三栄水栓製作所
  7
CONVERTER_11
 73
     1
 44
1.0
  0
ENDBLK
  5
57
330
55
100
AcDbEntity
  8
0
100
AcDbBlockEnd
  0
BLOCK
  5
59
330
58
100
AcDbEntity
  8
0
100
AcDbBlockBegin
  2
61-115A-M1
 70
     0
 10
2129.18000875382
 20
471.2513272950021
 30
0.0
  3
61-115A-M1
  1

  0
LINE
  5
19B
330
58
100
AcDbEntity
  8
0
  6
Continuous
 62
     7
100
AcDbLine
 10
326.7873649720041
 20
695.1967213897904
 30
0.0
 11
310.7873649720042
 21
695.1967213897904
 31
0.0
  0
LINE
  5
19C
330
58
100
AcDbEntity
  8
0
  6
Continuous
 62
     7
100
AcDbLine
 10
334.7873649720042
 20
674.5183765839815
 30
0.0
 11
334.7873649720042
 21
687.1065719197416
 31
0.0
  0
LINE
  5
19D
330
58
100
AcDbEntity
  8
1
  6
Continuous
 62
     7
100
AcDbLine
 10
303.7873649720041
 20
568.1126672444354
 30
0.0
 11
303.7873649720041
 21
581.1126672444352
 31
0.0
  0
LINE
  5
19E
330
58
100
AcDbEntity
  8
1
  6
Continuous
 62
     7
100
AcDbLine
 10
333.7873649720042
 20
568.1126672444354
 30
0.0
 11
333.7873649720042
 21
581.1126672444352
 31
0.0
  0
LINE
  5
19F
330
58
100
AcDbEntity
  8
0
  6
Continuous
 62
     7
100
AcDbLine
 10
302.7873649719901
 20
687.1065719197388
 30
0.0
 11
302.7873649720042
 21
674.5183765839815
 31
0.0
  0
LINE
  5
1A0
330
58
100
AcDbEntity
  8
1
  6
Continuous
 62
     7
100
AcDbLine
 10
303.7873649720036
 20
982.1710001688871
 30
0.0
 11
303.7873649720042
 21
1151.329951065874
 31
0.0
  0
LINE
  5
1A1
330
58
100
AcDbEntity
  8
0
  6
Continuous
 62
     7
100
AcDbLine
 10
313.7873649720036
 20
972.1710001688871
 30
0.0
 11
323.7873649720042
 21
972.1710001688871
 31
0.0
  0
LINE
  5
1A2
330
58
100
AcDbEntity
  8
1
  6
PHANTOM
 62
     4
100
AcDbLine
 10
318.7873649720038
 20
535.5126672444353
 30
0.0
 11
318.7873649720038
 21
588.6126672444352
 31
0.0
  0
LINE
  5
1A3
330
58
100
AcDbEntity
  8
1
  6
PHANTOM
 62
     4
100
AcDbLine
 10
318.7873649720038
 20
535.5126672444353
 30
0.0
 11
318.7873649720038
 21
588.6126672444352
 31
0.0
  0
LINE
  5
1A4
330
58
100
AcDbEntity
  8
1
  6
Continuous
 62
     7
100
AcDbLine
 10
303.7873649720041
 20
581.1126672444352
 30
0.0
 11
295.2873649720038
 21
581.1126672444352
 31
0.0
  0
LINE
  5
1A5
330
58
100
AcDbEntity
  8
1
  6
Continuous
 62
     7
100
AcDbLine
 10
333.7873649720042
 20
581.1126672444352
 30
0.0
 11
342.2873649720038
 21
581.1126672444352
 31
0.0
  0
LINE
  5
1A6
330
58
100
AcDbEntity
  8
1
  6
Continuous
 62
     7
100
AcDbLine
 10
340.9373649720035
 20
581.1126672444352
 30
0.0
 11
340.9373649720035
 21
581.4362897557885
 31
0.0
  0
LINE
  5
1A7
330
58
100
AcDbEntity
  8
1
  6
Continuous
 62
     7
100
AcDbLine
 10
296.6373649720038
 20
581.1126672444352
 30
0.0
 11
296.6373649720038
 21
581.4362897557883
 31
0.0
  0
LINE
  5
1A8
330
58
100
AcDbEntity
  8
1
  6
Continuous
 62
     7
100
AcDbLine
 10
294.7873649720038
 20
580.6126672444352
 30
0.0
 11
294.7873649720042
 21
539.0126672444353
 31
0.0
  0
LINE
  5
1A9
330
58
100
AcDbEntity
  8
1
  6
Continuous
 62
     7
100
AcDbLine
 10
342.7873649720038
 20
580.6126672444352
 30
0.0
 11
342.7873649720042
 21
539.0126672444353
 31
0.0
  0
LINE
  5
1AA
330
58
100
AcDbEntity
  8
1
  6
Continuous
 62
     7
100
AcDbLine
 10
295.2873649720042
 20
538.5126672444353
 30
0.0
 11
342.2873649720042
 21
538.5126672444353
 31
0.0
  0
LINE
  5
1AB
330
58
100
AcDbEntity
  8
1
  6
Continuous
 62
     7
100
AcDbLine
 10
527.6438077814415
 20
676.1425111885669
 30
0.0
 11
559.4685084332258
 21
672.7976003640001
 31
0.0
  0
LINE
  5
1AC
330
58
100
AcDbEntity
  8
1
  6
Continuous
 62
     7
100
AcDbLine
 10
774.7873649720042
 20
580.4663476505045
 30
0.0
 11
774.7873649720042
 21
576.4050070168412
 31
0.0
  0
LINE
  5
1AD
330
58
100
AcDbEntity
  8
1
  6
Continuous
 62
     7
100
AcDbLine
 10
774.7873649720042
 20
576.4050070168412
 30
0.0
 11
774.7873649720042
 21
553.1126672444352
 31
0.0
  0
LINE
  5
1AE
330
58
100
AcDbEntity
  8
1
  6
Continuous
 62
     7
100
AcDbLine
 10
642.5546382429987
 20
646.8825245401608
 30
0.0
 11
774.7873649720042
 21
553.1126672444352
 31
0.0
  0
LINE
  5
1AF
330
58
100
AcDbEntity
  8
1
  6
Continuous
 62
     7
100
AcDbLine
 10
653.5451619360773
 20
662.3811821901577
 30
0.0
 11
774.7873649720042
 21
576.4050070168412
 31
0.0
  0
LINE
  5
1B0
330
58
100
AcDbEntity
  8
1
  6
Continuous
 62
     7
100
AcDbLine
 10
559.4685084332258
 20
672.7976003640001
 30
0.0
 11
559.5207726648601
 21
673.2948613116864
 31
0.0
  0
LINE
  5
1B1
330
58
100
AcDbEntity
  8
1
  6
Continuous
 62
     7
100
AcDbLine
 10
528.7413566457516
 20
686.5849910899337
 30
0.0
 11
528.8981493406533
 21
688.0767739329863
 31
0.0
  0
LINE
  5
1B2
330
58
100
AcDbEntity
  8
1
  6
Continuous
 62
     7
100
AcDbLine
 10
577.7179375908742
 20
690.9896736596195
 30
0.0
 11
537.6905522097417
 21
695.1967213897906
 31
0.0
  0
LINE
  5
1B3
330
58
100
AcDbEntity
  8
1
  6
Continuous
 62
     7
100
AcDbLine
 10
562.1540035471629
 20
673.5208517333053
 30
0.0
 11
560.0702978441776
 21
673.7398580277363
 31
0.0
  0
LINE
  5
1B4
330
58
100
AcDbEntity
  8
1
  6
Continuous
 62
     7
100
AcDbLine
 10
575.7318967887871
 20
672.0937576476244
 30
0.0
 11
562.1540035471629
 21
673.5208517333053
 31
0.0
  0
LINE
  5
1B5
330
58
100
AcDbEntity
  8
1
  6
Continuous
 62
     7
100
AcDbLine
 10
776.6373649720041
 20
581.1126672444352
 30
0.0
 11
776.6373649720041
 21
581.4362897557883
 31
0.0
  0
LINE
  5
1B6
330
58
100
AcDbEntity
  8
1
  6
Continuous
 62
     7
100
AcDbLine
 10
820.937364972004
 20
581.1126672444352
 30
0.0
 11
820.9373649720042
 21
581.4362897557883
 31
0.0
  0
LINE
  5
1B7
330
58
100
AcDbEntity
  8
1
  6
PHANTOM
 62
     4
100
AcDbLine
 10
772.7873649720042
 20
564.758837130637
 30
0.0
 11
778.9403844590848
 21
564.758837130637
 31
0.0
  0
LINE
  5
1B8
330
58
100
AcDbEntity
  8
1
  6
Continuous
 62
     7
100
AcDbLine
 10
822.2873649720042
 20
538.5126672444353
 30
0.0
 11
775.2873649720042
 21
538.5126672444353
 31
0.0
  0
LINE
  5
1B9
330
58
100
AcDbEntity
  8
1
  6
Continuous
 62
     7
100
AcDbLine
 10
774.7873649720042
 20
580.4663476505045
 30
0.0
 11
774.7873649720042
 21
580.6126672444352
 31
0.0
  0
LINE
  5
1BA
330
58
100
AcDbEntity
  8
1
  6
Continuous
 62
     7
100
AcDbLine
 10
820.937364972004
 20
581.1126672444352
 30
0.0
 11
822.2873649720042
 21
581.1126672444352
 31
0.0
  0
LINE
  5
1BB
330
58
100
AcDbEntity
  8
1
  6
Continuous
 62
     7
100
AcDbLine
 10
822.7873649720042
 20
580.6126672444352
 30
0.0
 11
822.7873649720042
 21
539.0126672444353
 31
0.0
  0
LINE
  5
1BC
330
58
100
AcDbEntity
  8
1
  6
Continuous
 62
     7
100
AcDbLine
 10
820.937364972004
 20
581.1126672444352
 30
0.0
 11
775.2873649720042
 21
581.1126672444352
 31
0.0
  0
LINE
  5
1BD
330
58
100
AcDbEntity
  8
1
  6
Continuous
 62
     7
100
AcDbLine
 10
774.7873649720042
 20
543.0126672444351
 30
0.0
 11
774.7873649720042
 21
539.0126672444353
 31
0.0
  0
LINE
  5
1BE
330
58
100
AcDbEntity
  8
1
  6
Continuous
 62
     7
100
AcDbLine
 10
774.7873649720042
 20
545.8121548668037
 30
0.0
 11
774.7873649720042
 21
543.0126672444351
 31
0.0
  0
LINE
  5
1BF
330
58
100
AcDbEntity
  8
1
  6
Continuous
 62
     7
100
AcDbLine
 10
774.7873649720042
 20
553.1126672444352
 30
0.0
 11
774.7873649720042
 21
545.8121548668037
 31
0.0
  0
LINE
  5
1C0
330
58
100
AcDbEntity
  8
1
  6
Continuous
 62
     7
100
AcDbLine
 10
527.6438077814415
 20
676.1425111885669
 30
0.0
 11
528.7413566457516
 21
686.5849910899337
 31
0.0
  0
LINE
  5
1C1
330
58
100
AcDbEntity
  8
1
  6
Continuous
 62
     7
100
AcDbLine
 10
303.7873649720041
 20
581.1126672444352
 30
0.0
 11
303.7873649720041
 21
673.9538848848852
 31
0.0
  0
LINE
  5
1C2
330
58
100
AcDbEntity
  8
1
  6
Continuous
 62
     7
100
AcDbLine
 10
333.7873649720042
 20
581.1126672444352
 30
0.0
 11
333.7873649720042
 21
673.9538848848852
 31
0.0
  0
LINE
  5
1C3
330
58
100
AcDbEntity
  8
1
  6
Continuous
 62
     7
100
AcDbLine
 10
333.7873649720042
 20
1151.376635418671
 30
0.0
 11
333.7873649720042
 21
982.1710001688871
 31
0.0
  0
ARC
  5
1C4
330
58
100
AcDbEntity
  8
1
  6
Continuous
 62
     7
100
AcDbCircle
 10
318.7873649720041
 20
568.1126672444354
 30
0.0
 40
15.0
100
AcDbArc
 50
180.0
 51
0.0
  0
ARC
  5
1C5
330
58
100
AcDbEntity
  8
1
  6
Continuous
 62
     7
100
AcDbCircle
 10
310.7873649720042
 20
687.1967213897904
 30
0.0
 40
8.0
100
AcDbArc
 50
90.0
 51
180.645620693168
  0
ARC
  5
1C6
330
58
100
AcDbEntity
  8
1
  6
Continuous
 62
     7
100
AcDbCircle
 10
326.7873649720041
 20
687.1967213897904
 30
0.0
 40
8.000507916810719
100
AcDbArc
 50
359.3543793068503
 51
90.0
  0
ARC
  5
1C7
330
58
100
AcDbEntity
  8
1
  6
Continuous
 62
     7
100
AcDbCircle
 10
560.9933834680393
 20
531.8661704006986
 30
0.0
 40
159.9999999999982
100
AcDbArc
 50
54.65849966865264
 51
83.99999999999622
  0
ARC
  5
1C8
330
58
100
AcDbEntity
  8
1
  6
Continuous
 62
     7
100
AcDbCircle
 10
560.9933834680393
 20
531.8661704006986
 30
0.0
 40
141.0000000000001
100
AcDbArc
 50
62.85545892935451
 51
83.99999999999645
  0
ARC
  5
1C9
330
58
100
AcDbEntity
  8
1
  6
Continuous
 62
     7
100
AcDbCircle
 10
560.9933834680393
 20
531.8661704006986
 30
0.0
 40
141.0000000000001
100
AcDbArc
 50
54.65849966865265
 51
62.85545892935451
  0
SPLINE
  5
1CA
330
58
100
AcDbEntity
  8
0
  6
Continuous
 62
     7
100
AcDbSpline
210
0.0
220
0.0
230
1.0
 70
     8
 71
     3
 72
     9
 73
     5
 74
     3
 42
0.000000001
 43
0.0000000001
 44
0.00000001
 40
0.0
 40
0.0
 40
0.0
 40
0.0
 40
0.0771680624305693
 40
0.1729208124642376
 40
0.1729208124642376
 40
0.1729208124642376
 40
0.1729208124642376
 10
334.7873649720042
 20
674.5183765839572
 30
0.0
 10
334.7827975046091
 20
674.5442922742548
 30
0.0
 10
334.7725625503051
 20
674.6023650257407
 30
0.0
 10
334.730490851635
 20
674.6442325590716
 30
0.0
 10
334.7071941624099
 20
674.6674161794872
 30
0.0
 11
334.7873649720042
 21
674.5183765839572
 31
0.0
 11
334.7673222696122
 21
674.5928963817223
 31
0.0
 11
334.7071941624099
 21
674.6674161794872
 31
0.0
  0
SPLINE
  5
1CB
330
58
100
AcDbEntity
  8
0
  6
Continuous
 62
     7
100
AcDbSpline
210
0.0
220
0.0
230
1.0
 70
     8
 71
     3
 72
    17
 73
    13
 74
    11
 42
0.000000001
 43
0.0000000001
 44
0.00000001
 40
0.0
 40
0.0
 40
0.0
 40
0.0
 40
0.2814393174863536
 40
0.5628809441340349
 40
1.268807243377015
 40
1.976290562687118
 40
2.47019875486121
 40
2.95908504780976
 40
3.24766635673101
 40
3.564285788615506
 40
3.660038541842913
 40
3.737206606088583
 40
3.737206606088583
 40
3.737206606088583
 40
3.737206606088583
 10
331.2873649720157
 20
673.5044674936134
 30
0.0
 10
331.3804155563254
 20
673.5164038528284
 30
0.0
 10
331.566517489655
 20
673.5402766595595
 30
0.0
 10
331.9857078726876
 20
673.5964911199347
 30
0.0
 10
332.5438850276449
 20
673.6842522402457
 30
0.0
 10
333.1684321896565
 20
673.8045537456173
 30
0.0
 10
333.7161720509405
 20
673.9369025167048
 30
0.0
 10
334.1291874125066
 20
674.0316031061207
 30
0.0
 10
334.4702416747263
 20
674.1713987638175
 30
0.0
 10
334.6544074896606
 20
674.3139672874612
 30
0.0
 10
334.7724694320486
 20
674.4345737414625
 30
0.0
 10
334.7827687615425
 20
674.4925181660027
 30
0.0
 10
334.7873649720042
 20
674.5183765839572
 30
0.0
 11
331.2873649720157
 21
673.5044674936134
 31
0.0
 11
331.5664825912382
 21
673.5405429685782
 31
0.0
 11
331.8453822084426
 21
673.5782840967313
 31
0.0
 11
332.54270619238
 21
673.6881531163157
 31
0.0
 11
333.2369525712307
 21
673.8243684327775
 31
0.0
 11
333.717998938077
 21
673.9363492125528
 31
0.0
 11
334.1902208202121
 21
674.0629047373503
 31
0.0
 11
334.4547603299652
 21
674.1782217757714
 31
0.0
 11
334.7071941624098
 21
674.3693369884762
 31
0.0
 11
334.7673222695989
 21
674.4438567862167
 31
0.0
 11
334.7873649720042
 21
674.5183765839572
 31
0.0
  0
SPLINE
  5
1CC
330
58
100
AcDbEntity
  8
0
  6
Continuous
 62
     7
100
AcDbSpline
210
0.0
220
0.0
230
1.0
 70
     8
 71
     3
 72
    13
 73
     9
 74
     7
 42
0.000000001
 43
0.0000000001
 44
0.00000001
 40
0.0
 40
0.0
 40
0.0
 40
0.0
 40
0.2818734651091416
 40
0.5654702608363745
 40
1.272953579582049
 40
1.978879878692085
 40
2.260321505338372
 40
2.541760815697063
 40
2.541760815697063
 40
2.541760815697063
 40
2.541760815697063
 10
303.7873649720041
 20
673.9538848848852
 30
0.0
 10
303.8785291419251
 20
673.9311295161775
 30
0.0
 10
304.0614148488137
 20
673.8854796700872
 30
0.0
 10
304.4755236686853
 20
673.7928291936825
 30
0.0
 10
305.0307121810056
 20
673.6836840227497
 30
0.0
 10
305.5890348037071
 20
673.5965455963296
 30
0.0
 10
306.0082105088292
 20
673.5402683213146
 30
0.0
 10
306.194313738938
 20
673.5164010653127
 30
0.0
 10
306.2873649720103
 20
673.5044674936112
 30
0.0
 11
303.7873649720041
 21
673.9538848848852
 31
0.0
 11
304.0611231886225
 21
673.8867351317443
 31
0.0
 11
304.3377773727774
 21
673.8243684327774
 31
0.0
 11
305.0320237516282
 21
673.6881531163156
 31
0.0
 11
305.7293477355656
 21
673.5782840967312
 31
0.0
 11
306.0082473527788
 21
673.5405429685769
 31
0.0
 11
306.2873649720103
 21
673.5044674936112
 31
0.0
  0
SPLINE
  5
1CD
330
58
100
AcDbEntity
  8
0
  6
Continuous
 62
     7
100
AcDbSpline
210
0.0
220
0.0
230
1.0
 70
     8
 71
     3
 72
    47
 73
    43
 74
    41
 42
0.000000001
 43
0.0000000001
 44
0.00000001
 40
0.0
 40
0.0
 40
0.0
 40
0.0
 40
0.3166194352295528
 40
0.6052007424759447
 40
1.094087035480346
 40
1.587995228155725
 40
2.295478548410385
 40
3.001404848732959
 40
3.900852172367325
 40
4.800500691852886
 40
5.868767449482169
 40
6.93694868480951
 40
8.142187368348413
 40
9.347419677406343
 40
10.65380752824141
 40
11.96018570368518
 40
13.32855945702679
 40
14.69693007816335
 40
16.08618490473457
 40
17.47543973124881
 40
18.84381035221097
 40
20.21218410523976
 40
21.51856228022323
 40
22.82495013039668
 40
24.03018243862416
 40
25.23542112109025
 40
26.30360235525903
 40
27.3718691115597
 40
28.27151762983272
 40
29.17096495221095
 40
29.87689125153465
 40
30.58437457079063
 40
31.07828276276145
 40
31.56716905493407
 40
31.85575036312704
 40
32.17236979347642
 40
32.34160383041957
 40
32.51083786964866
 40
32.82745730256327
 40
33.11603861089542
 40
33.32428751930448
 40
33.5333958662351
 40
33.5333958662351
 40
33.5333958662351
 40
33.5333958662351
 10
334.7071941624099
 20
674.6674161794872
 30
0.0
 10
334.6262347955966
 20
674.7362536945514
 30
0.0
 10
334.4714853994752
 20
674.8678328520551
 30
0.0
 10
334.1286119915381
 20
675.004002592407
 30
0.0
 10
333.7163593961745
 20
675.1002301424222
 30
0.0
 10
333.1683524135302
 20
675.2320133506466
 30
0.0
 10
332.5439360876071
 20
675.3527532685367
 30
0.0
 10
331.7820512517566
 20
675.4713966146503
 30
0.0
 10
330.9534966820784
 20
675.57568434434
 30
0.0
 10
330.00333708688
 20
675.6795277312893
 30
0.0
 10
328.9954478460343
 20
675.7716074104133
 30
0.0
 10
327.8848117089496
 20
675.8571359855471
 30
0.0
 10
326.7275615119459
 20
675.9306595770175
 30
0.0
 10
325.4902816984177
 20
675.9954507904381
 30
0.0
 10
324.218684678961
 20
676.0481907376518
 30
0.0
 10
322.8922879876379
 20
676.0903278848564
 30
0.0
 10
321.5448925933895
 20
676.1202372715629
 30
0.0
 10
320.1696634570648
 20
676.1385374780994
 30
0.0
 10
318.7873649626073
 20
676.1445130960258
 30
0.0
 10
317.405066468144
 20
676.1385374771437
 30
0.0
 10
316.0298373322187
 20
676.1202372687742
 30
0.0
 10
314.6824419375796
 20
676.0903278835895
 30
0.0
 10
313.3560452493814
 20
676.0481907256773
 30
0.0
 10
312.0844482212335
 20
675.9954508115736
 30
0.0
 10
310.8471684410821
 20
675.9306594784462
 30
0.0
 10
309.6899181306426
 20
675.8571363041133
 30
0.0
 10
308.5792823760919
 20
675.771606335752
 30
0.0
 10
307.5713918239195
 20
675.6795314491876
 30
0.0
 10
306.6212363982131
 20
675.575672840926
 30
0.0
 10
305.7926679441873
 20
675.4714358163303
 30
0.0
 10
305.0308244962769
 20
675.3526413388986
 30
0.0
 10
304.4062766527238
 20
675.2323816833962
 30
0.0
 10
303.8586221013271
 20
675.0993115151489
 30
0.0
 10
303.4453407255256
 20
675.0068407338367
 30
0.0
 10
303.1049249114614
 20
674.861696674559
 30
0.0
 10
302.8995395254633
 20
674.7202108035397
 30
0.0
 10
302.748296378647
 20
674.5184010742275
 30
0.0
 10
302.8995142265861
 20
674.3164016629003
 30
0.0
 10
303.1051273961161
 20
674.1759791310058
 30
0.0
 10
303.3574297544168
 20
674.0644619362597
 30
0.0
 10
303.5854964726208
 20
674.0075064808557
 30
0.0
 10
303.7199831582828
 20
673.9717832691454
 30
0.0
 10
303.7873649720041
 20
673.9538848848852
 30
0.0
 11
334.7071941624099
 21
674.6674161794872
 31
0.0
 11
334.4547603299653
 21
674.8585313921922
 31
0.0
 11
334.1902208202123
 21
674.973848430613
 31
0.0
 11
333.717998938077
 21
675.1004039554103
 31
0.0
 11
333.2369525712308
 21
675.2123847351857
 31
0.0
 11
332.5427061923801
 21
675.3486000516475
 31
0.0
 11
331.8453822084426
 21
675.4584690712321
 31
0.0
 11
330.9532874940605
 21
675.5732406105985
 31
0.0
 11
330.0589661832795
 21
675.6709997506293
 31
0.0
 11
328.9952115789576
 21
675.7690813713623
 31
0.0
 11
327.9302062276151
 21
675.8513902443015
 31
0.0
 11
326.7274321329906
 21
675.9284276307192
 31
0.0
 11
325.5238562885463
 21
675.991594895543
 31
0.0
 11
324.2186051915794
 21
676.0460814882274
 31
0.0
 11
322.912888166115
 21
676.0876385006898
 31
0.0
 11
321.5448559744405
 21
676.1182105507703
 31
0.0
 11
320.1766064083337
 21
676.1364116718662
 31
0.0
 11
318.7873649720042
 21
676.1425111885671
 31
0.0
 11
317.3981235356746
 21
676.1364116718662
 31
0.0
 11
316.0298739695677
 21
676.1182105507704
 31
0.0
 11
314.6618417778933
 21
676.0876385006898
 31
0.0
 11
313.3561247524288
 21
676.0460814882271
 31
0.0
 11
312.0508736554619
 21
675.9915948955429
 31
0.0
 11
310.8472978110176
 21
675.928427630719
 31
0.0
 11
309.644523716393
 21
675.8513902443015
 31
0.0
 11
308.5795183650505
 21
675.7690813713623
 31
0.0
 11
307.5157637607285
 21
675.6709997506293
 31
0.0
 11
306.6214424499476
 21
675.5732406105985
 31
0.0
 11
305.7293477355656
 21
675.4584690712322
 31
0.0
 11
305.0320237516282
 21
675.3486000516475
 31
0.0
 11
304.3377773727775
 21
675.2123847351857
 31
0.0
 11
303.8567310059312
 21
675.1004039554103
 31
0.0
 11
303.384509123796
 21
674.973848430613
 31
0.0
 11
303.1199696140429
 21
674.8585313921919
 31
0.0
 11
302.8675357815983
 21
674.667416179487
 31
0.0
 11
302.7873649720041
 21
674.5183765839815
 31
0.0
 11
302.8675357815982
 21
674.3693369884761
 31
0.0
 11
303.1199696140428
 21
674.1782217757712
 31
0.0
 11
303.384509123796
 21
674.0629047373502
 31
0.0
 11
303.5851320587882
 21
674.0070652704779
 31
0.0
 11
303.7873649720041
 21
673.9538848848852
 31
0.0
  0
ARC
  5
1CE
330
58
100
AcDbEntity
  8
1
  6
Continuous
 62
     7
100
AcDbCircle
 10
342.2873649720042
 20
539.0126672444353
 30
0.0
 40
0.5
100
AcDbArc
 50
270.0
 51
0.0
  0
ARC
  5
1CF
330
58
100
AcDbEntity
  8
0
  6
Continuous
 62
     7
100
AcDbCircle
 10
313.7873649720036
 20
982.1710001688871
 30
0.0
 40
10.0
100
AcDbArc
 50
180.0
 51
270.0
  0
ARC
  5
1D0
330
58
100
AcDbEntity
  8
0
  6
Continuous
 62
     7
100
AcDbCircle
 10
323.7873649720042
 20
982.1710001688871
 30
0.0
 40
10.0
100
AcDbArc
 50
270.0
 51
0.0
  0
ARC
  5
1D1
330
58
100
AcDbEntity
  8
1
  6
Continuous
 62
     7
100
AcDbCircle
 10
342.2873649720042
 20
539.0126672444353
 30
0.0
 40
0.5
100
AcDbArc
 50
270.0
 51
0.0
  0
ARC
  5
1D2
330
58
100
AcDbEntity
  8
1
  6
Continuous
 62
     7
100
AcDbCircle
 10
295.2873649720038
 20
580.6126672444352
 30
0.0
 40
0.5
100
AcDbArc
 50
90.0
 51
180.0
  0
ARC
  5
1D3
330
58
100
AcDbEntity
  8
1
  6
Continuous
 62
     7
100
AcDbCircle
 10
342.2873649720038
 20
580.6126672444352
 30
0.0
 40
0.5
100
AcDbArc
 50
0.0
 51
90.0
  0
ARC
  5
1D4
330
58
100
AcDbEntity
  8
1
  6
Continuous
 62
     7
100
AcDbCircle
 10
295.2873649720042
 20
539.0126672444353
 30
0.0
 40
0.5
100
AcDbArc
 50
180.0
 51
270.0
  0
ARC
  5
1D5
330
58
100
AcDbEntity
  8
1
  6
Continuous
 62
     7
100
AcDbCircle
 10
295.2873649720042
 20
539.0126672444353
 30
0.0
 40
0.5
100
AcDbArc
 50
180.0
 51
270.0
  0
ARC
  5
1D6
330
58
100
AcDbEntity
  8
1
  6
Continuous
 62
     7
100
AcDbCircle
 10
536.8543245035995
 20
687.2405462268443
 30
0.0
 40
8.000000000000147
100
AcDbArc
 50
83.99999999999346
 51
173.9999999999951
  0
ARC
  5
1D7
330
58
100
AcDbEntity
  8
1
  6
Continuous
 62
     7
100
AcDbCircle
 10
560.0180336125437
 20
673.2425970800523
 30
0.0
 40
0.4999999999998976
100
AcDbArc
 50
83.99999999999046
 51
173.9999999999591
  0
ARC
  5
1D8
330
58
100
AcDbEntity
  8
1
  6
Continuous
 62
     7
100
AcDbCircle
 10
822.2873649720042
 20
580.6126672444352
 30
0.0
 40
0.5
100
AcDbArc
 50
0.0
 51
90.0
  0
ARC
  5
1D9
330
58
100
AcDbEntity
  8
1
  6
Continuous
 62
     7
100
AcDbCircle
 10
775.2873649720042
 20
580.6126672444352
 30
0.0
 40
0.5
100
AcDbArc
 50
90.0
 51
180.0
  0
ARC
  5
1DA
330
58
100
AcDbEntity
  8
1
  6
Continuous
 62
     7
100
AcDbCircle
 10
775.2873649720042
 20
539.0126672444353
 30
0.0
 40
0.5
100
AcDbArc
 50
180.0
 51
270.0
  0
ARC
  5
1DB
330
58
100
AcDbEntity
  8
1
  6
Continuous
 62
     7
100
AcDbCircle
 10
822.2873649720042
 20
539.0126672444353
 30
0.0
 40
0.5
100
AcDbArc
 50
270.0
 51
0.0
  0
ENDBLK
  5
5A
330
58
100
AcDbEntity
  8
0
100
AcDbBlockEnd
  0
BLOCK
  5
5C
330
5B
100
AcDbEntity
  8
0
100
AcDbBlockBegin
  2
82-20-M21
 70
     0
 10
1420.170698129186
 20
171.7455555563306
 30
0.0
  3
82-20-M21
  1

  0
LINE
  5
1DC
330
5B
100
AcDbEntity
  8
1
  6
PHANTOM
 62
     4
100
AcDbLine
 10
541.8314384634195
 20
658.0617851363704
 30
0.0
 11
544.1833288869375
 21
680.4385277821575
 31
0.0
  0
LINE
  5
1DD
330
5B
100
AcDbEntity
  8
1
  6
Continuous
 62
     7
100
AcDbLine
 10
306.287364972005
 20
674.471396409948
 30
0.0
 11
306.2873649720038
 21
664.5261774562643
 31
0.0
  0
LINE
  5
1DE
330
5B
100
AcDbEntity
  8
1
  6
Continuous
 62
     7
100
AcDbLine
 10
331.2873649720044
 20
674.4713964099474
 30
0.0
 11
331.2873649720041
 21
664.5261774562643
 31
0.0
  0
LINE
  5
1DF
330
5B
100
AcDbEntity
  8
1
  6
Continuous
 62
     7
100
AcDbLine
 10
306.2873649720038
 20
664.5261774562643
 30
0.0
 11
306.9664417262725
 21
661.0453508224754
 31
0.0
  0
LINE
  5
1E0
330
5B
100
AcDbEntity
  8
1
  6
Continuous
 62
     7
100
AcDbLine
 10
331.2873649720041
 20
664.5261774562643
 30
0.0
 11
330.6082882177357
 21
661.0453508224754
 31
0.0
  0
LINE
  5
1E1
330
5B
100
AcDbEntity
  8
1
  6
Continuous
 62
     7
100
AcDbLine
 10
530.0793497825543
 20
665.8327832471077
 30
0.0
 11
554.9423971667616
 21
663.2195716654212
 31
0.0
  0
LINE
  5
1E2
330
5B
100
AcDbEntity
  8
1
  6
Continuous
 62
     7
100
AcDbLine
 10
532.3748264979072
 20
675.6466017180055
 30
0.0
 11
532.6164172582812
 21
675.6212095058893
 31
0.0
  0
LINE
  5
1E3
330
5B
100
AcDbEntity
  8
1
  6
Continuous
 62
     7
100
AcDbLine
 10
531.4581913271782
 20
662.1685821825354
 30
0.0
 11
534.1888486902756
 21
661.8815785286149
 31
0.0
  0
LINE
  5
1E4
330
5B
100
AcDbEntity
  8
1
  6
Continuous
 62
     7
100
AcDbLine
 10
555.9667761067826
 20
672.9658862400304
 30
0.0
 11
554.9423971667616
 21
663.2195716654212
 31
0.0
  0
LINE
  5
1E5
330
5B
100
AcDbEntity
  8
1
  6
Continuous
 62
     7
100
AcDbLine
 10
554.9423971667616
 20
663.2195716654212
 30
0.0
 11
553.8639252840567
 21
660.5429185603275
 31
0.0
  0
LINE
  5
1E6
330
5B
100
AcDbEntity
  8
1
  6
Continuous
 62
     7
100
AcDbLine
 10
530.0793497825543
 20
665.8327832471077
 30
0.0
 11
530.5777469942695
 21
662.9903945217311
 31
0.0
  0
LINE
  5
1E7
330
5B
100
AcDbEntity
  8
1
  6
Continuous
 62
     7
100
AcDbLine
 10
531.1037287225756
 20
675.5790978217169
 30
0.0
 11
530.0793497825543
 21
665.8327832471077
 31
0.0
  0
LINE
  5
1E8
330
5B
100
AcDbEntity
  8
1
  6
Continuous
 62
     7
100
AcDbLine
 10
531.3235387943027
 20
675.757096508137
 30
0.0
 11
532.3748264979072
 21
675.6466017180055
 31
0.0
  0
LINE
  5
1E9
330
5B
100
AcDbEntity
  8
1
  6
Continuous
 62
     7
100
AcDbLine
 10
550.1011990161683
 20
660.2091231163356
 30
0.0
 11
552.8318563792659
 21
659.9221194624151
 31
0.0
  0
LINE
  5
1EA
330
5B
100
AcDbEntity
  8
1
  6
Continuous
 62
     7
100
AcDbLine
 10
534.1888486902756
 20
661.8815785286149
 30
0.0
 11
542.145023853222
 21
661.0453508224753
 31
0.0
  0
LINE
  5
1EB
330
5B
100
AcDbEntity
  8
1
  6
Continuous
 62
     7
100
AcDbLine
 10
554.4958989563838
 20
673.3215833140052
 30
0.0
 11
555.7887774203625
 21
673.1856963117575
 31
0.0
  0
LINE
  5
1EC
330
5B
100
AcDbEntity
  8
1
  6
Continuous
 62
     7
100
AcDbLine
 10
532.6164172582812
 20
675.6212095058893
 30
0.0
 11
554.4958989563838
 21
673.3215833140052
 31
0.0
  0
LINE
  5
1ED
330
5B
100
AcDbEntity
  8
1
  6
Continuous
 62
     7
100
AcDbLine
 10
542.145023853222
 20
661.0453508224753
 30
0.0
 11
550.1011990161683
 21
660.2091231163356
 31
0.0
  0
SPLINE
  5
1EE
330
5B
100
AcDbEntity
  8
1
  6
Continuous
 62
     7
100
AcDbSpline
210
0.0
220
0.0
230
1.0
 70
     8
 71
     3
 72
    43
 73
    39
 74
    37
 42
0.000000001
 43
0.0000000001
 44
0.00000001
 40
0.0
 40
0.0
 40
0.0
 40
0.0
 40
0.2318307255747976
 40
0.4415720805880798
 40
0.7999367333091776
 40
1.162959140213335
 40
1.684959044881137
 40
2.205541509104596
 40
2.869354272432426
 40
3.533394316913349
 40
4.322290048159848
 40
5.111109162824215
 40
6.001345602307217
 40
6.891582180120695
 40
7.856662967309662
 40
8.821736663407956
 40
9.832674756678694
 40
10.84361096412681
 40
11.86999682358388
 40
12.89638268300493
 40
13.90731889034668
 40
14.91825698344045
 40
15.88333067930367
 40
16.84841146619344
 40
17.73864804367441
 40
18.62888448277227
 40
19.41770359705272
 40
20.20659932787848
 40
20.87063937198004
 40
21.53445213491245
 40
22.055034598818
 40
22.57703450318002
 40
22.94005690992799
 40
23.29842156267503
 40
23.50816291876222
 40
23.73999364248739
 40
23.80818873053584
 40
23.86185056876022
 40
23.86185056876022
 40
23.86185056876022
 40
23.86185056876022
 10
330.5487738944362
 20
661.148466689641
 30
0.0
 10
330.4879079305703
 20
661.1968932147129
 30
0.0
 10
330.3719754612988
 20
661.2891320841115
 30
0.0
 10
330.1192743684313
 20
661.3829213679178
 30
0.0
 10
329.815992765558
 20
661.4474483758826
 30
0.0
 10
329.411557329256
 20
661.5386817940828
 30
0.0
 10
328.9504557662933
 20
661.6225769604346
 30
0.0
 10
328.387523884569
 20
661.7046158711881
 30
0.0
 10
327.7755400075871
 20
661.776564107105
 30
0.0
 10
327.0736028365276
 20
661.8483832654681
 30
0.0
 10
326.3290359879393
 20
661.9120872647242
 30
0.0
 10
325.5084957680112
 20
661.9712351680605
 30
0.0
 10
324.6535539670155
 20
662.0220713730773
 30
0.0
 10
323.7394526163071
 20
662.0668794677438
 30
0.0
 10
322.8000144043567
 20
662.1033532556006
 30
0.0
 10
321.8200709477634
 20
662.1324942441042
 30
0.0
 10
320.8246236622329
 20
662.153178092977
 30
0.0
 10
319.8086042260202
 20
662.165834142857
 30
0.0
 10
318.7873649678803
 20
662.1699666357672
 30
0.0
 10
317.7661257097492
 20
662.1658341425359
 30
0.0
 10
316.7501062737306
 20
662.1531780920903
 30
0.0
 10
315.7546589880808
 20
662.1324942436598
 30
0.0
 10
314.7747155328005
 20
662.103353252048
 30
0.0
 10
313.8352773173121
 20
662.0668794739526
 30
0.0
 10
312.9211759802203
 20
662.0220713443146
 30
0.0
 10
312.0662341328065
 20
661.971235261572
 30
0.0
 10
311.2456940690525
 20
661.9120869503831
 30
0.0
 10
310.5011266847094
 20
661.8483843542854
 30
0.0
 10
309.7991912157527
 20
661.7765607420007
 30
0.0
 10
309.1872016728167
 20
661.7046273364307
 30
0.0
 10
308.624286670616
 20
661.6225442479374
 30
0.0
 10
308.1631315071612
 20
661.5387893702361
 30
0.0
 10
307.7588391341434
 20
661.4471815143813
 30
0.0
 10
307.4551422488325
 20
661.3837414197098
 30
0.0
 10
307.203427676568
 20
661.2873701266478
 30
0.0
 10
307.0669143270435
 20
661.187891627894
 30
0.0
 10
306.9778503028671
 20
661.1040784918781
 30
0.0
 10
306.9699297065778
 20
661.0633057943215
 30
0.0
 10
306.9664417262725
 20
661.0453508225812
 30
0.0
 11
330.5487738944362
 21
661.148466689641
 31
0.0
 11
330.3596817753785
 21
661.2825922077106
 31
0.0
 11
330.1654648159852
 21
661.3617831725214
 31
0.0
 11
329.8175890586535
 21
661.4478510607836
 31
0.0
 11
329.4628544703903
 21
661.524978484538
 31
0.0
 11
328.94950716191
 21
661.619627524495
 31
0.0
 11
328.4345033553584
 21
661.6956352922139
 31
0.0
 11
327.7754397367291
 21
661.7748977079124
 31
0.0
 11
327.1148471264137
 21
661.84247420615
 31
0.0
 11
326.3288754040879
 21
661.91033380743
 31
0.0
 11
325.5421127146065
 21
661.9672553777756
 31
0.0
 11
324.6534716874707
 21
662.020528654145
 31
0.0
 11
323.7643074508178
 21
662.0642107296302
 31
0.0
 11
322.7999626554209
 21
662.1018941516378
 31
0.0
 11
321.8353169778477
 21
662.1306335781285
 31
0.0
 11
320.8246000025986
 21
662.1517765051289
 31
0.0
 11
319.8137421627098
 21
662.1643638855901
 31
0.0
 11
318.7873649720041
 21
662.1685821825354
 31
0.0
 11
317.7609877812981
 21
662.1643638855899
 31
0.0
 11
316.7501299414092
 21
662.1517765051284
 31
0.0
 11
315.7394129661603
 21
662.1306335781283
 31
0.0
 11
314.7747672885872
 21
662.1018941516378
 31
0.0
 11
313.8104224931903
 21
662.0642107296303
 31
0.0
 11
312.9212582565373
 21
662.020528654145
 31
0.0
 11
312.0326172294015
 21
661.9672553777755
 31
0.0
 11
311.2458545399201
 21
661.9103338074301
 31
0.0
 11
310.4598828175942
 21
661.84247420615
 31
0.0
 11
309.7992902072789
 21
661.7748977079125
 31
0.0
 11
309.1402265886495
 21
661.6956352922142
 31
0.0
 11
308.6252227820979
 21
661.6196275244955
 31
0.0
 11
308.1118754736177
 21
661.5249784845382
 31
0.0
 11
307.7571408853546
 21
661.4478510607836
 31
0.0
 11
307.4092651280228
 21
661.3617831725215
 31
0.0
 11
307.2150481686294
 21
661.282592207711
 31
0.0
 11
307.0259560495718
 21
661.1484666896412
 31
0.0
 11
306.9813203071278
 21
661.0969087561111
 31
0.0
 11
306.9664417262725
 21
661.0453508225812
 31
0.0
  0
SPLINE
  5
1EF
330
5B
100
AcDbEntity
  8
1
  6
Continuous
 62
     7
100
AcDbSpline
210
0.0
220
0.0
230
1.0
 70
     8
 71
     3
 72
    45
 73
    41
 74
    39
 42
0.000000001
 43
0.0000000001
 44
0.00000001
 40
0.0
 40
0.0
 40
0.0
 40
0.0
 40
0.0610247948071825
 40
0.136400564174824
 40
0.3842484386352599
 40
0.6104818091165067
 40
0.9930447596625351
 40
1.379335532627083
 40
1.932223380056389
 40
2.483948770324488
 40
3.186800883408651
 40
3.889794111714834
 40
4.724457485783661
 40
5.559056678792222
 40
6.500695688451016
 40
7.442328704817267
 40
8.46296447475254
 40
9.483592654818406
 40
10.55264080702998
 40
11.62168641798389
 40
12.70704319347024
 40
13.79239996895654
 40
14.86144557991033
 40
15.93049373212185
 40
16.95112191218766
 40
17.97175768212293
 40
18.91339069848919
 40
19.85502970814792
 40
20.68962890115647
 40
21.52429227522552
 40
22.22728550353173
 40
22.93013761661575
 40
23.48186300688374
 40
24.03475085431311
 40
24.42104162727771
 40
24.80360457782387
 40
25.02983794830497
 40
25.27768582276523
 40
25.35306159216331
 40
25.41408638697068
 40
25.41408638697068
 40
25.41408638697068
 40
25.41408638697068
 10
306.2873649720038
 20
674.4713964099474
 30
0.0
 10
306.290936594711
 20
674.4918500271045
 30
0.0
 10
306.2989197505128
 20
674.5375672666377
 30
0.0
 10
306.3907588240579
 20
674.6329309732797
 30
0.0
 10
306.5345345142437
 20
674.7455976121885
 30
0.0
 10
306.8010369782907
 20
674.8563301287185
 30
0.0
 10
307.1240090167214
 20
674.9317781207783
 30
0.0
 10
307.5520187742341
 20
675.0364879960429
 30
0.0
 10
308.0399770953309
 20
675.1318292873303
 30
0.0
 10
308.6351663366644
 20
675.2258011232636
 30
0.0
 10
309.2825183569242
 20
675.3083816704648
 30
0.0
 10
310.0248382982693
 20
675.3905906925581
 30
0.0
 10
310.8122685117286
 20
675.4634765309244
 30
0.0
 10
311.6799543562036
 20
675.5311838702494
 30
0.0
 10
312.5840660543086
 20
675.5893893558524
 30
0.0
 10
313.5506932499216
 20
675.6406796998688
 30
0.0
 10
314.5441346982019
 20
675.6824299313779
 30
0.0
 10
315.5803840906144
 20
675.7157867455394
 30
0.0
 10
316.6330410380466
 20
675.7394639318397
 30
0.0
 10
317.7074411849205
 20
675.7539508087558
 30
0.0
 10
318.7873649720041
 20
675.7586812810451
 30
0.0
 10
319.8672887590876
 20
675.7539508087558
 30
0.0
 10
320.9416889059614
 20
675.7394639318397
 30
0.0
 10
321.9943458533938
 20
675.7157867455395
 30
0.0
 10
323.0305952458061
 20
675.6824299313776
 30
0.0
 10
324.0240366940864
 20
675.6406796998688
 30
0.0
 10
324.9906638896995
 20
675.5893893558521
 30
0.0
 10
325.8947755878042
 20
675.5311838702493
 30
0.0
 10
326.7624614322795
 20
675.4634765309243
 30
0.0
 10
327.5498916457387
 20
675.3905906925586
 30
0.0
 10
328.2922115870839
 20
675.3083816704643
 30
0.0
 10
328.9395636073435
 20
675.2258011232638
 30
0.0
 10
329.5347528486773
 20
675.1318292873304
 30
0.0
 10
330.0227111697737
 20
675.0364879960421
 30
0.0
 10
330.4507209272869
 20
674.931778120778
 30
0.0
 10
330.7736929657162
 20
674.8563301287177
 30
0.0
 10
331.0401954297669
 20
674.7455976121894
 30
0.0
 10
331.1839711199507
 20
674.6329309732708
 30
0.0
 10
331.2758101935156
 20
674.5375672666235
 30
0.0
 10
331.2837933493024
 20
674.4918500270757
 30
0.0
 10
331.287364972002
 20
674.4713964099167
 30
0.0
 11
306.2873649720038
 21
674.4713964099474
 31
0.0
 11
306.303007387308
 21
674.530382342078
 31
0.0
 11
306.3499346331776
 21
674.5893682741894
 31
0.0
 11
306.5465954407963
 21
674.740209565552
 31
0.0
 11
306.7535348644017
 21
674.8316295447224
 31
0.0
 11
307.1226574685119
 21
674.9321427963085
 31
0.0
 11
307.4986218439408
 21
675.020863421845
 31
0.0
 11
308.0409123425541
 21
675.1285945060436
 31
0.0
 11
308.5857399205872
 21
675.2155647083746
 31
0.0
 11
309.2826916953675
 21
675.306445486954
 31
0.0
 11
309.9814114927204
 21
675.3838413736141
 31
0.0
 11
310.8124562544156
 21
675.4614786796064
 31
0.0
 11
311.6445080741476
 21
675.5266368060578
 31
0.0
 11
312.5841701348995
 21
675.587622337319
 31
0.0
 11
313.5244744428144
 21
675.6376277860628
 31
0.0
 11
314.5441984058835
 21
675.6807602868814
 31
0.0
 11
315.5642962565141
 21
675.7136579407461
 31
0.0
 11
316.6330704300433
 21
675.7378595127016
 31
0.0
 11
317.7020189379339
 21
675.752267984908
 31
0.0
 11
318.7873649720041
 21
675.7570965081371
 31
0.0
 11
319.8727110060743
 21
675.752267984908
 31
0.0
 11
320.9416595139648
 21
675.7378595127016
 31
0.0
 11
322.0104336874939
 21
675.7136579407461
 31
0.0
 11
323.0305315381244
 21
675.6807602868812
 31
0.0
 11
324.0502555011935
 21
675.6376277860627
 31
0.0
 11
324.9905598091085
 21
675.5876223373187
 31
0.0
 11
325.9302218698604
 21
675.5266368060577
 31
0.0
 11
326.7622736895923
 21
675.4614786796064
 31
0.0
 11
327.5933184512877
 21
675.3838413736141
 31
0.0
 11
328.2920382486407
 21
675.3064454869537
 31
0.0
 11
328.9889900234208
 21
675.2155647083746
 31
0.0
 11
329.5338176014538
 21
675.1285945060436
 31
0.0
 11
330.0761081000671
 21
675.0208634218446
 31
0.0
 11
330.452072475496
 21
674.932142796308
 31
0.0
 11
330.8211950796065
 21
674.8316295447222
 31
0.0
 11
331.0281345032117
 21
674.7402095655519
 31
0.0
 11
331.2247953108299
 21
674.5893682741888
 31
0.0
 11
331.2717225567172
 21
674.5303823420527
 31
0.0
 11
331.287364972002
 21
674.4713964099167
 31
0.0
  0
SPLINE
  5
1F0
330
5B
100
AcDbEntity
  8
1
  6
Continuous
 62
     7
100
AcDbSpline
210
0.0
220
0.0
230
1.0
 70
     8
 71
     3
 72
    43
 73
    39
 74
    37
 42
0.000000001
 43
0.0000000001
 44
0.00000001
 40
0.0
 40
0.0
 40
0.0
 40
0.0
 40
0.248468697776426
 40
0.4756776024192411
 40
0.8590104327022557
 40
1.245834303679261
 40
1.798935429194813
 40
2.350938871392035
 40
3.05399003813194
 40
3.757162938478265
 40
4.591927248453844
 40
5.42663049709463
 40
6.368327748666935
 40
7.310017772939431
 40
8.330679069215362
 40
9.351332728153263
 40
10.42038863221325
 40
11.48944187772251
 40
12.57480046876102
 40
13.66015905976132
 40
14.72921230515827
 40
15.79826820903187
 40
16.81892186772349
 40
17.83958316368809
 40
18.78127318761688
 40
19.72297043879461
 40
20.55767368704569
 40
21.39243799659839
 40
22.09561089656716
 40
22.798662062917
 40
23.35066550480389
 40
23.90376663002561
 40
24.29059050085383
 40
24.6739233311636
 40
24.90113223690728
 40
25.14960093284264
 40
25.22568699049526
 40
25.28762727570953
 40
25.28762727570953
 40
25.28762727570953
 40
25.28762727570953
 10
331.2248751418699
 20
664.6460530175432
 30
0.0
 10
331.1621274422804
 20
664.7010048924659
 30
0.0
 10
331.0420009496023
 20
664.8062067912845
 30
0.0
 10
330.7738464315239
 20
664.9159590363449
 30
0.0
 10
330.4511642768271
 20
664.9944185394518
 30
0.0
 10
330.0228258920135
 20
665.100392949939
 30
0.0
 10
329.5348791855965
 20
665.1973320076537
 30
0.0
 10
328.9396741363645
 20
665.2927876622546
 30
0.0
 10
328.2922864396054
 20
665.3767771283265
 30
0.0
 10
327.5499513286572
 20
665.4603174548076
 30
0.0
 10
326.7625017931944
 20
665.534384019516
 30
0.0
 10
325.8948136413721
 20
665.6031926395823
 30
0.0
 10
324.9906895457241
 20
665.6623481334038
 30
0.0
 10
324.0240593743458
 20
665.7144726595412
 30
0.0
 10
323.0306100347204
 20
665.7569019846414
 30
0.0
 10
321.9943581462456
 20
665.7908013521063
 30
0.0
 10
320.9416957913394
 20
665.8148638747309
 30
0.0
 10
319.8672926433013
 20
665.8295863570896
 30
0.0
 10
318.7873649679472
 20
665.834393803527
 30
0.0
 10
317.7074372925877
 20
665.8295863567505
 30
0.0
 10
316.6330341447976
 20
665.8148638737882
 30
0.0
 10
315.5803717896127
 20
665.790801351651
 30
0.0
 10
314.5441199030673
 20
665.7569019808395
 30
0.0
 10
313.5506705577423
 20
665.7144726662993
 30
0.0
 10
312.5840404075125
 20
665.6623481023828
 30
0.0
 10
311.6799162389175
 20
665.6031927407416
 30
0.0
 10
310.8122283316856
 20
665.534383679714
 30
0.0
 10
310.0247779559188
 20
665.4603186325626
 30
0.0
 10
309.2824455156299
 20
665.3767734855626
 30
0.0
 10
308.6350489217691
 20
665.2928000814263
 30
0.0
 10
308.0398704003068
 20
665.1972965385867
 30
0.0
 10
307.5518393651056
 20
665.1005097143733
 30
0.0
 10
307.1237273726721
 20
664.9941266131407
 30
0.0
 10
306.8003826646285
 20
664.9168631722429
 30
0.0
 10
306.5338152437344
 20
664.8042458475811
 30
0.0
 10
306.3901706579429
 20
664.6899854112283
 30
0.0
 10
306.298820345571
 20
664.593216975803
 30
0.0
 10
306.2909133142207
 20
664.546943154969
 30
0.0
 10
306.2873649720036
 20
664.5261774564842
 30
0.0
 11
331.2248751418699
 21
664.6460530175432
 31
0.0
 11
331.0288929689752
 21
664.7987870358671
 31
0.0
 11
330.8216219431872
 21
664.8918601708365
 31
0.0
 11
330.4522621877773
 21
664.9944146900809
 31
0.0
 11
330.0761152569497
 21
665.084670954391
 31
0.0
 11
329.5339332346093
 21
665.1940304947507
 31
0.0
 11
328.98905076124
 21
665.2824097334295
 31
0.0
 11
328.292096585567
 21
665.3747992306018
 31
0.0
 11
327.5933376063047
 21
665.4534631731733
 31
0.0
 11
326.7623096261142
 21
665.5323551769654
 31
0.0
 11
325.9302371375015
 21
665.5985736484404
 31
0.0
 11
324.9905816789367
 21
665.6605521252835
 31
0.0
 11
324.050263933035
 21
665.711371781168
 31
0.0
 11
323.0305443129911
 21
665.7552052955291
 31
0.0
 11
322.0104383704336
 21
665.7886381585159
 31
0.0
 11
320.9416654284165
 21
665.8132333465682
 31
0.0
 11
319.8727124698032
 21
665.8278761933097
 31
0.0
 11
318.7873649720041
 21
665.8327832471078
 31
0.0
 11
317.7020174742049
 21
665.8278761933097
 31
0.0
 11
316.6330645155915
 21
665.8132333465682
 31
0.0
 11
315.5642915735745
 21
665.788638158516
 31
0.0
 11
314.5441856310171
 21
665.7552052955293
 31
0.0
 11
313.524466010973
 21
665.711371781168
 31
0.0
 11
312.5841482650713
 21
665.6605521252833
 31
0.0
 11
311.6444928065065
 21
665.5985736484404
 31
0.0
 11
310.8124203178939
 21
665.5323551769657
 31
0.0
 11
309.9813923377035
 21
665.4534631731735
 31
0.0
 11
309.2826333584412
 21
665.3747992306019
 31
0.0
 11
308.585679182768
 21
665.2824097334294
 31
0.0
 11
308.0407967093986
 21
665.1940304947506
 31
0.0
 11
307.4986146870582
 21
665.0846709543907
 31
0.0
 11
307.1224677562307
 21
664.9944146900809
 31
0.0
 11
306.7531080008209
 21
664.8918601708366
 31
0.0
 11
306.5458369750328
 21
664.7987870358673
 31
0.0
 11
306.3498548021379
 21
664.6460530175432
 31
0.0
 11
306.3029874295945
 21
664.5861152370137
 31
0.0
 11
306.2873649720036
 21
664.5261774564842
 31
0.0
  0
SPLINE
  5
1F1
330
5B
100
AcDbEntity
  8
1
  6
Continuous
 62
     7
100
AcDbSpline
210
0.0
220
0.0
230
1.0
 70
     8
 71
     3
 72
     9
 73
     5
 74
     3
 42
0.000000001
 43
0.0000000001
 44
0.00000001
 40
0.0
 40
0.0
 40
0.0
 40
0.0
 40
0.0619402814823634
 40
0.1380263369990272
 40
0.1380263369990272
 40
0.1380263369990272
 40
0.1380263369990272
 10
331.2873649720041
 20
664.5261774563782
 30
0.0
 10
331.2838426751351
 20
664.5469901710809
 30
0.0
 10
331.2759936491693
 20
664.5933687522745
 30
0.0
 10
331.2430403998718
 20
664.6273313680177
 30
0.0
 10
331.2248751418699
 20
664.6460530175432
 30
0.0
 11
331.2873649720041
 21
664.5261774563782
 31
0.0
 11
331.2717425144409
 21
664.5861152369607
 31
0.0
 11
331.2248751418699
 21
664.6460530175432
 31
0.0
  0
SPLINE
  5
1F2
330
5B
100
AcDbEntity
  8
1
  6
Continuous
 62
     7
100
AcDbSpline
210
0.0
220
0.0
230
1.0
 70
     8
 71
     3
 72
    45
 73
    41
 74
    39
 42
0.000000001
 43
0.0000000001
 44
0.00000001
 40
0.0
 40
0.0
 40
0.0
 40
0.0
 40
0.0536618384367914
 40
0.1218569265196146
 40
0.3536876503087849
 40
0.5634290064510593
 40
0.9217936592862628
 40
1.284816066125865
 40
1.806815970623998
 40
2.327398434669821
 40
2.99121119778976
 40
3.655251242090489
 40
4.444146973168573
 40
5.23296608771887
 40
6.123202527141523
 40
7.013439104967452
 40
7.978519892250348
 40
8.94359358852085
 40
9.954531682046992
 40
10.96546788981531
 40
11.99185374964909
 40
13.01823960948282
 40
14.02917581725091
 40
15.04011391077711
 40
16.00518760704756
 40
16.97026839433039
 40
17.86050497215643
 40
18.75074141157915
 40
19.53956052612934
 40
20.32845625720747
 40
20.99249630150822
 40
21.65630906462796
 40
22.17689152867388
 40
22.69889143317204
 40
23.06191384001175
 40
23.42027849284701
 40
23.63001984898928
 40
23.86185057277839
 40
23.93004566076126
 40
23.98370749912753
 40
23.98370749912753
 40
23.98370749912753
 40
23.98370749912753
 10
306.9664417262725
 20
661.0453508225283
 30
0.0
 10
306.9699297065669
 20
661.0273958507105
 30
0.0
 10
306.9778503028466
 20
660.9866231530609
 30
0.0
 10
307.0669143270896
 20
660.9028100169612
 30
0.0
 10
307.2034276766532
 20
660.803331518172
 30
0.0
 10
307.4551422489712
 20
660.7069602250596
 30
0.0
 10
307.7588391343523
 20
660.6435201303381
 30
0.0
 10
308.1631315074605
 20
660.5519122744067
 30
0.0
 10
308.6242866710251
 20
660.4681573966216
 30
0.0
 10
309.1872016733673
 20
660.3860743080288
 30
0.0
 10
309.7991912164682
 20
660.3141409023556
 30
0.0
 10
310.5011266856274
 20
660.2423172899569
 30
0.0
 10
311.245694070202
 20
660.1786146937463
 30
0.0
 10
312.066234134231
 20
660.1194663824448
 30
0.0
 10
312.9211759819528
 20
660.0686302996021
 30
0.0
 10
313.8352773193953
 20
660.0238221698816
 30
0.0
 10
314.7747155352638
 20
659.9873483917324
 30
0.0
 10
315.754658990955
 20
659.9582074001053
 30
0.0
 10
316.7501062770274
 20
659.9375235517105
 30
0.0
 10
317.7661257134728
 20
659.9248675013525
 30
0.0
 10
318.787364972004
 20
659.9207350082884
 30
0.0
 10
319.8086042305354
 20
659.9248675013525
 30
0.0
 10
320.8246236669805
 20
659.93752355171
 30
0.0
 10
321.8200709530528
 20
659.9582074001052
 30
0.0
 10
322.8000144087441
 20
659.9873483917327
 30
0.0
 10
323.7394526246126
 20
660.0238221698814
 30
0.0
 10
324.6535539620551
 20
660.0686302996021
 30
0.0
 10
325.5084958097769
 20
660.1194663824449
 30
0.0
 10
326.3290358738058
 20
660.1786146937466
 30
0.0
 10
327.0736032583806
 20
660.2423172899568
 30
0.0
 10
327.7755387275397
 20
660.3141409023558
 30
0.0
 10
328.3875282706405
 20
660.3860743080288
 30
0.0
 10
328.9504432729828
 20
660.4681573966213
 30
0.0
 10
329.4115984365475
 20
660.551912274407
 30
0.0
 10
329.8158908096552
 20
660.643520130338
 30
0.0
 10
330.119587695038
 20
660.7069602250604
 30
0.0
 10
330.3713022673522
 20
660.8033315181698
 30
0.0
 10
330.5078156168996
 20
660.9028100169489
 30
0.0
 10
330.5968796410865
 20
660.9866231529893
 30
0.0
 10
330.6048002374185
 20
661.027395850565
 30
0.0
 10
330.6082882177357
 20
661.0453508223519
 30
0.0
 11
306.9664417262725
 21
661.0453508225283
 31
0.0
 11
306.9813203070821
 21
660.9937928889191
 31
0.0
 11
307.0259560495718
 21
660.9422349553097
 31
0.0
 11
307.2150481686294
 21
660.8081094372398
 31
0.0
 11
307.4092651280227
 21
660.7289184724293
 31
0.0
 11
307.7571408853545
 21
660.6428505841674
 31
0.0
 11
308.1118754736176
 21
660.5657231604127
 31
0.0
 11
308.6252227820979
 21
660.4710741204556
 31
0.0
 11
309.1402265886495
 21
660.3950663527366
 31
0.0
 11
309.7992902072789
 21
660.3158039370383
 31
0.0
 11
310.4598828175942
 21
660.2482274388008
 31
0.0
 11
311.2458545399201
 21
660.1803678375206
 31
0.0
 11
312.0326172294015
 21
660.1234462671753
 31
0.0
 11
312.9212582565373
 21
660.070172990806
 31
0.0
 11
313.8104224931901
 21
660.0264909153209
 31
0.0
 11
314.774767288587
 21
659.9888074933133
 31
0.0
 11
315.7394129661602
 21
659.9600680668225
 31
0.0
 11
316.7501299414092
 21
659.9389251398221
 31
0.0
 11
317.7609877812982
 21
659.9263377593609
 31
0.0
 11
318.7873649720041
 21
659.9221194624155
 31
0.0
 11
319.8137421627099
 21
659.9263377593608
 31
0.0
 11
320.8246000025986
 21
659.938925139822
 31
0.0
 11
321.8353169778477
 21
659.9600680668225
 31
0.0
 11
322.7999626554208
 21
659.9888074933134
 31
0.0
 11
323.7643074508177
 21
660.0264909153209
 31
0.0
 11
324.6534716874706
 21
660.070172990806
 31
0.0
 11
325.5421127146065
 21
660.1234462671753
 31
0.0
 11
326.3288754040878
 21
660.1803678375207
 31
0.0
 11
327.1148471264137
 21
660.2482274388008
 31
0.0
 11
327.775439736729
 21
660.3158039370385
 31
0.0
 11
328.4345033553583
 21
660.3950663527366
 31
0.0
 11
328.94950716191
 21
660.4710741204555
 31
0.0
 11
329.4628544703903
 21
660.5657231604127
 31
0.0
 11
329.8175890586535
 21
660.6428505841674
 31
0.0
 11
330.1654648159853
 21
660.7289184724293
 31
0.0
 11
330.3596817753786
 21
660.8081094372398
 31
0.0
 11
330.5487738944362
 21
660.9422349553096
 31
0.0
 11
330.5934096368752
 21
660.9937928888307
 31
0.0
 11
330.6082882177357
 21
661.0453508223519
 31
0.0
  0
SPLINE
  5
1F3
330
5B
100
AcDbEntity
  8
1
  6
Continuous
 62
     7
100
AcDbSpline
210
0.0
220
0.0
230
1.0
 70
     8
 71
     3
 72
     9
 73
     5
 74
     3
 42
0.000000001
 43
0.0000000001
 44
0.00000001
 40
0.0
 40
0.0
 40
0.0
 40
0.0
 40
0.0536618342741083
 40
0.1218569201557715
 40
0.1218569201557715
 40
0.1218569201557715
 40
0.1218569201557715
 10
330.6082882177357
 20
661.0453508223519
 30
0.0
 10
330.6048145432069
 20
661.0633432343297
 30
0.0
 10
330.596926399498
 20
661.104200941975
 30
0.0
 10
330.5660521404976
 20
661.1325831122839
 30
0.0
 10
330.5487738944362
 20
661.148466689641
 30
0.0
 11
330.6082882177357
 21
661.0453508223519
 31
0.0
 11
330.5934096369464
 21
661.0969087559965
 31
0.0
 11
330.5487738944362
 21
661.148466689641
 31
0.0
  0
ARC
  5
1F4
330
5B
100
AcDbEntity
  8
1
  6
Continuous
 62
     7
100
AcDbCircle
 10
531.302633101649
 20
675.5581921290634
 30
0.0
 40
0.1999999999999781
100
AcDbArc
 50
83.99999999993864
 51
173.9999999999966
  0
ARC
  5
1F5
330
5B
100
AcDbEntity
  8
1
  6
Continuous
 62
     7
100
AcDbCircle
 10
555.767871727709
 20
672.9867919326839
 30
0.0
 40
0.1999999999999543
100
AcDbArc
 50
354.0000000000034
 51
84.00000000000342
  0
ARC
  5
1F6
330
5B
100
AcDbEntity
  8
1
  6
Continuous
 62
     7
100
AcDbCircle
 10
531.5627197904455
 20
663.1631040779037
 30
0.0
 40
0.9999999999999968
100
AcDbArc
 50
189.9453959009393
 51
264.0000000000177
  0
ARC
  5
1F7
330
5B
100
AcDbEntity
  8
1
  6
Continuous
 62
     7
100
AcDbCircle
 10
552.9363848425332
 20
660.9166413577834
 30
0.0
 40
0.9999999999999738
100
AcDbArc
 50
264.0000000000177
 51
338.0546040990893
  0
ENDBLK
  5
5D
330
5B
100
AcDbEntity
  8
0
100
AcDbBlockEnd
  0
BLOCK
  5
61
330
5E
100
AcDbEntity
  8
0
100
AcDbBlockBegin
  2
61-115AX-M1
 70
     0
 10
1050.0
 20
1485.0
 30
0.0
  3
61-115AX-M1
  1

  0
INSERT
  5
5F
330
5E
100
AcDbEntity
  8
0
100
AcDbBlockReference
  2
61-115A-M1
 10
2129.180008753819
 20
471.2513272950021
 30
0.0
 41
1.0
 42
1.0
 43
1.0
  0
INSERT
  5
60
330
5E
100
AcDbEntity
  8
0
100
AcDbBlockReference
  2
82-20-M21
 10
1420.170698129186
 20
171.7455555563306
 30
0.0
 41
1.0
 42
1.0
 43
1.0
  0
LINE
  5
1F8
330
5E
100
AcDbEntity
  8
1
  6
PHANTOM
 62
     4
100
AcDbLine
 10
318.7873649720041
 20
523.5126672444353
 30
0.0
 11
318.7873649720041
 21
710.1967213897904
 31
0.0
  0
LINE
  5
1F9
330
5E
100
AcDbEntity
  8
1
  6
PHANTOM
 62
     4
100
AcDbLine
 10
318.7873649720041
 20
954.6832504524393
 30
0.0
 11
318.7873649720042
 21
1182.140804714027
 31
0.0
  0
LINE
  5
1FA
330
5E
100
AcDbEntity
  8
1
  6
PHANTOM
 62
     4
100
AcDbLine
 10
563.1470239481976
 20
682.9688097393025
 30
0.0
 11
528.7413566457515
 21
686.5849910899337
 31
0.0
  0
LINE
  5
1FB
330
5E
100
AcDbEntity
  8
1
  6
PHANTOM
 62
     4
100
AcDbLine
 10
576.7249171898325
 20
681.5417156536205
 30
0.0
 11
563.1470239481976
 21
682.9688097393025
 31
0.0
  0
LINE
  5
1FC
330
5E
100
AcDbEntity
  8
1
  6
PHANTOM
 62
     4
100
AcDbLine
 10
648.049900089537
 20
654.6318533651583
 30
0.0
 11
783.7873649720041
 21
558.376690013675
 31
0.0
  0
LINE
  5
1FD
330
5E
100
AcDbEntity
  8
1
  6
PHANTOM
 62
     4
100
AcDbLine
 10
798.7873649720041
 20
535.0126672444353
 30
0.0
 11
798.7873649720041
 21
585.6126672444352
 31
0.0
  0
LINE
  5
1FE
330
5E
100
AcDbEntity
  8
1
  6
PHANTOM
 62
     4
100
AcDbLine
 10
798.7873649720041
 20
585.6126672444352
 30
0.0
 11
798.7873649720041
 21
588.6245902065243
 31
0.0
  0
ARC
  5
1FF
330
5E
100
AcDbEntity
  8
1
  6
PHANTOM
 62
     4
100
AcDbCircle
 10
560.9933834680392
 20
531.8661704006986
 30
0.0
 40
150.4999999999979
100
AcDbArc
 50
54.65849966865272
 51
83.99999999999554
  0
ENDBLK
  5
62
330
5E
100
AcDbEntity
  8
0
100
AcDbBlockEnd
  0
BLOCK
  5
64
330
63
100
AcDbEntity
  8
0
100
AcDbBlockBegin
  2
01-76
 70
     0
 10
0.0
 20
1485.0
 30
0.0
  3
01-76
  1

  0
LINE
  5
200
330
63
100
AcDbEntity
  8
1
  6
Continuous
 62
     7
100
AcDbLine
 10
788.5373649720042
 20
475.6362897557898
 30
0.0
 11
788.5373649720041
 21
473.6362897557896
 31
0.0
  0
LINE
  5
201
330
63
100
AcDbEntity
  8
1
  6
PHANTOM
 62
     4
100
AcDbLine
 10
798.7873649720041
 20
470.6362897557896
 30
0.0
 11
798.7873649720041
 21
501.1362897557896
 31
0.0
  0
LINE
  5
202
330
63
100
AcDbEntity
  8
1
  6
Continuous
 62
     7
100
AcDbLine
 10
809.0373649720041
 20
473.6362897557896
 30
0.0
 11
809.0373649720041
 21
475.6362897557898
 31
0.0
  0
LINE
  5
203
330
63
100
AcDbEntity
  8
1
  6
Continuous
 62
     7
100
AcDbLine
 10
788.5373649720041
 20
473.6362897557896
 30
0.0
 11
809.0373649720041
 21
473.6362897557896
 31
0.0
  0
LINE
  5
204
330
63
100
AcDbEntity
  8
1
  6
Continuous
 62
     7
100
AcDbLine
 10
227.5373649720041
 20
475.6362897557893
 30
0.0
 11
227.5373649720041
 21
473.6362897557897
 31
0.0
  0
LINE
  5
205
330
63
100
AcDbEntity
  8
1
  6
Continuous
 62
     7
100
AcDbLine
 10
430.5373649720041
 20
475.6362897557893
 30
0.0
 11
430.5373649720041
 21
473.6362897557897
 31
0.0
  0
LINE
  5
206
330
63
100
AcDbEntity
  8
1
  6
Continuous
 62
     7
100
AcDbLine
 10
207.0373649720041
 20
473.6362897557897
 30
0.0
 11
207.0373649720041
 21
475.6362897557893
 31
0.0
  0
LINE
  5
207
330
63
100
AcDbEntity
  8
1
  6
Continuous
 62
     7
100
AcDbLine
 10
207.0373649720041
 20
473.6362897557897
 30
0.0
 11
227.5373649720041
 21
473.6362897557897
 31
0.0
  0
LINE
  5
208
330
63
100
AcDbEntity
  8
1
  6
PHANTOM
 62
     4
100
AcDbLine
 10
217.2873649720041
 20
497.6362897557897
 30
0.0
 11
217.2873649720041
 21
470.6362897557897
 31
0.0
  0
LINE
  5
209
330
63
100
AcDbEntity
  8
1
  6
PHANTOM
 62
     4
100
AcDbLine
 10
420.2873649720041
 20
470.6362897557897
 30
0.0
 11
420.2873649720041
 21
497.6362897557897
 31
0.0
  0
LINE
  5
20A
330
63
100
AcDbEntity
  8
1
  6
Continuous
 62
     7
100
AcDbLine
 10
410.0373649720041
 20
473.6362897557897
 30
0.0
 11
430.5373649720041
 21
473.6362897557897
 31
0.0
  0
LINE
  5
20B
330
63
100
AcDbEntity
  8
1
  6
Continuous
 62
     7
100
AcDbLine
 10
410.0373649720041
 20
473.6362897557897
 30
0.0
 11
410.0373649720041
 21
475.6362897557893
 31
0.0
  0
ENDBLK
  5
65
330
63
100
AcDbEntity
  8
0
100
AcDbBlockEnd
  0
BLOCK
  5
67
330
66
100
AcDbEntity
  8
0
100
AcDbBlockBegin
  2
50-13
 70
     0
 10
1050.0
 20
1485.0
 30
0.0
  3
50-13
  1

  0
LINE
  5
20C
330
66
100
AcDbEntity
  8
1
  6
PHANTOM
 62
     4
100
AcDbLine
 10
192.7873649720036
 20
1243.31861157283
 30
0.0
 11
444.7873649720038
 21
1243.31861157283
 31
0.0
  0
LINE
  5
20D
330
66
100
AcDbEntity
  8
1
  6
PHANTOM
 62
     4
100
AcDbLine
 10
318.7873649720041
 20
1271.361000168887
 30
0.0
 11
318.7873649720041
 21
1215.276222976772
 31
0.0
  0
LINE
  5
20E
330
66
100
AcDbEntity
  8
1
  6
PHANTOM
 62
     4
100
AcDbLine
 10
419.7873649720041
 20
1268.318611572829
 30
0.0
 11
419.7873649720041
 21
1218.31861157283
 31
0.0
  0
LINE
  5
20F
330
66
100
AcDbEntity
  8
1
  6
PHANTOM
 62
     4
100
AcDbLine
 10
217.7873649720041
 20
1268.31861157283
 30
0.0
 11
217.7873649720041
 21
1218.318611572829
 31
0.0
  0
LINE
  5
210
330
66
100
AcDbEntity
  8
1
  6
Continuous
 62
     7
100
AcDbLine
 10
776.5373649720043
 20
498.6362897557898
 30
0.0
 11
821.037364972004
 21
498.6362897557898
 31
0.0
  0
LINE
  5
211
330
66
100
AcDbEntity
  8
1
  6
Continuous
 62
     7
100
AcDbLine
 10
298.0452455330144
 20
498.6362897557893
 30
0.0
 11
339.0452455330144
 21
498.6362897557893
 31
0.0
  0
LINE
  5
212
330
66
100
AcDbEntity
  8
1
  6
PHANTOM
 62
     4
100
AcDbLine
 10
318.7873649720041
 20
510.1362897557896
 30
0.0
 11
318.7873649720041
 21
472.6362897557893
 31
0.0
  0
LINE
  5
213
330
66
100
AcDbEntity
  8
1
  6
PHANTOM
 62
     4
100
AcDbLine
 10
798.7873649720042
 20
472.6362897557898
 30
0.0
 11
798.7873649720042
 21
503.13628975579
 31
0.0
  0
LINE
  5
214
330
66
100
AcDbEntity
  8
1
  6
Continuous
 62
     7
100
AcDbLine
 10
823.8297535680612
 20
475.6362897557898
 30
0.0
 11
822.8297535680612
 21
475.6362897557898
 31
0.0
  0
LINE
  5
215
330
66
100
AcDbEntity
  8
1
  6
Continuous
 62
     7
100
AcDbLine
 10
773.7449763759456
 20
475.6362897557898
 30
0.0
 11
774.7449763759456
 21
475.6362897557898
 31
0.0
  0
LINE
  5
216
330
66
100
AcDbEntity
  8
1
  6
Continuous
 62
     7
100
AcDbLine
 10
774.9949763759456
 20
498.6362897557898
 30
0.0
 11
776.5373649720043
 21
498.6362897557898
 31
0.0
  0
LINE
  5
217
330
66
100
AcDbEntity
  8
1
  6
Continuous
 62
     7
100
AcDbLine
 10
822.5797535680612
 20
498.6362897557898
 30
0.0
 11
821.037364972004
 21
498.6362897557898
 31
0.0
  0
LINE
  5
218
330
66
100
AcDbEntity
  8
1
  6
Continuous
 62
     7
100
AcDbLine
 10
823.8297535680612
 20
497.3862897557898
 30
0.0
 11
823.8297535680612
 21
475.6362897557898
 31
0.0
  0
LINE
  5
219
330
66
100
AcDbEntity
  8
1
  6
Continuous
 62
     7
100
AcDbLine
 10
773.7449763759456
 20
497.3862897557898
 30
0.0
 11
773.7449763759456
 21
475.6362897557898
 31
0.0
  0
LINE
  5
21A
330
66
100
AcDbEntity
  8
1
  6
Continuous
 62
     7
100
AcDbLine
 10
341.7873649720038
 20
498.6362897557893
 30
0.0
 11
342.7873649720036
 21
498.6362897557893
 31
0.0
  0
LINE
  5
21B
330
66
100
AcDbEntity
  8
1
  6
Continuous
 62
     7
100
AcDbLine
 10
441.7873649720041
 20
475.6362897557893
 30
0.0
 11
441.7873649720036
 21
491.973527284097
 31
0.0
  0
LINE
  5
21C
330
66
100
AcDbEntity
  8
1
  6
Continuous
 62
     7
100
AcDbLine
 10
195.7873649720041
 20
475.6362897557893
 30
0.0
 11
441.7873649720041
 21
475.6362897557893
 31
0.0
  0
LINE
  5
21D
330
66
100
AcDbEntity
  8
1
  6
Continuous
 62
     7
100
AcDbLine
 10
195.7873649720041
 20
491.973527284097
 30
0.0
 11
195.7873649720041
 21
475.6362897557893
 31
0.0
  0
LINE
  5
21E
330
66
100
AcDbEntity
  8
1
  6
Continuous
 62
     7
100
AcDbLine
 10
294.7873649720041
 20
498.6362897557893
 30
0.0
 11
295.7873649720043
 21
498.6362897557893
 31
0.0
  0
LINE
  5
21F
330
66
100
AcDbEntity
  8
0
  6
Continuous
 62
     7
100
AcDbLine
 10
776.7873649720043
 20
498.8862897557898
 30
0.0
 11
776.7873649720043
 21
499.1362897557897
 31
0.0
  0
LINE
  5
220
330
66
100
AcDbEntity
  8
0
  6
Continuous
 62
     7
100
AcDbLine
 10
774.7449763759456
 20
475.6362897557898
 30
0.0
 11
822.8297535680612
 21
475.6362897557898
 31
0.0
  0
LINE
  5
221
330
66
100
AcDbEntity
  8
0
  6
Continuous
 62
     7
100
AcDbLine
 10
820.787364972004
 20
499.1328266489742
 30
0.0
 11
820.787364972004
 21
498.8862897557898
 31
0.0
  0
ARC
  5
222
330
66
100
AcDbEntity
  8
1
  6
Continuous
 62
     7
100
AcDbCircle
 10
217.7873649720041
 20
1243.31861157283
 30
0.0
 40
21.99999999999915
100
AcDbArc
 50
93.45075904091468
 51
180.0
  0
ARC
  5
223
330
66
100
AcDbEntity
  8
1
  6
Continuous
 62
     7
100
AcDbCircle
 10
419.7873649720041
 20
1243.31861157283
 30
0.0
 40
22.00000000000097
100
AcDbArc
 50
273.4507590409144
 51
0.0
  0
ARC
  5
224
330
66
100
AcDbEntity
  8
1
  6
Continuous
 62
     7
100
AcDbCircle
 10
318.787364972004
 20
-431.6389998311354
 30
0.0
 40
1700.000000000022
100
AcDbArc
 50
86.54924095908557
 51
90.0
  0
ARC
  5
225
330
66
100
AcDbEntity
  8
1
  6
Continuous
 62
     7
100
AcDbCircle
 10
318.787364972004
 20
2918.276222976794
 30
0.0
 40
1700.000000000022
100
AcDbArc
 50
270.788027927101
 51
273.4507590409144
  0
ARC
  5
226
330
66
100
AcDbEntity
  8
1
  6
Continuous
 62
     7
100
AcDbCircle
 10
419.7873649720041
 20
1243.31861157283
 30
0.0
 40
21.99999999999966
100
AcDbArc
 50
0.0
 51
86.54924095908532
  0
ARC
  5
227
330
66
100
AcDbEntity
  8
1
  6
Continuous
 62
     7
100
AcDbCircle
 10
217.7873649720041
 20
1243.31861157283
 30
0.0
 40
22.00000000000051
100
AcDbArc
 50
180.0
 51
266.5492409590856
  0
ARC
  5
228
330
66
100
AcDbEntity
  8
1
  6
Continuous
 62
     7
100
AcDbCircle
 10
318.787364972004
 20
-431.6389998311354
 30
0.0
 40
1700.000000000022
100
AcDbArc
 50
90.0
 51
93.45075904091442
  0
ARC
  5
229
330
66
100
AcDbEntity
  8
1
  6
Continuous
 62
     7
100
AcDbCircle
 10
342.7873649719911
 20
-1201.363710244689
 30
0.0
 40
1700.000000000478
100
AcDbArc
 50
86.78894490300496
 51
89.99999999999957
  0
ARC
  5
22A
330
66
100
AcDbEntity
  8
1
  6
Continuous
 62
     7
100
AcDbCircle
 10
294.7873649720166
 20
-1201.363710244689
 30
0.0
 40
1700.000000000478
100
AcDbArc
 50
90.00000000000043
 51
93.21105509699505
  0
ARC
  5
22B
330
66
100
AcDbEntity
  8
1
  6
Continuous
 62
     7
100
AcDbCircle
 10
318.787364972004
 20
2918.276222976794
 30
0.0
 40
1700.000000000023
100
AcDbArc
 50
266.5492409590856
 51
269.211972072899
  0
ARC
  5
22C
330
66
100
AcDbEntity
  8
1
  6
Continuous
 62
     7
100
AcDbCircle
 10
822.5797535680612
 20
497.3862897557898
 30
0.0
 40
1.25
100
AcDbArc
 50
0.0
 51
90.0
  0
ARC
  5
22D
330
66
100
AcDbEntity
  8
1
  6
Continuous
 62
     7
100
AcDbCircle
 10
774.9949763759456
 20
497.3862897557898
 30
0.0
 40
1.25
100
AcDbArc
 50
90.0
 51
180.0
  0
ARC
  5
22E
330
66
100
AcDbEntity
  8
1
  6
Continuous
 62
     7
100
AcDbCircle
 10
437.7873649720036
 20
491.973527284097
 30
0.0
 40
4.0
100
AcDbArc
 50
0.0
 51
86.78894490300449
  0
ARC
  5
22F
330
66
100
AcDbEntity
  8
1
  6
Continuous
 62
     7
100
AcDbCircle
 10
199.7873649720041
 20
491.973527284097
 30
0.0
 40
4.000000000000116
100
AcDbArc
 50
93.21105509699429
 51
180.0
  0
ARC
  5
230
330
66
100
AcDbEntity
  8
0
  6
Continuous
 62
     7
100
AcDbCircle
 10
341.7873649720038
 20
499.6362897557895
 30
0.0
 40
1.00000000000019
100
AcDbArc
 50
210.2293830147343
 51
270.0
  0
ARC
  5
231
330
66
100
AcDbEntity
  8
0
  6
Continuous
 62
     7
100
AcDbCircle
 10
776.5373649720043
 20
498.8862897557898
 30
0.0
 40
0.25
100
AcDbArc
 50
270.0
 51
0.0
  0
ARC
  5
232
330
66
100
AcDbEntity
  8
0
  6
Continuous
 62
     7
100
AcDbCircle
 10
821.037364972004
 20
498.8862897557898
 30
0.0
 40
0.25
100
AcDbArc
 50
180.0
 51
270.0
  0
ARC
  5
233
330
66
100
AcDbEntity
  8
0
  6
Continuous
 62
     7
100
AcDbCircle
 10
295.7873649720043
 20
499.6362897557895
 30
0.0
 40
1.000000000000227
100
AcDbArc
 50
270.0
 51
329.7706169852607
  0
ENDBLK
  5
68
330
66
100
AcDbEntity
  8
0
100
AcDbBlockEnd
  0
BLOCK
  5
6A
330
69
100
AcDbEntity
  8
0
100
AcDbBlockBegin
  2
32-16__5
 70
     0
 10
0.0
 20
1485.0
 30
0.0
  3
32-16__5
  1

  0
LINE
  5
234
330
69
100
AcDbEntity
  8
1
  6
PHANTOM
 62
     4
100
AcDbLine
 10
217.2873649720033
 20
359.6362897557896
 30
0.0
 11
217.2873649720033
 21
379.6362897557896
 31
0.0
  0
LINE
  5
235
330
69
100
AcDbEntity
  8
1
  6
Continuous
 62
     7
100
AcDbLine
 10
229.287369423245
 20
376.6362897557896
 30
0.0
 11
230.5373649720035
 21
375.9146044892283
 31
0.0
  0
LINE
  5
236
330
69
100
AcDbEntity
  8
1
  6
Continuous
 62
     7
100
AcDbLine
 10
230.5373649720035
 20
363.3579750223511
 30
0.0
 11
230.5373649720035
 21
375.9146044892283
 31
0.0
  0
LINE
  5
237
330
69
100
AcDbEntity
  8
1
  6
Continuous
 62
     7
100
AcDbLine
 10
230.5373649720035
 20
363.3579750223511
 30
0.0
 11
229.287369423245
 21
362.6362897557896
 31
0.0
  0
LINE
  5
238
330
69
100
AcDbEntity
  8
1
  6
Continuous
 62
     7
100
AcDbLine
 10
230.4886954491972
 20
375.9146044892283
 30
0.0
 11
230.5373649720035
 21
375.9146044892283
 31
0.0
  0
LINE
  5
239
330
69
100
AcDbEntity
  8
1
  6
Continuous
 62
     7
100
AcDbLine
 10
230.4886954491972
 20
363.3579750223511
 30
0.0
 11
230.5373649720035
 21
363.3579750223511
 31
0.0
  0
LINE
  5
23A
330
69
100
AcDbEntity
  8
1
  6
Continuous
 62
     7
100
AcDbLine
 10
230.4886954491972
 20
375.9146044892283
 30
0.0
 11
230.4886954491972
 21
363.3579750223511
 31
0.0
  0
LINE
  5
23B
330
69
100
AcDbEntity
  8
1
  6
Continuous
 62
     7
100
AcDbLine
 10
222.9054162355644
 20
375.9146044892283
 30
0.0
 11
224.870644185636
 21
375.9146044892283
 31
0.0
  0
LINE
  5
23C
330
69
100
AcDbEntity
  8
1
  6
Continuous
 62
     7
100
AcDbLine
 10
222.9054162355644
 20
363.3579750223511
 30
0.0
 11
224.870644185636
 21
363.3579750223511
 31
0.0
  0
LINE
  5
23D
330
69
100
AcDbEntity
  8
1
  6
Continuous
 62
     7
100
AcDbLine
 10
224.870644185636
 20
363.3579750223511
 30
0.0
 11
224.870644185636
 21
375.9146044892283
 31
0.0
  0
LINE
  5
23E
330
69
100
AcDbEntity
  8
1
  6
Continuous
 62
     7
100
AcDbLine
 10
222.9054162355644
 20
375.9146044892283
 30
0.0
 11
222.9054162355644
 21
363.3579750223511
 31
0.0
  0
LINE
  5
23F
330
69
100
AcDbEntity
  8
1
  6
Continuous
 62
     7
100
AcDbLine
 10
211.6693137084423
 20
363.3579750223511
 30
0.0
 11
211.6693137084423
 21
375.9146044892283
 31
0.0
  0
LINE
  5
240
330
69
100
AcDbEntity
  8
1
  6
Continuous
 62
     7
100
AcDbLine
 10
209.7040857583705
 20
375.9146044892283
 30
0.0
 11
209.7040857583705
 21
363.3579750223511
 31
0.0
  0
LINE
  5
241
330
69
100
AcDbEntity
  8
1
  6
Continuous
 62
     7
100
AcDbLine
 10
209.7040857583705
 20
363.3579750223511
 30
0.0
 11
211.6693137084423
 21
363.3579750223511
 31
0.0
  0
LINE
  5
242
330
69
100
AcDbEntity
  8
1
  6
Continuous
 62
     7
100
AcDbLine
 10
209.7040857583705
 20
375.9146044892283
 30
0.0
 11
211.6693137084423
 21
375.9146044892283
 31
0.0
  0
LINE
  5
243
330
69
100
AcDbEntity
  8
1
  6
Continuous
 62
     7
100
AcDbLine
 10
204.0860344948096
 20
363.3579750223511
 30
0.0
 11
204.0860344948096
 21
375.9146044892283
 31
0.0
  0
LINE
  5
244
330
69
100
AcDbEntity
  8
1
  6
Continuous
 62
     7
100
AcDbLine
 10
204.0373649720033
 20
363.3579750223511
 30
0.0
 11
204.0860344948096
 21
363.3579750223511
 31
0.0
  0
LINE
  5
245
330
69
100
AcDbEntity
  8
1
  6
Continuous
 62
     7
100
AcDbLine
 10
204.0373649720033
 20
375.9146044892283
 30
0.0
 11
204.0860344948096
 21
375.9146044892283
 31
0.0
  0
LINE
  5
246
330
69
100
AcDbEntity
  8
1
  6
Continuous
 62
     7
100
AcDbLine
 10
205.2873605207618
 20
362.6362897557896
 30
0.0
 11
204.0373649720033
 21
363.3579750223511
 31
0.0
  0
LINE
  5
247
330
69
100
AcDbEntity
  8
1
  6
Continuous
 62
     7
100
AcDbLine
 10
204.0373649720033
 20
375.9146044892283
 30
0.0
 11
204.0373649720033
 21
369.6362897557897
 31
0.0
  0
LINE
  5
248
330
69
100
AcDbEntity
  8
1
  6
Continuous
 62
     7
100
AcDbLine
 10
205.2873605207618
 20
376.6362897557896
 30
0.0
 11
229.287369423245
 21
376.6362897557896
 31
0.0
  0
LINE
  5
249
330
69
100
AcDbEntity
  8
1
  6
Continuous
 62
     7
100
AcDbLine
 10
204.0373649720033
 20
375.9146044892283
 30
0.0
 11
205.2873605207618
 21
376.6362897557896
 31
0.0
  0
LINE
  5
24A
330
69
100
AcDbEntity
  8
1
  6
Continuous
 62
     7
100
AcDbLine
 10
205.2873605207618
 20
362.6362897557896
 30
0.0
 11
229.287369423245
 21
362.6362897557896
 31
0.0
  0
LINE
  5
24B
330
69
100
AcDbEntity
  8
1
  6
Continuous
 62
     7
100
AcDbLine
 10
204.0373649720033
 20
369.6362897557897
 30
0.0
 11
204.0373649720033
 21
363.3579750223511
 31
0.0
  0
ARC
  5
24C
330
69
100
AcDbEntity
  8
1
  6
Continuous
 62
     7
100
AcDbCircle
 10
227.6796698174165
 20
370.8086422938628
 30
0.0
 40
5.827647461926826
100
AcDbArc
 50
61.18277603035567
 51
118.8172239696429
  0
ARC
  5
24D
330
69
100
AcDbEntity
  8
1
  6
Continuous
 62
     7
100
AcDbCircle
 10
227.6796698174165
 20
368.4639372177163
 30
0.0
 40
5.827647461926496
100
AcDbArc
 50
241.1827760303557
 51
298.8172239696456
  0
ARC
  5
24E
330
69
100
AcDbEntity
  8
1
  6
Continuous
 62
     7
100
AcDbCircle
 10
217.2873649720033
 20
354.4082278079245
 30
0.0
 40
22.22806194786507
100
AcDbArc
 50
75.35994059492788
 51
104.6400594050719
  0
ARC
  5
24F
330
69
100
AcDbEntity
  8
1
  6
Continuous
 62
     7
100
AcDbCircle
 10
217.2873649720033
 20
384.864351703655
 30
0.0
 40
22.22806194786516
100
AcDbArc
 50
255.3599405949282
 51
284.6400594050721
  0
ARC
  5
250
330
69
100
AcDbEntity
  8
1
  6
Continuous
 62
     7
100
AcDbCircle
 10
206.8950601265901
 20
368.4639372177163
 30
0.0
 40
5.827647461926482
100
AcDbArc
 50
241.182776030356
 51
298.8172239696432
  0
ARC
  5
251
330
69
100
AcDbEntity
  8
1
  6
Continuous
 62
     7
100
AcDbCircle
 10
206.8950601265901
 20
370.8086422938628
 30
0.0
 40
5.82764746192669
100
AcDbArc
 50
61.18277603035811
 51
118.8172239696426
  0
ENDBLK
  5
6B
330
69
100
AcDbEntity
  8
0
100
AcDbBlockEnd
  0
BLOCK
  5
6D
330
6C
100
AcDbEntity
  8
0
100
AcDbBlockBegin
  2
35-276__6
 70
     0
 10
0.0
 20
1485.0
 30
0.0
  3
35-276__6
  1

  0
LINE
  5
252
330
6C
100
AcDbEntity
  8
1
  6
Continuous
 62
     7
100
AcDbLine
 10
206.8098649720041
 20
473.6362897557895
 30
0.0
 11
206.8098649720041
 21
459.6362897557892
 31
0.0
  0
LINE
  5
253
330
6C
100
AcDbEntity
  8
1
  6
Continuous
 62
     2
100
AcDbLine
 10
226.6028649720041
 20
459.6362897557895
 30
0.0
 11
226.6028649720041
 21
469.6362897557896
 31
0.0
  0
LINE
  5
254
330
6C
100
AcDbEntity
  8
1
  6
Continuous
 62
     2
100
AcDbLine
 10
207.9718649720041
 20
459.6362897557895
 30
0.0
 11
207.9718649720041
 21
469.6362897557895
 31
0.0
  0
LINE
  5
255
330
6C
100
AcDbEntity
  8
1
  6
Continuous
 62
     7
100
AcDbLine
 10
227.7648649720041
 20
473.6362897557895
 30
0.0
 11
227.7648649720041
 21
459.6362897557895
 31
0.0
  0
LINE
  5
256
330
6C
100
AcDbEntity
  8
1
  6
PHANTOM
 62
     4
100
AcDbLine
 10
217.2873649720041
 20
482.1362897557895
 30
0.0
 11
217.2873649720041
 21
415.1362897557895
 31
0.0
  0
LINE
  5
257
330
6C
100
AcDbEntity
  8
1
  6
Continuous
 62
     7
100
AcDbLine
 10
206.8098649720041
 20
469.6362897557895
 30
0.0
 11
227.7648649720041
 21
469.6362897557896
 31
0.0
  0
LINE
  5
258
330
6C
100
AcDbEntity
  8
0
  6
Continuous
 62
     2
100
AcDbLine
 10
206.8098649720041
 20
471.6489327941845
 30
0.0
 11
207.9718649720041
 21
469.6362897557895
 31
0.0
  0
LINE
  5
259
330
6C
100
AcDbEntity
  8
0
  6
Continuous
 62
     2
100
AcDbLine
 10
226.6028649720041
 20
469.6362897557896
 30
0.0
 11
227.7648649720041
 21
471.6489327941846
 31
0.0
  0
LINE
  5
25A
330
6C
100
AcDbEntity
  8
1
  6
Continuous
 62
     7
100
AcDbLine
 10
206.8098649720041
 20
473.6362897557895
 30
0.0
 11
207.0373649720041
 21
473.6362897557898
 31
0.0
  0
LINE
  5
25B
330
6C
100
AcDbEntity
  8
1
  6
Continuous
 62
     7
100
AcDbLine
 10
227.7648649720041
 20
473.6362897557895
 30
0.0
 11
227.5373649720041
 21
473.6362897557898
 31
0.0
  0
LINE
  5
25C
330
6C
100
AcDbEntity
  8
1
  6
Continuous
 62
     2
100
AcDbLine
 10
226.6028649720041
 20
424.6362897557895
 30
0.0
 11
226.6028649720041
 21
449.6362897557895
 31
0.0
  0
LINE
  5
25D
330
6C
100
AcDbEntity
  8
1
  6
Continuous
 62
     2
100
AcDbLine
 10
207.9718649720041
 20
424.6362897557895
 30
0.0
 11
207.9718649720041
 21
449.6362897557895
 31
0.0
  0
LINE
  5
25E
330
6C
100
AcDbEntity
  8
1
  6
Continuous
 62
     7
100
AcDbLine
 10
227.7648649720041
 20
449.6362897557895
 30
0.0
 11
227.7648649720041
 21
424.6362897557895
 31
0.0
  0
LINE
  5
25F
330
6C
100
AcDbEntity
  8
1
  6
Continuous
 62
     7
100
AcDbLine
 10
206.8098649720017
 20
449.6362897557895
 30
0.0
 11
206.8098649719989
 21
424.6362897557895
 31
0.0
  0
ENDBLK
  5
6E
330
6C
100
AcDbEntity
  8
0
100
AcDbBlockEnd
  0
BLOCK
  5
70
330
6F
100
AcDbEntity
  8
0
100
AcDbBlockBegin
  2
32-16__7
 70
     0
 10
0.0
 20
1485.0
 30
0.0
  3
32-16__7
  1

  0
LINE
  5
260
330
6F
100
AcDbEntity
  8
1
  6
Continuous
 62
     7
100
AcDbLine
 10
408.2873605207623
 20
362.6362897557896
 30
0.0
 11
432.2873694232454
 21
362.6362897557896
 31
0.0
  0
LINE
  5
261
330
6F
100
AcDbEntity
  8
1
  6
Continuous
 62
     7
100
AcDbLine
 10
407.0373649720038
 20
375.9146044892283
 30
0.0
 11
408.2873605207623
 21
376.6362897557896
 31
0.0
  0
LINE
  5
262
330
6F
100
AcDbEntity
  8
1
  6
Continuous
 62
     7
100
AcDbLine
 10
408.2873605207623
 20
376.6362897557896
 30
0.0
 11
432.2873694232454
 21
376.6362897557896
 31
0.0
  0
LINE
  5
263
330
6F
100
AcDbEntity
  8
1
  6
Continuous
 62
     7
100
AcDbLine
 10
407.0373649720038
 20
375.9146044892283
 30
0.0
 11
407.0373649720038
 21
363.3579750223511
 31
0.0
  0
LINE
  5
264
330
6F
100
AcDbEntity
  8
1
  6
Continuous
 62
     7
100
AcDbLine
 10
408.2873605207623
 20
362.6362897557896
 30
0.0
 11
407.0373649720038
 21
363.3579750223511
 31
0.0
  0
LINE
  5
265
330
6F
100
AcDbEntity
  8
1
  6
Continuous
 62
     7
100
AcDbLine
 10
407.0373649720038
 20
375.9146044892283
 30
0.0
 11
407.0860344948101
 21
375.9146044892283
 31
0.0
  0
LINE
  5
266
330
6F
100
AcDbEntity
  8
1
  6
Continuous
 62
     7
100
AcDbLine
 10
407.0373649720038
 20
363.3579750223511
 30
0.0
 11
407.0860344948101
 21
363.3579750223511
 31
0.0
  0
LINE
  5
267
330
6F
100
AcDbEntity
  8
1
  6
Continuous
 62
     7
100
AcDbLine
 10
407.0860344948101
 20
363.3579750223511
 30
0.0
 11
407.0860344948101
 21
375.9146044892283
 31
0.0
  0
LINE
  5
268
330
6F
100
AcDbEntity
  8
1
  6
Continuous
 62
     7
100
AcDbLine
 10
412.7040857583711
 20
375.9146044892283
 30
0.0
 11
414.6693137084428
 21
375.9146044892283
 31
0.0
  0
LINE
  5
269
330
6F
100
AcDbEntity
  8
1
  6
Continuous
 62
     7
100
AcDbLine
 10
412.7040857583711
 20
363.3579750223511
 30
0.0
 11
414.6693137084428
 21
363.3579750223511
 31
0.0
  0
LINE
  5
26A
330
6F
100
AcDbEntity
  8
1
  6
Continuous
 62
     7
100
AcDbLine
 10
412.7040857583711
 20
375.9146044892283
 30
0.0
 11
412.7040857583711
 21
363.3579750223511
 31
0.0
  0
LINE
  5
26B
330
6F
100
AcDbEntity
  8
1
  6
Continuous
 62
     7
100
AcDbLine
 10
414.6693137084428
 20
363.3579750223511
 30
0.0
 11
414.6693137084428
 21
375.9146044892283
 31
0.0
  0
LINE
  5
26C
330
6F
100
AcDbEntity
  8
1
  6
Continuous
 62
     7
100
AcDbLine
 10
425.9054162355649
 20
375.9146044892283
 30
0.0
 11
425.9054162355649
 21
363.3579750223511
 31
0.0
  0
LINE
  5
26D
330
6F
100
AcDbEntity
  8
1
  6
Continuous
 62
     7
100
AcDbLine
 10
427.8706441856366
 20
363.3579750223511
 30
0.0
 11
427.8706441856366
 21
375.9146044892283
 31
0.0
  0
LINE
  5
26E
330
6F
100
AcDbEntity
  8
1
  6
Continuous
 62
     7
100
AcDbLine
 10
425.9054162355649
 20
363.3579750223511
 30
0.0
 11
427.8706441856366
 21
363.3579750223511
 31
0.0
  0
LINE
  5
26F
330
6F
100
AcDbEntity
  8
1
  6
Continuous
 62
     7
100
AcDbLine
 10
425.9054162355649
 20
375.9146044892283
 30
0.0
 11
427.8706441856366
 21
375.9146044892283
 31
0.0
  0
LINE
  5
270
330
6F
100
AcDbEntity
  8
1
  6
Continuous
 62
     7
100
AcDbLine
 10
433.4886954491977
 20
375.9146044892283
 30
0.0
 11
433.4886954491977
 21
363.3579750223511
 31
0.0
  0
LINE
  5
271
330
6F
100
AcDbEntity
  8
1
  6
Continuous
 62
     7
100
AcDbLine
 10
433.4886954491977
 20
363.3579750223511
 30
0.0
 11
433.537364972004
 21
363.3579750223511
 31
0.0
  0
LINE
  5
272
330
6F
100
AcDbEntity
  8
1
  6
Continuous
 62
     7
100
AcDbLine
 10
433.4886954491977
 20
375.9146044892283
 30
0.0
 11
433.537364972004
 21
375.9146044892283
 31
0.0
  0
LINE
  5
273
330
6F
100
AcDbEntity
  8
1
  6
Continuous
 62
     7
100
AcDbLine
 10
433.537364972004
 20
363.3579750223511
 30
0.0
 11
432.2873694232454
 21
362.6362897557896
 31
0.0
  0
LINE
  5
274
330
6F
100
AcDbEntity
  8
1
  6
Continuous
 62
     7
100
AcDbLine
 10
433.537364972004
 20
363.3579750223511
 30
0.0
 11
433.537364972004
 21
375.9146044892283
 31
0.0
  0
LINE
  5
275
330
6F
100
AcDbEntity
  8
1
  6
Continuous
 62
     7
100
AcDbLine
 10
432.2873694232454
 20
376.6362897557896
 30
0.0
 11
433.537364972004
 21
375.9146044892283
 31
0.0
  0
LINE
  5
276
330
6F
100
AcDbEntity
  8
1
  6
Continuous
 62
     7
100
AcDbLine
 10
797.6527400860112
 20
375.9146044892281
 30
0.0
 11
799.9219898579972
 21
375.9146044892281
 31
0.0
  0
LINE
  5
277
330
6F
100
AcDbEntity
  8
1
  6
Continuous
 62
     7
100
AcDbLine
 10
797.6527400860112
 20
363.3579750223508
 30
0.0
 11
797.6527400860112
 21
375.9146044892281
 31
0.0
  0
LINE
  5
278
330
6F
100
AcDbEntity
  8
1
  6
Continuous
 62
     7
100
AcDbLine
 10
787.9219898579971
 20
375.9146044892281
 30
0.0
 11
787.9219898579971
 21
363.3579750223508
 31
0.0
  0
LINE
  5
279
330
6F
100
AcDbEntity
  8
1
  6
Continuous
 62
     7
100
AcDbLine
 10
786.7873649720044
 20
375.9146044892281
 30
0.0
 11
787.9219898579971
 21
375.9146044892281
 31
0.0
  0
LINE
  5
27A
330
6F
100
AcDbEntity
  8
1
  6
Continuous
 62
     7
100
AcDbLine
 10
786.7873649720044
 20
363.3579750223508
 30
0.0
 11
787.9219898579971
 21
363.3579750223508
 31
0.0
  0
LINE
  5
27B
330
6F
100
AcDbEntity
  8
1
  6
Continuous
 62
     7
100
AcDbLine
 10
809.6527400860114
 20
363.3579750223508
 30
0.0
 11
810.7873649720041
 21
363.3579750223508
 31
0.0
  0
LINE
  5
27C
330
6F
100
AcDbEntity
  8
1
  6
Continuous
 62
     7
100
AcDbLine
 10
809.6527400860114
 20
375.9146044892281
 30
0.0
 11
810.7873649720041
 21
375.9146044892281
 31
0.0
  0
LINE
  5
27D
330
6F
100
AcDbEntity
  8
1
  6
Continuous
 62
     7
100
AcDbLine
 10
809.6527400860114
 20
363.3579750223508
 30
0.0
 11
809.6527400860114
 21
375.9146044892281
 31
0.0
  0
LINE
  5
27E
330
6F
100
AcDbEntity
  8
1
  6
Continuous
 62
     7
100
AcDbLine
 10
799.9219898579972
 20
375.9146044892281
 30
0.0
 11
799.9219898579972
 21
363.3579750223508
 31
0.0
  0
LINE
  5
27F
330
6F
100
AcDbEntity
  8
1
  6
Continuous
 62
     7
100
AcDbLine
 10
797.6527400860112
 20
363.3579750223508
 30
0.0
 11
799.9219898579972
 21
363.3579750223508
 31
0.0
  0
LINE
  5
280
330
6F
100
AcDbEntity
  8
1
  6
PHANTOM
 62
     4
100
AcDbLine
 10
798.7873649720042
 20
379.6362897557893
 30
0.0
 11
798.7873649720042
 21
359.6362897557893
 31
0.0
  0
LINE
  5
281
330
6F
100
AcDbEntity
  8
1
  6
PHANTOM
 62
     4
100
AcDbLine
 10
420.2873649720038
 20
359.6362897557896
 30
0.0
 11
420.2873649720038
 21
379.6362897557896
 31
0.0
  0
LINE
  5
282
330
6F
100
AcDbEntity
  8
1
  6
Continuous
 62
     7
100
AcDbLine
 10
786.7873649720044
 20
363.3579750223508
 30
0.0
 11
786.7873649720044
 21
375.9146044892281
 31
0.0
  0
LINE
  5
283
330
6F
100
AcDbEntity
  8
1
  6
Continuous
 62
     7
100
AcDbLine
 10
810.7873649720041
 20
375.9146044892281
 30
0.0
 11
810.7873649720041
 21
363.3579750223508
 31
0.0
  0
LINE
  5
284
330
6F
100
AcDbEntity
  8
1
  6
Continuous
 62
     7
100
AcDbLine
 10
786.7873649720044
 20
375.9146044892281
 30
0.0
 11
786.7873649720044
 21
376.6362897557893
 31
0.0
  0
LINE
  5
285
330
6F
100
AcDbEntity
  8
1
  6
Continuous
 62
     7
100
AcDbLine
 10
786.7873649720044
 20
376.6362897557893
 30
0.0
 11
810.7873649720044
 21
376.6362897557893
 31
0.0
  0
LINE
  5
286
330
6F
100
AcDbEntity
  8
1
  6
Continuous
 62
     7
100
AcDbLine
 10
810.7873649720044
 20
376.6362897557893
 30
0.0
 11
810.7873649720041
 21
375.9146044892281
 31
0.0
  0
LINE
  5
287
330
6F
100
AcDbEntity
  8
1
  6
Continuous
 62
     7
100
AcDbLine
 10
786.7873649720044
 20
362.6362897557896
 30
0.0
 11
786.7873649720044
 21
363.3579750223508
 31
0.0
  0
LINE
  5
288
330
6F
100
AcDbEntity
  8
1
  6
Continuous
 62
     7
100
AcDbLine
 10
810.7873649720044
 20
362.6362897557896
 30
0.0
 11
810.7873649720041
 21
363.3579750223508
 31
0.0
  0
LINE
  5
289
330
6F
100
AcDbEntity
  8
1
  6
Continuous
 62
     7
100
AcDbLine
 10
786.7873649720044
 20
362.6362897557896
 30
0.0
 11
810.7873649720044
 21
362.6362897557896
 31
0.0
  0
ARC
  5
28A
330
6F
100
AcDbEntity
  8
1
  6
Continuous
 62
     7
100
AcDbCircle
 10
409.8950601265906
 20
370.8086422938628
 30
0.0
 40
5.827647461926745
100
AcDbArc
 50
61.18277603035713
 51
118.8172239696424
  0
ARC
  5
28B
330
6F
100
AcDbEntity
  8
1
  6
Continuous
 62
     7
100
AcDbCircle
 10
409.8950601265906
 20
368.4639372177163
 30
0.0
 40
5.827647461926468
100
AcDbArc
 50
241.1827760303563
 51
298.8172239696443
  0
ARC
  5
28C
330
6F
100
AcDbEntity
  8
1
  6
Continuous
 62
     7
100
AcDbCircle
 10
420.2873649720038
 20
384.864351703655
 30
0.0
 40
22.22806194786515
100
AcDbArc
 50
255.3599405949283
 51
284.6400594050722
  0
ARC
  5
28D
330
6F
100
AcDbEntity
  8
1
  6
Continuous
 62
     7
100
AcDbCircle
 10
420.2873649720038
 20
354.4082278079244
 30
0.0
 40
22.2280619478652
100
AcDbArc
 50
75.3599405949278
 51
104.6400594050718
  0
ARC
  5
28E
330
6F
100
AcDbEntity
  8
1
  6
Continuous
 62
     7
100
AcDbCircle
 10
430.6796698174171
 20
368.4639372177163
 30
0.0
 40
5.827647461926496
100
AcDbArc
 50
241.1827760303557
 51
298.8172239696447
  0
ARC
  5
28F
330
6F
100
AcDbEntity
  8
1
  6
Continuous
 62
     7
100
AcDbCircle
 10
430.6796698174171
 20
370.8086422938628
 30
0.0
 40
5.827647461926772
100
AcDbArc
 50
61.18277603035665
 51
118.8172239696429
  0
ARC
  5
290
330
6F
100
AcDbEntity
  8
1
  6
Continuous
 62
     7
100
AcDbCircle
 10
792.7873649720042
 20
359.8750326365708
 30
0.0
 40
16.76125711921861
100
AcDbArc
 50
73.12557511448495
 51
106.874424885515
  0
ARC
  5
291
330
6F
100
AcDbEntity
  8
1
  6
Continuous
 62
     7
100
AcDbCircle
 10
792.7873649720042
 20
379.3975468750082
 30
0.0
 40
16.76125711921867
100
AcDbArc
 50
253.125575114485
 51
286.8744248855149
  0
ARC
  5
292
330
6F
100
AcDbEntity
  8
1
  6
Continuous
 62
     7
100
AcDbCircle
 10
804.7873649720043
 20
379.3975468750082
 30
0.0
 40
16.76125711921867
100
AcDbArc
 50
253.125575114485
 51
286.8744248855149
  0
ARC
  5
293
330
6F
100
AcDbEntity
  8
1
  6
Continuous
 62
     7
100
AcDbCircle
 10
804.7873649720043
 20
359.8750326365708
 30
0.0
 40
16.76125711921861
100
AcDbArc
 50
73.12557511448495
 51
106.874424885515
  0
ENDBLK
  5
71
330
6F
100
AcDbEntity
  8
0
100
AcDbBlockEnd
  0
BLOCK
  5
73
330
72
100
AcDbEntity
  8
0
100
AcDbBlockBegin
  2
73-1-21_5__8
 70
     0
 10
326.0121835635439
 20
475.5234182913308
 30
0.0
  3
73-1-21_5__8
  1

  0
LINE
  5
294
330
72
100
AcDbEntity
  8
1
  6
Continuous
 62
     7
100
AcDbLine
 10
787.0625463804645
 20
455.6362897557895
 30
0.0
 11
789.8580295361289
 21
455.6362897557895
 31
0.0
  0
LINE
  5
295
330
72
100
AcDbEntity
  8
1
  6
Continuous
 62
     7
100
AcDbLine
 10
790.7240549399137
 20
455.6362897557895
 30
0.0
 11
798.2873649636849
 21
455.6362897557895
 31
0.0
  0
LINE
  5
296
330
72
100
AcDbEntity
  8
1
  6
Continuous
 62
     7
100
AcDbLine
 10
811.1565332032959
 20
457.1362897557895
 30
0.0
 11
817.0505319788557
 21
457.1362897557895
 31
0.0
  0
LINE
  5
297
330
72
100
AcDbEntity
  8
1
  6
Continuous
 62
     7
100
AcDbLine
 10
803.6683481589341
 20
457.1362897557895
 30
0.0
 11
810.4494264221096
 21
457.1362897557895
 31
0.0
  0
LINE
  5
298
330
72
100
AcDbEntity
  8
1
  6
Continuous
 62
     7
100
AcDbLine
 10
794.8723076113642
 20
457.1362897557895
 30
0.0
 11
802.702422332645
 21
457.1362897557895
 31
0.0
  0
LINE
  5
299
330
72
100
AcDbEntity
  8
1
  6
Continuous
 62
     7
100
AcDbLine
 10
787.1253035218999
 20
457.1362897557895
 30
0.0
 11
793.9063817850754
 21
457.1362897557895
 31
0.0
  0
LINE
  5
29A
330
72
100
AcDbEntity
  8
1
  6
Continuous
 62
     7
100
AcDbLine
 10
780.5241979651537
 20
457.1362897557895
 30
0.0
 11
786.4181967407135
 21
457.1362897557895
 31
0.0
  0
LINE
  5
29B
330
72
100
AcDbEntity
  8
1
  6
Continuous
 62
     7
100
AcDbLine
 10
820.2873649720048
 20
457.1362897557895
 30
0.0
 11
820.2873649720048
 21
458.1362897557895
 31
0.0
  0
LINE
  5
29C
330
72
100
AcDbEntity
  8
1
  6
Continuous
 62
     7
100
AcDbLine
 10
817.0505319788557
 20
457.1362897557895
 30
0.0
 11
820.2873649720048
 21
457.1362897557895
 31
0.0
  0
LINE
  5
29D
330
72
100
AcDbEntity
  8
1
  6
Continuous
 62
     7
100
AcDbLine
 10
807.7167004078801
 20
455.6362897557895
 30
0.0
 11
810.5121835635448
 21
455.6362897557895
 31
0.0
  0
LINE
  5
29E
330
72
100
AcDbEntity
  8
1
  6
Continuous
 62
     7
100
AcDbLine
 10
799.2873649803242
 20
455.6362897557895
 30
0.0
 11
806.8506750040957
 21
455.6362897557895
 31
0.0
  0
LINE
  5
29F
330
72
100
AcDbEntity
  8
1
  6
Continuous
 62
     7
100
AcDbLine
 10
820.2873649720048
 20
458.1362897557895
 30
0.0
 11
798.7873649720045
 21
458.1362897557895
 31
0.0
  0
LINE
  5
2A0
330
72
100
AcDbEntity
  8
1
  6
Continuous
 62
     7
100
AcDbLine
 10
798.7873649720045
 20
458.1362897557895
 30
0.0
 11
777.2873649720045
 21
458.1362897557895
 31
0.0
  0
LINE
  5
2A1
330
72
100
AcDbEntity
  8
1
  6
Continuous
 62
     7
100
AcDbLine
 10
777.2873649720045
 20
457.1362897557895
 30
0.0
 11
780.5241979651537
 21
457.1362897557895
 31
0.0
  0
LINE
  5
2A2
330
72
100
AcDbEntity
  8
1
  6
Continuous
 62
     7
100
AcDbLine
 10
777.2873649720045
 20
458.1362897557895
 30
0.0
 11
777.2873649720045
 21
457.1362897557895
 31
0.0
  0
LINE
  5
2A3
330
72
100
AcDbEntity
  8
1
  6
Continuous
 62
     7
100
AcDbLine
 10
432.6565332032956
 20
457.1362897557895
 30
0.0
 11
438.5505319788556
 21
457.1362897557895
 31
0.0
  0
LINE
  5
2A4
330
72
100
AcDbEntity
  8
1
  6
Continuous
 62
     7
100
AcDbLine
 10
425.1683481589337
 20
457.1362897557895
 30
0.0
 11
431.9494264221091
 21
457.1362897557895
 31
0.0
  0
LINE
  5
2A5
330
72
100
AcDbEntity
  8
1
  6
Continuous
 62
     7
100
AcDbLine
 10
416.372307611364
 20
457.1362897557895
 30
0.0
 11
424.2024223326445
 21
457.1362897557895
 31
0.0
  0
LINE
  5
2A6
330
72
100
AcDbEntity
  8
1
  6
Continuous
 62
     7
100
AcDbLine
 10
408.6253035218995
 20
457.1362897557895
 30
0.0
 11
415.4063817850749
 21
457.1362897557895
 31
0.0
  0
LINE
  5
2A7
330
72
100
AcDbEntity
  8
1
  6
Continuous
 62
     7
100
AcDbLine
 10
402.0241979651531
 20
457.1362897557895
 30
0.0
 11
407.918196740713
 21
457.1362897557895
 31
0.0
  0
LINE
  5
2A8
330
72
100
AcDbEntity
  8
1
  6
Continuous
 62
     7
100
AcDbLine
 10
441.7873649720045
 20
457.1362897557895
 30
0.0
 11
441.7873649720045
 21
458.1362897557895
 31
0.0
  0
LINE
  5
2A9
330
72
100
AcDbEntity
  8
1
  6
Continuous
 62
     7
100
AcDbLine
 10
438.5505319788556
 20
457.1362897557895
 30
0.0
 11
441.7873649720045
 21
457.1362897557895
 31
0.0
  0
LINE
  5
2AA
330
72
100
AcDbEntity
  8
1
  6
Continuous
 62
     7
100
AcDbLine
 10
429.2167004078797
 20
455.6362897557895
 30
0.0
 11
432.0121835635446
 21
455.6362897557895
 31
0.0
  0
LINE
  5
2AB
330
72
100
AcDbEntity
  8
1
  6
Continuous
 62
     7
100
AcDbLine
 10
420.787364980324
 20
455.6362897557895
 30
0.0
 11
428.3506750040954
 21
455.6362897557895
 31
0.0
  0
LINE
  5
2AC
330
72
100
AcDbEntity
  8
1
  6
Continuous
 62
     7
100
AcDbLine
 10
441.7873649720045
 20
458.1362897557895
 30
0.0
 11
420.2873649720041
 21
458.1362897557895
 31
0.0
  0
LINE
  5
2AD
330
72
100
AcDbEntity
  8
1
  6
Continuous
 62
     7
100
AcDbLine
 10
420.2873649720041
 20
458.1362897557895
 30
0.0
 11
398.7873649720041
 21
458.1362897557895
 31
0.0
  0
LINE
  5
2AE
330
72
100
AcDbEntity
  8
1
  6
Continuous
 62
     7
100
AcDbLine
 10
412.2240549399132
 20
455.6362897557895
 30
0.0
 11
419.7873649636845
 21
455.6362897557895
 31
0.0
  0
LINE
  5
2AF
330
72
100
AcDbEntity
  8
1
  6
Continuous
 62
     7
100
AcDbLine
 10
408.562546380464
 20
455.6362897557895
 30
0.0
 11
411.3580295361289
 21
455.6362897557895
 31
0.0
  0
LINE
  5
2B0
330
72
100
AcDbEntity
  8
1
  6
Continuous
 62
     7
100
AcDbLine
 10
398.7873649720041
 20
457.1362897557895
 30
0.0
 11
402.0241979651531
 21
457.1362897557895
 31
0.0
  0
LINE
  5
2B1
330
72
100
AcDbEntity
  8
1
  6
Continuous
 62
     7
100
AcDbLine
 10
398.7873649720041
 20
458.1362897557895
 30
0.0
 11
398.7873649720041
 21
457.1362897557895
 31
0.0
  0
ARC
  5
2B2
330
72
100
AcDbEntity
  8
1
  6
Continuous
 62
     7
100
AcDbCircle
 10
810.5121835635448
 20
465.6362897557895
 30
0.0
 40
10.0
100
AcDbArc
 50
270.0
 51
295.8419327631683
  0
ARC
  5
2B3
330
72
100
AcDbEntity
  8
1
  6
Continuous
 62
     7
100
AcDbCircle
 10
787.0625463804645
 20
465.6362897557895
 30
0.0
 40
10.0
100
AcDbArc
 50
244.1580672368328
 51
270.0
  0
ARC
  5
2B4
330
72
100
AcDbEntity
  8
1
  6
Continuous
 62
     7
100
AcDbCircle
 10
432.0121835635446
 20
465.6362897557895
 30
0.0
 40
10.0
100
AcDbArc
 50
270.0
 51
295.8419327631672
  0
ARC
  5
2B5
330
72
100
AcDbEntity
  8
1
  6
Continuous
 62
     7
100
AcDbCircle
 10
408.562546380464
 20
465.6362897557895
 30
0.0
 40
9.999999999999929
100
AcDbArc
 50
244.1580672368337
 51
270.0
  0
SPLINE
  5
2B6
330
72
100
AcDbEntity
  8
1
  6
Continuous
 62
     7
100
AcDbSpline
210
0.0
220
0.0
230
1.0
 70
     8
 71
     3
 72
    31
 73
    27
 74
    25
 42
0.000000001
 43
0.0000000001
 44
0.00000001
 40
0.0
 40
0.0
 40
0.0
 40
0.0
 40
0.2709659657161997
 40
0.525226682598816
 40
1.065749191989452
 40
1.674599338716194
 40
2.320394603574376
 40
2.934363293921411
 40
3.290221355349988
 40
3.646480797917748
 40
4.682658411629442
 40
5.750236623409148
 40
6.775822658069119
 40
7.208802824113905
 40
7.646130372373123
 40
8.816358621487888
 40
10.01163910374884
 40
11.17461240969546
 40
11.65874765828532
 40
12.14501675838385
 40
13.08086599532702
 40
14.04099014818383
 40
14.98716394131828
 40
15.89608035491228
 40
16.14448976460322
 40
16.39628796370998
 40
16.39628796370998
 40
16.39628796370998
 40
16.39628796370998
 10
405.3213023192428
 20
456.176145098566
 30
0.0
 10
405.4046988720019
 20
456.1418458162691
 30
0.0
 10
405.5663505152769
 20
456.0753618169676
 30
0.0
 10
405.9130696462059
 20
455.9781955228958
 30
0.0
 10
406.3932140437989
 20
456.1099774278897
 30
0.0
 10
406.8673517096464
 20
456.4770159240886
 30
0.0
 10
407.3458240516878
 20
456.8719636751923
 30
0.0
 10
407.826343632492
 20
457.1441420204652
 30
0.0
 10
408.2722172315632
 20
457.1924015670638
 30
0.0
 10
408.8547988486424
 20
457.1190478281871
 30
0.0
 10
409.5955428831918
 20
456.7112492029069
 30
0.0
 10
410.3924614374397
 20
456.0552857954308
 30
0.0
 10
411.1550771581897
 20
455.6369346585591
 30
0.0
 10
411.7906580407286
 20
455.5792777605338
 30
0.0
 10
412.4714813789457
 20
455.6476215460818
 30
0.0
 10
413.3384515435739
 20
456.0528311470044
 30
0.0
 10
414.2990263795868
 20
456.7156545071532
 30
0.0
 10
415.1756986253212
 20
457.131506963863
 30
0.0
 10
415.8890581226548
 20
457.1980230085529
 30
0.0
 10
416.5259052993699
 20
457.1382427968324
 30
0.0
 10
417.2730512406969
 20
456.8335529347655
 30
0.0
 10
418.0755926899485
 20
456.3321004697811
 30
0.0
 10
418.8812345602885
 20
455.8505595264797
 30
0.0
 10
419.5663665437404
 20
455.6349660693528
 30
0.0
 10
420.0369095517999
 20
455.6267913239059
 30
0.0
 10
420.2035036198682
 20
455.6331093487777
 30
0.0
 10
420.2873649720041
 20
455.6362897557895
 30
0.0
 11
405.3213023192428
 21
456.176145098566
 31
0.0
 11
405.5739458935722
 21
456.0781972460717
 31
0.0
 11
405.8213023192428
 21
456.0193473624497
 31
0.0
 11
406.350025617417
 21
456.1316694625374
 31
0.0
 11
406.8552119492354
 21
456.4715006998227
 31
0.0
 11
407.3676670714249
 21
456.8644908667563
 31
0.0
 11
407.918196740713
 21
457.1362897557895
 31
0.0
 11
408.271548018605
 21
457.1784541299025
 31
0.0
 11
408.6253035218995
 21
457.1362897557895
 31
0.0
 11
409.5623799329455
 21
456.6940773099662
 31
0.0
 11
410.4288713021123
 21
456.0704460533223
 31
0.0
 11
411.3580295361289
 21
455.6362897557895
 31
0.0
 11
411.788857798492
 21
455.593175567501
 31
0.0
 11
412.2240549399132
 21
455.6362897557895
 31
0.0
 11
413.3092336743759
 21
456.0742638067847
 31
0.0
 11
414.3297484590562
 21
456.6965539353728
 31
0.0
 11
415.4063817850749
 21
457.1362897557895
 31
0.0
 11
415.8882728256403
 21
457.1828511576733
 31
0.0
 11
416.372307611364
 21
457.1362897557895
 31
0.0
 11
417.2509979037783
 21
456.8142382616736
 31
0.0
 11
418.0813707784827
 21
456.3322431603994
 31
0.0
 11
418.9109764097877
 21
455.8772713568202
 31
0.0
 11
419.7873649720041
 21
455.6362897557895
 31
0.0
 11
420.0356698720323
 21
455.6290848367968
 31
0.0
 11
420.2873649720041
 21
455.6362897557895
 31
0.0
  0
SPLINE
  5
2B7
330
72
100
AcDbEntity
  8
1
  6
Continuous
 62
     7
100
AcDbSpline
210
0.0
220
0.0
230
1.0
 70
     8
 71
     3
 72
    31
 73
    27
 74
    25
 42
0.000000001
 43
0.0000000001
 44
0.00000001
 40
0.0
 40
0.0
 40
0.0
 40
0.0
 40
0.2709659657160526
 40
0.5252266825988059
 40
1.065749191989498
 40
1.67459933871624
 40
2.320394603574466
 40
2.934363293921604
 40
3.29022135535018
 40
3.646480797917884
 40
4.682658411629629
 40
5.750236623409255
 40
6.77582265806925
 40
7.208802824114093
 40
7.64613037237331
 40
8.816358621488076
 40
10.01163910374898
 40
11.1746124096956
 40
11.65874765828546
 40
12.1450167583841
 40
13.08086599532727
 40
14.04099014818408
 40
14.98716394131843
 40
15.89608035491243
 40
16.1444897646036
 40
16.39628796371053
 40
16.39628796371053
 40
16.39628796371053
 40
16.39628796371053
 10
435.253427624766
 20
456.176145098566
 30
0.0
 10
435.1700310720069
 20
456.141845816269
 30
0.0
 10
435.0083794287319
 20
456.0753618169678
 30
0.0
 10
434.6616602978032
 20
455.9781955228958
 30
0.0
 10
434.1815159002098
 20
456.1099774278897
 30
0.0
 10
433.7073782343624
 20
456.4770159240884
 30
0.0
 10
433.2289058923209
 20
456.8719636751924
 30
0.0
 10
432.7483863115167
 20
457.144142020465
 30
0.0
 10
432.3025127124453
 20
457.1924015670638
 30
0.0
 10
431.7199310953663
 20
457.119047828187
 30
0.0
 10
430.9791870608166
 20
456.7112492029071
 30
0.0
 10
430.1822685065692
 20
456.0552857954308
 30
0.0
 10
429.4196527858188
 20
455.6369346585592
 30
0.0
 10
428.7840719032801
 20
455.5792777605338
 30
0.0
 10
428.103248565063
 20
455.6476215460818
 30
0.0
 10
427.2362784004345
 20
456.0528311470047
 30
0.0
 10
426.2757035644219
 20
456.715654507153
 30
0.0
 10
425.3990313186875
 20
457.131506963863
 30
0.0
 10
424.6856718213537
 20
457.1980230085528
 30
0.0
 10
424.0488246446389
 20
457.1382427968326
 30
0.0
 10
423.3016787033115
 20
456.8335529347656
 30
0.0
 10
422.4991372540601
 20
456.332100469781
 30
0.0
 10
421.6934953837202
 20
455.8505595264799
 30
0.0
 10
421.0083634002681
 20
455.6349660693525
 30
0.0
 10
420.5378203922085
 20
455.626791323906
 30
0.0
 10
420.3712263241403
 20
455.6331093487776
 30
0.0
 10
420.2873649720041
 20
455.6362897557895
 30
0.0
 11
435.253427624766
 21
456.176145098566
 31
0.0
 11
435.0007840504368
 21
456.0781972460718
 31
0.0
 11
434.753427624766
 21
456.0193473624497
 31
0.0
 11
434.2247043265917
 21
456.1316694625374
 31
0.0
 11
433.7195179947734
 21
456.4715006998227
 31
0.0
 11
433.2070628725838
 21
456.8644908667563
 31
0.0
 11
432.6565332032956
 21
457.1362897557895
 31
0.0
 11
432.3031819254036
 21
457.1784541299025
 31
0.0
 11
431.9494264221091
 21
457.1362897557895
 31
0.0
 11
431.0123500110631
 21
456.6940773099662
 31
0.0
 11
430.1458586418963
 21
456.0704460533223
 31
0.0
 11
429.2167004078797
 21
455.6362897557895
 31
0.0
 11
428.7858721455166
 21
455.593175567501
 31
0.0
 11
428.3506750040954
 21
455.6362897557895
 31
0.0
 11
427.2654962696326
 21
456.0742638067847
 31
0.0
 11
426.2449814849524
 21
456.6965539353728
 31
0.0
 11
425.1683481589337
 21
457.1362897557895
 31
0.0
 11
424.6864571183683
 21
457.1828511576733
 31
0.0
 11
424.2024223326445
 21
457.1362897557895
 31
0.0
 11
423.3237320402303
 21
456.8142382616736
 31
0.0
 11
422.4933591655259
 21
456.3322431603994
 31
0.0
 11
421.6637535342209
 21
455.8772713568202
 31
0.0
 11
420.7873649720045
 21
455.6362897557895
 31
0.0
 11
420.5390600719761
 21
455.6290848367968
 31
0.0
 11
420.2873649720041
 21
455.6362897557895
 31
0.0
  0
SPLINE
  5
2B8
330
72
100
AcDbEntity
  8
1
  6
Continuous
 62
     7
100
AcDbSpline
210
0.0
220
0.0
230
1.0
 70
     8
 71
     3
 72
    31
 73
    27
 74
    25
 42
0.000000001
 43
0.0000000001
 44
0.00000001
 40
0.0
 40
0.0
 40
0.0
 40
0.0
 40
0.2709659657162527
 40
0.5252266825988137
 40
1.065749191989394
 40
1.674599338716042
 40
2.320394603574313
 40
2.934363293921349
 40
3.290221355349926
 40
3.646480797917629
 40
4.682658411629247
 40
5.750236623408735
 40
6.775822658068651
 40
7.208802824113663
 40
7.646130372373051
 40
8.816358621487838
 40
10.01163910374889
 40
11.17461240969538
 40
11.65874765828502
 40
12.14501675838349
 40
13.08086599532682
 40
14.04099014818358
 40
14.98716394131813
 40
15.89608035491218
 40
16.14448976460307
 40
16.39628796370983
 40
16.39628796370983
 40
16.39628796370983
 40
16.39628796370983
 10
783.8213023192434
 20
456.176145098566
 30
0.0
 10
783.9046988720023
 20
456.1418458162691
 30
0.0
 10
784.0663505152776
 20
456.0753618169676
 30
0.0
 10
784.4130696462064
 20
455.9781955228958
 30
0.0
 10
784.8932140437995
 20
456.1099774278898
 30
0.0
 10
785.3673517096466
 20
456.4770159240885
 30
0.0
 10
785.8458240516886
 20
456.8719636751924
 30
0.0
 10
786.3263436324925
 20
457.1441420204652
 30
0.0
 10
786.7722172315636
 20
457.1924015670637
 30
0.0
 10
787.3547988486429
 20
457.1190478281871
 30
0.0
 10
788.095542883192
 20
456.711249202907
 30
0.0
 10
788.89246143744
 20
456.0552857954309
 30
0.0
 10
789.6550771581901
 20
455.6369346585592
 30
0.0
 10
790.2906580407288
 20
455.5792777605337
 30
0.0
 10
790.9714813789461
 20
455.6476215460818
 30
0.0
 10
791.8384515435745
 20
456.0528311470045
 30
0.0
 10
792.7990263795871
 20
456.7156545071531
 30
0.0
 10
793.6756986253218
 20
457.131506963863
 30
0.0
 10
794.3890581226548
 20
457.1980230085528
 30
0.0
 10
795.0259052993703
 20
457.1382427968325
 30
0.0
 10
795.7730512406974
 20
456.8335529347657
 30
0.0
 10
796.5755926899487
 20
456.332100469781
 30
0.0
 10
797.3812345602886
 20
455.8505595264797
 30
0.0
 10
798.066366543741
 20
455.6349660693526
 30
0.0
 10
798.5369095518004
 20
455.626791323906
 30
0.0
 10
798.7035036198685
 20
455.6331093487776
 30
0.0
 10
798.7873649720045
 20
455.6362897557895
 30
0.0
 11
783.8213023192434
 21
456.176145098566
 31
0.0
 11
784.0739458935727
 21
456.0781972460717
 31
0.0
 11
784.3213023192434
 21
456.0193473624497
 31
0.0
 11
784.8500256174176
 21
456.1316694625374
 31
0.0
 11
785.3552119492358
 21
456.4715006998227
 31
0.0
 11
785.8676670714253
 21
456.8644908667563
 31
0.0
 11
786.4181967407135
 21
457.1362897557895
 31
0.0
 11
786.7715480186055
 21
457.1784541299025
 31
0.0
 11
787.1253035218999
 21
457.1362897557895
 31
0.0
 11
788.0623799329459
 21
456.6940773099663
 31
0.0
 11
788.9288713021125
 21
456.0704460533224
 31
0.0
 11
789.8580295361289
 21
455.6362897557895
 31
0.0
 11
790.2888577984924
 21
455.593175567501
 31
0.0
 11
790.7240549399137
 21
455.6362897557895
 31
0.0
 11
791.8092336743764
 21
456.0742638067848
 31
0.0
 11
792.8297484590568
 21
456.6965539353728
 31
0.0
 11
793.9063817850754
 21
457.1362897557895
 31
0.0
 11
794.3882728256406
 21
457.1828511576733
 31
0.0
 11
794.8723076113642
 21
457.1362897557895
 31
0.0
 11
795.7509979037786
 21
456.8142382616736
 31
0.0
 11
796.581370778483
 21
456.3322431603994
 31
0.0
 11
797.4109764097881
 21
455.8772713568202
 31
0.0
 11
798.2873649720045
 21
455.6362897557895
 31
0.0
 11
798.5356698720327
 21
455.6290848367969
 31
0.0
 11
798.7873649720045
 21
455.6362897557895
 31
0.0
  0
SPLINE
  5
2B9
330
72
100
AcDbEntity
  8
1
  6
Continuous
 62
     7
100
AcDbSpline
210
0.0
220
0.0
230
1.0
 70
     8
 71
     3
 72
    31
 73
    27
 74
    25
 42
0.000000001
 43
0.0000000001
 44
0.00000001
 40
0.0
 40
0.0
 40
0.0
 40
0.0
 40
0.2709659657161467
 40
0.5252266825988183
 40
1.065749191989399
 40
1.674599338716046
 40
2.320394603574409
 40
2.934363293921342
 40
3.290221355349919
 40
3.646480797917509
 40
4.682658411629151
 40
5.750236623408916
 40
6.775822658068911
 40
7.208802824113584
 40
7.646130372372971
 40
8.816358621487737
 40
10.01163910374878
 40
11.17461240969519
 40
11.65874765828494
 40
12.14501675838352
 40
13.08086599532675
 40
14.04099014818351
 40
14.98716394131806
 40
15.89608035491222
 40
16.14448976460311
 40
16.3962879637101
 40
16.3962879637101
 40
16.3962879637101
 40
16.3962879637101
 10
813.753427624766
 20
456.176145098566
 30
0.0
 10
813.6700310720071
 20
456.1418458162692
 30
0.0
 10
813.5083794287316
 20
456.0753618169676
 30
0.0
 10
813.1616602978033
 20
455.9781955228958
 30
0.0
 10
812.6815159002097
 20
456.1099774278896
 30
0.0
 10
812.2073782343629
 20
456.4770159240887
 30
0.0
 10
811.7289058923207
 20
456.8719636751921
 30
0.0
 10
811.2483863115169
 20
457.1441420204652
 30
0.0
 10
810.8025127124457
 20
457.1924015670638
 30
0.0
 10
810.2199310953667
 20
457.1190478281872
 30
0.0
 10
809.4791870608169
 20
456.7112492029067
 30
0.0
 10
808.6822685065694
 20
456.0552857954307
 30
0.0
 10
807.9196527858194
 20
455.6369346585593
 30
0.0
 10
807.2840719032803
 20
455.5792777605337
 30
0.0
 10
806.6032485650635
 20
455.6476215460819
 30
0.0
 10
805.7362784004349
 20
456.0528311470046
 30
0.0
 10
804.775703564422
 20
456.7156545071529
 30
0.0
 10
803.8990313186877
 20
457.131506963863
 30
0.0
 10
803.1856718213544
 20
457.1980230085529
 30
0.0
 10
802.5488246446392
 20
457.1382427968324
 30
0.0
 10
801.8016787033121
 20
456.8335529347656
 30
0.0
 10
800.9991372540608
 20
456.332100469781
 30
0.0
 10
800.1934953837203
 20
455.8505595264797
 30
0.0
 10
799.508363400269
 20
455.6349660693528
 30
0.0
 10
799.0378203922087
 20
455.626791323906
 30
0.0
 10
798.8712263241408
 20
455.6331093487777
 30
0.0
 10
798.7873649720045
 20
455.6362897557895
 30
0.0
 11
813.753427624766
 21
456.176145098566
 31
0.0
 11
813.5007840504368
 21
456.0781972460717
 31
0.0
 11
813.253427624766
 21
456.0193473624497
 31
0.0
 11
812.7247043265918
 21
456.1316694625374
 31
0.0
 11
812.2195179947736
 21
456.4715006998227
 31
0.0
 11
811.707062872584
 21
456.8644908667563
 31
0.0
 11
811.1565332032959
 21
457.1362897557895
 31
0.0
 11
810.8031819254039
 21
457.1784541299025
 31
0.0
 11
810.4494264221096
 21
457.1362897557895
 31
0.0
 11
809.5123500110636
 21
456.6940773099662
 31
0.0
 11
808.6458586418967
 21
456.0704460533223
 31
0.0
 11
807.7167004078801
 21
455.6362897557895
 31
0.0
 11
807.285872145517
 21
455.593175567501
 31
0.0
 11
806.8506750040957
 21
455.6362897557895
 31
0.0
 11
805.765496269633
 21
456.0742638067847
 31
0.0
 11
804.7449814849526
 21
456.6965539353728
 31
0.0
 11
803.6683481589341
 21
457.1362897557895
 31
0.0
 11
803.1864571183688
 21
457.1828511576733
 31
0.0
 11
802.702422332645
 21
457.1362897557895
 31
0.0
 11
801.8237320402308
 21
456.8142382616736
 31
0.0
 11
800.9933591655264
 21
456.3322431603994
 31
0.0
 11
800.1637535342213
 21
455.8772713568202
 31
0.0
 11
799.2873649720048
 21
455.6362897557895
 31
0.0
 11
799.0390600719766
 21
455.6290848367968
 31
0.0
 11
798.7873649720045
 21
455.6362897557895
 31
0.0
  0
ARC
  5
2BA
330
72
100
AcDbEntity
  8
1
  6
Continuous
 62
     7
100
AcDbCircle
 10
817.0505319788557
 20
452.1362897557895
 30
0.0
 40
5.0
100
AcDbArc
 50
90.0
 51
115.8419327631636
  0
ARC
  5
2BB
330
72
100
AcDbEntity
  8
1
  6
Continuous
 62
     7
100
AcDbCircle
 10
780.5241979651537
 20
452.1362897557895
 30
0.0
 40
4.999999999999902
100
AcDbArc
 50
64.1580672368352
 51
90.0
  0
ARC
  5
2BC
330
72
100
AcDbEntity
  8
1
  6
Continuous
 62
     7
100
AcDbCircle
 10
438.5505319788556
 20
452.1362897557895
 30
0.0
 40
5.0
100
AcDbArc
 50
90.0
 51
115.8419327631666
  0
ARC
  5
2BD
330
72
100
AcDbEntity
  8
1
  6
Continuous
 62
     7
100
AcDbCircle
 10
402.0241979651531
 20
452.1362897557895
 30
0.0
 40
5.000000000000027
100
AcDbArc
 50
64.15806723683225
 51
90.0
  0
ENDBLK
  5
74
330
72
100
AcDbEntity
  8
0
100
AcDbBlockEnd
  0
BLOCK
  5
76
330
75
100
AcDbEntity
  8
0
100
AcDbBlockBegin
  2
92-53A__9
 70
     0
 10
22.47081715283278
 20
275.4522930483096
 30
0.0
  3
92-53A__9
  1

  0
LINE
  5
2BE
330
75
100
AcDbEntity
  8
1
  6
Continuous
 62
     7
100
AcDbLine
 10
198.7873649720039
 20
458.1362897557892
 30
0.0
 11
235.7873649720039
 21
458.1362897557896
 31
0.0
  0
LINE
  5
2BF
330
75
100
AcDbEntity
  8
1
  6
Continuous
 62
     7
100
AcDbLine
 10
198.787364972004
 20
459.6362897557891
 30
0.0
 11
198.7873649720039
 21
458.1362897557892
 31
0.0
  0
LINE
  5
2C0
330
75
100
AcDbEntity
  8
1
  6
Continuous
 62
     7
100
AcDbLine
 10
198.787364972004
 20
459.6362897557891
 30
0.0
 11
235.787364972004
 21
459.6362897557895
 31
0.0
  0
LINE
  5
2C1
330
75
100
AcDbEntity
  8
1
  6
Continuous
 62
     7
100
AcDbLine
 10
235.7873649720039
 20
458.1362897557896
 30
0.0
 11
235.787364972004
 21
459.6362897557895
 31
0.0
  0
ENDBLK
  5
77
330
75
100
AcDbEntity
  8
0
100
AcDbBlockEnd
  0
BLOCK
  5
79
330
78
100
AcDbEntity
  8
0
100
AcDbBlockBegin
  2
32-25__10
 70
     0
 10
230.6043082770933
 20
423.2137131666528
 30
0.0
  3
32-25__10
  1

  0
LINE
  5
2C2
330
78
100
AcDbEntity
  8
1
  6
Continuous
 62
     7
100
AcDbLine
 10
210.3591617417283
 20
450.7043851838649
 30
0.0
 11
210.3591617417283
 21
455.6362897557895
 31
0.0
  0
LINE
  5
2C3
330
78
100
AcDbEntity
  8
1
  6
Continuous
 62
     7
100
AcDbLine
 10
224.2155682022794
 20
450.7043851838649
 30
0.0
 11
224.2155682022794
 21
455.6362897557895
 31
0.0
  0
LINE
  5
2C4
330
78
100
AcDbEntity
  8
1
  6
Continuous
 62
     7
100
AcDbLine
 10
206.8982655824869
 20
449.6362897557895
 30
0.0
 11
205.2873649720039
 21
449.6362897557899
 31
0.0
  0
LINE
  5
2C5
330
78
100
AcDbEntity
  8
1
  6
Continuous
 62
     7
100
AcDbLine
 10
227.5880637510379
 20
449.6362897557895
 30
0.0
 11
217.2873649720039
 21
449.6362897557895
 31
0.0
  0
LINE
  5
2C6
330
78
100
AcDbEntity
  8
1
  6
Continuous
 62
     7
100
AcDbLine
 10
217.2873649720039
 20
449.6362897557895
 30
0.0
 11
206.8982655824869
 21
449.6362897557895
 31
0.0
  0
LINE
  5
2C7
330
78
100
AcDbEntity
  8
1
  6
Continuous
 62
     7
100
AcDbLine
 10
204.2353350987715
 20
450.2436794862958
 30
0.0
 11
203.4373694232454
 21
450.7043851838649
 31
0.0
  0
LINE
  5
2C8
330
78
100
AcDbEntity
  8
1
  6
Continuous
 62
     7
100
AcDbLine
 10
230.3362267289919
 20
450.2418503735292
 30
0.0
 11
229.2873649720039
 21
449.6362897557895
 31
0.0
  0
LINE
  5
2C9
330
78
100
AcDbEntity
  8
1
  6
Continuous
 62
     7
100
AcDbLine
 10
227.764864972004
 20
449.6362897557895
 30
0.0
 11
227.5880637510379
 21
449.6362897557895
 31
0.0
  0
LINE
  5
2CA
330
78
100
AcDbEntity
  8
1
  6
Continuous
 62
     7
100
AcDbLine
 10
203.4373694232454
 20
450.7043851838649
 30
0.0
 11
203.4373694232454
 21
455.6362897557895
 31
0.0
  0
LINE
  5
2CB
330
78
100
AcDbEntity
  8
1
  6
Continuous
 62
     7
100
AcDbLine
 10
205.2873649720039
 20
449.6362897557899
 30
0.0
 11
204.2353350987715
 21
450.2436794862958
 31
0.0
  0
LINE
  5
2CC
330
78
100
AcDbEntity
  8
1
  6
Continuous
 62
     7
100
AcDbLine
 10
206.7873649720039
 20
455.6362897557895
 30
0.0
 11
203.4373694232454
 21
455.6362897557895
 31
0.0
  0
LINE
  5
2CD
330
78
100
AcDbEntity
  8
1
  6
Continuous
 62
     7
100
AcDbLine
 10
231.1373605207624
 20
450.7043851838649
 30
0.0
 11
230.3362267289919
 21
450.2418503735292
 31
0.0
  0
LINE
  5
2CE
330
78
100
AcDbEntity
  8
1
  6
Continuous
 62
     7
100
AcDbLine
 10
231.1373605207624
 20
455.6362897557899
 30
0.0
 11
231.1373605207624
 21
450.7043851838649
 31
0.0
  0
LINE
  5
2CF
330
78
100
AcDbEntity
  8
1
  6
Continuous
 62
     7
100
AcDbLine
 10
231.1373605207624
 20
455.6362897557899
 30
0.0
 11
227.7873649720039
 21
455.6362897557895
 31
0.0
  0
LINE
  5
2D0
330
78
100
AcDbEntity
  8
1
  6
Continuous
 62
     7
100
AcDbLine
 10
229.2873649720039
 20
449.6362897557895
 30
0.0
 11
227.7873649720039
 21
449.6362897557899
 31
0.0
  0
ARC
  5
2D1
330
78
100
AcDbEntity
  8
1
  6
Continuous
 62
     7
100
AcDbCircle
 10
206.8982655824869
 20
455.7774217762534
 30
0.0
 40
6.141132020463836
100
AcDbArc
 50
244.3023524963342
 51
270.0
  0
ARC
  5
2D2
330
78
100
AcDbEntity
  8
1
  6
Continuous
 62
     7
100
AcDbCircle
 10
227.6764643615208
 20
455.7737635507197
 30
0.0
 40
6.138110397458544
100
AcDbArc
 50
269.1748019067743
 51
270.8251980932286
  0
ARC
  5
2D3
330
78
100
AcDbEntity
  8
1
  6
Continuous
 62
     7
100
AcDbCircle
 10
227.6764643615208
 20
455.7737635507197
 30
0.0
 40
6.138110397458462
100
AcDbArc
 50
235.6784033614791
 51
269.1748019067743
  0
ARC
  5
2D4
330
78
100
AcDbEntity
  8
1
  6
Continuous
 62
     7
100
AcDbCircle
 10
217.2873649720039
 20
472.6402398485388
 30
0.0
 40
23.00395009274924
100
AcDbArc
 50
252.4718398636649
 51
270.0
  0
ARC
  5
2D5
330
78
100
AcDbEntity
  8
1
  6
Continuous
 62
     7
100
AcDbCircle
 10
227.6764643615208
 20
455.7737635507197
 30
0.0
 40
6.138110397458548
100
AcDbArc
 50
270.8251980932286
 51
295.6784033614809
  0
ARC
  5
2D6
330
78
100
AcDbEntity
  8
1
  6
Continuous
 62
     7
100
AcDbCircle
 10
206.8982655824869
 20
455.7774217762534
 30
0.0
 40
6.141132020463886
100
AcDbArc
 50
270.0
 51
304.3023524963296
  0
ARC
  5
2D7
330
78
100
AcDbEntity
  8
1
  6
Continuous
 62
     7
100
AcDbCircle
 10
217.2873649720039
 20
472.6402398485388
 30
0.0
 40
23.00395009274928
100
AcDbArc
 50
270.0
 51
287.5281601363349
  0
ENDBLK
  5
7A
330
78
100
AcDbEntity
  8
0
100
AcDbBlockEnd
  0
BLOCK
  5
7C
330
7B
100
AcDbEntity
  8
0
100
AcDbBlockBegin
  2
73-1-21_5__11
 70
     0
 10
123.012183563544
 20
475.5234182913312
 30
0.0
  3
73-1-21_5__11
  1

  0
LINE
  5
2D8
330
7B
100
AcDbEntity
  8
1
  6
Continuous
 62
     7
100
AcDbLine
 10
195.7873649720039
 20
458.1362897557895
 30
0.0
 11
195.7873649720039
 21
457.1362897557895
 31
0.0
  0
LINE
  5
2D9
330
7B
100
AcDbEntity
  8
1
  6
Continuous
 62
     7
100
AcDbLine
 10
195.7873649720039
 20
457.1362897557895
 30
0.0
 11
199.0241979651528
 21
457.1362897557899
 31
0.0
  0
LINE
  5
2DA
330
7B
100
AcDbEntity
  8
1
  6
Continuous
 62
     7
100
AcDbLine
 10
205.5625463804638
 20
455.6362897557895
 30
0.0
 11
208.3580295361284
 21
455.6362897557895
 31
0.0
  0
LINE
  5
2DB
330
7B
100
AcDbEntity
  8
1
  6
Continuous
 62
     7
100
AcDbLine
 10
209.2240549399128
 20
455.6362897557899
 30
0.0
 11
216.7873649636843
 21
455.6362897557899
 31
0.0
  0
LINE
  5
2DC
330
7B
100
AcDbEntity
  8
1
  6
Continuous
 62
     7
100
AcDbLine
 10
217.2873649720039
 20
458.1362897557895
 30
0.0
 11
195.7873649720039
 21
458.1362897557895
 31
0.0
  0
LINE
  5
2DD
330
7B
100
AcDbEntity
  8
1
  6
Continuous
 62
     7
100
AcDbLine
 10
238.787364972004
 20
458.1362897557895
 30
0.0
 11
217.2873649720039
 21
458.1362897557895
 31
0.0
  0
LINE
  5
2DE
330
7B
100
AcDbEntity
  8
1
  6
Continuous
 62
     7
100
AcDbLine
 10
217.7873649803236
 20
455.6362897557899
 30
0.0
 11
225.350675004095
 21
455.6362897557895
 31
0.0
  0
LINE
  5
2DF
330
7B
100
AcDbEntity
  8
1
  6
Continuous
 62
     7
100
AcDbLine
 10
226.2167004078795
 20
455.6362897557895
 30
0.0
 11
229.0121835635442
 21
455.6362897557899
 31
0.0
  0
LINE
  5
2E0
330
7B
100
AcDbEntity
  8
1
  6
Continuous
 62
     7
100
AcDbLine
 10
235.5505319788553
 20
457.1362897557895
 30
0.0
 11
238.787364972004
 21
457.1362897557895
 31
0.0
  0
LINE
  5
2E1
330
7B
100
AcDbEntity
  8
1
  6
Continuous
 62
     7
100
AcDbLine
 10
238.787364972004
 20
457.1362897557895
 30
0.0
 11
238.787364972004
 21
458.1362897557895
 31
0.0
  0
LINE
  5
2E2
330
7B
100
AcDbEntity
  8
1
  6
Continuous
 62
     7
100
AcDbLine
 10
199.0241979651528
 20
457.1362897557899
 30
0.0
 11
204.9181967407128
 21
457.1362897557895
 31
0.0
  0
LINE
  5
2E3
330
7B
100
AcDbEntity
  8
1
  6
Continuous
 62
     7
100
AcDbLine
 10
205.6253035218993
 20
457.1362897557895
 30
0.0
 11
212.4063817850747
 21
457.1362897557895
 31
0.0
  0
LINE
  5
2E4
330
7B
100
AcDbEntity
  8
1
  6
Continuous
 62
     7
100
AcDbLine
 10
213.3723076113636
 20
457.1362897557895
 30
0.0
 11
221.2024223326442
 21
457.1362897557895
 31
0.0
  0
LINE
  5
2E5
330
7B
100
AcDbEntity
  8
1
  6
Continuous
 62
     7
100
AcDbLine
 10
222.1683481589333
 20
457.1362897557895
 30
0.0
 11
228.9494264221087
 21
457.1362897557895
 31
0.0
  0
LINE
  5
2E6
330
7B
100
AcDbEntity
  8
1
  6
Continuous
 62
     7
100
AcDbLine
 10
229.6565332032952
 20
457.1362897557899
 30
0.0
 11
235.5505319788553
 21
457.1362897557895
 31
0.0
  0
ARC
  5
2E7
330
7B
100
AcDbEntity
  8
1
  6
Continuous
 62
     7
100
AcDbCircle
 10
205.5625463804638
 20
465.6362897557899
 30
0.0
 40
9.999999999999966
100
AcDbArc
 50
244.1580672368333
 51
270.0
  0
ARC
  5
2E8
330
7B
100
AcDbEntity
  8
1
  6
Continuous
 62
     7
100
AcDbCircle
 10
229.0121835635442
 20
465.6362897557895
 30
0.0
 40
9.999999999999602
100
AcDbArc
 50
270.0
 51
295.8419327631683
  0
SPLINE
  5
2E9
330
7B
100
AcDbEntity
  8
1
  6
Continuous
 62
     7
100
AcDbSpline
210
0.0
220
0.0
230
1.0
 70
     8
 71
     3
 72
    31
 73
    27
 74
    25
 42
0.000000001
 43
0.0000000001
 44
0.00000001
 40
0.0
 40
0.0
 40
0.0
 40
0.0
 40
0.2709659657162348
 40
0.5252266825989313
 40
1.06574919198954
 40
1.674599338716424
 40
2.320394603574777
 40
2.934363293921965
 40
3.2902213553505
 40
3.646480797918266
 40
4.682658411630056
 40
5.750236623409603
 40
6.775822658069475
 40
7.208802824114403
 40
7.646130372373706
 40
8.816358621488444
 40
10.01163910374937
 40
11.17461240969602
 40
11.6587476582858
 40
12.14501675838435
 40
13.08086599532763
 40
14.04099014818439
 40
14.98716394131886
 40
15.89608035491292
 40
16.14448976460392
 40
16.39628796371071
 40
16.39628796371071
 40
16.39628796371071
 40
16.39628796371071
 10
232.2534276247656
 20
456.1761450985664
 30
0.0
 10
232.1700310720067
 20
456.1418458162695
 30
0.0
 10
232.0083794287315
 20
456.0753618169679
 30
0.0
 10
231.6616602978026
 20
455.9781955228954
 30
0.0
 10
231.1815159002095
 20
456.10997742789
 30
0.0
 10
230.7073782343621
 20
456.4770159240886
 30
0.0
 10
230.2289058923204
 20
456.8719636751927
 30
0.0
 10
229.7483863115163
 20
457.1441420204656
 30
0.0
 10
229.302512712445
 20
457.1924015670642
 30
0.0
 10
228.7199310953658
 20
457.1190478281868
 30
0.0
 10
227.9791870608165
 20
456.711249202907
 30
0.0
 10
227.1822685065689
 20
456.0552857954306
 30
0.0
 10
226.4196527858184
 20
455.6369346585591
 30
0.0
 10
225.7840719032797
 20
455.5792777605338
 30
0.0
 10
225.1032485650626
 20
455.6476215460817
 30
0.0
 10
224.2362784004342
 20
456.0528311470047
 30
0.0
 10
223.2757035644215
 20
456.7156545071531
 30
0.0
 10
222.3990313186871
 20
457.131506963863
 30
0.0
 10
221.6856718213534
 20
457.1980230085529
 30
0.0
 10
221.0488246446385
 20
457.1382427968325
 30
0.0
 10
220.3016787033111
 20
456.8335529347656
 30
0.0
 10
219.4991372540598
 20
456.3321004697809
 30
0.0
 10
218.6934953837197
 20
455.8505595264799
 30
0.0
 10
218.0083634002678
 20
455.6349660693526
 30
0.0
 10
217.537820392208
 20
455.626791323906
 30
0.0
 10
217.3712263241399
 20
455.6331093487776
 30
0.0
 10
217.2873649720039
 20
455.6362897557895
 30
0.0
 11
232.2534276247656
 21
456.1761450985664
 31
0.0
 11
232.0007840504363
 21
456.0781972460719
 31
0.0
 11
231.7534276247656
 21
456.0193473624497
 31
0.0
 11
231.2247043265914
 21
456.1316694625374
 31
0.0
 11
230.719517994773
 21
456.4715006998229
 31
0.0
 11
230.2070628725834
 21
456.8644908667567
 31
0.0
 11
229.6565332032952
 21
457.1362897557899
 31
0.0
 11
229.3031819254032
 21
457.1784541299028
 31
0.0
 11
228.9494264221087
 21
457.1362897557895
 31
0.0
 11
228.0123500110628
 21
456.694077309966
 31
0.0
 11
227.145858641896
 21
456.0704460533221
 31
0.0
 11
226.2167004078795
 21
455.6362897557895
 31
0.0
 11
225.7858721455162
 21
455.593175567501
 31
0.0
 11
225.350675004095
 21
455.6362897557895
 31
0.0
 11
224.2654962696323
 21
456.0742638067847
 31
0.0
 11
223.244981484952
 21
456.6965539353728
 31
0.0
 11
222.1683481589333
 21
457.1362897557895
 31
0.0
 11
221.6864571183679
 21
457.1828511576733
 31
0.0
 11
221.2024223326442
 21
457.1362897557895
 31
0.0
 11
220.3237320402299
 21
456.8142382616736
 31
0.0
 11
219.4933591655255
 21
456.3322431603994
 31
0.0
 11
218.6637535342205
 21
455.8772713568202
 31
0.0
 11
217.787364972004
 21
455.6362897557895
 31
0.0
 11
217.5390600719757
 21
455.6290848367968
 31
0.0
 11
217.2873649720039
 21
455.6362897557895
 31
0.0
  0
SPLINE
  5
2EA
330
7B
100
AcDbEntity
  8
1
  6
Continuous
 62
     7
100
AcDbSpline
210
0.0
220
0.0
230
1.0
 70
     8
 71
     3
 72
    31
 73
    27
 74
    25
 42
0.000000001
 43
0.0000000001
 44
0.00000001
 40
0.0
 40
0.0
 40
0.0
 40
0.0
 40
0.2709659657162878
 40
0.5252266825989291
 40
1.065749191989486
 40
1.674599338716228
 40
2.320394603574522
 40
2.934363293921659
 40
3.290221355350214
 40
3.646480797917953
 40
4.682658411629644
 40
5.750236623409267
 40
6.775822658069114
 40
7.208802824113968
 40
7.646130372373236
 40
8.816358621488096
 40
10.011639103749
 40
11.17461240969554
 40
11.65874765828521
 40
12.14501675838367
 40
13.08086599532692
 40
14.04099014818351
 40
14.98716394131798
 40
15.89608035491211
 40
16.144489764603
 40
16.39628796370978
 40
16.39628796370978
 40
16.39628796370978
 40
16.39628796370978
 10
202.3213023192425
 20
456.1761450985664
 30
0.0
 10
202.4046988720015
 20
456.1418458162696
 30
0.0
 10
202.5663505152767
 20
456.075361816968
 30
0.0
 10
202.9130696462054
 20
455.9781955228955
 30
0.0
 10
203.3932140437987
 20
456.1099774278898
 30
0.0
 10
203.8673517096459
 20
456.4770159240885
 30
0.0
 10
204.3458240516877
 20
456.8719636751921
 30
0.0
 10
204.8263436324917
 20
457.1441420204652
 30
0.0
 10
205.272217231563
 20
457.1924015670637
 30
0.0
 10
205.8547988486421
 20
457.1190478281872
 30
0.0
 10
206.5955428831915
 20
456.7112492029069
 30
0.0
 10
207.3924614374391
 20
456.0552857954306
 30
0.0
 10
208.1550771581894
 20
455.6369346585589
 30
0.0
 10
208.7906580407282
 20
455.579277760534
 30
0.0
 10
209.4714813789453
 20
455.6476215460824
 30
0.0
 10
210.3384515435736
 20
456.052831147005
 30
0.0
 10
211.2990263795866
 20
456.7156545071534
 30
0.0
 10
212.175698625321
 20
457.131506963863
 30
0.0
 10
212.8890581226544
 20
457.1980230085528
 30
0.0
 10
213.5259052993694
 20
457.1382427968325
 30
0.0
 10
214.2730512406965
 20
456.8335529347657
 30
0.0
 10
215.0755926899481
 20
456.3321004697815
 30
0.0
 10
215.8812345602883
 20
455.8505595264805
 30
0.0
 10
216.5663665437401
 20
455.6349660693533
 30
0.0
 10
217.0369095517997
 20
455.6267913239062
 30
0.0
 10
217.2035036198679
 20
455.6331093487777
 30
0.0
 10
217.2873649720039
 20
455.6362897557895
 30
0.0
 11
202.3213023192425
 21
456.1761450985664
 31
0.0
 11
202.5739458935718
 21
456.0781972460719
 31
0.0
 11
202.8213023192425
 21
456.0193473624497
 31
0.0
 11
203.3500256174167
 21
456.1316694625373
 31
0.0
 11
203.855211949235
 21
456.4715006998226
 31
0.0
 11
204.3676670714246
 21
456.8644908667562
 31
0.0
 11
204.9181967407128
 21
457.1362897557895
 31
0.0
 11
205.2715480186048
 21
457.1784541299025
 31
0.0
 11
205.6253035218993
 21
457.1362897557895
 31
0.0
 11
206.5623799329452
 21
456.6940773099662
 31
0.0
 11
207.428871302112
 21
456.0704460533221
 31
0.0
 11
208.3580295361284
 21
455.6362897557895
 31
0.0
 11
208.7888577984916
 21
455.5931755675011
 31
0.0
 11
209.2240549399128
 21
455.6362897557899
 31
0.0
 11
210.3092336743756
 21
456.0742638067852
 31
0.0
 11
211.329748459056
 21
456.6965539353731
 31
0.0
 11
212.4063817850747
 21
457.1362897557895
 31
0.0
 11
212.88827282564
 21
457.1828511576733
 31
0.0
 11
213.3723076113636
 21
457.1362897557895
 31
0.0
 11
214.2509979037779
 21
456.8142382616737
 31
0.0
 11
215.0813707784823
 21
456.3322431603999
 31
0.0
 11
215.9109764097875
 21
455.8772713568209
 31
0.0
 11
216.7873649720039
 21
455.6362897557899
 31
0.0
 11
217.0356698720321
 21
455.6290848367971
 31
0.0
 11
217.2873649720039
 21
455.6362897557895
 31
0.0
  0
ARC
  5
2EB
330
7B
100
AcDbEntity
  8
1
  6
Continuous
 62
     7
100
AcDbCircle
 10
199.0241979651528
 20
452.1362897557895
 30
0.0
 40
5.000000000000385
100
AcDbArc
 50
64.15806723683424
 51
90.0
  0
ARC
  5
2EC
330
7B
100
AcDbEntity
  8
1
  6
Continuous
 62
     7
100
AcDbCircle
 10
235.5505319788553
 20
452.1362897557895
 30
0.0
 40
5.0
100
AcDbArc
 50
90.0
 51
115.8419327631658
  0
ENDBLK
  5
7D
330
7B
100
AcDbEntity
  8
0
100
AcDbBlockEnd
  0
BLOCK
  5
7F
330
7E
100
AcDbEntity
  8
0
100
AcDbBlockBegin
  2
32-25__12
 70
     0
 10
328.6321964242621
 20
423.7137131666524
 30
0.0
  3
32-25__12
  1

  0
LINE
  5
2ED
330
7E
100
AcDbEntity
  8
1
  6
Continuous
 62
     7
100
AcDbLine
 10
787.0625463804641
 20
455.6362897557895
 30
0.0
 11
786.7873649720042
 21
455.6362897557895
 31
0.0
  0
LINE
  5
2EE
330
7E
100
AcDbEntity
  8
1
  6
Continuous
 62
     7
100
AcDbLine
 10
413.3591617417284
 20
450.7043851838649
 30
0.0
 11
413.3591617417284
 21
455.6362897557895
 31
0.0
  0
LINE
  5
2EF
330
7E
100
AcDbEntity
  8
1
  6
Continuous
 62
     7
100
AcDbLine
 10
427.2155682022794
 20
450.7043851838649
 30
0.0
 11
427.2155682022794
 21
455.6362897557895
 31
0.0
  0
LINE
  5
2F0
330
7E
100
AcDbEntity
  8
1
  6
Continuous
 62
     7
100
AcDbLine
 10
409.8982655824868
 20
449.6362897557895
 30
0.0
 11
408.287364972004
 21
449.6362897557895
 31
0.0
  0
LINE
  5
2F1
330
7E
100
AcDbEntity
  8
1
  6
Continuous
 62
     7
100
AcDbLine
 10
430.5880637510378
 20
449.6362897557895
 30
0.0
 11
420.2873649720038
 21
449.6362897557895
 31
0.0
  0
LINE
  5
2F2
330
7E
100
AcDbEntity
  8
1
  6
Continuous
 62
     7
100
AcDbLine
 10
420.2873649720038
 20
449.6362897557895
 30
0.0
 11
409.8982655824868
 21
449.6362897557895
 31
0.0
  0
LINE
  5
2F3
330
7E
100
AcDbEntity
  8
1
  6
Continuous
 62
     7
100
AcDbLine
 10
407.2353350987714
 20
450.2436794862958
 30
0.0
 11
406.4373694232455
 21
450.7043851838649
 31
0.0
  0
LINE
  5
2F4
330
7E
100
AcDbEntity
  8
1
  6
Continuous
 62
     7
100
AcDbLine
 10
433.3362267289917
 20
450.2418503735292
 30
0.0
 11
432.2873649720038
 21
449.6362897557895
 31
0.0
  0
LINE
  5
2F5
330
7E
100
AcDbEntity
  8
1
  6
Continuous
 62
     7
100
AcDbLine
 10
430.7648649720039
 20
449.6362897557895
 30
0.0
 11
430.5880637510378
 21
449.6362897557895
 31
0.0
  0
LINE
  5
2F6
330
7E
100
AcDbEntity
  8
1
  6
Continuous
 62
     7
100
AcDbLine
 10
406.4373694232455
 20
450.7043851838649
 30
0.0
 11
406.4373694232453
 21
455.6362897557895
 31
0.0
  0
LINE
  5
2F7
330
7E
100
AcDbEntity
  8
1
  6
Continuous
 62
     7
100
AcDbLine
 10
408.287364972004
 20
449.6362897557895
 30
0.0
 11
407.2353350987714
 21
450.2436794862958
 31
0.0
  0
LINE
  5
2F8
330
7E
100
AcDbEntity
  8
1
  6
Continuous
 62
     7
100
AcDbLine
 10
409.787364972004
 20
455.6362897557895
 30
0.0
 11
406.4373694232453
 21
455.6362897557895
 31
0.0
  0
LINE
  5
2F9
330
7E
100
AcDbEntity
  8
1
  6
Continuous
 62
     7
100
AcDbLine
 10
434.1373605207623
 20
450.7043851838649
 30
0.0
 11
433.3362267289917
 21
450.2418503735292
 31
0.0
  0
LINE
  5
2FA
330
7E
100
AcDbEntity
  8
1
  6
Continuous
 62
     7
100
AcDbLine
 10
434.1373605207623
 20
455.6362897557895
 30
0.0
 11
434.1373605207623
 21
450.7043851838649
 31
0.0
  0
LINE
  5
2FB
330
7E
100
AcDbEntity
  8
1
  6
Continuous
 62
     7
100
AcDbLine
 10
434.1373605207623
 20
455.6362897557895
 30
0.0
 11
430.7873649720038
 21
455.6362897557895
 31
0.0
  0
LINE
  5
2FC
330
7E
100
AcDbEntity
  8
1
  6
Continuous
 62
     7
100
AcDbLine
 10
432.2873649720038
 20
449.6362897557895
 30
0.0
 11
430.7873649720038
 21
449.6362897557895
 31
0.0
  0
LINE
  5
2FD
330
7E
100
AcDbEntity
  8
1
  6
Continuous
 62
     7
100
AcDbLine
 10
786.7873649720042
 20
449.6362897557895
 30
0.0
 11
809.0880637510382
 21
449.6362897557895
 31
0.0
  0
LINE
  5
2FE
330
7E
100
AcDbEntity
  8
1
  6
Continuous
 62
     7
100
AcDbLine
 10
809.2648649720041
 20
449.6362897557895
 30
0.0
 11
809.0880637510382
 21
449.6362897557895
 31
0.0
  0
LINE
  5
2FF
330
7E
100
AcDbEntity
  8
1
  6
Continuous
 62
     7
100
AcDbLine
 10
810.7873649720042
 20
449.6362897557895
 30
0.0
 11
809.2873649720042
 21
449.6362897557895
 31
0.0
  0
LINE
  5
300
330
7E
100
AcDbEntity
  8
1
  6
Continuous
 62
     7
100
AcDbLine
 10
810.7873649720042
 20
449.6362897557895
 30
0.0
 11
810.7873649720042
 21
450.7043851838649
 31
0.0
  0
LINE
  5
301
330
7E
100
AcDbEntity
  8
1
  6
Continuous
 62
     7
100
AcDbLine
 10
810.7873649720042
 20
455.6362897557895
 30
0.0
 11
810.5121835635446
 21
455.6362897557895
 31
0.0
  0
LINE
  5
302
330
7E
100
AcDbEntity
  8
1
  6
Continuous
 62
     7
100
AcDbLine
 10
786.7873649720042
 20
449.6362897557895
 30
0.0
 11
786.7873649720042
 21
450.7043851838649
 31
0.0
  0
LINE
  5
303
330
7E
100
AcDbEntity
  8
1
  6
Continuous
 62
     7
100
AcDbLine
 10
810.7873649720042
 20
450.7043851838649
 30
0.0
 11
810.7873649720042
 21
455.6362897557895
 31
0.0
  0
LINE
  5
304
330
7E
100
AcDbEntity
  8
1
  6
Continuous
 62
     7
100
AcDbLine
 10
786.7873649720042
 20
450.7043851838649
 30
0.0
 11
786.7873649720042
 21
455.6362897557895
 31
0.0
  0
LINE
  5
305
330
7E
100
AcDbEntity
  8
1
  6
Continuous
 62
     7
100
AcDbLine
 10
798.7873649720042
 20
450.7043851838649
 30
0.0
 11
798.7873649720042
 21
455.6362897557895
 31
0.0
  0
ARC
  5
306
330
7E
100
AcDbEntity
  8
1
  6
Continuous
 62
     7
100
AcDbCircle
 10
409.8982655824868
 20
455.777421776253
 30
0.0
 40
6.141132020463465
100
AcDbArc
 50
244.3023524963328
 51
270.0
  0
ARC
  5
307
330
7E
100
AcDbEntity
  8
1
  6
Continuous
 62
     7
100
AcDbCircle
 10
430.6764643615207
 20
455.7737635507197
 30
0.0
 40
6.138110397458544
100
AcDbArc
 50
269.1748019067743
 51
270.8251980932288
  0
ARC
  5
308
330
7E
100
AcDbEntity
  8
1
  6
Continuous
 62
     7
100
AcDbCircle
 10
430.6764643615207
 20
455.7737635507197
 30
0.0
 40
6.138110397458381
100
AcDbArc
 50
235.6784033614802
 51
269.1748019067743
  0
ARC
  5
309
330
7E
100
AcDbEntity
  8
1
  6
Continuous
 62
     7
100
AcDbCircle
 10
420.2873649720038
 20
472.6402398485384
 30
0.0
 40
23.00395009274878
100
AcDbArc
 50
252.4718398636652
 51
270.0
  0
ARC
  5
30A
330
7E
100
AcDbEntity
  8
1
  6
Continuous
 62
     7
100
AcDbCircle
 10
430.6764643615207
 20
455.7737635507197
 30
0.0
 40
6.138110397458548
100
AcDbArc
 50
270.8251980932288
 51
295.67840336148
  0
ARC
  5
30B
330
7E
100
AcDbEntity
  8
1
  6
Continuous
 62
     7
100
AcDbCircle
 10
409.8982655824868
 20
455.777421776253
 30
0.0
 40
6.141132020463488
100
AcDbArc
 50
270.0
 51
304.3023524963339
  0
ARC
  5
30C
330
7E
100
AcDbEntity
  8
1
  6
Continuous
 62
     7
100
AcDbCircle
 10
420.2873649720038
 20
472.6402398485384
 30
0.0
 40
23.00395009274888
100
AcDbArc
 50
270.0
 51
287.5281601363354
  0
ARC
  5
30D
330
7E
100
AcDbEntity
  8
1
  6
Continuous
 62
     7
100
AcDbCircle
 10
809.1764643615211
 20
455.7737635507197
 30
0.0
 40
6.138110397458543
100
AcDbArc
 50
269.1748019067749
 51
270.8251980932272
  0
ARC
  5
30E
330
7E
100
AcDbEntity
  8
1
  6
Continuous
 62
     7
100
AcDbCircle
 10
804.7873649720042
 20
467.0227642538605
 30
0.0
 40
17.38647449807094
100
AcDbArc
 50
249.8123537708994
 51
290.1876462291006
  0
ARC
  5
30F
330
7E
100
AcDbEntity
  8
1
  6
Continuous
 62
     7
100
AcDbCircle
 10
792.7873649720042
 20
467.0227642538605
 30
0.0
 40
17.38647449807094
100
AcDbArc
 50
249.8123537708994
 51
290.1876462291006
  0
ENDBLK
  5
80
330
7E
100
AcDbEntity
  8
0
100
AcDbBlockEnd
  0
BLOCK
  5
82
330
81
100
AcDbEntity
  8
0
100
AcDbBlockBegin
  2
92-53A__13
 70
     0
 10
120.4987053000016
 20
275.4522930483092
 30
0.0
  3
92-53A__13
  1

  0
LINE
  5
310
330
81
100
AcDbEntity
  8
1
  6
Continuous
 62
     7
100
AcDbLine
 10
780.2873649720041
 20
459.6362897557894
 30
0.0
 11
780.2873649720041
 21
458.1362897557895
 31
0.0
  0
LINE
  5
311
330
81
100
AcDbEntity
  8
1
  6
Continuous
 62
     7
100
AcDbLine
 10
780.2873649720041
 20
459.6362897557894
 30
0.0
 11
817.2873649720041
 21
459.6362897557894
 31
0.0
  0
LINE
  5
312
330
81
100
AcDbEntity
  8
1
  6
Continuous
 62
     7
100
AcDbLine
 10
401.7873649720041
 20
459.6362897557894
 30
0.0
 11
401.787364972004
 21
458.1362897557895
 31
0.0
  0
LINE
  5
313
330
81
100
AcDbEntity
  8
1
  6
Continuous
 62
     7
100
AcDbLine
 10
401.7873649720041
 20
459.6362897557894
 30
0.0
 11
438.7873649720038
 21
459.6362897557894
 31
0.0
  0
LINE
  5
314
330
81
100
AcDbEntity
  8
1
  6
Continuous
 62
     7
100
AcDbLine
 10
788.2873649720041
 20
458.1362897557895
 30
0.0
 11
817.287364972004
 21
458.1362897557895
 31
0.0
  0
LINE
  5
315
330
81
100
AcDbEntity
  8
1
  6
Continuous
 62
     7
100
AcDbLine
 10
817.287364972004
 20
458.1362897557895
 30
0.0
 11
817.2873649720041
 21
459.6362897557894
 31
0.0
  0
LINE
  5
316
330
81
100
AcDbEntity
  8
1
  6
Continuous
 62
     7
100
AcDbLine
 10
780.2873649720041
 20
458.1362897557895
 30
0.0
 11
788.2873649720041
 21
458.1362897557895
 31
0.0
  0
LINE
  5
317
330
81
100
AcDbEntity
  8
1
  6
Continuous
 62
     7
100
AcDbLine
 10
409.787364972004
 20
458.1362897557895
 30
0.0
 11
438.7873649720038
 21
458.1362897557895
 31
0.0
  0
LINE
  5
318
330
81
100
AcDbEntity
  8
1
  6
Continuous
 62
     7
100
AcDbLine
 10
438.7873649720038
 20
458.1362897557895
 30
0.0
 11
438.7873649720038
 21
459.6362897557894
 31
0.0
  0
LINE
  5
319
330
81
100
AcDbEntity
  8
1
  6
Continuous
 62
     7
100
AcDbLine
 10
401.787364972004
 20
458.1362897557895
 30
0.0
 11
409.787364972004
 21
458.1362897557895
 31
0.0
  0
ENDBLK
  5
83
330
81
100
AcDbEntity
  8
0
100
AcDbBlockEnd
  0
BLOCK
  5
85
330
84
100
AcDbEntity
  8
0
100
AcDbBlockBegin
  2
98-119A
 70
     0
 10
197.787364972004
 20
475.1362897557893
 30
0.0
  3
98-119A
  1

  0
LINE
  5
31A
330
84
100
AcDbEntity
  8
1
  6
Continuous
 62
     7
100
AcDbLine
 10
788.5373649720042
 20
474.6362897557897
 30
0.0
 11
775.7873649720042
 21
474.6362897557897
 31
0.0
  0
LINE
  5
31B
330
84
100
AcDbEntity
  8
1
  6
Continuous
 62
     7
100
AcDbLine
 10
430.5373649720041
 20
474.6362897557897
 30
0.0
 11
439.7873649720041
 21
474.6362897557897
 31
0.0
  0
LINE
  5
31C
330
84
100
AcDbEntity
  8
1
  6
Continuous
 62
     7
100
AcDbLine
 10
439.7873649720041
 20
474.6362897557897
 30
0.0
 11
439.7873649720041
 21
475.6362897557893
 31
0.0
  0
LINE
  5
31D
330
84
100
AcDbEntity
  8
1
  6
Continuous
 62
     7
100
AcDbLine
 10
410.037364972004
 20
474.6362897557897
 30
0.0
 11
227.5373649720039
 21
474.6362897557897
 31
0.0
  0
LINE
  5
31E
330
84
100
AcDbEntity
  8
1
  6
Continuous
 62
     7
100
AcDbLine
 10
197.787364972004
 20
475.6362897557893
 30
0.0
 11
197.787364972004
 21
474.6362897557897
 31
0.0
  0
LINE
  5
31F
330
84
100
AcDbEntity
  8
1
  6
Continuous
 62
     7
100
AcDbLine
 10
197.787364972004
 20
474.6362897557897
 30
0.0
 11
207.0373649720041
 21
474.6362897557897
 31
0.0
  0
LINE
  5
320
330
84
100
AcDbEntity
  8
1
  6
Continuous
 62
     7
100
AcDbLine
 10
775.7873649720042
 20
475.6362897557893
 30
0.0
 11
775.7873649720042
 21
474.6362897557897
 31
0.0
  0
LINE
  5
321
330
84
100
AcDbEntity
  8
1
  6
Continuous
 62
     7
100
AcDbLine
 10
821.7873649720042
 20
474.6362897557897
 30
0.0
 11
821.7873649720042
 21
475.6362897557893
 31
0.0
  0
LINE
  5
322
330
84
100
AcDbEntity
  8
1
  6
Continuous
 62
     7
100
AcDbLine
 10
821.7873649720042
 20
474.6362897557897
 30
0.0
 11
809.0373649720041
 21
474.6362897557897
 31
0.0
  0
ENDBLK
  5
86
330
84
100
AcDbEntity
  8
0
100
AcDbBlockEnd
  0
BLOCK
  5
88
330
87
100
AcDbEntity
  8
0
100
AcDbBlockBegin
  2
35-276__14
 70
     0
 10
0.0
 20
1485.0
 30
0.0
  3
35-276__14
  1

  0
LINE
  5
323
330
87
100
AcDbEntity
  8
1
  6
Continuous
 62
     2
100
AcDbLine
 10
789.4718649720044
 20
424.6362897557896
 30
0.0
 11
789.4718649720044
 21
449.6362897557895
 31
0.0
  0
LINE
  5
324
330
87
100
AcDbEntity
  8
1
  6
Continuous
 62
     2
100
AcDbLine
 10
808.1028649720042
 20
424.6362897557896
 30
0.0
 11
808.1028649720042
 21
449.6362897557895
 31
0.0
  0
LINE
  5
325
330
87
100
AcDbEntity
  8
1
  6
PHANTOM
 62
     4
100
AcDbLine
 10
420.2873649720042
 20
482.1362897557895
 30
0.0
 11
420.2873649720042
 21
415.1362897557895
 31
0.0
  0
LINE
  5
326
330
87
100
AcDbEntity
  8
1
  6
Continuous
 62
     7
100
AcDbLine
 10
430.7648649720042
 20
471.6362897557895
 30
0.0
 11
430.7648649720042
 21
459.6362897557895
 31
0.0
  0
LINE
  5
327
330
87
100
AcDbEntity
  8
1
  6
Continuous
 62
     7
100
AcDbLine
 10
409.8098649720042
 20
469.6362897557895
 30
0.0
 11
430.7648649720042
 21
469.6362897557896
 31
0.0
  0
LINE
  5
328
330
87
100
AcDbEntity
  8
1
  6
Continuous
 62
     7
100
AcDbLine
 10
409.8098649720042
 20
471.6489327941845
 30
0.0
 11
409.8098649720033
 21
459.6362897557895
 31
0.0
  0
LINE
  5
329
330
87
100
AcDbEntity
  8
0
  6
Continuous
 62
     2
100
AcDbLine
 10
409.8098649720042
 20
471.6489327941845
 30
0.0
 11
410.9718649720042
 21
469.6362897557895
 31
0.0
  0
LINE
  5
32A
330
87
100
AcDbEntity
  8
0
  6
Continuous
 62
     2
100
AcDbLine
 10
429.6028649720042
 20
469.6362897557896
 30
0.0
 11
430.7648649720042
 21
471.6489327941846
 31
0.0
  0
LINE
  5
32B
330
87
100
AcDbEntity
  8
1
  6
Continuous
 62
     7
100
AcDbLine
 10
409.8098649720042
 20
473.6362897557895
 30
0.0
 11
410.0373649720041
 21
473.6362897557898
 31
0.0
  0
LINE
  5
32C
330
87
100
AcDbEntity
  8
1
  6
Continuous
 62
     7
100
AcDbLine
 10
430.7648649720042
 20
473.6362897557895
 30
0.0
 11
430.5373649720041
 21
473.6362897557898
 31
0.0
  0
LINE
  5
32D
330
87
100
AcDbEntity
  8
1
  6
Continuous
 62
     7
100
AcDbLine
 10
430.7648649720042
 20
473.6362897557895
 30
0.0
 11
430.7648649720042
 21
471.6362897557895
 31
0.0
  0
LINE
  5
32E
330
87
100
AcDbEntity
  8
1
  6
Continuous
 62
     7
100
AcDbLine
 10
409.8098649720042
 20
473.6362897557895
 30
0.0
 11
409.8098649720042
 21
471.6489327941845
 31
0.0
  0
LINE
  5
32F
330
87
100
AcDbEntity
  8
1
  6
Continuous
 62
     2
100
AcDbLine
 10
429.6028649720042
 20
424.6362897557895
 30
0.0
 11
429.6028649720043
 21
449.6362897557895
 31
0.0
  0
LINE
  5
330
330
87
100
AcDbEntity
  8
1
  6
Continuous
 62
     2
100
AcDbLine
 10
410.9718649720043
 20
424.6362897557895
 30
0.0
 11
410.9718649720043
 21
449.6362897557895
 31
0.0
  0
LINE
  5
331
330
87
100
AcDbEntity
  8
1
  6
Continuous
 62
     2
100
AcDbLine
 10
429.6028649720043
 20
459.6362897557895
 30
0.0
 11
429.6028649720042
 21
469.6362897557896
 31
0.0
  0
LINE
  5
332
330
87
100
AcDbEntity
  8
1
  6
Continuous
 62
     2
100
AcDbLine
 10
410.9718649720043
 20
459.6362897557895
 30
0.0
 11
410.9718649720043
 21
469.6236467173944
 31
0.0
  0
LINE
  5
333
330
87
100
AcDbEntity
  8
1
  6
Continuous
 62
     2
100
AcDbLine
 10
410.9718649720043
 20
469.6236467173944
 30
0.0
 11
410.9718649720042
 21
469.6362897557895
 31
0.0
  0
LINE
  5
334
330
87
100
AcDbEntity
  8
1
  6
Continuous
 62
     2
100
AcDbLine
 10
789.4718649720043
 20
469.6236467173944
 30
0.0
 11
789.4718649720041
 21
469.6362897557895
 31
0.0
  0
LINE
  5
335
330
87
100
AcDbEntity
  8
1
  6
Continuous
 62
     2
100
AcDbLine
 10
789.4718649720043
 20
459.6362897557895
 30
0.0
 11
789.4718649720043
 21
469.6236467173944
 31
0.0
  0
LINE
  5
336
330
87
100
AcDbEntity
  8
1
  6
Continuous
 62
     2
100
AcDbLine
 10
808.1028649720042
 20
459.6362897557895
 30
0.0
 11
808.1028649720042
 21
469.6362897557896
 31
0.0
  0
LINE
  5
337
330
87
100
AcDbEntity
  8
1
  6
Continuous
 62
     7
100
AcDbLine
 10
788.3098649720042
 20
473.6362897557895
 30
0.0
 11
788.3098649720042
 21
471.6489327941845
 31
0.0
  0
LINE
  5
338
330
87
100
AcDbEntity
  8
1
  6
Continuous
 62
     7
100
AcDbLine
 10
809.2648649720043
 20
473.6362897557895
 30
0.0
 11
809.2648649720043
 21
471.6362897557895
 31
0.0
  0
LINE
  5
339
330
87
100
AcDbEntity
  8
1
  6
Continuous
 62
     7
100
AcDbLine
 10
809.2648649720043
 20
473.6362897557895
 30
0.0
 11
809.0373649720041
 21
473.6362897557896
 31
0.0
  0
LINE
  5
33A
330
87
100
AcDbEntity
  8
1
  6
Continuous
 62
     7
100
AcDbLine
 10
788.3098649720042
 20
473.6362897557895
 30
0.0
 11
788.5373649720042
 21
473.6362897557896
 31
0.0
  0
LINE
  5
33B
330
87
100
AcDbEntity
  8
0
  6
Continuous
 62
     2
100
AcDbLine
 10
808.1028649720042
 20
469.6362897557896
 30
0.0
 11
809.2648649720043
 21
471.6489327941846
 31
0.0
  0
LINE
  5
33C
330
87
100
AcDbEntity
  8
0
  6
Continuous
 62
     2
100
AcDbLine
 10
788.3098649720042
 20
471.6489327941845
 30
0.0
 11
789.4718649720041
 21
469.6362897557895
 31
0.0
  0
LINE
  5
33D
330
87
100
AcDbEntity
  8
1
  6
Continuous
 62
     7
100
AcDbLine
 10
788.3098649720042
 20
471.6489327941845
 30
0.0
 11
788.3098649720033
 21
459.6362897557895
 31
0.0
  0
LINE
  5
33E
330
87
100
AcDbEntity
  8
1
  6
Continuous
 62
     7
100
AcDbLine
 10
788.3098649720042
 20
469.6362897557895
 30
0.0
 11
809.2648649720043
 21
469.6362897557896
 31
0.0
  0
LINE
  5
33F
330
87
100
AcDbEntity
  8
1
  6
Continuous
 62
     7
100
AcDbLine
 10
809.2648649720043
 20
471.6362897557895
 30
0.0
 11
809.2648649720043
 21
459.6362897557895
 31
0.0
  0
LINE
  5
340
330
87
100
AcDbEntity
  8
1
  6
PHANTOM
 62
     4
100
AcDbLine
 10
798.7873649720042
 20
482.1362897557895
 30
0.0
 11
798.7873649720042
 21
414.1362897557891
 31
0.0
  0
LINE
  5
341
330
87
100
AcDbEntity
  8
1
  6
Continuous
 62
     7
100
AcDbLine
 10
430.7648649720043
 20
449.6362897557896
 30
0.0
 11
430.7648649720039
 21
424.6362897557895
 31
0.0
  0
LINE
  5
342
330
87
100
AcDbEntity
  8
1
  6
Continuous
 62
     7
100
AcDbLine
 10
409.8098649720023
 20
449.6362897557895
 30
0.0
 11
409.8098649719988
 21
424.6362897557895
 31
0.0
  0
LINE
  5
343
330
87
100
AcDbEntity
  8
1
  6
Continuous
 62
     7
100
AcDbLine
 10
809.2648649720041
 20
449.6362897557896
 30
0.0
 11
809.264864972004
 21
424.6362897557896
 31
0.0
  0
LINE
  5
344
330
87
100
AcDbEntity
  8
1
  6
Continuous
 62
     7
100
AcDbLine
 10
788.3098649720023
 20
449.6362897557895
 30
0.0
 11
788.3098649719989
 21
424.6362897557896
 31
0.0
  0
ENDBLK
  5
89
330
87
100
AcDbEntity
  8
0
100
AcDbBlockEnd
  0
BLOCK
  5
8B
330
8A
100
AcDbEntity
  8
0
100
AcDbBlockBegin
  2
30-310-M11
 70
     0
 10
0.0
 20
1485.0
 30
0.0
  3
30-310-M11
  1

  0
LINE
  5
345
330
8A
100
AcDbEntity
  8
1
  6
Continuous
 62
     7
100
AcDbLine
 10
342.7856643806201
 20
500.1372967194732
 30
0.0
 11
342.7856643806201
 21
514.1372967194736
 31
0.0
  0
LINE
  5
346
330
8A
100
AcDbEntity
  8
1
  6
Continuous
 62
     7
100
AcDbLine
 10
342.7856643806201
 20
530.1372967194736
 30
0.0
 11
342.7856643806201
 21
537.1872967194738
 31
0.0
  0
LINE
  5
347
330
8A
100
AcDbEntity
  8
1
  6
Continuous
 62
     7
100
AcDbLine
 10
294.7856643806201
 20
514.1372967194736
 30
0.0
 11
294.7856643806201
 21
500.1372967194732
 31
0.0
  0
LINE
  5
348
330
8A
100
AcDbEntity
  8
1
  6
Continuous
 62
     7
100
AcDbLine
 10
294.7856643806201
 20
537.1872967194738
 30
0.0
 11
294.7856643806201
 21
530.1372967194736
 31
0.0
  0
LINE
  5
349
330
8A
100
AcDbEntity
  8
1
  6
PHANTOM
 62
     4
100
AcDbLine
 10
318.7873649720041
 20
600.2356306345248
 30
0.0
 11
318.7873649720041
 21
496.1362897557897
 31
0.0
  0
LINE
  5
34A
330
8A
100
AcDbEntity
  8
1
  6
Continuous
 62
     7
100
AcDbLine
 10
294.7856643806201
 20
500.1372967194732
 30
0.0
 11
294.7856643806201
 21
499.1362897557897
 31
0.0
  0
LINE
  5
34B
330
8A
100
AcDbEntity
  8
1
  6
Continuous
 62
     7
100
AcDbLine
 10
342.7856643806201
 20
499.1362897557897
 30
0.0
 11
342.7856643806201
 21
500.1372967194732
 31
0.0
  0
LINE
  5
34C
330
8A
100
AcDbEntity
  8
1
  6
Continuous
 62
     7
100
AcDbLine
 10
294.7856643806201
 20
499.1362897557897
 30
0.0
 11
342.7856643806201
 21
499.1362897557897
 31
0.0
  0
LINE
  5
34D
330
8A
100
AcDbEntity
  8
1
  6
Continuous
 62
     7
100
AcDbLine
 10
295.7302633574541
 20
538.1372967194739
 30
0.0
 11
295.2856643806201
 21
538.1372967194739
 31
0.0
  0
LINE
  5
34E
330
8A
100
AcDbEntity
  8
1
  6
Continuous
 62
     7
100
AcDbLine
 10
294.7856643806201
 20
537.6372967194739
 30
0.0
 11
294.7856643806201
 21
537.0872967194739
 31
0.0
  0
LINE
  5
34F
330
8A
100
AcDbEntity
  8
1
  6
Continuous
 62
     7
100
AcDbLine
 10
341.8444665865541
 20
538.1372967194739
 30
0.0
 11
342.2856643806201
 21
538.1372967194739
 31
0.0
  0
LINE
  5
350
330
8A
100
AcDbEntity
  8
1
  6
Continuous
 62
     7
100
AcDbLine
 10
341.8444665865541
 20
538.1372967194739
 30
0.0
 11
341.1943057656571
 21
538.5126672444353
 31
0.0
  0
LINE
  5
351
330
8A
100
AcDbEntity
  8
1
  6
Continuous
 62
     7
100
AcDbLine
 10
342.7856643806201
 20
537.6372967194739
 30
0.0
 11
342.7856643806201
 21
537.0872967194739
 31
0.0
  0
LINE
  5
352
330
8A
100
AcDbEntity
  8
1
  6
Continuous
 62
     7
100
AcDbLine
 10
295.7302633574541
 20
538.1372967194739
 30
0.0
 11
341.8444665865541
 21
538.1372967194739
 31
0.0
  0
LINE
  5
353
330
8A
100
AcDbEntity
  8
1
  6
Continuous
 62
     7
100
AcDbLine
 10
296.3804241783511
 20
538.5126672444353
 30
0.0
 11
295.7302633574541
 21
538.1372967194739
 31
0.0
  0
LINE
  5
354
330
8A
100
AcDbEntity
  8
1
  6
Continuous
 62
     7
100
AcDbLine
 10
776.3804241783512
 20
538.5126672444353
 30
0.0
 11
775.7302633574542
 21
538.1372967194739
 31
0.0
  0
LINE
  5
355
330
8A
100
AcDbEntity
  8
1
  6
Continuous
 62
     7
100
AcDbLine
 10
775.7302633574542
 20
538.1372967194739
 30
0.0
 11
821.8444665865542
 21
538.1372967194739
 31
0.0
  0
LINE
  5
356
330
8A
100
AcDbEntity
  8
1
  6
Continuous
 62
     7
100
AcDbLine
 10
821.8444665865542
 20
538.1372967194739
 30
0.0
 11
821.1943057656572
 21
538.5126672444353
 31
0.0
  0
LINE
  5
357
330
8A
100
AcDbEntity
  8
1
  6
Continuous
 62
     7
100
AcDbLine
 10
821.8444665865542
 20
538.1372967194739
 30
0.0
 11
822.2856643806202
 21
538.1372967194739
 31
0.0
  0
LINE
  5
358
330
8A
100
AcDbEntity
  8
1
  6
Continuous
 62
     7
100
AcDbLine
 10
775.7302633574542
 20
538.1372967194739
 30
0.0
 11
775.2856643806202
 21
538.1372967194739
 31
0.0
  0
LINE
  5
359
330
8A
100
AcDbEntity
  8
1
  6
Continuous
 62
     7
100
AcDbLine
 10
774.7856643806202
 20
499.1362897557897
 30
0.0
 11
822.7856643806202
 21
499.1362897557897
 31
0.0
  0
LINE
  5
35A
330
8A
100
AcDbEntity
  8
1
  6
Continuous
 62
     7
100
AcDbLine
 10
774.7856643806202
 20
537.6372967194739
 30
0.0
 11
774.7856643806202
 21
499.1362897557897
 31
0.0
  0
LINE
  5
35B
330
8A
100
AcDbEntity
  8
1
  6
Continuous
 62
     7
100
AcDbLine
 10
822.7856643806202
 20
499.1362897557897
 30
0.0
 11
822.7856643806202
 21
537.6372967194739
 31
0.0
  0
LINE
  5
35C
330
8A
100
AcDbEntity
  8
1
  6
PHANTOM
 62
     4
100
AcDbLine
 10
798.7873649720041
 20
600.2356306345248
 30
0.0
 11
798.7873649720041
 21
496.1362897557897
 31
0.0
  0
LINE
  5
35D
330
8A
100
AcDbEntity
  8
1
  6
PHANTOM
 62
     4
100
AcDbLine
 10
291.7856643806201
 20
522.1362897557904
 30
0.0
 11
345.789065563388
 21
522.1362897557904
 31
0.0
  0
ARC
  5
35E
330
8A
100
AcDbEntity
  8
1
  6
Continuous
 62
     7
100
AcDbCircle
 10
363.2227170249992
 20
522.1372967194736
 30
0.0
 40
21.94705266747958
100
AcDbArc
 50
158.6223458056402
 51
201.3776541943598
  0
ARC
  5
35F
330
8A
100
AcDbEntity
  8
1
  6
Continuous
 62
     7
100
AcDbCircle
 10
274.3486117362411
 20
522.1372967194736
 30
0.0
 40
21.94705266747953
100
AcDbArc
 50
338.6223458056401
 51
21.3776541943599
  0
ARC
  5
360
330
8A
100
AcDbEntity
  8
1
  6
Continuous
 62
     7
100
AcDbCircle
 10
295.2856643806201
 20
537.6372967194739
 30
0.0
 40
0.5
100
AcDbArc
 50
90.0
 51
180.0
  0
ARC
  5
361
330
8A
100
AcDbEntity
  8
1
  6
Continuous
 62
     7
100
AcDbCircle
 10
342.2856643806201
 20
537.6372967194739
 30
0.0
 40
0.5
100
AcDbArc
 50
0.0
 51
90.0
  0
ARC
  5
362
330
8A
100
AcDbEntity
  8
1
  6
Continuous
 62
     7
100
AcDbCircle
 10
822.2856643806202
 20
537.6372967194739
 30
0.0
 40
0.5
100
AcDbArc
 50
0.0
 51
90.0
  0
ARC
  5
363
330
8A
100
AcDbEntity
  8
1
  6
Continuous
 62
     7
100
AcDbCircle
 10
775.2856643806202
 20
537.6372967194739
 30
0.0
 40
0.5
100
AcDbArc
 50
90.0
 51
180.0
  0
ENDBLK
  5
8C
330
8A
100
AcDbEntity
  8
0
100
AcDbBlockEnd
  0
BLOCK
  5
8E
330
8D
100
AcDbEntity
  8
0
100
AcDbBlockBegin
  2
34-167-M1
 70
     0
 10
0.0
 20
1485.0
 30
0.0
  3
34-167-M1
  1

  0
LINE
  5
364
330
8D
100
AcDbEntity
  8
1
  6
PHANTOM
 62
     4
100
AcDbLine
 10
787.8873649720042
 20
522.138303684173
 30
0.0
 11
809.6873649720051
 21
522.138303684173
 31
0.0
  0
LINE
  5
365
330
8D
100
AcDbEntity
  8
1
  6
PHANTOM
 62
     4
100
AcDbLine
 10
798.7873649720041
 20
511.2383036841725
 30
0.0
 11
798.7873649720041
 21
533.0383036841736
 31
0.0
  0
LINE
  5
366
330
8D
100
AcDbEntity
  8
1
  6
Continuous
 62
     7
100
AcDbLine
 10
790.9509116926181
 20
521.138303684173
 30
0.0
 11
806.6238182513912
 21
521.138303684173
 31
0.0
  0
LINE
  5
367
330
8D
100
AcDbEntity
  8
1
  6
Continuous
 62
     7
100
AcDbLine
 10
806.6238182513912
 20
523.138303684173
 30
0.0
 11
790.9509116926181
 21
523.138303684173
 31
0.0
  0
LINE
  5
368
330
8D
100
AcDbEntity
  8
1
  6
PHANTOM
 62
     4
100
AcDbLine
 10
310.2995169416394
 20
522.136289754998
 30
0.0
 11
291.2995169416462
 21
522.136289754998
 31
0.0
  0
LINE
  5
369
330
8D
100
AcDbEntity
  8
1
  6
PHANTOM
 62
     4
100
AcDbLine
 10
327.2752130023688
 20
522.138303684173
 30
0.0
 11
346.275213002362
 21
522.138303684173
 31
0.0
  0
ARC
  5
36A
330
8D
100
AcDbEntity
  8
1
  6
Continuous
 62
     7
100
AcDbCircle
 10
326.2995169416462
 20
522.136289754998
 30
0.0
 40
31.9999999999999
100
AcDbArc
 50
167.1205931262172
 51
180.0
  0
ARC
  5
36B
330
8D
100
AcDbEntity
  8
1
  6
Continuous
 62
     7
100
AcDbCircle
 10
311.275213002362
 20
522.138303684173
 30
0.0
 40
31.99999999999991
100
AcDbArc
 50
347.109681436058
 51
0.0
  0
ARC
  5
36C
330
8D
100
AcDbEntity
  8
1
  6
Continuous
 62
     7
100
AcDbCircle
 10
311.275213002362
 20
522.138303684173
 30
0.0
 40
32.0
100
AcDbArc
 50
0.0
 51
12.88809728965892
  0
ARC
  5
36D
330
8D
100
AcDbEntity
  8
1
  6
Continuous
 62
     7
100
AcDbCircle
 10
326.2995169416462
 20
522.136289754998
 30
0.0
 40
32.0
100
AcDbArc
 50
180.0
 51
192.8771857454182
  0
CIRCLE
  5
36E
330
8D
100
AcDbEntity
  8
1
  6
Continuous
 62
     7
100
AcDbCircle
 10
798.7873649720041
 20
522.138303684173
 30
0.0
 40
7.900000000001
  0
ENDBLK
  5
8F
330
8D
100
AcDbEntity
  8
0
100
AcDbBlockEnd
  0
BLOCK
  5
91
330
90
100
AcDbEntity
  8
0
100
AcDbBlockBegin
  2
84-360A-M22
 70
     0
 10
1472.184695213957
 20
765.252473930434
 30
0.0
  3
84-360A-M22
  1

  0
LINE
  5
36F
330
90
100
AcDbEntity
  8
1
  6
Continuous
 62
     7
100
AcDbLine
 10
334.1439594195795
 20
1209.103338251519
 30
0.0
 11
333.6303011839182
 21
1208.803128186005
 31
0.0
  0
LINE
  5
370
102
{ACAD_REACTORS
330
3A0
102
}
330
90
100
AcDbEntity
  8
1
  6
Continuous
 62
     7
100
AcDbLine
 10
334.6920630686473
 20
1238.902688661719
 30
0.0
 11
336.700808389232
 21
1237.303128186004
 31
0.0
  0
LINE
  5
371
330
90
100
AcDbEntity
  8
1
  6
Continuous
 62
     7
100
AcDbLine
 10
303.3998037507768
 20
1209.103338251519
 30
0.0
 11
303.9134619864376
 21
1208.803128186005
 31
0.0
  0
LINE
  5
372
102
{ACAD_REACTORS
330
39F
102
}
330
90
100
AcDbEntity
  8
1
  6
Continuous
 62
     7
100
AcDbLine
 10
302.851700101709
 20
1238.902688661719
 30
0.0
 11
300.8429547811243
 21
1237.303128186004
 31
0.0
  0
LINE
  5
373
102
{ACAD_REACTORS
330
3A0
102
}
330
90
100
AcDbEntity
  8
1
  6
Continuous
 62
     7
100
AcDbLine
 10
336.1967952558996
 20
1210.303128186004
 30
0.0
 11
334.1439594195795
 21
1209.103338251519
 31
0.0
  0
LINE
  5
374
330
90
100
AcDbEntity
  8
1
  6
Continuous
 62
     7
100
AcDbLine
 10
334.1891867893196
 20
1239.303128186005
 30
0.0
 11
334.6920630686473
 21
1238.902688661719
 31
0.0
  0
LINE
  5
375
102
{ACAD_REACTORS
330
39F
102
}
330
90
100
AcDbEntity
  8
1
  6
Continuous
 62
     7
100
AcDbLine
 10
301.3469679144564
 20
1210.303128186005
 30
0.0
 11
303.3998037507768
 21
1209.103338251519
 31
0.0
  0
LINE
  5
376
330
90
100
AcDbEntity
  8
1
  6
Continuous
 62
     7
100
AcDbLine
 10
303.3545763810362
 20
1239.303128186005
 30
0.0
 11
302.851700101709
 21
1238.902688661719
 31
0.0
  0
LINE
  5
377
330
90
100
AcDbEntity
  8
1
  6
PHANTOM
 62
     5
100
AcDbLine
 10
787.9645375055575
 20
695.8038515984742
 30
0.0
 11
785.6631978210239
 21
695.602510465156
 31
0.0
  0
LINE
  5
378
330
90
100
AcDbEntity
  8
1
  6
PHANTOM
 62
     5
100
AcDbLine
 10
829.7283775780356
 20
635.7344658381896
 30
0.0
 11
829.3057593162953
 21
634.8281580511537
 31
0.0
  0
LINE
  5
379
330
90
100
AcDbEntity
  8
1
  6
Continuous
 62
     7
100
AcDbLine
 10
760.5500521039171
 20
684.9274803377946
 30
0.0
 11
763.054395650729
 21
682.3378198966582
 31
0.0
  0
LINE
  5
37A
330
90
100
AcDbEntity
  8
1
  6
Continuous
 62
     7
100
AcDbLine
 10
794.7873649720018
 20
669.0210104219229
 30
0.0
 11
792.7873649720018
 21
669.5362897557904
 31
0.0
  0
LINE
  5
37B
330
90
100
AcDbEntity
  8
1
  6
Continuous
 62
     7
100
AcDbLine
 10
765.7873649720018
 20
680.940689859706
 30
0.0
 11
764.2873649720018
 21
681.9264981453732
 31
0.0
  0
LINE
  5
37C
330
90
100
AcDbEntity
  8
1
  6
Continuous
 62
     7
100
AcDbLine
 10
760.5500521039171
 20
684.9274803377946
 30
0.0
 11
758.5494204669876
 21
683.772415123665
 31
0.0
  0
LINE
  5
37D
102
{ACAD_REACTORS
330
3A1
102
}
330
90
100
AcDbEntity
  8
1
  6
Continuous
 62
     7
100
AcDbLine
 10
765.7873649720018
 20
680.940689859706
 30
0.0
 11
764.2873649720018
 21
681.9264981453732
 31
0.0
  0
LINE
  5
37E
102
{ACAD_REACTORS
330
3A1
102
}
330
90
100
AcDbEntity
  8
1
  6
Continuous
 62
     7
100
AcDbLine
 10
794.7873649720018
 20
669.0210104219229
 30
0.0
 11
792.7873649720018
 21
669.5362897557904
 31
0.0
  0
LINE
  5
37F
330
90
100
AcDbEntity
  8
1
  6
PHANTOM
 62
     4
100
AcDbLine
 10
798.7873649720018
 20
672.1820513358405
 30
0.0
 11
798.7873649720018
 21
630.1362897557899
 31
0.0
  0
LINE
  5
380
330
90
100
AcDbEntity
  8
1
  6
Continuous
 62
     7
100
AcDbLine
 10
823.7873649720018
 20
648.1362897557899
 30
0.0
 11
823.7873649720018
 21
647.1362897557899
 31
0.0
  0
LINE
  5
381
330
90
100
AcDbEntity
  8
1
  6
Continuous
 62
     7
100
AcDbLine
 10
823.7873649720018
 20
647.1362897557899
 30
0.0
 11
820.8077993681522
 21
647.1362897557899
 31
0.0
  0
ARC
  5
382
102
{ACAD_REACTORS
330
3A0
102
}
330
90
100
AcDbEntity
  8
1
  6
Continuous
 62
     7
100
AcDbCircle
 10
-256.7095561331847
 20
1234.875706058435
 30
0.0
 40
591.4153293443075
100
AcDbArc
 50
357.502405522131
 51
0.39013342878283
  0
ARC
  5
383
102
{ACAD_REACTORS
330
39F
102
}
330
90
100
AcDbEntity
  8
1
  6
Continuous
 62
     7
100
AcDbCircle
 10
894.2533193035401
 20
1234.875706058435
 30
0.0
 40
591.4153293443068
100
AcDbArc
 50
179.6098665712172
 51
182.497594477869
  0
ARC
  5
384
330
90
100
AcDbEntity
  8
1
  6
Continuous
 62
     7
100
AcDbCircle
 10
318.7718815851777
 20
1238.303128186005
 30
0.0
 40
45.00000000000122
100
AcDbArc
 50
251.7052947919983
 51
288.2947052080022
  0
ARC
  5
385
330
90
100
AcDbEntity
  8
1
  6
Continuous
 62
     7
100
AcDbCircle
 10
-256.7095561331847
 20
1234.875706058435
 30
0.0
 40
590.915329344307
100
AcDbArc
 50
357.3514819526911
 51
357.4711541167296
  0
ARC
  5
386
330
90
100
AcDbEntity
  8
1
  6
Continuous
 62
     7
100
AcDbCircle
 10
-256.7095561331847
 20
1234.875706058435
 30
0.0
 40
590.9153293443076
100
AcDbArc
 50
357.4711541167296
 51
0.42929158021493
  0
ARC
  5
387
330
90
100
AcDbEntity
  8
1
  6
Continuous
 62
     7
100
AcDbCircle
 10
894.2533193035401
 20
1234.875706058435
 30
0.0
 40
590.9153293443073
100
AcDbArc
 50
179.5707084197851
 51
182.5288458832704
  0
ARC
  5
388
330
90
100
AcDbEntity
  8
1
  6
Continuous
 62
     7
100
AcDbCircle
 10
894.2533193035401
 20
1234.875706058435
 30
0.0
 40
590.915329344307
100
AcDbArc
 50
177.2239373385471
 51
179.5707084197851
  0
ARC
  5
389
102
{ACAD_REACTORS
330
39F
102
}
330
90
100
AcDbEntity
  8
1
  6
Continuous
 62
     7
100
AcDbCircle
 10
894.2533193035401
 20
1234.875706058435
 30
0.0
 40
593.4153293443067
100
AcDbArc
 50
179.7656254835274
 51
182.3732242779171
  0
ARC
  5
38A
102
{ACAD_REACTORS
330
3A0
102
}
330
90
100
AcDbEntity
  8
1
  6
Continuous
 62
     7
100
AcDbCircle
 10
-256.7095561331847
 20
1234.875706058435
 30
0.0
 40
593.4153293443076
100
AcDbArc
 50
357.6267757220828
 51
0.23437451647258
  0
ARC
  5
38B
330
90
100
AcDbEntity
  8
1
  6
Continuous
 62
     7
100
AcDbCircle
 10
-256.7095561331847
 20
1234.875706058435
 30
0.0
 40
590.9153293443076
100
AcDbArc
 50
0.42929158021493
 51
2.77606266145281
  0
ARC
  5
38C
330
90
100
AcDbEntity
  8
1
  6
Continuous
 62
     7
100
AcDbCircle
 10
-256.7095561331847
 20
1234.875706058435
 30
0.0
 40
590.9153293443076
100
AcDbArc
 50
356.1868068539001
 51
357.3514819526911
  0
ARC
  5
38D
330
90
100
AcDbEntity
  8
1
  6
Continuous
 62
     7
100
AcDbCircle
 10
894.2533193035401
 20
1234.875706058435
 30
0.0
 40
590.9153293443071
100
AcDbArc
 50
182.5288458832704
 51
182.6485180473088
  0
ARC
  5
38E
330
90
100
AcDbEntity
  8
1
  6
Continuous
 62
     7
100
AcDbCircle
 10
318.7718815851781
 20
1243.303128186005
 30
0.0
 40
24.99999999999919
100
AcDbArc
 50
53.8701568634348
 51
126.1298431365653
  0
ARC
  5
38F
330
90
100
AcDbEntity
  8
1
  6
Continuous
 62
     7
100
AcDbCircle
 10
894.2533193035401
 20
1234.875706058435
 30
0.0
 40
590.915329344307
100
AcDbArc
 50
182.6485180473088
 51
183.8131931461
  0
ARC
  5
390
330
90
100
AcDbEntity
  8
1
  6
Continuous
 62
     7
100
AcDbCircle
 10
318.7718815851777
 20
1250.065815317921
 30
0.0
 40
45.00000000000081
100
AcDbArc
 50
250.7950441663104
 51
289.2049558336897
  0
ARC
  5
391
330
90
100
AcDbEntity
  8
1
  6
PHANTOM
 62
     5
100
AcDbCircle
 10
820.6652997076694
 20
639.9606484555968
 30
0.0
 40
9.999999999999819
100
AcDbArc
 50
334.9999999999984
 51
1.71670164164969
  0
ARC
  5
392
330
90
100
AcDbEntity
  8
1
  6
PHANTOM
 62
     5
100
AcDbCircle
 10
820.6652997076694
 20
639.9606484555968
 30
0.0
 40
9.999999999999819
100
AcDbArc
 50
334.9999999999984
 51
29.6997515601383
  0
ARC
  5
393
330
90
100
AcDbEntity
  8
1
  6
PHANTOM
 62
     5
100
AcDbCircle
 10
820.6652997076694
 20
639.9606484555968
 30
0.0
 40
9.999999999999819
100
AcDbArc
 50
334.9999999999984
 51
29.6997515601383
  0
ARC
  5
394
330
90
100
AcDbEntity
  8
1
  6
PHANTOM
 62
     5
100
AcDbCircle
 10
820.6652997076694
 20
639.9606484555968
 30
0.0
 40
10.00000000000062
100
AcDbArc
 50
1.71670164164969
 51
29.6997515601383
  0
ARC
  5
395
330
90
100
AcDbEntity
  8
1
  6
PHANTOM
 62
     5
100
AcDbCircle
 10
655.3146774703473
 20
545.6472689038865
 30
0.0
 40
200.357142857143
100
AcDbArc
 50
29.69975156013758
 51
48.54229199834968
  0
ARC
  5
396
330
90
100
AcDbEntity
  8
1
  6
Continuous
 62
     7
100
AcDbCircle
 10
694.0505058686149
 20
473.4396073745361
 30
0.0
 40
220.0
100
AcDbArc
 50
71.38191495189241
 51
71.72042120108429
  0
ARC
  5
397
330
90
100
AcDbEntity
  8
1
  6
Continuous
 62
     7
100
AcDbCircle
 10
703.7873649720018
 20
492.7791468986475
 30
0.0
 40
200.3571428571425
100
AcDbArc
 50
54.69975156013975
 51
73.54229199835179
  0
ARC
  5
398
330
90
100
AcDbEntity
  8
1
  6
Continuous
 62
     7
100
AcDbCircle
 10
694.0505058686149
 20
473.4396073745361
 30
0.0
 40
219.5515342386307
100
AcDbArc
 50
63.27423731996625
 51
70.9288111281871
  0
ARC
  5
399
102
{ACAD_REACTORS
330
3A1
102
}
330
90
100
AcDbEntity
  8
1
  6
Continuous
 62
     7
100
AcDbCircle
 10
694.0505058686149
 20
473.4396073745361
 30
0.0
 40
220.0
100
AcDbArc
 50
62.74865308431205
 51
71.38191495189241
  0
ARC
  5
39A
330
90
100
AcDbEntity
  8
1
  6
Continuous
 62
     7
100
AcDbCircle
 10
694.0505058686149
 20
473.4396073745361
 30
0.0
 40
219.9999999999998
100
AcDbArc
 50
57.03802307375571
 51
62.74865308431205
  0
ARC
  5
39B
102
{ACAD_REACTORS
330
3A1
102
}
330
90
100
AcDbEntity
  8
1
  6
Continuous
 62
     7
100
AcDbCircle
 10
694.0505058686149
 20
473.4396073745361
 30
0.0
 40
219.5515342386307
100
AcDbArc
 50
63.27423731996625
 51
70.9288111281871
  0
ARC
  5
39C
330
90
100
AcDbEntity
  8
1
  6
Continuous
 62
     7
100
AcDbCircle
 10
808.3077993681522
 20
649.6362897557899
 30
0.0
 40
10.0
100
AcDbArc
 50
0.0
 51
57.03802307375751
  0
ARC
  5
39D
330
90
100
AcDbEntity
  8
1
  6
Continuous
 62
     7
100
AcDbCircle
 10
820.8077993681522
 20
649.6362897557899
 30
0.0
 40
2.5
100
AcDbArc
 50
180.0
 51
270.0
  0
ARC
  5
39E
330
90
100
AcDbEntity
  8
1
  6
Continuous
 62
     7
100
AcDbCircle
 10
813.7873649720018
 20
648.1362897557899
 30
0.0
 40
10.0
100
AcDbArc
 50
0.0
 51
54.69975156014128
  0
HATCH
  5
39F
330
90
100
AcDbEntity
  8
1
  6
Continuous
 62
     2
100
AcDbHatch
 10
0.0
 20
0.0
 30
0.0
210
0.0
220
0.0
230
1.0
  2
CUSTOM0
 70
     0
 71
     1
 91
        1
 92
        1
 93
        4
 72
     2
 10
894.2533193035401
 20
1234.875706058435
 40
593.4153293443067
 50
179.7656254835274
 51
182.3732242779171
 73
     1
 72
     1
 10
301.3469679144564
 20
1210.303128186005
 11
303.3998037507768
 21
1209.103338251519
 72
     2
 10
894.2533193035401
 20
1234.875706058435
 40
591.4153293443068
 50
177.502405522131
 51
180.3901334287828
 73
     0
 72
     1
 10
302.851700101709
 20
1238.902688661719
 11
300.8429547811243
 21
1237.303128186004
 97
        4
330
389
330
375
330
383
330
372
 75
     1
 76
     2
 52
45.0
 41
0.5
 77
     0
 78
     1
 53
45.0
 43
0.0
 44
0.0
 45
-1.414213562373095
 46
0.0000000000000001
 79
     0
 98
        1
 10
0.0
 20
0.0
  0
HATCH
  5
3A0
330
90
100
AcDbEntity
  8
1
  6
Continuous
 62
     2
100
AcDbHatch
 10
0.0
 20
0.0
 30
0.0
210
0.0
220
0.0
230
1.0
  2
CUSTOM1
 70
     0
 71
     1
 91
        1
 92
        1
 93
        4
 72
     2
 10
-256.7095561331847
 20
1234.875706058435
 40
593.4153293443076
 50
359.7656254835274
 51
362.3732242779172
 73
     0
 72
     1
 10
336.1967952558996
 20
1210.303128186004
 11
334.1439594195795
 21
1209.103338251519
 72
     2
 10
-256.7095561331847
 20
1234.875706058435
 40
591.4153293443075
 50
357.502405522131
 51
360.3901334287828
 73
     1
 72
     1
 10
334.6920630686473
 20
1238.902688661719
 11
336.700808389232
 21
1237.303128186004
 97
        4
330
382
330
373
330
38A
330
370
 75
     1
 76
     2
 52
45.0
 41
0.5
 77
     0
 78
     1
 53
45.0
 43
0.0
 44
0.0
 45
-1.414213562373095
 46
0.0000000000000001
 79
     0
 98
        1
 10
0.0
 20
0.0
  0
HATCH
  5
3A1
330
90
100
AcDbEntity
  8
1
  6
Continuous
 62
     2
100
AcDbHatch
 10
0.0
 20
0.0
 30
0.0
210
0.0
220
0.0
230
1.0
  2
CUSTOM2
 70
     0
 71
     1
 91
        1
 92
        1
 93
        4
 72
     1
 10
794.7873649720018
 20
669.0210104219229
 11
792.7873649720018
 21
669.5362897557904
 72
     2
 10
694.0505058686149
 20
473.4396073745361
 40
219.5515342386307
 50
63.27423731996625
 51
70.9288111281871
 73
     1
 72
     1
 10
765.7873649720018
 20
680.940689859706
 11
764.2873649720018
 21
681.9264981453732
 72
     2
 10
694.0505058686149
 20
473.4396073745361
 40
220.0
 50
288.6180850481076
 51
297.251346915688
 73
     0
 97
        4
330
37E
330
39B
330
37D
330
399
 75
     1
 76
     2
 52
45.0
 41
0.5
 77
     0
 78
     1
 53
45.0
 43
0.0
 44
0.0
 45
-1.414213562373095
 46
0.0000000000000001
 79
     0
 98
        1
 10
0.0
 20
0.0
  0
ENDBLK
  5
92
330
90
100
AcDbEntity
  8
0
100
AcDbBlockEnd
  0
BLOCK
  5
95
330
93
100
AcDbEntity
  8
0
100
AcDbBlockBegin
  2
87-163A-M21
 70
     0
 10
2499.633568777156
 20
2639.72264016396
 30
0.0
  3
87-163A-M21
  1

  0
INSERT
  5
94
330
93
100
AcDbEntity
  8
1
100
AcDbBlockReference
  2
84-360A-M22
 10
1472.184695213957
 20
765.2524739304339
 30
0.0
 41
1.0
 42
1.0
 43
1.0
  0
LINE
  5
3A2
330
93
100
AcDbEntity
  8
1
  6
PHANTOM
 62
     5
100
AcDbLine
 10
829.3057593162953
 20
634.8281580511527
 30
0.0
 11
825.4293881178278
 21
626.5152531895762
 31
0.0
  0
LINE
  5
3A3
330
93
100
AcDbEntity
  8
1
  6
PHANTOM
 62
     5
100
AcDbLine
 10
824.8468247017581
 20
626.2435994073028
 30
0.0
 11
821.497286321694
 21
627.1411055112583
 31
0.0
  0
LINE
  5
3A4
330
93
100
AcDbEntity
  8
1
  6
PHANTOM
 62
     5
100
AcDbLine
 10
733.3446346680862
 20
724.8140600372469
 30
0.0
 11
732.864332269703
 21
723.784048219977
 31
0.0
  0
LINE
  5
3A5
330
93
100
AcDbEntity
  8
1
  6
PHANTOM
 62
     5
100
AcDbLine
 10
823.7873649720018
 20
648.1362897557899
 30
0.0
 11
823.7873649720018
 21
647.1362897557899
 31
0.0
  0
LINE
  5
3A6
330
93
100
AcDbEntity
  8
1
  6
Continuous
 62
     7
100
AcDbLine
 10
823.7873649720018
 20
647.1362897557899
 30
0.0
 11
820.8077993681522
 21
647.1362897557899
 31
0.0
  0
LINE
  5
3A7
330
93
100
AcDbEntity
  8
1
  6
Continuous
 62
     7
100
AcDbLine
 10
698.7873649720018
 20
688.1362897557899
 30
0.0
 11
698.7873649720018
 21
686.9997974603446
 31
0.0
  0
LINE
  5
3A8
330
93
100
AcDbEntity
  8
1
  6
PHANTOM
 62
     4
100
AcDbLine
 10
798.7873649720018
 20
672.1820513358405
 30
0.0
 11
798.7873649720018
 21
630.1362897557899
 31
0.0
  0
LINE
  5
3A9
330
93
100
AcDbEntity
  8
1
  6
Continuous
 62
     7
100
AcDbLine
 10
773.7873649720018
 20
633.6362897557899
 30
0.0
 11
773.7873649720018
 21
656.1362897557899
 31
0.0
  0
LINE
  5
3AA
330
93
100
AcDbEntity
  8
1
  6
Continuous
 62
     7
100
AcDbLine
 10
796.1627050662241
 20
633.1362897557899
 30
0.0
 11
774.2873649720018
 21
633.1362897557899
 31
0.0
  0
LINE
  5
3AB
330
93
100
AcDbEntity
  8
1
  6
Continuous
 62
     7
100
AcDbLine
 10
823.7873649720018
 20
647.1362897557899
 30
0.0
 11
823.7873649720018
 21
637.9640140890904
 31
0.0
  0
LINE
  5
3AC
330
93
100
AcDbEntity
  8
1
  6
Continuous
 62
     7
100
AcDbLine
 10
823.3741890608353
 20
637.4716102125847
 30
0.0
 11
801.372150396232
 21
633.592057165424
 31
0.0
  0
LINE
  5
3AD
330
93
100
AcDbEntity
  8
1
  6
Continuous
 62
     7
100
AcDbLine
 10
798.7873649720018
 20
633.1362897557899
 30
0.0
 11
796.1627050662241
 21
633.1362897557899
 31
0.0
  0
LINE
  5
3AE
330
93
100
AcDbEntity
  8
1
  6
Continuous
 62
     7
100
AcDbLine
 10
794.7873649720018
 20
669.0210104219229
 30
0.0
 11
792.7873649720018
 21
669.5362897557904
 31
0.0
  0
LINE
  5
3AF
330
93
100
AcDbEntity
  8
1
  6
Continuous
 62
     7
100
AcDbLine
 10
765.7873649720018
 20
680.940689859706
 30
0.0
 11
764.2873649720018
 21
681.9264981453732
 31
0.0
  0
LINE
  5
3B0
330
93
100
AcDbEntity
  8
1
  6
Continuous
 62
     7
100
AcDbLine
 10
303.7873649720041
 20
633.1362897557901
 30
0.0
 11
294.2873649720016
 21
633.13628975579
 31
0.0
  0
LINE
  5
3B1
330
93
100
AcDbEntity
  8
1
  6
Continuous
 62
     7
100
AcDbLine
 10
343.2873649720016
 20
633.13628975579
 30
0.0
 11
333.7873649720041
 21
633.1362897557901
 31
0.0
  0
LINE
  5
3B2
330
93
100
AcDbEntity
  8
1
  6
Continuous
 62
     7
100
AcDbLine
 10
343.7873649720016
 20
633.63628975579
 30
0.0
 11
343.7873649720016
 21
655.13628975579
 31
0.0
  0
LINE
  5
3B3
330
93
100
AcDbEntity
  8
1
  6
Continuous
 62
     7
100
AcDbLine
 10
293.7873649720016
 20
655.13628975579
 30
0.0
 11
293.7873649720016
 21
633.63628975579
 31
0.0
  0
LINE
  5
3B4
330
93
100
AcDbEntity
  8
1
  6
Continuous
 62
     7
100
AcDbLine
 10
336.9508104799993
 20
1237.303128186005
 30
0.0
 11
334.4391938038068
 21
1239.303128186005
 31
0.0
  0
LINE
  5
3B5
330
93
100
AcDbEntity
  8
1
  6
Continuous
 62
     7
100
AcDbLine
 10
336.4470097768526
 20
1210.303128186005
 30
0.0
 11
333.8805447844061
 21
1208.803128186005
 31
0.0
  0
LINE
  5
3B6
330
93
100
AcDbEntity
  8
1
  6
Continuous
 62
     7
100
AcDbLine
 10
301.0967533935036
 20
1210.303128186005
 30
0.0
 11
303.6632183859501
 21
1208.803128186005
 31
0.0
  0
LINE
  5
3B7
330
93
100
AcDbEntity
  8
1
  6
Continuous
 62
     7
100
AcDbLine
 10
303.1045693665492
 20
1239.303128186005
 30
0.0
 11
300.5929526903565
 21
1237.303128186005
 31
0.0
  0
ARC
  5
3B8
330
93
100
AcDbEntity
  8
1
  6
PHANTOM
 62
     5
100
AcDbCircle
 10
737.8761736032693
 20
722.7009687285433
 30
0.0
 40
5.000000000000322
100
AcDbArc
 50
65.00000000000058
 51
90.0
  0
ARC
  5
3B9
330
93
100
AcDbEntity
  8
1
  6
PHANTOM
 62
     5
100
AcDbCircle
 10
775.1056253016172
 20
670.0324968858902
 30
0.0
 40
14.00000000000035
100
AcDbArc
 50
20.27842980764776
 51
41.49354248246961
  0
ARC
  5
3BA
330
93
100
AcDbEntity
  8
1
  6
PHANTOM
 62
     5
100
AcDbCircle
 10
635.7859715365403
 20
546.8008691486116
 30
0.0
 40
200.0000000000003
100
AcDbArc
 50
41.49354248247084
 51
60.68838098644658
  0
ARC
  5
3BB
330
93
100
AcDbEntity
  8
1
  6
PHANTOM
 62
     5
100
AcDbCircle
 10
655.3146774703473
 20
545.6472689038865
 30
0.0
 40
200.3571428571426
100
AcDbArc
 50
64.42805402126206
 51
64.9999999999979
  0
ARC
  5
3BC
330
93
100
AcDbEntity
  8
1
  6
PHANTOM
 62
     5
100
AcDbCircle
 10
737.8761736032693
 20
722.7009687285433
 30
0.0
 40
5.0
100
AcDbArc
 50
90.0
 51
154.9999999999984
  0
ARC
  5
3BD
330
93
100
AcDbEntity
  8
1
  6
PHANTOM
 62
     5
100
AcDbCircle
 10
638.3168436671231
 20
532.2346681045692
 30
0.0
 40
220.0000000000007
100
AcDbArc
 50
47.95175246216941
 51
61.94185502721906
  0
ARC
  5
3BE
330
93
100
AcDbEntity
  8
1
  6
Continuous
 62
     7
100
AcDbCircle
 10
759.7873649720018
 20
656.1362897557899
 30
0.0
 40
14.0
100
AcDbArc
 50
0.0
 51
66.49354248247413
  0
ARC
  5
3BF
330
93
100
AcDbEntity
  8
1
  6
Continuous
 62
     7
100
AcDbCircle
 10
703.7873649720018
 20
492.7791468986475
 30
0.0
 40
200.3571428571426
100
AcDbArc
 50
89.42805402126429
 51
90.0
  0
ARC
  5
3C0
330
93
100
AcDbEntity
  8
1
  6
Continuous
 62
     7
100
AcDbCircle
 10
703.7873649720018
 20
688.1362897557899
 30
0.0
 40
5.0
100
AcDbArc
 50
90.0
 51
180.0
  0
ARC
  5
3C1
330
93
100
AcDbEntity
  8
1
  6
Continuous
 62
     7
100
AcDbCircle
 10
685.6008141832745
 20
485.5714760277779
 30
0.0
 40
200.0000000000002
100
AcDbArc
 50
66.493542482473
 51
85.68838098644866
  0
ARC
  5
3C2
330
93
100
AcDbEntity
  8
1
  6
Continuous
 62
     7
100
AcDbCircle
 10
694.0505058686149
 20
473.4396073745361
 30
0.0
 40
220.0
100
AcDbArc
 50
71.38191495189241
 51
86.94185502722127
  0
ARC
  5
3C3
330
93
100
AcDbEntity
  8
1
  6
Continuous
 62
     7
100
AcDbCircle
 10
820.8077993681522
 20
649.6362897557899
 30
0.0
 40
2.5
100
AcDbArc
 50
180.0
 51
270.0
  0
ARC
  5
3C4
330
93
100
AcDbEntity
  8
1
  6
Continuous
 62
     7
100
AcDbCircle
 10
808.3077993681522
 20
649.6362897557899
 30
0.0
 40
10.0
100
AcDbArc
 50
0.0
 51
57.03802307375533
  0
ARC
  5
3C5
330
93
100
AcDbEntity
  8
1
  6
Continuous
 62
     7
100
AcDbCircle
 10
694.0505058686149
 20
473.4396073745361
 30
0.0
 40
219.5515342386307
100
AcDbArc
 50
63.27423731996625
 51
70.9288111281871
  0
ARC
  5
3C6
330
93
100
AcDbEntity
  8
1
  6
Continuous
 62
     7
100
AcDbCircle
 10
694.0505058686149
 20
473.4396073745361
 30
0.0
 40
220.0000000000001
100
AcDbArc
 50
57.03802307375561
 51
62.74865308431205
  0
ARC
  5
3C7
330
93
100
AcDbEntity
  8
1
  6
Continuous
 62
     7
100
AcDbCircle
 10
253.7873649720016
 20
655.13628975579
 30
0.0
 40
90.00000000000003
100
AcDbArc
 50
0.0
 51
19.81251447871895
  0
ARC
  5
3C8
330
93
100
AcDbEntity
  8
1
  6
Continuous
 62
     7
100
AcDbCircle
 10
383.7873649720016
 20
655.13628975579
 30
0.0
 40
89.99999999999994
100
AcDbArc
 50
160.1874855212811
 51
180.0
  0
ARC
  5
3C9
330
93
100
AcDbEntity
  8
1
  6
PHANTOM
 62
     5
100
AcDbCircle
 10
-94.11403280678587
 20
1644.270867909316
 30
0.0
 40
591.1653293443065
100
AcDbArc
 50
307.9451402673781
 51
310.9954473632213
  0
ARC
  5
3CA
330
93
100
AcDbEntity
  8
1
  6
PHANTOM
 62
     5
100
AcDbCircle
 10
719.7396213084899
 20
830.4172137940409
 30
0.0
 40
591.1653293443085
100
AcDbArc
 50
142.0548597326217
 51
142.2854734842086
  0
ARC
  5
3CB
330
93
100
AcDbEntity
  8
1
  6
PHANTOM
 62
     5
100
AcDbCircle
 10
260.789125527881
 20
1185.320372128709
 30
0.0
 40
10.99999999999941
100
AcDbArc
 50
142.285473484212
 51
307.7145265157885
  0
ARC
  5
3CC
330
93
100
AcDbEntity
  8
1
  6
PHANTOM
 62
     5
100
AcDbCircle
 10
260.789125527881
 20
1185.320372128709
 30
0.0
 40
18.00000000000043
100
AcDbArc
 50
180.0
 51
307.7145265157895
  0
ARC
  5
3CD
330
93
100
AcDbEntity
  8
1
  6
PHANTOM
 62
     5
100
AcDbCircle
 10
265.3853196055948
 20
1189.916566206422
 30
0.0
 40
12.49999999999989
100
AcDbArc
 50
161.2782275840372
 51
288.7217724159549
  0
ARC
  5
3CE
330
93
100
AcDbEntity
  8
1
  6
PHANTOM
 62
     5
100
AcDbCircle
 10
-94.11403280678587
 20
1644.270867909316
 30
0.0
 40
591.165329344307
100
AcDbArc
 50
307.7145265157914
 51
307.9451402673781
  0
ARC
  5
3CF
330
93
100
AcDbEntity
  8
1
  6
PHANTOM
 62
     5
100
AcDbCircle
 10
1037.618356888396
 20
584.6038455507958
 30
0.0
 40
1000.000000000001
100
AcDbArc
 50
138.3405795102228
 51
142.2854734842087
  0
ARC
  5
3D0
330
93
100
AcDbEntity
  8
1
  6
PHANTOM
 62
     5
100
AcDbCircle
 10
719.7396213084899
 20
830.4172137940409
 30
0.0
 40
591.1653293443063
100
AcDbArc
 50
138.8032659793444
 51
142.0548597326217
  0
ARC
  5
3D1
330
93
100
AcDbEntity
  8
1
  6
PHANTOM
 62
     5
100
AcDbCircle
 10
315.2363476792448
 20
1239.767594280071
 30
0.0
 40
45.00000000000002
100
AcDbArc
 50
206.3613151914896
 51
241.1042250445662
  0
ARC
  5
3D2
330
93
100
AcDbEntity
  8
1
  6
PHANTOM
 62
     5
100
AcDbCircle
 10
-339.9274010500283
 20
1962.149603489221
 30
0.0
 40
999.9999999999961
100
AcDbArc
 50
307.7145265157912
 51
309.3784162572703
  0
ARC
  5
3D3
330
93
100
AcDbEntity
  8
1
  6
PHANTOM
 62
     5
100
AcDbCircle
 10
322.307415491111
 20
1239.767594280071
 30
0.0
 40
44.99999999999954
100
AcDbArc
 50
298.8957749554345
 51
333.6386848085128
  0
ARC
  5
3D4
330
93
100
AcDbEntity
  8
1
  6
PHANTOM
 62
     5
100
AcDbCircle
 10
731.6577959771412
 20
1644.270867909316
 30
0.0
 40
591.1653293443056
100
AcDbArc
 50
229.0045526367788
 51
232.0548597326218
  0
ARC
  5
3D5
330
93
100
AcDbEntity
  8
1
  6
PHANTOM
 62
     5
100
AcDbCircle
 10
-82.19585813813455
 20
830.4172137940409
 30
0.0
 40
591.1653293443071
100
AcDbArc
 50
37.94514026737801
 51
41.19673402065573
  0
ARC
  5
3D6
330
93
100
AcDbEntity
  8
1
  6
PHANTOM
 62
     5
100
AcDbCircle
 10
-82.19585813813455
 20
830.4172137940409
 30
0.0
 40
591.1653293443078
100
AcDbArc
 50
37.71452651579135
 51
37.94514026737801
  0
ARC
  5
3D7
330
93
100
AcDbEntity
  8
1
  6
PHANTOM
 62
     5
100
AcDbCircle
 10
372.158443564761
 20
1189.916566206422
 30
0.0
 40
12.4999999999998
100
AcDbArc
 50
251.2782275840436
 51
18.7217724159499
  0
ARC
  5
3D8
330
93
100
AcDbEntity
  8
1
  6
PHANTOM
 62
     5
100
AcDbCircle
 10
376.7546376424748
 20
1185.320372128709
 30
0.0
 40
17.99999999999942
100
AcDbArc
 50
0.13802649446111
 51
37.71452651578979
  0
ARC
  5
3D9
330
93
100
AcDbEntity
  8
1
  6
PHANTOM
 62
     5
100
AcDbCircle
 10
376.7546376424748
 20
1185.320372128709
 30
0.0
 40
11.00000000000146
100
AcDbArc
 50
232.2854734842113
 51
37.71452651578744
  0
ARC
  5
3DA
330
93
100
AcDbEntity
  8
1
  6
PHANTOM
 62
     5
100
AcDbCircle
 10
731.6577959771412
 20
1644.270867909316
 30
0.0
 40
591.1653293443064
100
AcDbArc
 50
232.0548597326218
 51
232.2854734842086
  0
ARC
  5
3DB
330
93
100
AcDbEntity
  8
1
  6
PHANTOM
 62
     5
100
AcDbCircle
 10
-400.0745937180373
 20
584.6038455507985
 30
0.0
 40
999.999999999996
100
AcDbArc
 50
37.71452651579132
 51
41.6594204897772
  0
ARC
  5
3DC
330
93
100
AcDbEntity
  8
1
  6
PHANTOM
 62
     5
100
AcDbCircle
 10
977.471164220387
 20
1962.149603489223
 30
0.0
 40
1000.0
100
AcDbArc
 50
230.6215837427296
 51
232.2854734842086
  0
ARC
  5
3DD
330
93
100
AcDbEntity
  8
1
  6
Continuous
 62
     7
100
AcDbCircle
 10
318.7718815851781
 20
1243.303128186005
 30
0.0
 40
25.00000000000049
100
AcDbArc
 50
53.13010235415796
 51
53.87015686343604
  0
ARC
  5
3DE
330
93
100
AcDbEntity
  8
1
  6
Continuous
 62
     7
100
AcDbCircle
 10
894.2533193035401
 20
1234.875706058436
 30
0.0
 40
593.6653293443075
100
AcDbArc
 50
179.7657241821592
 51
182.3722243114998
  0
ARC
  5
3DF
330
93
100
AcDbEntity
  8
1
  6
Continuous
 62
     7
100
AcDbCircle
 10
-256.7095561331848
 20
1234.875706058436
 30
0.0
 40
591.1653293443075
100
AcDbArc
 50
0.42911003218283
 51
2.75625041500966
  0
ARC
  5
3E0
330
93
100
AcDbEntity
  8
1
  6
Continuous
 62
     7
100
AcDbCircle
 10
894.2533193035401
 20
1234.875706058436
 30
0.0
 40
591.1653293443075
100
AcDbArc
 50
187.0548597326219
 51
187.2854734842088
  0
ARC
  5
3E1
330
93
100
AcDbEntity
  8
1
  6
Continuous
 62
     7
100
AcDbCircle
 10
318.7718815851781
 20
1161.303128186005
 30
0.0
 40
11.00000000000062
100
AcDbArc
 50
187.2854734842137
 51
352.7145265157861
  0
ARC
  5
3E2
330
93
100
AcDbEntity
  8
1
  6
Continuous
 62
     7
100
AcDbCircle
 10
318.7718815851781
 20
1243.303128186005
 30
0.0
 40
25.00000000000097
100
AcDbArc
 50
126.8698976458435
 51
182.5000932383829
  0
ARC
  5
3E3
330
93
100
AcDbEntity
  8
1
  6
Continuous
 62
     7
100
AcDbCircle
 10
318.7718815851781
 20
1238.303128186005
 30
0.0
 40
45.00000000000031
100
AcDbArc
 50
251.3613151914884
 51
288.6386848085107
  0
ARC
  5
3E4
330
93
100
AcDbEntity
  8
1
  6
Continuous
 62
     7
100
AcDbCircle
 10
318.7718815851781
 20
1161.303128186005
 30
0.0
 40
18.00000000000036
100
AcDbArc
 50
187.2854734842089
 51
352.714526515791
  0
ARC
  5
3E5
330
93
100
AcDbEntity
  8
1
  6
Continuous
 62
     7
100
AcDbCircle
 10
318.7718815851781
 20
1167.803128186007
 30
0.0
 40
12.49999999999994
100
AcDbArc
 50
206.2782275840445
 51
333.7217724159545
  0
ARC
  5
3E6
330
93
100
AcDbEntity
  8
1
  6
Continuous
 62
     7
100
AcDbCircle
 10
1292.843828418203
 20
1285.833615990888
 30
0.0
 40
1000.000000000001
100
AcDbArc
 50
182.5000932383834
 51
187.2854734842087
  0
ARC
  5
3E7
330
93
100
AcDbEntity
  8
1
  6
Continuous
 62
     7
100
AcDbCircle
 10
-655.3000652478422
 20
1285.833615990888
 30
0.0
 40
999.999999999996
100
AcDbArc
 50
352.7145265157912
 51
357.4999067616166
  0
ARC
  5
3E8
330
93
100
AcDbEntity
  8
1
  6
Continuous
 62
     7
100
AcDbCircle
 10
894.2533193035401
 20
1234.875706058436
 30
0.0
 40
591.1653293443075
100
AcDbArc
 50
177.2437495849904
 51
179.5708899678172
  0
ARC
  5
3E9
330
93
100
AcDbEntity
  8
1
  6
Continuous
 62
     7
100
AcDbCircle
 10
318.7718815851781
 20
1243.303128186005
 30
0.0
 40
25.00000000000043
100
AcDbArc
 50
357.499906761617
 51
53.13010235415796
  0
ARC
  5
3EA
330
93
100
AcDbEntity
  8
1
  6
Continuous
 62
     7
100
AcDbCircle
 10
318.7718815851781
 20
1243.303128186005
 30
0.0
 40
25.0000000000006
100
AcDbArc
 50
126.1298431365661
 51
126.8698976458435
  0
ARC
  5
3EB
330
93
100
AcDbEntity
  8
1
  6
Continuous
 62
     7
100
AcDbCircle
 10
894.2533193035401
 20
1234.875706058436
 30
0.0
 40
591.1653293443071
100
AcDbArc
 50
182.5277757561426
 51
183.8032659793443
  0
ARC
  5
3EC
330
93
100
AcDbEntity
  8
1
  6
Continuous
 62
     7
100
AcDbCircle
 10
894.2533193035401
 20
1234.875706058436
 30
0.0
 40
591.1653293443072
100
AcDbArc
 50
183.8032659793443
 51
187.0548597326219
  0
ARC
  5
3ED
330
93
100
AcDbEntity
  8
1
  6
Continuous
 62
     7
100
AcDbCircle
 10
-256.7095561331848
 20
1234.875706058436
 30
0.0
 40
591.1653293443075
100
AcDbArc
 50
356.1967340206557
 51
357.4722242438573
  0
ARC
  5
3EE
330
93
100
AcDbEntity
  8
1
  6
Continuous
 62
     7
100
AcDbCircle
 10
-256.7095561331848
 20
1234.875706058436
 30
0.0
 40
591.1653293443078
100
AcDbArc
 50
352.945140267378
 51
356.1967340206557
  0
ARC
  5
3EF
330
93
100
AcDbEntity
  8
1
  6
Continuous
 62
     7
100
AcDbCircle
 10
-256.7095561331848
 20
1234.875706058436
 30
0.0
 40
591.165329344308
100
AcDbArc
 50
352.7145265157912
 51
352.945140267378
  0
ARC
  5
3F0
330
93
100
AcDbEntity
  8
1
  6
Continuous
 62
     7
100
AcDbCircle
 10
-256.7095561331848
 20
1234.875706058436
 30
0.0
 40
593.6653293443077
100
AcDbArc
 50
357.6277756885002
 51
0.23427581784084
  0
ARC
  5
3F1
330
93
100
AcDbEntity
  8
1
  6
PHANTOM
 62
     5
100
AcDbCircle
 10
260.789125527881
 20
1185.320372128709
 30
0.0
 40
17.99999999999961
100
AcDbArc
 50
142.2854734842109
 51
180.0
  0
ARC
  5
3F2
330
93
100
AcDbEntity
  8
1
  6
PHANTOM
 62
     5
100
AcDbCircle
 10
376.7546376424748
 20
1185.320372128709
 30
0.0
 40
18.0000000000006
100
AcDbArc
 50
232.2854734842098
 51
0.13802649446111
  0
ARC
  5
3F3
330
93
100
AcDbEntity
  8
1
  6
PHANTOM
 62
     5
100
AcDbCircle
 10
824.9762342243093
 20
626.7265623204473
 30
0.0
 40
0.5000000000000006
100
AcDbArc
 50
255.0000000000056
 51
334.9999999999294
  0
ARC
  5
3F4
330
93
100
AcDbEntity
  8
1
  6
PHANTOM
 62
     5
100
AcDbCircle
 10
734.6769478437764
 20
722.9388116964953
 30
0.0
 40
2.000000000000123
100
AcDbArc
 50
154.9999999999947
 51
240.6883809864309
  0
ARC
  5
3F5
330
93
100
AcDbEntity
  8
1
  6
Continuous
 62
     7
100
AcDbCircle
 10
700.7873649720018
 20
686.9997974603446
 30
0.0
 40
2.0
100
AcDbArc
 50
180.0
 51
265.688380986446
  0
ARC
  5
3F6
330
93
100
AcDbEntity
  8
1
  6
Continuous
 62
     7
100
AcDbCircle
 10
796.1627050662241
 20
663.1362897557899
 30
0.0
 40
30.0
100
AcDbArc
 50
270.0
 51
280.0
  0
ARC
  5
3F7
330
93
100
AcDbEntity
  8
1
  6
Continuous
 62
     7
100
AcDbCircle
 10
823.2873649720018
 20
637.9640140890904
 30
0.0
 40
0.4999999999996145
100
AcDbArc
 50
280.0000000000129
 51
0.0
  0
ARC
  5
3F8
330
93
100
AcDbEntity
  8
1
  6
Continuous
 62
     7
100
AcDbCircle
 10
774.2873649720018
 20
633.6362897557899
 30
0.0
 40
0.5
100
AcDbArc
 50
180.0
 51
270.0
  0
ARC
  5
3F9
330
93
100
AcDbEntity
  8
1
  6
Continuous
 62
     7
100
AcDbCircle
 10
329.0519057529593
 20
682.2517632171102
 30
0.0
 40
9.999999999999792
100
AcDbArc
 50
19.81251447871927
 51
61.67754931156012
  0
ARC
  5
3FA
330
93
100
AcDbEntity
  8
1
  6
Continuous
 62
     7
100
AcDbCircle
 10
308.522824191044
 20
682.2517632171102
 30
0.0
 40
10.00000000000005
100
AcDbArc
 50
118.3170853905371
 51
160.1874855212811
  0
ARC
  5
3FB
330
93
100
AcDbEntity
  8
1
  6
Continuous
 62
     7
100
AcDbCircle
 10
343.2873649720016
 20
633.63628975579
 30
0.0
 40
0.5
100
AcDbArc
 50
270.0
 51
0.0
  0
ARC
  5
3FC
330
93
100
AcDbEntity
  8
1
  6
Continuous
 62
     7
100
AcDbCircle
 10
294.2873649720016
 20
633.63628975579
 30
0.0
 40
0.5
100
AcDbArc
 50
180.0
 51
270.0
  0
ENDBLK
  5
96
330
93
100
AcDbEntity
  8
0
100
AcDbBlockEnd
  0
BLOCK
  5
98
330
97
100
AcDbEntity
  8
0
100
AcDbBlockBegin
  2
37-364-M11
 70
     0
 10
1854.0
 20
382.8883810687154
 30
0.0
  3
37-364-M11
  1

  0
LINE
  5
3FD
330
97
100
AcDbEntity
  8
1
  6
Continuous
 62
     7
100
AcDbLine
 10
333.7873649720041
 20
581.4362897557883
 30
0.0
 11
342.7873649720038
 21
581.4362897557882
 31
0.0
  0
LINE
  5
3FE
330
97
100
AcDbEntity
  8
1
  6
Continuous
 62
     7
100
AcDbLine
 10
822.7873649720041
 20
581.4362897557882
 30
0.0
 11
774.7873649720025
 21
581.4362897557882
 31
0.0
  0
LINE
  5
3FF
330
97
100
AcDbEntity
  8
1
  6
Continuous
 62
     7
100
AcDbLine
 10
294.7873649720043
 20
581.4362897557882
 30
0.0
 11
294.7873649720043
 21
617.6317445410542
 31
0.0
  0
LINE
  5
400
330
97
100
AcDbEntity
  8
1
  6
PHANTOM
 62
     4
100
AcDbLine
 10
798.7873649720041
 20
644.6362897557902
 30
0.0
 11
798.7873649720041
 21
578.4362897557882
 31
0.0
  0
LINE
  5
401
330
97
100
AcDbEntity
  8
1
  6
Continuous
 62
     7
100
AcDbLine
 10
822.7873649720041
 20
617.6317445410542
 30
0.0
 11
822.7873649720041
 21
581.4362897557882
 31
0.0
  0
LINE
  5
402
330
97
100
AcDbEntity
  8
1
  6
Continuous
 62
     7
100
AcDbLine
 10
821.787364972002
 20
581.4362897557882
 30
0.0
 11
820.9356639876439
 21
581.4362897557882
 31
0.0
  0
LINE
  5
403
330
97
100
AcDbEntity
  8
1
  6
Continuous
 62
     7
100
AcDbLine
 10
774.7873649720025
 20
581.4362897557882
 30
0.0
 11
774.7873649720025
 21
617.6317445410542
 31
0.0
  0
LINE
  5
404
330
97
100
AcDbEntity
  8
1
  6
Continuous
 62
     7
100
AcDbLine
 10
342.7873649720038
 20
617.6317445410542
 30
0.0
 11
342.7873649720038
 21
581.4362897557882
 31
0.0
  0
LINE
  5
405
330
97
100
AcDbEntity
  8
1
  6
Continuous
 62
     7
100
AcDbLine
 10
294.7873649720043
 20
581.4362897557882
 30
0.0
 11
303.7873649720041
 21
581.4362897557883
 31
0.0
  0
ARC
  5
406
330
97
100
AcDbEntity
  8
1
  6
Continuous
 62
     7
100
AcDbCircle
 10
780.6228189075971
 20
617.6317445410542
 30
0.0
 40
42.16454606440698
100
AcDbArc
 50
0.0
 51
26.69763098062849
  0
ARC
  5
407
330
97
100
AcDbEntity
  8
1
  6
Continuous
 62
     7
100
AcDbCircle
 10
336.9519110364126
 20
617.6317445410542
 30
0.0
 40
42.16454606440835
100
AcDbArc
 50
158.4252223544024
 51
180.0
  0
ARC
  5
408
330
97
100
AcDbEntity
  8
1
  6
Continuous
 62
     7
100
AcDbCircle
 10
816.9519110364095
 20
617.6317445410542
 30
0.0
 40
42.16454606440683
100
AcDbArc
 50
158.4252223544017
 51
180.0
  0
ARC
  5
409
330
97
100
AcDbEntity
  8
1
  6
Continuous
 62
     7
100
AcDbCircle
 10
300.6228189075957
 20
617.6317445410542
 30
0.0
 40
42.16454606440811
100
AcDbArc
 50
0.0
 51
21.57477764559771
  0
ENDBLK
  5
99
330
97
100
AcDbEntity
  8
0
100
AcDbBlockEnd
  0
BLOCK
  5
455
330
44E
100
AcDbEntity
  8
0
100
AcDbBlockBegin
  2
*D27
 70
     1
 10
0.0
 20
0.0
 30
0.0
  3
*D27
  1

  0
LINE
  5
44F
330
44E
100
AcDbEntity
  8
1
  6
Continuous
 62
     2
100
AcDbLine
 10
592.145023853222
 20
475.6362897557898
 30
0.0
 11
592.145023853222
 21
661.0453508224753
 31
0.0
  0
LINE
  5
450
330
44E
100
AcDbEntity
  8
1
  6
Continuous
 62
     2
100
AcDbLine
 10
542.145023853222
 20
661.0453508224753
 30
0.0
 11
597.145023853222
 21
661.0453508224753
 31
0.0
  0
LINE
  5
451
330
44E
100
AcDbEntity
  8
1
  6
Continuous
 62
     2
100
AcDbLine
 10
773.7449763759456
 20
475.6362897557898
 30
0.0
 11
587.145023853222
 21
475.6362897557898
 31
0.0
  0
SOLID
  5
452
330
44E
100
AcDbEntity
  8
1
 62
     2
100
AcDbTrace
 10
589.8411051454426
 20
493.1362897557898
 30
0.0
 11
594.4489425610014
 21
493.1362897557898
 31
0.0
 12
592.145023853222
 22
475.6362897557898
 32
0.0
 13
592.145023853222
 23
475.6362897557898
 33
0.0
  0
SOLID
  5
453
330
44E
100
AcDbEntity
  8
1
 62
     2
100
AcDbTrace
 10
594.4489425610014
 20
643.5453508224753
 30
0.0
 11
589.8411051454426
 21
643.5453508224753
 31
0.0
 12
592.145023853222
 22
661.0453508224753
 32
0.0
 13
592.145023853222
 23
661.0453508224753
 33
0.0
  0
MTEXT
  5
454
330
44E
100
AcDbEntity
  8
1
 62
     7
100
AcDbMText
 10
587.145023853222
 20
549.9658202891319
 30
0.0
 40
17.5
 41
0.0
 71
     7
 72
     1
  1
185
  7
CONVERTER_12
 11
0.0
 21
1.0
 31
0.0
 73
     1
 44
0.60024009603842
  0
ENDBLK
  5
456
330
44E
100
AcDbEntity
  8
0
100
AcDbBlockEnd
  0
BLOCK
  5
460
330
459
100
AcDbEntity
  8
0
100
AcDbBlockBegin
  2
*D28
 70
     1
 10
0.0
 20
0.0
 30
0.0
  3
*D28
  1

  0
LINE
  5
45A
330
459
100
AcDbEntity
  8
1
  6
Continuous
 62
     2
100
AcDbLine
 10
217.2873649720038
 20
312.6362897557896
 30
0.0
 11
420.2873649720039
 21
312.6362897557896
 31
0.0
  0
LINE
  5
45B
330
459
100
AcDbEntity
  8
1
  6
Continuous
 62
     2
100
AcDbLine
 10
420.2873649720039
 20
347.6362897557896
 30
0.0
 11
420.2873649720039
 21
307.6362897557896
 31
0.0
  0
LINE
  5
45C
330
459
100
AcDbEntity
  8
1
  6
Continuous
 62
     2
100
AcDbLine
 10
217.2873649720038
 20
347.6362897557896
 30
0.0
 11
217.2873649720038
 21
307.6362897557896
 31
0.0
  0
SOLID
  5
45D
330
459
100
AcDbEntity
  8
1
 62
     2
100
AcDbTrace
 10
234.7873649720038
 20
314.940208463569
 30
0.0
 11
234.7873649720038
 21
310.3323710480102
 31
0.0
 12
217.2873649720038
 22
312.6362897557896
 32
0.0
 13
217.2873649720038
 23
312.6362897557896
 33
0.0
  0
SOLID
  5
45E
330
459
100
AcDbEntity
  8
1
 62
     2
100
AcDbTrace
 10
402.7873649720039
 20
310.3323710480102
 30
0.0
 11
402.7873649720039
 21
314.940208463569
 31
0.0
 12
420.2873649720039
 22
312.6362897557896
 32
0.0
 13
420.2873649720039
 23
312.6362897557896
 33
0.0
  0
MTEXT
  5
45F
330
459
100
AcDbEntity
  8
1
 62
     7
100
AcDbMText
 10
297.787364972004
 20
317.6362897557896
 30
0.0
 40
17.5
 41
0.0
 71
     7
 72
     1
  1
203
  7
CONVERTER_12
 11
0.9999999999970619
 21
2.424068405545306E-6
 31
0.0
 73
     1
 44
0.60024009603842
  0
ENDBLK
  5
461
330
459
100
AcDbEntity
  8
0
100
AcDbBlockEnd
  0
BLOCK
  5
46D
330
464
100
AcDbEntity
  8
0
100
AcDbBlockBegin
  2
*D29
 70
     1
 10
0.0
 20
0.0
 30
0.0
  3
*D29
  1

  0
LINE
  5
465
330
464
100
AcDbEntity
  8
1
  6
Continuous
 62
     2
100
AcDbLine
 10
763.7873649720041
 20
777.7009687285433
 30
0.0
 11
798.7873649720041
 21
777.7009687285433
 31
0.0
  0
LINE
  5
466
330
464
100
AcDbEntity
  8
1
  6
Continuous
 62
     2
100
AcDbLine
 10
798.7873649720041
 20
777.7009687285433
 30
0.0
 11
830.6608114074976
 21
777.7009687285433
 31
0.0
  0
LINE
  5
467
330
464
100
AcDbEntity
  8
1
  6
Continuous
 62
     2
100
AcDbLine
 10
830.6608114074976
 20
777.7009687285433
 30
0.0
 11
865.6608114074976
 21
777.7009687285433
 31
0.0
  0
LINE
  5
468
330
464
100
AcDbEntity
  8
1
  6
Continuous
 62
     2
100
AcDbLine
 10
798.7873649720041
 20
695.8131828691228
 30
0.0
 11
798.7873649720041
 21
782.7009687285433
 31
0.0
  0
LINE
  5
469
330
464
100
AcDbEntity
  8
1
  6
Continuous
 62
     2
100
AcDbLine
 10
830.6608114074976
 20
640.2602245871738
 30
0.0
 11
830.6608114074976
 21
782.7009687285433
 31
0.0
  0
SOLID
  5
46A
330
464
100
AcDbEntity
  8
1
 62
     2
100
AcDbTrace
 10
781.2873649720041
 20
775.3970500207639
 30
0.0
 11
781.2873649720041
 21
780.0048874363227
 31
0.0
 12
798.7873649720041
 22
777.7009687285433
 32
0.0
 13
798.7873649720041
 23
777.7009687285433
 33
0.0
  0
SOLID
  5
46B
330
464
100
AcDbEntity
  8
1
 62
     2
100
AcDbTrace
 10
848.1608114074976
 20
780.0048874363227
 30
0.0
 11
848.1608114074976
 21
775.3970500207639
 31
0.0
 12
830.6608114074976
 22
777.7009687285433
 32
0.0
 13
830.6608114074976
 23
777.7009687285433
 33
0.0
  0
MTEXT
  5
46C
330
464
100
AcDbEntity
  8
1
 62
     7
100
AcDbMText
 10
801.5990881897508
 20
782.7009687285433
 30
0.0
 40
17.5
 41
0.0
 71
     7
 72
     1
  1
32
  7
CONVERTER_12
 11
0.9999999999970619
 21
2.424068405545306E-6
 31
0.0
 73
     1
 44
0.60024009603842
  0
ENDBLK
  5
46E
330
464
100
AcDbEntity
  8
0
100
AcDbBlockEnd
  0
BLOCK
  5
478
330
471
100
AcDbEntity
  8
0
100
AcDbBlockBegin
  2
*D30
 70
     1
 10
0.0
 20
0.0
 30
0.0
  3
*D30
  1

  0
LINE
  5
472
330
471
100
AcDbEntity
  8
1
  6
Continuous
 62
     2
100
AcDbLine
 10
541.8314384634195
 20
777.7009687285433
 30
0.0
 11
798.7873649720041
 21
777.7009687285433
 31
0.0
  0
LINE
  5
473
330
471
100
AcDbEntity
  8
1
  6
Continuous
 62
     2
100
AcDbLine
 10
541.8314384634195
 20
658.0617851363704
 30
0.0
 11
541.8314384634195
 21
782.7009687285433
 31
0.0
  0
LINE
  5
474
330
471
100
AcDbEntity
  8
1
  6
Continuous
 62
     2
100
AcDbLine
 10
798.7873649720041
 20
695.8131828691228
 30
0.0
 11
798.7873649720041
 21
782.7009687285433
 31
0.0
  0
SOLID
  5
475
330
471
100
AcDbEntity
  8
1
 62
     2
100
AcDbTrace
 10
559.3314384634195
 20
780.0048874363227
 30
0.0
 11
559.3314384634195
 21
775.3970500207639
 31
0.0
 12
541.8314384634195
 22
777.7009687285433
 32
0.0
 13
541.8314384634195
 23
777.7009687285433
 33
0.0
  0
SOLID
  5
476
330
471
100
AcDbEntity
  8
1
 62
     2
100
AcDbTrace
 10
781.2873649720041
 20
775.3970500207639
 30
0.0
 11
781.2873649720041
 21
780.0048874363227
 31
0.0
 12
798.7873649720041
 22
777.7009687285433
 32
0.0
 13
798.7873649720041
 23
777.7009687285433
 33
0.0
  0
MTEXT
  5
477
330
471
100
AcDbEntity
  8
1
 62
     7
100
AcDbMText
 10
649.3094017177118
 20
782.7009687285433
 30
0.0
 40
17.5
 41
0.0
 71
     7
 72
     1
  1
257
  7
CONVERTER_12
 11
0.9999999999970619
 21
2.424068405545306E-6
 31
0.0
 73
     1
 44
0.60024009603842
  0
ENDBLK
  5
479
330
471
100
AcDbEntity
  8
0
100
AcDbBlockEnd
  0
BLOCK
  5
483
330
47C
100
AcDbEntity
  8
0
100
AcDbBlockBegin
  2
*D31
 70
     1
 10
0.0
 20
0.0
 30
0.0
  3
*D31
  1

  0
LINE
  5
47D
330
47C
100
AcDbEntity
  8
1
  6
Continuous
 62
     2
100
AcDbLine
 10
773.7449763759456
 20
311.6362897557894
 30
0.0
 11
823.8297535680612
 21
311.6362897557894
 31
0.0
  0
LINE
  5
47E
330
47C
100
AcDbEntity
  8
1
  6
Continuous
 62
     2
100
AcDbLine
 10
823.8297535680612
 20
475.6362897557898
 30
0.0
 11
823.8297535680612
 21
306.6362897557894
 31
0.0
  0
LINE
  5
47F
330
47C
100
AcDbEntity
  8
1
  6
Continuous
 62
     2
100
AcDbLine
 10
773.7449763759456
 20
475.6362897557898
 30
0.0
 11
773.7449763759456
 21
306.6362897557894
 31
0.0
  0
SOLID
  5
480
330
47C
100
AcDbEntity
  8
1
 62
     2
100
AcDbTrace
 10
791.2449763759456
 20
313.9402084635688
 30
0.0
 11
791.2449763759456
 21
309.33237104801
 31
0.0
 12
773.7449763759456
 22
311.6362897557894
 32
0.0
 13
773.7449763759456
 23
311.6362897557894
 33
0.0
  0
SOLID
  5
481
330
47C
100
AcDbEntity
  8
1
 62
     2
100
AcDbTrace
 10
806.3297535680612
 20
309.33237104801
 30
0.0
 11
806.3297535680612
 21
313.9402084635688
 31
0.0
 12
823.8297535680612
 22
311.6362897557894
 32
0.0
 13
823.8297535680612
 23
311.6362897557894
 33
0.0
  0
MTEXT
  5
482
330
47C
100
AcDbEntity
  8
1
 62
     7
100
AcDbMText
 10
785.6623649720041
 20
316.6362897557894
 30
0.0
 40
17.5
 41
0.0
 71
     7
 72
     1
  1
50
  7
CONVERTER_12
 11
0.9999999999970619
 21
2.424068405545306E-6
 31
0.0
 73
     1
 44
0.60024009603842
  0
ENDBLK
  5
484
330
47C
100
AcDbEntity
  8
0
100
AcDbBlockEnd
  0
BLOCK
  5
48E
330
487
100
AcDbEntity
  8
0
100
AcDbBlockBegin
  2
*D32
 70
     1
 10
0.0
 20
0.0
 30
0.0
  3
*D32
  1

  0
LINE
  5
488
330
487
100
AcDbEntity
  8
1
  6
Continuous
 62
     2
100
AcDbLine
 10
154.2873649720033
 20
475.6362897557893
 30
0.0
 11
154.2873649720033
 21
369.6362897557897
 31
0.0
  0
LINE
  5
489
330
487
100
AcDbEntity
  8
1
  6
Continuous
 62
     2
100
AcDbLine
 10
204.0373649720033
 20
369.6362897557897
 30
0.0
 11
149.2873649720033
 21
369.6362897557897
 31
0.0
  0
LINE
  5
48A
330
487
100
AcDbEntity
  8
1
  6
Continuous
 62
     2
100
AcDbLine
 10
195.7873649720041
 20
475.6362897557893
 30
0.0
 11
149.2873649720033
 21
475.6362897557893
 31
0.0
  0
SOLID
  5
48B
330
487
100
AcDbEntity
  8
1
 62
     2
100
AcDbTrace
 10
156.5912836797827
 20
458.1362897557893
 30
0.0
 11
151.9834462642239
 21
458.1362897557893
 31
0.0
 12
154.2873649720033
 22
475.6362897557893
 32
0.0
 13
154.2873649720033
 23
475.6362897557893
 33
0.0
  0
SOLID
  5
48C
330
487
100
AcDbEntity
  8
1
 62
     2
100
AcDbTrace
 10
151.9834462642239
 20
387.1362897557897
 30
0.0
 11
156.5912836797827
 21
387.1362897557897
 31
0.0
 12
154.2873649720033
 22
369.6362897557897
 32
0.0
 13
154.2873649720033
 23
369.6362897557897
 33
0.0
  0
MTEXT
  5
48D
330
487
100
AcDbEntity
  8
1
 62
     7
100
AcDbMText
 10
149.2873649720033
 20
404.2612897557896
 30
0.0
 40
17.5
 41
0.0
 71
     7
 72
     1
  1
106
  7
CONVERTER_12
 11
0.0
 21
1.0
 31
0.0
 73
     1
 44
0.60024009603842
  0
ENDBLK
  5
48F
330
487
100
AcDbEntity
  8
0
100
AcDbBlockEnd
  0
BLOCK
  5
49B
330
492
100
AcDbEntity
  8
0
100
AcDbBlockBegin
  2
*D33
 70
     1
 10
0.0
 20
0.0
 30
0.0
  3
*D33
  1

  0
LINE
  5
493
330
492
100
AcDbEntity
  8
0
  6
Continuous
 62
     2
100
AcDbLine
 10
862.1715389298806
 20
360.6362897557899
 30
0.0
 11
931.3407286642621
 21
360.6362897557899
 31
0.0
  0
LINE
  5
494
330
492
100
AcDbEntity
  8
0
  6
Continuous
 62
     2
100
AcDbLine
 10
838.1715389298806
 20
360.6362897557899
 30
0.0
 11
862.1715389298806
 21
360.6362897557899
 31
0.0
  0
LINE
  5
495
330
492
100
AcDbEntity
  8
0
  6
Continuous
 62
     2
100
AcDbLine
 10
803.1715389298806
 20
360.6362897557899
 30
0.0
 11
838.1715389298806
 21
360.6362897557899
 31
0.0
  0
LINE
  5
496
330
492
100
AcDbEntity
  8
0
  6
Continuous
 62
     2
100
AcDbLine
 10
786.7873649720042
 20
449.6362897557895
 30
0.0
 11
840.6715389298806
 21
356.3061627368677
 31
0.0
  0
LINE
  5
497
330
492
100
AcDbEntity
  8
0
  6
Continuous
 62
     2
100
AcDbLine
 10
810.7873649720042
 20
449.6362897557895
 30
0.0
 11
864.6715389298806
 21
356.3061627368677
 31
0.0
  0
SOLID
  5
498
330
492
100
AcDbEntity
  8
0
 62
     2
100
AcDbTrace
 10
820.6715389298806
 20
358.3323710480105
 30
0.0
 11
820.6715389298806
 21
362.9402084635693
 31
0.0
 12
838.1715389298806
 22
360.6362897557899
 32
0.0
 13
838.1715389298806
 23
360.6362897557899
 33
0.0
  0
SOLID
  5
499
330
492
100
AcDbEntity
  8
0
 62
     2
100
AcDbTrace
 10
879.6715389298806
 20
362.9402084635693
 30
0.0
 11
879.6715389298806
 21
358.3323710480105
 31
0.0
 12
862.1715389298806
 22
360.6362897557899
 32
0.0
 13
862.1715389298806
 23
360.6362897557899
 33
0.0
  0
MTEXT
  5
49A
330
492
100
AcDbEntity
  8
0
 62
     7
100
AcDbMText
 10
870.0907286642621
 20
365.6362897557899
 30
0.0
 40
17.5
 41
0.0
 71
     7
 72
     1
  1
対辺24
  7
CONVERTER_11
 11
0.9999999999970619
 21
2.424068405545306E-6
 31
0.0
 73
     1
 44
0.45454545454545
  0
ENDBLK
  5
49C
330
492
100
AcDbEntity
  8
0
100
AcDbBlockEnd
  0
BLOCK
  5
4A8
330
49F
100
AcDbEntity
  8
0
100
AcDbBlockBegin
  2
*D34
 70
     1
 10
0.0
 20
0.0
 30
0.0
  3
*D34
  1

  0
LINE
  5
4A0
330
49F
100
AcDbEntity
  8
1
  6
Continuous
 62
     2
100
AcDbLine
 10
491.7873649720073
 20
459.6362897557887
 30
0.0
 11
491.7873649720073
 21
318.231334623867
 31
0.0
  0
LINE
  5
4A1
330
49F
100
AcDbEntity
  8
1
  6
Continuous
 62
     2
100
AcDbLine
 10
491.7873649720073
 20
474.6362897557896
 30
0.0
 11
491.7873649720073
 21
459.6362897557887
 31
0.0
  0
LINE
  5
4A2
330
49F
100
AcDbEntity
  8
1
  6
Continuous
 62
     2
100
AcDbLine
 10
491.7873649720073
 20
509.6362897557896
 30
0.0
 11
491.7873649720073
 21
474.6362897557896
 31
0.0
  0
LINE
  5
4A3
330
49F
100
AcDbEntity
  8
1
  6
Continuous
 62
     2
100
AcDbLine
 10
453.2031783815479
 20
459.6362897557887
 30
0.0
 11
496.7873649720073
 21
459.6362897557887
 31
0.0
  0
LINE
  5
4A4
330
49F
100
AcDbEntity
  8
1
  6
Continuous
 62
     2
100
AcDbLine
 10
453.2031783815479
 20
474.6362897557896
 30
0.0
 11
496.7873649720073
 21
474.6362897557896
 31
0.0
  0
SOLID
  5
4A5
330
49F
100
AcDbEntity
  8
1
 62
     2
100
AcDbTrace
 10
489.4834462642279
 20
492.1362897557896
 30
0.0
 11
494.0912836797867
 21
492.1362897557896
 31
0.0
 12
491.7873649720073
 22
474.6362897557896
 32
0.0
 13
491.7873649720073
 23
474.6362897557896
 33
0.0
  0
SOLID
  5
4A6
330
49F
100
AcDbEntity
  8
1
 62
     2
100
AcDbTrace
 10
494.0912836797867
 20
442.1362897557887
 30
0.0
 11
489.4834462642279
 21
442.1362897557887
 31
0.0
 12
491.7873649720073
 22
459.6362897557887
 32
0.0
 13
491.7873649720073
 23
459.6362897557887
 33
0.0
  0
MTEXT
  5
4A7
330
49F
100
AcDbEntity
  8
1
 62
     7
100
AcDbMText
 10
486.7873649720073
 20
330.875084623867
 30
0.0
 40
17.5
 41
0.0
 71
     7
 72
     1
  1
\C7;最大\C7;37最小5
  7
CONVERTER_11
 11
0.0
 21
1.0
 31
0.0
 73
     1
 44
0.45454545454545
  0
ENDBLK
  5
4A9
330
49F
100
AcDbEntity
  8
0
100
AcDbBlockEnd
  0
BLOCK
  5
4B3
330
4AC
100
AcDbEntity
  8
0
100
AcDbBlockBegin
  2
*D35
 70
     1
 10
0.0
 20
0.0
 30
0.0
  3
*D35
  1

  0
LINE
  5
4AD
330
4AC
100
AcDbEntity
  8
1
  6
Continuous
 62
     2
100
AcDbLine
 10
195.7873649720041
 20
272.6362897557896
 30
0.0
 11
441.7873649720041
 21
272.6362897557896
 31
0.0
  0
LINE
  5
4AE
330
4AC
100
AcDbEntity
  8
1
  6
Continuous
 62
     2
100
AcDbLine
 10
441.7873649720041
 20
475.6362897557893
 30
0.0
 11
441.7873649720041
 21
267.6362897557896
 31
0.0
  0
LINE
  5
4AF
330
4AC
100
AcDbEntity
  8
1
  6
Continuous
 62
     2
100
AcDbLine
 10
195.7873649720041
 20
475.6362897557893
 30
0.0
 11
195.7873649720041
 21
267.6362897557896
 31
0.0
  0
SOLID
  5
4B0
330
4AC
100
AcDbEntity
  8
1
 62
     2
100
AcDbTrace
 10
213.2873649720041
 20
274.940208463569
 30
0.0
 11
213.2873649720041
 21
270.3323710480102
 31
0.0
 12
195.7873649720041
 22
272.6362897557896
 32
0.0
 13
195.7873649720041
 23
272.6362897557896
 33
0.0
  0
SOLID
  5
4B1
330
4AC
100
AcDbEntity
  8
1
 62
     2
100
AcDbTrace
 10
424.2873649720041
 20
270.3323710480102
 30
0.0
 11
424.2873649720041
 21
274.940208463569
 31
0.0
 12
441.7873649720041
 22
272.6362897557896
 32
0.0
 13
441.7873649720041
 23
272.6362897557896
 33
0.0
  0
MTEXT
  5
4B2
330
4AC
100
AcDbEntity
  8
1
 62
     7
100
AcDbMText
 10
297.7873649720041
 20
277.6362897557896
 30
0.0
 40
17.5
 41
0.0
 71
     7
 72
     1
  1
246
  7
CONVERTER_12
 11
0.9999999999970619
 21
2.424068405545306E-6
 31
0.0
 73
     1
 44
0.60024009603842
  0
ENDBLK
  5
4B4
330
4AC
100
AcDbEntity
  8
0
100
AcDbBlockEnd
  0
BLOCK
  5
4BE
330
4B7
100
AcDbEntity
  8
0
100
AcDbBlockBegin
  2
*D36
 70
     1
 10
0.0
 20
0.0
 30
0.0
  3
*D36
  1

  0
LINE
  5
4B8
330
4B7
100
AcDbEntity
  8
1
  6
Continuous
 62
     2
100
AcDbLine
 10
880.6527542310141
 20
693.1362897557899
 30
0.0
 11
880.6527542310141
 21
475.6362897557898
 31
0.0
  0
LINE
  5
4B9
330
4B7
100
AcDbEntity
  8
1
  6
Continuous
 62
     2
100
AcDbLine
 10
823.8297535680612
 20
475.6362897557898
 30
0.0
 11
885.6527542310141
 21
475.6362897557898
 31
0.0
  0
LINE
  5
4BA
330
4B7
100
AcDbEntity
  8
1
  6
Continuous
 62
     2
100
AcDbLine
 10
703.7873649720018
 20
693.1362897557899
 30
0.0
 11
885.6527542310141
 21
693.1362897557899
 31
0.0
  0
SOLID
  5
4BB
330
4B7
100
AcDbEntity
  8
1
 62
     2
100
AcDbTrace
 10
882.9566729387935
 20
675.6362897557899
 30
0.0
 11
878.3488355232347
 21
675.6362897557899
 31
0.0
 12
880.6527542310141
 22
693.1362897557899
 32
0.0
 13
880.6527542310141
 23
693.1362897557899
 33
0.0
  0
SOLID
  5
4BC
330
4B7
100
AcDbEntity
  8
1
 62
     2
100
AcDbTrace
 10
878.3488355232347
 20
493.1362897557898
 30
0.0
 11
882.9566729387935
 21
493.1362897557898
 31
0.0
 12
880.6527542310141
 22
475.6362897557898
 32
0.0
 13
880.6527542310141
 23
475.6362897557898
 33
0.0
  0
MTEXT
  5
4BD
330
4B7
100
AcDbEntity
  8
1
 62
     7
100
AcDbMText
 10
875.6527542310141
 20
547.767184038907
 30
0.0
 40
17.5
 41
0.0
 71
     7
 72
     1
  1
\C7;最小\C7;218
  7
CONVERTER_11
 11
0.0
 21
1.0
 31
0.0
 73
     1
 44
0.45454545454545
  0
ENDBLK
  5
4BF
330
4B7
100
AcDbEntity
  8
0
100
AcDbBlockEnd
  0
BLOCK
  5
4C9
330
4C2
100
AcDbEntity
  8
0
100
AcDbBlockBegin
  2
*D37
 70
     1
 10
0.0
 20
0.0
 30
0.0
  3
*D37
  1

  0
LINE
  5
4C3
330
4C2
100
AcDbEntity
  8
1
  6
Continuous
 62
     2
100
AcDbLine
 10
920.6527542310141
 20
727.7009687285433
 30
0.0
 11
920.6527542310141
 21
475.6362897557897
 31
0.0
  0
LINE
  5
4C4
330
4C2
100
AcDbEntity
  8
1
  6
Continuous
 62
     2
100
AcDbLine
 10
823.8297535680612
 20
475.6362897557897
 30
0.0
 11
925.6527542310141
 21
475.6362897557897
 31
0.0
  0
LINE
  5
4C5
330
4C2
100
AcDbEntity
  8
1
  6
Continuous
 62
     2
100
AcDbLine
 10
737.8761736032693
 20
727.7009687285433
 30
0.0
 11
925.6527542310141
 21
727.7009687285433
 31
0.0
  0
SOLID
  5
4C6
330
4C2
100
AcDbEntity
  8
1
 62
     2
100
AcDbTrace
 10
922.9566729387935
 20
710.2009687285433
 30
0.0
 11
918.3488355232347
 21
710.2009687285433
 31
0.0
 12
920.6527542310141
 22
727.7009687285433
 32
0.0
 13
920.6527542310141
 23
727.7009687285433
 33
0.0
  0
SOLID
  5
4C7
330
4C2
100
AcDbEntity
  8
1
 62
     2
100
AcDbTrace
 10
918.3488355232347
 20
493.1362897557897
 30
0.0
 11
922.9566729387935
 21
493.1362897557897
 31
0.0
 12
920.6527542310141
 22
475.6362897557897
 32
0.0
 13
920.6527542310141
 23
475.6362897557897
 33
0.0
  0
MTEXT
  5
4C8
330
4C2
100
AcDbEntity
  8
1
 62
     7
100
AcDbMText
 10
915.6527542310141
 20
581.9891616621519
 30
0.0
 40
17.5
 41
0.0
 71
     7
 72
     1
  1
\C7;最大\C7;252
  7
CONVERTER_11
 11
0.0
 21
1.0
 31
0.0
 73
     1
 44
0.45454545454545
  0
ENDBLK
  5
4CA
330
4C2
100
AcDbEntity
  8
0
100
AcDbBlockEnd
  0
BLOCK
  5
4D4
330
4CD
100
AcDbEntity
  8
0
100
AcDbBlockBegin
  2
*D38
 70
     1
 10
0.0
 20
0.0
 30
0.0
  3
*D38
  1

  0
LINE
  5
4CE
330
4CD
100
AcDbEntity
  8
1
  6
Continuous
 62
     2
100
AcDbLine
 10
242.7891255278806
 20
922.1710001688871
 30
0.0
 11
318.7873649720042
 21
922.1710001688871
 31
0.0
  0
LINE
  5
4CF
330
4CD
100
AcDbEntity
  8
1
  6
Continuous
 62
     2
100
AcDbLine
 10
242.7891255278806
 20
1185.320372128709
 30
0.0
 11
242.7891255278806
 21
917.1710001688871
 31
0.0
  0
LINE
  5
4D0
330
4CD
100
AcDbEntity
  8
1
  6
Continuous
 62
     2
100
AcDbLine
 10
318.7873649720042
 20
954.6832504524392
 30
0.0
 11
318.7873649720042
 21
917.1710001688871
 31
0.0
  0
SOLID
  5
4D1
330
4CD
100
AcDbEntity
  8
1
 62
     2
100
AcDbTrace
 10
260.2891255278806
 20
924.4749188766665
 30
0.0
 11
260.2891255278806
 21
919.8670814611077
 31
0.0
 12
242.7891255278806
 22
922.1710001688871
 32
0.0
 13
242.7891255278806
 23
922.1710001688871
 33
0.0
  0
SOLID
  5
4D2
330
4CD
100
AcDbEntity
  8
1
 62
     2
100
AcDbTrace
 10
301.2873649720042
 20
919.8670814611077
 30
0.0
 11
301.2873649720042
 21
924.4749188766665
 31
0.0
 12
318.7873649720042
 22
922.1710001688871
 32
0.0
 13
318.7873649720042
 23
922.1710001688871
 33
0.0
  0
MTEXT
  5
4D3
330
4CD
100
AcDbEntity
  8
1
 62
     7
100
AcDbMText
 10
267.6632452499424
 20
927.1710001688871
 30
0.0
 40
17.5
 41
0.0
 71
     7
 72
     1
  1
76
  7
CONVERTER_12
 11
0.9999999999970619
 21
2.424068405545306E-6
 31
0.0
 73
     1
 44
0.60024009603842
  0
ENDBLK
  5
4D5
330
4CD
100
AcDbEntity
  8
0
100
AcDbBlockEnd
  0
BLOCK
  5
4DF
330
4D8
100
AcDbEntity
  8
0
100
AcDbBlockBegin
  2
*D39
 70
     1
 10
0.0
 20
0.0
 30
0.0
  3
*D39
  1

  0
LINE
  5
4D9
330
4D8
100
AcDbEntity
  8
1
  6
Continuous
 62
     2
100
AcDbLine
 10
318.7873649720041
 20
922.1710001688871
 30
0.0
 11
394.7545854122426
 21
922.1710001688871
 31
0.0
  0
LINE
  5
4DA
330
4D8
100
AcDbEntity
  8
1
  6
Continuous
 62
     2
100
AcDbLine
 10
318.7873649720041
 20
954.6832504524393
 30
0.0
 11
318.7873649720041
 21
917.1710001688871
 31
0.0
  0
LINE
  5
4DB
330
4D8
100
AcDbEntity
  8
1
  6
Continuous
 62
     2
100
AcDbLine
 10
394.7545854122426
 20
1185.363734388868
 30
0.0
 11
394.7545854122426
 21
917.1710001688871
 31
0.0
  0
SOLID
  5
4DC
330
4D8
100
AcDbEntity
  8
1
 62
     2
100
AcDbTrace
 10
336.2873649720041
 20
924.4749188766665
 30
0.0
 11
336.2873649720041
 21
919.8670814611077
 31
0.0
 12
318.7873649720041
 22
922.1710001688871
 32
0.0
 13
318.7873649720041
 23
922.1710001688871
 33
0.0
  0
SOLID
  5
4DD
330
4D8
100
AcDbEntity
  8
1
 62
     2
100
AcDbTrace
 10
377.2545854122426
 20
919.8670814611077
 30
0.0
 11
377.2545854122426
 21
924.4749188766665
 31
0.0
 12
394.7545854122426
 22
922.1710001688871
 32
0.0
 13
394.7545854122426
 23
922.1710001688871
 33
0.0
  0
MTEXT
  5
4DE
330
4D8
100
AcDbEntity
  8
1
 62
     7
100
AcDbMText
 10
343.6459751921234
 20
927.1710001688871
 30
0.0
 40
17.5
 41
0.0
 71
     7
 72
     1
  1
76
  7
CONVERTER_12
 11
0.9999999999970619
 21
2.424068405545306E-6
 31
0.0
 73
     1
 44
0.60024009603842
  0
ENDBLK
  5
4E0
330
4D8
100
AcDbEntity
  8
0
100
AcDbBlockEnd
  0
BLOCK
  5
4EA
330
4E3
100
AcDbEntity
  8
0
100
AcDbBlockBegin
  2
*D40
 70
     1
 10
0.0
 20
0.0
 30
0.0
  3
*D40
  1

  0
LINE
  5
4E4
330
4E3
100
AcDbEntity
  8
1
  6
Continuous
 62
     2
100
AcDbLine
 10
237.4569245109707
 20
1161.983526095862
 30
0.0
 11
219.7854861441491
 21
1144.304347069523
 31
0.0
  0
LINE
  5
4E5
330
4E3
100
AcDbEntity
  8
1
  6
Continuous
 62
     2
100
AcDbLine
 10
219.7854861441491
 20
1144.304347069523
 30
0.0
 11
216.2507264922983
 21
1140.768039079026
 31
0.0
  0
ARC
  5
4E6
330
4E3
100
AcDbEntity
  8
1
  6
Continuous
 62
     2
100
AcDbCircle
 10
318.7873649720042
 20
1243.349591910927
 30
0.0
 40
140.0404674982876
100
AcDbArc
 50
225.0125459510086
 51
270.0
  0
SOLID
  5
4E7
330
4E3
100
AcDbEntity
  8
1
 62
     2
100
AcDbTrace
 10
234.434749387449
 20
1134.457666012407
 30
0.0
 11
231.3870792583279
 21
1131.001675209137
 31
0.0
 12
219.7854861441491
 22
1144.304347069523
 32
0.0
 13
219.7854861441491
 23
1144.304347069523
 33
0.0
  0
SOLID
  5
4E8
330
4E3
100
AcDbEntity
  8
1
 62
     2
100
AcDbTrace
 10
301.1776541347922
 20
1102.102424101113
 30
0.0
 11
301.4653734585046
 21
1106.701269960563
 31
0.0
 12
318.7873649720042
 22
1103.309124412639
 32
0.0
 13
318.7873649720042
 23
1103.309124412639
 33
0.0
  0
MTEXT
  5
4E9
330
4E3
100
AcDbEntity
  8
1
 62
     7
100
AcDbMText
 10
249.3534434707431
 20
1125.938259804044
 30
0.0
 40
17.5
 41
0.0
 71
     7
 72
     1
  1
45{\Fgdt;~}
  7
CONVERTER_12
 11
0.9239724328224852
 21
-0.3824590741296355
 31
0.0
 73
     1
 44
0.60024009603842
  0
ENDBLK
  5
4EB
330
4E3
100
AcDbEntity
  8
0
100
AcDbBlockEnd
  0
BLOCK
  5
4F5
330
4EE
100
AcDbEntity
  8
0
100
AcDbBlockBegin
  2
*D41
 70
     1
 10
0.0
 20
0.0
 30
0.0
  3
*D41
  1

  0
LINE
  5
4EF
330
4EE
100
AcDbEntity
  8
1
  6
Continuous
 62
     2
100
AcDbLine
 10
400.08916142163
 20
1161.985848349552
 30
0.0
 11
417.7537024800928
 21
1144.32130729109
 31
0.0
  0
LINE
  5
4F0
330
4EE
100
AcDbEntity
  8
1
  6
Continuous
 62
     2
100
AcDbLine
 10
417.7537024800928
 20
1144.32130729109
 30
0.0
 11
421.2892363860256
 21
1140.785773385157
 31
0.0
  0
ARC
  5
4F1
330
4EE
100
AcDbEntity
  8
1
  6
Continuous
 62
     2
100
AcDbCircle
 10
318.7873649720041
 20
1243.287644799178
 30
0.0
 40
139.9595367223321
100
AcDbArc
 50
270.0
 51
315.0000000000001
  0
SOLID
  5
4F2
330
4EE
100
AcDbEntity
  8
1
 62
     2
100
AcDbTrace
 10
336.1092339166154
 20
1106.720879462862
 30
0.0
 11
336.3971193955785
 21
1102.122044001658
 31
0.0
 12
318.7873649720041
 22
1103.328108076846
 32
0.0
 13
318.7873649720041
 23
1103.328108076846
 33
0.0
  0
SOLID
  5
4F3
330
4EE
100
AcDbEntity
  8
1
 62
     2
100
AcDbTrace
 10
406.1545417982649
 20
1131.016514437039
 30
0.0
 11
403.1062398324664
 21
1134.471947951598
 31
0.0
 12
417.7537024800928
 22
1144.32130729109
 32
0.0
 13
417.7537024800928
 23
1144.32130729109
 33
0.0
  0
MTEXT
  5
4F4
330
4EE
100
AcDbEntity
  8
1
 62
     7
100
AcDbMText
 10
352.667080792954
 20
1111.23915405355
 30
0.0
 40
17.5
 41
0.0
 71
     7
 72
     1
  1
45{\Fgdt;~}
  7
CONVERTER_12
 11
0.9238284670494583
 21
0.3828066920379631
 31
0.0
 73
     1
 44
0.60024009603842
  0
ENDBLK
  5
4F6
330
4EE
100
AcDbEntity
  8
0
100
AcDbBlockEnd
  0
ENDSEC
  0
SECTION
  2
ENTITIES
  0
INSERT
  5
9A
330
1F
100
AcDbEntity
  8
1
100
AcDbBlockReference
  2
V872FE__2
 10
993.5
 20
4521.832338129497
 30
0.0
 41
1.0
 42
1.0
 43
1.0
  0
INSERT
  5
9B
330
1F
100
AcDbEntity
  8
1
100
AcDbBlockReference
  2
V872FE__4
 10
204.2873649720033
 20
352.2186278852863
 30
0.0
 41
1.0
 42
1.0
 43
1.0
  0
INSERT
  5
9C
330
1F
100
AcDbEntity
  8
1
100
AcDbBlockReference
  2
開示A4
 10
0.0
 20
0.0
 30
0.0
 41
5.0
 42
5.0
 43
5.0
  0
INSERT
  5
9D
330
1F
100
AcDbEntity
  8
0
100
AcDbBlockReference
  2
61-115AX-M1
 10
1050.0
 20
1485.0
 30
0.0
 41
1.0
 42
1.0
 43
1.0
  0
INSERT
  5
9E
330
1F
100
AcDbEntity
  8
0
100
AcDbBlockReference
  2
01-76
 10
0.0
 20
1485.0
 30
0.0
 41
1.0
 42
1.0
 43
1.0
  0
INSERT
  5
9F
330
1F
100
AcDbEntity
  8
0
100
AcDbBlockReference
  2
50-13
 10
1050.0
 20
1485.0
 30
0.0
 41
1.0
 42
1.0
 43
1.0
  0
INSERT
  5
A0
330
1F
100
AcDbEntity
  8
1
100
AcDbBlockReference
  2
32-16__5
 10
0.0
 20
1485.0
 30
0.0
 41
1.0
 42
1.0
 43
1.0
  0
INSERT
  5
A1
330
1F
100
AcDbEntity
  8
1
100
AcDbBlockReference
  2
35-276__6
 10
0.0
 20
1485.0
 30
0.0
 41
1.0
 42
1.0
 43
1.0
  0
INSERT
  5
A2
330
1F
100
AcDbEntity
  8
1
100
AcDbBlockReference
  2
32-16__7
 10
0.0
 20
1485.0
 30
0.0
 41
1.0
 42
1.0
 43
1.0
  0
INSERT
  5
A3
330
1F
100
AcDbEntity
  8
0
100
AcDbBlockReference
  2
73-1-21_5__8
 10
326.0121835635438
 20
475.5234182913308
 30
0.0
 41
1.0
 42
1.0
 43
1.0
  0
INSERT
  5
A4
330
1F
100
AcDbEntity
  8
0
100
AcDbBlockReference
  2
92-53A__9
 10
22.47081715283278
 20
275.4522930483096
 30
0.0
 41
1.0
 42
1.0
 43
1.0
  0
INSERT
  5
A5
330
1F
100
AcDbEntity
  8
0
100
AcDbBlockReference
  2
32-25__10
 10
230.6043082770933
 20
423.2137131666527
 30
0.0
 41
1.0
 42
1.0
 43
1.0
  0
INSERT
  5
A6
330
1F
100
AcDbEntity
  8
0
100
AcDbBlockReference
  2
73-1-21_5__11
 10
123.012183563544
 20
475.5234182913312
 30
0.0
 41
1.0
 42
1.0
 43
1.0
  0
INSERT
  5
A7
330
1F
100
AcDbEntity
  8
0
100
AcDbBlockReference
  2
32-25__12
 10
328.632196424262
 20
423.7137131666523
 30
0.0
 41
1.0
 42
1.0
 43
1.0
  0
INSERT
  5
A8
330
1F
100
AcDbEntity
  8
0
100
AcDbBlockReference
  2
92-53A__13
 10
120.4987053000016
 20
275.4522930483091
 30
0.0
 41
1.0
 42
1.0
 43
1.0
  0
INSERT
  5
A9
330
1F
100
AcDbEntity
  8
1
100
AcDbBlockReference
  2
98-119A
 10
197.787364972004
 20
475.1362897557892
 30
0.0
 41
1.0
 42
1.0
 43
1.0
  0
INSERT
  5
AA
330
1F
100
AcDbEntity
  8
1
100
AcDbBlockReference
  2
35-276__14
 10
0.0
 20
1485.0
 30
0.0
 41
1.0
 42
1.0
 43
1.0
  0
INSERT
  5
AB
330
1F
100
AcDbEntity
  8
1
100
AcDbBlockReference
  2
30-310-M11
 10
0.0
 20
1485.0
 30
0.0
 41
1.0
 42
1.0
 43
1.0
  0
INSERT
  5
AC
330
1F
100
AcDbEntity
  8
1
100
AcDbBlockReference
  2
34-167-M1
 10
0.0
 20
1485.0
 30
0.0
 41
1.0
 42
1.0
 43
1.0
  0
INSERT
  5
AD
330
1F
100
AcDbEntity
  8
1
100
AcDbBlockReference
  2
87-163A-M21
 10
2499.633568777156
 20
2639.72264016396
 30
0.0
 41
1.0
 42
1.0
 43
1.0
  0
INSERT
  5
AE
330
1F
100
AcDbEntity
  8
1
100
AcDbBlockReference
  2
37-364-M11
 10
1854.0
 20
382.8883810687153
 30
0.0
 41
1.0
 42
1.0
 43
1.0
  0
LINE
  5
40A
330
1F
100
AcDbEntity
  8
1
  6
DASH_CENTER
 62
     2
100
AcDbLine
 10
318.7873649720041
 20
1143.303134845319
 30
0.0
 11
318.7873649720041
 21
954.6832504524392
 31
0.0
  0
LINE
  5
40B
330
1F
100
AcDbEntity
  8
1
  6
DASH_CENTER
 62
     2
100
AcDbLine
 10
797.5195101867803
 20
625.7023318518958
 30
0.0
 11
810.6629381269161
 21
653.8885040287357
 31
0.0
  0
LINE
  5
40C
330
1F
100
AcDbEntity
  8
1
  6
DASH_CENTER
 62
     2
100
AcDbLine
 10
775.8873649720033
 20
522.138303684173
 30
0.0
 11
821.6238182513911
 21
522.138303684173
 31
0.0
  0
LINE
  5
40D
330
1F
100
AcDbEntity
  8
1
  6
DASH_CENTER
 62
     2
100
AcDbLine
 10
291.2995169416462
 20
522.136289754998
 30
0.0
 11
346.275213002362
 21
522.138303684173
 31
0.0
  0
LINE
  5
40E
102
{ACAD_REACTORS
330
4FB
102
}
330
1F
100
AcDbEntity
  8
1
  6
PHANTOM
 62
     4
100
AcDbLine
 10
453.2031783815479
 20
474.6362897557897
 30
0.0
 11
453.2031783815479
 21
459.6362897557887
 31
0.0
  0
LINE
  5
40F
102
{ACAD_REACTORS
330
4F9
102
}
330
1F
100
AcDbEntity
  8
1
  6
PHANTOM
 62
     4
100
AcDbLine
 10
187.5781609685168
 20
474.6362897557897
 30
0.0
 11
187.5781609685168
 21
459.6362897557891
 31
0.0
  0
LINE
  5
410
102
{ACAD_REACTORS
330
4FA
102
}
330
1F
100
AcDbEntity
  8
1
  6
PHANTOM
 62
     2
100
AcDbLine
 10
227.7648649720041
 20
474.6362897557897
 30
0.0
 11
409.8098649720033
 21
474.6362897557896
 31
0.0
  0
LINE
  5
411
102
{ACAD_REACTORS
330
4F9
102
}
330
1F
100
AcDbEntity
  8
1
  6
PHANTOM
 62
     4
100
AcDbLine
 10
206.8098649720041
 20
459.6362897557893
 30
0.0
 11
206.8098649720041
 21
474.6362897557897
 31
0.0
  0
LINE
  5
412
102
{ACAD_REACTORS
330
4FA
102
}
330
1F
100
AcDbEntity
  8
1
  6
PHANTOM
 62
     4
100
AcDbLine
 10
227.7648649720041
 20
459.6362897557896
 30
0.0
 11
227.7648649720041
 21
474.6362897557897
 31
0.0
  0
LINE
  5
413
102
{ACAD_REACTORS
330
4FA
102
}
330
1F
100
AcDbEntity
  8
1
  6
PHANTOM
 62
     4
100
AcDbLine
 10
409.8098649720033
 20
459.6362897557896
 30
0.0
 11
409.8098649720033
 21
474.6362897557896
 31
0.0
  0
LINE
  5
414
102
{ACAD_REACTORS
330
4FB
102
}
330
1F
100
AcDbEntity
  8
1
  6
PHANTOM
 62
     4
100
AcDbLine
 10
430.7648649720042
 20
459.6362897557896
 30
0.0
 11
430.7648649720042
 21
474.6362897557897
 31
0.0
  0
LINE
  5
415
102
{ACAD_REACTORS
330
4FD
102
}
330
1F
100
AcDbEntity
  8
1
  6
PHANTOM
 62
     4
100
AcDbLine
 10
833.852915130815
 20
459.6362897557887
 30
0.0
 11
833.852915130815
 21
474.6362897557897
 31
0.0
  0
LINE
  5
416
102
{ACAD_REACTORS
330
4FD
102
}
330
1F
100
AcDbEntity
  8
1
  6
PHANTOM
 62
     4
100
AcDbLine
 10
809.2648649720043
 20
459.6362897557896
 30
0.0
 11
809.2648649720043
 21
474.6362897557897
 31
0.0
  0
LINE
  5
417
102
{ACAD_REACTORS
330
4FC
102
}
330
1F
100
AcDbEntity
  8
1
  6
PHANTOM
 62
     4
100
AcDbLine
 10
788.3098649720034
 20
459.6362897557896
 30
0.0
 11
788.3098649720034
 21
474.6362897557897
 31
0.0
  0
LINE
  5
418
102
{ACAD_REACTORS
330
4FC
102
}
330
1F
100
AcDbEntity
  8
1
  6
PHANTOM
 62
     4
100
AcDbLine
 10
764.5278642749471
 20
474.6362897557897
 30
0.0
 11
764.5278642749471
 21
459.6362897557887
 31
0.0
  0
LINE
  5
419
330
1F
100
AcDbEntity
  8
1
  6
DASH_CENTER
 62
     2
100
AcDbLine
 10
318.7873649720041
 20
1275.900681509852
 30
0.0
 11
318.7873649720041
 21
1143.303134845319
 31
0.0
  0
LINE
  5
41A
102
{ACAD_REACTORS
330
4FC
102
}
330
1F
100
AcDbEntity
  8
1
  6
CENTER_DASH_DASH
 62
     2
100
AcDbLine
 10
788.3098649720034
 20
459.6362897557896
 30
0.0
 11
764.5278642749471
 21
459.6362897557887
 31
0.0
  0
LINE
  5
41B
102
{ACAD_REACTORS
330
4FB
102
}
330
1F
100
AcDbEntity
  8
1
  6
CENTER_DASH_DASH
 62
     2
100
AcDbLine
 10
430.7648649720042
 20
474.6362897557897
 30
0.0
 11
453.2031783815479
 21
474.6362897557897
 31
0.0
  0
LINE
  5
41C
102
{ACAD_REACTORS
330
4FB
102
}
330
1F
100
AcDbEntity
  8
1
  6
CENTER_DASH_DASH
 62
     2
100
AcDbLine
 10
430.7648649720042
 20
459.6362897557896
 30
0.0
 11
453.2031783815479
 21
459.6362897557887
 31
0.0
  0
LINE
  5
41D
102
{ACAD_REACTORS
330
4FA
102
}
330
1F
100
AcDbEntity
  8
1
  6
CENTER_DASH_DASH
 62
     2
100
AcDbLine
 10
409.8098649720033
 20
459.6362897557896
 30
0.0
 11
227.7648649720041
 21
459.6362897557896
 31
0.0
  0
LINE
  5
41E
102
{ACAD_REACTORS
330
4F9
102
}
330
1F
100
AcDbEntity
  8
1
  6
CENTER_DASH_DASH
 62
     2
100
AcDbLine
 10
206.8098649720041
 20
459.6362897557893
 30
0.0
 11
187.5781609685168
 21
459.6362897557891
 31
0.0
  0
LINE
  5
41F
102
{ACAD_REACTORS
330
4F9
102
}
330
1F
100
AcDbEntity
  8
1
  6
CENTER_DASH_DASH
 62
     2
100
AcDbLine
 10
206.8098649720041
 20
474.6362897557897
 30
0.0
 11
187.5781609685168
 21
474.6362897557897
 31
0.0
  0
LINE
  5
420
102
{ACAD_REACTORS
330
4FC
102
}
330
1F
100
AcDbEntity
  8
1
  6
CENTER_DASH_DASH
 62
     2
100
AcDbLine
 10
788.3098649720034
 20
474.6362897557897
 30
0.0
 11
764.5278642749471
 21
474.6362897557897
 31
0.0
  0
LINE
  5
421
102
{ACAD_REACTORS
330
4FD
102
}
330
1F
100
AcDbEntity
  8
1
  6
CENTER_DASH_DASH
 62
     2
100
AcDbLine
 10
809.2648649720043
 20
474.6362897557897
 30
0.0
 11
833.852915130815
 21
474.6362897557897
 31
0.0
  0
LINE
  5
422
102
{ACAD_REACTORS
330
4FD
102
}
330
1F
100
AcDbEntity
  8
1
  6
CENTER_DASH_DASH
 62
     2
100
AcDbLine
 10
809.2648649720043
 20
459.6362897557896
 30
0.0
 11
833.852915130815
 21
459.6362897557887
 31
0.0
  0
LINE
  5
423
330
1F
100
AcDbEntity
  8
1
  6
DASH_CENTER
 62
     2
100
AcDbLine
 10
217.287364972004
 20
511.8688268366213
 30
0.0
 11
217.2873649720037
 21
347.6362897557896
 31
0.0
  0
LINE
  5
424
330
1F
100
AcDbEntity
  8
1
  6
DASH_CENTER
 62
     2
100
AcDbLine
 10
183.7873649720036
 20
1243.31861157283
 30
0.0
 11
455.7873649720038
 21
1243.31861157283
 31
0.0
  0
LINE
  5
425
330
1F
100
AcDbEntity
  8
1
  6
DASH_CENTER
 62
     2
100
AcDbLine
 10
648.0499000895373
 20
654.6318533651583
 30
0.0
 11
783.7873649720043
 21
558.376690013675
 31
0.0
  0
LINE
  5
426
330
1F
100
AcDbEntity
  8
1
  6
DASH_CENTER
 62
     2
100
AcDbLine
 10
576.7249171898327
 20
681.5417156536205
 30
0.0
 11
523.0950592525306
 21
687.1784408595313
 31
0.0
  0
LINE
  5
427
330
1F
100
AcDbEntity
  8
1
  6
DASH_CENTER
 62
     2
100
AcDbLine
 10
541.8314384634198
 20
658.0617851363705
 30
0.0
 11
546.0497902457644
 21
698.1967213897905
 31
0.0
  0
LINE
  5
428
330
1F
100
AcDbEntity
  8
1
  6
Continuous
 62
     2
100
AcDbLine
 10
249.0
 20
1030.0
 30
0.0
 11
301.0
 21
1030.0
 31
0.0
  0
LINE
  5
429
330
1F
100
AcDbEntity
  8
1
  6
Continuous
 62
     2
100
AcDbLine
 10
339.0
 20
1030.0
 30
0.0
 11
390.0
 21
1030.0
 31
0.0
  0
LINE
  5
42A
330
1F
100
AcDbEntity
  8
1
  6
Continuous
 62
     2
100
AcDbLine
 10
721.0
 20
744.7469929757272
 30
0.0
 11
775.787117377629
 21
744.7469929757272
 31
0.0
  0
LINE
  5
42B
330
1F
100
AcDbEntity
  8
1
  6
Continuous
 62
     2
100
AcDbLine
 10
619.8914096485453
 20
697.4717903764479
 30
0.0
 11
672.0
 21
697.4717903764479
 31
0.0
  0
LINE
  5
42C
330
1F
100
AcDbEntity
  8
1
  6
DASH_CENTER
 62
     2
100
AcDbLine
 10
318.7873649720041
 20
710.1967213897904
 30
0.0
 11
318.7873649720041
 21
446.6832504524392
 31
0.0
  0
LINE
  5
42D
330
1F
100
AcDbEntity
  8
1
  6
DASH_CENTER
 62
     2
100
AcDbLine
 10
420.2873649720038
 20
347.6362897557896
 30
0.0
 11
420.2873649720041
 21
511.8688268366213
 31
0.0
  0
LINE
  5
42E
330
1F
100
AcDbEntity
  8
1
  6
DASH_CENTER
 62
     2
100
AcDbLine
 10
798.7873649720042
 20
358.6362897557894
 30
0.0
 11
798.7873649720041
 21
695.8131828691228
 31
0.0
  0
LINE
  5
42F
330
1F
100
AcDbEntity
  8
1
  6
DASH_CENTER
 62
     2
100
AcDbLine
 10
308.1497964805546
 20
1253.925213290628
 30
0.0
 11
400.08916142163
 21
1161.985848349553
 31
0.0
  0
LINE
  5
430
330
1F
100
AcDbEntity
  8
1
  6
DASH_CENTER
 62
     2
100
AcDbLine
 10
329.3606771539054
 20
1253.927535544319
 30
0.0
 11
237.4569245109707
 21
1161.983526095862
 31
0.0
  0
ARC
  5
431
330
1F
100
AcDbEntity
  8
1
  6
DASH_CENTER
 62
     2
100
AcDbCircle
 10
560.9933834680395
 20
531.8661704006986
 30
0.0
 40
150.4999999999979
100
AcDbArc
 50
54.65849966865272
 51
83.99999999999558
  0
ARC
  5
432
330
1F
100
AcDbEntity
  8
0
  6
Continuous
 62
     2
100
AcDbCircle
 10
789.7873649720058
 20
644.636289755786
 30
0.0
 40
134.5000000000027
100
AcDbArc
 50
124.1059124431767
 51
144.5803587738509
  0
SOLID
  5
433
330
1F
100
AcDbEntity
  8
1
 62
     2
100
AcDbTrace
 10
403.1826171011953
 20
363.6925960798827
 30
0.0
 11
399.1921128428129
 21
365.9965147876621
 31
0.0
 12
409.9373649720043
 22
380.0
 32
0.0
 13
409.9373649720043
 23
380.0
 33
0.0
  0
LEADER
  5
434
330
1F
100
AcDbEntity
  8
1
  6
Continuous
 62
     2
100
AcDbLeader
  3
Standard
 71
     0
 76
     3
 10
409.9373649720043
 20
380.0
 30
0.0
 10
393.3359956483843
 20
351.2455848562747
 30
0.0
 10
324.013249240546
 20
351.2455848562747
 30
0.0
  0
SOLID
  5
435
330
1F
100
AcDbEntity
  8
1
 62
     2
100
AcDbTrace
 10
403.0551171011916
 20
420.8288858356723
 30
0.0
 11
399.0646128428092
 21
423.1328045434518
 31
0.0
 12
409.8098649720005
 22
437.1362897557896
 32
0.0
 13
409.8098649720005
 23
437.1362897557896
 33
0.0
  0
LEADER
  5
436
330
1F
100
AcDbEntity
  8
1
  6
Continuous
 62
     2
100
AcDbLeader
  3
Standard
 71
     0
 76
     3
 10
409.8098649720005
 20
437.1362897557896
 30
0.0
 10
393.2084956483805
 20
408.3818746120643
 30
0.0
 10
323.8857492405422
 20
408.3818746120643
 30
0.0
  0
SOLID
  5
437
330
1F
100
AcDbEntity
  8
0
 62
     2
100
AcDbTrace
 10
688.8474829141672
 20
737.96321415052
 30
0.0
 11
692.5317337790713
 21
735.1958216570927
 31
0.0
 12
680.1793918898817
 22
722.5871860741032
 32
0.0
 13
680.1793918898817
 23
722.5871860741032
 33
0.0
  0
LEADER
  5
438
330
1F
100
AcDbEntity
  8
0
  6
Continuous
 62
     2
100
AcDbLeader
  3
Standard
 71
     0
 76
     2
 10
680.1793918898817
 20
722.5871860741032
 30
0.0
 10
684.38613578262
 20
728.1876565032383
 30
0.0
  0
SOLID
  5
439
330
1F
100
AcDbEntity
  8
0
 62
     2
100
AcDbTrace
 10
701.4011817263366
 20
744.0289155277068
 30
0.0
 11
698.7440575196573
 21
747.793468170253
 31
0.0
 12
714.3699277315928
 22
756.0026229094331
 32
0.0
 13
714.3699277315928
 23
756.0026229094331
 33
0.0
  0
LEADER
  5
43A
330
1F
100
AcDbEntity
  8
0
  6
Continuous
 62
     2
100
AcDbLeader
  3
Standard
 71
     0
 76
     2
 10
714.3699277315928
 20
756.0026229094331
 30
0.0
 10
710.1141770889113
 20
752.9987977211603
 30
0.0
  0
SOLID
  5
43B
330
1F
100
AcDbEntity
  8
1
 62
     2
100
AcDbTrace
 10
740.0054087102474
 20
430.7295621421496
 30
0.0
 11
736.0149044518649
 21
433.033480849929
 31
0.0
 12
746.7601565810563
 22
447.0369660622669
 32
0.0
 13
746.7601565810563
 23
447.0369660622669
 33
0.0
  0
LEADER
  5
43C
330
1F
100
AcDbEntity
  8
1
  6
Continuous
 62
     2
100
AcDbLeader
  3
Standard
 71
     0
 76
     3
 10
746.7601565810563
 20
447.0369660622669
 30
0.0
 10
702.0323098088733
 20
369.56606293969
 30
0.0
 10
576.62543024365
 20
369.56606293969
 30
0.0
  0
MTEXT
  5
43E
330
1F
100
AcDbEntity
  8
1
 62
     7
100
AcDbMText
 10
359.4807912413941
 20
366.2455848562746
 30
0.0
 40
17.5
 41
0.0
 71
     5
 72
     1
  1
G1/2
  7
CONVERTER_12
 73
     1
 44
1.32052821128451
  0
MTEXT
  5
43F
330
1F
100
AcDbEntity
  8
1
 62
     7
100
AcDbMText
 10
170.0
 20
152.5000000000001
 30
0.0
 40
17.5
 41
0.0
 71
     4
 72
     1
  1
吐水口は回転式(120{\Fgdt;~})
  7
CONVERTER_11
 73
     1
 44
0.68181818181818
  0
MTEXT
  5
440
330
1F
100
AcDbEntity
  8
1
 62
     7
100
AcDbMText
 10
170.0
 20
187.5000000000001
 30
0.0
 40
17.5
 41
0.0
 71
     4
 72
     1
  1
JIS
  7
CONVERTER_12
 73
     1
 44
0.90036014405762
  0
MTEXT
  5
441
330
1F
100
AcDbEntity
  8
1
 62
     7
100
AcDbMText
 10
900.6248489402321
 20
400.4219403860531
 30
0.0
 40
17.5
 41
0.0
 71
     5
 72
     1
  1
ロックナット
  7
CONVERTER_11
 73
     1
 44
0.54545454545455
  0
MTEXT
  5
442
330
1F
100
AcDbEntity
  8
1
 62
     7
100
AcDbMText
 10
285.0
 20
71.25
 30
0.0
 40
17.5
 41
0.0
 71
     5
 72
     1
  1
K676BV-13
  7
CONVERTER_12
 73
     1
 44
0.7202881152461
  0
MTEXT
  5
443
330
1F
100
AcDbEntity
  8
1
 62
     7
100
AcDbMText
 10
285.0
 20
113.7500000000001
 30
0.0
 40
17.5
 41
0.0
 71
     5
 72
     1
  1
シングル台付分岐混合栓
  7
CONVERTER_11
 73
     1
 44
0.54545454545455
  0
MTEXT
  5
444
330
1F
100
AcDbEntity
  8
0
 62
     7
100
AcDbMText
 10
749.3881363347624
 20
762.2469929757272
 30
0.0
 40
25.0
 41
0.0
 71
     5
 72
     1
  1
吐水
  7
CONVERTER_11
 73
     1
 44
1.0
  0
MTEXT
  5
445
330
1F
100
AcDbEntity
  8
0
 62
     7
100
AcDbMText
 10
645.2197519908779
 20
714.971790376448
 30
0.0
 40
25.0
 41
0.0
 71
     5
 72
     1
  1
止水
  7
CONVERTER_11
 73
     1
 44
1.0
  0
MTEXT
  5
446
330
1F
100
AcDbEntity
  8
1
 62
     7
100
AcDbMText
 10
363.7873649720041
 20
1045.7
 30
0.0
 40
25.0
 41
0.0
 71
     5
 72
     1
  1
水側
  7
CONVERTER_11
 73
     1
 44
1.0
  0
MTEXT
  5
447
330
1F
100
AcDbEntity
  8
1
 62
     7
100
AcDbMText
 10
638.3288700262617
 20
354.56606293969
 30
0.0
 40
17.5
 41
0.0
 71
     5
 72
     1
  1
{\Fgdt;n}23～{\Fgdt;n}27
  7
CONVERTER_11
 73
     1
 44
0.54545454545455
  0
MTEXT
  5
448
330
1F
100
AcDbEntity
  8
1
 62
     7
100
AcDbMText
 10
638.3288700262617
 20
384.56606293969
 30
0.0
 40
17.5
 41
0.0
 71
     5
 72
     1
  1
取付穴径
  7
CONVERTER_11
 73
     1
 44
0.54545454545455
  0
MTEXT
  5
449
330
1F
100
AcDbEntity
  8
1
 62
     7
100
AcDbMText
 10
359.3532912413903
 20
423.3818746120642
 30
0.0
 40
17.5
 41
0.0
 71
     5
 72
     1
  1
PJ1/2
  7
CONVERTER_12
 73
     1
 44
1.32052821128451
  0
MTEXT
  5
44A
330
1F
100
AcDbEntity
  8
1
 62
     7
100
AcDbMText
 10
426.25
 20
85.0
 30
0.0
 40
17.5
 41
0.0
 71
     5
 72
     1
  1
1
  7
CONVERTER_12
 73
     1
 44
0.7202881152461
  0
MTEXT
  5
44B
330
1F
100
AcDbEntity
  8
1
 62
     7
100
AcDbMText
 10
468.75
 20
85.0
 30
0.0
 40
17.5
 41
0.0
 71
     5
 72
     1
  1
5
  7
CONVERTER_12
 73
     1
 44
0.7202881152461
  0
MTEXT
  5
44C
330
1F
100
AcDbEntity
  8
1
 62
     7
100
AcDbMText
 10
273.7873649720041
 20
1045.7
 30
0.0
 40
25.0
 41
0.0
 71
     5
 72
     1
  1
湯側
  7
CONVERTER_11
 73
     1
 44
1.0
  0
MTEXT
  5
44D
330
1F
100
AcDbEntity
  8
1
 62
     7
100
AcDbMText
 10
679.3796840460981
 20
752.473891137396
 30
0.0
 40
25.0
 41
0.0
 71
     5
 72
     1
  1
25{\Fgdt;~}
  7
CONVERTER_12
 73
     1
 44
0.7202881152461
  0
DIMENSION
  5
458
330
1F
100
AcDbEntity
  8
1
100
AcDbDimension
  2
*D27
 10
592.145023853222
 20
475.6362897557898
 30
0.0
 11
578.395023853222
 21
568.3408202891319
 31
0.0
 70
    32
  1
185
 71
     5
 42
-1.0
 53
90.0
  3
ME10_DIM_10
100
AcDbAlignedDimension
 13
542.1450238532219
 23
661.0453508224751
 33
0.0
 14
773.7449763759455
 24
475.6362897557896
 34
0.0
 50
90.0
100
AcDbRotatedDimension
  0
DIMENSION
  5
463
330
1F
100
AcDbEntity
  8
1
100
AcDbDimension
  2
*D28
 10
217.2873649720038
 20
312.6362897557896
 30
0.0
 11
318.787364972004
 21
326.3862897557896
 31
0.0
 70
    32
  1
<>
 71
     5
 42
-1.0
 53
0.00013888888889
  3
ME10_DIM_11
100
AcDbAlignedDimension
 13
420.2873649720038
 23
347.6362897557896
 33
0.0
 14
217.2873649720037
 24
347.6362897557896
 34
0.0
100
AcDbRotatedDimension
  0
DIMENSION
  5
470
330
1F
100
AcDbEntity
  8
1
100
AcDbDimension
  2
*D29
 10
798.7873649720041
 20
777.7009687285433
 30
0.0
 11
814.7240881897508
 21
791.4509687285433
 31
0.0
 70
    32
  1
32
 71
     5
 42
-1.0
 53
0.00013888888889
  3
ME10_DIM_12
100
AcDbAlignedDimension
 13
830.6608114074975
 23
640.2602245871735
 33
0.0
 14
798.7873649720041
 24
695.8131828691228
 34
0.0
100
AcDbRotatedDimension
  0
DIMENSION
  5
47B
330
1F
100
AcDbEntity
  8
1
100
AcDbDimension
  2
*D30
 10
541.8314384634195
 20
777.7009687285433
 30
0.0
 11
670.3094017177118
 21
791.4509687285433
 31
0.0
 70
    32
  1
257
 71
     5
 42
-1.0
 53
0.00013888888889
  3
ME10_DIM_13
100
AcDbAlignedDimension
 13
798.7873649720041
 23
695.8131828691228
 33
0.0
 14
541.8314384634194
 24
658.0617851363702
 34
0.0
100
AcDbRotatedDimension
  0
DIMENSION
  5
486
330
1F
100
AcDbEntity
  8
1
100
AcDbDimension
  2
*D31
 10
773.7449763759456
 20
311.6362897557894
 30
0.0
 11
798.7873649720041
 21
325.3862897557894
 31
0.0
 70
    32
  1
50
 71
     5
 42
-1.0
 53
0.00013888888889
  3
ME10_DIM_14
100
AcDbAlignedDimension
 13
823.8297535680609
 23
475.6362897557896
 33
0.0
 14
773.7449763759455
 24
475.6362897557896
 34
0.0
100
AcDbRotatedDimension
  0
DIMENSION
  5
491
330
1F
100
AcDbEntity
  8
1
100
AcDbDimension
  2
*D32
 10
154.2873649720033
 20
475.6362897557893
 30
0.0
 11
140.5373649720033
 21
422.6362897557896
 31
0.0
 70
    32
  1
<>
 71
     5
 42
-1.0
 53
90.0
  3
ME10_DIM_15
100
AcDbAlignedDimension
 13
204.0373649720032
 23
369.6362897557896
 33
0.0
 14
195.7873649720041
 24
475.6362897557892
 34
0.0
 50
90.0
100
AcDbRotatedDimension
  0
DIMENSION
  5
49E
330
1F
100
AcDbEntity
  8
0
100
AcDbDimension
  2
*D33
 10
838.1715389298806
 20
360.6362897557899
 30
0.0
 11
900.7157286642621
 21
374.3862897557899
 31
0.0
 70
    33
  1
対辺24
 71
     5
 42
-1.0
 52
120.0
 53
0.00013888888889
  3
ME10_DIM_16
100
AcDbAlignedDimension
 13
810.787364972004
 23
449.6362897557894
 33
0.0
 14
786.7873649720041
 24
449.6362897557894
 34
0.0
  0
DIMENSION
  5
4AB
330
1F
100
AcDbEntity
  8
1
100
AcDbDimension
  2
*D34
 10
491.7873649720073
 20
474.6362897557896
 30
0.0
 11
478.0373649720073
 21
377.403209623867
 31
0.0
 70
    32
  1
最大37最小5
 71
     5
 42
-1.0
 53
90.0
  3
ME10_DIM_17
100
AcDbAlignedDimension
 13
453.2031783815479
 23
459.6362897557887
 33
0.0
 14
453.2031783815479
 24
474.6362897557897
 34
0.0
 50
90.0
100
AcDbRotatedDimension
  0
DIMENSION
  5
4B6
330
1F
100
AcDbEntity
  8
1
100
AcDbDimension
  2
*D35
 10
195.7873649720041
 20
272.6362897557896
 30
0.0
 11
318.7873649720041
 21
286.3862897557896
 31
0.0
 70
    32
  1
<>
 71
     5
 42
-1.0
 53
0.00013888888889
  3
ME10_DIM_18
100
AcDbAlignedDimension
 13
441.787364972004
 23
475.6362897557892
 33
0.0
 14
195.7873649720041
 24
475.6362897557892
 34
0.0
100
AcDbRotatedDimension
  0
DIMENSION
  5
4C1
330
1F
100
AcDbEntity
  8
1
100
AcDbDimension
  2
*D36
 10
880.6527542310141
 20
693.1362897557899
 30
0.0
 11
866.9027542310141
 21
574.170309038907
 31
0.0
 70
    32
  1
最小218
 71
     5
 42
-1.0
 53
90.0
  3
ME10_DIM_19
100
AcDbAlignedDimension
 13
823.8297535680609
 23
475.6362897557896
 33
0.0
 14
703.7873649720017
 24
693.1362897557897
 34
0.0
 50
90.0
100
AcDbRotatedDimension
  0
DIMENSION
  5
4CC
330
1F
100
AcDbEntity
  8
1
100
AcDbDimension
  2
*D37
 10
920.6527542310141
 20
727.7009687285433
 30
0.0
 11
906.9027542310141
 21
611.017286662152
 31
0.0
 70
    32
  1
最大252
 71
     5
 42
-1.0
 53
90.0
  3
ME10_DIM_20
100
AcDbAlignedDimension
 13
823.8297535680609
 23
475.6362897557896
 33
0.0
 14
737.8761736032691
 24
727.7009687285431
 34
0.0
 50
90.0
100
AcDbRotatedDimension
  0
DIMENSION
  5
4D7
330
1F
100
AcDbEntity
  8
1
100
AcDbDimension
  2
*D38
 10
242.7891255278806
 20
922.1710001688871
 30
0.0
 11
280.7882452499424
 21
935.9210001688871
 31
0.0
 70
    32
  1
<>
 71
     5
 42
-1.0
 53
0.00013888888889
  3
ME10_DIM_21
100
AcDbAlignedDimension
 13
318.7873649720041
 23
954.6832504524392
 33
0.0
 14
242.7891255278805
 24
1185.320372128709
 34
0.0
100
AcDbRotatedDimension
  0
DIMENSION
  5
4E2
330
1F
100
AcDbEntity
  8
1
100
AcDbDimension
  2
*D39
 10
318.7873649720041
 20
922.1710001688871
 30
0.0
 11
356.7709751921234
 21
935.9210001688871
 31
0.0
 70
    32
  1
76
 71
     5
 42
-1.0
 53
0.00013888888889
  3
ME10_DIM_22
100
AcDbAlignedDimension
 13
394.7545854122426
 23
1185.363734388868
 33
0.0
 14
318.7873649720041
 24
954.6832504524391
 34
0.0
100
AcDbRotatedDimension
  0
DIMENSION
  5
4ED
330
1F
100
AcDbEntity
  8
1
100
AcDbDimension
  2
*D40
 10
265.2103636278342
 20
1113.963203661985
 30
0.0
 11
270.4864297012103
 21
1126.660681414245
 31
0.0
 70
    37
  1
45
 71
     5
 42
-1.0
  3
ME10_DIM_23
100
AcDb3PointAngularDimension
 13
237.4569245109707
 23
1161.983526095862
 33
0.0
 14
318.7873649720041
 24
1103.309124412639
 34
0.0
 15
318.7873649720042
 25
1243.349591910927
 35
0.0
  0
DIMENSION
  5
4F8
330
1F
100
AcDbEntity
  8
1
100
AcDbDimension
  2
*D41
 10
372.3475608771342
 20
1113.981893441654
 30
0.0
 11
367.1012202283239
 21
1126.691681961964
 31
0.0
 70
    37
  1
<>
 71
     5
 42
-1.0
  3
ME10_DIM_24
100
AcDb3PointAngularDimension
 13
318.7873649720041
 23
1143.303134845319
 33
0.0
 14
400.08916142163
 24
1161.985848349553
 34
0.0
 15
318.7873649720041
 25
1243.287644799178
 35
0.0
  0
HATCH
  5
4F9
330
1F
100
AcDbEntity
  8
1
  6
Continuous
 62
     2
100
AcDbHatch
 10
0.0
 20
0.0
 30
0.0
210
0.0
220
0.0
230
1.0
  2
CUSTOM3
 70
     0
 71
     1
 91
        1
 92
        1
 93
        4
 72
     1
 10
187.5781609685168
 20
474.6362897557897
 11
187.5781609685168
 21
459.6362897557891
 72
     1
 10
187.5781609685168
 20
459.6362897557891
 11
206.8098649720041
 21
459.6362897557893
 72
     1
 10
206.8098649720041
 20
459.6362897557893
 11
206.8098649720041
 21
474.6362897557897
 72
     1
 10
206.8098649720041
 20
474.6362897557897
 11
187.5781609685168
 21
474.6362897557897
 97
        4
330
411
330
41E
330
40F
330
41F
 75
     1
 76
     2
 52
45.0
 41
5.0
 77
     0
 78
     2
 53
45.0
 43
0.0
 44
0.0
 45
-21.21320343559643
 46
0.0000000000000022
 79
     0
 53
45.0
 43
3.535533905932738
 44
-3.535533905932737
 45
-21.21320343559643
 46
0.0000000000000022
 79
     0
 98
        1
 10
0.0
 20
0.0
  0
HATCH
  5
4FA
330
1F
100
AcDbEntity
  8
1
  6
Continuous
 62
     2
100
AcDbHatch
 10
0.0
 20
0.0
 30
0.0
210
0.0
220
0.0
230
1.0
  2
CUSTOM4
 70
     0
 71
     1
 91
        1
 92
        1
 93
        4
 72
     1
 10
227.7648649720041
 20
474.6362897557897
 11
227.7648649720041
 21
459.6362897557896
 72
     1
 10
227.7648649720041
 20
459.6362897557896
 11
409.8098649720033
 21
459.6362897557896
 72
     1
 10
409.8098649720033
 20
459.6362897557896
 11
409.8098649720033
 21
474.6362897557896
 72
     1
 10
409.8098649720033
 20
474.6362897557896
 11
227.7648649720041
 21
474.6362897557897
 97
        4
330
413
330
41D
330
412
330
410
 75
     1
 76
     2
 52
45.0
 41
5.0
 77
     0
 78
     2
 53
45.0
 43
0.0
 44
0.0
 45
-21.21320343559643
 46
0.0000000000000022
 79
     0
 53
45.0
 43
3.535533905932738
 44
-3.535533905932737
 45
-21.21320343559643
 46
0.0000000000000022
 79
     0
 98
        1
 10
0.0
 20
0.0
  0
HATCH
  5
4FB
330
1F
100
AcDbEntity
  8
1
  6
Continuous
 62
     2
100
AcDbHatch
 10
0.0
 20
0.0
 30
0.0
210
0.0
220
0.0
230
1.0
  2
CUSTOM5
 70
     0
 71
     1
 91
        1
 92
        1
 93
        4
 72
     1
 10
453.2031783815479
 20
474.6362897557897
 11
453.2031783815479
 21
459.6362897557887
 72
     1
 10
453.2031783815479
 20
459.6362897557887
 11
430.7648649720042
 21
459.6362897557896
 72
     1
 10
430.7648649720042
 20
459.6362897557896
 11
430.7648649720042
 21
474.6362897557897
 72
     1
 10
430.7648649720042
 20
474.6362897557897
 11
453.2031783815479
 21
474.6362897557897
 97
        4
330
40E
330
41C
330
414
330
41B
 75
     1
 76
     2
 52
45.0
 41
5.0
 77
     0
 78
     2
 53
45.0
 43
0.0
 44
0.0
 45
-21.21320343559643
 46
0.0000000000000022
 79
     0
 53
45.0
 43
3.535533905932738
 44
-3.535533905932737
 45
-21.21320343559643
 46
0.0000000000000022
 79
     0
 98
        1
 10
0.0
 20
0.0
  0
HATCH
  5
4FC
330
1F
100
AcDbEntity
  8
1
  6
Continuous
 62
     2
100
AcDbHatch
 10
0.0
 20
0.0
 30
0.0
210
0.0
220
0.0
230
1.0
  2
CUSTOM6
 70
     0
 71
     1
 91
        1
 92
        1
 93
        4
 72
     1
 10
764.5278642749471
 20
474.6362897557897
 11
764.5278642749471
 21
459.6362897557887
 72
     1
 10
764.5278642749471
 20
459.6362897557887
 11
788.3098649720034
 21
459.6362897557896
 72
     1
 10
788.3098649720034
 20
459.6362897557896
 11
788.3098649720034
 21
474.6362897557897
 72
     1
 10
788.3098649720034
 20
474.6362897557897
 11
764.5278642749471
 21
474.6362897557897
 97
        4
330
417
330
41A
330
418
330
420
 75
     1
 76
     2
 52
45.0
 41
5.0
 77
     0
 78
     2
 53
45.0
 43
0.0
 44
0.0
 45
-21.21320343559643
 46
0.0000000000000022
 79
     0
 53
45.0
 43
3.535533905932738
 44
-3.535533905932737
 45
-21.21320343559643
 46
0.0000000000000022
 79
     0
 98
        1
 10
0.0
 20
0.0
  0
HATCH
  5
4FD
330
1F
100
AcDbEntity
  8
1
  6
Continuous
 62
     2
100
AcDbHatch
 10
0.0
 20
0.0
 30
0.0
210
0.0
220
0.0
230
1.0
  2
CUSTOM7
 70
     0
 71
     1
 91
        1
 92
        1
 93
        4
 72
     1
 10
809.2648649720043
 20
474.6362897557897
 11
809.2648649720043
 21
459.6362897557896
 72
     1
 10
809.2648649720043
 20
459.6362897557896
 11
833.852915130815
 21
459.6362897557887
 72
     1
 10
833.852915130815
 20
459.6362897557887
 11
833.852915130815
 21
474.6362897557897
 72
     1
 10
833.852915130815
 20
474.6362897557897
 11
809.2648649720043
 21
474.6362897557897
 97
        4
330
415
330
422
330
416
330
421
 75
     1
 76
     2
 52
45.0
 41
5.0
 77
     0
 78
     2
 53
45.0
 43
0.0
 44
0.0
 45
-21.21320343559643
 46
0.0000000000000022
 79
     0
 53
45.0
 43
3.535533905932738
 44
-3.535533905932737
 45
-21.21320343559643
 46
0.0000000000000022
 79
     0
 98
        1
 10
0.0
 20
0.0
  0
ENDSEC
  0
SECTION
  2
OBJECTS
  0
DICTIONARY
  5
C
330
0
100
AcDbDictionary
281
     1
  3
ACAD_GROUP
350
D
  3
ACAD_LAYOUT
350
1A
  3
ACAD_MATERIAL
350
3B
  3
ACAD_MLEADERSTYLE
350
500
  3
ACAD_MLINESTYLE
350
17
  3
ACAD_PLOTSETTINGS
350
19
  3
ACAD_PLOTSTYLENAME
350
E
  3
ACAD_VISUALSTYLE
350
2A
  3
AcDbVariableDictionary
350
4FE
  0
DICTIONARY
  5
D
102
{ACAD_REACTORS
330
C
102
}
330
C
100
AcDbDictionary
281
     1
  0
DICTIONARY
  5
1A
102
{ACAD_REACTORS
330
C
102
}
330
C
100
AcDbDictionary
281
     1
  3
Layout1
350
1E
  3
Layout2
350
26
  3
Model
350
22
  0
DICTIONARY
  5
3B
102
{ACAD_REACTORS
330
C
102
}
330
C
100
AcDbDictionary
281
     1
  3
ByBlock
350
3D
  3
ByLayer
350
3C
  3
Global
350
3E
  0
DICTIONARY
  5
500
102
{ACAD_REACTORS
330
C
102
}
330
C
100
AcDbDictionary
281
     1
  0
DICTIONARY
  5
17
102
{ACAD_REACTORS
330
C
102
}
330
C
100
AcDbDictionary
281
     1
  3
Standard
350
18
  0
DICTIONARY
  5
19
102
{ACAD_REACTORS
330
C
102
}
330
C
100
AcDbDictionary
281
     1
  0
ACDBDICTIONARYWDFLT
  5
E
102
{ACAD_REACTORS
330
C
102
}
330
C
100
AcDbDictionary
281
     1
  3
Normal
350
F
100
AcDbDictionaryWithDefault
340
F
  0
DICTIONARY
  5
2A
102
{ACAD_REACTORS
330
C
102
}
330
C
100
AcDbDictionary
281
     1
  3
2dWireframe
350
2F
  3
3D Hidden
350
31
  3
3dWireframe
350
30
  3
Basic
350
32
  3
Brighten
350
36
  3
ColorChange
350
3A
  3
Conceptual
350
34
  3
Dim
350
35
  3
Facepattern
350
39
  3
Flat
350
2B
  3
FlatWithEdges
350
2C
  3
Gouraud
350
2D
  3
GouraudWithEdges
350
2E
  3
Linepattern
350
38
  3
Realistic
350
33
  3
Thicken
350
37
  0
DICTIONARY
  5
4FE
102
{ACAD_REACTORS
330
C
102
}
330
C
100
AcDbDictionary
281
     1
  3
DIMASSOC
350
501
  3
HIDETEXT
350
502
  0
LAYOUT
  5
1E
102
{ACAD_REACTORS
330
1A
102
}
330
1A
100
AcDbPlotSettings
  1

  2
none_device
  4

  6

 40
0.0
 41
0.0
 42
0.0
 43
0.0
 44
0.0
 45
0.0
 46
0.0
 47
0.0
 48
0.0
 49
0.0
140
0.0
141
0.0
142
1.0
143
1.0
 70
   688
 72
     0
 73
     0
 74
     5
  7

 75
    16
147
1.0
148
0.0
149
0.0
100
AcDbLayout
  1
Layout1
 70
     1
 71
     1
 10
0.0
 20
0.0
 11
12.0
 21
9.0
 12
0.0
 22
0.0
 32
0.0
 14
1.00000000000000E+20
 24
1.00000000000000E+20
 34
1.00000000000000E+20
 15
-1.00000000000000E+20
 25
-1.00000000000000E+20
 35
-1.00000000000000E+20
146
0.0
 13
0.0
 23
0.0
 33
0.0
 16
1.0
 26
0.0
 36
0.0
 17
0.0
 27
1.0
 37
0.0
 76
     0
330
1B
  0
LAYOUT
  5
26
102
{ACAD_REACTORS
330
1A
102
}
330
1A
100
AcDbPlotSettings
  1

  2
none_device
  4

  6

 40
0.0
 41
0.0
 42
0.0
 43
0.0
 44
0.0
 45
0.0
 46
0.0
 47
0.0
 48
0.0
 49
0.0
140
0.0
141
0.0
142
1.0
143
1.0
 70
   688
 72
     0
 73
     0
 74
     5
  7

 75
    16
147
1.0
148
0.0
149
0.0
100
AcDbLayout
  1
Layout2
 70
     1
 71
     2
 10
0.0
 20
0.0
 11
0.0
 21
0.0
 12
0.0
 22
0.0
 32
0.0
 14
0.0
 24
0.0
 34
0.0
 15
0.0
 25
0.0
 35
0.0
146
0.0
 13
0.0
 23
0.0
 33
0.0
 16
1.0
 26
0.0
 36
0.0
 17
0.0
 27
1.0
 37
0.0
 76
     0
330
23
  0
LAYOUT
  5
22
102
{ACAD_REACTORS
330
1A
102
}
330
1A
100
AcDbPlotSettings
  1

  2
none_device
  4

  6

 40
0.0
 41
0.0
 42
0.0
 43
0.0
 44
0.0
 45
0.0
 46
0.0
 47
0.0
 48
0.0
 49
0.0
140
0.0
141
0.0
142
1.0
143
1.0
 70
  1712
 72
     0
 73
     0
 74
     0
  7

 75
     0
147
1.0
148
0.0
149
0.0
100
AcDbLayout
  1
Model
 70
     1
 71
     0
 10
0.0
 20
0.0
 11
12.0
 21
9.0
 12
0.0
 22
0.0
 32
0.0
 14
0.0
 24
0.0
 34
0.0
 15
1050.0
 25
1485.0
 35
0.0
146
0.0
 13
0.0
 23
0.0
 33
0.0
 16
1.0
 26
0.0
 36
0.0
 17
0.0
 27
1.0
 37
0.0
 76
     0
330
1F
331
29
  0
MATERIAL
  5
3D
102
{ACAD_REACTORS
330
3B
102
}
102
{ACAD_XDICTIONARY
360
525
102
}
330
3B
100
AcDbMaterial
  1
ByBlock
  0
MATERIAL
  5
3C
102
{ACAD_REACTORS
330
3B
102
}
102
{ACAD_XDICTIONARY
360
523
102
}
330
3B
100
AcDbMaterial
  1
ByLayer
  0
MATERIAL
  5
3E
102
{ACAD_REACTORS
330
3B
102
}
102
{ACAD_XDICTIONARY
360
527
102
}
330
3B
100
AcDbMaterial
  1
Global
  0
MLINESTYLE
  5
18
102
{ACAD_REACTORS
330
17
102
}
330
17
100
AcDbMlineStyle
  2
Standard
 70
     0
  3

 62
   256
 51
90.0
 52
90.0
 71
     2
 49
0.5
 62
   256
  6
BYLAYER
 49
-0.5
 62
   256
  6
BYLAYER
  0
ACDBPLACEHOLDER
  5
F
102
{ACAD_REACTORS
330
E
102
}
330
E
  0
VISUALSTYLE
  5
2F
102
{ACAD_REACTORS
330
2A
102
}
102
{ACAD_XDICTIONARY
360
50B
102
}
330
2A
100
AcDbVisualStyle
  2
2dWireframe
 70
     4
 71
     0
 72
     2
 73
     0
 90
        0
 40
-0.6
 41
-30.0
 62
     5
 63
     7
 74
     1
 91
        4
 64
     7
 65
   257
 75
     1
175
     1
 42
1.0
 92
        0
 66
   257
 43
1.0
 76
     1
 77
     6
 78
     2
 67
     7
 79
     5
170
     0
171
     0
290
     0
174
     0
 93
        1
 44
0.0
173
     0
291
     0
 45
0.0
1001
ACAD
1000
AcDbSavedByObjectVersion
1070
     0
  0
VISUALSTYLE
  5
31
102
{ACAD_REACTORS
330
2A
102
}
102
{ACAD_XDICTIONARY
360
50F
102
}
330
2A
100
AcDbVisualStyle
  2
3D Hidden
 70
     6
 71
     1
 72
     2
 73
     2
 90
        0
 40
-0.6
 41
-30.0
 62
     5
 63
     7
 74
     2
 91
        2
 64
     7
 65
   257
 75
     2
175
     1
 42
40.0
 92
        0
 66
   257
 43
1.0
 76
     1
 77
     6
 78
     2
 67
     7
 79
     3
170
     0
171
     0
290
     0
174
     0
 93
        1
 44
0.0
173
     0
291
     0
 45
0.0
1001
ACAD
1000
AcDbSavedByObjectVersion
1070
     0
  0
VISUALSTYLE
  5
30
102
{ACAD_REACTORS
330
2A
102
}
102
{ACAD_XDICTIONARY
360
50D
102
}
330
2A
100
AcDbVisualStyle
  2
3dWireframe
 70
     5
 71
     0
 72
     2
 73
     0
 90
        0
 40
-0.6
 41
-30.0
 62
     5
 63
     7
 74
     1
 91
        4
 64
     7
 65
   257
 75
     1
175
     1
 42
1.0
 92
        0
 66
   257
 43
1.0
 76
     1
 77
     6
 78
     2
 67
     7
 79
     5
170
     0
171
     0
290
     0
174
     0
 93
        1
 44
0.0
173
     0
291
     0
 45
0.0
1001
ACAD
1000
AcDbSavedByObjectVersion
1070
     0
  0
VISUALSTYLE
  5
32
102
{ACAD_REACTORS
330
2A
102
}
102
{ACAD_XDICTIONARY
360
511
102
}
330
2A
100
AcDbVisualStyle
  2
Basic
 70
     7
 71
     1
 72
     0
 73
     1
 90
        0
 40
-0.6
 41
-30.0
 62
     5
 63
     7
 74
     0
 91
        4
 64
     7
 65
   257
 75
     1
175
     1
 42
1.0
 92
        8
 66
     7
 43
1.0
 76
     1
 77
     6
 78
     2
 67
     7
 79
     5
170
     0
171
     0
290
     0
174
     0
 93
        1
 44
0.0
173
     0
291
     1
 45
0.0
1001
ACAD
1000
AcDbSavedByObjectVersion
1070
     0
  0
VISUALSTYLE
  5
36
102
{ACAD_REACTORS
330
2A
102
}
102
{ACAD_XDICTIONARY
360
519
102
}
330
2A
100
AcDbVisualStyle
  2
Brighten
 70
    12
 71
     2
 72
     2
 73
     0
 90
        0
 40
-0.6
 41
-30.0
 62
     5
 63
     7
 74
     1
 91
        4
 64
     7
 65
   257
 75
     1
175
     1
 42
1.0
 92
        8
 66
     7
 43
1.0
 76
     1
 77
     6
 78
     2
 67
     7
 79
     5
170
     0
171
     0
290
     0
174
     0
 93
        1
 44
50.0
173
     0
291
     1
 45
0.0
1001
ACAD
1000
AcDbSavedByObjectVersion
1070
     0
  0
VISUALSTYLE
  5
3A
102
{ACAD_REACTORS
330
2A
102
}
102
{ACAD_XDICTIONARY
360
521
102
}
330
2A
100
AcDbVisualStyle
  2
ColorChange
 70
    16
 71
     2
 72
     2
 73
     3
 90
        0
 40
-0.6
 41
-30.0
 62
     5
 63
     8
 74
     1
 91
        4
 64
     7
 65
   257
 75
     1
175
     1
 42
1.0
 92
        8
 66
     8
 43
1.0
 76
     1
 77
     6
 78
     2
 67
     7
 79
     5
170
     0
171
     0
290
     0
174
     0
 93
        1
 44
0.0
173
     0
291
     1
 45
0.0
1001
ACAD
1000
AcDbSavedByObjectVersion
1070
     0
  0
VISUALSTYLE
  5
34
102
{ACAD_REACTORS
330
2A
102
}
102
{ACAD_XDICTIONARY
360
515
102
}
330
2A
100
AcDbVisualStyle
  2
Conceptual
 70
     9
 71
     3
 72
     2
 73
     0
 90
        0
 40
-0.6
 41
-30.0
 62
     5
 63
     7
 74
     2
 91
        2
 64
     7
 65
   257
 75
     1
175
     1
 42
40.0
 92
        8
 66
     7
 43
1.0
 76
     1
 77
     6
 78
     2
 67
     7
 79
     3
170
     0
171
     0
290
     0
174
     0
 93
        1
 44
0.0
173
     0
291
     0
 45
0.0
1001
ACAD
1000
AcDbSavedByObjectVersion
1070
     0
  0
VISUALSTYLE
  5
35
102
{ACAD_REACTORS
330
2A
102
}
102
{ACAD_XDICTIONARY
360
517
102
}
330
2A
100
AcDbVisualStyle
  2
Dim
 70
    11
 71
     2
 72
     2
 73
     0
 90
        0
 40
-0.6
 41
-30.0
 62
     5
 63
     7
 74
     1
 91
        4
 64
     7
 65
   257
 75
     1
175
     1
 42
1.0
 92
        8
 66
     7
 43
1.0
 76
     1
 77
     6
 78
     2
 67
     7
 79
     5
170
     0
171
     0
290
     0
174
     0
 93
        1
 44
-50.0
173
     0
291
     1
 45
0.0
1001
ACAD
1000
AcDbSavedByObjectVersion
1070
     0
  0
VISUALSTYLE
  5
39
102
{ACAD_REACTORS
330
2A
102
}
102
{ACAD_XDICTIONARY
360
51F
102
}
330
2A
100
AcDbVisualStyle
  2
Facepattern
 70
    15
 71
     2
 72
     2
 73
     0
 90
        0
 40
-0.6
 41
-30.0
 62
     5
 63
     7
 74
     1
 91
        4
 64
     7
 65
   257
 75
     1
175
     1
 42
1.0
 92
        8
 66
     7
 43
1.0
 76
     1
 77
     6
 78
     2
 67
     7
 79
     5
170
     0
171
     0
290
     0
174
     0
 93
        1
 44
0.0
173
     0
291
     1
 45
0.0
1001
ACAD
1000
AcDbSavedByObjectVersion
1070
     0
  0
VISUALSTYLE
  5
2B
102
{ACAD_REACTORS
330
2A
102
}
102
{ACAD_XDICTIONARY
360
503
102
}
330
2A
100
AcDbVisualStyle
  2
Flat
 70
     0
 71
     2
 72
     1
 73
     1
 90
        2
 40
-0.6
 41
30.0
 62
     5
 63
     7
 74
     0
 91
        4
 64
     7
 65
   257
 75
     1
175
     1
 42
1.0
 92
        8
 66
     7
 43
1.0
 76
     1
 77
     6
 78
     2
 67
     7
 79
     5
170
     0
171
     0
290
     0
174
     0
 93
       13
 44
0.0
173
     0
291
     1
 45
0.0
1001
ACAD
1000
AcDbSavedByObjectVersion
1070
     0
  0
VISUALSTYLE
  5
2C
102
{ACAD_REACTORS
330
2A
102
}
102
{ACAD_XDICTIONARY
360
505
102
}
330
2A
100
AcDbVisualStyle
  2
FlatWithEdges
 70
     1
 71
     2
 72
     1
 73
     1
 90
        2
 40
-0.6
 41
30.0
 62
     5
 63
     7
 74
     1
 91
        4
 64
     7
 65
   257
 75
     1
175
     1
 42
1.0
 92
        0
 66
   257
 43
1.0
 76
     1
 77
     6
 78
     2
 67
     7
 79
     5
170
     0
171
     0
290
     0
174
     0
 93
       13
 44
0.0
173
     0
291
     1
 45
0.0
1001
ACAD
1000
AcDbSavedByObjectVersion
1070
     0
  0
VISUALSTYLE
  5
2D
102
{ACAD_REACTORS
330
2A
102
}
102
{ACAD_XDICTIONARY
360
507
102
}
330
2A
100
AcDbVisualStyle
  2
Gouraud
 70
     2
 71
     2
 72
     2
 73
     1
 90
        2
 40
-0.6
 41
30.0
 62
     5
 63
     7
 74
     0
 91
        4
 64
     7
 65
   257
 75
     1
175
     1
 42
1.0
 92
        0
 66
     7
 43
1.0
 76
     1
 77
     6
 78
     2
 67
     7
 79
     5
170
     0
171
     0
290
     0
174
     0
 93
       13
 44
0.0
173
     0
291
     1
 45
0.0
1001
ACAD
1000
AcDbSavedByObjectVersion
1070
     0
  0
VISUALSTYLE
  5
2E
102
{ACAD_REACTORS
330
2A
102
}
102
{ACAD_XDICTIONARY
360
509
102
}
330
2A
100
AcDbVisualStyle
  2
GouraudWithEdges
 70
     3
 71
     2
 72
     2
 73
     1
 90
        2
 40
-0.6
 41
30.0
 62
     5
 63
     7
 74
     1
 91
        4
 64
     7
 65
   257
 75
     1
175
     1
 42
1.0
 92
        0
 66
   257
 43
1.0
 76
     1
 77
     6
 78
     2
 67
     7
 79
     5
170
     0
171
     0
290
     0
174
     0
 93
       13
 44
0.0
173
     0
291
     1
 45
0.0
1001
ACAD
1000
AcDbSavedByObjectVersion
1070
     0
  0
VISUALSTYLE
  5
38
102
{ACAD_REACTORS
330
2A
102
}
102
{ACAD_XDICTIONARY
360
51D
102
}
330
2A
100
AcDbVisualStyle
  2
Linepattern
 70
    14
 71
     2
 72
     2
 73
     0
 90
        0
 40
-0.6
 41
-30.0
 62
     5
 63
     7
 74
     1
 91
        4
 64
     7
 65
   257
 75
     7
175
     7
 42
1.0
 92
        8
 66
     7
 43
1.0
 76
     1
 77
     6
 78
     2
 67
     7
 79
     5
170
     0
171
     0
290
     0
174
     0
 93
        1
 44
0.0
173
     0
291
     1
 45
0.0
1001
ACAD
1000
AcDbSavedByObjectVersion
1070
     0
  0
VISUALSTYLE
  5
33
102
{ACAD_REACTORS
330
2A
102
}
102
{ACAD_XDICTIONARY
360
513
102
}
330
2A
100
AcDbVisualStyle
  2
Realistic
 70
     8
 71
     2
 72
     2
 73
     0
 90
        0
 40
-0.6
 41
-30.0
 62
     5
 63
     7
 74
     1
 91
        0
 64
     7
 65
   257
 75
     1
175
     1
 42
1.0
 92
        8
 66
     8
 43
1.0
 76
     1
 77
     6
 78
     2
 67
     7
 79
     5
170
     0
171
     0
290
     0
174
     0
 93
       13
 44
0.0
173
     0
291
     0
 45
0.0
1001
ACAD
1000
AcDbSavedByObjectVersion
1070
     0
  0
VISUALSTYLE
  5
37
102
{ACAD_REACTORS
330
2A
102
}
102
{ACAD_XDICTIONARY
360
51B
102
}
330
2A
100
AcDbVisualStyle
  2
Thicken
 70
    13
 71
     2
 72
     2
 73
     0
 90
        0
 40
-0.6
 41
-30.0
 62
     5
 63
     7
 74
     1
 91
        4
 64
     7
 65
   257
 75
     1
175
     1
 42
1.0
 92
       12
 66
     7
 43
1.0
 76
     1
 77
     6
 78
     2
 67
     7
 79
     5
170
     0
171
     0
290
     0
174
     0
 93
        1
 44
0.0
173
     0
291
     1
 45
0.0
1001
ACAD
1000
AcDbSavedByObjectVersion
1070
     0
  0
DICTIONARYVAR
  5
501
102
{ACAD_REACTORS
330
4FE
102
}
330
4FE
100
DictionaryVariables
280
     0
  1
2
  0
DICTIONARYVAR
  5
502
102
{ACAD_REACTORS
330
4FE
102
}
330
4FE
100
DictionaryVariables
280
     0
  1
1
  0
DICTIONARY
  5
525
330
3D
100
AcDbDictionary
280
     1
281
     1
  3
ACAD_XREC_ROUNDTRIP
360
526
  0
DICTIONARY
  5
523
330
3C
100
AcDbDictionary
280
     1
281
     1
  3
ACAD_XREC_ROUNDTRIP
360
524
  0
DICTIONARY
  5
527
330
3E
100
AcDbDictionary
280
     1
281
     1
  3
ACAD_XREC_ROUNDTRIP
360
528
  0
DICTIONARY
  5
50B
330
2F
100
AcDbDictionary
280
     1
281
     1
  3
ACAD_XREC_ROUNDTRIP
360
50C
  0
DICTIONARY
  5
50F
330
31
100
AcDbDictionary
280
     1
281
     1
  3
ACAD_XREC_ROUNDTRIP
360
510
  0
DICTIONARY
  5
50D
330
30
100
AcDbDictionary
280
     1
281
     1
  3
ACAD_XREC_ROUNDTRIP
360
50E
  0
DICTIONARY
  5
511
330
32
100
AcDbDictionary
280
     1
281
     1
  3
ACAD_XREC_ROUNDTRIP
360
512
  0
DICTIONARY
  5
519
330
36
100
AcDbDictionary
280
     1
281
     1
  3
ACAD_XREC_ROUNDTRIP
360
51A
  0
DICTIONARY
  5
521
330
3A
100
AcDbDictionary
280
     1
281
     1
  3
ACAD_XREC_ROUNDTRIP
360
522
  0
DICTIONARY
  5
515
330
34
100
AcDbDictionary
280
     1
281
     1
  3
ACAD_XREC_ROUNDTRIP
360
516
  0
DICTIONARY
  5
517
330
35
100
AcDbDictionary
280
     1
281
     1
  3
ACAD_XREC_ROUNDTRIP
360
518
  0
DICTIONARY
  5
51F
330
39
100
AcDbDictionary
280
     1
281
     1
  3
ACAD_XREC_ROUNDTRIP
360
520
  0
DICTIONARY
  5
503
330
2B
100
AcDbDictionary
280
     1
281
     1
  3
ACAD_XREC_ROUNDTRIP
360
504
  0
DICTIONARY
  5
505
330
2C
100
AcDbDictionary
280
     1
281
     1
  3
ACAD_XREC_ROUNDTRIP
360
506
  0
DICTIONARY
  5
507
330
2D
100
AcDbDictionary
280
     1
281
     1
  3
ACAD_XREC_ROUNDTRIP
360
508
  0
DICTIONARY
  5
509
330
2E
100
AcDbDictionary
280
     1
281
     1
  3
ACAD_XREC_ROUNDTRIP
360
50A
  0
DICTIONARY
  5
51D
330
38
100
AcDbDictionary
280
     1
281
     1
  3
ACAD_XREC_ROUNDTRIP
360
51E
  0
DICTIONARY
  5
513
330
33
100
AcDbDictionary
280
     1
281
     1
  3
ACAD_XREC_ROUNDTRIP
360
514
  0
DICTIONARY
  5
51B
330
37
100
AcDbDictionary
280
     1
281
     1
  3
ACAD_XREC_ROUNDTRIP
360
51C
  0
XRECORD
  5
526
102
{ACAD_REACTORS
330
525
102
}
330
525
100
AcDbXrecord
280
     1
102
MATERIAL
148
0.0
149
0.0
149
0.0
 93
        0
 94
      127
282
     0
 72
     1
 77
     1
171
     1
175
     1
179
     1
273
     0
  0
XRECORD
  5
524
102
{ACAD_REACTORS
330
523
102
}
330
523
100
AcDbXrecord
280
     1
102
MATERIAL
148
0.0
149
0.0
149
0.0
 93
        0
 94
      127
282
     0
 72
     1
 77
     1
171
     1
175
     1
179
     1
273
     0
  0
XRECORD
  5
528
102
{ACAD_REACTORS
330
527
102
}
330
527
100
AcDbXrecord
280
     1
102
MATERIAL
148
0.0
149
0.0
149
0.0
 93
        0
 94
      127
282
     0
 72
     1
 77
     1
171
     1
175
     1
179
     1
273
     0
  0
XRECORD
  5
50C
102
{ACAD_REACTORS
330
50B
102
}
330
50B
100
AcDbXrecord
280
     1
102
RTVSPropertyOp0
 70
     1
102
RTVSPropertyOp1
 70
     1
102
RTVSPropertyOp2
 70
     1
102
RTVSPropertyOp3
 70
     1
102
RTVSPropertyOp4
 70
     1
102
RTVSPropertyOp5
 70
     1
102
RTVSPropertyOp6
 70
     1
102
RTVSPropertyOp7
 70
     1
102
RTVSPropertyOp8
 70
     1
102
RTVSPropertyOp9
 70
     1
102
RTVSPropertyOp10
 70
     1
102
RTVSPropertyOp11
 70
     1
102
RTVSPropertyOp12
 70
     1
102
RTVSPropertyOp13
 70
     1
102
RTVSPropertyOp14
 70
     1
102
RTVSPropertyOp15
 70
     1
102
RTVSPropertyOp16
 70
     1
102
RTVSPropertyOp17
 70
     1
102
RTVSPropertyOp18
 70
     1
102
RTVSPropertyOp19
 70
     1
102
RTVSPropertyOp20
 70
     1
102
RTVSPropertyOp21
 70
     1
102
RTVSPropertyOp22
 70
     1
102
RTVSPropertyOp23
 70
     1
102
RTVSPropertyOp24
 70
     1
102
RTVSPropertyOp25
 70
     1
102
RTVSPropertyOp26
 70
     1
102
RTVSPropertyOp27
 70
     1
102
RTVSPropertyOp28
 70
     1
102
RTVSPropertyOp29
 70
     1
102
RTVSPropertyOp30
 70
     1
102
RTVSPropertyOp31
 70
     1
102
RTVSPropertyOp32
 70
     1
  0
XRECORD
  5
510
102
{ACAD_REACTORS
330
50F
102
}
330
50F
100
AcDbXrecord
280
     1
102
RTVSPropertyOp0
 70
     1
102
RTVSPropertyOp1
 70
     1
102
RTVSPropertyOp2
 70
     1
102
RTVSPropertyOp3
 70
     1
102
RTVSPropertyOp4
 70
     1
102
RTVSPropertyOp5
 70
     1
102
RTVSPropertyOp6
 70
     1
102
RTVSPropertyOp7
 70
     1
102
RTVSPropertyOp8
 70
     1
102
RTVSPropertyOp9
 70
     1
102
RTVSPropertyOp10
 70
     1
102
RTVSPropertyOp11
 70
     1
102
RTVSPropertyOp12
 70
     1
102
RTVSPropertyOp13
 70
     1
102
RTVSPropertyOp14
 70
     1
102
RTVSPropertyOp15
 70
     1
102
RTVSPropertyOp16
 70
     1
102
RTVSPropertyOp17
 70
     1
102
RTVSPropertyOp18
 70
     1
102
RTVSPropertyOp19
 70
     1
102
RTVSPropertyOp20
 70
     1
102
RTVSPropertyOp21
 70
     1
102
RTVSPropertyOp22
 70
     1
102
RTVSPropertyOp23
 70
     1
102
RTVSPropertyOp24
 70
     1
102
RTVSPropertyOp25
 70
     1
102
RTVSPropertyOp26
 70
     1
102
RTVSPropertyOp27
 70
     1
102
RTVSPropertyOp28
 70
     1
102
RTVSPropertyOp29
 70
     1
102
RTVSPropertyOp30
 70
     1
102
RTVSPropertyOp31
 70
     1
102
RTVSPropertyOp32
 70
     1
  0
XRECORD
  5
50E
102
{ACAD_REACTORS
330
50D
102
}
330
50D
100
AcDbXrecord
280
     1
102
RTVSPropertyOp0
 70
     1
102
RTVSPropertyOp1
 70
     1
102
RTVSPropertyOp2
 70
     1
102
RTVSPropertyOp3
 70
     1
102
RTVSPropertyOp4
 70
     1
102
RTVSPropertyOp5
 70
     1
102
RTVSPropertyOp6
 70
     1
102
RTVSPropertyOp7
 70
     1
102
RTVSPropertyOp8
 70
     1
102
RTVSPropertyOp9
 70
     1
102
RTVSPropertyOp10
 70
     1
102
RTVSPropertyOp11
 70
     1
102
RTVSPropertyOp12
 70
     1
102
RTVSPropertyOp13
 70
     1
102
RTVSPropertyOp14
 70
     1
102
RTVSPropertyOp15
 70
     1
102
RTVSPropertyOp16
 70
     1
102
RTVSPropertyOp17
 70
     1
102
RTVSPropertyOp18
 70
     1
102
RTVSPropertyOp19
 70
     1
102
RTVSPropertyOp20
 70
     1
102
RTVSPropertyOp21
 70
     1
102
RTVSPropertyOp22
 70
     1
102
RTVSPropertyOp23
 70
     1
102
RTVSPropertyOp24
 70
     1
102
RTVSPropertyOp25
 70
     1
102
RTVSPropertyOp26
 70
     1
102
RTVSPropertyOp27
 70
     1
102
RTVSPropertyOp28
 70
     1
102
RTVSPropertyOp29
 70
     1
102
RTVSPropertyOp30
 70
     1
102
RTVSPropertyOp31
 70
     1
102
RTVSPropertyOp32
 70
     1
  0
XRECORD
  5
512
102
{ACAD_REACTORS
330
511
102
}
330
511
100
AcDbXrecord
280
     1
102
RTVSPropertyOp0
 70
     1
102
RTVSPropertyOp1
 70
     1
102
RTVSPropertyOp2
 70
     1
102
RTVSPropertyOp3
 70
     1
102
RTVSPropertyOp4
 70
     1
102
RTVSPropertyOp5
 70
     1
102
RTVSPropertyOp6
 70
     1
102
RTVSPropertyOp7
 70
     1
102
RTVSPropertyOp8
 70
     1
102
RTVSPropertyOp9
 70
     1
102
RTVSPropertyOp10
 70
     1
102
RTVSPropertyOp11
 70
     1
102
RTVSPropertyOp12
 70
     1
102
RTVSPropertyOp13
 70
     1
102
RTVSPropertyOp14
 70
     1
102
RTVSPropertyOp15
 70
     1
102
RTVSPropertyOp16
 70
     1
102
RTVSPropertyOp17
 70
     1
102
RTVSPropertyOp18
 70
     1
102
RTVSPropertyOp19
 70
     1
102
RTVSPropertyOp20
 70
     1
102
RTVSPropertyOp21
 70
     1
102
RTVSPropertyOp22
 70
     1
102
RTVSPropertyOp23
 70
     1
102
RTVSPropertyOp24
 70
     1
102
RTVSPropertyOp25
 70
     1
102
RTVSPropertyOp26
 70
     1
102
RTVSPropertyOp27
 70
     1
102
RTVSPropertyOp28
 70
     1
102
RTVSPropertyOp29
 70
     1
102
RTVSPropertyOp30
 70
     1
102
RTVSPropertyOp31
 70
     1
102
RTVSPropertyOp32
 70
     1
  0
XRECORD
  5
51A
102
{ACAD_REACTORS
330
519
102
}
330
519
100
AcDbXrecord
280
     1
102
RTVSPropertyOp0
 70
     1
102
RTVSPropertyOp1
 70
     1
102
RTVSPropertyOp2
 70
     1
102
RTVSPropertyOp3
 70
     1
102
RTVSPropertyOp4
 70
     1
102
RTVSPropertyOp5
 70
     1
102
RTVSPropertyOp6
 70
     1
102
RTVSPropertyOp7
 70
     1
102
RTVSPropertyOp8
 70
     1
102
RTVSPropertyOp9
 70
     1
102
RTVSPropertyOp10
 70
     1
102
RTVSPropertyOp11
 70
     1
102
RTVSPropertyOp12
 70
     1
102
RTVSPropertyOp13
 70
     1
102
RTVSPropertyOp14
 70
     1
102
RTVSPropertyOp15
 70
     1
102
RTVSPropertyOp16
 70
     1
102
RTVSPropertyOp17
 70
     1
102
RTVSPropertyOp18
 70
     1
102
RTVSPropertyOp19
 70
     1
102
RTVSPropertyOp20
 70
     1
102
RTVSPropertyOp21
 70
     1
102
RTVSPropertyOp22
 70
     1
102
RTVSPropertyOp23
 70
     1
102
RTVSPropertyOp24
 70
     1
102
RTVSPropertyOp25
 70
     1
102
RTVSPropertyOp26
 70
     1
102
RTVSPropertyOp27
 70
     1
102
RTVSPropertyOp28
 70
     1
102
RTVSPropertyOp29
 70
     1
102
RTVSPropertyOp30
 70
     1
102
RTVSPropertyOp31
 70
     1
102
RTVSPropertyOp32
 70
     1
  0
XRECORD
  5
522
102
{ACAD_REACTORS
330
521
102
}
330
521
100
AcDbXrecord
280
     1
102
RTVSPropertyOp0
 70
     1
102
RTVSPropertyOp1
 70
     1
102
RTVSPropertyOp2
 70
     1
102
RTVSPropertyOp3
 70
     1
102
RTVSPropertyOp4
 70
     1
102
RTVSPropertyOp5
 70
     1
102
RTVSPropertyOp6
 70
     1
102
RTVSPropertyOp7
 70
     1
102
RTVSPropertyOp8
 70
     1
102
RTVSPropertyOp9
 70
     1
102
RTVSPropertyOp10
 70
     1
102
RTVSPropertyOp11
 70
     1
102
RTVSPropertyOp12
 70
     1
102
RTVSPropertyOp13
 70
     1
102
RTVSPropertyOp14
 70
     1
102
RTVSPropertyOp15
 70
     1
102
RTVSPropertyOp16
 70
     1
102
RTVSPropertyOp17
 70
     1
102
RTVSPropertyOp18
 70
     1
102
RTVSPropertyOp19
 70
     1
102
RTVSPropertyOp20
 70
     1
102
RTVSPropertyOp21
 70
     1
102
RTVSPropertyOp22
 70
     1
102
RTVSPropertyOp23
 70
     1
102
RTVSPropertyOp24
 70
     1
102
RTVSPropertyOp25
 70
     1
102
RTVSPropertyOp26
 70
     1
102
RTVSPropertyOp27
 70
     1
102
RTVSPropertyOp28
 70
     1
102
RTVSPropertyOp29
 70
     1
102
RTVSPropertyOp30
 70
     1
102
RTVSPropertyOp31
 70
     1
102
RTVSPropertyOp32
 70
     1
  0
XRECORD
  5
516
102
{ACAD_REACTORS
330
515
102
}
330
515
100
AcDbXrecord
280
     1
102
RTVSPropertyOp0
 70
     1
102
RTVSPropertyOp1
 70
     1
102
RTVSPropertyOp2
 70
     1
102
RTVSPropertyOp3
 70
     1
102
RTVSPropertyOp4
 70
     1
102
RTVSPropertyOp5
 70
     1
102
RTVSPropertyOp6
 70
     1
102
RTVSPropertyOp7
 70
     1
102
RTVSPropertyOp8
 70
     1
102
RTVSPropertyOp9
 70
     1
102
RTVSPropertyOp10
 70
     1
102
RTVSPropertyOp11
 70
     1
102
RTVSPropertyOp12
 70
     1
102
RTVSPropertyOp13
 70
     1
102
RTVSPropertyOp14
 70
     1
102
RTVSPropertyOp15
 70
     1
102
RTVSPropertyOp16
 70
     1
102
RTVSPropertyOp17
 70
     1
102
RTVSPropertyOp18
 70
     1
102
RTVSPropertyOp19
 70
     1
102
RTVSPropertyOp20
 70
     1
102
RTVSPropertyOp21
 70
     1
102
RTVSPropertyOp22
 70
     1
102
RTVSPropertyOp23
 70
     1
102
RTVSPropertyOp24
 70
     1
102
RTVSPropertyOp25
 70
     1
102
RTVSPropertyOp26
 70
     1
102
RTVSPropertyOp27
 70
     1
102
RTVSPropertyOp28
 70
     1
102
RTVSPropertyOp29
 70
     1
102
RTVSPropertyOp30
 70
     1
102
RTVSPropertyOp31
 70
     1
102
RTVSPropertyOp32
 70
     1
  0
XRECORD
  5
518
102
{ACAD_REACTORS
330
517
102
}
330
517
100
AcDbXrecord
280
     1
102
RTVSPropertyOp0
 70
     1
102
RTVSPropertyOp1
 70
     1
102
RTVSPropertyOp2
 70
     1
102
RTVSPropertyOp3
 70
     1
102
RTVSPropertyOp4
 70
     1
102
RTVSPropertyOp5
 70
     1
102
RTVSPropertyOp6
 70
     1
102
RTVSPropertyOp7
 70
     1
102
RTVSPropertyOp8
 70
     1
102
RTVSPropertyOp9
 70
     1
102
RTVSPropertyOp10
 70
     1
102
RTVSPropertyOp11
 70
     1
102
RTVSPropertyOp12
 70
     1
102
RTVSPropertyOp13
 70
     1
102
RTVSPropertyOp14
 70
     1
102
RTVSPropertyOp15
 70
     1
102
RTVSPropertyOp16
 70
     1
102
RTVSPropertyOp17
 70
     1
102
RTVSPropertyOp18
 70
     1
102
RTVSPropertyOp19
 70
     1
102
RTVSPropertyOp20
 70
     1
102
RTVSPropertyOp21
 70
     1
102
RTVSPropertyOp22
 70
     1
102
RTVSPropertyOp23
 70
     1
102
RTVSPropertyOp24
 70
     1
102
RTVSPropertyOp25
 70
     1
102
RTVSPropertyOp26
 70
     1
102
RTVSPropertyOp27
 70
     1
102
RTVSPropertyOp28
 70
     1
102
RTVSPropertyOp29
 70
     1
102
RTVSPropertyOp30
 70
     1
102
RTVSPropertyOp31
 70
     1
102
RTVSPropertyOp32
 70
     1
  0
XRECORD
  5
520
102
{ACAD_REACTORS
330
51F
102
}
330
51F
100
AcDbXrecord
280
     1
102
RTVSPropertyOp0
 70
     1
102
RTVSPropertyOp1
 70
     1
102
RTVSPropertyOp2
 70
     1
102
RTVSPropertyOp3
 70
     1
102
RTVSPropertyOp4
 70
     1
102
RTVSPropertyOp5
 70
     1
102
RTVSPropertyOp6
 70
     1
102
RTVSPropertyOp7
 70
     1
102
RTVSPropertyOp8
 70
     1
102
RTVSPropertyOp9
 70
     1
102
RTVSPropertyOp10
 70
     1
102
RTVSPropertyOp11
 70
     1
102
RTVSPropertyOp12
 70
     1
102
RTVSPropertyOp13
 70
     1
102
RTVSPropertyOp14
 70
     1
102
RTVSPropertyOp15
 70
     1
102
RTVSPropertyOp16
 70
     1
102
RTVSPropertyOp17
 70
     1
102
RTVSPropertyOp18
 70
     1
102
RTVSPropertyOp19
 70
     1
102
RTVSPropertyOp20
 70
     1
102
RTVSPropertyOp21
 70
     1
102
RTVSPropertyOp22
 70
     1
102
RTVSPropertyOp23
 70
     1
102
RTVSPropertyOp24
 70
     1
102
RTVSPropertyOp25
 70
     1
102
RTVSPropertyOp26
 70
     1
102
RTVSPropertyOp27
 70
     1
102
RTVSPropertyOp28
 70
     1
102
RTVSPropertyOp29
 70
     1
102
RTVSPropertyOp30
 70
     1
102
RTVSPropertyOp31
 70
     1
102
RTVSPropertyOp32
 70
     1
  0
XRECORD
  5
504
102
{ACAD_REACTORS
330
503
102
}
330
503
100
AcDbXrecord
280
     1
102
RTVSPropertyOp0
 70
     1
102
RTVSPropertyOp1
 70
     1
102
RTVSPropertyOp2
 70
     1
102
RTVSPropertyOp3
 70
     1
102
RTVSPropertyOp4
 70
     1
102
RTVSPropertyOp5
 70
     1
102
RTVSPropertyOp6
 70
     1
102
RTVSPropertyOp7
 70
     1
102
RTVSPropertyOp8
 70
     1
102
RTVSPropertyOp9
 70
     1
102
RTVSPropertyOp10
 70
     1
102
RTVSPropertyOp11
 70
     1
102
RTVSPropertyOp12
 70
     1
102
RTVSPropertyOp13
 70
     1
102
RTVSPropertyOp14
 70
     1
102
RTVSPropertyOp15
 70
     1
102
RTVSPropertyOp16
 70
     1
102
RTVSPropertyOp17
 70
     1
102
RTVSPropertyOp18
 70
     1
102
RTVSPropertyOp19
 70
     1
102
RTVSPropertyOp20
 70
     1
102
RTVSPropertyOp21
 70
     1
102
RTVSPropertyOp22
 70
     1
102
RTVSPropertyOp23
 70
     1
102
RTVSPropertyOp24
 70
     1
102
RTVSPropertyOp25
 70
     1
102
RTVSPropertyOp26
 70
     1
102
RTVSPropertyOp27
 70
     1
102
RTVSPropertyOp28
 70
     1
102
RTVSPropertyOp29
 70
     1
102
RTVSPropertyOp30
 70
     1
102
RTVSPropertyOp31
 70
     1
102
RTVSPropertyOp32
 70
     1
  0
XRECORD
  5
506
102
{ACAD_REACTORS
330
505
102
}
330
505
100
AcDbXrecord
280
     1
102
RTVSPropertyOp0
 70
     1
102
RTVSPropertyOp1
 70
     1
102
RTVSPropertyOp2
 70
     1
102
RTVSPropertyOp3
 70
     1
102
RTVSPropertyOp4
 70
     1
102
RTVSPropertyOp5
 70
     1
102
RTVSPropertyOp6
 70
     1
102
RTVSPropertyOp7
 70
     1
102
RTVSPropertyOp8
 70
     1
102
RTVSPropertyOp9
 70
     1
102
RTVSPropertyOp10
 70
     1
102
RTVSPropertyOp11
 70
     1
102
RTVSPropertyOp12
 70
     1
102
RTVSPropertyOp13
 70
     1
102
RTVSPropertyOp14
 70
     1
102
RTVSPropertyOp15
 70
     1
102
RTVSPropertyOp16
 70
     1
102
RTVSPropertyOp17
 70
     1
102
RTVSPropertyOp18
 70
     1
102
RTVSPropertyOp19
 70
     1
102
RTVSPropertyOp20
 70
     1
102
RTVSPropertyOp21
 70
     1
102
RTVSPropertyOp22
 70
     1
102
RTVSPropertyOp23
 70
     1
102
RTVSPropertyOp24
 70
     1
102
RTVSPropertyOp25
 70
     1
102
RTVSPropertyOp26
 70
     1
102
RTVSPropertyOp27
 70
     1
102
RTVSPropertyOp28
 70
     1
102
RTVSPropertyOp29
 70
     1
102
RTVSPropertyOp30
 70
     1
102
RTVSPropertyOp31
 70
     1
102
RTVSPropertyOp32
 70
     1
  0
XRECORD
  5
508
102
{ACAD_REACTORS
330
507
102
}
330
507
100
AcDbXrecord
280
     1
102
RTVSPropertyOp0
 70
     1
102
RTVSPropertyOp1
 70
     1
102
RTVSPropertyOp2
 70
     1
102
RTVSPropertyOp3
 70
     1
102
RTVSPropertyOp4
 70
     1
102
RTVSPropertyOp5
 70
     1
102
RTVSPropertyOp6
 70
     1
102
RTVSPropertyOp7
 70
     1
102
RTVSPropertyOp8
 70
     1
102
RTVSPropertyOp9
 70
     1
102
RTVSPropertyOp10
 70
     1
102
RTVSPropertyOp11
 70
     1
102
RTVSPropertyOp12
 70
     1
102
RTVSPropertyOp13
 70
     1
102
RTVSPropertyOp14
 70
     1
102
RTVSPropertyOp15
 70
     1
102
RTVSPropertyOp16
 70
     1
102
RTVSPropertyOp17
 70
     1
102
RTVSPropertyOp18
 70
     1
102
RTVSPropertyOp19
 70
     1
102
RTVSPropertyOp20
 70
     1
102
RTVSPropertyOp21
 70
     1
102
RTVSPropertyOp22
 70
     1
102
RTVSPropertyOp23
 70
     1
102
RTVSPropertyOp24
 70
     1
102
RTVSPropertyOp25
 70
     1
102
RTVSPropertyOp26
 70
     1
102
RTVSPropertyOp27
 70
     1
102
RTVSPropertyOp28
 70
     1
102
RTVSPropertyOp29
 70
     1
102
RTVSPropertyOp30
 70
     1
102
RTVSPropertyOp31
 70
     1
102
RTVSPropertyOp32
 70
     1
  0
XRECORD
  5
50A
102
{ACAD_REACTORS
330
509
102
}
330
509
100
AcDbXrecord
280
     1
102
RTVSPropertyOp0
 70
     1
102
RTVSPropertyOp1
 70
     1
102
RTVSPropertyOp2
 70
     1
102
RTVSPropertyOp3
 70
     1
102
RTVSPropertyOp4
 70
     1
102
RTVSPropertyOp5
 70
     1
102
RTVSPropertyOp6
 70
     1
102
RTVSPropertyOp7
 70
     1
102
RTVSPropertyOp8
 70
     1
102
RTVSPropertyOp9
 70
     1
102
RTVSPropertyOp10
 70
     1
102
RTVSPropertyOp11
 70
     1
102
RTVSPropertyOp12
 70
     1
102
RTVSPropertyOp13
 70
     1
102
RTVSPropertyOp14
 70
     1
102
RTVSPropertyOp15
 70
     1
102
RTVSPropertyOp16
 70
     1
102
RTVSPropertyOp17
 70
     1
102
RTVSPropertyOp18
 70
     1
102
RTVSPropertyOp19
 70
     1
102
RTVSPropertyOp20
 70
     1
102
RTVSPropertyOp21
 70
     1
102
RTVSPropertyOp22
 70
     1
102
RTVSPropertyOp23
 70
     1
102
RTVSPropertyOp24
 70
     1
102
RTVSPropertyOp25
 70
     1
102
RTVSPropertyOp26
 70
     1
102
RTVSPropertyOp27
 70
     1
102
RTVSPropertyOp28
 70
     1
102
RTVSPropertyOp29
 70
     1
102
RTVSPropertyOp30
 70
     1
102
RTVSPropertyOp31
 70
     1
102
RTVSPropertyOp32
 70
     1
  0
XRECORD
  5
51E
102
{ACAD_REACTORS
330
51D
102
}
330
51D
100
AcDbXrecord
280
     1
102
RTVSPropertyOp0
 70
     1
102
RTVSPropertyOp1
 70
     1
102
RTVSPropertyOp2
 70
     1
102
RTVSPropertyOp3
 70
     1
102
RTVSPropertyOp4
 70
     1
102
RTVSPropertyOp5
 70
     1
102
RTVSPropertyOp6
 70
     1
102
RTVSPropertyOp7
 70
     1
102
RTVSPropertyOp8
 70
     1
102
RTVSPropertyOp9
 70
     1
102
RTVSPropertyOp10
 70
     1
102
RTVSPropertyOp11
 70
     1
102
RTVSPropertyOp12
 70
     1
102
RTVSPropertyOp13
 70
     1
102
RTVSPropertyOp14
 70
     1
102
RTVSPropertyOp15
 70
     1
102
RTVSPropertyOp16
 70
     1
102
RTVSPropertyOp17
 70
     1
102
RTVSPropertyOp18
 70
     1
102
RTVSPropertyOp19
 70
     1
102
RTVSPropertyOp20
 70
     1
102
RTVSPropertyOp21
 70
     1
102
RTVSPropertyOp22
 70
     1
102
RTVSPropertyOp23
 70
     1
102
RTVSPropertyOp24
 70
     1
102
RTVSPropertyOp25
 70
     1
102
RTVSPropertyOp26
 70
     1
102
RTVSPropertyOp27
 70
     1
102
RTVSPropertyOp28
 70
     1
102
RTVSPropertyOp29
 70
     1
102
RTVSPropertyOp30
 70
     1
102
RTVSPropertyOp31
 70
     1
102
RTVSPropertyOp32
 70
     1
  0
XRECORD
  5
514
102
{ACAD_REACTORS
330
513
102
}
330
513
100
AcDbXrecord
280
     1
102
RTVSPropertyOp0
 70
     1
102
RTVSPropertyOp1
 70
     1
102
RTVSPropertyOp2
 70
     1
102
RTVSPropertyOp3
 70
     1
102
RTVSPropertyOp4
 70
     1
102
RTVSPropertyOp5
 70
     1
102
RTVSPropertyOp6
 70
     1
102
RTVSPropertyOp7
 70
     1
102
RTVSPropertyOp8
 70
     1
102
RTVSPropertyOp9
 70
     1
102
RTVSPropertyOp10
 70
     1
102
RTVSPropertyOp11
 70
     1
102
RTVSPropertyOp12
 70
     1
102
RTVSPropertyOp13
 70
     1
102
RTVSPropertyOp14
 70
     1
102
RTVSPropertyOp15
 70
     1
102
RTVSPropertyOp16
 70
     1
102
RTVSPropertyOp17
 70
     1
102
RTVSPropertyOp18
 70
     1
102
RTVSPropertyOp19
 70
     1
102
RTVSPropertyOp20
 70
     1
102
RTVSPropertyOp21
 70
     1
102
RTVSPropertyOp22
 70
     1
102
RTVSPropertyOp23
 70
     1
102
RTVSPropertyOp24
 70
     1
102
RTVSPropertyOp25
 70
     1
102
RTVSPropertyOp26
 70
     1
102
RTVSPropertyOp27
 70
     1
102
RTVSPropertyOp28
 70
     1
102
RTVSPropertyOp29
 70
     1
102
RTVSPropertyOp30
 70
     1
102
RTVSPropertyOp31
 70
     1
102
RTVSPropertyOp32
 70
     1
  0
XRECORD
  5
51C
102
{ACAD_REACTORS
330
51B
102
}
330
51B
100
AcDbXrecord
280
     1
102
RTVSPropertyOp0
 70
     1
102
RTVSPropertyOp1
 70
     1
102
RTVSPropertyOp2
 70
     1
102
RTVSPropertyOp3
 70
     1
102
RTVSPropertyOp4
 70
     1
102
RTVSPropertyOp5
 70
     1
102
RTVSPropertyOp6
 70
     1
102
RTVSPropertyOp7
 70
     1
102
RTVSPropertyOp8
 70
     1
102
RTVSPropertyOp9
 70
     1
102
RTVSPropertyOp10
 70
     1
102
RTVSPropertyOp11
 70
     1
102
RTVSPropertyOp12
 70
     1
102
RTVSPropertyOp13
 70
     1
102
RTVSPropertyOp14
 70
     1
102
RTVSPropertyOp15
 70
     1
102
RTVSPropertyOp16
 70
     1
102
RTVSPropertyOp17
 70
     1
102
RTVSPropertyOp18
 70
     1
102
RTVSPropertyOp19
 70
     1
102
RTVSPropertyOp20
 70
     1
102
RTVSPropertyOp21
 70
     1
102
RTVSPropertyOp22
 70
     1
102
RTVSPropertyOp23
 70
     1
102
RTVSPropertyOp24
 70
     1
102
RTVSPropertyOp25
 70
     1
102
RTVSPropertyOp26
 70
     1
102
RTVSPropertyOp27
 70
     1
102
RTVSPropertyOp28
 70
     1
102
RTVSPropertyOp29
 70
     1
102
RTVSPropertyOp30
 70
     1
102
RTVSPropertyOp31
 70
     1
102
RTVSPropertyOp32
 70
     1
  0
ENDSEC
  0
EOF
