  0
SECTION
  2
HEADER
  9
$ACADVER
  1
AC1015
  9
$ACADMAINTVER
 70
     6
  9
$DWGCODEPAGE
  3
DOS932
  9
$INSBASE
 10
0.0
 20
0.0
 30
0.0
  9
$EXTMIN
 10
0.0
 20
0.0
 30
0.0
  9
$EXTMAX
 10
1050.0
 20
1485.0
 30
0.0
  9
$LIMMIN
 10
0.0
 20
0.0
  9
$LIMMAX
 10
12.0
 20
9.0
  9
$ORTHOMODE
 70
     0
  9
$REGENMODE
 70
     1
  9
$FILLMODE
 70
     1
  9
$QTEXTMODE
 70
     0
  9
$MIRRTEXT
 70
     1
  9
$LTSCALE
 40
1.0
  9
$ATTMODE
 70
     1
  9
$TEXTSIZE
 40
0.2
  9
$TRACEWID
 40
0.05
  9
$TEXTSTYLE
  7
Standard
  9
$CLAYER
  8
0
  9
$CELTYPE
  6
ByLayer
  9
$CECOLOR
 62
   256
  9
$CELTSCALE
 40
1.0
  9
$DISPSILH
 70
     0
  9
$DIMSCALE
 40
1.0
  9
$DIMASZ
 40
0.18
  9
$DIMEXO
 40
0.0625
  9
$DIMDLI
 40
0.38
  9
$DIMRND
 40
0.0
  9
$DIMDLE
 40
0.0
  9
$DIMEXE
 40
0.18
  9
$DIMTP
 40
0.0
  9
$DIMTM
 40
0.0
  9
$DIMTXT
 40
0.18
  9
$DIMCEN
 40
0.09
  9
$DIMTSZ
 40
0.0
  9
$DIMTOL
 70
     0
  9
$DIMLIM
 70
     0
  9
$DIMTIH
 70
     1
  9
$DIMTOH
 70
     1
  9
$DIMSE1
 70
     0
  9
$DIMSE2
 70
     0
  9
$DIMTAD
 70
     0
  9
$DIMZIN
 70
     0
  9
$DIMBLK
  1

  9
$DIMASO
 70
     1
  9
$DIMSHO
 70
     1
  9
$DIMPOST
  1

  9
$DIMAPOST
  1

  9
$DIMALT
 70
     0
  9
$DIMALTD
 70
     2
  9
$DIMALTF
 40
25.4
  9
$DIMLFAC
 40
1.0
  9
$DIMTOFL
 70
     0
  9
$DIMTVP
 40
0.0
  9
$DIMTIX
 70
     0
  9
$DIMSOXD
 70
     0
  9
$DIMSAH
 70
     0
  9
$DIMBLK1
  1

  9
$DIMBLK2
  1

  9
$DIMSTYLE
  2
Standard
  9
$DIMCLRD
 70
     0
  9
$DIMCLRE
 70
     0
  9
$DIMCLRT
 70
     0
  9
$DIMTFAC
 40
1.0
  9
$DIMGAP
 40
0.09
  9
$DIMJUST
 70
     0
  9
$DIMSD1
 70
     0
  9
$DIMSD2
 70
     0
  9
$DIMTOLJ
 70
     1
  9
$DIMTZIN
 70
     0
  9
$DIMALTZ
 70
     0
  9
$DIMALTTZ
 70
     0
  9
$DIMUPT
 70
     0
  9
$DIMDEC
 70
     4
  9
$DIMTDEC
 70
     4
  9
$DIMALTU
 70
     2
  9
$DIMALTTD
 70
     2
  9
$DIMTXSTY
  7
Standard
  9
$DIMAUNIT
 70
     0
  9
$DIMADEC
 70
     0
  9
$DIMALTRND
 40
0.0
  9
$DIMAZIN
 70
     0
  9
$DIMDSEP
 70
    46
  9
$DIMATFIT
 70
     3
  9
$DIMFRAC
 70
     0
  9
$DIMLDRBLK
  1

  9
$DIMLUNIT
 70
     2
  9
$DIMLWD
 70
    -2
  9
$DIMLWE
 70
    -2
  9
$DIMTMOVE
 70
     0
  9
$LUNITS
 70
     2
  9
$LUPREC
 70
     4
  9
$SKETCHINC
 40
0.1
  9
$FILLETRAD
 40
0.5
  9
$AUNITS
 70
     0
  9
$AUPREC
 70
     0
  9
$MENU
  1
.
  9
$ELEVATION
 40
0.0
  9
$PELEVATION
 40
0.0
  9
$THICKNESS
 40
0.0
  9
$LIMCHECK
 70
     0
  9
$CHAMFERA
 40
0.5
  9
$CHAMFERB
 40
0.5
  9
$CHAMFERC
 40
1.0
  9
$CHAMFERD
 40
0.0
  9
$SKPOLY
 70
     0
  9
$TDCREATE
 40
2456184.349734873
  9
$TDUCREATE
 40
2456183.974734873
  9
$TDUPDATE
 40
2456184.349734884
  9
$TDUUPDATE
 40
2456183.974734884
  9
$TDINDWG
 40
0.0000000116
  9
$TDUSRTIMER
 40
0.0000000116
  9
$USRTIMER
 70
     1
  9
$ANGBASE
 50
0.0
  9
$ANGDIR
 70
     0
  9
$PDMODE
 70
     0
  9
$PDSIZE
 40
0.0
  9
$PLINEWID
 40
0.0
  9
$SPLFRAME
 70
     0
  9
$SPLINETYPE
 70
     6
  9
$SPLINESEGS
 70
     8
  9
$HANDSEED
  5
455
  9
$SURFTAB1
 70
     6
  9
$SURFTAB2
 70
     6
  9
$SURFTYPE
 70
     6
  9
$SURFU
 70
     6
  9
$SURFV
 70
     6
  9
$UCSBASE
  2

  9
$UCSNAME
  2

  9
$UCSORG
 10
0.0
 20
0.0
 30
0.0
  9
$UCSXDIR
 10
1.0
 20
0.0
 30
0.0
  9
$UCSYDIR
 10
0.0
 20
1.0
 30
0.0
  9
$UCSORTHOREF
  2

  9
$UCSORTHOVIEW
 70
     0
  9
$UCSORGTOP
 10
0.0
 20
0.0
 30
0.0
  9
$UCSORGBOTTOM
 10
0.0
 20
0.0
 30
0.0
  9
$UCSORGLEFT
 10
0.0
 20
0.0
 30
0.0
  9
$UCSORGRIGHT
 10
0.0
 20
0.0
 30
0.0
  9
$UCSORGFRONT
 10
0.0
 20
0.0
 30
0.0
  9
$UCSORGBACK
 10
0.0
 20
0.0
 30
0.0
  9
$PUCSBASE
  2

  9
$PUCSNAME
  2

  9
$PUCSORG
 10
0.0
 20
0.0
 30
0.0
  9
$PUCSXDIR
 10
1.0
 20
0.0
 30
0.0
  9
$PUCSYDIR
 10
0.0
 20
1.0
 30
0.0
  9
$PUCSORTHOREF
  2

  9
$PUCSORTHOVIEW
 70
     0
  9
$PUCSORGTOP
 10
0.0
 20
0.0
 30
0.0
  9
$PUCSORGBOTTOM
 10
0.0
 20
0.0
 30
0.0
  9
$PUCSORGLEFT
 10
0.0
 20
0.0
 30
0.0
  9
$PUCSORGRIGHT
 10
0.0
 20
0.0
 30
0.0
  9
$PUCSORGFRONT
 10
0.0
 20
0.0
 30
0.0
  9
$PUCSORGBACK
 10
0.0
 20
0.0
 30
0.0
  9
$USERI1
 70
     0
  9
$USERI2
 70
     0
  9
$USERI3
 70
     0
  9
$USERI4
 70
     0
  9
$USERI5
 70
     0
  9
$USERR1
 40
13.2
  9
$USERR2
 40
0.0
  9
$USERR3
 40
0.0
  9
$USERR4
 40
0.0
  9
$USERR5
 40
0.0
  9
$WORLDVIEW
 70
     1
  9
$SHADEDGE
 70
     3
  9
$SHADEDIF
 70
    70
  9
$TILEMODE
 70
     1
  9
$MAXACTVP
 70
    64
  9
$PINSBASE
 10
0.0
 20
0.0
 30
0.0
  9
$PLIMCHECK
 70
     0
  9
$PEXTMIN
 10
1.00000000000000E+20
 20
1.00000000000000E+20
 30
1.00000000000000E+20
  9
$PEXTMAX
 10
-1.00000000000000E+20
 20
-1.00000000000000E+20
 30
-1.00000000000000E+20
  9
$PLIMMIN
 10
0.0
 20
0.0
  9
$PLIMMAX
 10
12.0
 20
9.0
  9
$UNITMODE
 70
     0
  9
$VISRETAIN
 70
     1
  9
$PLINEGEN
 70
     0
  9
$PSLTSCALE
 70
     1
  9
$TREEDEPTH
 70
  3020
  9
$CMLSTYLE
  2
Standard
  9
$CMLJUST
 70
     0
  9
$CMLSCALE
 40
1.0
  9
$PROXYGRAPHICS
 70
     1
  9
$MEASUREMENT
 70
     1
  9
$CELWEIGHT
370
    -1
  9
$ENDCAPS
280
     0
  9
$JOINSTYLE
280
     0
  9
$LWDISPLAY
290
     0
  9
$INSUNITS
 70
     1
  9
$HYPERLINKBASE
  1

  9
$STYLESHEET
  1

  9
$XEDIT
290
     1
  9
$CEPSNTYPE
380
     0
  9
$PSTYLEMODE
290
     0
  9
$FINGERPRINTGUID
  2
{FAEB1C30-E019-11D5-929B-00C0DF256EC4}
  9
$VERSIONGUID
  2
{FAEB1C32-E019-11D5-929B-00C0DF256EC4}
  9
$EXTNAMES
290
     1
  9
$PSVPSCALE
 40
0.0
  9
$OLESTARTUP
290
     0
  0
ENDSEC
  0
SECTION
  2
CLASSES
  0
CLASS
  1
ACDBDICTIONARYWDFLT
  2
AcDbDictionaryWithDefault
  3
ObjectDBX Classes
 90
        0
280
     0
281
     0
  0
CLASS
  1
TABLESTYLE
  2
AcDbTableStyle
  3
ObjectDBX Classes
 90
     2047
280
     0
281
     0
  0
CLASS
  1
DICTIONARYVAR
  2
AcDbDictionaryVar
  3
ObjectDBX Classes
 90
        0
280
     0
281
     0
  0
CLASS
  1

  2
exOdDbCircle
  3

 90
        0
280
     0
281
     1
  0
CLASS
  1

  2
exOdDbSpline
  3

 90
        0
280
     0
281
     1
  0
CLASS
  1

  2
exOdDbPolyline
  3

 90
        0
280
     0
281
     1
  0
CLASS
  1
ACDBPLACEHOLDER
  2
AcDbPlaceHolder
  3
ObjectDBX Classes
 90
        0
280
     0
281
     0
  0
CLASS
  1
LAYOUT
  2
AcDbLayout
  3
ObjectDBX Classes
 90
        0
280
     0
281
     0
  0
ENDSEC
  0
SECTION
  2
TABLES
  0
TABLE
  2
VPORT
  5
8
330
0
100
AcDbSymbolTable
 70
     2
  0
VPORT
  5
29
330
8
100
AcDbSymbolTableRecord
100
AcDbViewportTableRecord
  2
*Active
 70
     0
 10
0.0
 20
0.0
 11
1.0
 21
1.0
 12
525.0
 22
742.5
 13
0.0
 23
0.0
 14
0.5
 24
0.5
 15
0.5
 25
0.5
 16
0.0
 26
0.0
 36
1.0
 17
0.0
 27
0.0
 37
0.0
 40
1633.5
 41
1.60267857142857
 42
50.0
 43
0.0
 44
0.0
 50
0.0
 51
0.0
 71
     0
 72
   100
 73
     1
 74
     3
 75
     0
 76
     0
 77
     0
 78
     0
281
     0
 65
     1
110
0.0
120
0.0
130
0.0
111
1.0
121
0.0
131
0.0
112
0.0
122
1.0
132
0.0
 79
     0
146
0.0
  0
ENDTAB
  0
TABLE
  2
LTYPE
  5
5
330
0
100
AcDbSymbolTable
 70
     8
  0
LTYPE
  5
14
330
5
100
AcDbSymbolTableRecord
100
AcDbLinetypeTableRecord
  2
ByBlock
 70
     0
  3

 72
    65
 73
     0
 40
0.0
  0
LTYPE
  5
15
330
5
100
AcDbSymbolTableRecord
100
AcDbLinetypeTableRecord
  2
ByLayer
 70
     0
  3

 72
    65
 73
     0
 40
0.0
  0
LTYPE
  5
16
330
5
100
AcDbSymbolTableRecord
100
AcDbLinetypeTableRecord
  2
Continuous
 70
     0
  3
Solid line
 72
    65
 73
     0
 40
0.0
  0
LTYPE
  5
2E
330
5
100
AcDbSymbolTableRecord
100
AcDbLinetypeTableRecord
  2
DASHED
 70
     0
  3
Dashed
 72
    65
 73
     2
 40
15.0
 49
7.0
 74
     0
 49
-8.0
 74
     0
  0
LTYPE
  5
2F
330
5
100
AcDbSymbolTableRecord
100
AcDbLinetypeTableRecord
  2
DOTTED
 70
     0
  3
Dotted
 72
    65
 73
     2
 40
1.0
 49
0.0
 74
     0
 49
-1.0
 74
     0
  0
LTYPE
  5
30
330
5
100
AcDbSymbolTableRecord
100
AcDbLinetypeTableRecord
  2
DOT_CENTER
 70
     0
  3
Dot_Center
 72
    65
 73
     4
 40
14.0
 49
12.0
 74
     0
 49
-1.0
 74
     0
 49
0.0
 74
     0
 49
-1.0
 74
     0
  0
LTYPE
  5
31
330
5
100
AcDbSymbolTableRecord
100
AcDbLinetypeTableRecord
  2
LONG_DASHED
 70
     0
  3
Long_Dashed
 72
    65
 73
     2
 40
15.0
 49
10.0
 74
     0
 49
-5.0
 74
     0
  0
LTYPE
  5
32
330
5
100
AcDbSymbolTableRecord
100
AcDbLinetypeTableRecord
  2
DASH_CENTER
 70
     0
  3
Dash_Center
 72
    65
 73
     4
 40
14.0
 49
11.0
 74
     0
 49
-1.0
 74
     0
 49
1.0
 74
     0
 49
-1.0
 74
     0
  0
LTYPE
  5
33
330
5
100
AcDbSymbolTableRecord
100
AcDbLinetypeTableRecord
  2
PHANTOM
 70
     0
  3
Phantom
 72
    65
 73
     6
 40
13.0
 49
10.0
 74
     0
 49
-1.0
 74
     0
 49
0.0
 74
     0
 49
-1.0
 74
     0
 49
0.0
 74
     0
 49
-1.0
 74
     0
  0
LTYPE
  5
34
330
5
100
AcDbSymbolTableRecord
100
AcDbLinetypeTableRecord
  2
CENTER_DASH_DASH
 70
     0
  3
Center_Dash_Dash
 72
    65
 73
     6
 40
14.0
 49
9.0
 74
     0
 49
-1.0
 74
     0
 49
1.0
 74
     0
 49
-1.0
 74
     0
 49
1.0
 74
     0
 49
-1.0
 74
     0
  0
ENDTAB
  0
TABLE
  2
LAYER
  5
2
330
0
100
AcDbSymbolTable
 70
     2
  0
LAYER
  5
10
330
2
100
AcDbSymbolTableRecord
100
AcDbLayerTableRecord
  2
0
 70
     0
 62
     7
  6
Continuous
370
    -3
390
F
  0
LAYER
  5
35
330
2
100
AcDbSymbolTableRecord
100
AcDbLayerTableRecord
  2
1
 70
     0
 62
     7
  6
Continuous
370
    -3
390
F
  0
ENDTAB
  0
TABLE
  2
STYLE
  5
3
330
0
100
AcDbSymbolTable
 70
     3
  0
STYLE
  5
11
330
3
100
AcDbSymbolTableRecord
100
AcDbTextStyleTableRecord
  2
Standard
 70
     0
 40
0.0
 41
1.0
 50
0.0
 71
     0
 42
0.2
  3
txt
  4

  0
STYLE
  5
180
330
3
100
AcDbSymbolTableRecord
100
AcDbTextStyleTableRecord
  2
CONVERTER_1
 70
     0
 40
0.0
 41
0.89
 50
0.0
 71
     0
 42
0.2
  3
msmincho.ttc
  4

1001
ACAD
1000
MS Mincho
1071
    32785
  0
STYLE
  5
3AA
330
3
100
AcDbSymbolTableRecord
100
AcDbTextStyleTableRecord
  2
CONVERTER_2
 70
     0
 40
0.0
 41
0.9
 50
0.0
 71
     0
 42
0.2
  3
txt.shx
  4

  0
ENDTAB
  0
TABLE
  2
VIEW
  5
6
330
0
100
AcDbSymbolTable
 70
     0
  0
ENDTAB
  0
TABLE
  2
UCS
  5
7
330
0
100
AcDbSymbolTable
 70
     0
  0
ENDTAB
  0
TABLE
  2
APPID
  5
9
330
0
100
AcDbSymbolTable
 70
     1
  0
APPID
  5
12
330
9
100
AcDbSymbolTableRecord
100
AcDbRegAppTableRecord
  2
ACAD
 70
     0
  0
ENDTAB
  0
TABLE
  2
DIMSTYLE
  5
A
330
0
100
AcDbSymbolTable
 70
    14
100
AcDbDimStyleTable
  0
DIMSTYLE
105
27
330
A
100
AcDbSymbolTableRecord
100
AcDbDimStyleTableRecord
  2
Standard
 70
     0
340
11
  0
DIMSTYLE
105
3C6
102
{ACAD_REACTORS
330
3C7
102
}
330
A
100
AcDbSymbolTableRecord
100
AcDbDimStyleTableRecord
  2
ME10_DIM_0
 70
     0
 41
17.5
 42
0.0
 44
5.0
 73
     0
 74
     0
 77
     1
 78
     8
140
17.5
147
0.625
172
     1
173
     1
176
     2
177
     2
178
     7
271
     2
340
3AA
  0
DIMSTYLE
105
3D1
102
{ACAD_REACTORS
330
3D2
102
}
330
A
100
AcDbSymbolTableRecord
100
AcDbDimStyleTableRecord
  2
ME10_DIM_1
 70
     0
 41
17.5
 42
0.0
 44
5.0
 73
     0
 74
     0
 77
     1
 78
     8
140
17.5
147
0.625
172
     1
173
     1
176
     2
177
     2
178
     7
271
     2
340
3AA
  0
DIMSTYLE
105
3DC
102
{ACAD_REACTORS
330
3DD
102
}
330
A
100
AcDbSymbolTableRecord
100
AcDbDimStyleTableRecord
  2
ME10_DIM_2
 70
     0
 41
17.5
 42
0.0
 44
5.0
 73
     0
 74
     0
 77
     1
 78
     8
140
17.5
147
0.625
172
     1
173
     1
176
     2
177
     2
178
     7
271
     2
340
3AA
  0
DIMSTYLE
105
3E7
102
{ACAD_REACTORS
330
3E8
102
}
330
A
100
AcDbSymbolTableRecord
100
AcDbDimStyleTableRecord
  2
ME10_DIM_3
 70
     0
 41
17.5
 42
0.0
 44
5.0
 73
     0
 74
     0
 77
     1
 78
     8
140
17.5
147
0.625
172
     1
173
     1
176
     2
177
     2
178
     7
271
     2
340
3AA
  0
DIMSTYLE
105
3F2
102
{ACAD_REACTORS
330
3F3
102
}
330
A
100
AcDbSymbolTableRecord
100
AcDbDimStyleTableRecord
  2
ME10_DIM_4
 70
     0
 41
17.5
 42
0.0
 44
5.0
 73
     0
 74
     0
 77
     1
 78
     8
140
17.5
147
0.625
172
     1
173
     1
176
     2
177
     2
178
     7
271
     2
340
3AA
  0
DIMSTYLE
105
3FF
102
{ACAD_REACTORS
330
400
102
}
330
A
100
AcDbSymbolTableRecord
100
AcDbDimStyleTableRecord
  2
ME10_DIM_5
 70
     0
 41
17.5
 42
0.0
 44
5.0
 73
     0
 74
     0
 77
     1
 78
     8
140
17.5
147
0.625
172
     1
173
     1
176
     2
177
     2
178
     7
271
     2
340
180
  0
DIMSTYLE
105
40A
102
{ACAD_REACTORS
330
40B
102
}
330
A
100
AcDbSymbolTableRecord
100
AcDbDimStyleTableRecord
  2
ME10_DIM_6
 70
     0
 41
17.5
 42
0.0
 44
5.0
 73
     0
 74
     0
 77
     1
 78
     8
140
17.5
147
0.625
172
     1
173
     1
176
     2
177
     2
178
     7
271
     2
340
3AA
  0
DIMSTYLE
105
415
102
{ACAD_REACTORS
330
416
102
}
330
A
100
AcDbSymbolTableRecord
100
AcDbDimStyleTableRecord
  2
ME10_DIM_7
 70
     0
 41
17.5
 42
0.0
 44
5.0
 73
     0
 74
     0
 77
     1
 78
     8
140
17.5
147
0.625
172
     1
173
     1
176
     2
177
     2
178
     7
271
     2
340
3AA
  0
DIMSTYLE
105
420
102
{ACAD_REACTORS
330
421
102
}
330
A
100
AcDbSymbolTableRecord
100
AcDbDimStyleTableRecord
  2
ME10_DIM_8
 70
     0
 41
17.5
 42
0.0
 44
5.0
 73
     0
 74
     0
 77
     1
 78
     8
140
17.5
147
0.625
172
     1
173
     1
176
     2
177
     2
178
     7
271
     2
340
3AA
  0
DIMSTYLE
105
42B
102
{ACAD_REACTORS
330
42C
102
}
330
A
100
AcDbSymbolTableRecord
100
AcDbDimStyleTableRecord
  2
ME10_DIM_9
 70
     0
 41
17.5
 42
0.0
 44
5.0
 73
     0
 74
     0
 77
     1
 78
     8
140
17.5
147
0.625
172
     1
173
     1
176
     2
177
     2
178
     7
271
     2
340
3AA
  0
DIMSTYLE
105
438
102
{ACAD_REACTORS
330
439
102
}
330
A
100
AcDbSymbolTableRecord
100
AcDbDimStyleTableRecord
  2
ME10_DIM_10
 70
     0
  3
最大<>
 41
17.5
 42
0.0
 44
5.0
 73
     0
 74
     0
 77
     1
 78
     8
140
17.5
147
0.625
172
     1
173
     1
176
     2
177
     2
178
     7
271
     2
340
180
  0
DIMSTYLE
105
443
102
{ACAD_REACTORS
330
444
102
}
330
A
100
AcDbSymbolTableRecord
100
AcDbDimStyleTableRecord
  2
ME10_DIM_11
 70
     0
  3
最小<>
 41
17.5
 42
0.0
 44
5.0
 73
     0
 74
     0
 77
     1
 78
     8
140
17.5
147
0.625
172
     1
173
     1
176
     2
177
     2
178
     7
271
     2
340
180
  0
DIMSTYLE
105
44E
102
{ACAD_REACTORS
330
44F
102
}
330
A
100
AcDbSymbolTableRecord
100
AcDbDimStyleTableRecord
  2
ME10_DIM_12
 70
     0
  3
最大<>
 41
17.5
 42
0.0
 44
5.0
 73
     0
 74
     0
 77
     1
 78
     8
140
17.5
147
0.625
172
     1
173
     1
176
     2
177
     2
178
     7
271
     2
340
180
  0
ENDTAB
  0
TABLE
  2
BLOCK_RECORD
  5
1
330
0
100
AcDbSymbolTable
 70
    39
  0
BLOCK_RECORD
  5
1F
330
1
100
AcDbSymbolTableRecord
100
AcDbBlockTableRecord
  2
*Model_Space
340
22
  0
BLOCK_RECORD
  5
1B
330
1
100
AcDbSymbolTableRecord
100
AcDbBlockTableRecord
  2
*Paper_Space
340
1E
  0
BLOCK_RECORD
  5
23
330
1
100
AcDbSymbolTableRecord
100
AcDbBlockTableRecord
  2
*Paper_Space0
340
26
  0
BLOCK_RECORD
  5
36
330
1
100
AcDbSymbolTableRecord
100
AcDbBlockTableRecord
  2
88-546-M21
340
0
102
{BLKREFS
331
85
102
}
  0
BLOCK_RECORD
  5
39
330
1
100
AcDbSymbolTableRecord
100
AcDbBlockTableRecord
  2
84-360A-M22
340
0
102
{BLKREFS
331
3D
102
}
  0
BLOCK_RECORD
  5
3C
330
1
100
AcDbSymbolTableRecord
100
AcDbBlockTableRecord
  2
87-163-M21__1
340
0
102
{BLKREFS
331
86
102
}
  0
BLOCK_RECORD
  5
40
330
1
100
AcDbSymbolTableRecord
100
AcDbBlockTableRecord
  2
87-163-M21__2
340
0
102
{BLKREFS
331
87
102
}
  0
BLOCK_RECORD
  5
43
330
1
100
AcDbSymbolTableRecord
100
AcDbBlockTableRecord
  2
84-360A-__F_
340
0
102
{BLKREFS
331
47
102
}
  0
BLOCK_RECORD
  5
46
330
1
100
AcDbSymbolTableRecord
100
AcDbBlockTableRecord
  2
87-163-__F_
340
0
102
{BLKREFS
331
88
102
}
  0
BLOCK_RECORD
  5
4A
330
1
100
AcDbSymbolTableRecord
100
AcDbBlockTableRecord
  2
_J__A4
340
0
102
{BLKREFS
331
89
102
}
  0
BLOCK_RECORD
  5
4D
330
1
100
AcDbSymbolTableRecord
100
AcDbBlockTableRecord
  2
35-217
340
0
102
{BLKREFS
331
51
102
}
  0
BLOCK_RECORD
  5
50
330
1
100
AcDbSymbolTableRecord
100
AcDbBlockTableRecord
  2
61-116
340
0
102
{BLKREFS
331
8A
102
}
  0
BLOCK_RECORD
  5
54
330
1
100
AcDbSymbolTableRecord
100
AcDbBlockTableRecord
  2
31-28
340
0
102
{BLKREFS
331
8B
102
}
  0
BLOCK_RECORD
  5
57
330
1
100
AcDbSymbolTableRecord
100
AcDbBlockTableRecord
  2
32-16__3
340
0
102
{BLKREFS
331
8C
102
}
  0
BLOCK_RECORD
  5
5A
330
1
100
AcDbSymbolTableRecord
100
AcDbBlockTableRecord
  2
73-1-21_5__4
340
0
102
{BLKREFS
331
8D
102
}
  0
BLOCK_RECORD
  5
5D
330
1
100
AcDbSymbolTableRecord
100
AcDbBlockTableRecord
  2
32-16__5
340
0
102
{BLKREFS
331
8E
102
}
  0
BLOCK_RECORD
  5
60
330
1
100
AcDbSymbolTableRecord
100
AcDbBlockTableRecord
  2
92-53__6
340
0
102
{BLKREFS
331
8F
102
}
  0
BLOCK_RECORD
  5
63
330
1
100
AcDbSymbolTableRecord
100
AcDbBlockTableRecord
  2
32-25__7
340
0
102
{BLKREFS
331
90
102
}
  0
BLOCK_RECORD
  5
66
330
1
100
AcDbSymbolTableRecord
100
AcDbBlockTableRecord
  2
73-1-21_5__8
340
0
102
{BLKREFS
331
91
102
}
  0
BLOCK_RECORD
  5
69
330
1
100
AcDbSymbolTableRecord
100
AcDbBlockTableRecord
  2
32-25__9
340
0
102
{BLKREFS
331
92
102
}
  0
BLOCK_RECORD
  5
6C
330
1
100
AcDbSymbolTableRecord
100
AcDbBlockTableRecord
  2
92-53__10
340
0
102
{BLKREFS
331
93
102
}
  0
BLOCK_RECORD
  5
6F
330
1
100
AcDbSymbolTableRecord
100
AcDbBlockTableRecord
  2
06-25__11
340
0
102
{BLKREFS
331
94
102
}
  0
BLOCK_RECORD
  5
72
330
1
100
AcDbSymbolTableRecord
100
AcDbBlockTableRecord
  2
06-25__12
340
0
102
{BLKREFS
331
95
102
}
  0
BLOCK_RECORD
  5
75
330
1
100
AcDbSymbolTableRecord
100
AcDbBlockTableRecord
  2
82-20-M21
340
0
102
{BLKREFS
331
79
102
}
  0
BLOCK_RECORD
  5
78
330
1
100
AcDbSymbolTableRecord
100
AcDbBlockTableRecord
  2
M281
340
0
102
{BLKREFS
331
96
102
}
  0
BLOCK_RECORD
  5
7C
330
1
100
AcDbSymbolTableRecord
100
AcDbBlockTableRecord
  2
98-119
340
0
102
{BLKREFS
331
97
102
}
  0
BLOCK_RECORD
  5
7F
330
1
100
AcDbSymbolTableRecord
100
AcDbBlockTableRecord
  2
50-13
340
0
102
{BLKREFS
331
98
102
}
  0
BLOCK_RECORD
  5
82
330
1
100
AcDbSymbolTableRecord
100
AcDbBlockTableRecord
  2
61-115
340
0
102
{BLKREFS
331
99
102
}
  0
BLOCK_RECORD
  5
3BB
330
1
100
AcDbSymbolTableRecord
100
AcDbBlockTableRecord
  2
*D026
340
0
  0
BLOCK_RECORD
  5
3C8
330
1
100
AcDbSymbolTableRecord
100
AcDbBlockTableRecord
  2
*D127
340
0
  0
BLOCK_RECORD
  5
3D3
330
1
100
AcDbSymbolTableRecord
100
AcDbBlockTableRecord
  2
*D228
340
0
  0
BLOCK_RECORD
  5
3DE
330
1
100
AcDbSymbolTableRecord
100
AcDbBlockTableRecord
  2
*D329
340
0
  0
BLOCK_RECORD
  5
3E9
330
1
100
AcDbSymbolTableRecord
100
AcDbBlockTableRecord
  2
*D430
340
0
  0
BLOCK_RECORD
  5
3F4
330
1
100
AcDbSymbolTableRecord
100
AcDbBlockTableRecord
  2
*D531
340
0
  0
BLOCK_RECORD
  5
401
330
1
100
AcDbSymbolTableRecord
100
AcDbBlockTableRecord
  2
*D632
340
0
  0
BLOCK_RECORD
  5
40C
330
1
100
AcDbSymbolTableRecord
100
AcDbBlockTableRecord
  2
*D733
340
0
  0
BLOCK_RECORD
  5
417
330
1
100
AcDbSymbolTableRecord
100
AcDbBlockTableRecord
  2
*D834
340
0
  0
BLOCK_RECORD
  5
422
330
1
100
AcDbSymbolTableRecord
100
AcDbBlockTableRecord
  2
*D935
340
0
  0
BLOCK_RECORD
  5
42D
330
1
100
AcDbSymbolTableRecord
100
AcDbBlockTableRecord
  2
*D1036
340
0
  0
BLOCK_RECORD
  5
43A
330
1
100
AcDbSymbolTableRecord
100
AcDbBlockTableRecord
  2
*D1137
340
0
  0
BLOCK_RECORD
  5
445
330
1
100
AcDbSymbolTableRecord
100
AcDbBlockTableRecord
  2
*D1238
340
0
  0
ENDTAB
  0
ENDSEC
  0
SECTION
  2
BLOCKS
  0
BLOCK
  5
20
330
1F
100
AcDbEntity
  8
0
100
AcDbBlockBegin
  2
*Model_Space
 70
     0
 71
     0
 10
0.0
 20
0.0
 30
0.0
  3
*Model_Space
  1

  0
ENDBLK
  5
21
330
1F
100
AcDbEntity
  8
0
100
AcDbBlockEnd
  0
BLOCK
  5
1C
330
1B
100
AcDbEntity
 67
     1
  8
0
100
AcDbBlockBegin
  2
*Paper_Space
 70
     0
 71
     0
 10
0.0
 20
0.0
 30
0.0
  3
*Paper_Space
  1

  0
ENDBLK
  5
1D
330
1B
100
AcDbEntity
 67
     1
  8
0
100
AcDbBlockEnd
  0
BLOCK
  5
24
330
23
100
AcDbEntity
  8
0
100
AcDbBlockBegin
  2
*Paper_Space0
 70
     0
 71
     0
 10
0.0
 20
0.0
 30
0.0
  3
*Paper_Space0
  1

  0
ENDBLK
  5
25
330
23
100
AcDbEntity
  8
0
100
AcDbBlockEnd
  0
BLOCK
  5
37
330
36
100
AcDbEntity
  8
0
100
AcDbBlockBegin
  2
88-546-M21
 70
     0
 71
     0
 10
1854.0
 20
375.1383810687153
 30
0.0
  3
88-546-M21
  1

  0
LINE
  5
9A
330
36
100
AcDbEntity
  8
1
  6
Continuous
 62
     7
100
AcDbLine
 10
303.7873649720041
 20
543.8362897557895
 30
0.0
 11
294.7873649720042
 21
543.8362897557895
 31
0.0
  0
LINE
  5
9B
330
36
100
AcDbEntity
  8
1
  6
Continuous
 62
     7
100
AcDbLine
 10
342.7873649720031
 20
543.8362897557895
 30
0.0
 11
333.7873649720042
 21
543.8362897557895
 31
0.0
  0
LINE
  5
9C
330
36
100
AcDbEntity
  8
1
  6
Continuous
 62
     7
100
AcDbLine
 10
342.7873649720031
 20
543.8362897557895
 30
0.0
 11
342.7873649720042
 21
573.8362897557895
 31
0.0
  0
LINE
  5
9D
330
36
100
AcDbEntity
  8
1
  6
Continuous
 62
     7
100
AcDbLine
 10
294.7873649720031
 20
573.8362897557895
 30
0.0
 11
294.7873649720042
 21
543.8362897557895
 31
0.0
  0
LINE
  5
9E
330
36
100
AcDbEntity
  8
1
  6
PHANTOM
 62
     4
100
AcDbLine
 10
318.7873649720031
 20
603.8362897557895
 30
0.0
 11
318.7873649720031
 21
540.8362897557895
 31
0.0
  0
LINE
  5
9F
330
36
100
AcDbEntity
  8
1
  6
PHANTOM
 62
     4
100
AcDbLine
 10
798.7873649720026
 20
603.8362897557895
 30
0.0
 11
798.7873649720026
 21
540.8362897557895
 31
0.0
  0
LINE
  5
A0
330
36
100
AcDbEntity
  8
1
  6
Continuous
 62
     7
100
AcDbLine
 10
774.7873649720026
 20
573.8362897557895
 30
0.0
 11
774.7873649720037
 21
543.8362897557895
 31
0.0
  0
LINE
  5
A1
330
36
100
AcDbEntity
  8
1
  6
Continuous
 62
     7
100
AcDbLine
 10
822.7873649720026
 20
543.8362897557895
 30
0.0
 11
822.7873649720037
 21
573.8362897557895
 31
0.0
  0
LINE
  5
A2
330
36
100
AcDbEntity
  8
1
  6
Continuous
 62
     7
100
AcDbLine
 10
822.7873649720026
 20
543.8362897557895
 30
0.0
 11
774.7873649720037
 21
543.8362897557895
 31
0.0
  0
ARC
  5
A3
330
36
100
AcDbEntity
  8
1
  6
Continuous
 62
     7
100
AcDbCircle
 10
283.4604418950802
 20
573.8362897557896
 30
0.0
 40
59.326923076924
100
AcDbArc
 50
-0.00000000000011
 51
17.96646499934018
  0
ARC
  5
A4
330
36
100
AcDbEntity
  8
1
  6
Continuous
 62
     7
100
AcDbCircle
 10
354.1142880489271
 20
573.8362897557896
 30
0.0
 40
59.326923076924
100
AcDbArc
 50
162.0335350006596
 51
-179.9999999999999
  0
ARC
  5
A5
330
36
100
AcDbEntity
  8
1
  6
Continuous
 62
     7
100
AcDbCircle
 10
763.4604418950797
 20
573.8362897557896
 30
0.0
 40
59.326923076924
100
AcDbArc
 50
-0.00000000000011
 51
21.55878422828509
  0
ARC
  5
A6
330
36
100
AcDbEntity
  8
1
  6
Continuous
 62
     7
100
AcDbCircle
 10
834.1142880489266
 20
573.8362897557896
 30
0.0
 40
59.32692307692395
100
AcDbArc
 50
162.0335350006596
 51
-179.9999999999999
  0
ENDBLK
  5
38
330
36
100
AcDbEntity
  8
0
100
AcDbBlockEnd
  0
BLOCK
  5
3A
330
39
100
AcDbEntity
  8
0
100
AcDbBlockBegin
  2
84-360A-M22
 70
     0
 71
     0
 10
1472.209117938342
 20
765.2524739304342
 30
0.0
  3
84-360A-M22
  1

  0
LINE
  5
A7
330
39
100
AcDbEntity
  8
1
  6
Continuous
 62
     7
100
AcDbLine
 10
334.1683821439643
 20
1209.103338251519
 30
0.0
 11
333.654723908303
 21
1208.803128186005
 31
0.0
  0
LINE
  5
A8
102
{ACAD_REACTORS
330
BF
330
BF
102
}
330
39
100
AcDbEntity
  8
1
  6
Continuous
 62
     7
100
AcDbLine
 10
334.7164857930321
 20
1238.902688661719
 30
0.0
 11
336.7252311136168
 21
1237.303128186004
 31
0.0
  0
LINE
  5
A9
330
39
100
AcDbEntity
  8
1
  6
Continuous
 62
     7
100
AcDbLine
 10
303.4242264751616
 20
1209.103338251519
 30
0.0
 11
303.9378847108224
 21
1208.803128186005
 31
0.0
  0
LINE
  5
AA
102
{ACAD_REACTORS
330
BE
330
BE
102
}
330
39
100
AcDbEntity
  8
1
  6
Continuous
 62
     7
100
AcDbLine
 10
302.8761228260938
 20
1238.902688661719
 30
0.0
 11
300.8673775055091
 21
1237.303128186004
 31
0.0
  0
LINE
  5
AB
102
{ACAD_REACTORS
330
BF
330
BF
102
}
330
39
100
AcDbEntity
  8
1
  6
Continuous
 62
     7
100
AcDbLine
 10
336.2212179802844
 20
1210.303128186004
 30
0.0
 11
334.1683821439643
 21
1209.103338251519
 31
0.0
  0
LINE
  5
AC
330
39
100
AcDbEntity
  8
1
  6
Continuous
 62
     7
100
AcDbLine
 10
334.2136095137044
 20
1239.303128186005
 30
0.0
 11
334.7164857930321
 21
1238.902688661719
 31
0.0
  0
LINE
  5
AD
102
{ACAD_REACTORS
330
BE
330
BE
102
}
330
39
100
AcDbEntity
  8
1
  6
Continuous
 62
     7
100
AcDbLine
 10
301.3713906388412
 20
1210.303128186005
 30
0.0
 11
303.4242264751616
 21
1209.103338251519
 31
0.0
  0
LINE
  5
AE
330
39
100
AcDbEntity
  8
1
  6
Continuous
 62
     7
100
AcDbLine
 10
303.378999105421
 20
1239.303128186005
 30
0.0
 11
302.8761228260938
 21
1238.902688661719
 31
0.0
  0
ARC
  5
AF
102
{ACAD_REACTORS
330
BF
330
BF
102
}
330
39
100
AcDbEntity
  8
1
  6
Continuous
 62
     7
100
AcDbCircle
 10
-256.6851334087999
 20
1234.875706058435
 30
0.0
 40
591.4153293443075
100
AcDbArc
 50
-2.49759447786897
 51
0.39013342878283
  0
ARC
  5
B0
102
{ACAD_REACTORS
330
BE
330
BE
102
}
330
39
100
AcDbEntity
  8
1
  6
Continuous
 62
     7
100
AcDbCircle
 10
894.277742027925
 20
1234.875706058435
 30
0.0
 40
591.4153293443068
100
AcDbArc
 50
179.6098665712172
 51
-177.502405522131
  0
ARC
  5
B1
330
39
100
AcDbEntity
  8
1
  6
Continuous
 62
     7
100
AcDbCircle
 10
318.7963043095625
 20
1238.303128186005
 30
0.0
 40
45.00000000000122
100
AcDbArc
 50
-108.2947052080017
 51
-71.70529479199779
  0
ARC
  5
B2
330
39
100
AcDbEntity
  8
1
  6
Continuous
 62
     7
100
AcDbCircle
 10
-256.6851334087999
 20
1234.875706058435
 30
0.0
 40
590.915329344307
100
AcDbArc
 50
-2.64851804730885
 51
-2.52884588327043
  0
ARC
  5
B3
330
39
100
AcDbEntity
  8
1
  6
Continuous
 62
     7
100
AcDbCircle
 10
-256.6851334087999
 20
1234.875706058435
 30
0.0
 40
590.9153293443076
100
AcDbArc
 50
-2.52884588327043
 51
0.42929158021493
  0
ARC
  5
B4
330
39
100
AcDbEntity
  8
1
  6
Continuous
 62
     7
100
AcDbCircle
 10
894.277742027925
 20
1234.875706058435
 30
0.0
 40
590.9153293443073
100
AcDbArc
 50
179.5707084197851
 51
-177.4711541167296
  0
ARC
  5
B5
330
39
100
AcDbEntity
  8
1
  6
Continuous
 62
     7
100
AcDbCircle
 10
894.277742027925
 20
1234.875706058435
 30
0.0
 40
590.9153293443071
100
AcDbArc
 50
177.2239373385471
 51
179.5707084197851
  0
ARC
  5
B6
102
{ACAD_REACTORS
330
BE
330
BE
102
}
330
39
100
AcDbEntity
  8
1
  6
Continuous
 62
     7
100
AcDbCircle
 10
894.277742027925
 20
1234.875706058435
 30
0.0
 40
593.4153293443067
100
AcDbArc
 50
179.7656254835274
 51
-177.6267757220829
  0
ARC
  5
B7
102
{ACAD_REACTORS
330
BF
330
BF
102
}
330
39
100
AcDbEntity
  8
1
  6
Continuous
 62
     7
100
AcDbCircle
 10
-256.6851334087999
 20
1234.875706058435
 30
0.0
 40
593.4153293443076
100
AcDbArc
 50
-2.37322427791725
 51
0.23437451647258
  0
ARC
  5
B8
330
39
100
AcDbEntity
  8
1
  6
Continuous
 62
     7
100
AcDbCircle
 10
-256.6851334087999
 20
1234.875706058435
 30
0.0
 40
590.9153293443076
100
AcDbArc
 50
0.42929158021493
 51
2.77606266145281
  0
ARC
  5
B9
330
39
100
AcDbEntity
  8
1
  6
Continuous
 62
     7
100
AcDbCircle
 10
-256.6851334087999
 20
1234.875706058435
 30
0.0
 40
590.9153293443076
100
AcDbArc
 50
-3.81319314609997
 51
-2.64851804730885
  0
ARC
  5
BA
330
39
100
AcDbEntity
  8
1
  6
Continuous
 62
     7
100
AcDbCircle
 10
894.277742027925
 20
1234.875706058435
 30
0.0
 40
590.9153293443071
100
AcDbArc
 50
-177.4711541167296
 51
-177.3514819526912
  0
ARC
  5
BB
330
39
100
AcDbEntity
  8
1
  6
Continuous
 62
     7
100
AcDbCircle
 10
318.7963043095629
 20
1243.303128186005
 30
0.0
 40
24.99999999999919
100
AcDbArc
 50
53.8701568634348
 51
126.1298431365653
  0
ARC
  5
BC
330
39
100
AcDbEntity
  8
1
  6
Continuous
 62
     7
100
AcDbCircle
 10
894.277742027925
 20
1234.875706058435
 30
0.0
 40
590.915329344307
100
AcDbArc
 50
-177.3514819526912
 51
-176.1868068539
  0
ARC
  5
BD
330
39
100
AcDbEntity
  8
1
  6
Continuous
 62
     7
100
AcDbCircle
 10
318.7963043095625
 20
1250.065815317921
 30
0.0
 40
45.00000000000081
100
AcDbArc
 50
-109.2049558336897
 51
-70.79504416631028
  0
HATCH
  5
BE
330
39
100
AcDbEntity
  8
1
  6
Continuous
 62
     2
100
AcDbHatch
 10
0.0
 20
0.0
 30
0.0
210
0.0
220
0.0
230
1.0
  2
CUSTOM0
 70
     0
 71
     1
 91
        1
 92
        1
 93
        4
 72
     2
 10
894.277742027925
 20
1234.875706058435
 40
593.4153293443067
 50
179.7656254835274
 51
182.3732242779171
 73
     1
 72
     1
 10
301.3713906388412
 20
1210.303128186005
 11
303.4242264751616
 21
1209.103338251519
 72
     2
 10
894.277742027925
 20
1234.875706058435
 40
591.4153293443068
 50
177.502405522131
 51
180.3901334287829
 73
     0
 72
     1
 10
302.8761228260938
 20
1238.902688661719
 11
300.8673775055091
 21
1237.303128186004
 97
        4
330
B6
330
AD
330
B0
330
AA
 75
     1
 76
     2
 52
45.0
 41
0.5
 77
     0
 78
     1
 53
45.0
 43
0.0
 44
0.0
 45
-1.414213562373095
 46
0.0000000000000001
 79
     0
 98
        1
 10
0.0
 20
0.0
  0
HATCH
  5
BF
330
39
100
AcDbEntity
  8
1
  6
Continuous
 62
     2
100
AcDbHatch
 10
0.0
 20
0.0
 30
0.0
210
0.0
220
0.0
230
1.0
  2
CUSTOM1
 70
     0
 71
     1
 91
        1
 92
        1
 93
        4
 72
     2
 10
-256.6851334087999
 20
1234.875706058435
 40
593.4153293443076
 50
359.7656254835274
 51
362.3732242779173
 73
     0
 72
     1
 10
336.2212179802844
 20
1210.303128186004
 11
334.1683821439643
 21
1209.103338251519
 72
     2
 10
-256.6851334087999
 20
1234.875706058435
 40
591.4153293443075
 50
357.502405522131
 51
360.3901334287828
 73
     1
 72
     1
 10
334.7164857930321
 20
1238.902688661719
 11
336.7252311136168
 21
1237.303128186004
 97
        4
330
AF
330
AB
330
B7
330
A8
 75
     1
 76
     2
 52
45.0
 41
0.5
 77
     0
 78
     1
 53
45.0
 43
0.0
 44
0.0
 45
-1.414213562373095
 46
0.0000000000000001
 79
     0
 98
        1
 10
0.0
 20
0.0
  0
ENDBLK
  5
3B
330
39
100
AcDbEntity
  8
0
100
AcDbBlockEnd
  0
BLOCK
  5
3E
330
3C
100
AcDbEntity
  8
0
100
AcDbBlockBegin
  2
87-163-M21__1
 70
     0
 71
     0
 10
4289.914153234306
 20
5230.4099997565
 30
0.0
  3
87-163-M21__1
  1

  0
INSERT
  5
3D
330
3C
100
AcDbEntity
  8
1
100
AcDbBlockReference
  2
84-360A-M22
 10
1472.209117938342
 20
765.2524739304342
 30
0.0
  0
LINE
  5
C0
330
3C
100
AcDbEntity
  8
1
  6
Continuous
 62
     7
100
AcDbLine
 10
336.9752332043841
 20
1237.303128186005
 30
0.0
 11
334.4636165281916
 21
1239.303128186005
 31
0.0
  0
LINE
  5
C1
330
3C
100
AcDbEntity
  8
1
  6
Continuous
 62
     7
100
AcDbLine
 10
336.4714325012374
 20
1210.303128186005
 30
0.0
 11
333.9049675087909
 21
1208.803128186005
 31
0.0
  0
LINE
  5
C2
330
3C
100
AcDbEntity
  8
1
  6
Continuous
 62
     7
100
AcDbLine
 10
301.1211761178884
 20
1210.303128186005
 30
0.0
 11
303.6876411103348
 21
1208.803128186005
 31
0.0
  0
LINE
  5
C3
330
3C
100
AcDbEntity
  8
1
  6
Continuous
 62
     7
100
AcDbLine
 10
303.128992090934
 20
1239.303128186005
 30
0.0
 11
300.6173754147413
 21
1237.303128186005
 31
0.0
  0
ARC
  5
C4
330
3C
100
AcDbEntity
  8
1
  6
PHANTOM
 62
     5
100
AcDbCircle
 10
376.7790603668596
 20
1185.32037212871
 30
0.0
 40
18.00000000000132
100
AcDbArc
 50
-127.7145265157884
 51
0.0
  0
ARC
  5
C5
330
3C
100
AcDbEntity
  8
1
  6
PHANTOM
 62
     5
100
AcDbCircle
 10
260.8135482522658
 20
1185.32037212871
 30
0.0
 40
17.99999999999893
100
AcDbArc
 50
142.2854734842128
 51
180.0
  0
ARC
  5
C6
330
3C
100
AcDbEntity
  8
1
  6
PHANTOM
 62
     5
100
AcDbCircle
 10
-94.08961008240118
 20
1644.270867909317
 30
0.0
 40
591.1653293443076
100
AcDbArc
 50
-52.05485973262191
 51
-49.00455263677872
  0
ARC
  5
C7
330
3C
100
AcDbEntity
  8
1
  6
PHANTOM
 62
     5
100
AcDbCircle
 10
719.7640440328747
 20
830.4172137940413
 30
0.0
 40
591.1653293443087
100
AcDbArc
 50
142.0548597326217
 51
142.2854734842087
  0
ARC
  5
C8
330
3C
100
AcDbEntity
  8
1
  6
PHANTOM
 62
     5
100
AcDbCircle
 10
260.8135482522658
 20
1185.32037212871
 30
0.0
 40
10.99999999999881
100
AcDbArc
 50
142.2854734842156
 51
-52.28547348421056
  0
ARC
  5
C9
330
3C
100
AcDbEntity
  8
1
  6
PHANTOM
 62
     5
100
AcDbCircle
 10
260.8135482522658
 20
1185.32037212871
 30
0.0
 40
18.00000000000117
100
AcDbArc
 50
180.0
 51
-52.28547348421205
  0
ARC
  5
CA
330
3C
100
AcDbEntity
  8
1
  6
PHANTOM
 62
     5
100
AcDbCircle
 10
265.4097423299796
 20
1189.916566206422
 30
0.0
 40
12.5000000000001
100
AcDbArc
 50
161.2782275840331
 51
-71.2782275840451
  0
ARC
  5
CB
330
3C
100
AcDbEntity
  8
1
  6
PHANTOM
 62
     5
100
AcDbCircle
 10
-94.08961008240118
 20
1644.270867909317
 30
0.0
 40
591.165329344307
100
AcDbArc
 50
-52.28547348420858
 51
-52.05485973262191
  0
ARC
  5
CC
330
3C
100
AcDbEntity
  8
1
  6
PHANTOM
 62
     5
100
AcDbCircle
 10
1037.642779612781
 20
584.6038455507965
 30
0.0
 40
1000.000000000001
100
AcDbArc
 50
138.3405795102228
 51
142.2854734842087
  0
ARC
  5
CD
330
3C
100
AcDbEntity
  8
1
  6
PHANTOM
 62
     5
100
AcDbCircle
 10
719.7640440328747
 20
830.4172137940413
 30
0.0
 40
591.1653293443069
100
AcDbArc
 50
138.8032659793443
 51
142.0548597326217
  0
ARC
  5
CE
330
3C
100
AcDbEntity
  8
1
  6
PHANTOM
 62
     5
100
AcDbCircle
 10
315.2607704036296
 20
1239.767594280072
 30
0.0
 40
44.99999999999992
100
AcDbArc
 50
-153.6386848085107
 51
-118.8957749554333
  0
ARC
  5
CF
330
3C
100
AcDbEntity
  8
1
  6
PHANTOM
 62
     5
100
AcDbCircle
 10
-339.9029783256434
 20
1962.149603489222
 30
0.0
 40
999.999999999997
100
AcDbArc
 50
-52.28547348420878
 51
-50.62158374272966
  0
ARC
  5
D0
330
3C
100
AcDbEntity
  8
1
  6
PHANTOM
 62
     5
100
AcDbCircle
 10
322.3318382154958
 20
1239.767594280072
 30
0.0
 40
45.00000000000033
100
AcDbArc
 50
-61.1042250445661
 51
-26.36131519148821
  0
ARC
  5
D1
330
3C
100
AcDbEntity
  8
1
  6
PHANTOM
 62
     5
100
AcDbCircle
 10
731.682218701526
 20
1644.270867909317
 30
0.0
 40
591.1653293443059
100
AcDbArc
 50
-130.9954473632213
 51
-127.9451402673781
  0
ARC
  5
D2
330
3C
100
AcDbEntity
  8
1
  6
PHANTOM
 62
     5
100
AcDbCircle
 10
-82.17143541374963
 20
830.4172137940413
 30
0.0
 40
591.1653293443068
100
AcDbArc
 50
37.94514026737798
 51
41.19673402065569
  0
ARC
  5
D3
330
3C
100
AcDbEntity
  8
1
  6
PHANTOM
 62
     5
100
AcDbCircle
 10
-82.17143541374963
 20
830.4172137940413
 30
0.0
 40
591.1653293443075
100
AcDbArc
 50
37.71452651579132
 51
37.94514026737798
  0
ARC
  5
D4
330
3C
100
AcDbEntity
  8
1
  6
PHANTOM
 62
     5
100
AcDbCircle
 10
372.1828662891458
 20
1189.916566206422
 30
0.0
 40
12.4999999999998
100
AcDbArc
 50
-108.7217724159564
 51
18.7217724159499
  0
ARC
  5
D5
330
3C
100
AcDbEntity
  8
1
  6
PHANTOM
 62
     5
100
AcDbCircle
 10
376.7790603668596
 20
1185.32037212871
 30
0.0
 40
17.99999999999881
100
AcDbArc
 50
0.0
 51
37.71452651578749
  0
ARC
  5
D6
330
3C
100
AcDbEntity
  8
1
  6
PHANTOM
 62
     5
100
AcDbCircle
 10
376.7790603668596
 20
1185.32037212871
 30
0.0
 40
11.00000000000128
100
AcDbArc
 50
-127.7145265157894
 51
37.7145265157837
  0
ARC
  5
D7
330
3C
100
AcDbEntity
  8
1
  6
PHANTOM
 62
     5
100
AcDbCircle
 10
731.682218701526
 20
1644.270867909317
 30
0.0
 40
591.1653293443075
100
AcDbArc
 50
-127.9451402673781
 51
-127.7145265157914
  0
ARC
  5
D8
330
3C
100
AcDbEntity
  8
1
  6
PHANTOM
 62
     5
100
AcDbCircle
 10
-400.0501709936525
 20
584.6038455507996
 30
0.0
 40
999.9999999999953
100
AcDbArc
 50
37.71452651579127
 51
41.65942048977718
  0
ARC
  5
D9
330
3C
100
AcDbEntity
  8
1
  6
PHANTOM
 62
     5
100
AcDbCircle
 10
977.4955869447718
 20
1962.149603489223
 30
0.0
 40
1000.000000000001
100
AcDbArc
 50
-129.3784162572704
 51
-127.7145265157914
  0
ARC
  5
DA
330
3C
100
AcDbEntity
  8
1
  6
Continuous
 62
     7
100
AcDbCircle
 10
318.7963043095629
 20
1243.303128186005
 30
0.0
 40
25.00000000000049
100
AcDbArc
 50
53.13010235415796
 51
53.87015686343757
  0
ARC
  5
DB
330
3C
100
AcDbEntity
  8
1
  6
Continuous
 62
     7
100
AcDbCircle
 10
894.277742027925
 20
1234.875706058437
 30
0.0
 40
593.6653293443075
100
AcDbArc
 50
179.7657241821593
 51
-177.6277756885001
  0
ARC
  5
DC
330
3C
100
AcDbEntity
  8
1
  6
Continuous
 62
     7
100
AcDbCircle
 10
-256.6851334087999
 20
1234.875706058437
 30
0.0
 40
591.1653293443075
100
AcDbArc
 50
0.42911003218275
 51
2.75625041500957
  0
ARC
  5
DD
330
3C
100
AcDbEntity
  8
1
  6
Continuous
 62
     7
100
AcDbCircle
 10
894.277742027925
 20
1234.875706058437
 30
0.0
 40
591.1653293443075
100
AcDbArc
 50
-172.945140267378
 51
-172.7145265157913
  0
ARC
  5
DE
330
3C
100
AcDbEntity
  8
1
  6
Continuous
 62
     7
100
AcDbCircle
 10
318.7963043095629
 20
1161.303128186005
 30
0.0
 40
11.00000000000048
100
AcDbArc
 50
-172.7145265157922
 51
-7.285473484208
  0
ARC
  5
DF
330
3C
100
AcDbEntity
  8
1
  6
Continuous
 62
     7
100
AcDbCircle
 10
318.7963043095629
 20
1243.303128186005
 30
0.0
 40
25.00000000000097
100
AcDbArc
 50
126.8698976458435
 51
-177.4999067616171
  0
ARC
  5
E0
330
3C
100
AcDbEntity
  8
1
  6
Continuous
 62
     7
100
AcDbCircle
 10
318.7963043095629
 20
1238.303128186005
 30
0.0
 40
45.00000000000031
100
AcDbArc
 50
-108.6386848085116
 51
-71.36131519148931
  0
ARC
  5
E1
330
3C
100
AcDbEntity
  8
1
  6
Continuous
 62
     7
100
AcDbCircle
 10
318.7963043095629
 20
1161.303128186005
 30
0.0
 40
18.00000000000036
100
AcDbArc
 50
-172.7145265157911
 51
-7.28547348420904
  0
ARC
  5
E2
330
3C
100
AcDbEntity
  8
1
  6
Continuous
 62
     7
100
AcDbCircle
 10
318.7963043095629
 20
1167.803128186008
 30
0.0
 40
12.50000000000044
100
AcDbArc
 50
-153.7217724159508
 51
-26.27822758405011
  0
ARC
  5
E3
330
3C
100
AcDbEntity
  8
1
  6
Continuous
 62
     7
100
AcDbCircle
 10
1292.868251142588
 20
1285.833615990889
 30
0.0
 40
1000.000000000001
100
AcDbArc
 50
-177.4999067616165
 51
-172.7145265157913
  0
ARC
  5
E4
330
3C
100
AcDbEntity
  8
1
  6
Continuous
 62
     7
100
AcDbCircle
 10
-655.2756425234572
 20
1285.833615990889
 30
0.0
 40
999.9999999999961
100
AcDbArc
 50
-7.28547348420878
 51
-2.50009323838348
  0
ARC
  5
E5
330
3C
100
AcDbEntity
  8
1
  6
Continuous
 62
     7
100
AcDbCircle
 10
894.277742027925
 20
1234.875706058437
 30
0.0
 40
591.1653293443073
100
AcDbArc
 50
177.2437495849904
 51
179.5708899678172
  0
ARC
  5
E6
330
3C
100
AcDbEntity
  8
1
  6
Continuous
 62
     7
100
AcDbCircle
 10
318.7963043095629
 20
1243.303128186005
 30
0.0
 40
25.00000000000043
100
AcDbArc
 50
-2.50009323838299
 51
53.13010235415796
  0
ARC
  5
E7
330
3C
100
AcDbEntity
  8
1
  6
Continuous
 62
     7
100
AcDbCircle
 10
318.7963043095629
 20
1243.303128186005
 30
0.0
 40
25.00000000000151
100
AcDbArc
 50
126.1298431365646
 51
126.8698976458435
  0
ARC
  5
E8
330
3C
100
AcDbEntity
  8
1
  6
Continuous
 62
     7
100
AcDbCircle
 10
894.277742027925
 20
1234.875706058437
 30
0.0
 40
591.1653293443075
100
AcDbArc
 50
-177.4722242438573
 51
-176.1967340206556
  0
ARC
  5
E9
330
3C
100
AcDbEntity
  8
1
  6
Continuous
 62
     7
100
AcDbCircle
 10
894.277742027925
 20
1234.875706058437
 30
0.0
 40
591.1653293443075
100
AcDbArc
 50
-176.1967340206556
 51
-172.945140267378
  0
ARC
  5
EA
330
3C
100
AcDbEntity
  8
1
  6
Continuous
 62
     7
100
AcDbCircle
 10
-256.6851334087999
 20
1234.875706058437
 30
0.0
 40
591.1653293443075
100
AcDbArc
 50
-3.80326597934441
 51
-2.52777575614273
  0
ARC
  5
EB
330
3C
100
AcDbEntity
  8
1
  6
Continuous
 62
     7
100
AcDbCircle
 10
-256.6851334087999
 20
1234.875706058437
 30
0.0
 40
591.1653293443078
100
AcDbArc
 50
-7.05485973262203
 51
-3.80326597934441
  0
ARC
  5
EC
330
3C
100
AcDbEntity
  8
1
  6
Continuous
 62
     7
100
AcDbCircle
 10
-256.6851334087999
 20
1234.875706058437
 30
0.0
 40
591.1653293443079
100
AcDbArc
 50
-7.28547348420875
 51
-7.05485973262203
  0
ARC
  5
ED
330
3C
100
AcDbEntity
  8
1
  6
Continuous
 62
     7
100
AcDbCircle
 10
-256.6851334087999
 20
1234.875706058437
 30
0.0
 40
593.6653293443076
100
AcDbArc
 50
-2.37222431149995
 51
0.23427581784075
  0
ENDBLK
  5
3F
330
3C
100
AcDbEntity
  8
0
100
AcDbBlockEnd
  0
BLOCK
  5
41
330
40
100
AcDbEntity
  8
0
100
AcDbBlockBegin
  2
87-163-M21__2
 70
     0
 71
     0
 10
1238.0
 20
3141.888381068716
 30
0.0
  3
87-163-M21__2
  1

  0
LINE
  5
EE
330
40
100
AcDbEntity
  8
1
  6
Continuous
 62
     7
100
AcDbLine
 10
303.7873649720066
 20
592.1362897557897
 30
0.0
 11
294.2873649720041
 21
592.1362897557897
 31
0.0
  0
LINE
  5
EF
330
40
100
AcDbEntity
  8
1
  6
Continuous
 62
     7
100
AcDbLine
 10
343.2873649720041
 20
592.1362897557897
 30
0.0
 11
333.7873649720068
 21
592.1362897557897
 31
0.0
  0
LINE
  5
F0
330
40
100
AcDbEntity
  8
1
  6
Continuous
 62
     7
100
AcDbLine
 10
343.7873649720041
 20
592.6362897557897
 30
0.0
 11
343.7873649720041
 21
614.1362897557897
 31
0.0
  0
LINE
  5
F1
330
40
100
AcDbEntity
  8
1
  6
Continuous
 62
     7
100
AcDbLine
 10
293.7873649720041
 20
614.1362897557897
 30
0.0
 11
293.7873649720041
 21
592.6362897557897
 31
0.0
  0
ARC
  5
F2
330
40
100
AcDbEntity
  8
1
  6
Continuous
 62
     7
100
AcDbCircle
 10
253.7873649720041
 20
614.1362897557897
 30
0.0
 40
90.00000000000003
100
AcDbArc
 50
0.0
 51
19.81251447871881
  0
ARC
  5
F3
330
40
100
AcDbEntity
  8
1
  6
Continuous
 62
     7
100
AcDbCircle
 10
383.7873649720041
 20
614.1362897557897
 30
0.0
 40
89.99999999999986
100
AcDbArc
 50
160.1874855212812
 51
180.0
  0
ARC
  5
F4
330
40
100
AcDbEntity
  8
1
  6
Continuous
 62
     7
100
AcDbCircle
 10
329.0519057529618
 20
641.2517632171098
 30
0.0
 40
9.999999999999808
100
AcDbArc
 50
19.81251447871854
 51
56.47542937283043
  0
ARC
  5
F5
330
40
100
AcDbEntity
  8
1
  6
Continuous
 62
     7
100
AcDbCircle
 10
308.5228241910465
 20
641.2517632171098
 30
0.0
 40
9.999999999999851
100
AcDbArc
 50
123.5245706271678
 51
160.1874855212817
  0
ARC
  5
F6
330
40
100
AcDbEntity
  8
1
  6
Continuous
 62
     7
100
AcDbCircle
 10
343.2873649720041
 20
592.6362897557897
 30
0.0
 40
0.5
100
AcDbArc
 50
-90.0
 51
0.0
  0
ARC
  5
F7
330
40
100
AcDbEntity
  8
1
  6
Continuous
 62
     7
100
AcDbCircle
 10
294.2873649720041
 20
592.6362897557897
 30
0.0
 40
0.5
100
AcDbArc
 50
180.0
 51
-90.0
  0
ENDBLK
  5
42
330
40
100
AcDbEntity
  8
0
100
AcDbBlockEnd
  0
BLOCK
  5
44
330
43
100
AcDbEntity
  8
0
100
AcDbBlockBegin
  2
84-360A-__F_
 70
     0
 71
     0
 10
628.7873649720003
 20
482.1362897557899
 30
0.0
  3
84-360A-__F_
  1

  0
LINE
  5
F8
330
43
100
AcDbEntity
  8
1
  6
PHANTOM
 62
     5
100
AcDbLine
 10
787.964537505556
 20
654.8038515984742
 30
0.0
 11
785.6631978210224
 21
654.602510465156
 31
0.0
  0
LINE
  5
F9
330
43
100
AcDbEntity
  8
1
  6
PHANTOM
 62
     5
100
AcDbLine
 10
829.7283775780342
 20
594.7344658381896
 30
0.0
 11
829.3057593162938
 21
593.8281580511537
 31
0.0
  0
LINE
  5
FA
330
43
100
AcDbEntity
  8
1
  6
Continuous
 62
     7
100
AcDbLine
 10
760.5500521039156
 20
643.9274803377946
 30
0.0
 11
763.0543956507275
 21
641.3378198966582
 31
0.0
  0
LINE
  5
FB
330
43
100
AcDbEntity
  8
1
  6
Continuous
 62
     7
100
AcDbLine
 10
794.7873649720003
 20
628.0210104219229
 30
0.0
 11
792.7873649720003
 21
628.5362897557905
 31
0.0
  0
LINE
  5
FC
330
43
100
AcDbEntity
  8
1
  6
Continuous
 62
     7
100
AcDbLine
 10
765.7873649720003
 20
639.940689859706
 30
0.0
 11
764.2873649720003
 21
640.9264981453732
 31
0.0
  0
LINE
  5
FD
330
43
100
AcDbEntity
  8
1
  6
Continuous
 62
     7
100
AcDbLine
 10
760.5500521039156
 20
643.9274803377946
 30
0.0
 11
758.5494204669861
 21
642.772415123665
 31
0.0
  0
LINE
  5
FE
102
{ACAD_REACTORS
330
111
330
111
102
}
330
43
100
AcDbEntity
  8
1
  6
Continuous
 62
     7
100
AcDbLine
 10
765.7873649720003
 20
639.940689859706
 30
0.0
 11
764.2873649720003
 21
640.9264981453732
 31
0.0
  0
LINE
  5
FF
102
{ACAD_REACTORS
330
111
330
111
102
}
330
43
100
AcDbEntity
  8
1
  6
Continuous
 62
     7
100
AcDbLine
 10
794.7873649720003
 20
628.0210104219229
 30
0.0
 11
792.7873649720003
 21
628.5362897557905
 31
0.0
  0
LINE
  5
100
330
43
100
AcDbEntity
  8
1
  6
PHANTOM
 62
     4
100
AcDbLine
 10
798.7873649720003
 20
631.1820513358405
 30
0.0
 11
798.7873649720003
 21
589.1362897557899
 31
0.0
  0
LINE
  5
101
330
43
100
AcDbEntity
  8
1
  6
Continuous
 62
     7
100
AcDbLine
 10
823.7873649720003
 20
607.1362897557899
 30
0.0
 11
823.7873649720003
 21
606.1362897557899
 31
0.0
  0
LINE
  5
102
330
43
100
AcDbEntity
  8
1
  6
Continuous
 62
     7
100
AcDbLine
 10
823.7873649720003
 20
606.1362897557899
 30
0.0
 11
820.8077993681508
 21
606.1362897557899
 31
0.0
  0
ARC
  5
103
330
43
100
AcDbEntity
  8
1
  6
PHANTOM
 62
     5
100
AcDbCircle
 10
820.6652997076679
 20
598.9606484555968
 30
0.0
 40
9.999999999999819
100
AcDbArc
 50
-25.00000000000163
 51
-2.60768755215475
  0
ARC
  5
104
330
43
100
AcDbEntity
  8
1
  6
PHANTOM
 62
     5
100
AcDbCircle
 10
820.6652997076679
 20
598.9606484555968
 30
0.0
 40
9.999999999999819
100
AcDbArc
 50
-25.00000000000163
 51
29.6997515601383
  0
ARC
  5
105
330
43
100
AcDbEntity
  8
1
  6
PHANTOM
 62
     5
100
AcDbCircle
 10
820.6652997076679
 20
598.9606484555968
 30
0.0
 40
9.999999999999819
100
AcDbArc
 50
-25.00000000000163
 51
29.6997515601383
  0
ARC
  5
106
330
43
100
AcDbEntity
  8
1
  6
PHANTOM
 62
     5
100
AcDbCircle
 10
820.6652997076679
 20
598.9606484555968
 30
0.0
 40
10.00000000000058
100
AcDbArc
 50
-2.60768755215475
 51
29.6997515601383
  0
ARC
  5
107
330
43
100
AcDbEntity
  8
1
  6
PHANTOM
 62
     5
100
AcDbCircle
 10
655.3146774703458
 20
504.6472689038862
 30
0.0
 40
200.3571428571432
100
AcDbArc
 50
29.69975156013765
 51
48.54229199834973
  0
ARC
  5
108
330
43
100
AcDbEntity
  8
1
  6
Continuous
 62
     7
100
AcDbCircle
 10
694.0505058686134
 20
432.4396073745359
 30
0.0
 40
220.0000000000002
100
AcDbArc
 50
71.38191495189243
 51
71.72042120108431
  0
ARC
  5
109
330
43
100
AcDbEntity
  8
1
  6
Continuous
 62
     7
100
AcDbCircle
 10
703.7873649720003
 20
451.7791468986472
 30
0.0
 40
200.3571428571428
100
AcDbArc
 50
54.69975156013981
 51
73.54229199835181
  0
ARC
  5
10A
330
43
100
AcDbEntity
  8
1
  6
Continuous
 62
     7
100
AcDbCircle
 10
694.0505058686134
 20
432.4396073745359
 30
0.0
 40
219.5515342386309
100
AcDbArc
 50
63.27423731996628
 51
70.92881112818711
  0
ARC
  5
10B
102
{ACAD_REACTORS
330
111
330
111
102
}
330
43
100
AcDbEntity
  8
1
  6
Continuous
 62
     7
100
AcDbCircle
 10
694.0505058686134
 20
432.4396073745359
 30
0.0
 40
220.0000000000002
100
AcDbArc
 50
62.74865308431206
 51
71.38191495189243
  0
ARC
  5
10C
330
43
100
AcDbEntity
  8
1
  6
Continuous
 62
     7
100
AcDbCircle
 10
694.0505058686134
 20
432.4396073745359
 30
0.0
 40
220.0
100
AcDbArc
 50
57.03802307375574
 51
62.74865308431206
  0
ARC
  5
10D
102
{ACAD_REACTORS
330
111
330
111
102
}
330
43
100
AcDbEntity
  8
1
  6
Continuous
 62
     7
100
AcDbCircle
 10
694.0505058686134
 20
432.4396073745359
 30
0.0
 40
219.5515342386309
100
AcDbArc
 50
63.27423731996628
 51
70.92881112818711
  0
ARC
  5
10E
330
43
100
AcDbEntity
  8
1
  6
Continuous
 62
     7
100
AcDbCircle
 10
808.3077993681508
 20
608.6362897557899
 30
0.0
 40
10.0
100
AcDbArc
 50
0.0
 51
57.03802307375751
  0
ARC
  5
10F
330
43
100
AcDbEntity
  8
1
  6
Continuous
 62
     7
100
AcDbCircle
 10
820.8077993681508
 20
608.6362897557899
 30
0.0
 40
2.5
100
AcDbArc
 50
180.0
 51
-90.0
  0
ARC
  5
110
330
43
100
AcDbEntity
  8
1
  6
Continuous
 62
     7
100
AcDbCircle
 10
813.7873649720003
 20
607.1362897557899
 30
0.0
 40
10.0
100
AcDbArc
 50
0.0
 51
54.69975156014129
  0
HATCH
  5
111
330
43
100
AcDbEntity
  8
1
  6
Continuous
 62
     2
100
AcDbHatch
 10
0.0
 20
0.0
 30
0.0
210
0.0
220
0.0
230
1.0
  2
CUSTOM2
 70
     0
 71
     1
 91
        1
 92
        1
 93
        4
 72
     1
 10
794.7873649720003
 20
628.0210104219229
 11
792.7873649720003
 21
628.5362897557905
 72
     2
 10
694.0505058686134
 20
432.4396073745359
 40
219.5515342386309
 50
63.27423731996628
 51
70.92881112818711
 73
     1
 72
     1
 10
765.7873649720003
 20
639.940689859706
 11
764.2873649720003
 21
640.9264981453732
 72
     2
 10
694.0505058686134
 20
432.4396073745359
 40
220.0000000000002
 50
288.6180850481076
 51
297.251346915688
 73
     0
 97
        4
330
FF
330
10D
330
FE
330
10B
 75
     1
 76
     2
 52
45.0
 41
0.5
 77
     0
 78
     1
 53
45.0
 43
0.0
 44
0.0
 45
-1.414213562373095
 46
0.0000000000000001
 79
     0
 98
        1
 10
0.0
 20
0.0
  0
ENDBLK
  5
45
330
43
100
AcDbEntity
  8
0
100
AcDbBlockEnd
  0
BLOCK
  5
48
330
46
100
AcDbEntity
  8
0
100
AcDbBlockBegin
  2
87-163-__F_
 70
     0
 71
     0
 10
2499.633568777156
 20
4124.72264016396
 30
0.0
  3
87-163-__F_
  1

  0
INSERT
  5
47
330
46
100
AcDbEntity
  8
1
100
AcDbBlockReference
  2
84-360A-__F_
 10
628.7873649720003
 20
482.1362897557899
 30
0.0
  0
LINE
  5
112
330
46
100
AcDbEntity
  8
1
  6
PHANTOM
 62
     5
100
AcDbLine
 10
829.3057593162938
 20
593.8281580511527
 30
0.0
 11
825.4293881178263
 21
585.5152531895762
 31
0.0
  0
LINE
  5
113
330
46
100
AcDbEntity
  8
1
  6
PHANTOM
 62
     5
100
AcDbLine
 10
824.8468247017567
 20
585.2435994073028
 30
0.0
 11
821.4972863216925
 21
586.1411055112583
 31
0.0
  0
LINE
  5
114
330
46
100
AcDbEntity
  8
1
  6
PHANTOM
 62
     5
100
AcDbLine
 10
733.3446346680847
 20
683.8140600372469
 30
0.0
 11
732.8643322697016
 21
682.784048219977
 31
0.0
  0
LINE
  5
115
330
46
100
AcDbEntity
  8
1
  6
PHANTOM
 62
     5
100
AcDbLine
 10
823.7873649720003
 20
607.1362897557899
 30
0.0
 11
823.7873649720003
 21
606.1362897557899
 31
0.0
  0
LINE
  5
116
330
46
100
AcDbEntity
  8
1
  6
Continuous
 62
     7
100
AcDbLine
 10
823.7873649720003
 20
606.1362897557899
 30
0.0
 11
820.8077993681508
 21
606.1362897557899
 31
0.0
  0
LINE
  5
117
330
46
100
AcDbEntity
  8
1
  6
Continuous
 62
     7
100
AcDbLine
 10
698.7873649720003
 20
647.1362897557899
 30
0.0
 11
698.7873649720003
 21
645.9997974603446
 31
0.0
  0
LINE
  5
118
330
46
100
AcDbEntity
  8
1
  6
PHANTOM
 62
     4
100
AcDbLine
 10
798.7873649720003
 20
631.1820513358405
 30
0.0
 11
798.7873649720003
 21
589.1362897557899
 31
0.0
  0
LINE
  5
119
330
46
100
AcDbEntity
  8
1
  6
Continuous
 62
     7
100
AcDbLine
 10
773.7873649720003
 20
592.6362897557899
 30
0.0
 11
773.7873649720003
 21
615.1362897557899
 31
0.0
  0
LINE
  5
11A
330
46
100
AcDbEntity
  8
1
  6
Continuous
 62
     7
100
AcDbLine
 10
796.1627050662227
 20
592.1362897557899
 30
0.0
 11
774.2873649720003
 21
592.1362897557899
 31
0.0
  0
LINE
  5
11B
330
46
100
AcDbEntity
  8
1
  6
Continuous
 62
     7
100
AcDbLine
 10
823.7873649720003
 20
606.1362897557899
 30
0.0
 11
823.7873649720003
 21
596.9640140890904
 31
0.0
  0
LINE
  5
11C
330
46
100
AcDbEntity
  8
1
  6
Continuous
 62
     7
100
AcDbLine
 10
823.3741890608338
 20
596.4716102125847
 30
0.0
 11
801.3721503962305
 21
592.592057165424
 31
0.0
  0
LINE
  5
11D
330
46
100
AcDbEntity
  8
1
  6
Continuous
 62
     7
100
AcDbLine
 10
798.7873649720003
 20
592.1362897557899
 30
0.0
 11
796.1627050662227
 21
592.1362897557899
 31
0.0
  0
LINE
  5
11E
330
46
100
AcDbEntity
  8
1
  6
Continuous
 62
     7
100
AcDbLine
 10
794.7873649720003
 20
628.0210104219229
 30
0.0
 11
792.7873649720003
 21
628.5362897557905
 31
0.0
  0
LINE
  5
11F
330
46
100
AcDbEntity
  8
1
  6
Continuous
 62
     7
100
AcDbLine
 10
765.7873649720003
 20
639.940689859706
 30
0.0
 11
764.2873649720003
 21
640.9264981453732
 31
0.0
  0
ARC
  5
120
330
46
100
AcDbEntity
  8
1
  6
PHANTOM
 62
     5
100
AcDbCircle
 10
737.8761736032678
 20
681.7009687285433
 30
0.0
 40
5.000000000000322
100
AcDbArc
 50
65.00000000000057
 51
90.0
  0
ARC
  5
121
330
46
100
AcDbEntity
  8
1
  6
PHANTOM
 62
     5
100
AcDbCircle
 10
775.1056253016158
 20
629.0324968858902
 30
0.0
 40
14.00000000000035
100
AcDbArc
 50
20.27842980764776
 51
41.49354248246961
  0
ARC
  5
122
330
46
100
AcDbEntity
  8
1
  6
PHANTOM
 62
     5
100
AcDbCircle
 10
635.7859715365388
 20
505.8008691486114
 30
0.0
 40
200.0000000000004
100
AcDbArc
 50
41.49354248247089
 51
60.6883809864466
  0
ARC
  5
123
330
46
100
AcDbEntity
  8
1
  6
PHANTOM
 62
     5
100
AcDbCircle
 10
655.3146774703458
 20
504.6472689038862
 30
0.0
 40
200.3571428571429
100
AcDbArc
 50
64.4280540212621
 51
64.99999999999793
  0
ARC
  5
124
330
46
100
AcDbEntity
  8
1
  6
PHANTOM
 62
     5
100
AcDbCircle
 10
737.8761736032678
 20
681.7009687285433
 30
0.0
 40
5.0
100
AcDbArc
 50
90.0
 51
154.9999999999984
  0
ARC
  5
125
330
46
100
AcDbEntity
  8
1
  6
PHANTOM
 62
     5
100
AcDbCircle
 10
638.3168436671216
 20
491.234668104569
 30
0.0
 40
220.0000000000009
100
AcDbArc
 50
47.95175246216945
 51
61.94185502721909
  0
ARC
  5
126
330
46
100
AcDbEntity
  8
1
  6
Continuous
 62
     7
100
AcDbCircle
 10
759.7873649720003
 20
615.1362897557899
 30
0.0
 40
14.0
100
AcDbArc
 50
0.0
 51
66.49354248247413
  0
ARC
  5
127
330
46
100
AcDbEntity
  8
1
  6
Continuous
 62
     7
100
AcDbCircle
 10
703.7873649720003
 20
451.7791468986472
 30
0.0
 40
200.3571428571429
100
AcDbArc
 50
89.42805402126429
 51
90.0
  0
ARC
  5
128
330
46
100
AcDbEntity
  8
1
  6
Continuous
 62
     7
100
AcDbCircle
 10
703.7873649720003
 20
647.1362897557899
 30
0.0
 40
5.0
100
AcDbArc
 50
90.0
 51
180.0
  0
ARC
  5
129
330
46
100
AcDbEntity
  8
1
  6
Continuous
 62
     7
100
AcDbCircle
 10
685.600814183273
 20
444.5714760277776
 30
0.0
 40
200.0000000000005
100
AcDbArc
 50
66.49354248247305
 51
85.68838098644868
  0
ARC
  5
12A
330
46
100
AcDbEntity
  8
1
  6
Continuous
 62
     7
100
AcDbCircle
 10
694.0505058686134
 20
432.4396073745359
 30
0.0
 40
220.0000000000002
100
AcDbArc
 50
71.38191495189243
 51
86.94185502722125
  0
ARC
  5
12B
330
46
100
AcDbEntity
  8
1
  6
Continuous
 62
     7
100
AcDbCircle
 10
820.8077993681508
 20
608.6362897557899
 30
0.0
 40
2.5
100
AcDbArc
 50
180.0
 51
-90.0
  0
ARC
  5
12C
330
46
100
AcDbEntity
  8
1
  6
Continuous
 62
     7
100
AcDbCircle
 10
808.3077993681508
 20
608.6362897557899
 30
0.0
 40
10.0
100
AcDbArc
 50
0.0
 51
57.03802307375532
  0
ARC
  5
12D
330
46
100
AcDbEntity
  8
1
  6
Continuous
 62
     7
100
AcDbCircle
 10
694.0505058686134
 20
432.4396073745359
 30
0.0
 40
219.5515342386309
100
AcDbArc
 50
63.27423731996628
 51
70.92881112818711
  0
ARC
  5
12E
330
46
100
AcDbEntity
  8
1
  6
Continuous
 62
     7
100
AcDbCircle
 10
694.0505058686134
 20
432.4396073745359
 30
0.0
 40
220.0000000000002
100
AcDbArc
 50
57.03802307375564
 51
62.74865308431206
  0
ARC
  5
12F
330
46
100
AcDbEntity
  8
1
  6
PHANTOM
 62
     5
100
AcDbCircle
 10
824.9762342243079
 20
585.7265623204473
 30
0.0
 40
0.5000000000000006
100
AcDbArc
 50
-104.9999999999944
 51
-25.00000000007059
  0
ARC
  5
130
330
46
100
AcDbEntity
  8
1
  6
PHANTOM
 62
     5
100
AcDbCircle
 10
734.6769478437749
 20
681.9388116964954
 30
0.0
 40
2.000000000000123
100
AcDbArc
 50
154.9999999999948
 51
-119.3116190135691
  0
ARC
  5
131
330
46
100
AcDbEntity
  8
1
  6
Continuous
 62
     7
100
AcDbCircle
 10
700.7873649720003
 20
645.9997974603446
 30
0.0
 40
2.0
100
AcDbArc
 50
180.0
 51
-94.31161901355407
  0
ARC
  5
132
330
46
100
AcDbEntity
  8
1
  6
Continuous
 62
     7
100
AcDbCircle
 10
796.1627050662227
 20
622.1362897557899
 30
0.0
 40
30.0
100
AcDbArc
 50
-90.0
 51
-80.00000000000004
  0
ARC
  5
133
330
46
100
AcDbEntity
  8
1
  6
Continuous
 62
     7
100
AcDbCircle
 10
823.2873649720003
 20
596.9640140890904
 30
0.0
 40
0.4999999999996145
100
AcDbArc
 50
-79.99999999998705
 51
0.0
  0
ARC
  5
134
330
46
100
AcDbEntity
  8
1
  6
Continuous
 62
     7
100
AcDbCircle
 10
774.2873649720003
 20
592.6362897557899
 30
0.0
 40
0.5
100
AcDbArc
 50
180.0
 51
-90.0
  0
ENDBLK
  5
49
330
46
100
AcDbEntity
  8
0
100
AcDbBlockEnd
  0
BLOCK
  5
4B
330
4A
100
AcDbEntity
  8
0
100
AcDbBlockBegin
  2
_J__A4
 70
     0
 71
     0
 10
0.0
 20
0.0
 30
0.0
  3
_J__A4
  1

  0
POINT
  5
135
330
4A
100
AcDbEntity
  8
1
 62
     4
100
AcDbPoint
 10
34.0
 20
34.00000000000001
 30
0.0
  0
POINT
  5
136
330
4A
100
AcDbEntity
  8
1
 62
     4
100
AcDbPoint
 10
57.0
 20
12.25
 30
0.0
  0
POINT
  5
137
330
4A
100
AcDbEntity
  8
1
 62
     4
100
AcDbPoint
 10
57.0
 20
20.75000000000001
 30
0.0
  0
POINT
  5
138
330
4A
100
AcDbEntity
  8
1
 62
     4
100
AcDbPoint
 10
57.0
 20
24.75000000000001
 30
0.0
  0
POINT
  5
139
330
4A
100
AcDbEntity
  8
1
 62
     4
100
AcDbPoint
 10
57.0
 20
16.25
 30
0.0
  0
POINT
  5
13A
330
4A
100
AcDbEntity
  8
1
 62
     4
100
AcDbPoint
 10
157.5
 20
19.00000000000001
 30
0.0
  0
POINT
  5
13B
330
4A
100
AcDbEntity
  8
1
 62
     4
100
AcDbPoint
 10
47.5
 20
282.0000000000003
 30
0.0
  0
POINT
  5
13C
330
4A
100
AcDbEntity
  8
1
 62
     4
100
AcDbPoint
 10
57.0
 20
22.75000000000001
 30
0.0
  0
POINT
  5
13D
330
4A
100
AcDbEntity
  8
1
 62
     4
100
AcDbPoint
 10
57.0
 20
14.25
 30
0.0
  0
POINT
  5
13E
330
4A
100
AcDbEntity
  8
1
 62
     4
100
AcDbPoint
 10
157.5
 20
12.5
 30
0.0
  0
POINT
  5
13F
330
4A
100
AcDbEntity
  8
1
 62
     4
100
AcDbPoint
 10
163.25
 20
12.5
 30
0.0
  0
POINT
  5
140
330
4A
100
AcDbEntity
  8
1
 62
     4
100
AcDbPoint
 10
151.75
 20
12.5
 30
0.0
  0
POINT
  5
141
330
4A
100
AcDbEntity
  8
1
 62
     4
100
AcDbPoint
 10
134.75
 20
12.5
 30
0.0
  0
POINT
  5
142
330
4A
100
AcDbEntity
  8
1
 62
     4
100
AcDbPoint
 10
146.25
 20
12.5
 30
0.0
  0
POINT
  5
143
330
4A
100
AcDbEntity
  8
1
 62
     4
100
AcDbPoint
 10
140.5
 20
12.5
 30
0.0
  0
POINT
  5
144
330
4A
100
AcDbEntity
  8
1
 62
     4
100
AcDbPoint
 10
140.5
 20
19.00000000000001
 30
0.0
  0
POINT
  5
145
330
4A
100
AcDbEntity
  8
1
 62
     4
100
AcDbPoint
 10
117.75
 20
12.5
 30
0.0
  0
POINT
  5
146
330
4A
100
AcDbEntity
  8
1
 62
     4
100
AcDbPoint
 10
129.25
 20
12.5
 30
0.0
  0
POINT
  5
147
330
4A
100
AcDbEntity
  8
1
 62
     4
100
AcDbPoint
 10
123.5
 20
12.5
 30
0.0
  0
POINT
  5
148
330
4A
100
AcDbEntity
  8
1
 62
     4
100
AcDbPoint
 10
123.5
 20
19.00000000000001
 30
0.0
  0
POINT
  5
149
330
4A
100
AcDbEntity
  8
1
 62
     4
100
AcDbPoint
 10
100.75
 20
12.5
 30
0.0
  0
POINT
  5
14A
330
4A
100
AcDbEntity
  8
1
 62
     4
100
AcDbPoint
 10
112.25
 20
12.5
 30
0.0
  0
POINT
  5
14B
330
4A
100
AcDbEntity
  8
1
 62
     4
100
AcDbPoint
 10
106.5
 20
12.5
 30
0.0
  0
POINT
  5
14C
330
4A
100
AcDbEntity
  8
1
 62
     4
100
AcDbPoint
 10
106.5
 20
19.00000000000001
 30
0.0
  0
POINT
  5
14D
330
4A
100
AcDbEntity
  8
1
 62
     4
100
AcDbPoint
 10
85.25
 20
17.0
 30
0.0
  0
POINT
  5
14E
330
4A
100
AcDbEntity
  8
1
 62
     4
100
AcDbPoint
 10
93.75
 20
17.0
 30
0.0
  0
LINE
  5
14F
330
4A
100
AcDbEntity
  8
1
  6
Continuous
 62
     2
100
AcDbLine
 10
81.0
 20
27.00000000000001
 30
0.0
 11
81.0
 21
10.0
 31
0.0
  0
LINE
  5
150
330
4A
100
AcDbEntity
  8
1
  6
DOT_CENTER
 62
     2
100
AcDbLine
 10
187.0
 20
26.50000000000001
 30
0.0
 11
187.0
 21
20.50000000000001
 31
0.0
  0
LINE
  5
151
330
4A
100
AcDbEntity
  8
1
  6
DOT_CENTER
 62
     2
100
AcDbLine
 10
184.0
 20
23.50000000000001
 30
0.0
 11
197.0
 21
23.50000000000001
 31
0.0
  0
LINE
  5
152
330
4A
100
AcDbEntity
  8
1
  6
Continuous
 62
     7
100
AcDbLine
 10
196.0
 20
21.50000000000001
 30
0.0
 11
191.0
 21
22.30000000000001
 31
0.0
  0
LINE
  5
153
330
4A
100
AcDbEntity
  8
1
  6
Continuous
 62
     7
100
AcDbLine
 10
196.0
 20
25.50000000000001
 30
0.0
 11
196.0
 21
21.50000000000001
 31
0.0
  0
LINE
  5
154
330
4A
100
AcDbEntity
  8
1
  6
Continuous
 62
     7
100
AcDbLine
 10
191.0
 20
24.70000000000001
 30
0.0
 11
196.0
 21
25.50000000000001
 31
0.0
  0
LINE
  5
155
330
4A
100
AcDbEntity
  8
1
  6
Continuous
 62
     7
100
AcDbLine
 10
191.0
 20
24.70000000000001
 30
0.0
 11
191.0
 21
22.30000000000001
 31
0.0
  0
LINE
  5
156
330
4A
100
AcDbEntity
  8
1
  6
Continuous
 62
     2
100
AcDbLine
 10
33.0
 20
27.0
 30
0.0
 11
33.0
 21
10.0
 31
0.0
  0
LINE
  5
157
330
4A
100
AcDbEntity
  8
1
  6
Continuous
 62
     2
100
AcDbLine
 10
25.0
 20
18.50000000000001
 30
0.0
 11
81.0
 21
18.50000000000001
 31
0.0
  0
LINE
  5
158
330
4A
100
AcDbEntity
  8
1
  6
Continuous
 62
     7
100
AcDbLine
 10
200.0
 20
287.0000000000003
 30
0.0
 11
105.0
 21
287.0000000000003
 31
0.0
  0
LINE
  5
159
330
4A
100
AcDbEntity
  8
1
  6
Continuous
 62
     7
100
AcDbLine
 10
200.0
 20
10.0
 30
0.0
 11
200.0
 21
148.5
 31
0.0
  0
LINE
  5
15A
330
4A
100
AcDbEntity
  8
1
  6
Continuous
 62
     7
100
AcDbLine
 10
25.0
 20
10.0
 30
0.0
 11
105.0
 21
10.0
 31
0.0
  0
LINE
  5
15B
330
4A
100
AcDbEntity
  8
1
  6
PHANTOM
 62
     4
100
AcDbLine
 10
0.0
 20
297.0
 30
0.0
 11
0.0
 21
0.0
 31
0.0
  0
LINE
  5
15C
330
4A
100
AcDbEntity
  8
1
  6
PHANTOM
 62
     4
100
AcDbLine
 10
210.0
 20
297.0
 30
0.0
 11
0.0
 21
297.0
 31
0.0
  0
LINE
  5
15D
330
4A
100
AcDbEntity
  8
1
  6
PHANTOM
 62
     4
100
AcDbLine
 10
210.0
 20
0.0
 30
0.0
 11
210.0
 21
297.0
 31
0.0
  0
LINE
  5
15E
330
4A
100
AcDbEntity
  8
1
  6
PHANTOM
 62
     4
100
AcDbLine
 10
0.0
 20
0.0
 30
0.0
 11
210.0
 21
0.0
 31
0.0
  0
LINE
  5
15F
330
4A
100
AcDbEntity
  8
1
  6
Continuous
 62
     7
100
AcDbLine
 10
25.0
 20
41.0
 30
0.0
 11
200.0
 21
41.0
 31
0.0
  0
LINE
  5
160
330
4A
100
AcDbEntity
  8
1
  6
Continuous
 62
     7
100
AcDbLine
 10
200.0
 20
27.00000000000001
 30
0.0
 11
25.0
 21
27.00000000000001
 31
0.0
  0
LINE
  5
161
330
4A
100
AcDbEntity
  8
1
  6
Continuous
 62
     2
100
AcDbLine
 10
33.0
 20
41.00000000000001
 30
0.0
 11
33.0
 21
27.0
 31
0.0
  0
LINE
  5
162
330
4A
100
AcDbEntity
  8
1
  6
Continuous
 62
     2
100
AcDbLine
 10
55.0
 20
287.0000000000003
 30
0.0
 11
55.0
 21
277.0000000000003
 31
0.0
  0
LINE
  5
163
330
4A
100
AcDbEntity
  8
1
  6
Continuous
 62
     2
100
AcDbLine
 10
40.0
 20
287.0000000000003
 30
0.0
 11
40.0
 21
277.0000000000003
 31
0.0
  0
LINE
  5
164
330
4A
100
AcDbEntity
  8
1
  6
Continuous
 62
     7
100
AcDbLine
 10
25.0
 20
10.0
 30
0.0
 11
25.0
 21
148.5
 31
0.0
  0
LINE
  5
165
330
4A
100
AcDbEntity
  8
1
  6
Continuous
 62
     2
100
AcDbLine
 10
55.0
 20
277.0000000000003
 30
0.0
 11
25.0
 21
277.0000000000003
 31
0.0
  0
LINE
  5
166
330
4A
100
AcDbEntity
  8
1
  6
Continuous
 62
     2
100
AcDbLine
 10
166.0
 20
27.00000000000001
 30
0.0
 11
166.0
 21
10.0
 31
0.0
  0
LINE
  5
167
330
4A
100
AcDbEntity
  8
1
  6
Continuous
 62
     2
100
AcDbLine
 10
132.0
 20
27.00000000000001
 30
0.0
 11
132.0
 21
9.99999999999999
 31
0.0
  0
LINE
  5
168
330
4A
100
AcDbEntity
  8
1
  6
Continuous
 62
     2
100
AcDbLine
 10
149.0
 20
27.00000000000001
 30
0.0
 11
149.0
 21
10.0
 31
0.0
  0
LINE
  5
169
330
4A
100
AcDbEntity
  8
1
  6
Continuous
 62
     2
100
AcDbLine
 10
115.0
 20
27.00000000000001
 30
0.0
 11
115.0
 21
9.99999999999999
 31
0.0
  0
LINE
  5
16A
330
4A
100
AcDbEntity
  8
1
  6
Continuous
 62
     2
100
AcDbLine
 10
98.0
 20
27.00000000000001
 30
0.0
 11
98.0
 21
9.99999999999999
 31
0.0
  0
LINE
  5
16B
330
4A
100
AcDbEntity
  8
1
  6
Continuous
 62
     2
100
AcDbLine
 10
166.0
 20
20.00000000000001
 30
0.0
 11
200.0
 21
20.00000000000001
 31
0.0
  0
LINE
  5
16C
330
4A
100
AcDbEntity
  8
1
  6
Continuous
 62
     2
100
AcDbLine
 10
105.0
 20
287.0000000000003
 30
0.0
 11
105.0
 21
292.0000000000003
 31
0.0
  0
LINE
  5
16D
330
4A
100
AcDbEntity
  8
1
  6
Continuous
 62
     7
100
AcDbLine
 10
105.0
 20
287.0000000000003
 30
0.0
 11
25.0
 21
287.0000000000003
 31
0.0
  0
LINE
  5
16E
330
4A
100
AcDbEntity
  8
1
  6
Continuous
 62
     2
100
AcDbLine
 10
25.0
 20
148.5
 30
0.0
 11
20.0
 21
148.5
 31
0.0
  0
LINE
  5
16F
330
4A
100
AcDbEntity
  8
1
  6
Continuous
 62
     7
100
AcDbLine
 10
25.0
 20
148.5
 30
0.0
 11
25.0
 21
287.0000000000003
 31
0.0
  0
LINE
  5
170
330
4A
100
AcDbEntity
  8
1
  6
Continuous
 62
     2
100
AcDbLine
 10
200.0
 20
148.5
 30
0.0
 11
205.0
 21
148.5
 31
0.0
  0
LINE
  5
171
330
4A
100
AcDbEntity
  8
1
  6
Continuous
 62
     7
100
AcDbLine
 10
200.0
 20
148.5
 30
0.0
 11
200.0
 21
287.0000000000003
 31
0.0
  0
LINE
  5
172
330
4A
100
AcDbEntity
  8
1
  6
Continuous
 62
     2
100
AcDbLine
 10
105.0
 20
10.0
 30
0.0
 11
105.0
 21
5.0
 31
0.0
  0
LINE
  5
173
330
4A
100
AcDbEntity
  8
1
  6
Continuous
 62
     7
100
AcDbLine
 10
105.0
 20
10.0
 30
0.0
 11
200.0
 21
10.0
 31
0.0
  0
CIRCLE
  5
174
330
4A
100
AcDbEntity
  8
1
  6
DOT_CENTER
 62
     7
100
AcDbCircle
 10
89.5
 20
18.0
 30
0.0
 40
0.1000000000000227
  0
CIRCLE
  5
175
330
4A
100
AcDbEntity
  8
1
  6
DOT_CENTER
 62
     7
100
AcDbCircle
 10
89.5
 20
16.0
 30
0.0
 40
0.1000000000000227
  0
CIRCLE
  5
176
330
4A
100
AcDbEntity
  8
1
  6
Continuous
 62
     7
100
AcDbCircle
 10
187.0
 20
23.50000000000001
 30
0.0
 40
2.0
  0
CIRCLE
  5
177
330
4A
100
AcDbEntity
  8
1
  6
Continuous
 62
     7
100
AcDbCircle
 10
187.0
 20
23.50000000000001
 30
0.0
 40
1.200000000000102
  0
CIRCLE
  5
178
330
4A
100
AcDbEntity
  8
1
  6
Continuous
 62
     7
100
AcDbCircle
 10
154.5
 20
12.5
 30
0.0
 40
0.3000000000000114
  0
CIRCLE
  5
179
330
4A
100
AcDbEntity
  8
1
  6
Continuous
 62
     7
100
AcDbCircle
 10
160.5
 20
12.5
 30
0.0
 40
0.3000000000000114
  0
CIRCLE
  5
17A
330
4A
100
AcDbEntity
  8
1
  6
Continuous
 62
     7
100
AcDbCircle
 10
143.5
 20
12.5
 30
0.0
 40
0.3000000000000114
  0
CIRCLE
  5
17B
330
4A
100
AcDbEntity
  8
1
  6
Continuous
 62
     7
100
AcDbCircle
 10
137.5
 20
12.5
 30
0.0
 40
0.3000000000000114
  0
CIRCLE
  5
17C
330
4A
100
AcDbEntity
  8
1
  6
Continuous
 62
     7
100
AcDbCircle
 10
126.5
 20
12.5
 30
0.0
 40
0.2999999999999972
  0
CIRCLE
  5
17D
330
4A
100
AcDbEntity
  8
1
  6
Continuous
 62
     7
100
AcDbCircle
 10
120.5
 20
12.5
 30
0.0
 40
0.2999999999999972
  0
CIRCLE
  5
17E
330
4A
100
AcDbEntity
  8
1
  6
Continuous
 62
     7
100
AcDbCircle
 10
109.5
 20
12.5
 30
0.0
 40
0.2999999999999972
  0
CIRCLE
  5
17F
330
4A
100
AcDbEntity
  8
1
  6
Continuous
 62
     7
100
AcDbCircle
 10
103.5
 20
12.5
 30
0.0
 40
0.2999999999999972
  0
MTEXT
  5
181
330
4A
100
AcDbEntity
  8
1
 62
   250
100
AcDbMText
 10
25.0
 20
5.0
 30
0.0
 40
3.5
 41
0.0
 71
     4
 72
     1
  1
備考欄の文字列 原点位置=4
  7
CONVERTER_1
 73
     1
 44
0.7202881152461
  0
MTEXT
  5
182
330
4A
100
AcDbEntity
  8
1
 62
     2
100
AcDbMText
 10
89.5
 20
24.00000000000001
 30
0.0
 40
3.5
 41
0.0
 71
     5
 72
     1
  1
尺度
  7
CONVERTER_1
 73
     1
 44
0.7202881152461
  0
MTEXT
  5
183
330
4A
100
AcDbEntity
  8
1
 62
     2
100
AcDbMText
 10
135.5
 20
25.00000000000001
 30
0.0
 40
3.0
 41
0.0
 71
     5
 72
     1
  1
製図
  7
CONVERTER_1
 73
     1
 44
0.78031212484994
  0
MTEXT
  5
184
330
4A
100
AcDbEntity
  8
1
 62
     2
100
AcDbMText
 10
152.5
 20
25.00000000000001
 30
0.0
 40
3.0
 41
0.0
 71
     5
 72
     1
  1
設計
  7
CONVERTER_1
 73
     1
 44
0.78031212484994
  0
MTEXT
  5
185
330
4A
100
AcDbEntity
  8
1
 62
     2
100
AcDbMText
 10
118.5
 20
25.00000000000001
 30
0.0
 40
3.0
 41
0.0
 71
     5
 72
     1
  1
検図
  7
CONVERTER_1
 73
     1
 44
0.78031212484994
  0
MTEXT
  5
186
330
4A
100
AcDbEntity
  8
1
 62
     2
100
AcDbMText
 10
175.0
 20
23.50000000000001
 30
0.0
 40
3.5
 41
0.0
 71
     5
 72
     1
  1
第三角法
  7
CONVERTER_1
 73
     1
 44
0.7202881152461
  0
MTEXT
  5
187
330
4A
100
AcDbEntity
  8
1
 62
     2
100
AcDbMText
 10
101.5
 20
25.00000000000001
 30
0.0
 40
3.0
 41
0.0
 71
     5
 72
     1
  1
承認
  7
CONVERTER_1
 73
     1
 44
0.78031212484994
  0
MTEXT
  5
188
330
4A
100
AcDbEntity
  8
1
 62
     2
100
AcDbMText
 10
29.0
 20
14.25
 30
0.0
 40
3.5
 41
0.0
 71
     5
 72
     1
  1
品番
  7
CONVERTER_1
 73
     1
 44
0.96038415366146
  0
MTEXT
  5
189
330
4A
100
AcDbEntity
  8
1
 62
     2
100
AcDbMText
 10
29.0
 20
22.75
 30
0.0
 40
3.5
 41
0.0
 71
     5
 72
     1
  1
品名
  7
CONVERTER_1
 73
     1
 44
0.96038415366146
  0
MTEXT
  5
18A
330
4A
100
AcDbEntity
  8
1
 62
     2
100
AcDbMText
 10
29.0
 20
34.00000000000001
 30
0.0
 40
3.5
 41
0.0
 71
     5
 72
     1
  1
備考
  7
CONVERTER_1
 73
     1
 44
0.60024009603842
  0
MTEXT
  5
18B
330
4A
100
AcDbEntity
  8
1
 62
     2
100
AcDbMText
 10
32.5
 20
282.0000000000003
 30
0.0
 40
5.0
 41
0.0
 71
     5
 72
     1
  1
図番
  7
CONVERTER_1
 73
     1
 44
0.60024009603842
  0
MTEXT
  5
18C
330
4A
100
AcDbEntity
  8
1
 62
     7
100
AcDbMText
 10
171.5
 20
15.0
 30
0.0
 40
2.5
 41
0.0
 71
     5
 72
     1
  1
株式会社
  7
CONVERTER_1
 73
     1
 44
1.32052821128451
  0
MTEXT
  5
18D
330
4A
100
AcDbEntity
  8
1
 62
     7
100
AcDbMText
 10
188.5
 20
15.0
 30
0.0
 40
3.0
 41
0.0
 71
     5
 72
     1
  1
三栄水栓製作所
  7
CONVERTER_1
 73
     1
 44
1.32052821128451
  0
ENDBLK
  5
4C
330
4A
100
AcDbEntity
  8
0
100
AcDbBlockEnd
  0
BLOCK
  5
4E
330
4D
100
AcDbEntity
  8
0
100
AcDbBlockBegin
  2
35-217
 70
     0
 71
     0
 10
-415.2390883970612
 20
260.2464114346645
 30
0.0
  3
35-217
  1

  0
LINE
  5
18E
330
4D
100
AcDbEntity
  8
1
  6
Continuous
 62
     7
100
AcDbLine
 10
773.3771812462045
 20
514.4362897557905
 30
0.0
 11
753.6346090850065
 21
528.4362897557905
 31
0.0
  0
LINE
  5
18F
330
4D
100
AcDbEntity
  8
1
  6
Continuous
 62
     7
100
AcDbLine
 10
753.6346090850065
 20
528.4362897557905
 30
0.0
 11
750.8771496279172
 21
528.4362897557905
 31
0.0
  0
LINE
  5
190
330
4D
100
AcDbEntity
  8
1
  6
Continuous
 62
     7
100
AcDbLine
 10
741.8731151682356
 20
514.4362897557905
 30
0.0
 11
773.3771812462045
 21
514.4362897557905
 31
0.0
  0
LINE
  5
191
330
4D
100
AcDbEntity
  8
1
  6
Continuous
 62
     7
100
AcDbLine
 10
741.8731151682356
 20
514.4362897557905
 30
0.0
 11
741.3731151682356
 21
514.9362897557905
 31
0.0
  0
LINE
  5
192
330
4D
100
AcDbEntity
  8
1
  6
Continuous
 62
     7
100
AcDbLine
 10
741.8731151682356
 20
528.4362897557905
 30
0.0
 11
741.3731151682356
 21
527.9362897557905
 31
0.0
  0
LINE
  5
193
330
4D
100
AcDbEntity
  8
1
  6
PHANTOM
 62
     4
100
AcDbLine
 10
732.4084281236131
 20
521.4362897557905
 30
0.0
 11
765.8882741165993
 21
521.4362897557905
 31
0.0
  0
LINE
  5
194
330
4D
100
AcDbEntity
  8
1
  6
Continuous
 62
     7
100
AcDbLine
 10
750.8771496279172
 20
528.4362897557905
 30
0.0
 11
741.8731151682356
 21
528.4362897557905
 31
0.0
  0
LINE
  5
195
330
4D
100
AcDbEntity
  8
1
  6
Continuous
 62
     7
100
AcDbLine
 10
741.3731151682356
 20
527.9362897557905
 30
0.0
 11
741.3731151682356
 21
525.4362897557913
 31
0.0
  0
LINE
  5
196
330
4D
100
AcDbEntity
  8
1
  6
Continuous
 62
     7
100
AcDbLine
 10
741.3731151682356
 20
525.4362897557913
 30
0.0
 11
741.3731151682356
 21
514.9362897557905
 31
0.0
  0
LINE
  5
197
330
4D
100
AcDbEntity
  8
0
  6
Continuous
 62
     7
100
AcDbLine
 10
741.8731151682356
 20
528.4362897557905
 30
0.0
 11
741.8731151682356
 21
514.4362897557905
 31
0.0
  0
ENDBLK
  5
4F
330
4D
100
AcDbEntity
  8
0
100
AcDbBlockEnd
  0
BLOCK
  5
52
330
50
100
AcDbEntity
  8
0
100
AcDbBlockBegin
  2
61-116
 70
     0
 71
     0
 10
-1300.623671921404
 20
278.6095539685285
 30
0.0
  3
61-116
  1

  0
INSERT
  5
51
330
50
100
AcDbEntity
  8
0
100
AcDbBlockReference
  2
35-217
 10
-415.2390883970612
 20
260.2464114346645
 30
0.0
  0
ENDBLK
  5
53
330
50
100
AcDbEntity
  8
0
100
AcDbBlockEnd
  0
BLOCK
  5
55
330
54
100
AcDbEntity
  8
0
100
AcDbBlockBegin
  2
31-28
 70
     0
 71
     0
 10
-1704.069259549624
 20
1350.307846306129
 30
0.0
  3
31-28
  1

  0
LINE
  5
198
330
54
100
AcDbEntity
  8
1
  6
Continuous
 62
     7
100
AcDbLine
 10
739.9084281236131
 20
513.9362897557905
 30
0.0
 11
739.9084281236131
 21
521.4362897557905
 31
0.0
  0
LINE
  5
199
330
54
100
AcDbEntity
  8
1
  6
Continuous
 62
     7
100
AcDbLine
 10
735.9084281236131
 20
513.9362897557905
 30
0.0
 11
735.9084281236131
 21
521.4362897557908
 31
0.0
  0
LINE
  5
19A
330
54
100
AcDbEntity
  8
1
  6
Continuous
 62
     7
100
AcDbLine
 10
737.4084281236131
 20
517.9362897557905
 30
0.0
 11
738.4084281236131
 21
517.9362897557905
 31
0.0
  0
LINE
  5
19B
330
54
100
AcDbEntity
  8
1
  6
Continuous
 62
     7
100
AcDbLine
 10
736.9084281236131
 20
516.9362897557905
 30
0.0
 11
738.9084281236131
 21
516.9362897557905
 31
0.0
  0
LINE
  5
19C
330
54
100
AcDbEntity
  8
1
  6
Continuous
 62
     7
100
AcDbLine
 10
736.4084281236131
 20
515.9362897557905
 30
0.0
 11
739.4084281236131
 21
515.9362897557905
 31
0.0
  0
LINE
  5
19D
330
54
100
AcDbEntity
  8
1
  6
Continuous
 62
     7
100
AcDbLine
 10
735.9084281236131
 20
514.9362897557908
 30
0.0
 11
739.9084281236131
 21
514.9362897557908
 31
0.0
  0
LINE
  5
19E
330
54
100
AcDbEntity
  8
1
  6
Continuous
 62
     7
100
AcDbLine
 10
740.4084281236131
 20
517.4362897557905
 30
0.0
 11
740.4084281236131
 21
521.4362897557905
 31
0.0
  0
LINE
  5
19F
330
54
100
AcDbEntity
  8
1
  6
Continuous
 62
     7
100
AcDbLine
 10
739.9084281236131
 20
513.9362897557905
 30
0.0
 11
740.4084281236131
 21
514.4362897557905
 31
0.0
  0
LINE
  5
1A0
330
54
100
AcDbEntity
  8
1
  6
Continuous
 62
     7
100
AcDbLine
 10
735.4084281236131
 20
514.4362897557905
 30
0.0
 11
735.9084281236131
 21
513.9362897557905
 31
0.0
  0
LINE
  5
1A1
330
54
100
AcDbEntity
  8
1
  6
Continuous
 62
     7
100
AcDbLine
 10
741.3731151682356
 20
517.4362897557908
 30
0.0
 11
740.4084281236131
 21
517.4362897557905
 31
0.0
  0
LINE
  5
1A2
330
54
100
AcDbEntity
  8
1
  6
Continuous
 62
     7
100
AcDbLine
 10
740.4084281236131
 20
514.4362897557905
 30
0.0
 11
740.4084281236131
 21
517.4362897557905
 31
0.0
  0
LINE
  5
1A3
330
54
100
AcDbEntity
  8
1
  6
Continuous
 62
     7
100
AcDbLine
 10
739.9084281236131
 20
513.9362897557905
 30
0.0
 11
735.9084281236131
 21
513.9362897557905
 31
0.0
  0
LINE
  5
1A4
330
54
100
AcDbEntity
  8
1
  6
Continuous
 62
     7
100
AcDbLine
 10
735.4084281236131
 20
514.4362897557905
 30
0.0
 11
735.4084281236131
 21
521.4362897557905
 31
0.0
  0
LINE
  5
1A5
330
54
100
AcDbEntity
  8
1
  6
Continuous
 62
     7
100
AcDbLine
 10
735.4084281236131
 20
521.4362897557905
 30
0.0
 11
735.4084281236131
 21
523.9362897557905
 31
0.0
  0
LINE
  5
1A6
330
54
100
AcDbEntity
  8
1
  6
Continuous
 62
     7
100
AcDbLine
 10
738.4084281236131
 20
524.9362897557905
 30
0.0
 11
737.4084281236131
 21
524.9362897557905
 31
0.0
  0
LINE
  5
1A7
330
54
100
AcDbEntity
  8
1
  6
Continuous
 62
     7
100
AcDbLine
 10
738.9084281236131
 20
525.9362897557905
 30
0.0
 11
736.9084281236131
 21
525.9362897557905
 31
0.0
  0
LINE
  5
1A8
330
54
100
AcDbEntity
  8
1
  6
Continuous
 62
     7
100
AcDbLine
 10
739.4084281236131
 20
526.9362897557905
 30
0.0
 11
736.4084281236131
 21
526.9362897557905
 31
0.0
  0
LINE
  5
1A9
330
54
100
AcDbEntity
  8
1
  6
Continuous
 62
     7
100
AcDbLine
 10
739.9084281236131
 20
527.9362897557905
 30
0.0
 11
735.9084281236131
 21
527.9362897557905
 31
0.0
  0
LINE
  5
1AA
330
54
100
AcDbEntity
  8
1
  6
Continuous
 62
     7
100
AcDbLine
 10
740.4084281236131
 20
528.4362897557905
 30
0.0
 11
739.9084281236131
 21
528.9362897557908
 31
0.0
  0
LINE
  5
1AB
330
54
100
AcDbEntity
  8
1
  6
Continuous
 62
     7
100
AcDbLine
 10
735.9084281236131
 20
528.9362897557905
 30
0.0
 11
735.4084281236131
 21
528.4362897557905
 31
0.0
  0
LINE
  5
1AC
330
54
100
AcDbEntity
  8
1
  6
Continuous
 62
     7
100
AcDbLine
 10
740.4084281236131
 20
525.4362897557905
 30
0.0
 11
741.3731151682356
 21
525.4362897557905
 31
0.0
  0
LINE
  5
1AD
330
54
100
AcDbEntity
  8
1
  6
Continuous
 62
     7
100
AcDbLine
 10
740.4084281236131
 20
525.4362897557905
 30
0.0
 11
740.4084281236131
 21
528.4362897557905
 31
0.0
  0
LINE
  5
1AE
330
54
100
AcDbEntity
  8
1
  6
Continuous
 62
     7
100
AcDbLine
 10
735.9084281236131
 20
528.9362897557905
 30
0.0
 11
739.9084281236131
 21
528.9362897557908
 31
0.0
  0
LINE
  5
1AF
330
54
100
AcDbEntity
  8
1
  6
Continuous
 62
     7
100
AcDbLine
 10
740.4084281236131
 20
521.4362897557905
 30
0.0
 11
740.4084281236131
 21
525.4362897557905
 31
0.0
  0
LINE
  5
1B0
330
54
100
AcDbEntity
  8
1
  6
Continuous
 62
     7
100
AcDbLine
 10
739.9084281236131
 20
521.4362897557905
 30
0.0
 11
739.9084281236131
 21
528.9362897557908
 31
0.0
  0
LINE
  5
1B1
330
54
100
AcDbEntity
  8
1
  6
Continuous
 62
     7
100
AcDbLine
 10
735.9084281236131
 20
521.4362897557908
 30
0.0
 11
735.9084281236131
 21
528.9362897557905
 31
0.0
  0
LINE
  5
1B2
330
54
100
AcDbEntity
  8
1
  6
Continuous
 62
     7
100
AcDbLine
 10
735.4084281236131
 20
521.4362897557905
 30
0.0
 11
735.4084281236131
 21
528.4362897557905
 31
0.0
  0
LINE
  5
1B3
330
54
100
AcDbEntity
  8
0
  6
DASH_CENTER
 62
     2
100
AcDbLine
 10
308.2873649720041
 20
524.2362897557897
 30
0.0
 11
316.2873649720046
 21
524.2362897557897
 31
0.0
  0
LINE
  5
1B4
330
54
100
AcDbEntity
  8
0
  6
DASH_CENTER
 62
     2
100
AcDbLine
 10
316.2873649720046
 20
524.2362897557897
 30
0.0
 11
329.2873649720051
 21
524.2362897557897
 31
0.0
  0
CIRCLE
  5
1B5
330
54
100
AcDbEntity
  8
0
  6
Continuous
 62
     7
100
AcDbCircle
 10
318.7873649720046
 20
524.2362897557897
 30
0.0
 40
7.000000000000455
  0
CIRCLE
  5
1B6
330
54
100
AcDbEntity
  8
0
  6
Continuous
 62
     7
100
AcDbCircle
 10
318.7873649720046
 20
524.2362897557897
 30
0.0
 40
7.500000000000455
  0
CIRCLE
  5
1B7
330
54
100
AcDbEntity
  8
0
  6
Continuous
 62
     7
100
AcDbCircle
 10
318.7873649720046
 20
524.2362897557897
 30
0.0
 40
2.5
  0
ENDBLK
  5
56
330
54
100
AcDbEntity
  8
0
100
AcDbBlockEnd
  0
BLOCK
  5
58
330
57
100
AcDbEntity
  8
0
100
AcDbBlockBegin
  2
32-16__3
 70
     0
 71
     0
 10
364.2403665383587
 20
367.9408893859725
 30
0.0
  3
32-16__3
  1

  0
LINE
  5
1B8
330
57
100
AcDbEntity
  8
1
  6
Continuous
 62
     7
100
AcDbLine
 10
798.7873649720042
 20
423.0681943277133
 30
0.0
 11
798.7873649720042
 21
411.204385183864
 31
0.0
  0
LINE
  5
1B9
330
57
100
AcDbEntity
  8
1
  6
Continuous
 62
     7
100
AcDbLine
 10
786.7873605207627
 20
423.0681943277133
 30
0.0
 11
786.7873605207627
 21
411.204385183864
 31
0.0
  0
LINE
  5
1BA
330
57
100
AcDbEntity
  8
1
  6
Continuous
 62
     7
100
AcDbLine
 10
786.7873605207627
 20
411.204385183864
 30
0.0
 11
786.7873605207627
 21
410.1362897557889
 31
0.0
  0
LINE
  5
1BB
330
57
100
AcDbEntity
  8
1
  6
Continuous
 62
     7
100
AcDbLine
 10
786.7873605207627
 20
424.136289755789
 30
0.0
 11
786.7873605207627
 21
423.0681943277133
 31
0.0
  0
LINE
  5
1BC
330
57
100
AcDbEntity
  8
1
  6
Continuous
 62
     7
100
AcDbLine
 10
810.7873694232454
 20
424.136289755789
 30
0.0
 11
810.7873694232454
 21
410.1362897557889
 31
0.0
  0
LINE
  5
1BD
330
57
100
AcDbEntity
  8
1
  6
Continuous
 62
     7
100
AcDbLine
 10
786.7873605207627
 20
410.1362897557889
 30
0.0
 11
810.7873694232454
 21
410.1362897557889
 31
0.0
  0
LINE
  5
1BE
330
57
100
AcDbEntity
  8
1
  6
Continuous
 62
     7
100
AcDbLine
 10
810.7873694232454
 20
424.136289755789
 30
0.0
 11
809.2648649720042
 21
424.1362897557889
 31
0.0
  0
LINE
  5
1BF
330
57
100
AcDbEntity
  8
1
  6
Continuous
 62
     7
100
AcDbLine
 10
788.4866617417289
 20
424.1362897557889
 30
0.0
 11
809.0880682022799
 21
424.1362897557889
 31
0.0
  0
LINE
  5
1C0
330
57
100
AcDbEntity
  8
1
  6
Continuous
 62
     7
100
AcDbLine
 10
788.4866617417289
 20
424.1362897557889
 30
0.0
 11
788.3098649720038
 21
424.1362897557889
 31
0.0
  0
LINE
  5
1C1
330
57
100
AcDbEntity
  8
1
  6
Continuous
 62
     7
100
AcDbLine
 10
788.3098649720038
 20
424.1362897557889
 30
0.0
 11
786.7873605207627
 21
424.136289755789
 31
0.0
  0
LINE
  5
1C2
330
57
100
AcDbEntity
  8
1
  6
Continuous
 62
     7
100
AcDbLine
 10
809.2648649720042
 20
424.1362897557889
 30
0.0
 11
809.0880682022799
 21
424.1362897557889
 31
0.0
  0
LINE
  5
1C3
330
57
100
AcDbEntity
  8
1
  6
Continuous
 62
     7
100
AcDbLine
 10
434.1373649720038
 20
411.2043851838639
 30
0.0
 11
433.3394022034493
 21
410.7436811646359
 31
0.0
  0
LINE
  5
1C4
330
57
100
AcDbEntity
  8
1
  6
Continuous
 62
     7
100
AcDbLine
 10
432.2873694232454
 20
424.1362897557889
 30
0.0
 11
433.3362342467271
 21
423.5307273676078
 31
0.0
  0
LINE
  5
1C5
330
57
100
AcDbEntity
  8
1
  6
Continuous
 62
     7
100
AcDbLine
 10
434.1373649720038
 20
423.0681943277132
 30
0.0
 11
434.1373649720038
 21
411.2043851838639
 31
0.0
  0
LINE
  5
1C6
330
57
100
AcDbEntity
  8
1
  6
Continuous
 62
     7
100
AcDbLine
 10
406.4373649720038
 20
411.2043851838639
 30
0.0
 11
406.4373649720038
 21
423.0681943277132
 31
0.0
  0
LINE
  5
1C7
330
57
100
AcDbEntity
  8
1
  6
Continuous
 62
     7
100
AcDbLine
 10
406.4373649720038
 20
423.0681943277132
 30
0.0
 11
407.2384956972805
 21
423.5307273676082
 31
0.0
  0
LINE
  5
1C8
330
57
100
AcDbEntity
  8
1
  6
Continuous
 62
     7
100
AcDbLine
 10
408.2873605207624
 20
410.1362897557888
 30
0.0
 11
407.2353277405584
 21
410.7436811646359
 31
0.0
  0
LINE
  5
1C9
330
57
100
AcDbEntity
  8
1
  6
Continuous
 62
     7
100
AcDbLine
 10
408.2873605207624
 20
410.1362897557888
 30
0.0
 11
409.8982633568661
 21
410.1362897557888
 31
0.0
  0
LINE
  5
1CA
330
57
100
AcDbEntity
  8
1
  6
Continuous
 62
     7
100
AcDbLine
 10
432.2873694232454
 20
424.1362897557889
 30
0.0
 11
430.7648649720039
 21
424.1362897557889
 31
0.0
  0
LINE
  5
1CB
330
57
100
AcDbEntity
  8
1
  6
Continuous
 62
     7
100
AcDbLine
 10
433.3394022034493
 20
410.7436811646359
 30
0.0
 11
432.2873694232454
 21
410.1362897557888
 31
0.0
  0
LINE
  5
1CC
330
57
100
AcDbEntity
  8
1
  6
Continuous
 62
     7
100
AcDbLine
 10
433.3362342467271
 20
423.5307273676078
 30
0.0
 11
434.1373649720038
 21
423.0681943277132
 31
0.0
  0
LINE
  5
1CD
330
57
100
AcDbEntity
  8
1
  6
Continuous
 62
     7
100
AcDbLine
 10
407.2384956972805
 20
423.5307273676082
 30
0.0
 11
408.2873605207624
 21
424.1362897557889
 31
0.0
  0
LINE
  5
1CE
330
57
100
AcDbEntity
  8
1
  6
Continuous
 62
     7
100
AcDbLine
 10
407.2353277405584
 20
410.7436811646359
 30
0.0
 11
406.4373649720038
 21
411.2043851838639
 31
0.0
  0
LINE
  5
1CF
330
57
100
AcDbEntity
  8
1
  6
Continuous
 62
     7
100
AcDbLine
 10
409.8982633568661
 20
410.1362897557888
 30
0.0
 11
420.2873649720038
 21
410.1362897557888
 31
0.0
  0
LINE
  5
1D0
330
57
100
AcDbEntity
  8
1
  6
Continuous
 62
     7
100
AcDbLine
 10
420.2873649720038
 20
410.1362897557888
 30
0.0
 11
430.6764665871416
 21
410.1362897557888
 31
0.0
  0
LINE
  5
1D1
330
57
100
AcDbEntity
  8
1
  6
Continuous
 62
     7
100
AcDbLine
 10
430.6764665871416
 20
410.1362897557888
 30
0.0
 11
432.2873694232454
 21
410.1362897557888
 31
0.0
  0
LINE
  5
1D2
330
57
100
AcDbEntity
  8
1
  6
Continuous
 62
     7
100
AcDbLine
 10
420.2873649720038
 20
424.1362897557889
 30
0.0
 11
409.9866617417284
 21
424.1362897557889
 31
0.0
  0
LINE
  5
1D3
330
57
100
AcDbEntity
  8
1
  6
Continuous
 62
     7
100
AcDbLine
 10
409.9866617417284
 20
424.1362897557889
 30
0.0
 11
409.8098649720037
 21
424.1362897557889
 31
0.0
  0
LINE
  5
1D4
330
57
100
AcDbEntity
  8
1
  6
Continuous
 62
     7
100
AcDbLine
 10
409.8098649720037
 20
424.1362897557889
 30
0.0
 11
408.2873605207624
 21
424.1362897557889
 31
0.0
  0
LINE
  5
1D5
330
57
100
AcDbEntity
  8
1
  6
Continuous
 62
     7
100
AcDbLine
 10
430.7648649720039
 20
424.1362897557889
 30
0.0
 11
430.5880682022794
 21
424.1362897557889
 31
0.0
  0
LINE
  5
1D6
330
57
100
AcDbEntity
  8
1
  6
Continuous
 62
     7
100
AcDbLine
 10
430.5880682022794
 20
424.1362897557889
 30
0.0
 11
420.2873649720038
 21
424.1362897557889
 31
0.0
  0
LINE
  5
1D7
330
57
100
AcDbEntity
  8
1
  6
Continuous
 62
     7
100
AcDbLine
 10
427.2155682022794
 20
423.0681943277132
 30
0.0
 11
427.2155682022794
 21
411.2043851838639
 31
0.0
  0
LINE
  5
1D8
330
57
100
AcDbEntity
  8
1
  6
Continuous
 62
     7
100
AcDbLine
 10
413.3591617417284
 20
411.2043851838639
 30
0.0
 11
413.3591617417284
 21
423.0681943277132
 31
0.0
  0
ARC
  5
1D9
330
57
100
AcDbEntity
  8
1
  6
Continuous
 62
     7
100
AcDbCircle
 10
792.7873627463835
 20
406.7498027553453
 30
0.0
 40
17.38648700044332
100
AcDbArc
 50
69.81236110525738
 51
110.1876388947426
  0
ARC
  5
1DA
330
57
100
AcDbEntity
  8
1
  6
Continuous
 62
     7
100
AcDbCircle
 10
792.7873627463835
 20
427.522776756232
 30
0.0
 40
17.38648700044332
100
AcDbArc
 50
-110.1876388947426
 51
-69.81236110525738
  0
ARC
  5
1DB
330
57
100
AcDbEntity
  8
1
  6
Continuous
 62
     7
100
AcDbCircle
 10
804.7873649720042
 20
427.5227642538571
 30
0.0
 40
17.38647449806853
100
AcDbArc
 50
-110.1876462291035
 51
-69.81235377089655
  0
ARC
  5
1DC
330
57
100
AcDbEntity
  8
1
  6
Continuous
 62
     7
100
AcDbCircle
 10
804.7873649720042
 20
406.7498152577199
 30
0.0
 40
17.38647449806885
100
AcDbArc
 50
69.81235377089693
 51
110.1876462291031
  0
ARC
  5
1DD
330
57
100
AcDbEntity
  8
1
  6
Continuous
 62
     7
100
AcDbCircle
 10
788.3982633568666
 20
417.998808565088
 30
0.0
 40
6.13811776040942
100
AcDbArc
 50
89.174823673741
 51
90.82517632626325
  0
ARC
  5
1DE
330
57
100
AcDbEntity
  8
1
  6
Continuous
 62
     7
100
AcDbCircle
 10
809.176466587142
 20
417.998808565088
 30
0.0
 40
6.138117760409417
100
AcDbArc
 50
89.17482367374313
 51
90.82517632625688
  0
ARC
  5
1DF
330
57
100
AcDbEntity
  8
1
  6
Continuous
 62
     7
100
AcDbCircle
 10
420.2873649720038
 20
401.1323396630402
 30
0.0
 40
23.00395009274865
100
AcDbArc
 50
90.0
 51
107.5281601363352
  0
ARC
  5
1E0
330
57
100
AcDbEntity
  8
1
  6
Continuous
 62
     7
100
AcDbCircle
 10
409.8982633568661
 20
416.277428987822
 30
0.0
 40
6.141139232033197
100
AcDbArc
 50
-90.0
 51
-55.69766826834092
  0
ARC
  5
1E1
330
57
100
AcDbEntity
  8
1
  6
Continuous
 62
     7
100
AcDbCircle
 10
420.2873649720038
 20
433.1402398485374
 30
0.0
 40
23.0039500927486
100
AcDbArc
 50
-90.0
 51
-72.47183986366454
  0
ARC
  5
1E2
330
57
100
AcDbEntity
  8
1
  6
Continuous
 62
     7
100
AcDbCircle
 10
430.6764665871416
 20
417.998808565088
 30
0.0
 40
6.138117760409418
100
AcDbArc
 50
90.82517632625793
 51
124.3215748715529
  0
ARC
  5
1E3
330
57
100
AcDbEntity
  8
1
  6
Continuous
 62
     7
100
AcDbCircle
 10
430.6764665871416
 20
416.277428987822
 30
0.0
 40
6.141139232033197
100
AcDbArc
 50
-90.0
 51
-64.30233173165873
  0
ARC
  5
1E4
330
57
100
AcDbEntity
  8
1
  6
Continuous
 62
     7
100
AcDbCircle
 10
409.8982633568661
 20
417.998808565088
 30
0.0
 40
6.138117760409421
100
AcDbArc
 50
90.82517632625954
 51
115.6784251284463
  0
ARC
  5
1E5
330
57
100
AcDbEntity
  8
1
  6
Continuous
 62
     7
100
AcDbCircle
 10
409.8982633568661
 20
416.277428987822
 30
0.0
 40
6.141139232033184
100
AcDbArc
 50
-115.6976682683413
 51
-90.0
  0
ARC
  5
1E6
330
57
100
AcDbEntity
  8
1
  6
Continuous
 62
     7
100
AcDbCircle
 10
420.2873649720038
 20
433.1402398485374
 30
0.0
 40
23.00395009274878
100
AcDbArc
 50
-107.5281601363348
 51
-90.0
  0
ARC
  5
1E7
330
57
100
AcDbEntity
  8
1
  6
Continuous
 62
     7
100
AcDbCircle
 10
430.6764665871416
 20
416.277428987822
 30
0.0
 40
6.141139232033364
100
AcDbArc
 50
-124.3023317316578
 51
-90.0
  0
ARC
  5
1E8
330
57
100
AcDbEntity
  8
1
  6
Continuous
 62
     7
100
AcDbCircle
 10
420.2873649720038
 20
401.1323396630402
 30
0.0
 40
23.00395009274833
100
AcDbArc
 50
72.4718398636641
 51
90.0
  0
ARC
  5
1E9
330
57
100
AcDbEntity
  8
1
  6
Continuous
 62
     7
100
AcDbCircle
 10
409.8982633568661
 20
417.998808565088
 30
0.0
 40
6.138117760409103
100
AcDbArc
 50
55.67842512844583
 51
89.174823673741
  0
ARC
  5
1EA
330
57
100
AcDbEntity
  8
1
  6
Continuous
 62
     7
100
AcDbCircle
 10
409.8982633568661
 20
417.998808565088
 30
0.0
 40
6.13811776040942
100
AcDbArc
 50
89.174823673741
 51
90.82517632625954
  0
ARC
  5
1EB
330
57
100
AcDbEntity
  8
1
  6
Continuous
 62
     7
100
AcDbCircle
 10
430.6764665871416
 20
417.998808565088
 30
0.0
 40
6.138117760409086
100
AcDbArc
 50
64.32157487155305
 51
89.174823673741
  0
ARC
  5
1EC
330
57
100
AcDbEntity
  8
1
  6
Continuous
 62
     7
100
AcDbCircle
 10
430.6764665871416
 20
417.998808565088
 30
0.0
 40
6.13811776040942
100
AcDbArc
 50
89.174823673741
 51
90.82517632625793
  0
ENDBLK
  5
59
330
57
100
AcDbEntity
  8
0
100
AcDbBlockEnd
  0
BLOCK
  5
5B
330
5A
100
AcDbEntity
  8
0
100
AcDbBlockBegin
  2
73-1-21_5__4
 70
     0
 71
     0
 10
326.0121835635439
 20
475.5234182913308
 30
0.0
  3
73-1-21_5__4
  1

  0
LINE
  5
1ED
330
5A
100
AcDbEntity
  8
1
  6
Continuous
 62
     7
100
AcDbLine
 10
811.1565332032956
 20
456.6362897557893
 30
0.0
 11
817.0505319788554
 21
456.6362897557893
 31
0.0
  0
LINE
  5
1EE
330
5A
100
AcDbEntity
  8
1
  6
Continuous
 62
     7
100
AcDbLine
 10
803.6683481589338
 20
456.6362897557893
 30
0.0
 11
810.4494264221092
 21
456.6362897557893
 31
0.0
  0
LINE
  5
1EF
330
5A
100
AcDbEntity
  8
1
  6
Continuous
 62
     7
100
AcDbLine
 10
794.8723076113639
 20
456.6362897557893
 30
0.0
 11
802.7024223326447
 21
456.6362897557893
 31
0.0
  0
LINE
  5
1F0
330
5A
100
AcDbEntity
  8
1
  6
Continuous
 62
     7
100
AcDbLine
 10
787.1253035218996
 20
456.6362897557893
 30
0.0
 11
793.906381785075
 21
456.6362897557893
 31
0.0
  0
LINE
  5
1F1
330
5A
100
AcDbEntity
  8
1
  6
Continuous
 62
     7
100
AcDbLine
 10
780.5241979651534
 20
456.6362897557893
 30
0.0
 11
786.4181967407131
 21
456.6362897557893
 31
0.0
  0
LINE
  5
1F2
330
5A
100
AcDbEntity
  8
1
  6
Continuous
 62
     7
100
AcDbLine
 10
820.2873649720044
 20
456.6362897557893
 30
0.0
 11
820.2873649720044
 21
457.6362897557893
 31
0.0
  0
LINE
  5
1F3
330
5A
100
AcDbEntity
  8
1
  6
Continuous
 62
     7
100
AcDbLine
 10
817.0505319788554
 20
456.6362897557893
 30
0.0
 11
820.2873649720044
 21
456.6362897557893
 31
0.0
  0
LINE
  5
1F4
330
5A
100
AcDbEntity
  8
1
  6
Continuous
 62
     7
100
AcDbLine
 10
807.7167004078798
 20
455.1362897557893
 30
0.0
 11
810.5121835635445
 21
455.1362897557893
 31
0.0
  0
LINE
  5
1F5
330
5A
100
AcDbEntity
  8
1
  6
Continuous
 62
     7
100
AcDbLine
 10
799.2873649803239
 20
455.1362897557893
 30
0.0
 11
806.8506750040954
 21
455.1362897557893
 31
0.0
  0
LINE
  5
1F6
330
5A
100
AcDbEntity
  8
1
  6
Continuous
 62
     7
100
AcDbLine
 10
820.2873649720044
 20
457.6362897557893
 30
0.0
 11
798.7873649720042
 21
457.6362897557893
 31
0.0
  0
LINE
  5
1F7
330
5A
100
AcDbEntity
  8
1
  6
Continuous
 62
     7
100
AcDbLine
 10
798.7873649720042
 20
457.6362897557893
 30
0.0
 11
777.2873649720042
 21
457.6362897557893
 31
0.0
  0
LINE
  5
1F8
330
5A
100
AcDbEntity
  8
1
  6
Continuous
 62
     7
100
AcDbLine
 10
790.7240549399133
 20
455.1362897557893
 30
0.0
 11
798.2873649636846
 21
455.1362897557893
 31
0.0
  0
LINE
  5
1F9
330
5A
100
AcDbEntity
  8
1
  6
Continuous
 62
     7
100
AcDbLine
 10
787.0625463804641
 20
455.1362897557893
 30
0.0
 11
789.8580295361286
 21
455.1362897557893
 31
0.0
  0
LINE
  5
1FA
330
5A
100
AcDbEntity
  8
1
  6
Continuous
 62
     7
100
AcDbLine
 10
777.2873649720042
 20
456.6362897557893
 30
0.0
 11
780.5241979651534
 21
456.6362897557893
 31
0.0
  0
LINE
  5
1FB
330
5A
100
AcDbEntity
  8
1
  6
Continuous
 62
     7
100
AcDbLine
 10
777.2873649720042
 20
457.6362897557893
 30
0.0
 11
777.2873649720042
 21
456.6362897557893
 31
0.0
  0
LINE
  5
1FC
330
5A
100
AcDbEntity
  8
1
  6
Continuous
 62
     7
100
AcDbLine
 10
432.6565332032952
 20
456.6362897557893
 30
0.0
 11
438.5505319788553
 21
456.6362897557893
 31
0.0
  0
LINE
  5
1FD
330
5A
100
AcDbEntity
  8
1
  6
Continuous
 62
     7
100
AcDbLine
 10
425.1683481589333
 20
456.6362897557893
 30
0.0
 11
431.9494264221088
 21
456.6362897557893
 31
0.0
  0
LINE
  5
1FE
330
5A
100
AcDbEntity
  8
1
  6
Continuous
 62
     7
100
AcDbLine
 10
416.3723076113637
 20
456.6362897557893
 30
0.0
 11
424.2024223326441
 21
456.6362897557893
 31
0.0
  0
LINE
  5
1FF
330
5A
100
AcDbEntity
  8
1
  6
Continuous
 62
     7
100
AcDbLine
 10
408.6253035218992
 20
456.6362897557893
 30
0.0
 11
415.4063817850746
 21
456.6362897557893
 31
0.0
  0
LINE
  5
200
330
5A
100
AcDbEntity
  8
1
  6
Continuous
 62
     7
100
AcDbLine
 10
402.0241979651528
 20
456.6362897557893
 30
0.0
 11
407.9181967407127
 21
456.6362897557893
 31
0.0
  0
LINE
  5
201
330
5A
100
AcDbEntity
  8
1
  6
Continuous
 62
     7
100
AcDbLine
 10
441.7873649720041
 20
456.6362897557893
 30
0.0
 11
441.7873649720041
 21
457.6362897557893
 31
0.0
  0
LINE
  5
202
330
5A
100
AcDbEntity
  8
1
  6
Continuous
 62
     7
100
AcDbLine
 10
438.5505319788553
 20
456.6362897557893
 30
0.0
 11
441.7873649720041
 21
456.6362897557893
 31
0.0
  0
LINE
  5
203
330
5A
100
AcDbEntity
  8
1
  6
Continuous
 62
     7
100
AcDbLine
 10
429.2167004078794
 20
455.1362897557893
 30
0.0
 11
432.0121835635442
 21
455.1362897557893
 31
0.0
  0
LINE
  5
204
330
5A
100
AcDbEntity
  8
1
  6
Continuous
 62
     7
100
AcDbLine
 10
420.7873649803237
 20
455.1362897557893
 30
0.0
 11
428.350675004095
 21
455.1362897557893
 31
0.0
  0
LINE
  5
205
330
5A
100
AcDbEntity
  8
1
  6
Continuous
 62
     7
100
AcDbLine
 10
441.7873649720041
 20
457.6362897557893
 30
0.0
 11
420.2873649720038
 21
457.6362897557893
 31
0.0
  0
LINE
  5
206
330
5A
100
AcDbEntity
  8
1
  6
Continuous
 62
     7
100
AcDbLine
 10
420.2873649720038
 20
457.6362897557893
 30
0.0
 11
398.7873649720038
 21
457.6362897557893
 31
0.0
  0
LINE
  5
207
330
5A
100
AcDbEntity
  8
1
  6
Continuous
 62
     7
100
AcDbLine
 10
412.2240549399129
 20
455.1362897557893
 30
0.0
 11
419.7873649636842
 21
455.1362897557893
 31
0.0
  0
LINE
  5
208
330
5A
100
AcDbEntity
  8
1
  6
Continuous
 62
     7
100
AcDbLine
 10
408.5625463804637
 20
455.1362897557893
 30
0.0
 11
411.3580295361285
 21
455.1362897557893
 31
0.0
  0
LINE
  5
209
330
5A
100
AcDbEntity
  8
1
  6
Continuous
 62
     7
100
AcDbLine
 10
398.7873649720038
 20
456.6362897557893
 30
0.0
 11
402.0241979651528
 21
456.6362897557893
 31
0.0
  0
LINE
  5
20A
330
5A
100
AcDbEntity
  8
1
  6
Continuous
 62
     7
100
AcDbLine
 10
398.7873649720038
 20
457.6362897557893
 30
0.0
 11
398.7873649720038
 21
456.6362897557893
 31
0.0
  0
ARC
  5
20B
330
5A
100
AcDbEntity
  8
1
  6
Continuous
 62
     7
100
AcDbCircle
 10
810.5121835635445
 20
465.1362897557893
 30
0.0
 40
10.0
100
AcDbArc
 50
-90.0
 51
-64.15806723683167
  0
ARC
  5
20C
330
5A
100
AcDbEntity
  8
1
  6
Continuous
 62
     7
100
AcDbCircle
 10
787.0625463804641
 20
465.1362897557893
 30
0.0
 40
10.0
100
AcDbArc
 50
-115.8419327631672
 51
-90.0
  0
ARC
  5
20D
330
5A
100
AcDbEntity
  8
1
  6
Continuous
 62
     7
100
AcDbCircle
 10
432.0121835635442
 20
465.1362897557893
 30
0.0
 40
10.0
100
AcDbArc
 50
-90.0
 51
-64.15806723683284
  0
ARC
  5
20E
330
5A
100
AcDbEntity
  8
1
  6
Continuous
 62
     7
100
AcDbCircle
 10
408.5625463804637
 20
465.1362897557893
 30
0.0
 40
9.999999999999954
100
AcDbArc
 50
-115.8419327631666
 51
-90.0
  0
SPLINE
  5
20F
330
5A
100
AcDbEntity
  8
1
  6
Continuous
 62
     7
100
AcDbSpline
210
0.0
220
0.0
230
1.0
 70
     8
 71
     3
 72
    31
 73
    27
 74
    25
 42
0.0000000001
 43
0.0000000001
 44
0.00000001
 40
0.0
 40
0.0
 40
0.0
 40
0.0
 40
0.270965971033547
 40
0.525226683930561
 40
1.065749190585315
 40
1.674599336098009
 40
2.320394600531577
 40
2.934363290976144
 40
3.290221352613372
 40
3.646480795373189
 40
4.682658409192245
 40
5.750236620427319
 40
6.775822655106146
 40
7.208802821952887
 40
7.646130370974184
 40
8.81635862010992
 40
10.01163910179159
 40
11.17461240778431
 40
11.658747656576
 40
12.14501675690621
 40
13.08086599414769
 40
14.04099014689938
 40
14.98716393936306
 40
15.89608035137189
 40
16.1444897598807
 40
16.39628796123947
 40
16.39628796123947
 40
16.39628796123947
 40
16.39628796123947
 10
405.3213023192425
 20
455.6761450985659
 30
0.0
 10
405.404698873638
 20
455.641845815596
 30
0.0
 10
405.5663505214421
 20
455.5753618265299
 30
0.0
 10
405.9130696508908
 20
455.478195531413
 30
0.0
 10
406.3932140459651
 20
455.6099774387933
 30
0.0
 10
406.8673517097364
 20
455.9770159342196
 30
0.0
 10
407.3458240513472
 20
456.3719636853641
 30
0.0
 10
407.8263436321611
 20
456.6441420304745
 30
0.0
 10
408.2722172314005
 20
456.6924015770605
 30
0.0
 10
408.8547988486461
 20
456.6190478382187
 30
0.0
 10
409.595542883256
 20
456.2112492131494
 30
0.0
 10
410.3924614369853
 20
455.5552858052164
 30
0.0
 10
411.1550771579354
 20
455.1369346683606
 30
0.0
 10
411.7906580410165
 20
455.0792777705773
 30
0.0
 10
412.4714813797855
 20
455.1476215558018
 30
0.0
 10
413.3384515445712
 20
455.5528311567618
 30
0.0
 10
414.2990263800775
 20
456.2156545173641
 30
0.0
 10
415.1756986258129
 20
456.6315069738827
 30
0.0
 10
415.8890581233053
 20
456.6980230185342
 30
0.0
 10
416.5259053002619
 20
456.6382428067794
 30
0.0
 10
417.2730512417595
 20
456.3335529449199
 30
0.0
 10
418.0755926908992
 20
455.8321004793595
 30
0.0
 10
418.8812345603091
 20
455.3505595385268
 30
0.0
 10
419.5663665426754
 20
455.134966074939
 30
0.0
 10
420.036909550292
 20
455.1267913377563
 30
0.0
 10
420.2035036191177
 20
455.1331093487489
 30
0.0
 10
420.2873649720038
 20
455.1362897557893
 30
0.0
 11
405.3213023192425
 21
455.6761450985659
 31
0.0
 11
405.5739458935718
 21
455.5781972460716
 31
0.0
 11
405.8213023192425
 21
455.5193473624495
 31
0.0
 11
406.3500256174167
 21
455.6316694625372
 31
0.0
 11
406.855211949235
 21
455.9715006998224
 31
0.0
 11
407.3676670714245
 21
456.3644908667561
 31
0.0
 11
407.9181967407127
 21
456.6362897557893
 31
0.0
 11
408.2715480186046
 21
456.6784541299023
 31
0.0
 11
408.6253035218992
 21
456.6362897557893
 31
0.0
 11
409.5623799329452
 21
456.1940773099661
 31
0.0
 11
410.4288713021119
 21
455.5704460533221
 31
0.0
 11
411.3580295361285
 21
455.1362897557893
 31
0.0
 11
411.7888577984917
 21
455.0931755675007
 31
0.0
 11
412.2240549399129
 21
455.1362897557893
 31
0.0
 11
413.3092336743756
 21
455.5742638067845
 31
0.0
 11
414.3297484590559
 21
456.1965539353726
 31
0.0
 11
415.4063817850746
 21
456.6362897557893
 31
0.0
 11
415.88827282564
 21
456.682851157673
 31
0.0
 11
416.3723076113637
 21
456.6362897557893
 31
0.0
 11
417.2509979037779
 21
456.3142382616732
 31
0.0
 11
418.0813707784823
 21
455.832243160399
 31
0.0
 11
418.9109764097874
 21
455.3772713568199
 31
0.0
 11
419.7873649720038
 21
455.1362897557893
 31
0.0
 11
420.035669872032
 21
455.1290848367966
 31
0.0
 11
420.2873649720038
 21
455.1362897557893
 31
0.0
  0
SPLINE
  5
210
330
5A
100
AcDbEntity
  8
1
  6
Continuous
 62
     7
100
AcDbSpline
210
0.0
220
0.0
230
1.0
 70
     8
 71
     3
 72
    31
 73
    27
 74
    25
 42
0.0000000001
 43
0.0000000001
 44
0.00000001
 40
0.0
 40
0.0
 40
0.0
 40
0.0
 40
0.270965971033494
 40
0.5252266839305633
 40
1.065749190585372
 40
1.674599336098067
 40
2.320394600531725
 40
2.934363290976292
 40
3.290221352613507
 40
3.646480795373254
 40
4.68265840919231
 40
5.750236620427477
 40
6.775822655106252
 40
7.208802821952991
 40
7.646130370974289
 40
8.816358620110027
 40
10.01163910179165
 40
11.17461240778442
 40
11.65874765657612
 40
12.14501675690644
 40
13.08086599414791
 40
14.04099014689955
 40
14.98716393936313
 40
15.89608035137198
 40
16.14448975988103
 40
16.39628796123991
 40
16.39628796123991
 40
16.39628796123991
 40
16.39628796123991
 10
435.2534276247656
 20
455.6761450985659
 30
0.0
 10
435.1700310703702
 20
455.641845815596
 30
0.0
 10
435.0083794225661
 20
455.5753618265296
 30
0.0
 10
434.6616602931172
 20
455.4781955314134
 30
0.0
 10
434.181515898043
 20
455.6099774387932
 30
0.0
 10
433.7073782342716
 20
455.9770159342197
 30
0.0
 10
433.2289058926608
 20
456.3719636853639
 30
0.0
 10
432.748386311847
 20
456.6441420304745
 30
0.0
 10
432.3025127126076
 20
456.6924015770604
 30
0.0
 10
431.7199310953618
 20
456.6190478382187
 30
0.0
 10
430.979187060752
 20
456.2112492131494
 30
0.0
 10
430.1822685070226
 20
455.5552858052162
 30
0.0
 10
429.4196527860726
 20
455.1369346683607
 30
0.0
 10
428.7840719029912
 20
455.0792777705773
 30
0.0
 10
428.1032485642226
 20
455.147621555802
 30
0.0
 10
427.2362783994366
 20
455.5528311567619
 30
0.0
 10
426.2757035639306
 20
456.215654517364
 30
0.0
 10
425.3990313181949
 20
456.6315069738828
 30
0.0
 10
424.6856718207027
 20
456.6980230185342
 30
0.0
 10
424.0488246437459
 20
456.6382428067793
 30
0.0
 10
423.3016787022484
 20
456.33355294492
 30
0.0
 10
422.4991372531084
 20
455.8321004793596
 30
0.0
 10
421.6934953836991
 20
455.350559538527
 30
0.0
 10
421.008363401332
 20
455.1349660749389
 30
0.0
 10
420.5378203937159
 20
455.1267913377563
 30
0.0
 10
420.3712263248899
 20
455.1331093487489
 30
0.0
 10
420.2873649720038
 20
455.1362897557893
 30
0.0
 11
435.2534276247656
 21
455.6761450985659
 31
0.0
 11
435.0007840504363
 21
455.5781972460716
 31
0.0
 11
434.7534276247656
 21
455.5193473624495
 31
0.0
 11
434.2247043265913
 21
455.6316694625372
 31
0.0
 11
433.719517994773
 21
455.9715006998224
 31
0.0
 11
433.2070628725834
 21
456.3644908667561
 31
0.0
 11
432.6565332032952
 21
456.6362897557893
 31
0.0
 11
432.3031819254033
 21
456.6784541299022
 31
0.0
 11
431.9494264221088
 21
456.6362897557893
 31
0.0
 11
431.0123500110628
 21
456.1940773099661
 31
0.0
 11
430.1458586418959
 21
455.5704460533221
 31
0.0
 11
429.2167004078794
 21
455.1362897557893
 31
0.0
 11
428.7858721455162
 21
455.0931755675007
 31
0.0
 11
428.350675004095
 21
455.1362897557893
 31
0.0
 11
427.2654962696323
 21
455.5742638067845
 31
0.0
 11
426.2449814849521
 21
456.1965539353726
 31
0.0
 11
425.1683481589333
 21
456.6362897557893
 31
0.0
 11
424.6864571183679
 21
456.682851157673
 31
0.0
 11
424.2024223326441
 21
456.6362897557893
 31
0.0
 11
423.3237320402299
 21
456.3142382616732
 31
0.0
 11
422.4933591655255
 21
455.8322431603991
 31
0.0
 11
421.6637535342205
 21
455.37727135682
 31
0.0
 11
420.7873649720041
 21
455.1362897557893
 31
0.0
 11
420.5390600719757
 21
455.1290848367966
 31
0.0
 11
420.2873649720038
 21
455.1362897557893
 31
0.0
  0
SPLINE
  5
211
330
5A
100
AcDbEntity
  8
1
  6
Continuous
 62
     7
100
AcDbSpline
210
0.0
220
0.0
230
1.0
 70
     8
 71
     3
 72
    31
 73
    27
 74
    25
 42
0.0000000001
 43
0.0000000001
 44
0.00000001
 40
0.0
 40
0.0
 40
0.0
 40
0.0
 40
0.270965971033547
 40
0.525226683930561
 40
1.065749190585204
 40
1.674599336097898
 40
2.320394600531556
 40
2.934363290976021
 40
3.290221352613306
 40
3.64648079537301
 40
4.682658409191912
 40
5.750236620426954
 40
6.77582265510565
 40
7.208802821952565
 40
7.646130370974094
 40
8.816358620109936
 40
10.01163910179156
 40
11.17461240778422
 40
11.6587476565758
 40
12.14501675690589
 40
13.08086599414744
 40
14.04099014689903
 40
14.98716393936284
 40
15.89608035137173
 40
16.14448975988055
 40
16.39628796123932
 40
16.39628796123932
 40
16.39628796123932
 40
16.39628796123932
 10
783.8213023192431
 20
455.6761450985659
 30
0.0
 10
783.9046988736385
 20
455.6418458155958
 30
0.0
 10
784.0663505214425
 20
455.5753618265296
 30
0.0
 10
784.4130696508915
 20
455.4781955314134
 30
0.0
 10
784.8932140459656
 20
455.6099774387932
 30
0.0
 10
785.3673517097369
 20
455.9770159342197
 30
0.0
 10
785.8458240513473
 20
456.3719636853638
 30
0.0
 10
786.3263436321618
 20
456.6441420304747
 30
0.0
 10
786.7722172314008
 20
456.6924015770603
 30
0.0
 10
787.3547988486466
 20
456.6190478382188
 30
0.0
 10
788.095542883256
 20
456.2112492131491
 30
0.0
 10
788.8924614369855
 20
455.5552858052164
 30
0.0
 10
789.6550771579356
 20
455.1369346683605
 30
0.0
 10
790.2906580410167
 20
455.0792777705773
 30
0.0
 10
790.971481379786
 20
455.1476215558018
 30
0.0
 10
791.8384515445717
 20
455.5528311567618
 30
0.0
 10
792.7990263800778
 20
456.2156545173638
 30
0.0
 10
793.6756986258134
 20
456.6315069738827
 30
0.0
 10
794.3890581233054
 20
456.698023018534
 30
0.0
 10
795.0259053002624
 20
456.6382428067797
 30
0.0
 10
795.7730512417597
 20
456.3335529449201
 30
0.0
 10
796.5755926908996
 20
455.8321004793596
 30
0.0
 10
797.3812345603092
 20
455.3505595385268
 30
0.0
 10
798.0663665426765
 20
455.1349660749392
 30
0.0
 10
798.536909550292
 20
455.1267913377562
 30
0.0
 10
798.703503619118
 20
455.1331093487489
 30
0.0
 10
798.7873649720042
 20
455.1362897557893
 30
0.0
 11
783.8213023192431
 21
455.6761450985659
 31
0.0
 11
784.0739458935724
 21
455.5781972460716
 31
0.0
 11
784.3213023192431
 21
455.5193473624495
 31
0.0
 11
784.8500256174172
 21
455.6316694625372
 31
0.0
 11
785.3552119492355
 21
455.9715006998224
 31
0.0
 11
785.8676670714251
 21
456.3644908667561
 31
0.0
 11
786.4181967407131
 21
456.6362897557893
 31
0.0
 11
786.7715480186051
 21
456.6784541299023
 31
0.0
 11
787.1253035218996
 21
456.6362897557893
 31
0.0
 11
788.0623799329454
 21
456.1940773099661
 31
0.0
 11
788.9288713021122
 21
455.5704460533221
 31
0.0
 11
789.8580295361286
 21
455.1362897557893
 31
0.0
 11
790.2888577984919
 21
455.0931755675007
 31
0.0
 11
790.7240549399133
 21
455.1362897557893
 31
0.0
 11
791.8092336743762
 21
455.5742638067845
 31
0.0
 11
792.8297484590564
 21
456.1965539353726
 31
0.0
 11
793.906381785075
 21
456.6362897557893
 31
0.0
 11
794.3882728256403
 21
456.682851157673
 31
0.0
 11
794.8723076113639
 21
456.6362897557893
 31
0.0
 11
795.7509979037783
 21
456.3142382616733
 31
0.0
 11
796.5813707784826
 21
455.8322431603991
 31
0.0
 11
797.4109764097877
 21
455.37727135682
 31
0.0
 11
798.2873649720042
 21
455.1362897557893
 31
0.0
 11
798.5356698720324
 21
455.1290848367966
 31
0.0
 11
798.7873649720042
 21
455.1362897557893
 31
0.0
  0
SPLINE
  5
212
330
5A
100
AcDbEntity
  8
1
  6
Continuous
 62
     7
100
AcDbSpline
210
0.0
220
0.0
230
1.0
 70
     8
 71
     3
 72
    31
 73
    27
 74
    25
 42
0.0000000001
 43
0.0000000001
 44
0.00000001
 40
0.0
 40
0.0
 40
0.0
 40
0.0
 40
0.270965971033547
 40
0.525226683930561
 40
1.065749190585204
 40
1.674599336097898
 40
2.320394600531556
 40
2.934363290976021
 40
3.29022135261318
 40
3.646480795372871
 40
4.682658409191876
 40
5.750236620427101
 40
6.7758226551059
 40
7.20880282195281
 40
7.646130370973994
 40
8.816358620109732
 40
10.01163910179126
 40
11.17461240778403
 40
11.65874765657572
 40
12.14501675690593
 40
13.08086599414741
 40
14.04099014689914
 40
14.98716393936282
 40
15.89608035137173
 40
16.14448975988066
 40
16.39628796123955
 40
16.39628796123955
 40
16.39628796123955
 40
16.39628796123955
 10
813.7534276247657
 20
455.6761450985659
 30
0.0
 10
813.6700310703701
 20
455.6418458155958
 30
0.0
 10
813.508379422566
 20
455.5753618265296
 30
0.0
 10
813.1616602931174
 20
455.4781955314134
 30
0.0
 10
812.6815158980431
 20
455.6099774387932
 30
0.0
 10
812.2073782342718
 20
455.9770159342197
 30
0.0
 10
811.7289058926609
 20
456.3719636853637
 30
0.0
 10
811.2483863118473
 20
456.6441420304747
 30
0.0
 10
810.8025127126078
 20
456.6924015770602
 30
0.0
 10
810.2199310953622
 20
456.6190478382188
 30
0.0
 10
809.4791870607527
 20
456.2112492131491
 30
0.0
 10
808.682268507023
 20
455.5552858052165
 30
0.0
 10
807.9196527860729
 20
455.1369346683605
 30
0.0
 10
807.2840719029916
 20
455.0792777705774
 30
0.0
 10
806.6032485642229
 20
455.1476215558018
 30
0.0
 10
805.7362783994367
 20
455.5528311567619
 30
0.0
 10
804.7757035639311
 20
456.215654517364
 30
0.0
 10
803.8990313181955
 20
456.6315069738827
 30
0.0
 10
803.185671820703
 20
456.6980230185342
 30
0.0
 10
802.5488246437465
 20
456.6382428067794
 30
0.0
 10
801.8016787022491
 20
456.3335529449199
 30
0.0
 10
800.9991372531088
 20
455.8321004793596
 30
0.0
 10
800.1934953836994
 20
455.350559538527
 30
0.0
 10
799.5083634013324
 20
455.134966074939
 30
0.0
 10
799.0378203937163
 20
455.1267913377563
 30
0.0
 10
798.8712263248904
 20
455.1331093487489
 30
0.0
 10
798.7873649720042
 20
455.1362897557893
 30
0.0
 11
813.7534276247657
 21
455.6761450985659
 31
0.0
 11
813.5007840504363
 21
455.5781972460716
 31
0.0
 11
813.2534276247657
 21
455.5193473624495
 31
0.0
 11
812.7247043265916
 21
455.6316694625372
 31
0.0
 11
812.2195179947732
 21
455.9715006998224
 31
0.0
 11
811.7070628725836
 21
456.3644908667561
 31
0.0
 11
811.1565332032956
 21
456.6362897557893
 31
0.0
 11
810.8031819254037
 21
456.6784541299022
 31
0.0
 11
810.4494264221092
 21
456.6362897557893
 31
0.0
 11
809.5123500110633
 21
456.1940773099661
 31
0.0
 11
808.6458586418963
 21
455.5704460533221
 31
0.0
 11
807.7167004078798
 21
455.1362897557893
 31
0.0
 11
807.2858721455165
 21
455.0931755675007
 31
0.0
 11
806.8506750040954
 21
455.1362897557893
 31
0.0
 11
805.7654962696327
 21
455.5742638067845
 31
0.0
 11
804.7449814849525
 21
456.1965539353726
 31
0.0
 11
803.6683481589338
 21
456.6362897557893
 31
0.0
 11
803.1864571183684
 21
456.682851157673
 31
0.0
 11
802.7024223326447
 21
456.6362897557893
 31
0.0
 11
801.8237320402304
 21
456.3142382616732
 31
0.0
 11
800.9933591655259
 21
455.8322431603991
 31
0.0
 11
800.1637535342209
 21
455.37727135682
 31
0.0
 11
799.2873649720044
 21
455.1362897557893
 31
0.0
 11
799.0390600719761
 21
455.1290848367966
 31
0.0
 11
798.7873649720042
 21
455.1362897557893
 31
0.0
  0
ARC
  5
213
330
5A
100
AcDbEntity
  8
1
  6
Continuous
 62
     7
100
AcDbCircle
 10
817.0505319788554
 20
451.6362897557893
 30
0.0
 40
5.0
100
AcDbArc
 50
90.0
 51
115.8419327631636
  0
ARC
  5
214
330
5A
100
AcDbEntity
  8
1
  6
Continuous
 62
     7
100
AcDbCircle
 10
780.5241979651534
 20
451.6362897557893
 30
0.0
 40
4.999999999999902
100
AcDbArc
 50
64.15806723683519
 51
90.0
  0
ARC
  5
215
330
5A
100
AcDbEntity
  8
1
  6
Continuous
 62
     7
100
AcDbCircle
 10
438.5505319788553
 20
451.6362897557893
 30
0.0
 40
5.0
100
AcDbArc
 50
90.0
 51
115.8419327631678
  0
ARC
  5
216
330
5A
100
AcDbEntity
  8
1
  6
Continuous
 62
     7
100
AcDbCircle
 10
402.0241979651528
 20
451.6362897557893
 30
0.0
 40
5.000000000000002
100
AcDbArc
 50
64.15806723683284
 51
90.0
  0
ENDBLK
  5
5C
330
5A
100
AcDbEntity
  8
0
100
AcDbBlockEnd
  0
BLOCK
  5
5E
330
5D
100
AcDbEntity
  8
0
100
AcDbBlockBegin
  2
32-16__5
 70
     0
 71
     0
 10
161.2403665383587
 20
367.9408893859725
 30
0.0
  3
32-16__5
  1

  0
LINE
  5
217
330
5D
100
AcDbEntity
  8
1
  6
Continuous
 62
     7
100
AcDbLine
 10
210.3591617417283
 20
411.2043851838639
 30
0.0
 11
210.3591617417283
 21
423.0681943277132
 31
0.0
  0
LINE
  5
218
330
5D
100
AcDbEntity
  8
1
  6
Continuous
 62
     7
100
AcDbLine
 10
224.2155682022794
 20
423.0681943277132
 30
0.0
 11
224.2155682022794
 21
411.2043851838639
 31
0.0
  0
LINE
  5
219
330
5D
100
AcDbEntity
  8
1
  6
Continuous
 62
     7
100
AcDbLine
 10
227.5880682022794
 20
424.1362897557889
 30
0.0
 11
217.2873649720039
 21
424.1362897557889
 31
0.0
  0
LINE
  5
21A
330
5D
100
AcDbEntity
  8
1
  6
Continuous
 62
     7
100
AcDbLine
 10
227.764864972004
 20
424.1362897557889
 30
0.0
 11
227.5880682022794
 21
424.1362897557889
 31
0.0
  0
LINE
  5
21B
330
5D
100
AcDbEntity
  8
1
  6
Continuous
 62
     7
100
AcDbLine
 10
206.8098649720037
 20
424.1362897557889
 30
0.0
 11
205.2873605207624
 21
424.1362897557889
 31
0.0
  0
LINE
  5
21C
330
5D
100
AcDbEntity
  8
1
  6
Continuous
 62
     7
100
AcDbLine
 10
206.9866617417284
 20
424.1362897557889
 30
0.0
 11
206.8098649720037
 21
424.1362897557889
 31
0.0
  0
LINE
  5
21D
330
5D
100
AcDbEntity
  8
1
  6
Continuous
 62
     7
100
AcDbLine
 10
217.2873649720039
 20
424.1362897557889
 30
0.0
 11
206.9866617417284
 21
424.1362897557889
 31
0.0
  0
LINE
  5
21E
330
5D
100
AcDbEntity
  8
1
  6
Continuous
 62
     7
100
AcDbLine
 10
227.6764665871417
 20
410.1362897557888
 30
0.0
 11
229.2873694232455
 21
410.1362897557888
 31
0.0
  0
LINE
  5
21F
330
5D
100
AcDbEntity
  8
1
  6
Continuous
 62
     7
100
AcDbLine
 10
217.2873649720039
 20
410.1362897557888
 30
0.0
 11
227.6764665871417
 21
410.1362897557888
 31
0.0
  0
LINE
  5
220
330
5D
100
AcDbEntity
  8
1
  6
Continuous
 62
     7
100
AcDbLine
 10
206.8982633568662
 20
410.1362897557888
 30
0.0
 11
217.2873649720039
 21
410.1362897557888
 31
0.0
  0
LINE
  5
221
330
5D
100
AcDbEntity
  8
1
  6
Continuous
 62
     7
100
AcDbLine
 10
204.2353277405586
 20
410.7436811646359
 30
0.0
 11
203.4373649720039
 21
411.2043851838639
 31
0.0
  0
LINE
  5
222
330
5D
100
AcDbEntity
  8
1
  6
Continuous
 62
     7
100
AcDbLine
 10
204.2384956972806
 20
423.5307273676082
 30
0.0
 11
205.2873605207624
 21
424.1362897557889
 31
0.0
  0
LINE
  5
223
330
5D
100
AcDbEntity
  8
1
  6
Continuous
 62
     7
100
AcDbLine
 10
230.3362342467272
 20
423.5307273676078
 30
0.0
 11
231.1373649720038
 21
423.0681943277132
 31
0.0
  0
LINE
  5
224
330
5D
100
AcDbEntity
  8
1
  6
Continuous
 62
     7
100
AcDbLine
 10
230.3394022034493
 20
410.7436811646359
 30
0.0
 11
229.2873694232455
 21
410.1362897557888
 31
0.0
  0
LINE
  5
225
330
5D
100
AcDbEntity
  8
1
  6
Continuous
 62
     7
100
AcDbLine
 10
229.2873694232455
 20
424.1362897557889
 30
0.0
 11
227.764864972004
 21
424.1362897557889
 31
0.0
  0
LINE
  5
226
330
5D
100
AcDbEntity
  8
1
  6
Continuous
 62
     7
100
AcDbLine
 10
205.2873605207624
 20
410.1362897557888
 30
0.0
 11
206.8982633568662
 21
410.1362897557888
 31
0.0
  0
LINE
  5
227
330
5D
100
AcDbEntity
  8
1
  6
Continuous
 62
     7
100
AcDbLine
 10
205.2873605207624
 20
410.1362897557888
 30
0.0
 11
204.2353277405586
 21
410.7436811646359
 31
0.0
  0
LINE
  5
228
330
5D
100
AcDbEntity
  8
1
  6
Continuous
 62
     7
100
AcDbLine
 10
203.4373649720039
 20
423.0681943277132
 30
0.0
 11
204.2384956972806
 21
423.5307273676082
 31
0.0
  0
LINE
  5
229
330
5D
100
AcDbEntity
  8
1
  6
Continuous
 62
     7
100
AcDbLine
 10
203.4373649720039
 20
411.2043851838639
 30
0.0
 11
203.4373649720039
 21
423.0681943277132
 31
0.0
  0
LINE
  5
22A
330
5D
100
AcDbEntity
  8
1
  6
Continuous
 62
     7
100
AcDbLine
 10
231.1373649720038
 20
423.0681943277132
 30
0.0
 11
231.1373649720038
 21
411.2043851838639
 31
0.0
  0
LINE
  5
22B
330
5D
100
AcDbEntity
  8
1
  6
Continuous
 62
     7
100
AcDbLine
 10
229.2873694232455
 20
424.1362897557889
 30
0.0
 11
230.3362342467272
 21
423.5307273676078
 31
0.0
  0
LINE
  5
22C
330
5D
100
AcDbEntity
  8
1
  6
Continuous
 62
     7
100
AcDbLine
 10
231.1373649720038
 20
411.2043851838639
 30
0.0
 11
230.3394022034493
 21
410.7436811646359
 31
0.0
  0
ARC
  5
22D
330
5D
100
AcDbEntity
  8
1
  6
Continuous
 62
     7
100
AcDbCircle
 10
227.6764665871417
 20
417.998808565088
 30
0.0
 40
6.138117760409419
100
AcDbArc
 50
89.17482367374127
 51
90.82517632625874
  0
ARC
  5
22E
330
5D
100
AcDbEntity
  8
1
  6
Continuous
 62
     7
100
AcDbCircle
 10
227.6764665871417
 20
417.998808565088
 30
0.0
 40
6.138117760409086
100
AcDbArc
 50
64.32157487155305
 51
89.17482367374127
  0
ARC
  5
22F
330
5D
100
AcDbEntity
  8
1
  6
Continuous
 62
     7
100
AcDbCircle
 10
206.8982633568662
 20
417.998808565088
 30
0.0
 40
6.138117760409418
100
AcDbArc
 50
89.17482367374232
 51
90.82517632626059
  0
ARC
  5
230
330
5D
100
AcDbEntity
  8
1
  6
Continuous
 62
     7
100
AcDbCircle
 10
206.8982633568662
 20
417.998808565088
 30
0.0
 40
6.138117760408959
100
AcDbArc
 50
55.67842512844781
 51
89.17482367374232
  0
ARC
  5
231
330
5D
100
AcDbEntity
  8
1
  6
Continuous
 62
     7
100
AcDbCircle
 10
217.2873649720039
 20
401.1323396630402
 30
0.0
 40
23.00395009274828
100
AcDbArc
 50
72.47183986366444
 51
90.0
  0
ARC
  5
232
330
5D
100
AcDbEntity
  8
1
  6
Continuous
 62
     7
100
AcDbCircle
 10
227.6764665871417
 20
416.277428987822
 30
0.0
 40
6.141139232033444
100
AcDbArc
 50
-124.3023317316589
 51
-90.0
  0
ARC
  5
233
330
5D
100
AcDbEntity
  8
1
  6
Continuous
 62
     7
100
AcDbCircle
 10
217.2873649720039
 20
433.1402398485374
 30
0.0
 40
23.00395009274886
100
AcDbArc
 50
-107.5281601363354
 51
-90.0
  0
ARC
  5
234
330
5D
100
AcDbEntity
  8
1
  6
Continuous
 62
     7
100
AcDbCircle
 10
206.8982633568662
 20
416.277428987822
 30
0.0
 40
6.141139232033135
100
AcDbArc
 50
-115.6976682683403
 51
-90.0
  0
ARC
  5
235
330
5D
100
AcDbEntity
  8
1
  6
Continuous
 62
     7
100
AcDbCircle
 10
206.8982633568662
 20
417.998808565088
 30
0.0
 40
6.138117760409423
100
AcDbArc
 50
90.82517632626059
 51
115.6784251284463
  0
ARC
  5
236
330
5D
100
AcDbEntity
  8
1
  6
Continuous
 62
     7
100
AcDbCircle
 10
227.6764665871417
 20
416.277428987822
 30
0.0
 40
6.141139232033197
100
AcDbArc
 50
-90.0
 51
-64.30233173165968
  0
ARC
  5
237
330
5D
100
AcDbEntity
  8
1
  6
Continuous
 62
     7
100
AcDbCircle
 10
227.6764665871417
 20
417.998808565088
 30
0.0
 40
6.138117760409419
100
AcDbArc
 50
90.82517632625874
 51
124.321574871554
  0
ARC
  5
238
330
5D
100
AcDbEntity
  8
1
  6
Continuous
 62
     7
100
AcDbCircle
 10
217.2873649720039
 20
433.1402398485374
 30
0.0
 40
23.0039500927486
100
AcDbArc
 50
-90.0
 51
-72.47183986366487
  0
ARC
  5
239
330
5D
100
AcDbEntity
  8
1
  6
Continuous
 62
     7
100
AcDbCircle
 10
206.8982633568662
 20
416.277428987822
 30
0.0
 40
6.141139232033197
100
AcDbArc
 50
-90.0
 51
-55.6976682683429
  0
ARC
  5
23A
330
5D
100
AcDbEntity
  8
1
  6
Continuous
 62
     7
100
AcDbCircle
 10
217.2873649720039
 20
401.1323396630402
 30
0.0
 40
23.00395009274865
100
AcDbArc
 50
90.0
 51
107.5281601363358
  0
ENDBLK
  5
5F
330
5D
100
AcDbEntity
  8
0
100
AcDbBlockEnd
  0
BLOCK
  5
61
330
60
100
AcDbEntity
  8
0
100
AcDbBlockBegin
  2
92-53__6
 70
     0
 71
     0
 10
22.47081715283278
 20
275.4522930483092
 30
0.0
  3
92-53__6
  1

  0
LINE
  5
23B
330
60
100
AcDbEntity
  8
1
  6
Continuous
 62
     7
100
AcDbLine
 10
198.7873649720039
 20
457.6362897557893
 30
0.0
 11
235.7873649720039
 21
457.6362897557893
 31
0.0
  0
LINE
  5
23C
330
60
100
AcDbEntity
  8
1
  6
Continuous
 62
     7
100
AcDbLine
 10
198.7873649720039
 20
459.6362897557893
 30
0.0
 11
235.7873649720039
 21
459.6362897557893
 31
0.0
  0
LINE
  5
23D
330
60
100
AcDbEntity
  8
1
  6
Continuous
 62
     7
100
AcDbLine
 10
235.7873649720039
 20
457.6362897557893
 30
0.0
 11
235.7873649720039
 21
459.6362897557893
 31
0.0
  0
LINE
  5
23E
330
60
100
AcDbEntity
  8
1
  6
Continuous
 62
     7
100
AcDbLine
 10
198.7873649720039
 20
459.6362897557893
 30
0.0
 11
198.7873649720039
 21
457.6362897557893
 31
0.0
  0
ENDBLK
  5
62
330
60
100
AcDbEntity
  8
0
100
AcDbBlockEnd
  0
BLOCK
  5
64
330
63
100
AcDbEntity
  8
0
100
AcDbBlockBegin
  2
32-25__7
 70
     0
 71
     0
 10
230.6043082770933
 20
423.2137131666524
 30
0.0
  3
32-25__7
  1

  0
LINE
  5
23F
330
63
100
AcDbEntity
  8
1
  6
Continuous
 62
     7
100
AcDbLine
 10
210.3591617417283
 20
450.2043851838648
 30
0.0
 11
210.3591617417283
 21
455.1362897557893
 31
0.0
  0
LINE
  5
240
330
63
100
AcDbEntity
  8
1
  6
Continuous
 62
     7
100
AcDbLine
 10
224.2155682022794
 20
450.2043851838648
 30
0.0
 11
224.2155682022794
 21
455.1362897557893
 31
0.0
  0
LINE
  5
241
330
63
100
AcDbEntity
  8
1
  6
Continuous
 62
     7
100
AcDbLine
 10
206.8982655824869
 20
449.1362897557893
 30
0.0
 11
205.2873649720039
 21
449.1362897557893
 31
0.0
  0
LINE
  5
242
330
63
100
AcDbEntity
  8
1
  6
Continuous
 62
     7
100
AcDbLine
 10
227.5880637510379
 20
449.1362897557893
 30
0.0
 11
217.2873649720039
 21
449.1362897557893
 31
0.0
  0
LINE
  5
243
330
63
100
AcDbEntity
  8
1
  6
Continuous
 62
     7
100
AcDbLine
 10
217.2873649720039
 20
449.1362897557893
 30
0.0
 11
206.8982655824869
 21
449.1362897557893
 31
0.0
  0
LINE
  5
244
330
63
100
AcDbEntity
  8
1
  6
Continuous
 62
     7
100
AcDbLine
 10
204.2353350987715
 20
449.7436794862957
 30
0.0
 11
203.4373694232454
 21
450.2043851838648
 31
0.0
  0
LINE
  5
245
330
63
100
AcDbEntity
  8
1
  6
Continuous
 62
     7
100
AcDbLine
 10
230.3362267289919
 20
449.7418503735291
 30
0.0
 11
229.2873649720039
 21
449.1362897557893
 31
0.0
  0
LINE
  5
246
330
63
100
AcDbEntity
  8
1
  6
Continuous
 62
     7
100
AcDbLine
 10
227.764864972004
 20
449.1362897557893
 30
0.0
 11
227.5880637510379
 21
449.1362897557893
 31
0.0
  0
LINE
  5
247
330
63
100
AcDbEntity
  8
1
  6
Continuous
 62
     7
100
AcDbLine
 10
203.4373694232454
 20
450.2043851838648
 30
0.0
 11
203.4373694232454
 21
455.1362897557893
 31
0.0
  0
LINE
  5
248
330
63
100
AcDbEntity
  8
1
  6
Continuous
 62
     7
100
AcDbLine
 10
205.2873649720039
 20
449.1362897557893
 30
0.0
 11
204.2353350987715
 21
449.7436794862957
 31
0.0
  0
LINE
  5
249
330
63
100
AcDbEntity
  8
1
  6
Continuous
 62
     7
100
AcDbLine
 10
206.7873649720039
 20
455.1362897557893
 30
0.0
 11
203.4373694232454
 21
455.1362897557893
 31
0.0
  0
LINE
  5
24A
330
63
100
AcDbEntity
  8
1
  6
Continuous
 62
     7
100
AcDbLine
 10
231.1373605207624
 20
450.2043851838648
 30
0.0
 11
230.3362267289919
 21
449.7418503735291
 31
0.0
  0
LINE
  5
24B
330
63
100
AcDbEntity
  8
1
  6
Continuous
 62
     7
100
AcDbLine
 10
231.1373605207624
 20
455.1362897557893
 30
0.0
 11
231.1373605207624
 21
450.2043851838648
 31
0.0
  0
LINE
  5
24C
330
63
100
AcDbEntity
  8
1
  6
Continuous
 62
     7
100
AcDbLine
 10
231.1373605207624
 20
455.1362897557893
 30
0.0
 11
227.7873649720039
 21
455.1362897557893
 31
0.0
  0
LINE
  5
24D
330
63
100
AcDbEntity
  8
1
  6
Continuous
 62
     7
100
AcDbLine
 10
229.2873649720039
 20
449.1362897557893
 30
0.0
 11
227.7873649720039
 21
449.1362897557893
 31
0.0
  0
ARC
  5
24E
330
63
100
AcDbEntity
  8
1
  6
Continuous
 62
     7
100
AcDbCircle
 10
206.8982655824869
 20
455.2774217762529
 30
0.0
 40
6.141132020463426
100
AcDbArc
 50
-115.6976475036677
 51
-90.0
  0
ARC
  5
24F
330
63
100
AcDbEntity
  8
1
  6
Continuous
 62
     7
100
AcDbCircle
 10
227.6764643615208
 20
455.2737635507195
 30
0.0
 40
6.138110397458544
100
AcDbArc
 50
-90.82519809322565
 51
-89.17480190677144
  0
ARC
  5
250
330
63
100
AcDbEntity
  8
1
  6
Continuous
 62
     7
100
AcDbCircle
 10
227.6764643615208
 20
455.2737635507195
 30
0.0
 40
6.138110397458321
100
AcDbArc
 50
-124.3215966385219
 51
-90.82519809322565
  0
ARC
  5
251
330
63
100
AcDbEntity
  8
1
  6
Continuous
 62
     7
100
AcDbCircle
 10
217.2873649720039
 20
472.1402398485383
 30
0.0
 40
23.00395009274881
100
AcDbArc
 50
-107.5281601363354
 51
-90.0
  0
ARC
  5
252
330
63
100
AcDbEntity
  8
1
  6
Continuous
 62
     7
100
AcDbCircle
 10
227.6764643615208
 20
455.2737635507195
 30
0.0
 40
6.138110397458548
100
AcDbArc
 50
-89.17480190677144
 51
-64.32159663851863
  0
ARC
  5
253
330
63
100
AcDbEntity
  8
1
  6
Continuous
 62
     7
100
AcDbCircle
 10
206.8982655824869
 20
455.2774217762529
 30
0.0
 40
6.141132020463601
100
AcDbArc
 50
-90.0
 51
-55.69764750366804
  0
ARC
  5
254
330
63
100
AcDbEntity
  8
1
  6
Continuous
 62
     7
100
AcDbCircle
 10
217.2873649720039
 20
472.1402398485383
 30
0.0
 40
23.00395009274899
100
AcDbArc
 50
-90.0
 51
-72.47183986366483
  0
ENDBLK
  5
65
330
63
100
AcDbEntity
  8
0
100
AcDbBlockEnd
  0
BLOCK
  5
67
330
66
100
AcDbEntity
  8
0
100
AcDbBlockBegin
  2
73-1-21_5__8
 70
     0
 71
     0
 10
123.012183563544
 20
475.5234182913308
 30
0.0
  3
73-1-21_5__8
  1

  0
LINE
  5
255
330
66
100
AcDbEntity
  8
1
  6
Continuous
 62
     7
100
AcDbLine
 10
195.7873649720039
 20
457.6362897557893
 30
0.0
 11
195.7873649720039
 21
456.6362897557893
 31
0.0
  0
LINE
  5
256
330
66
100
AcDbEntity
  8
1
  6
Continuous
 62
     7
100
AcDbLine
 10
195.7873649720039
 20
456.6362897557893
 30
0.0
 11
199.0241979651528
 21
456.6362897557893
 31
0.0
  0
LINE
  5
257
330
66
100
AcDbEntity
  8
1
  6
Continuous
 62
     7
100
AcDbLine
 10
205.5625463804638
 20
455.1362897557893
 30
0.0
 11
208.3580295361284
 21
455.1362897557893
 31
0.0
  0
LINE
  5
258
330
66
100
AcDbEntity
  8
1
  6
Continuous
 62
     7
100
AcDbLine
 10
209.2240549399128
 20
455.1362897557893
 30
0.0
 11
216.7873649636843
 21
455.1362897557893
 31
0.0
  0
LINE
  5
259
330
66
100
AcDbEntity
  8
1
  6
Continuous
 62
     7
100
AcDbLine
 10
217.2873649720039
 20
457.6362897557893
 30
0.0
 11
195.7873649720039
 21
457.6362897557893
 31
0.0
  0
LINE
  5
25A
330
66
100
AcDbEntity
  8
1
  6
Continuous
 62
     7
100
AcDbLine
 10
238.787364972004
 20
457.6362897557893
 30
0.0
 11
217.2873649720039
 21
457.6362897557893
 31
0.0
  0
LINE
  5
25B
330
66
100
AcDbEntity
  8
1
  6
Continuous
 62
     7
100
AcDbLine
 10
217.7873649803236
 20
455.1362897557893
 30
0.0
 11
225.350675004095
 21
455.1362897557893
 31
0.0
  0
LINE
  5
25C
330
66
100
AcDbEntity
  8
1
  6
Continuous
 62
     7
100
AcDbLine
 10
226.2167004078795
 20
455.1362897557893
 30
0.0
 11
229.0121835635442
 21
455.1362897557893
 31
0.0
  0
LINE
  5
25D
330
66
100
AcDbEntity
  8
1
  6
Continuous
 62
     7
100
AcDbLine
 10
235.5505319788553
 20
456.6362897557893
 30
0.0
 11
238.787364972004
 21
456.6362897557893
 31
0.0
  0
LINE
  5
25E
330
66
100
AcDbEntity
  8
1
  6
Continuous
 62
     7
100
AcDbLine
 10
238.787364972004
 20
456.6362897557893
 30
0.0
 11
238.787364972004
 21
457.6362897557893
 31
0.0
  0
LINE
  5
25F
330
66
100
AcDbEntity
  8
1
  6
Continuous
 62
     7
100
AcDbLine
 10
199.0241979651528
 20
456.6362897557893
 30
0.0
 11
204.9181967407128
 21
456.6362897557893
 31
0.0
  0
LINE
  5
260
330
66
100
AcDbEntity
  8
1
  6
Continuous
 62
     7
100
AcDbLine
 10
205.6253035218993
 20
456.6362897557893
 30
0.0
 11
212.4063817850747
 21
456.6362897557893
 31
0.0
  0
LINE
  5
261
330
66
100
AcDbEntity
  8
1
  6
Continuous
 62
     7
100
AcDbLine
 10
213.3723076113636
 20
456.6362897557893
 30
0.0
 11
221.2024223326442
 21
456.6362897557893
 31
0.0
  0
LINE
  5
262
330
66
100
AcDbEntity
  8
1
  6
Continuous
 62
     7
100
AcDbLine
 10
222.1683481589333
 20
456.6362897557893
 30
0.0
 11
228.9494264221087
 21
456.6362897557893
 31
0.0
  0
LINE
  5
263
330
66
100
AcDbEntity
  8
1
  6
Continuous
 62
     7
100
AcDbLine
 10
229.6565332032952
 20
456.6362897557893
 30
0.0
 11
235.5505319788553
 21
456.6362897557893
 31
0.0
  0
ARC
  5
264
330
66
100
AcDbEntity
  8
1
  6
Continuous
 62
     7
100
AcDbCircle
 10
205.5625463804638
 20
465.1362897557893
 30
0.0
 40
9.999999999999966
100
AcDbArc
 50
-115.8419327631667
 51
-90.0
  0
ARC
  5
265
330
66
100
AcDbEntity
  8
1
  6
Continuous
 62
     7
100
AcDbCircle
 10
229.0121835635442
 20
465.1362897557893
 30
0.0
 40
10.0
100
AcDbArc
 50
-90.0
 51
-64.15806723683269
  0
SPLINE
  5
266
330
66
100
AcDbEntity
  8
1
  6
Continuous
 62
     7
100
AcDbSpline
210
0.0
220
0.0
230
1.0
 70
     8
 71
     3
 72
    31
 73
    27
 74
    25
 42
0.0000000001
 43
0.0000000001
 44
0.00000001
 40
0.0
 40
0.0
 40
0.0
 40
0.0
 40
0.270965971033494
 40
0.5252266839305633
 40
1.065749190585372
 40
1.674599336098114
 40
2.320394600531692
 40
2.93436329097631
 40
3.290221352613581
 40
3.646480795373329
 40
4.682658409192333
 40
5.750236620427398
 40
6.775822655106145
 40
7.208802821953004
 40
7.646130370974335
 40
8.816358620110098
 40
10.01163910179172
 40
11.17461240778446
 40
11.6587476565761
 40
12.14501675690637
 40
13.0808659941479
 40
14.04099014689957
 40
14.98716393936325
 40
15.89608035137213
 40
16.14448975988103
 40
16.39628796123983
 40
16.39628796123983
 40
16.39628796123983
 40
16.39628796123983
 10
232.2534276247656
 20
455.6761450985659
 30
0.0
 10
232.1700310703702
 20
455.641845815596
 30
0.0
 10
232.0083794225661
 20
455.5753618265296
 30
0.0
 10
231.6616602931172
 20
455.4781955314134
 30
0.0
 10
231.1815158980431
 20
455.6099774387932
 30
0.0
 10
230.7073782342716
 20
455.9770159342195
 30
0.0
 10
230.2289058926609
 20
456.371963685364
 30
0.0
 10
229.7483863118469
 20
456.6441420304745
 30
0.0
 10
229.3025127126074
 20
456.6924015770602
 30
0.0
 10
228.7199310953618
 20
456.6190478382189
 30
0.0
 10
227.9791870607519
 20
456.2112492131492
 30
0.0
 10
227.1822685070226
 20
455.5552858052163
 30
0.0
 10
226.4196527860727
 20
455.1369346683607
 30
0.0
 10
225.7840719029913
 20
455.0792777705772
 30
0.0
 10
225.1032485642224
 20
455.147621555802
 30
0.0
 10
224.2362783994365
 20
455.5528311567618
 30
0.0
 10
223.2757035639307
 20
456.2156545173641
 30
0.0
 10
222.3990313181947
 20
456.6315069738826
 30
0.0
 10
221.6856718207027
 20
456.6980230185343
 30
0.0
 10
221.048824643746
 20
456.6382428067793
 30
0.0
 10
220.3016787022484
 20
456.3335529449199
 30
0.0
 10
219.4991372531086
 20
455.8321004793593
 30
0.0
 10
218.6934953836989
 20
455.3505595385269
 30
0.0
 10
218.0083634013322
 20
455.1349660749392
 30
0.0
 10
217.5378203937159
 20
455.1267913377563
 30
0.0
 10
217.37122632489
 20
455.1331093487489
 30
0.0
 10
217.2873649720039
 20
455.1362897557893
 30
0.0
 11
232.2534276247656
 21
455.6761450985659
 31
0.0
 11
232.0007840504363
 21
455.5781972460716
 31
0.0
 11
231.7534276247656
 21
455.5193473624495
 31
0.0
 11
231.2247043265913
 21
455.6316694625372
 31
0.0
 11
230.719517994773
 21
455.9715006998224
 31
0.0
 11
230.2070628725834
 21
456.364490866756
 31
0.0
 11
229.6565332032952
 21
456.6362897557893
 31
0.0
 11
229.3031819254032
 21
456.6784541299022
 31
0.0
 11
228.9494264221087
 21
456.6362897557893
 31
0.0
 11
228.0123500110628
 21
456.1940773099661
 31
0.0
 11
227.145858641896
 21
455.5704460533221
 31
0.0
 11
226.2167004078795
 21
455.1362897557893
 31
0.0
 11
225.7858721455162
 21
455.0931755675007
 31
0.0
 11
225.350675004095
 21
455.1362897557893
 31
0.0
 11
224.2654962696323
 21
455.5742638067845
 31
0.0
 11
223.244981484952
 21
456.1965539353726
 31
0.0
 11
222.1683481589333
 21
456.6362897557893
 31
0.0
 11
221.6864571183679
 21
456.682851157673
 31
0.0
 11
221.2024223326442
 21
456.6362897557893
 31
0.0
 11
220.3237320402299
 21
456.3142382616732
 31
0.0
 11
219.4933591655255
 21
455.832243160399
 31
0.0
 11
218.6637535342205
 21
455.3772713568199
 31
0.0
 11
217.787364972004
 21
455.1362897557893
 31
0.0
 11
217.5390600719757
 21
455.1290848367966
 31
0.0
 11
217.2873649720039
 21
455.1362897557893
 31
0.0
  0
SPLINE
  5
267
330
66
100
AcDbEntity
  8
1
  6
Continuous
 62
     7
100
AcDbSpline
210
0.0
220
0.0
230
1.0
 70
     8
 71
     3
 72
    31
 73
    27
 74
    25
 42
0.0000000001
 43
0.0000000001
 44
0.00000001
 40
0.0
 40
0.0
 40
0.0
 40
0.0
 40
0.270965971033547
 40
0.525226683930561
 40
1.065749190585343
 40
1.674599336098014
 40
2.320394600531649
 40
2.934363290976215
 40
3.290221352613501
 40
3.646480795373261
 40
4.68265840919224
 40
5.750236620427314
 40
6.775822655106012
 40
7.208802821952814
 40
7.646130370974088
 40
8.816358620109931
 40
10.01163910179166
 40
11.17461240778439
 40
11.65874765657595
 40
12.1450167569061
 40
13.08086599414765
 40
14.04099014689934
 40
14.98716393936307
 40
15.89608035137196
 40
16.14448975988075
 40
16.39628796123955
 40
16.39628796123955
 40
16.39628796123955
 40
16.39628796123955
 10
202.3213023192425
 20
455.6761450985659
 30
0.0
 10
202.404698873638
 20
455.6418458155959
 30
0.0
 10
202.566350521442
 20
455.5753618265297
 30
0.0
 10
202.913069650891
 20
455.4781955314132
 30
0.0
 10
203.393214045965
 20
455.6099774387931
 30
0.0
 10
203.8673517097364
 20
455.9770159342197
 30
0.0
 10
204.3458240513472
 20
456.3719636853639
 30
0.0
 10
204.8263436321612
 20
456.6441420304745
 30
0.0
 10
205.2722172314006
 20
456.6924015770604
 30
0.0
 10
205.8547988486462
 20
456.6190478382187
 30
0.0
 10
206.595542883256
 20
456.2112492131491
 30
0.0
 10
207.3924614369852
 20
455.5552858052164
 30
0.0
 10
208.1550771579354
 20
455.1369346683606
 30
0.0
 10
208.7906580410164
 20
455.0792777705773
 30
0.0
 10
209.4714813797855
 20
455.1476215558018
 30
0.0
 10
210.3384515445713
 20
455.5528311567621
 30
0.0
 10
211.2990263800775
 20
456.215654517364
 30
0.0
 10
212.1756986258131
 20
456.6315069738827
 30
0.0
 10
212.8890581233052
 20
456.6980230185341
 30
0.0
 10
213.5259053002619
 20
456.6382428067794
 30
0.0
 10
214.2730512417595
 20
456.3335529449201
 30
0.0
 10
215.0755926908993
 20
455.8321004793596
 30
0.0
 10
215.8812345603091
 20
455.3505595385269
 30
0.0
 10
216.5663665426757
 20
455.1349660749391
 30
0.0
 10
217.036909550292
 20
455.1267913377564
 30
0.0
 10
217.2035036191178
 20
455.1331093487489
 30
0.0
 10
217.2873649720039
 20
455.1362897557893
 30
0.0
 11
202.3213023192425
 21
455.6761450985659
 31
0.0
 11
202.5739458935719
 21
455.5781972460716
 31
0.0
 11
202.8213023192425
 21
455.5193473624495
 31
0.0
 11
203.3500256174168
 21
455.6316694625372
 31
0.0
 11
203.855211949235
 21
455.9715006998224
 31
0.0
 11
204.3676670714247
 21
456.3644908667561
 31
0.0
 11
204.9181967407128
 21
456.6362897557893
 31
0.0
 11
205.2715480186048
 21
456.6784541299023
 31
0.0
 11
205.6253035218993
 21
456.6362897557893
 31
0.0
 11
206.5623799329452
 21
456.1940773099661
 31
0.0
 11
207.428871302112
 21
455.5704460533221
 31
0.0
 11
208.3580295361284
 21
455.1362897557893
 31
0.0
 11
208.7888577984916
 21
455.0931755675007
 31
0.0
 11
209.2240549399128
 21
455.1362897557893
 31
0.0
 11
210.3092336743756
 21
455.5742638067845
 31
0.0
 11
211.329748459056
 21
456.1965539353726
 31
0.0
 11
212.4063817850747
 21
456.6362897557893
 31
0.0
 11
212.88827282564
 21
456.682851157673
 31
0.0
 11
213.3723076113636
 21
456.6362897557893
 31
0.0
 11
214.250997903778
 21
456.3142382616733
 31
0.0
 11
215.0813707784824
 21
455.8322431603991
 31
0.0
 11
215.9109764097875
 21
455.37727135682
 31
0.0
 11
216.7873649720039
 21
455.1362897557893
 31
0.0
 11
217.0356698720321
 21
455.1290848367966
 31
0.0
 11
217.2873649720039
 21
455.1362897557893
 31
0.0
  0
ARC
  5
268
330
66
100
AcDbEntity
  8
1
  6
Continuous
 62
     7
100
AcDbCircle
 10
199.0241979651528
 20
451.6362897557893
 30
0.0
 40
5.000000000000027
100
AcDbArc
 50
64.15806723683225
 51
90.0
  0
ARC
  5
269
330
66
100
AcDbEntity
  8
1
  6
Continuous
 62
     7
100
AcDbCircle
 10
235.5505319788553
 20
451.6362897557893
 30
0.0
 40
5.0
100
AcDbArc
 50
90.0
 51
115.8419327631678
  0
ENDBLK
  5
68
330
66
100
AcDbEntity
  8
0
100
AcDbBlockEnd
  0
BLOCK
  5
6A
330
69
100
AcDbEntity
  8
0
100
AcDbBlockBegin
  2
32-25__9
 70
     0
 71
     0
 10
328.6321964242621
 20
423.7137131666524
 30
0.0
  3
32-25__9
  1

  0
LINE
  5
26A
330
69
100
AcDbEntity
  8
1
  6
Continuous
 62
     7
100
AcDbLine
 10
413.3591617417284
 20
450.2043851838648
 30
0.0
 11
413.3591617417284
 21
455.1362897557893
 31
0.0
  0
LINE
  5
26B
330
69
100
AcDbEntity
  8
1
  6
Continuous
 62
     7
100
AcDbLine
 10
427.2155682022794
 20
450.2043851838648
 30
0.0
 11
427.2155682022794
 21
455.1362897557893
 31
0.0
  0
LINE
  5
26C
330
69
100
AcDbEntity
  8
1
  6
Continuous
 62
     7
100
AcDbLine
 10
409.8982655824868
 20
449.1362897557893
 30
0.0
 11
408.287364972004
 21
449.1362897557893
 31
0.0
  0
LINE
  5
26D
330
69
100
AcDbEntity
  8
1
  6
Continuous
 62
     7
100
AcDbLine
 10
430.5880637510378
 20
449.1362897557893
 30
0.0
 11
420.2873649720038
 21
449.1362897557893
 31
0.0
  0
LINE
  5
26E
330
69
100
AcDbEntity
  8
1
  6
Continuous
 62
     7
100
AcDbLine
 10
420.2873649720038
 20
449.1362897557893
 30
0.0
 11
409.8982655824868
 21
449.1362897557893
 31
0.0
  0
LINE
  5
26F
330
69
100
AcDbEntity
  8
1
  6
Continuous
 62
     7
100
AcDbLine
 10
407.2353350987714
 20
449.7436794862957
 30
0.0
 11
406.4373694232455
 21
450.2043851838648
 31
0.0
  0
LINE
  5
270
330
69
100
AcDbEntity
  8
1
  6
Continuous
 62
     7
100
AcDbLine
 10
433.3362267289917
 20
449.7418503735291
 30
0.0
 11
432.2873649720038
 21
449.1362897557893
 31
0.0
  0
LINE
  5
271
330
69
100
AcDbEntity
  8
1
  6
Continuous
 62
     7
100
AcDbLine
 10
430.7648649720039
 20
449.1362897557893
 30
0.0
 11
430.5880637510378
 21
449.1362897557893
 31
0.0
  0
LINE
  5
272
330
69
100
AcDbEntity
  8
1
  6
Continuous
 62
     7
100
AcDbLine
 10
406.4373694232455
 20
450.2043851838648
 30
0.0
 11
406.4373694232453
 21
455.1362897557893
 31
0.0
  0
LINE
  5
273
330
69
100
AcDbEntity
  8
1
  6
Continuous
 62
     7
100
AcDbLine
 10
408.287364972004
 20
449.1362897557893
 30
0.0
 11
407.2353350987714
 21
449.7436794862957
 31
0.0
  0
LINE
  5
274
330
69
100
AcDbEntity
  8
1
  6
Continuous
 62
     7
100
AcDbLine
 10
409.787364972004
 20
455.1362897557893
 30
0.0
 11
406.4373694232453
 21
455.1362897557893
 31
0.0
  0
LINE
  5
275
330
69
100
AcDbEntity
  8
1
  6
Continuous
 62
     7
100
AcDbLine
 10
434.1373605207623
 20
450.2043851838648
 30
0.0
 11
433.3362267289917
 21
449.7418503735291
 31
0.0
  0
LINE
  5
276
330
69
100
AcDbEntity
  8
1
  6
Continuous
 62
     7
100
AcDbLine
 10
434.1373605207623
 20
455.1362897557893
 30
0.0
 11
434.1373605207623
 21
450.2043851838648
 31
0.0
  0
LINE
  5
277
330
69
100
AcDbEntity
  8
1
  6
Continuous
 62
     7
100
AcDbLine
 10
434.1373605207623
 20
455.1362897557893
 30
0.0
 11
430.7873649720038
 21
455.1362897557893
 31
0.0
  0
LINE
  5
278
330
69
100
AcDbEntity
  8
1
  6
Continuous
 62
     7
100
AcDbLine
 10
432.2873649720038
 20
449.1362897557893
 30
0.0
 11
430.7873649720038
 21
449.1362897557893
 31
0.0
  0
LINE
  5
279
330
69
100
AcDbEntity
  8
1
  6
Continuous
 62
     7
100
AcDbLine
 10
786.7873649720042
 20
449.1362897557893
 30
0.0
 11
809.0880637510383
 21
449.1362897557893
 31
0.0
  0
LINE
  5
27A
330
69
100
AcDbEntity
  8
1
  6
Continuous
 62
     7
100
AcDbLine
 10
809.2648649720042
 20
449.1362897557893
 30
0.0
 11
809.0880637510383
 21
449.1362897557893
 31
0.0
  0
LINE
  5
27B
330
69
100
AcDbEntity
  8
1
  6
Continuous
 62
     7
100
AcDbLine
 10
788.2873649720042
 20
455.1362897557893
 30
0.0
 11
786.7873649720042
 21
455.1362897557893
 31
0.0
  0
LINE
  5
27C
330
69
100
AcDbEntity
  8
1
  6
Continuous
 62
     7
100
AcDbLine
 10
810.7873649720042
 20
449.1362897557893
 30
0.0
 11
809.2873649720042
 21
449.1362897557893
 31
0.0
  0
LINE
  5
27D
330
69
100
AcDbEntity
  8
1
  6
Continuous
 62
     7
100
AcDbLine
 10
810.7873649720042
 20
449.1362897557893
 30
0.0
 11
810.7873649720042
 21
450.2043851838648
 31
0.0
  0
LINE
  5
27E
330
69
100
AcDbEntity
  8
1
  6
Continuous
 62
     7
100
AcDbLine
 10
810.7873649720042
 20
455.1362897557893
 30
0.0
 11
809.2873649720042
 21
455.1362897557893
 31
0.0
  0
LINE
  5
27F
330
69
100
AcDbEntity
  8
1
  6
Continuous
 62
     7
100
AcDbLine
 10
786.7873649720042
 20
449.1362897557893
 30
0.0
 11
786.7873649720042
 21
450.2043851838648
 31
0.0
  0
LINE
  5
280
330
69
100
AcDbEntity
  8
1
  6
Continuous
 62
     7
100
AcDbLine
 10
810.7873649720042
 20
450.2043851838648
 30
0.0
 11
810.7873649720042
 21
455.1362897557893
 31
0.0
  0
LINE
  5
281
330
69
100
AcDbEntity
  8
1
  6
Continuous
 62
     7
100
AcDbLine
 10
786.7873649720042
 20
450.2043851838648
 30
0.0
 11
786.7873649720042
 21
455.1362897557893
 31
0.0
  0
LINE
  5
282
330
69
100
AcDbEntity
  8
1
  6
Continuous
 62
     7
100
AcDbLine
 10
798.7873649720042
 20
450.2043851838648
 30
0.0
 11
798.7873649720042
 21
455.1362897557893
 31
0.0
  0
ARC
  5
283
330
69
100
AcDbEntity
  8
1
  6
Continuous
 62
     7
100
AcDbCircle
 10
409.8982655824868
 20
455.2774217762529
 30
0.0
 40
6.141132020463414
100
AcDbArc
 50
-115.6976475036674
 51
-90.0
  0
ARC
  5
284
330
69
100
AcDbEntity
  8
1
  6
Continuous
 62
     7
100
AcDbCircle
 10
430.6764643615207
 20
455.2737635507195
 30
0.0
 40
6.138110397458544
100
AcDbArc
 50
-90.82519809322565
 51
-89.17480190677118
  0
ARC
  5
285
330
69
100
AcDbEntity
  8
1
  6
Continuous
 62
     7
100
AcDbCircle
 10
430.6764643615207
 20
455.2737635507195
 30
0.0
 40
6.138110397458241
100
AcDbArc
 50
-124.3215966385208
 51
-90.82519809322565
  0
ARC
  5
286
330
69
100
AcDbEntity
  8
1
  6
Continuous
 62
     7
100
AcDbCircle
 10
420.2873649720038
 20
472.1402398485383
 30
0.0
 40
23.00395009274873
100
AcDbArc
 50
-107.5281601363348
 51
-90.0
  0
ARC
  5
287
330
69
100
AcDbEntity
  8
1
  6
Continuous
 62
     7
100
AcDbCircle
 10
430.6764643615207
 20
455.2737635507195
 30
0.0
 40
6.138110397458548
100
AcDbArc
 50
-89.17480190677118
 51
-64.32159663851958
  0
ARC
  5
288
330
69
100
AcDbEntity
  8
1
  6
Continuous
 62
     7
100
AcDbCircle
 10
409.8982655824868
 20
455.2774217762529
 30
0.0
 40
6.141132020463601
100
AcDbArc
 50
-90.0
 51
-55.69764750366585
  0
ARC
  5
289
330
69
100
AcDbEntity
  8
1
  6
Continuous
 62
     7
100
AcDbCircle
 10
420.2873649720038
 20
472.1402398485383
 30
0.0
 40
23.00395009274899
100
AcDbArc
 50
-90.0
 51
-72.4718398636645
  0
ARC
  5
28A
330
69
100
AcDbEntity
  8
1
  6
Continuous
 62
     7
100
AcDbCircle
 10
809.1764643615211
 20
455.2737635507195
 30
0.0
 40
6.138110397458543
100
AcDbArc
 50
-90.82519809322511
 51
-89.17480190677277
  0
ARC
  5
28B
330
69
100
AcDbEntity
  8
1
  6
Continuous
 62
     7
100
AcDbCircle
 10
804.7873649720042
 20
466.5227642538604
 30
0.0
 40
17.38647449807088
100
AcDbArc
 50
-110.1876462291006
 51
-69.81235377089938
  0
ARC
  5
28C
330
69
100
AcDbEntity
  8
1
  6
Continuous
 62
     7
100
AcDbCircle
 10
792.7873649720042
 20
466.5227642538604
 30
0.0
 40
17.38647449807088
100
AcDbArc
 50
-110.1876462291006
 51
-69.81235377089938
  0
ENDBLK
  5
6B
330
69
100
AcDbEntity
  8
0
100
AcDbBlockEnd
  0
BLOCK
  5
6D
330
6C
100
AcDbEntity
  8
0
100
AcDbBlockBegin
  2
92-53__10
 70
     0
 71
     0
 10
120.4987053000016
 20
275.4522930483092
 30
0.0
  3
92-53__10
  1

  0
LINE
  5
28D
330
6C
100
AcDbEntity
  8
1
  6
Continuous
 62
     7
100
AcDbLine
 10
788.2873649720041
 20
459.6362897557893
 30
0.0
 11
780.2873649720041
 21
459.6362897557893
 31
0.0
  0
LINE
  5
28E
330
6C
100
AcDbEntity
  8
1
  6
Continuous
 62
     7
100
AcDbLine
 10
788.2873649720041
 20
457.6362897557893
 30
0.0
 11
817.287364972004
 21
457.6362897557893
 31
0.0
  0
LINE
  5
28F
330
6C
100
AcDbEntity
  8
1
  6
Continuous
 62
     7
100
AcDbLine
 10
780.2873649720041
 20
459.6362897557893
 30
0.0
 11
780.2873649720041
 21
457.6362897557893
 31
0.0
  0
LINE
  5
290
330
6C
100
AcDbEntity
  8
1
  6
Continuous
 62
     7
100
AcDbLine
 10
817.287364972004
 20
459.6362897557893
 30
0.0
 11
788.2873649720041
 21
459.6362897557893
 31
0.0
  0
LINE
  5
291
330
6C
100
AcDbEntity
  8
1
  6
Continuous
 62
     7
100
AcDbLine
 10
817.287364972004
 20
457.6362897557893
 30
0.0
 11
817.287364972004
 21
459.6362897557893
 31
0.0
  0
LINE
  5
292
330
6C
100
AcDbEntity
  8
1
  6
Continuous
 62
     7
100
AcDbLine
 10
780.2873649720041
 20
457.6362897557893
 30
0.0
 11
788.2873649720041
 21
457.6362897557893
 31
0.0
  0
LINE
  5
293
330
6C
100
AcDbEntity
  8
1
  6
Continuous
 62
     7
100
AcDbLine
 10
409.787364972004
 20
459.6362897557893
 30
0.0
 11
401.787364972004
 21
459.6362897557893
 31
0.0
  0
LINE
  5
294
330
6C
100
AcDbEntity
  8
1
  6
Continuous
 62
     7
100
AcDbLine
 10
409.787364972004
 20
457.6362897557893
 30
0.0
 11
438.7873649720038
 21
457.6362897557893
 31
0.0
  0
LINE
  5
295
330
6C
100
AcDbEntity
  8
1
  6
Continuous
 62
     7
100
AcDbLine
 10
401.787364972004
 20
459.6362897557893
 30
0.0
 11
401.787364972004
 21
457.6362897557893
 31
0.0
  0
LINE
  5
296
330
6C
100
AcDbEntity
  8
1
  6
Continuous
 62
     7
100
AcDbLine
 10
438.7873649720038
 20
459.6362897557893
 30
0.0
 11
409.787364972004
 21
459.6362897557893
 31
0.0
  0
LINE
  5
297
330
6C
100
AcDbEntity
  8
1
  6
Continuous
 62
     7
100
AcDbLine
 10
438.7873649720038
 20
457.6362897557893
 30
0.0
 11
438.7873649720038
 21
459.6362897557893
 31
0.0
  0
LINE
  5
298
330
6C
100
AcDbEntity
  8
1
  6
Continuous
 62
     7
100
AcDbLine
 10
401.787364972004
 20
457.6362897557893
 30
0.0
 11
409.787364972004
 21
457.6362897557893
 31
0.0
  0
ENDBLK
  5
6E
330
6C
100
AcDbEntity
  8
0
100
AcDbBlockEnd
  0
BLOCK
  5
70
330
6F
100
AcDbEntity
  8
0
100
AcDbBlockBegin
  2
06-25__11
 70
     0
 71
     0
 10
309.6873649720041
 20
369.2082737915663
 30
0.0
  3
06-25__11
  1

  0
LINE
  5
299
330
6F
100
AcDbEntity
  8
1
  6
PHANTOM
 62
     4
100
AcDbLine
 10
214.0001852472311
 20
417.6362897557893
 30
0.0
 11
221.5001852472311
 21
417.6362897557893
 31
0.0
  0
LINE
  5
29A
330
6F
100
AcDbEntity
  8
1
  6
Continuous
 62
     2
100
AcDbLine
 10
807.2873649720041
 20
473.6362897557896
 30
0.0
 11
806.7793649720042
 21
474.5161715660345
 31
0.0
  0
LINE
  5
29B
330
6F
100
AcDbEntity
  8
1
  6
Continuous
 62
     2
100
AcDbLine
 10
806.7793649720042
 20
474.5161715660345
 30
0.0
 11
806.7793649720042
 21
474.6362897557896
 31
0.0
  0
LINE
  5
29C
330
6F
100
AcDbEntity
  8
1
  6
Continuous
 62
     7
100
AcDbLine
 10
807.2873649720041
 20
473.6362897557896
 30
0.0
 11
807.2873649720041
 21
474.5161715660345
 31
0.0
  0
LINE
  5
29D
330
6F
100
AcDbEntity
  8
1
  6
Continuous
 62
     7
100
AcDbLine
 10
790.2873649720041
 20
474.6362897557896
 30
0.0
 11
790.2873649720041
 21
474.5161715660345
 31
0.0
  0
LINE
  5
29E
330
6F
100
AcDbEntity
  8
1
  6
Continuous
 62
     2
100
AcDbLine
 10
790.795364972004
 20
474.5161715660345
 30
0.0
 11
790.2873649720041
 21
473.6362897557896
 31
0.0
  0
LINE
  5
29F
330
6F
100
AcDbEntity
  8
1
  6
Continuous
 62
     2
100
AcDbLine
 10
790.795364972004
 20
474.6362897557896
 30
0.0
 11
790.795364972004
 21
474.5161715660345
 31
0.0
  0
LINE
  5
2A0
330
6F
100
AcDbEntity
  8
1
  6
Continuous
 62
     7
100
AcDbLine
 10
790.795364972004
 20
474.5161715660345
 30
0.0
 11
790.2873649720041
 21
474.5161715660345
 31
0.0
  0
LINE
  5
2A1
330
6F
100
AcDbEntity
  8
1
  6
Continuous
 62
     7
100
AcDbLine
 10
790.2873649720041
 20
474.5161715660345
 30
0.0
 11
790.2873649720041
 21
473.6362897557896
 31
0.0
  0
LINE
  5
2A2
330
6F
100
AcDbEntity
  8
1
  6
Continuous
 62
     7
100
AcDbLine
 10
790.795364972004
 20
474.5161715660345
 30
0.0
 11
807.2873649720041
 21
474.5161715660345
 31
0.0
  0
LINE
  5
2A3
330
6F
100
AcDbEntity
  8
1
  6
Continuous
 62
     7
100
AcDbLine
 10
807.2873649720041
 20
474.5161715660345
 30
0.0
 11
807.2873649720041
 21
474.6362897557896
 31
0.0
  0
LINE
  5
2A4
330
6F
100
AcDbEntity
  8
1
  6
Continuous
 62
     7
100
AcDbLine
 10
788.3098649720042
 20
473.6362897557893
 30
0.0
 11
807.2873649720041
 21
473.6362897557896
 31
0.0
  0
LINE
  5
2A5
330
6F
100
AcDbEntity
  8
1
  6
Continuous
 62
     7
100
AcDbLine
 10
807.2873649720041
 20
473.6362897557896
 30
0.0
 11
809.2648649720042
 21
473.6362897557893
 31
0.0
  0
LINE
  5
2A6
330
6F
100
AcDbEntity
  8
1
  6
Continuous
 62
     7
100
AcDbLine
 10
409.809864972004
 20
449.1362897557894
 30
0.0
 11
409.8098649720041
 21
424.1362897557889
 31
0.0
  0
LINE
  5
2A7
330
6F
100
AcDbEntity
  8
1
  6
Continuous
 62
     2
100
AcDbLine
 10
410.9718649720041
 20
459.6362897557895
 30
0.0
 11
410.9718649720041
 21
469.6362897557897
 31
0.0
  0
LINE
  5
2A8
330
6F
100
AcDbEntity
  8
1
  6
Continuous
 62
     2
100
AcDbLine
 10
429.6028649720039
 20
459.6362897557895
 30
0.0
 11
429.6028649720039
 21
469.6362897557896
 31
0.0
  0
LINE
  5
2A9
330
6F
100
AcDbEntity
  8
1
  6
Continuous
 62
     7
100
AcDbLine
 10
430.764864972004
 20
449.1362897557894
 30
0.0
 11
430.764864972004
 21
424.1362897557889
 31
0.0
  0
LINE
  5
2AA
330
6F
100
AcDbEntity
  8
1
  6
Continuous
 62
     2
100
AcDbLine
 10
808.102864972004
 20
449.1362897557893
 30
0.0
 11
808.1028649720041
 21
424.1362897557889
 31
0.0
  0
LINE
  5
2AB
330
6F
100
AcDbEntity
  8
1
  6
Continuous
 62
     2
100
AcDbLine
 10
789.4718649720043
 20
449.1362897557893
 30
0.0
 11
789.4718649720044
 21
424.1362897557889
 31
0.0
  0
LINE
  5
2AC
330
6F
100
AcDbEntity
  8
1
  6
Continuous
 62
     7
100
AcDbLine
 10
789.471864972004
 20
468.1362897557892
 30
0.0
 11
788.3098649720042
 21
468.1362897557893
 31
0.0
  0
LINE
  5
2AD
330
6F
100
AcDbEntity
  8
1
  6
Continuous
 62
     7
100
AcDbLine
 10
808.1028649720039
 20
468.1362897557892
 30
0.0
 11
809.2648649720042
 21
468.1362897557891
 31
0.0
  0
LINE
  5
2AE
330
6F
100
AcDbEntity
  8
1
  6
Continuous
 62
     7
100
AcDbLine
 10
809.2648649720042
 20
473.6362897557893
 30
0.0
 11
809.2648649720042
 21
471.6362897557893
 31
0.0
  0
LINE
  5
2AF
330
6F
100
AcDbEntity
  8
1
  6
Continuous
 62
     7
100
AcDbLine
 10
788.3098649720042
 20
473.6362897557893
 30
0.0
 11
788.3098649720042
 21
471.6362897557893
 31
0.0
  0
LINE
  5
2B0
330
6F
100
AcDbEntity
  8
1
  6
Continuous
 62
     7
100
AcDbLine
 10
809.2648649720042
 20
459.6362897557893
 30
0.0
 11
809.2648649720042
 21
468.1362897557891
 31
0.0
  0
LINE
  5
2B1
330
6F
100
AcDbEntity
  8
1
  6
Continuous
 62
     7
100
AcDbLine
 10
788.3098649720038
 20
459.6362897557893
 30
0.0
 11
788.3098649720042
 21
468.1362897557893
 31
0.0
  0
LINE
  5
2B2
330
6F
100
AcDbEntity
  8
1
  6
Continuous
 62
     7
100
AcDbLine
 10
808.1028649720039
 20
468.1362897557892
 30
0.0
 11
789.471864972004
 21
468.1362897557892
 31
0.0
  0
LINE
  5
2B3
330
6F
100
AcDbEntity
  8
1
  6
Continuous
 62
     2
100
AcDbLine
 10
789.471864972004
 20
468.1362897557892
 30
0.0
 11
789.471864972004
 21
467.9317425554399
 31
0.0
  0
LINE
  5
2B4
330
6F
100
AcDbEntity
  8
1
  6
Continuous
 62
     2
100
AcDbLine
 10
808.1028649720039
 20
468.1362897557892
 30
0.0
 11
808.102864972004
 21
459.6362897557894
 31
0.0
  0
LINE
  5
2B5
330
6F
100
AcDbEntity
  8
0
  6
Continuous
 62
     7
100
AcDbLine
 10
788.3098649720042
 20
473.6362897557893
 30
0.0
 11
788.537364972004
 21
473.6362897557893
 31
0.0
  0
LINE
  5
2B6
330
6F
100
AcDbEntity
  8
0
  6
Continuous
 62
     7
100
AcDbLine
 10
809.037364972004
 20
473.6362897557891
 30
0.0
 11
809.2648649720042
 21
473.6362897557893
 31
0.0
  0
LINE
  5
2B7
330
6F
100
AcDbEntity
  8
0
  6
Continuous
 62
     2
100
AcDbLine
 10
809.2648649720042
 20
471.6362897557893
 30
0.0
 11
808.1028649720039
 21
468.1362897557892
 31
0.0
  0
LINE
  5
2B8
330
6F
100
AcDbEntity
  8
1
  6
Continuous
 62
     7
100
AcDbLine
 10
809.2648649720042
 20
471.6362897557893
 30
0.0
 11
809.2648649720042
 21
468.1362897557891
 31
0.0
  0
LINE
  5
2B9
330
6F
100
AcDbEntity
  8
0
  6
Continuous
 62
     2
100
AcDbLine
 10
789.471864972004
 20
467.9317425554399
 30
0.0
 11
788.3098649720042
 21
471.6362897557893
 31
0.0
  0
LINE
  5
2BA
330
6F
100
AcDbEntity
  8
1
  6
Continuous
 62
     2
100
AcDbLine
 10
789.471864972004
 20
467.9317425554399
 30
0.0
 11
789.4718649720041
 21
459.6362897557893
 31
0.0
  0
LINE
  5
2BB
330
6F
100
AcDbEntity
  8
1
  6
Continuous
 62
     7
100
AcDbLine
 10
788.3098649720042
 20
471.6362897557893
 30
0.0
 11
788.3098649720042
 21
468.1362897557893
 31
0.0
  0
LINE
  5
2BC
330
6F
100
AcDbEntity
  8
1
  6
Continuous
 62
     2
100
AcDbLine
 10
428.7873649720041
 20
473.6362897557896
 30
0.0
 11
428.279364972004
 21
474.5161715660345
 31
0.0
  0
LINE
  5
2BD
330
6F
100
AcDbEntity
  8
1
  6
Continuous
 62
     2
100
AcDbLine
 10
428.279364972004
 20
474.5161715660345
 30
0.0
 11
428.279364972004
 21
474.6362897557896
 31
0.0
  0
LINE
  5
2BE
330
6F
100
AcDbEntity
  8
1
  6
Continuous
 62
     7
100
AcDbLine
 10
428.7873649720041
 20
473.6362897557896
 30
0.0
 11
428.7873649720041
 21
474.5161715660345
 31
0.0
  0
LINE
  5
2BF
330
6F
100
AcDbEntity
  8
1
  6
Continuous
 62
     7
100
AcDbLine
 10
411.7873649720041
 20
474.6362897557896
 30
0.0
 11
411.7873649720041
 21
474.5161715660345
 31
0.0
  0
LINE
  5
2C0
330
6F
100
AcDbEntity
  8
1
  6
Continuous
 62
     2
100
AcDbLine
 10
412.295364972004
 20
474.5161715660345
 30
0.0
 11
411.7873649720041
 21
473.6362897557896
 31
0.0
  0
LINE
  5
2C1
330
6F
100
AcDbEntity
  8
1
  6
Continuous
 62
     2
100
AcDbLine
 10
412.295364972004
 20
474.6362897557896
 30
0.0
 11
412.295364972004
 21
474.5161715660345
 31
0.0
  0
LINE
  5
2C2
330
6F
100
AcDbEntity
  8
1
  6
Continuous
 62
     7
100
AcDbLine
 10
412.295364972004
 20
474.5161715660345
 30
0.0
 11
411.7873649720041
 21
474.5161715660345
 31
0.0
  0
LINE
  5
2C3
330
6F
100
AcDbEntity
  8
1
  6
Continuous
 62
     7
100
AcDbLine
 10
411.7873649720041
 20
474.5161715660345
 30
0.0
 11
411.7873649720041
 21
473.6362897557896
 31
0.0
  0
LINE
  5
2C4
330
6F
100
AcDbEntity
  8
1
  6
Continuous
 62
     7
100
AcDbLine
 10
412.295364972004
 20
474.5161715660345
 30
0.0
 11
428.7873649720041
 21
474.5161715660345
 31
0.0
  0
LINE
  5
2C5
330
6F
100
AcDbEntity
  8
1
  6
Continuous
 62
     7
100
AcDbLine
 10
428.7873649720041
 20
474.5161715660345
 30
0.0
 11
428.7873649720041
 21
474.6362897557896
 31
0.0
  0
LINE
  5
2C6
330
6F
100
AcDbEntity
  8
1
  6
Continuous
 62
     7
100
AcDbLine
 10
409.809864972004
 20
469.6362897557897
 30
0.0
 11
409.809864972004
 21
459.6362897557895
 31
0.0
  0
LINE
  5
2C7
330
6F
100
AcDbEntity
  8
1
  6
Continuous
 62
     7
100
AcDbLine
 10
430.764864972004
 20
469.6362897557897
 30
0.0
 11
430.764864972004
 21
459.6362897557895
 31
0.0
  0
LINE
  5
2C8
330
6F
100
AcDbEntity
  8
1
  6
Continuous
 62
     7
100
AcDbLine
 10
409.809864972004
 20
473.6362897557896
 30
0.0
 11
428.7873649720041
 21
473.6362897557896
 31
0.0
  0
LINE
  5
2C9
330
6F
100
AcDbEntity
  8
1
  6
Continuous
 62
     7
100
AcDbLine
 10
428.7873649720041
 20
473.6362897557896
 30
0.0
 11
430.764864972004
 21
473.6362897557896
 31
0.0
  0
LINE
  5
2CA
330
6F
100
AcDbEntity
  8
1
  6
Continuous
 62
     7
100
AcDbLine
 10
430.764864972004
 20
469.6362897557897
 30
0.0
 11
430.764864972004
 21
471.6362897557896
 31
0.0
  0
LINE
  5
2CB
330
6F
100
AcDbEntity
  8
1
  6
Continuous
 62
     7
100
AcDbLine
 10
409.809864972004
 20
469.6362897557897
 30
0.0
 11
409.809864972004
 21
471.6362897557897
 31
0.0
  0
LINE
  5
2CC
330
6F
100
AcDbEntity
  8
1
  6
Continuous
 62
     7
100
AcDbLine
 10
409.809864972004
 20
469.6362897557897
 30
0.0
 11
429.6028649720039
 21
469.6362897557896
 31
0.0
  0
LINE
  5
2CD
330
6F
100
AcDbEntity
  8
1
  6
Continuous
 62
     7
100
AcDbLine
 10
430.764864972004
 20
469.6362897557897
 30
0.0
 11
429.6028649720039
 21
469.6362897557896
 31
0.0
  0
LINE
  5
2CE
330
6F
100
AcDbEntity
  8
1
  6
Continuous
 62
     7
100
AcDbLine
 10
430.764864972004
 20
471.6362897557896
 30
0.0
 11
430.764864972004
 21
473.6362897557896
 31
0.0
  0
LINE
  5
2CF
330
6F
100
AcDbEntity
  8
1
  6
Continuous
 62
     7
100
AcDbLine
 10
409.809864972004
 20
471.6362897557897
 30
0.0
 11
409.809864972004
 21
473.6362897557896
 31
0.0
  0
LINE
  5
2D0
330
6F
100
AcDbEntity
  8
1
  6
Continuous
 62
     2
100
AcDbLine
 10
429.6028649720039
 20
469.6362897557896
 30
0.0
 11
430.764864972004
 21
471.6362897557896
 31
0.0
  0
LINE
  5
2D1
330
6F
100
AcDbEntity
  8
1
  6
Continuous
 62
     2
100
AcDbLine
 10
410.9718649720041
 20
469.6362897557897
 30
0.0
 11
409.809864972004
 21
471.6362897557897
 31
0.0
  0
LINE
  5
2D2
330
6F
100
AcDbEntity
  8
1
  6
Continuous
 62
     2
100
AcDbLine
 10
410.9718649720041
 20
424.1362897557889
 30
0.0
 11
410.9718649720041
 21
449.1362897557894
 31
0.0
  0
LINE
  5
2D3
330
6F
100
AcDbEntity
  8
1
  6
Continuous
 62
     2
100
AcDbLine
 10
429.6028649720039
 20
424.1362897557889
 30
0.0
 11
429.6028649720039
 21
449.1362897557894
 31
0.0
  0
LINE
  5
2D4
330
6F
100
AcDbEntity
  8
1
  6
Continuous
 62
     7
100
AcDbLine
 10
788.3098649720039
 20
424.1362897557889
 30
0.0
 11
788.3098649720038
 21
449.1369260450575
 31
0.0
  0
LINE
  5
2D5
330
6F
100
AcDbEntity
  8
1
  6
Continuous
 62
     7
100
AcDbLine
 10
809.2648649720042
 20
424.1362897557889
 30
0.0
 11
809.2648649720042
 21
449.1362897557893
 31
0.0
  0
ENDBLK
  5
71
330
6F
100
AcDbEntity
  8
0
100
AcDbBlockEnd
  0
BLOCK
  5
73
330
72
100
AcDbEntity
  8
0
100
AcDbBlockBegin
  2
06-25__12
 70
     0
 71
     0
 10
327.887364972004
 20
369.2082737915663
 30
0.0
  3
06-25__12
  1

  0
LINE
  5
2D6
330
72
100
AcDbEntity
  8
1
  6
Continuous
 62
     2
100
AcDbLine
 10
225.787364972004
 20
473.6362897557896
 30
0.0
 11
225.279364972004
 21
474.5161715660345
 31
0.0
  0
LINE
  5
2D7
330
72
100
AcDbEntity
  8
1
  6
Continuous
 62
     2
100
AcDbLine
 10
225.279364972004
 20
474.5161715660345
 30
0.0
 11
225.279364972004
 21
474.6362897557896
 31
0.0
  0
LINE
  5
2D8
330
72
100
AcDbEntity
  8
1
  6
Continuous
 62
     7
100
AcDbLine
 10
225.787364972004
 20
473.6362897557896
 30
0.0
 11
225.787364972004
 21
474.5161715660345
 31
0.0
  0
LINE
  5
2D9
330
72
100
AcDbEntity
  8
1
  6
Continuous
 62
     7
100
AcDbLine
 10
209.2953649720041
 20
474.5161715660345
 30
0.0
 11
225.787364972004
 21
474.5161715660345
 31
0.0
  0
LINE
  5
2DA
330
72
100
AcDbEntity
  8
1
  6
Continuous
 62
     7
100
AcDbLine
 10
225.787364972004
 20
474.5161715660345
 30
0.0
 11
225.787364972004
 21
474.6362897557896
 31
0.0
  0
LINE
  5
2DB
330
72
100
AcDbEntity
  8
1
  6
Continuous
 62
     7
100
AcDbLine
 10
208.787364972004
 20
473.6362897557896
 30
0.0
 11
227.764864972004
 21
473.6362897557896
 31
0.0
  0
LINE
  5
2DC
330
72
100
AcDbEntity
  8
1
  6
Continuous
 62
     7
100
AcDbLine
 10
206.8098649720041
 20
473.6362897557896
 30
0.0
 11
208.787364972004
 21
473.6362897557896
 31
0.0
  0
LINE
  5
2DD
330
72
100
AcDbEntity
  8
1
  6
Continuous
 62
     7
100
AcDbLine
 10
208.787364972004
 20
474.6362897557896
 30
0.0
 11
208.787364972004
 21
474.5161715660345
 31
0.0
  0
LINE
  5
2DE
330
72
100
AcDbEntity
  8
1
  6
Continuous
 62
     2
100
AcDbLine
 10
209.2953649720041
 20
474.5161715660345
 30
0.0
 11
208.787364972004
 21
473.6362897557896
 31
0.0
  0
LINE
  5
2DF
330
72
100
AcDbEntity
  8
1
  6
Continuous
 62
     2
100
AcDbLine
 10
209.2953649720041
 20
474.6362897557896
 30
0.0
 11
209.2953649720041
 21
474.5161715660345
 31
0.0
  0
LINE
  5
2E0
330
72
100
AcDbEntity
  8
1
  6
Continuous
 62
     7
100
AcDbLine
 10
209.2953649720041
 20
474.5161715660345
 30
0.0
 11
208.787364972004
 21
474.5161715660345
 31
0.0
  0
LINE
  5
2E1
330
72
100
AcDbEntity
  8
1
  6
Continuous
 62
     7
100
AcDbLine
 10
208.787364972004
 20
474.5161715660345
 30
0.0
 11
208.787364972004
 21
473.6362897557896
 31
0.0
  0
LINE
  5
2E2
330
72
100
AcDbEntity
  8
1
  6
Continuous
 62
     7
100
AcDbLine
 10
207.9718649720039
 20
468.1362897557896
 30
0.0
 11
206.8098649720041
 21
468.1362897557897
 31
0.0
  0
LINE
  5
2E3
330
72
100
AcDbEntity
  8
1
  6
Continuous
 62
     7
100
AcDbLine
 10
226.6028649720037
 20
468.1362897557896
 30
0.0
 11
227.764864972004
 21
468.1362897557893
 31
0.0
  0
LINE
  5
2E4
330
72
100
AcDbEntity
  8
1
  6
Continuous
 62
     7
100
AcDbLine
 10
227.764864972004
 20
473.6362897557896
 30
0.0
 11
227.764864972004
 21
471.6362897557896
 31
0.0
  0
LINE
  5
2E5
330
72
100
AcDbEntity
  8
1
  6
Continuous
 62
     7
100
AcDbLine
 10
206.8098649720041
 20
473.6362897557896
 30
0.0
 11
206.8098649720041
 21
471.6362897557896
 31
0.0
  0
LINE
  5
2E6
330
72
100
AcDbEntity
  8
1
  6
Continuous
 62
     2
100
AcDbLine
 10
226.6028649720038
 20
449.1362897557894
 30
0.0
 11
226.6028649720038
 21
424.1362897557889
 31
0.0
  0
LINE
  5
2E7
330
72
100
AcDbEntity
  8
1
  6
Continuous
 62
     2
100
AcDbLine
 10
207.971864972004
 20
449.1362897557894
 30
0.0
 11
207.971864972004
 21
424.1362897557889
 31
0.0
  0
LINE
  5
2E8
330
72
100
AcDbEntity
  8
1
  6
Continuous
 62
     7
100
AcDbLine
 10
227.764864972004
 20
459.6362897557893
 30
0.0
 11
227.764864972004
 21
468.1362897557893
 31
0.0
  0
LINE
  5
2E9
330
72
100
AcDbEntity
  8
1
  6
Continuous
 62
     7
100
AcDbLine
 10
206.8098649720039
 20
459.6362897557893
 30
0.0
 11
206.8098649720041
 21
468.1362897557897
 31
0.0
  0
LINE
  5
2EA
330
72
100
AcDbEntity
  8
1
  6
Continuous
 62
     7
100
AcDbLine
 10
226.6028649720037
 20
468.1362897557896
 30
0.0
 11
207.9718649720039
 21
468.1362897557896
 31
0.0
  0
LINE
  5
2EB
330
72
100
AcDbEntity
  8
1
  6
Continuous
 62
     2
100
AcDbLine
 10
207.9718649720039
 20
468.1362897557896
 30
0.0
 11
207.9718649720039
 21
467.9317425554402
 31
0.0
  0
LINE
  5
2EC
330
72
100
AcDbEntity
  8
1
  6
Continuous
 62
     2
100
AcDbLine
 10
226.6028649720037
 20
468.1362897557896
 30
0.0
 11
226.6028649720038
 21
459.6362897557894
 31
0.0
  0
LINE
  5
2ED
330
72
100
AcDbEntity
  8
0
  6
Continuous
 62
     7
100
AcDbLine
 10
206.8098649720041
 20
473.6362897557896
 30
0.0
 11
207.0373649720039
 21
473.6362897557896
 31
0.0
  0
LINE
  5
2EE
330
72
100
AcDbEntity
  8
0
  6
Continuous
 62
     7
100
AcDbLine
 10
227.5373649720039
 20
473.6362897557893
 30
0.0
 11
227.764864972004
 21
473.6362897557896
 31
0.0
  0
LINE
  5
2EF
330
72
100
AcDbEntity
  8
0
  6
Continuous
 62
     2
100
AcDbLine
 10
227.764864972004
 20
471.6362897557896
 30
0.0
 11
226.6028649720037
 21
468.1362897557896
 31
0.0
  0
LINE
  5
2F0
330
72
100
AcDbEntity
  8
1
  6
Continuous
 62
     7
100
AcDbLine
 10
227.764864972004
 20
471.6362897557896
 30
0.0
 11
227.764864972004
 21
468.1362897557893
 31
0.0
  0
LINE
  5
2F1
330
72
100
AcDbEntity
  8
0
  6
Continuous
 62
     2
100
AcDbLine
 10
207.9718649720039
 20
467.9317425554402
 30
0.0
 11
206.8098649720041
 21
471.6362897557896
 31
0.0
  0
LINE
  5
2F2
330
72
100
AcDbEntity
  8
1
  6
Continuous
 62
     2
100
AcDbLine
 10
207.9718649720039
 20
467.9317425554402
 30
0.0
 11
207.971864972004
 21
459.6362897557893
 31
0.0
  0
LINE
  5
2F3
330
72
100
AcDbEntity
  8
1
  6
Continuous
 62
     7
100
AcDbLine
 10
206.8098649720041
 20
471.6362897557896
 30
0.0
 11
206.8098649720041
 21
468.1362897557897
 31
0.0
  0
LINE
  5
2F4
330
72
100
AcDbEntity
  8
1
  6
Continuous
 62
     7
100
AcDbLine
 10
206.8098649720037
 20
424.1362897557889
 30
0.0
 11
206.8098649720039
 21
449.1369260450575
 31
0.0
  0
LINE
  5
2F5
330
72
100
AcDbEntity
  8
1
  6
Continuous
 62
     7
100
AcDbLine
 10
227.7648649720041
 20
424.1362897557889
 30
0.0
 11
227.764864972004
 21
449.1362897557894
 31
0.0
  0
ENDBLK
  5
74
330
72
100
AcDbEntity
  8
0
100
AcDbBlockEnd
  0
BLOCK
  5
76
330
75
100
AcDbEntity
  8
0
100
AcDbBlockBegin
  2
82-20-M21
 70
     0
 71
     0
 10
294.5505452107528
 20
634.6358141322767
 30
0.0
  3
82-20-M21
  1

  0
LINE
  5
2F6
330
75
100
AcDbEntity
  8
0
  6
Continuous
 62
     7
100
AcDbLine
 10
306.2873649720042
 20
624.859400181616
 30
0.0
 11
307.6273649720041
 21
621.3785735478271
 31
0.0
  0
LINE
  5
2F7
330
75
100
AcDbEntity
  8
0
  6
Continuous
 62
     7
100
AcDbLine
 10
331.2873649720042
 20
624.859400181616
 30
0.0
 11
329.947364972004
 21
621.3785735478271
 31
0.0
  0
LINE
  5
2F8
330
75
100
AcDbEntity
  8
0
  6
Continuous
 62
     7
100
AcDbLine
 10
306.2873649720042
 20
634.8046191352989
 30
0.0
 11
306.2873649720042
 21
624.859400181616
 31
0.0
  0
LINE
  5
2F9
330
75
100
AcDbEntity
  8
0
  6
Continuous
 62
     7
100
AcDbLine
 10
331.2873649720042
 20
624.859400181616
 30
0.0
 11
331.2873649720042
 21
634.8046191352989
 31
0.0
  0
LINE
  5
2FA
330
75
100
AcDbEntity
  8
1
  6
Continuous
 62
     7
100
AcDbLine
 10
542.1450238532223
 20
621.3676327001633
 30
0.0
 11
552.8318563792685
 21
620.2444013401062
 31
0.0
  0
LINE
  5
2FB
330
75
100
AcDbEntity
  8
1
  6
Continuous
 62
     7
100
AcDbLine
 10
555.9667761067816
 20
633.2881681177221
 30
0.0
 11
554.9423971667634
 21
623.5418535431127
 31
0.0
  0
LINE
  5
2FC
330
75
100
AcDbEntity
  8
1
  6
Continuous
 62
     7
100
AcDbLine
 10
554.9423971667634
 20
623.5418535431127
 30
0.0
 11
553.8639252840592
 21
620.8652004380188
 31
0.0
  0
LINE
  5
2FD
330
75
100
AcDbEntity
  8
1
  6
Continuous
 62
     7
100
AcDbLine
 10
530.0793497825555
 20
626.1550651247919
 30
0.0
 11
530.5777469942714
 21
623.3126763994158
 31
0.0
  0
LINE
  5
2FE
330
75
100
AcDbEntity
  8
1
  6
Continuous
 62
     7
100
AcDbLine
 10
531.1037287225736
 20
635.9013796994016
 30
0.0
 11
530.0793497825555
 21
626.1550651247919
 31
0.0
  0
LINE
  5
2FF
330
75
100
AcDbEntity
  8
1
  6
Continuous
 62
     7
100
AcDbLine
 10
531.3235387943007
 20
636.0793783858219
 30
0.0
 11
532.3748264979056
 21
635.9688835956906
 31
0.0
  0
LINE
  5
300
330
75
100
AcDbEntity
  8
1
  6
Continuous
 62
     7
100
AcDbLine
 10
531.4581913271801
 20
622.4908640602203
 30
0.0
 11
542.1450238532223
 21
621.3676327001633
 31
0.0
  0
LINE
  5
301
330
75
100
AcDbEntity
  8
1
  6
Continuous
 62
     7
100
AcDbLine
 10
532.3748264979056
 20
635.9688835956906
 30
0.0
 11
555.7887774203615
 21
633.5079781894492
 31
0.0
  0
LINE
  5
302
330
75
100
AcDbEntity
  8
1
  6
Continuous
 62
     7
100
AcDbLine
 10
554.9423971667634
 20
623.5418535431127
 30
0.0
 11
530.0793497825555
 21
626.1550651247919
 31
0.0
  0
SPLINE
  5
303
330
75
100
AcDbEntity
  8
0
  6
Continuous
 62
     7
100
AcDbSpline
210
0.0
220
0.0
230
1.0
 70
     8
 71
     3
 72
    47
 73
    43
 74
    41
 42
0.0000000001
 43
0.0000000001
 44
0.00000001
 40
0.0
 40
0.0
 40
0.0
 40
0.0
 40
0.0585954282107029
 40
0.1291179487628241
 40
0.3533196345585538
 40
0.5597607975415339
 40
0.9047665108381167
 40
1.252095253738844
 40
1.746736120857434
 40
2.240608417938979
 40
2.86902677642581
 40
3.497489590003809
 40
4.243146810032099
 40
4.988759291671148
 40
5.829723915315686
 40
6.670677880196124
 40
7.582019849377037
 40
8.493354744356399
 40
9.44783683082364
 40
10.40231612055634
 40
11.3713310660485
 40
12.34034601154066
 40
13.29482530127348
 40
14.2493073877406
 40
15.16064228271991
 40
16.07198425190088
 40
16.91293821678131
 40
17.75390284042585
 40
18.49951532206479
 40
19.24517254209319
 40
19.87363535567119
 40
20.50205371415808
 40
20.9959260112397
 40
21.49056687835813
 40
21.58424170099282
 40
21.67771903433453
 40
21.9309043280203
 40
22.18292881354293
 40
22.38936997652596
 40
22.61357166232146
 40
22.6840941828791
 40
22.74268961108516
 40
22.74268961108516
 40
22.74268961108516
 40
22.74268961108516
 10
329.947364972004
 20
621.3785735478271
 30
0.0
 10
329.9442758301839
 20
621.3589151729686
 30
0.0
 10
329.9374687520988
 20
621.3155969634209
 30
0.0
 10
329.8576283342492
 20
621.2242459305529
 30
0.0
 10
329.729875081443
 20
621.116513952406
 30
0.0
 10
329.4916672564772
 20
621.0091895658036
 30
0.0
 10
329.201702121499
 20
620.933600590859
 30
0.0
 10
328.8191249841646
 20
620.832605973715
 30
0.0
 10
328.3831308001619
 20
620.7409963171929
 30
0.0
 10
327.8517852676079
 20
620.6502229512576
 30
0.0
 10
327.2736271005115
 20
620.5702384321562
 30
0.0
 10
326.6108289245389
 20
620.4908461432326
 30
0.0
 10
325.9077175585765
 20
620.4204811435735
 30
0.0
 10
325.1330374188245
 20
620.3550878493227
 30
0.0
 10
324.3257888903762
 20
620.2988587539171
 30
0.0
 10
323.4627706104881
 20
620.2493231002642
 30
0.0
 10
322.5757895060297
 20
620.2090008961443
 30
0.0
 10
321.6506144659605
 20
620.1767851722426
 30
0.0
 10
320.7107772951948
 20
620.1539168892634
 30
0.0
 10
319.7515389459643
 20
620.1399257158323
 30
0.0
 10
318.7873649719669
 20
620.1353569019422
 30
0.0
 10
317.8231909981919
 20
620.1399257163378
 30
0.0
 10
316.8639526483037
 20
620.1539168872773
 30
0.0
 10
315.9241154799059
 20
620.1767851795535
 30
0.0
 10
314.998940431394
 20
620.2090008702198
 30
0.0
 10
314.1119593573285
 20
620.2493231940061
 30
0.0
 10
313.2489409723734
 20
620.2988584339726
 30
0.0
 10
312.4416928147023
 20
620.3550889892608
 30
0.0
 10
311.6670114401755
 20
620.4204774217598
 30
0.0
 10
310.9639043265877
 20
620.4908591645469
 30
0.0
 10
310.3010926370484
 20
620.5701982456988
 30
0.0
 10
309.7229795208006
 20
620.6503601461908
 30
0.0
 10
309.1914995712765
 20
620.7406042641816
 30
0.0
 10
308.8386398219193
 20
620.8161829598726
 30
0.0
 10
308.6176566324735
 20
620.869240314758
 30
0.0
 10
308.4752760050681
 20
620.9049323322225
 30
0.0
 10
308.2832464780244
 20
620.9593685075136
 30
0.0
 10
308.0542920010267
 20
621.0212680723676
 30
0.0
 10
307.8449146354349
 20
621.1167323432482
 30
0.0
 10
307.7170969629445
 20
621.2242289525858
 30
0.0
 10
307.6372616779474
 20
621.3155987392615
 30
0.0
 10
307.6304542655426
 20
621.3589157273046
 30
0.0
 10
307.6273649720041
 20
621.3785735478271
 30
0.0
 11
329.947364972004
 21
621.3785735478271
 31
0.0
 11
329.9334905274106
 21
621.321644434059
 31
0.0
 11
329.8918671936613
 21
621.2647153203067
 31
0.0
 11
329.7192552251314
 21
621.121636655811
 31
0.0
 11
329.5330225115149
 21
621.0325561857134
 31
0.0
 11
329.2025048375303
 21
620.9336268705885
 31
0.0
 11
328.8660225445955
 21
620.8475053158746
 31
0.0
 11
328.3823275220688
 21
620.7440224061421
 31
0.0
 11
327.8956467533466
 21
620.6600481530606
 31
0.0
 11
327.2734076725147
 21
620.5721382015828
 31
0.0
 11
326.6494111082569
 21
620.4973465185906
 31
0.0
 11
325.9075296959204
 21
620.4224021404832
 31
0.0
 11
325.1645778082583
 21
620.3594699118937
 31
0.0
 11
324.3256786139792
 21
620.3005662612468
 31
0.0
 11
323.4861127850044
 21
620.2522672978429
 31
0.0
 11
322.5757232563626
 21
620.2106128751487
 31
0.0
 11
321.6649423967358
 21
620.1788399850616
 31
0.0
 11
320.7107465403525
 21
620.1554664733917
 31
0.0
 11
319.756368696483
 21
620.1415508110022
 31
0.0
 11
318.7873649720041
 21
620.1368874931731
 31
0.0
 11
317.8183612475252
 21
620.1415508110021
 31
0.0
 11
316.8639834036557
 21
620.1554664733918
 31
0.0
 11
315.9097875472725
 21
620.1788399850616
 31
0.0
 11
314.9990066876457
 21
620.2106128751487
 31
0.0
 11
314.0886171590039
 21
620.252267297843
 31
0.0
 11
313.249051330029
 21
620.3005662612468
 31
0.0
 11
312.41015213575
 21
620.3594699118937
 31
0.0
 11
311.667200248088
 21
620.4224021404832
 31
0.0
 11
310.9253188357513
 21
620.4973465185906
 31
0.0
 11
310.3013222714935
 21
620.5721382015828
 31
0.0
 11
309.6790831906616
 21
620.6600481530606
 31
0.0
 11
309.1924024219394
 21
620.7440224061422
 31
0.0
 11
308.7087073994128
 21
620.8475053158745
 31
0.0
 11
308.6176290196905
 21
620.8694073966617
 31
0.0
 11
308.526982038774
 21
620.892235815341
 31
0.0
 11
308.2827508244747
 21
620.9589734126952
 31
0.0
 11
308.0417074324932
 21
621.0325561857134
 31
0.0
 11
307.8554747188768
 21
621.1216366558111
 31
0.0
 11
307.6828627503469
 21
621.2647153203066
 31
0.0
 11
307.6412394165938
 21
621.3216444340628
 31
0.0
 11
307.6273649720041
 21
621.3785735478271
 31
0.0
  0
SPLINE
  5
304
330
75
100
AcDbEntity
  8
0
  6
Continuous
 62
     7
100
AcDbSpline
210
0.0
220
0.0
230
1.0
 70
     8
 71
     3
 72
     9
 73
     5
 74
     3
 42
0.0000000001
 43
0.0000000001
 44
0.00000001
 40
0.0
 40
0.0
 40
0.0
 40
0.0
 40
0.0585954282149677
 40
0.1291179487954868
 40
0.1291179487954868
 40
0.1291179487954868
 40
0.1291179487954868
 10
329.947364972004
 20
621.3785735477951
 30
0.0
 10
329.9443065205937
 20
621.3982781465006
 30
0.0
 10
329.9375670703564
 20
621.441698212608
 30
0.0
 10
329.9080105663193
 20
621.4745102650765
 30
0.0
 10
329.8918671936614
 20
621.4924317753475
 30
0.0
 11
329.947364972004
 21
621.3785735477951
 31
0.0
 11
329.9334905274262
 21
621.4355026615714
 31
0.0
 11
329.8918671936614
 21
621.4924317753475
 31
0.0
  0
SPLINE
  5
305
330
75
100
AcDbEntity
  8
0
  6
Continuous
 62
     7
100
AcDbSpline
210
0.0
220
0.0
230
1.0
 70
     8
 71
     3
 72
    43
 73
    39
 74
    37
 42
0.0000000001
 43
0.0000000001
 44
0.00000001
 40
0.0
 40
0.0
 40
0.0
 40
0.0
 40
0.2484686951023818
 40
0.4756776002628201
 40
0.8590104299731423
 40
1.245834300511232
 40
1.79893542545742
 40
2.350938867126437
 40
3.053990033241513
 40
3.757162933004189
 40
4.591927242328593
 40
5.426630490357739
 40
6.368327741284216
 40
7.310017764955382
 40
8.33067906062778
 40
9.351332719009644
 40
10.42038862253533
 40
11.48944186755587
 40
12.57480045814055
 40
13.66015904872518
 40
14.72921229374577
 40
15.79826819727146
 40
16.81892185565344
 40
17.83958315132577
 40
18.78127317499694
 40
19.72297042592342
 40
20.55767367395262
 40
21.39243798327691
 40
22.09561088303964
 40
22.79866204915467
 40
23.35066549082367
 40
23.90376661576992
 40
24.29059048630807
 40
24.67392331601836
 40
24.9011322211787
 40
25.14960091628127
 40
25.22568697390676
 40
25.28762725747837
 40
25.28762725747837
 40
25.28762725747837
 40
25.28762725747837
 10
331.2248751418699
 20
624.9792757428946
 30
0.0
 10
331.1621274429556
 20
625.0342276172258
 30
0.0
 10
331.0420009423948
 20
625.1394295047355
 30
0.0
 10
330.7738464286967
 20
625.2491817539781
 30
0.0
 10
330.4511642726634
 20
625.327641255077
 30
0.0
 10
330.0228258888529
 20
625.4336156660291
 30
0.0
 10
329.5348791827386
 20
625.5305547233434
 30
0.0
 10
328.9396741341242
 20
625.6260103778739
 30
0.0
 10
328.2922864379143
 20
625.7099998438061
 30
0.0
 10
327.5499513275866
 20
625.7935401702098
 30
0.0
 10
326.7625017927359
 20
625.867606734869
 30
0.0
 10
325.8948136415518
 20
625.9364153549278
 30
0.0
 10
324.9906895465268
 20
625.9955708487809
 30
0.0
 10
324.0240593757702
 20
626.0476953749895
 30
0.0
 10
323.030610036737
 20
626.0901247001948
 30
0.0
 10
321.9943581488316
 20
626.124024067796
 30
0.0
 10
320.9416957944554
 20
626.1480865905789
 30
0.0
 10
319.8672926469124
 20
626.1628090731163
 30
0.0
 10
318.7873649720116
 20
626.1676165197424
 30
0.0
 10
317.7074372970668
 20
626.1628090731621
 30
0.0
 10
316.6330341496539
 20
626.1480865903989
 30
0.0
 10
315.5803717948091
 20
626.1240240684592
 30
0.0
 10
314.5441199085742
 20
626.0901246978428
 30
0.0
 10
313.5506705635277
 20
626.0476953834927
 30
0.0
 10
312.5840404135554
 20
625.9955708197639
 30
0.0
 10
311.6799162451925
 20
625.9364154583026
 30
0.0
 10
310.8122283381815
 20
625.8676063974551
 30
0.0
 10
310.0247779626164
 20
625.7935413504795
 30
0.0
 10
309.2824455225361
 20
625.7099962036617
 30
0.0
 10
308.6350489288572
 20
625.6260227997194
 30
0.0
 10
308.0398704076525
 20
625.5305192570773
 30
0.0
 10
307.5518393725286
 20
625.4337324331352
 30
0.0
 10
307.1237273808131
 20
625.3273493320744
 30
0.0
 10
306.8003826720213
 20
625.25008589199
 30
0.0
 10
306.5338152542851
 20
625.1374685673521
 30
0.0
 10
306.3901706612717
 20
625.0232081334792
 30
0.0
 10
306.2988203601578
 20
624.9264396959231
 30
0.0
 10
306.2909133140912
 20
624.8801658795285
 30
0.0
 10
306.2873649720042
 20
624.8594001815857
 30
0.0
 11
331.2248751418699
 21
624.9792757428946
 31
0.0
 11
331.028892968975
 21
625.1320097612182
 31
0.0
 11
330.821621943187
 21
625.2250828961874
 31
0.0
 11
330.4522621877772
 21
625.3276374154312
 31
0.0
 11
330.0761152569497
 21
625.4178936797409
 31
0.0
 11
329.5339332346093
 21
625.5272532201003
 31
0.0
 11
328.98905076124
 21
625.6156324587789
 31
0.0
 11
328.292096585567
 21
625.7080219559512
 31
0.0
 11
327.5933376063047
 21
625.7866858985224
 31
0.0
 11
326.7623096261141
 21
625.8655779023143
 31
0.0
 11
325.9302371375015
 21
625.931796373789
 31
0.0
 11
324.9905816789367
 21
625.9937748506318
 31
0.0
 11
324.050263933035
 21
626.0445945065162
 31
0.0
 11
323.0305443129911
 21
626.0884280208773
 31
0.0
 11
322.0104383704338
 21
626.121860883864
 31
0.0
 11
320.9416654284167
 21
626.146456071916
 31
0.0
 11
319.8727124698034
 21
626.1610989186576
 31
0.0
 11
318.7873649720042
 21
626.1660059724557
 31
0.0
 11
317.702017474205
 21
626.1610989186576
 31
0.0
 11
316.6330645155916
 21
626.146456071916
 31
0.0
 11
315.5642915735746
 21
626.1218608838639
 31
0.0
 11
314.5441856310171
 21
626.088428020877
 31
0.0
 11
313.5244660109733
 21
626.0445945065162
 31
0.0
 11
312.5841482650716
 21
625.9937748506318
 31
0.0
 11
311.6444928065068
 21
625.931796373789
 31
0.0
 11
310.8124203178941
 21
625.8655779023143
 31
0.0
 11
309.9813923377037
 21
625.7866858985224
 31
0.0
 11
309.2826333584413
 21
625.7080219559512
 31
0.0
 11
308.5856791827683
 21
625.6156324587789
 31
0.0
 11
308.0407967093991
 21
625.5272532201004
 31
0.0
 11
307.4986146870587
 21
625.4178936797407
 31
0.0
 11
307.1224677562311
 21
625.327637415431
 31
0.0
 11
306.7531080008213
 21
625.2250828961873
 31
0.0
 11
306.5458369750333
 21
625.1320097612183
 31
0.0
 11
306.3498548021383
 21
624.9792757428945
 31
0.0
 11
306.3029874295298
 21
624.9193379622402
 31
0.0
 11
306.2873649720042
 21
624.8594001815857
 31
0.0
  0
SPLINE
  5
306
330
75
100
AcDbEntity
  8
0
  6
Continuous
 62
     7
100
AcDbSpline
210
0.0
220
0.0
230
1.0
 70
     8
 71
     3
 72
     9
 73
     5
 74
     3
 42
0.0000000001
 43
0.0000000001
 44
0.00000001
 40
0.0
 40
0.0
 40
0.0
 40
0.0
 40
0.0593252732487189
 40
0.1304295942982227
 40
0.1304295942982227
 40
0.1304295942982227
 40
0.1304295942982227
 10
329.947364972004
 20
621.3785735478585
 30
0.0
 10
329.9443246433267
 20
621.3985259600527
 30
0.0
 10
329.9376403279547
 20
621.4423923408582
 30
0.0
 10
329.9080594400325
 20
621.4757542044171
 30
0.0
 10
329.8919332766177
 20
621.4939415848965
 30
0.0
 11
329.947364972004
 21
621.3785735478585
 31
0.0
 11
329.9335070481499
 21
621.4362575663774
 31
0.0
 11
329.8919332766177
 21
621.4939415848965
 31
0.0
  0
SPLINE
  5
307
330
75
100
AcDbEntity
  8
0
  6
Continuous
 62
     7
100
AcDbSpline
210
0.0
220
0.0
230
1.0
 70
     8
 71
     3
 72
    43
 73
    39
 74
    37
 42
0.0000000001
 43
0.0000000001
 44
0.00000001
 40
0.0
 40
0.0
 40
0.0
 40
0.0
 40
0.2247548526465791
 40
0.4320074804526976
 40
0.7776252691811055
 40
1.125402494761964
 40
1.620241475292626
 40
2.114354186836755
 40
2.742939115811335
 40
3.371555424580518
 40
4.117300272641286
 40
4.863002245011163
 40
5.704016678833148
 40
6.545019570677622
 40
7.456383508308935
 40
8.367740297202502
 40
9.322229035384957
 40
10.27671488271854
 40
11.24573138994196
 40
12.21474789716549
 40
13.16923374449913
 40
14.12372248268147
 40
15.03507927157509
 40
15.94644320920641
 40
16.7874461010509
 40
17.62846053487287
 40
18.37416250724275
 40
19.11990735530351
 40
19.74852366407268
 40
20.3771085930474
 40
20.87122130459157
 40
21.36606028512217
 40
21.71383751070286
 40
22.05945529943127
 40
22.26670792723744
 40
22.49146277988414
 40
22.56256710093358
 40
22.62189237418231
 40
22.62189237418231
 40
22.62189237418231
 40
22.62189237418231
 10
329.8919332766177
 20
621.4939415848965
 30
0.0
 10
329.8370842348112
 20
621.5457920971703
 30
0.0
 10
329.7316573838351
 20
621.6454553921057
 30
0.0
 10
329.4916135177987
 20
621.751673867127
 30
0.0
 10
329.2021189065839
 20
621.8298208839784
 30
0.0
 10
328.8192123829603
 20
621.9317805599686
 30
0.0
 10
328.3832457234338
 20
622.0246772303592
 30
0.0
 10
327.8518756355019
 20
622.1166270234895
 30
0.0
 10
327.2736908527128
 20
622.1977363064959
 30
0.0
 10
326.6108802811734
 20
622.2781871651185
 30
0.0
 10
325.9077524174538
 20
622.3494918610442
 30
0.0
 10
325.1330699516554
 20
622.4157611671092
 30
0.0
 10
324.3258108668255
 20
622.4727462044941
 30
0.0
 10
323.4627900994318
 20
622.5229453988724
 30
0.0
 10
322.5758022213881
 20
622.5638078536119
 30
0.0
 10
321.6506250253544
 20
622.5964551429357
 30
0.0
 10
320.7107832122741
 20
622.6196299668568
 30
0.0
 10
319.7515422872357
 20
622.6338085455998
 30
0.0
 10
318.7873649720123
 20
622.6384385965532
 30
0.0
 10
317.8231876567402
 20
622.6338085456405
 30
0.0
 10
316.8639467318454
 20
622.6196299666968
 30
0.0
 10
315.9241049182485
 20
622.5964551435246
 30
0.0
 10
314.9989277240564
 20
622.5638078515226
 30
0.0
 10
314.1119398393833
 20
622.5229454064274
 30
0.0
 10
313.2489190949079
 20
622.4727461787068
 30
0.0
 10
312.4416599291979
 20
622.4157612589884
 30
0.0
 10
311.6669777327646
 20
622.3494915610447
 30
0.0
 10
310.9638489413472
 20
622.2781882147565
 30
0.0
 10
310.3010413182873
 20
622.197733066614
 30
0.0
 10
309.7228467048893
 20
622.1166380854176
 30
0.0
 10
309.1915059534933
 20
622.0246456127773
 30
0.0
 10
308.7554459338805
 20
621.9318847649233
 30
0.0
 10
308.3727912933352
 20
621.8295586432726
 30
0.0
 10
308.0825545105702
 20
621.7524913557357
 30
0.0
 10
307.8443026466592
 20
621.6436658322152
 30
0.0
 10
307.7166627135793
 20
621.5346705549085
 30
0.0
 10
307.6371931896057
 20
621.4422416595227
 30
0.0
 10
307.6304376820868
 20
621.3984788507923
 30
0.0
 10
307.6273649720041
 20
621.3785735478585
 30
0.0
 11
329.8919332766177
 21
621.4939415848965
 31
0.0
 11
329.719826733689
 21
621.6384894374205
 31
0.0
 11
329.5333353554181
 21
621.7289030291154
 31
0.0
 11
329.2026719165912
 21
621.8294681627785
 31
0.0
 11
328.8660435709084
 21
621.9168200689715
 31
0.0
 11
328.3824241823245
 21
622.0215955605637
 31
0.0
 11
327.8956943971258
 21
622.1066924929992
 31
0.0
 11
327.2734578286066
 21
622.1958029061476
 31
0.0
 11
326.6494284777454
 21
622.2716041786582
 31
0.0
 11
325.9075604465087
 21
622.3475462792231
 31
0.0
 11
325.1645906912661
 21
622.4113222495496
 31
0.0
 11
324.3256973873237
 21
622.4710156536867
 31
0.0
 11
323.4861200645826
 21
622.5199623923897
 31
0.0
 11
322.5757342257599
 21
622.5621743727509
 31
0.0
 11
321.6649464108859
 21
622.5943730208496
 31
0.0
 11
320.7107516212267
 21
622.6180596141963
 31
0.0
 11
319.7563699556009
 21
622.632161708988
 31
0.0
 11
318.7873649720042
 21
622.6368874931732
 31
0.0
 11
317.8183599884073
 21
622.632161708988
 31
0.0
 11
316.8639783227815
 21
622.6180596141962
 31
0.0
 11
315.9097835331224
 21
622.5943730208496
 31
0.0
 11
314.9989957182484
 21
622.5621743727509
 31
0.0
 11
314.0886098794257
 21
622.5199623923897
 31
0.0
 11
313.2490325566846
 21
622.4710156536864
 31
0.0
 11
312.4101392527422
 21
622.4113222495496
 31
0.0
 11
311.6671694974996
 21
622.347546279223
 31
0.0
 11
310.9253014662629
 21
622.2716041786582
 31
0.0
 11
310.3012721154016
 21
622.1958029061477
 31
0.0
 11
309.6790355468824
 21
622.1066924929991
 31
0.0
 11
309.1923057616836
 21
622.0215955605637
 31
0.0
 11
308.7086863730998
 21
621.9168200689715
 31
0.0
 11
308.3720580274171
 21
621.8294681627785
 31
0.0
 11
308.0413945885902
 21
621.7289030291154
 31
0.0
 11
307.8549032103193
 21
621.6384894374205
 31
0.0
 11
307.6827966673905
 21
621.4939415848963
 31
0.0
 11
307.6412228958583
 21
621.4362575663774
 31
0.0
 11
307.6273649720041
 21
621.3785735478585
 31
0.0
  0
SPLINE
  5
308
330
75
100
AcDbEntity
  8
0
  6
Continuous
 62
     7
100
AcDbSpline
210
0.0
220
0.0
230
1.0
 70
     8
 71
     3
 72
     9
 73
     5
 74
     3
 42
0.0000000001
 43
0.0000000001
 44
0.00000001
 40
0.0
 40
0.0
 40
0.0
 40
0.0
 40
0.0619402835492427
 40
0.1380263411454833
 40
0.1380263411454833
 40
0.1380263411454833
 40
0.1380263411454833
 10
331.2873649720041
 20
624.8594001816389
 30
0.0
 10
331.2838426750307
 20
624.8802128970394
 30
0.0
 10
331.275993667312
 20
624.926591486084
 30
0.0
 10
331.243040400369
 20
624.9605540928562
 30
0.0
 10
331.2248751418699
 20
624.9792757428946
 30
0.0
 11
331.2873649720041
 21
624.8594001816389
 31
0.0
 11
331.2717425144647
 21
624.9193379622667
 31
0.0
 11
331.2248751418699
 21
624.9792757428946
 31
0.0
  0
SPLINE
  5
309
330
75
100
AcDbEntity
  8
0
  6
Continuous
 62
     7
100
AcDbSpline
210
0.0
220
0.0
230
1.0
 70
     8
 71
     3
 72
    43
 73
    39
 74
    37
 42
0.0000000001
 43
0.0000000001
 44
0.00000001
 40
0.0
 40
0.0
 40
0.0
 40
0.0
 40
0.2484686951023818
 40
0.4756776002628201
 40
0.8590104299731423
 40
1.245834300511232
 40
1.79893542545742
 40
2.350938867126437
 40
3.053990033241513
 40
3.757162933004189
 40
4.591927242328593
 40
5.426630490357739
 40
6.368327741284216
 40
7.310017764955382
 40
8.33067906062778
 40
9.351332719009644
 40
10.42038862253533
 40
11.48944186755587
 40
12.57480045814055
 40
13.66015904872518
 40
14.72921229374577
 40
15.79826819727146
 40
16.81892185565344
 40
17.83958315132577
 40
18.78127317499694
 40
19.72297042592342
 40
20.55767367395262
 40
21.39243798327691
 40
22.09561088303964
 40
22.79866204915467
 40
23.35066549082367
 40
23.90376661576992
 40
24.29059048630807
 40
24.67392331601836
 40
24.9011322211787
 40
25.14960091628127
 40
25.22568697390676
 40
25.28762725747837
 40
25.28762725747837
 40
25.28762725747837
 40
25.28762725747837
 10
331.2248751418699
 20
624.9792757428946
 30
0.0
 10
331.1621274429556
 20
625.0342276172258
 30
0.0
 10
331.0420009423948
 20
625.1394295047355
 30
0.0
 10
330.7738464286967
 20
625.2491817539781
 30
0.0
 10
330.4511642726634
 20
625.327641255077
 30
0.0
 10
330.0228258888529
 20
625.4336156660291
 30
0.0
 10
329.5348791827386
 20
625.5305547233434
 30
0.0
 10
328.9396741341242
 20
625.6260103778739
 30
0.0
 10
328.2922864379143
 20
625.7099998438061
 30
0.0
 10
327.5499513275866
 20
625.7935401702098
 30
0.0
 10
326.7625017927359
 20
625.867606734869
 30
0.0
 10
325.8948136415518
 20
625.9364153549278
 30
0.0
 10
324.9906895465268
 20
625.9955708487809
 30
0.0
 10
324.0240593757702
 20
626.0476953749895
 30
0.0
 10
323.030610036737
 20
626.0901247001948
 30
0.0
 10
321.9943581488316
 20
626.124024067796
 30
0.0
 10
320.9416957944554
 20
626.1480865905789
 30
0.0
 10
319.8672926469124
 20
626.1628090731163
 30
0.0
 10
318.7873649720116
 20
626.1676165197424
 30
0.0
 10
317.7074372970668
 20
626.1628090731621
 30
0.0
 10
316.6330341496539
 20
626.1480865903989
 30
0.0
 10
315.5803717948091
 20
626.1240240684592
 30
0.0
 10
314.5441199085742
 20
626.0901246978428
 30
0.0
 10
313.5506705635277
 20
626.0476953834927
 30
0.0
 10
312.5840404135554
 20
625.9955708197639
 30
0.0
 10
311.6799162451925
 20
625.9364154583026
 30
0.0
 10
310.8122283381815
 20
625.8676063974551
 30
0.0
 10
310.0247779626164
 20
625.7935413504795
 30
0.0
 10
309.2824455225361
 20
625.7099962036617
 30
0.0
 10
308.6350489288572
 20
625.6260227997194
 30
0.0
 10
308.0398704076525
 20
625.5305192570773
 30
0.0
 10
307.5518393725286
 20
625.4337324331352
 30
0.0
 10
307.1237273808131
 20
625.3273493320744
 30
0.0
 10
306.8003826720213
 20
625.25008589199
 30
0.0
 10
306.5338152542851
 20
625.1374685673521
 30
0.0
 10
306.3901706612717
 20
625.0232081334792
 30
0.0
 10
306.2988203601578
 20
624.9264396959231
 30
0.0
 10
306.2909133140912
 20
624.8801658795285
 30
0.0
 10
306.2873649720042
 20
624.8594001815857
 30
0.0
 11
331.2248751418699
 21
624.9792757428946
 31
0.0
 11
331.028892968975
 21
625.1320097612182
 31
0.0
 11
330.821621943187
 21
625.2250828961874
 31
0.0
 11
330.4522621877772
 21
625.3276374154312
 31
0.0
 11
330.0761152569497
 21
625.4178936797409
 31
0.0
 11
329.5339332346093
 21
625.5272532201003
 31
0.0
 11
328.98905076124
 21
625.6156324587789
 31
0.0
 11
328.292096585567
 21
625.7080219559512
 31
0.0
 11
327.5933376063047
 21
625.7866858985224
 31
0.0
 11
326.7623096261141
 21
625.8655779023143
 31
0.0
 11
325.9302371375015
 21
625.931796373789
 31
0.0
 11
324.9905816789367
 21
625.9937748506318
 31
0.0
 11
324.050263933035
 21
626.0445945065162
 31
0.0
 11
323.0305443129911
 21
626.0884280208773
 31
0.0
 11
322.0104383704338
 21
626.121860883864
 31
0.0
 11
320.9416654284167
 21
626.146456071916
 31
0.0
 11
319.8727124698034
 21
626.1610989186576
 31
0.0
 11
318.7873649720042
 21
626.1660059724557
 31
0.0
 11
317.702017474205
 21
626.1610989186576
 31
0.0
 11
316.6330645155916
 21
626.146456071916
 31
0.0
 11
315.5642915735746
 21
626.1218608838639
 31
0.0
 11
314.5441856310171
 21
626.088428020877
 31
0.0
 11
313.5244660109733
 21
626.0445945065162
 31
0.0
 11
312.5841482650716
 21
625.9937748506318
 31
0.0
 11
311.6444928065068
 21
625.931796373789
 31
0.0
 11
310.8124203178941
 21
625.8655779023143
 31
0.0
 11
309.9813923377037
 21
625.7866858985224
 31
0.0
 11
309.2826333584413
 21
625.7080219559512
 31
0.0
 11
308.5856791827683
 21
625.6156324587789
 31
0.0
 11
308.0407967093991
 21
625.5272532201004
 31
0.0
 11
307.4986146870587
 21
625.4178936797407
 31
0.0
 11
307.1224677562311
 21
625.327637415431
 31
0.0
 11
306.7531080008213
 21
625.2250828961873
 31
0.0
 11
306.5458369750333
 21
625.1320097612183
 31
0.0
 11
306.3498548021383
 21
624.9792757428945
 31
0.0
 11
306.3029874295298
 21
624.9193379622402
 31
0.0
 11
306.2873649720042
 21
624.8594001815857
 31
0.0
  0
SPLINE
  5
30A
330
75
100
AcDbEntity
  8
0
  6
Continuous
 62
     7
100
AcDbSpline
210
0.0
220
0.0
230
1.0
 70
     8
 71
     3
 72
    27
 73
    23
 74
    21
 42
0.0000000001
 43
0.0000000001
 44
0.00000001
 40
0.0
 40
0.0
 40
0.0
 40
0.0
 40
0.5426682689172538
 40
1.085344509967005
 40
2.15433008191082
 40
3.223317202619293
 40
4.243745137818881
 40
5.26418066076653
 40
6.205365024400316
 40
7.146543766080058
 40
7.980326152339183
 40
8.81420612754396
 40
9.515778170729831
 40
10.21701812092802
 40
10.76657634737008
 40
11.31794992400946
 40
11.69995780120587
 40
12.07595053211578
 40
12.29427287443789
 40
12.53747906190117
 40
12.60701181478772
 40
12.6602721751542
 40
12.6602721751542
 40
12.6602721751542
 40
12.6602721751542
 10
318.7873649720042
 20
635.9123205470651
 30
0.0
 10
318.9682545104765
 20
635.9121186154399
 30
0.0
 10
319.3300362448002
 20
635.9117147492225
 30
0.0
 10
320.0481360672446
 20
635.9074657291055
 30
0.0
 10
320.9416348730819
 20
635.8971444483565
 30
0.0
 10
321.9942490757388
 20
635.8767290863046
 30
0.0
 10
323.030479034964
 20
635.8479962532234
 30
0.0
 10
324.0238583686584
 20
635.812025771839
 30
0.0
 10
324.9904615568185
 20
635.7678380819689
 30
0.0
 10
325.8944744823471
 20
635.7177166517881
 30
0.0
 10
326.7621472507526
 20
635.6593886015993
 30
0.0
 10
327.5494205135235
 20
635.5965410847369
 30
0.0
 10
328.2916284146447
 20
635.5257074029846
 30
0.0
 10
328.9386110628088
 20
635.4549515037983
 30
0.0
 10
329.5339325448978
 20
635.3740131955591
 30
0.0
 10
330.0213635498814
 20
635.2909958033688
 30
0.0
 10
330.4484631849836
 20
635.2005366798229
 30
0.0
 10
330.7680134995944
 20
635.1400870712359
 30
0.0
 10
331.0338940900256
 20
635.0453888468057
 30
0.0
 10
331.1786801505142
 20
634.9463026458374
 30
0.0
 10
331.2748248855054
 20
634.8633917565811
 30
0.0
 10
331.2835712977744
 20
634.8223992501972
 30
0.0
 10
331.2873649720042
 20
634.8046191352989
 30
0.0
 11
318.7873649720042
 21
635.9123205470651
 31
0.0
 11
319.3300322443967
 21
635.9112805644824
 31
0.0
 11
319.8726995167892
 21
635.9081606167346
 31
0.0
 11
320.9416130158679
 21
635.8957475384992
 31
0.0
 11
322.0103967779997
 21
635.8748972616684
 31
0.0
 11
323.0304310628212
 21
635.8465559715676
 31
0.0
 11
324.05018962286
 21
635.8093923371791
 31
0.0
 11
324.9903877815247
 21
635.7663176486449
 31
0.0
 11
325.930099368577
 21
635.7137861633294
 31
0.0
 11
326.7619900681409
 21
635.6576530036552
 31
0.0
 11
327.5931780451848
 21
635.5907025752384
 31
0.0
 11
328.2915808332311
 21
635.5240926853633
 31
0.0
 11
328.9884639895944
 21
635.4460456858624
 31
0.0
 11
329.532882098843
 21
635.3710579097095
 31
0.0
 11
330.0762164319137
 21
635.2772462711848
 31
0.0
 11
330.4506396562225
 21
635.2015015199588
 31
0.0
 11
330.8172786888476
 21
635.1181567333624
 31
0.0
 11
331.0213650005324
 21
635.0406104727181
 31
0.0
 11
331.2241488706119
 21
634.9063422648057
 31
0.0
 11
331.2715609466561
 21
634.8554807000523
 31
0.0
 11
331.2873649720042
 21
634.8046191352989
 31
0.0
  0
SPLINE
  5
30B
330
75
100
AcDbEntity
  8
0
  6
Continuous
 62
     7
100
AcDbSpline
210
0.0
220
0.0
230
1.0
 70
     8
 71
     3
 72
    27
 73
    23
 74
    21
 42
0.0000000001
 43
0.0000000001
 44
0.00000001
 40
0.0
 40
0.0
 40
0.0
 40
0.0
 40
0.5426682689174244
 40
1.085344509967175
 40
2.154330081910934
 40
3.22331720261952
 40
4.243745137819052
 40
5.264180660766757
 40
6.2053650244006
 40
7.146543766080285
 40
7.980326152339297
 40
8.814206127544075
 40
9.515778170730004
 40
10.21701812092809
 40
10.7665763473702
 40
11.31794992400963
 40
11.6999578012061
 40
12.07595053211601
 40
12.29427287443811
 40
12.5374790619013
 40
12.60701181478786
 40
12.6602721751543
 40
12.6602721751543
 40
12.6602721751543
 40
12.6602721751543
 10
318.7873649720042
 20
635.9123205470651
 30
0.0
 10
318.6064754335319
 20
635.9121186154397
 30
0.0
 10
318.2446936992081
 20
635.9117147492225
 30
0.0
 10
317.5265938767637
 20
635.9074657291054
 30
0.0
 10
316.6330950709263
 20
635.8971444483564
 30
0.0
 10
315.5804808682694
 20
635.8767290863049
 30
0.0
 10
314.5442509090441
 20
635.8479962532234
 30
0.0
 10
313.5508715753497
 20
635.8120257718391
 30
0.0
 10
312.5842683871899
 20
635.7678380819689
 30
0.0
 10
311.6802554616609
 20
635.7177166517881
 30
0.0
 10
310.8125826932557
 20
635.6593886015994
 30
0.0
 10
310.0253094304848
 20
635.5965410847368
 30
0.0
 10
309.2831015293637
 20
635.5257074029848
 30
0.0
 10
308.6361188811994
 20
635.4549515037984
 30
0.0
 10
308.0407973991106
 20
635.3740131955589
 30
0.0
 10
307.5533663941268
 20
635.2909958033688
 30
0.0
 10
307.1262667590247
 20
635.2005366798229
 30
0.0
 10
306.8067164444137
 20
635.1400870712359
 30
0.0
 10
306.5408358539826
 20
635.0453888468056
 30
0.0
 10
306.3960497934941
 20
634.9463026458374
 30
0.0
 10
306.2999050585028
 20
634.8633917565812
 30
0.0
 10
306.2911586462341
 20
634.8223992501972
 30
0.0
 10
306.2873649720042
 20
634.8046191352989
 30
0.0
 11
318.7873649720042
 21
635.9123205470651
 31
0.0
 11
318.2446976996116
 21
635.9112805644824
 31
0.0
 11
317.702030427219
 21
635.9081606167346
 31
0.0
 11
316.6331169281403
 21
635.8957475384992
 31
0.0
 11
315.5643331660084
 21
635.8748972616684
 31
0.0
 11
314.5442988811871
 21
635.8465559715676
 31
0.0
 11
313.5245403211482
 21
635.8093923371791
 31
0.0
 11
312.5843421624834
 21
635.7663176486449
 31
0.0
 11
311.6446305754312
 21
635.7137861633294
 31
0.0
 11
310.8127398758674
 21
635.6576530036552
 31
0.0
 11
309.9815518988235
 21
635.5907025752384
 31
0.0
 11
309.2831491107771
 21
635.5240926853633
 31
0.0
 11
308.5862659544139
 21
635.4460456858624
 31
0.0
 11
308.0418478451653
 21
635.3710579097095
 31
0.0
 11
307.4985135120945
 21
635.2772462711848
 31
0.0
 11
307.1240902877856
 21
635.2015015199588
 31
0.0
 11
306.7574512551605
 21
635.1181567333624
 31
0.0
 11
306.5533649434757
 21
635.0406104727181
 31
0.0
 11
306.3505810733963
 21
634.9063422648057
 31
0.0
 11
306.3031689973522
 21
634.8554807000523
 31
0.0
 11
306.2873649720042
 21
634.8046191352989
 31
0.0
  0
ARC
  5
30C
330
75
100
AcDbEntity
  8
1
  6
Continuous
 62
     7
100
AcDbCircle
 10
531.3026331016472
 20
635.8804740067483
 30
0.0
 40
0.1999999999999543
100
AcDbArc
 50
84.00000000000343
 51
174.0000000000682
  0
ARC
  5
30D
330
75
100
AcDbEntity
  8
1
  6
Continuous
 62
     7
100
AcDbCircle
 10
555.767871727708
 20
633.3090738103756
 30
0.0
 40
0.1999999999999543
100
AcDbArc
 50
-5.99999999999658
 51
84.00000000000343
  0
ARC
  5
30E
330
75
100
AcDbEntity
  8
1
  6
Continuous
 62
     7
100
AcDbCircle
 10
531.5627197904472
 20
623.4853859555885
 30
0.0
 40
0.9999999999999241
100
AcDbArc
 50
-170.0546040990468
 51
-95.99999999996931
  0
ARC
  5
30F
330
75
100
AcDbEntity
  8
1
  6
Continuous
 62
     7
100
AcDbCircle
 10
552.9363848425357
 20
621.2389232354744
 30
0.0
 40
0.9999999999999619
100
AcDbArc
 50
-95.99999999997579
 51
-21.94539590089866
  0
ENDBLK
  5
77
330
75
100
AcDbEntity
  8
0
100
AcDbBlockEnd
  0
BLOCK
  5
7A
330
78
100
AcDbEntity
  8
0
100
AcDbBlockBegin
  2
M281
 70
     0
 71
     0
 10
440.8292045804803
 20
757.9864501423549
 30
0.0
  3
M281
  1

  0
INSERT
  5
79
330
78
100
AcDbEntity
  8
0
100
AcDbBlockReference
  2
82-20-M21
 10
294.5505452107528
 20
634.6358141322767
 30
0.0
  0
ENDBLK
  5
7B
330
78
100
AcDbEntity
  8
0
100
AcDbBlockEnd
  0
BLOCK
  5
7D
330
7C
100
AcDbEntity
  8
0
100
AcDbBlockBegin
  2
98-119
 70
     0
 71
     0
 10
197.787364972004
 20
475.1362897557893
 30
0.0
  3
98-119
  1

  0
LINE
  5
310
330
7C
100
AcDbEntity
  8
1
  6
Continuous
 62
     7
100
AcDbLine
 10
439.7873649720041
 20
474.6362897557896
 30
0.0
 11
439.7873649720041
 21
475.6362897557893
 31
0.0
  0
LINE
  5
311
330
7C
100
AcDbEntity
  8
1
  6
Continuous
 62
     7
100
AcDbLine
 10
410.037364972004
 20
474.6362897557896
 30
0.0
 11
439.7873649720041
 21
474.6362897557896
 31
0.0
  0
LINE
  5
312
330
7C
100
AcDbEntity
  8
1
  6
Continuous
 62
     7
100
AcDbLine
 10
410.037364972004
 20
474.6362897557896
 30
0.0
 11
227.5373649720039
 21
474.6362897557896
 31
0.0
  0
LINE
  5
313
330
7C
100
AcDbEntity
  8
1
  6
Continuous
 62
     7
100
AcDbLine
 10
197.787364972004
 20
475.6362897557893
 30
0.0
 11
197.787364972004
 21
474.6362897557896
 31
0.0
  0
LINE
  5
314
330
7C
100
AcDbEntity
  8
1
  6
Continuous
 62
     7
100
AcDbLine
 10
197.787364972004
 20
474.6362897557896
 30
0.0
 11
227.5373649720039
 21
474.6362897557896
 31
0.0
  0
LINE
  5
315
330
7C
100
AcDbEntity
  8
1
  6
Continuous
 62
     7
100
AcDbLine
 10
775.7873649720042
 20
475.6362897557893
 30
0.0
 11
775.7873649720042
 21
474.6362897557896
 31
0.0
  0
LINE
  5
316
330
7C
100
AcDbEntity
  8
1
  6
Continuous
 62
     7
100
AcDbLine
 10
821.7873649720042
 20
474.6362897557896
 30
0.0
 11
821.7873649720042
 21
475.6362897557893
 31
0.0
  0
LINE
  5
317
330
7C
100
AcDbEntity
  8
1
  6
Continuous
 62
     7
100
AcDbLine
 10
821.7873649720042
 20
474.6362897557896
 30
0.0
 11
775.7873649720042
 21
474.6362897557896
 31
0.0
  0
ENDBLK
  5
7E
330
7C
100
AcDbEntity
  8
0
100
AcDbBlockEnd
  0
BLOCK
  5
80
330
7F
100
AcDbEntity
  8
0
100
AcDbBlockBegin
  2
50-13
 70
     0
 71
     0
 10
161.288785090347
 20
277.2132754220669
 30
0.0
  3
50-13
  1

  0
LINE
  5
318
330
7F
100
AcDbEntity
  8
1
  6
Continuous
 62
     7
100
AcDbLine
 10
298.0452455330144
 20
498.6362897557891
 30
0.0
 11
339.0452455330144
 21
498.6362897557891
 31
0.0
  0
LINE
  5
319
330
7F
100
AcDbEntity
  8
1
  6
Continuous
 62
     7
100
AcDbLine
 10
823.8297535680612
 20
475.6362897557892
 30
0.0
 11
822.8297535680612
 21
475.6362897557892
 31
0.0
  0
LINE
  5
31A
330
7F
100
AcDbEntity
  8
1
  6
Continuous
 62
     7
100
AcDbLine
 10
773.7449763759456
 20
475.6362897557892
 30
0.0
 11
774.7449763759456
 21
475.6362897557892
 31
0.0
  0
LINE
  5
31B
330
7F
100
AcDbEntity
  8
1
  6
Continuous
 62
     7
100
AcDbLine
 10
774.9949763759456
 20
498.6362897557892
 30
0.0
 11
822.5797535680612
 21
498.6362897557863
 31
0.0
  0
LINE
  5
31C
330
7F
100
AcDbEntity
  8
1
  6
Continuous
 62
     7
100
AcDbLine
 10
823.8297535680612
 20
497.3862897557892
 30
0.0
 11
823.8297535680612
 21
475.6362897557892
 31
0.0
  0
LINE
  5
31D
330
7F
100
AcDbEntity
  8
1
  6
Continuous
 62
     7
100
AcDbLine
 10
773.7449763759456
 20
497.3862897557892
 30
0.0
 11
773.7449763759456
 21
475.6362897557892
 31
0.0
  0
LINE
  5
31E
330
7F
100
AcDbEntity
  8
1
  6
Continuous
 62
     7
100
AcDbLine
 10
437.7873649720036
 20
475.6362897557892
 30
0.0
 11
441.7873649720041
 21
475.6362897557892
 31
0.0
  0
LINE
  5
31F
330
7F
100
AcDbEntity
  8
1
  6
Continuous
 62
     7
100
AcDbLine
 10
341.0373649720038
 20
498.6362897557891
 30
0.0
 11
342.7873649720036
 21
498.6362897557892
 31
0.0
  0
LINE
  5
320
330
7F
100
AcDbEntity
  8
1
  6
Continuous
 62
     7
100
AcDbLine
 10
441.7873649720041
 20
475.6362897557892
 30
0.0
 11
441.7873649720036
 21
491.9735272840968
 31
0.0
  0
LINE
  5
321
330
7F
100
AcDbEntity
  8
1
  6
Continuous
 62
     7
100
AcDbLine
 10
196.787364972004
 20
475.6362897557892
 30
0.0
 11
437.7873649720036
 21
475.6362897557892
 31
0.0
  0
LINE
  5
322
330
7F
100
AcDbEntity
  8
1
  6
Continuous
 62
     7
100
AcDbLine
 10
195.787364972004
 20
475.6362897557892
 30
0.0
 11
196.787364972004
 21
475.6362897557892
 31
0.0
  0
LINE
  5
323
330
7F
100
AcDbEntity
  8
1
  6
Continuous
 62
     7
100
AcDbLine
 10
195.787364972004
 20
491.9735272840968
 30
0.0
 11
195.787364972004
 21
475.6362897557892
 31
0.0
  0
LINE
  5
324
330
7F
100
AcDbEntity
  8
1
  6
Continuous
 62
     7
100
AcDbLine
 10
294.7873649720041
 20
498.6362897557892
 30
0.0
 11
296.5373649720042
 21
498.6362897557891
 31
0.0
  0
LINE
  5
325
330
7F
100
AcDbEntity
  8
0
  6
Continuous
 62
     7
100
AcDbLine
 10
822.8297535680612
 20
475.6362897557892
 30
0.0
 11
775.2873649720042
 21
475.6362897557892
 31
0.0
  0
LINE
  5
326
330
7F
100
AcDbEntity
  8
0
  6
Continuous
 62
     7
100
AcDbLine
 10
774.7449763759456
 20
475.6362897557892
 30
0.0
 11
775.2873649720042
 21
475.6362897557892
 31
0.0
  0
ARC
  5
327
330
7F
100
AcDbEntity
  8
1
  6
Continuous
 62
     7
100
AcDbCircle
 10
318.787364972004
 20
2918.276222976795
 30
0.0
 40
1700.000000000023
100
AcDbArc
 50
-93.45075904091442
 51
-90.79095625788324
  0
ARC
  5
328
330
7F
100
AcDbEntity
  8
1
  6
Continuous
 62
     7
100
AcDbCircle
 10
318.787364972004
 20
-431.638999831135
 30
0.0
 40
1700.000000000023
100
AcDbArc
 50
86.54924095908557
 51
93.45075904091442
  0
ARC
  5
329
330
7F
100
AcDbEntity
  8
1
  6
Continuous
 62
     7
100
AcDbCircle
 10
318.787364972004
 20
2918.276222976795
 30
0.0
 40
1700.000000000023
100
AcDbArc
 50
-89.2090437086781
 51
-86.54924095908557
  0
ARC
  5
32A
330
7F
100
AcDbEntity
  8
1
  6
Continuous
 62
     7
100
AcDbCircle
 10
318.787364972004
 20
-431.638999831135
 30
0.0
 40
1700.000000000022
100
AcDbArc
 50
90.19358254511018
 51
93.45075904091442
  0
ARC
  5
32B
330
7F
100
AcDbEntity
  8
1
  6
Continuous
 62
     7
100
AcDbCircle
 10
318.787364972004
 20
-431.638999831135
 30
0.0
 40
1700.000000000023
100
AcDbArc
 50
86.54924095908557
 51
89.80366607524884
  0
ARC
  5
32C
330
7F
100
AcDbEntity
  8
1
  6
Continuous
 62
     7
100
AcDbCircle
 10
342.787364971991
 20
-1201.363710244689
 30
0.0
 40
1700.000000000478
100
AcDbArc
 50
86.78894490300495
 51
89.99999999999957
  0
ARC
  5
32D
330
7F
100
AcDbEntity
  8
1
  6
Continuous
 62
     7
100
AcDbCircle
 10
294.7873649720166
 20
-1201.363710244689
 30
0.0
 40
1700.000000000478
100
AcDbArc
 50
90.00000000000043
 51
93.21105509699505
  0
ARC
  5
32E
330
7F
100
AcDbEntity
  8
1
  6
Continuous
 62
     7
100
AcDbCircle
 10
217.787364972004
 20
1243.31861157283
 30
0.0
 40
22.00000000000043
100
AcDbArc
 50
180.0
 51
-93.45075904091455
  0
ARC
  5
32F
330
7F
100
AcDbEntity
  8
1
  6
Continuous
 62
     7
100
AcDbCircle
 10
419.7873649720041
 20
1243.31861157283
 30
0.0
 40
21.99999999999966
100
AcDbArc
 50
0.0
 51
86.54924095908545
  0
ARC
  5
330
330
7F
100
AcDbEntity
  8
1
  6
Continuous
 62
     7
100
AcDbCircle
 10
318.787364972004
 20
2918.276222976795
 30
0.0
 40
1700.000000000023
100
AcDbArc
 50
-89.2090437086781
 51
-86.54924095908557
  0
ARC
  5
331
330
7F
100
AcDbEntity
  8
1
  6
Continuous
 62
     7
100
AcDbCircle
 10
318.787364972004
 20
2918.276222976795
 30
0.0
 40
1700.000000000023
100
AcDbArc
 50
-93.45075904091442
 51
-90.79095625788324
  0
ARC
  5
332
330
7F
100
AcDbEntity
  8
1
  6
Continuous
 62
     7
100
AcDbCircle
 10
419.7873649720041
 20
1243.31861157283
 30
0.0
 40
22.00000000000006
100
AcDbArc
 50
-86.54924095908545
 51
0.0
  0
ARC
  5
333
330
7F
100
AcDbEntity
  8
1
  6
Continuous
 62
     7
100
AcDbCircle
 10
217.787364972004
 20
1243.31861157283
 30
0.0
 40
22.00000000000006
100
AcDbArc
 50
93.45075904091455
 51
180.0
  0
ARC
  5
334
330
7F
100
AcDbEntity
  8
0
  6
Continuous
 62
     7
100
AcDbCircle
 10
296.5373649720042
 20
498.8862897557891
 30
0.0
 40
0.25
100
AcDbArc
 50
-90.0
 51
-11.53695903253966
  0
ARC
  5
335
330
7F
100
AcDbEntity
  8
0
  6
Continuous
 62
     7
100
AcDbCircle
 10
776.5373649720044
 20
498.8862897557891
 30
0.0
 40
0.25
100
AcDbArc
 50
-90.0
 51
-11.53695903253185
  0
ARC
  5
336
330
7F
100
AcDbEntity
  8
1
  6
Continuous
 62
     7
100
AcDbCircle
 10
822.5797535680612
 20
497.3862897557892
 30
0.0
 40
1.25
100
AcDbArc
 50
0.0
 51
90.0
  0
ARC
  5
337
330
7F
100
AcDbEntity
  8
1
  6
Continuous
 62
     7
100
AcDbCircle
 10
774.9949763759456
 20
497.3862897557892
 30
0.0
 40
1.25
100
AcDbArc
 50
90.0
 51
180.0
  0
ARC
  5
338
330
7F
100
AcDbEntity
  8
1
  6
Continuous
 62
     7
100
AcDbCircle
 10
437.7873649720036
 20
491.9735272840968
 30
0.0
 40
4.0
100
AcDbArc
 50
0.0
 51
86.78894490300463
  0
ARC
  5
339
330
7F
100
AcDbEntity
  8
1
  6
Continuous
 62
     7
100
AcDbCircle
 10
199.787364972004
 20
491.9735272840968
 30
0.0
 40
4.000000000000286
100
AcDbArc
 50
93.21105509699416
 51
180.0
  0
ARC
  5
33A
330
7F
100
AcDbEntity
  8
0
  6
Continuous
 62
     7
100
AcDbCircle
 10
341.0373649720038
 20
498.8862897557891
 30
0.0
 40
0.25000000000004
100
AcDbArc
 50
-168.4630409674629
 51
-90.0
  0
ARC
  5
33B
330
7F
100
AcDbEntity
  8
0
  6
Continuous
 62
     7
100
AcDbCircle
 10
821.037364972004
 20
498.8862897557891
 30
0.0
 40
0.2499999999999286
100
AcDbArc
 50
-168.4630409674577
 51
-90.0
  0
ENDBLK
  5
81
330
7F
100
AcDbEntity
  8
0
100
AcDbBlockEnd
  0
BLOCK
  5
83
330
82
100
AcDbEntity
  8
0
100
AcDbBlockBegin
  2
61-115
 70
     0
 71
     0
 10
770.7671984703069
 20
410.6841679292202
 30
0.0
  3
61-115
  1

  0
LINE
  5
33C
330
82
100
AcDbEntity
  8
1
  6
Continuous
 62
     7
100
AcDbLine
 10
340.9373649720041
 20
543.8362897557896
 30
0.0
 11
340.9373649720041
 21
542.4362897557901
 31
0.0
  0
LINE
  5
33D
330
82
100
AcDbEntity
  8
1
  6
Continuous
 62
     7
100
AcDbLine
 10
296.6373649720041
 20
542.4362897557901
 30
0.0
 11
296.6373649720041
 21
543.8362897557896
 31
0.0
  0
LINE
  5
33E
330
82
100
AcDbEntity
  8
1
  6
Continuous
 62
     7
100
AcDbLine
 10
766.222317323321
 20
519.5100002177551
 30
0.0
 11
774.7873649720041
 21
513.4362897557901
 31
0.0
  0
LINE
  5
33F
330
82
100
AcDbEntity
  8
1
  6
Continuous
 62
     7
100
AcDbLine
 10
767.7364463430051
 20
518.4362897557901
 30
0.0
 11
759.2753439882072
 21
524.4362897557899
 31
0.0
  0
LINE
  5
340
330
82
100
AcDbEntity
  8
1
  6
Continuous
 62
     7
100
AcDbLine
 10
527.6438077814553
 20
636.4661337000468
 30
0.0
 11
528.7413566457522
 21
646.9086136012887
 31
0.0
  0
LINE
  5
341
330
82
100
AcDbEntity
  8
1
  6
Continuous
 62
     7
100
AcDbLine
 10
527.6438077814553
 20
636.4661337000468
 30
0.0
 11
559.4685084332261
 21
633.1212228753548
 31
0.0
  0
LINE
  5
342
330
82
100
AcDbEntity
  8
1
  6
Continuous
 62
     7
100
AcDbLine
 10
559.4685084332261
 20
633.1212228753548
 30
0.0
 11
559.52077266486
 21
633.6184838230411
 31
0.0
  0
LINE
  5
343
330
82
100
AcDbEntity
  8
1
  6
Continuous
 62
     7
100
AcDbLine
 10
562.154003547163
 20
633.84447424466
 30
0.0
 11
560.0702978441782
 21
634.0634805390912
 31
0.0
  0
LINE
  5
344
330
82
100
AcDbEntity
  8
1
  6
Continuous
 62
     7
100
AcDbLine
 10
528.7413566457522
 20
646.9086136012887
 30
0.0
 11
528.8981493406541
 21
648.4003964443411
 31
0.0
  0
LINE
  5
345
330
82
100
AcDbEntity
  8
1
  6
Continuous
 62
     7
100
AcDbLine
 10
577.7179375908752
 20
651.3132961709744
 30
0.0
 11
537.690552209742
 21
655.5203439011455
 31
0.0
  0
LINE
  5
346
330
82
100
AcDbEntity
  8
1
  6
Continuous
 62
     7
100
AcDbLine
 10
575.7318967887856
 20
632.4173801589797
 30
0.0
 11
562.154003547163
 21
633.84447424466
 31
0.0
  0
LINE
  5
347
330
82
100
AcDbEntity
  8
1
  6
Continuous
 62
     7
100
AcDbLine
 10
653.5451619360781
 20
622.7048047015126
 30
0.0
 11
741.65520389987
 21
560.223554668778
 31
0.0
  0
LINE
  5
348
330
82
100
AcDbEntity
  8
1
  6
Continuous
 62
     7
100
AcDbLine
 10
642.5546382429991
 20
607.2061470515157
 30
0.0
 11
732.0921556344661
 21
543.7126349981965
 31
0.0
  0
LINE
  5
349
330
82
100
AcDbEntity
  8
1
  6
Continuous
 62
     7
100
AcDbLine
 10
732.0921556344661
 20
543.7126349981965
 30
0.0
 11
760.5122855575321
 21
523.5591405257318
 31
0.0
  0
LINE
  5
34A
330
82
100
AcDbEntity
  8
1
  6
Continuous
 62
     7
100
AcDbLine
 10
741.65520389987
 20
560.223554668778
 30
0.0
 11
774.7873649720038
 21
536.7286295281961
 31
0.0
  0
LINE
  5
34B
330
82
100
AcDbEntity
  8
1
  6
Continuous
 62
     7
100
AcDbLine
 10
820.9373649720048
 20
541.4362897557901
 30
0.0
 11
820.937364972005
 21
543.8362897557895
 31
0.0
  0
LINE
  5
34C
330
82
100
AcDbEntity
  8
1
  6
Continuous
 62
     7
100
AcDbLine
 10
776.637364972004
 20
541.4362897557901
 30
0.0
 11
776.637364972004
 21
543.8362897557895
 31
0.0
  0
LINE
  5
34D
330
82
100
AcDbEntity
  8
0
  6
Continuous
 62
     7
100
AcDbLine
 10
302.7873649720042
 20
647.7565716072878
 30
0.0
 11
302.7873649720042
 21
634.1453574799409
 31
0.0
  0
LINE
  5
34E
330
82
100
AcDbEntity
  8
0
  6
Continuous
 62
     7
100
AcDbLine
 10
318.7873649720042
 20
655.7565716072878
 30
0.0
 11
310.7873649720042
 21
655.7565716072878
 31
0.0
  0
LINE
  5
34F
330
82
100
AcDbEntity
  8
0
  6
Continuous
 62
     7
100
AcDbLine
 10
326.7873649720041
 20
655.7565716072878
 30
0.0
 11
318.7873649720042
 21
655.7565716072878
 31
0.0
  0
LINE
  5
350
330
82
100
AcDbEntity
  8
0
  6
Continuous
 62
     7
100
AcDbLine
 10
334.7873649720042
 20
634.1453574799409
 30
0.0
 11
334.7873649720041
 21
647.7565716072878
 31
0.0
  0
LINE
  5
351
330
82
100
AcDbEntity
  8
1
  6
Continuous
 62
     7
100
AcDbLine
 10
303.7873649720041
 20
542.4362897557901
 30
0.0
 11
295.2873649720042
 21
542.4362897557901
 31
0.0
  0
LINE
  5
352
330
82
100
AcDbEntity
  8
1
  6
Continuous
 62
     7
100
AcDbLine
 10
303.7873649720041
 20
527.8362897557906
 30
0.0
 11
303.7873649720041
 21
633.5808657808444
 31
0.0
  0
LINE
  5
353
330
82
100
AcDbEntity
  8
1
  6
Continuous
 62
     7
100
AcDbLine
 10
333.7873649720042
 20
527.8362897557906
 30
0.0
 11
333.7873649720042
 21
633.5808657808444
 31
0.0
  0
LINE
  5
354
330
82
100
AcDbEntity
  8
1
  6
Continuous
 62
     7
100
AcDbLine
 10
333.7873649720042
 20
1151.339790381083
 30
0.0
 11
333.7873649720042
 21
981.8186115728298
 31
0.0
  0
LINE
  5
355
330
82
100
AcDbEntity
  8
1
  6
Continuous
 62
     7
100
AcDbLine
 10
303.7873649720036
 20
981.8186115728298
 30
0.0
 11
303.7873649720042
 21
1151.76449350925
 31
0.0
  0
LINE
  5
356
330
82
100
AcDbEntity
  8
1
  6
Continuous
 62
     7
100
AcDbLine
 10
774.7873649720042
 20
540.9362897557901
 30
0.0
 11
774.7873649720042
 21
499.3362897557903
 31
0.0
  0
LINE
  5
357
330
82
100
AcDbEntity
  8
1
  6
Continuous
 62
     7
100
AcDbLine
 10
342.7873649720042
 20
499.3362897557903
 30
0.0
 11
342.7873649720042
 21
541.9362897557901
 31
0.0
  0
LINE
  5
358
330
82
100
AcDbEntity
  8
1
  6
Continuous
 62
     7
100
AcDbLine
 10
342.0373649720042
 20
498.8362897557903
 30
0.0
 11
342.2873649720042
 21
498.8362897557903
 31
0.0
  0
LINE
  5
359
330
82
100
AcDbEntity
  8
1
  6
Continuous
 62
     7
100
AcDbLine
 10
295.2873649720042
 20
498.8362897557903
 30
0.0
 11
295.5373649720042
 21
498.8362897557903
 31
0.0
  0
LINE
  5
35A
330
82
100
AcDbEntity
  8
1
  6
Continuous
 62
     7
100
AcDbLine
 10
295.5373649720042
 20
498.8362897557903
 30
0.0
 11
340.7873649720038
 21
498.8362897557903
 31
0.0
  0
LINE
  5
35B
330
82
100
AcDbEntity
  8
1
  6
Continuous
 62
     7
100
AcDbLine
 10
342.2873649720042
 20
542.4362897557901
 30
0.0
 11
333.7873649720042
 21
542.4362897557901
 31
0.0
  0
LINE
  5
35C
330
82
100
AcDbEntity
  8
1
  6
Continuous
 62
     7
100
AcDbLine
 10
294.7873649720042
 20
499.3362897557903
 30
0.0
 11
294.7873649720042
 21
541.9362897557901
 31
0.0
  0
LINE
  5
35D
330
82
100
AcDbEntity
  8
1
  6
Continuous
 62
     7
100
AcDbLine
 10
822.2873649720042
 20
541.4362897557901
 30
0.0
 11
775.2873649720042
 21
541.4362897557901
 31
0.0
  0
LINE
  5
35E
330
82
100
AcDbEntity
  8
1
  6
Continuous
 62
     7
100
AcDbLine
 10
822.7873649720042
 20
540.9362897557901
 30
0.0
 11
822.7873649720042
 21
499.3362897557903
 31
0.0
  0
LINE
  5
35F
330
82
100
AcDbEntity
  8
1
  6
Continuous
 62
     7
100
AcDbLine
 10
822.2873649720042
 20
498.8362897557903
 30
0.0
 11
820.7873649720042
 21
498.8362897557903
 31
0.0
  0
LINE
  5
360
330
82
100
AcDbEntity
  8
1
  6
Continuous
 62
     7
100
AcDbLine
 10
820.7873649720042
 20
498.8362897557903
 30
0.0
 11
775.2873649720042
 21
498.8362897557903
 31
0.0
  0
LINE
  5
361
330
82
100
AcDbEntity
  8
1
  6
Continuous
 62
     7
100
AcDbLine
 10
340.7873649720038
 20
498.8362897557903
 30
0.0
 11
342.0373649720042
 21
498.8362897557903
 31
0.0
  0
LINE
  5
362
330
82
100
AcDbEntity
  8
0
  6
Continuous
 62
     7
100
AcDbLine
 10
313.7873649720036
 20
971.8186115728298
 30
0.0
 11
323.7873649720042
 21
971.8186115728298
 31
0.0
  0
ARC
  5
363
330
82
100
AcDbEntity
  8
1
  6
Continuous
 62
     7
100
AcDbCircle
 10
560.9933834680401
 20
492.1897929120534
 30
0.0
 40
140.9999999999999
100
AcDbArc
 50
54.65849966865282
 51
62.85545892935483
  0
ARC
  5
364
330
82
100
AcDbEntity
  8
1
  6
Continuous
 62
     7
100
AcDbCircle
 10
560.9933834680401
 20
492.1897929120534
 30
0.0
 40
141.0
100
AcDbArc
 50
62.85545892935483
 51
83.99999999999743
  0
ARC
  5
365
330
82
100
AcDbEntity
  8
1
  6
Continuous
 62
     7
100
AcDbCircle
 10
560.9933834680401
 20
492.1897929120534
 30
0.0
 40
159.9999999999982
100
AcDbArc
 50
83.40116245971379
 51
83.99999999999614
  0
ARC
  5
366
330
82
100
AcDbEntity
  8
1
  6
Continuous
 62
     7
100
AcDbCircle
 10
560.9933834680401
 20
492.1897929120534
 30
0.0
 40
140.9999999999999
100
AcDbArc
 50
54.65849966865282
 51
56.26255193514287
  0
ARC
  5
367
330
82
100
AcDbEntity
  8
1
  6
Continuous
 62
     7
100
AcDbCircle
 10
560.9933834680401
 20
492.1897929120534
 30
0.0
 40
159.9999999999983
100
AcDbArc
 50
54.65849966865265
 51
83.99999999999614
  0
ARC
  5
368
330
82
100
AcDbEntity
  8
1
  6
Continuous
 62
     7
100
AcDbCircle
 10
318.7873649720041
 20
527.8362897557906
 30
0.0
 40
15.0
100
AcDbArc
 50
180.0
 51
0.0
  0
SPLINE
  5
369
330
82
100
AcDbEntity
  8
0
  6
Continuous
 62
     7
100
AcDbSpline
210
0.0
220
0.0
230
1.0
 70
     8
 71
     3
 72
     9
 73
     5
 74
     3
 42
0.0000000001
 43
0.0000000001
 44
0.00000001
 40
0.0
 40
0.0
 40
0.0
 40
0.0
 40
0.0771680644963304
 40
0.1729208165959259
 40
0.1729208165959259
 40
0.1729208165959259
 40
0.1729208165959259
 10
334.7873649720042
 20
634.1453574799165
 30
0.0
 10
334.7827975044868
 20
634.1712731709079
 30
0.0
 10
334.7725625683374
 20
634.2293459303853
 30
0.0
 10
334.7304908521376
 20
634.2712134545302
 30
0.0
 10
334.7071941624099
 20
634.2943970754463
 30
0.0
 11
334.7873649720042
 21
634.1453574799165
 31
0.0
 11
334.7673222696122
 21
634.2198772776815
 31
0.0
 11
334.7071941624099
 21
634.2943970754463
 31
0.0
  0
SPLINE
  5
36A
330
82
100
AcDbEntity
  8
0
  6
Continuous
 62
     7
100
AcDbSpline
210
0.0
220
0.0
230
1.0
 70
     8
 71
     3
 72
    17
 73
    13
 74
    11
 42
0.0000000001
 43
0.0000000001
 44
0.00000001
 40
0.0
 40
0.0
 40
0.0
 40
0.0
 40
0.2814393100730184
 40
0.5628809367578157
 40
1.268807236054603
 40
1.976290555282797
 40
2.470198747252807
 40
2.959085039578492
 40
3.247666348000576
 40
3.564285779321496
 40
3.660038531393788
 40
3.737206595869845
 40
3.737206595869845
 40
3.737206595869845
 40
3.737206595869845
 10
331.2873649720157
 20
633.1314483895727
 30
0.0
 10
331.3804155538744
 20
633.1433847484734
 30
0.0
 10
331.5665174835193
 20
633.1672575645264
 30
0.0
 10
331.9857078647971
 20
633.2234720194674
 30
0.0
 10
332.5438850193201
 20
633.3112331428516
 30
0.0
 10
333.1684321815391
 20
633.4315346471332
 30
0.0
 10
333.7161720421465
 20
633.5638834183203
 30
0.0
 10
334.1291874045398
 20
633.6585840067473
 30
0.0
 10
334.4702416637636
 20
633.7983796643339
 30
0.0
 10
334.6544074855737
 20
633.9409481856404
 30
0.0
 10
334.7724694171847
 20
634.0615546415986
 30
0.0
 10
334.7827687615288
 20
634.1194990618847
 30
0.0
 10
334.7873649720042
 20
634.1453574799165
 30
0.0
 11
331.2873649720157
 21
633.1314483895727
 31
0.0
 11
331.5664825912382
 21
633.1675238645374
 31
0.0
 11
331.8453822084426
 21
633.2052649926905
 31
0.0
 11
332.54270619238
 21
633.3151340122749
 31
0.0
 11
333.2369525712307
 21
633.4513493287368
 31
0.0
 11
333.717998938077
 21
633.5633301085121
 31
0.0
 11
334.1902208202121
 21
633.6898856333095
 31
0.0
 11
334.4547603299652
 21
633.8052026717306
 31
0.0
 11
334.7071941624099
 21
633.9963178844356
 31
0.0
 11
334.7673222695989
 21
634.070837682176
 31
0.0
 11
334.7873649720042
 21
634.1453574799165
 31
0.0
  0
SPLINE
  5
36B
330
82
100
AcDbEntity
  8
0
  6
Continuous
 62
     7
100
AcDbSpline
210
0.0
220
0.0
230
1.0
 70
     8
 71
     3
 72
    13
 73
     9
 74
     7
 42
0.0000000001
 43
0.0000000001
 44
0.00000001
 40
0.0
 40
0.0
 40
0.0
 40
0.0
 40
0.281873465429099
 40
0.5654702615154169
 40
1.272953580743611
 40
1.978879880040342
 40
2.260321506734095
 40
2.541760816816151
 40
2.541760816816151
 40
2.541760816816151
 40
2.541760816816151
 10
303.7873649720041
 20
633.5808657808444
 30
0.0
 10
303.8785291420287
 20
633.558110412111
 30
0.0
 10
304.0614148456764
 20
633.5124605518486
 30
0.0
 10
304.475523667819
 20
633.4198100831444
 30
0.0
 10
305.0307121792178
 20
633.3106649063866
 30
0.0
 10
305.589034803061
 20
633.2235264857607
 30
0.0
 10
306.0082105071351
 20
633.1672492028691
 30
0.0
 10
306.1943137390295
 20
633.1433819612604
 30
0.0
 10
306.2873649720103
 20
633.1314483895704
 30
0.0
 11
303.7873649720041
 21
633.5808657808444
 31
0.0
 11
304.0611231886226
 21
633.5137160277036
 31
0.0
 11
304.3377773727775
 21
633.4513493287368
 31
0.0
 11
305.0320237516282
 21
633.3151340122749
 31
0.0
 11
305.7293477355656
 21
633.2052649926905
 31
0.0
 11
306.0082473527788
 21
633.1675238645362
 31
0.0
 11
306.2873649720103
 21
633.1314483895704
 31
0.0
  0
SPLINE
  5
36C
330
82
100
AcDbEntity
  8
0
  6
Continuous
 62
     7
100
AcDbSpline
210
0.0
220
0.0
230
1.0
 70
     8
 71
     3
 72
    47
 73
    43
 74
    41
 42
0.0000000001
 43
0.0000000001
 44
0.00000001
 40
0.0
 40
0.0
 40
0.0
 40
0.0
 40
0.3166194313208292
 40
0.6052007397428747
 40
1.09408703206867
 40
1.587995224038705
 40
2.295478543266822
 40
3.001404842563627
 40
3.900852164910529
 40
4.800500683153445
 40
5.868767439418773
 40
6.93694867355116
 40
8.142187355973006
 40
9.347419664150607
 40
10.65380751426086
 40
11.96018568916755
 40
13.32855944209608
 40
14.69693006292973
 40
16.08618488927327
 40
17.47543971561685
 40
18.84381033645057
 40
20.21218408937911
 40
21.51856226428586
 40
22.82495011439605
 40
24.0301824225737
 40
25.2354211049956
 40
26.303602339128
 40
27.37186909539337
 40
28.27151761363623
 40
29.17096493598302
 40
29.87689123527978
 40
30.58437455450798
 40
31.07828274647796
 40
31.56716903880376
 40
31.85575034722585
 40
32.17236977854665
 40
32.34160381690611
 40
32.51083785526534
 40
32.82745728658617
 40
33.11603859500826
 40
33.32428750402218
 40
33.53339586014312
 40
33.53339586014312
 40
33.53339586014312
 40
33.53339586014312
 10
334.7071941624099
 20
634.2943970754463
 30
0.0
 10
334.6262347965961
 20
634.3632345896608
 30
0.0
 10
334.4714853932658
 20
634.4948137361167
 30
0.0
 10
334.1286119895621
 20
634.6309834801238
 30
0.0
 10
333.7163593929356
 20
634.7272110284019
 30
0.0
 10
333.1683524115192
 20
634.858994236988
 30
0.0
 10
332.543936086334
 20
634.9797341545046
 30
0.0
 10
331.7820512516522
 20
635.0983775006063
 30
0.0
 10
330.9534966831586
 20
635.2026652303292
 30
0.0
 10
330.0033370892992
 20
635.3065086175312
 30
0.0
 10
328.9954478497656
 20
635.3985882970979
 30
0.0
 10
327.8848117139614
 20
635.4841168728865
 30
0.0
 10
326.7275615180735
 20
635.5576404651365
 30
0.0
 10
325.4902817054991
 20
635.6224316794196
 30
0.0
 10
324.2186846867922
 20
635.6751716274849
 30
0.0
 10
322.8922879960531
 20
635.717308775504
 30
0.0
 10
321.5448926022388
 20
635.7472181629489
 30
0.0
 10
320.169663466237
 20
635.7655183701477
 30
0.0
 10
318.7873649720157
 20
635.7714939886587
 30
0.0
 10
317.4050664777257
 20
635.7655183702927
 30
0.0
 10
316.0298373419271
 20
635.7472181623793
 30
0.0
 10
314.6824419473809
 20
635.7173087775996
 30
0.0
 10
313.3560452592508
 20
635.6751716200547
 30
0.0
 10
312.0844482311525
 20
635.6224317062834
 30
0.0
 10
310.8471684510371
 20
635.557640373471
 30
0.0
 10
309.6899181406222
 20
635.4841171994359
 30
0.0
 10
308.5792823860873
 20
635.3985872313753
 30
0.0
 10
307.5713918339218
 20
635.3065123451141
 30
0.0
 10
306.6212364082102
 20
635.2026537371896
 30
0.0
 10
305.7926679541711
 20
635.0984167129716
 30
0.0
 10
305.0308245062074
 20
634.9796222360122
 30
0.0
 10
304.4062766626013
 20
634.8593625810697
 30
0.0
 10
303.8586221108897
 20
634.726292413621
 30
0.0
 10
303.4453407349084
 20
634.6338216335454
 30
0.0
 10
303.1049249191648
 20
634.4886775761822
 30
0.0
 10
302.8995395323302
 20
634.3471917070491
 30
0.0
 10
302.7482963775245
 20
634.1453819819053
 30
0.0
 10
302.8995142222717
 20
633.943382567608
 30
0.0
 10
303.1051273897719
 20
633.8029600348839
 30
0.0
 10
303.3574297444139
 20
633.6914428326788
 30
0.0
 10
303.5854964650128
 20
633.6344873726148
 30
0.0
 10
303.7199831553213
 20
633.598764165891
 30
0.0
 10
303.7873649720041
 20
633.5808657808444
 30
0.0
 11
334.7071941624099
 21
634.2943970754463
 31
0.0
 11
334.4547603299653
 21
634.4855122881513
 31
0.0
 11
334.1902208202122
 21
634.6008293265722
 31
0.0
 11
333.717998938077
 21
634.7273848513696
 31
0.0
 11
333.2369525712307
 21
634.839365631145
 31
0.0
 11
332.5427061923801
 21
634.9755809476068
 31
0.0
 11
331.8453822084426
 21
635.0854499671914
 31
0.0
 11
330.9532874940605
 21
635.2002215065578
 31
0.0
 11
330.0589661832795
 21
635.2979806465886
 31
0.0
 11
328.9952115789576
 21
635.3960622673216
 31
0.0
 11
327.9302062276151
 21
635.4783711402608
 31
0.0
 11
326.7274321329906
 21
635.5554085266784
 31
0.0
 11
325.5238562885463
 21
635.6185757915023
 31
0.0
 11
324.2186051915794
 21
635.6730623841867
 31
0.0
 11
322.912888166115
 21
635.7146193966491
 31
0.0
 11
321.5448559744405
 21
635.7451914467297
 31
0.0
 11
320.1766064083337
 21
635.7633925678254
 31
0.0
 11
318.7873649720042
 21
635.7694920845264
 31
0.0
 11
317.3981235356746
 21
635.7633925678256
 31
0.0
 11
316.0298739695678
 21
635.7451914467297
 31
0.0
 11
314.6618417778933
 21
635.714619396649
 31
0.0
 11
313.3561247524288
 21
635.6730623841864
 31
0.0
 11
312.0508736554619
 21
635.6185757915022
 31
0.0
 11
310.8472978110176
 21
635.5554085266783
 31
0.0
 11
309.644523716393
 21
635.4783711402608
 31
0.0
 11
308.5795183650506
 21
635.3960622673214
 31
0.0
 11
307.5157637607286
 21
635.2979806465886
 31
0.0
 11
306.6214424499476
 21
635.2002215065578
 31
0.0
 11
305.7293477355656
 21
635.0854499671914
 31
0.0
 11
305.0320237516282
 21
634.9755809476067
 31
0.0
 11
304.3377773727775
 21
634.8393656311448
 31
0.0
 11
303.8567310059312
 21
634.7273848513696
 31
0.0
 11
303.384509123796
 21
634.6008293265722
 31
0.0
 11
303.1199696140429
 21
634.4855122881512
 31
0.0
 11
302.8675357815983
 21
634.2943970754463
 31
0.0
 11
302.7873649720041
 21
634.1453574799408
 31
0.0
 11
302.8675357815982
 21
633.9963178844355
 31
0.0
 11
303.1199696140428
 21
633.8052026717305
 31
0.0
 11
303.384509123796
 21
633.6898856333096
 31
0.0
 11
303.5851320587882
 21
633.6340461664372
 31
0.0
 11
303.7873649720041
 21
633.5808657808444
 31
0.0
  0
ARC
  5
36D
330
82
100
AcDbEntity
  8
1
  6
Continuous
 62
     7
100
AcDbCircle
 10
560.0180336125441
 20
633.5662195914072
 30
0.0
 40
0.4999999999999214
100
AcDbArc
 50
83.99999999996454
 51
173.9999999999905
  0
ARC
  5
36E
330
82
100
AcDbEntity
  8
1
  6
Continuous
 62
     7
100
AcDbCircle
 10
536.8543245036001
 20
647.5641687381993
 30
0.0
 40
8.000000000000011
100
AcDbArc
 50
83.99999999999498
 51
173.9999999999957
  0
ARC
  5
36F
330
82
100
AcDbEntity
  8
0
  6
Continuous
 62
     7
100
AcDbCircle
 10
310.7873649720042
 20
647.7565716072878
 30
0.0
 40
8.0
100
AcDbArc
 50
90.0
 51
180.0
  0
ARC
  5
370
330
82
100
AcDbEntity
  8
0
  6
Continuous
 62
     7
100
AcDbCircle
 10
326.7873649720041
 20
647.7565716072878
 30
0.0
 40
8.0
100
AcDbArc
 50
0.0
 51
90.0
  0
ARC
  5
371
330
82
100
AcDbEntity
  8
1
  6
Continuous
 62
     7
100
AcDbCircle
 10
342.2873649720042
 20
499.3362897557903
 30
0.0
 40
0.5
100
AcDbArc
 50
-90.0
 51
0.0
  0
ARC
  5
372
330
82
100
AcDbEntity
  8
1
  6
Continuous
 62
     7
100
AcDbCircle
 10
295.2873649720042
 20
499.3362897557903
 30
0.0
 40
0.5
100
AcDbArc
 50
180.0
 51
-90.0
  0
ARC
  5
373
330
82
100
AcDbEntity
  8
1
  6
Continuous
 62
     7
100
AcDbCircle
 10
342.2873649720042
 20
541.9362897557901
 30
0.0
 40
0.5
100
AcDbArc
 50
0.0
 51
90.0
  0
ARC
  5
374
330
82
100
AcDbEntity
  8
1
  6
Continuous
 62
     7
100
AcDbCircle
 10
295.2873649720042
 20
541.9362897557901
 30
0.0
 40
0.5
100
AcDbArc
 50
90.0
 51
180.0
  0
ARC
  5
375
330
82
100
AcDbEntity
  8
1
  6
Continuous
 62
     7
100
AcDbCircle
 10
822.2873649720042
 20
499.3362897557903
 30
0.0
 40
0.5
100
AcDbArc
 50
-90.0
 51
0.0
  0
ARC
  5
376
330
82
100
AcDbEntity
  8
1
  6
Continuous
 62
     7
100
AcDbCircle
 10
775.2873649720042
 20
499.3362897557903
 30
0.0
 40
0.5
100
AcDbArc
 50
180.0
 51
-90.0
  0
ARC
  5
377
330
82
100
AcDbEntity
  8
1
  6
Continuous
 62
     7
100
AcDbCircle
 10
775.2873649720042
 20
540.9362897557901
 30
0.0
 40
0.5
100
AcDbArc
 50
90.0
 51
180.0
  0
ARC
  5
378
330
82
100
AcDbEntity
  8
1
  6
Continuous
 62
     7
100
AcDbCircle
 10
822.2873649720042
 20
540.9362897557901
 30
0.0
 40
0.5
100
AcDbArc
 50
0.0
 51
90.0
  0
ARC
  5
379
330
82
100
AcDbEntity
  8
0
  6
Continuous
 62
     7
100
AcDbCircle
 10
313.7873649720036
 20
981.8186115728298
 30
0.0
 40
10.0
100
AcDbArc
 50
180.0
 51
-90.0
  0
ARC
  5
37A
330
82
100
AcDbEntity
  8
0
  6
Continuous
 62
     7
100
AcDbCircle
 10
323.7873649720042
 20
981.8186115728298
 30
0.0
 40
10.0
100
AcDbArc
 50
-90.0
 51
0.0
  0
ENDBLK
  5
84
330
82
100
AcDbEntity
  8
0
100
AcDbBlockEnd
  0
BLOCK
  5
3C4
330
3BB
100
AcDbEntity
  8
0
100
AcDbBlockBegin
  2
*D026
 70
     1
 71
     0
 10
0.0
 20
0.0
 30
0.0
  3
*D026
  1

  0
LINE
  5
3BC
330
3BB
100
AcDbEntity
  8
1
  6
Continuous
 62
     2
100
AcDbLine
 10
830.6549444507306
 20
736.7009687285433
 30
0.0
 11
865.6549444507306
 21
736.7009687285433
 31
0.0
  0
LINE
  5
3BD
330
3BB
100
AcDbEntity
  8
1
  6
Continuous
 62
     2
100
AcDbLine
 10
798.7873649720003
 20
736.7009687285433
 30
0.0
 11
830.6549444507306
 21
736.7009687285433
 31
0.0
  0
LINE
  5
3BE
330
3BB
100
AcDbEntity
  8
1
  6
Continuous
 62
     2
100
AcDbLine
 10
763.7873649720003
 20
736.7009687285433
 30
0.0
 11
798.7873649720003
 21
736.7009687285433
 31
0.0
  0
LINE
  5
3BF
330
3BB
100
AcDbEntity
  8
1
  6
Continuous
 62
     2
100
AcDbLine
 10
798.7873649720003
 20
631.1820513358405
 30
0.0
 11
798.7873649720003
 21
741.7009687285433
 31
0.0
  0
LINE
  5
3C0
330
3BB
100
AcDbEntity
  8
1
  6
Continuous
 62
     2
100
AcDbLine
 10
830.6549444507306
 20
598.5056782286447
 30
0.0
 11
830.6549444507306
 21
741.7009687285433
 31
0.0
  0
SOLID
  5
3C1
330
3BB
100
AcDbEntity
  8
1
 62
     2
100
AcDbTrace
 10
781.2873649720003
 20
734.3970500207639
 30
0.0
 11
781.2873649720003
 21
739.0048874363228
 31
0.0
 12
798.7873649720003
 22
736.7009687285433
 32
0.0
 13
798.7873649720003
 23
736.7009687285433
 33
0.0
  0
SOLID
  5
3C2
330
3BB
100
AcDbEntity
  8
1
 62
     2
100
AcDbTrace
 10
848.1549444507306
 20
739.0048874363228
 30
0.0
 11
848.1549444507306
 21
734.3970500207639
 31
0.0
 12
830.6549444507306
 22
736.7009687285433
 32
0.0
 13
830.6549444507306
 23
736.7009687285433
 33
0.0
  0
MTEXT
  5
3C3
330
3BB
100
AcDbEntity
  8
1
 62
     7
100
AcDbMText
 10
801.5812355439937
 20
741.7009687285433
 30
0.0
 40
17.5
 41
0.0
 71
     7
 72
     1
  1
32
  7
CONVERTER_2
 11
0.9999999999970621
 21
2.424068405545307E-6
 31
0.0
 73
     1
 44
0.60024009603842
  0
ENDBLK
  5
3C5
330
3BB
100
AcDbEntity
  8
0
100
AcDbBlockEnd
  0
BLOCK
  5
3CF
330
3C8
100
AcDbEntity
  8
0
100
AcDbBlockBegin
  2
*D127
 70
     1
 71
     0
 10
0.0
 20
0.0
 30
0.0
  3
*D127
  1

  0
LINE
  5
3C9
330
3C8
100
AcDbEntity
  8
1
  6
Continuous
 62
     2
100
AcDbLine
 10
318.7873649720041
 20
921.8186115728298
 30
0.0
 11
394.7790603668584
 21
921.8186115728298
 31
0.0
  0
LINE
  5
3CA
330
3C8
100
AcDbEntity
  8
1
  6
Continuous
 62
     2
100
AcDbLine
 10
318.7873649720041
 20
954.6832504524392
 30
0.0
 11
318.7873649720041
 21
916.8186115728298
 31
0.0
  0
LINE
  5
3CB
330
3C8
100
AcDbEntity
  8
1
  6
Continuous
 62
     2
100
AcDbLine
 10
394.7790603668584
 20
1185.32037212871
 30
0.0
 11
394.7790603668584
 21
916.8186115728298
 31
0.0
  0
SOLID
  5
3CC
330
3C8
100
AcDbEntity
  8
1
 62
     2
100
AcDbTrace
 10
336.2873649720041
 20
924.1225302806092
 30
0.0
 11
336.2873649720041
 21
919.5146928650504
 31
0.0
 12
318.7873649720041
 22
921.8186115728298
 32
0.0
 13
318.7873649720041
 23
921.8186115728298
 33
0.0
  0
SOLID
  5
3CD
330
3C8
100
AcDbEntity
  8
1
 62
     2
100
AcDbTrace
 10
377.2790603668584
 20
919.5146928650504
 30
0.0
 11
377.2790603668584
 21
924.1225302806092
 31
0.0
 12
394.7790603668584
 22
921.8186115728298
 32
0.0
 13
394.7790603668584
 23
921.8186115728298
 33
0.0
  0
MTEXT
  5
3CE
330
3C8
100
AcDbEntity
  8
1
 62
     7
100
AcDbMText
 10
343.6582126694313
 20
926.8186115728298
 30
0.0
 40
17.5
 41
0.0
 71
     7
 72
     1
  1
76
  7
CONVERTER_2
 11
0.9999999999970621
 21
2.424068405545307E-6
 31
0.0
 73
     1
 44
0.60024009603842
  0
ENDBLK
  5
3D0
330
3C8
100
AcDbEntity
  8
0
100
AcDbBlockEnd
  0
BLOCK
  5
3DA
330
3D3
100
AcDbEntity
  8
0
100
AcDbBlockBegin
  2
*D228
 70
     1
 71
     0
 10
0.0
 20
0.0
 30
0.0
  3
*D228
  1

  0
LINE
  5
3D4
330
3D3
100
AcDbEntity
  8
1
  6
Continuous
 62
     2
100
AcDbLine
 10
242.8135482522646
 20
921.8186115728298
 30
0.0
 11
318.7873649720041
 21
921.8186115728298
 31
0.0
  0
LINE
  5
3D5
330
3D3
100
AcDbEntity
  8
1
  6
Continuous
 62
     2
100
AcDbLine
 10
242.8135482522646
 20
1185.32037212871
 30
0.0
 11
242.8135482522646
 21
916.8186115728298
 31
0.0
  0
LINE
  5
3D6
330
3D3
100
AcDbEntity
  8
1
  6
Continuous
 62
     2
100
AcDbLine
 10
318.7873649720041
 20
954.6832504524392
 30
0.0
 11
318.7873649720041
 21
916.8186115728298
 31
0.0
  0
SOLID
  5
3D7
330
3D3
100
AcDbEntity
  8
1
 62
     2
100
AcDbTrace
 10
260.3135482522646
 20
924.1225302806092
 30
0.0
 11
260.3135482522646
 21
919.5146928650504
 31
0.0
 12
242.8135482522646
 22
921.8186115728298
 32
0.0
 13
242.8135482522646
 23
921.8186115728298
 33
0.0
  0
SOLID
  5
3D8
330
3D3
100
AcDbEntity
  8
1
 62
     2
100
AcDbTrace
 10
301.2873649720041
 20
919.5146928650504
 30
0.0
 11
301.2873649720041
 21
924.1225302806092
 31
0.0
 12
318.7873649720041
 22
921.8186115728298
 32
0.0
 13
318.7873649720041
 23
921.8186115728298
 33
0.0
  0
MTEXT
  5
3D9
330
3D3
100
AcDbEntity
  8
1
 62
     7
100
AcDbMText
 10
267.6754566121343
 20
926.8186115728298
 30
0.0
 40
17.5
 41
0.0
 71
     7
 72
     1
  1
76
  7
CONVERTER_2
 11
0.9999999999970621
 21
2.424068405545307E-6
 31
0.0
 73
     1
 44
0.60024009603842
  0
ENDBLK
  5
3DB
330
3D3
100
AcDbEntity
  8
0
100
AcDbBlockEnd
  0
BLOCK
  5
3E5
330
3DE
100
AcDbEntity
  8
0
100
AcDbBlockBegin
  2
*D329
 70
     1
 71
     0
 10
0.0
 20
0.0
 30
0.0
  3
*D329
  1

  0
LINE
  5
3DF
330
3DE
100
AcDbEntity
  8
1
  6
Continuous
 62
     2
100
AcDbLine
 10
588.734574340779
 20
475.6362897557893
 30
0.0
 11
588.734574340779
 21
621.3676327001633
 31
0.0
  0
LINE
  5
3E0
330
3DE
100
AcDbEntity
  8
1
  6
Continuous
 62
     2
100
AcDbLine
 10
542.1450238532223
 20
621.3676327001633
 30
0.0
 11
593.734574340779
 21
621.3676327001633
 31
0.0
  0
LINE
  5
3E1
330
3DE
100
AcDbEntity
  8
1
  6
Continuous
 62
     2
100
AcDbLine
 10
773.7449763759456
 20
475.6362897557893
 30
0.0
 11
583.734574340779
 21
475.6362897557893
 31
0.0
  0
SOLID
  5
3E2
330
3DE
100
AcDbEntity
  8
1
 62
     2
100
AcDbTrace
 10
586.4306556329996
 20
493.1362897557893
 30
0.0
 11
591.0384930485584
 21
493.1362897557893
 31
0.0
 12
588.734574340779
 22
475.6362897557893
 32
0.0
 13
588.734574340779
 23
475.6362897557893
 33
0.0
  0
SOLID
  5
3E3
330
3DE
100
AcDbEntity
  8
1
 62
     2
100
AcDbTrace
 10
591.0384930485584
 20
603.8676327001633
 30
0.0
 11
586.4306556329996
 21
603.8676327001633
 31
0.0
 12
588.734574340779
 22
621.3676327001633
 32
0.0
 13
588.734574340779
 23
621.3676327001633
 33
0.0
  0
MTEXT
  5
3E4
330
3DE
100
AcDbEntity
  8
1
 62
     7
100
AcDbMText
 10
583.734574340779
 20
534.862274375349
 30
0.0
 40
17.5
 41
0.0
 71
     7
 72
     1
  1
146
  7
CONVERTER_2
 11
0.0
 21
1.0
 31
0.0
 73
     1
 44
0.60024009603842
  0
ENDBLK
  5
3E6
330
3DE
100
AcDbEntity
  8
0
100
AcDbBlockEnd
  0
BLOCK
  5
3F0
330
3E9
100
AcDbEntity
  8
0
100
AcDbBlockBegin
  2
*D430
 70
     1
 71
     0
 10
0.0
 20
0.0
 30
0.0
  3
*D430
  1

  0
LINE
  5
3EA
330
3E9
100
AcDbEntity
  8
0
  6
Continuous
 62
     2
100
AcDbLine
 10
798.7873649720042
 20
736.7009687285433
 30
0.0
 11
542.1450238532223
 21
736.7009687285433
 31
0.0
  0
LINE
  5
3EB
330
3E9
100
AcDbEntity
  8
0
  6
Continuous
 62
     2
100
AcDbLine
 10
542.1450238532223
 20
621.3676327001633
 30
0.0
 11
542.1450238532223
 21
741.7009687285433
 31
0.0
  0
LINE
  5
3EC
330
3E9
100
AcDbEntity
  8
0
  6
Continuous
 62
     2
100
AcDbLine
 10
798.7873649720042
 20
613.8432066973157
 30
0.0
 11
798.7873649720042
 21
741.7009687285433
 31
0.0
  0
SOLID
  5
3ED
330
3E9
100
AcDbEntity
  8
0
 62
     2
100
AcDbTrace
 10
781.2873649720042
 20
734.3970500207639
 30
0.0
 11
781.2873649720042
 21
739.0048874363228
 31
0.0
 12
798.7873649720042
 22
736.7009687285433
 32
0.0
 13
798.7873649720042
 23
736.7009687285433
 33
0.0
  0
SOLID
  5
3EE
330
3E9
100
AcDbEntity
  8
0
 62
     2
100
AcDbTrace
 10
559.6450238532223
 20
739.0048874363228
 30
0.0
 11
559.6450238532223
 21
734.3970500207639
 31
0.0
 12
542.1450238532223
 22
736.7009687285433
 32
0.0
 13
542.1450238532223
 23
736.7009687285433
 33
0.0
  0
MTEXT
  5
3EF
330
3E9
100
AcDbEntity
  8
0
 62
     7
100
AcDbMText
 10
649.4661944126133
 20
741.7009687285433
 30
0.0
 40
17.5
 41
0.0
 71
     7
 72
     1
  1
257
  7
CONVERTER_2
 11
0.9999999999970621
 21
2.424068405545307E-6
 31
0.0
 73
     1
 44
0.60024009603842
  0
ENDBLK
  5
3F1
330
3E9
100
AcDbEntity
  8
0
100
AcDbBlockEnd
  0
BLOCK
  5
3FD
330
3F4
100
AcDbEntity
  8
0
100
AcDbBlockBegin
  2
*D531
 70
     1
 71
     0
 10
0.0
 20
0.0
 30
0.0
  3
*D531
  1

  0
LINE
  5
3F5
330
3F4
100
AcDbEntity
  8
0
  6
Continuous
 62
     2
100
AcDbLine
 10
817.044024289247
 20
438.2994379326756
 30
0.0
 11
992.7807696079499
 21
438.2994379326756
 31
0.0
  0
LINE
  5
3F6
330
3F4
100
AcDbEntity
  8
0
  6
Continuous
 62
     2
100
AcDbLine
 10
793.044024289247
 20
438.2994379326756
 30
0.0
 11
817.044024289247
 21
438.2994379326756
 31
0.0
  0
LINE
  5
3F7
330
3F4
100
AcDbEntity
  8
0
  6
Continuous
 62
     2
100
AcDbLine
 10
758.044024289247
 20
438.2994379326756
 30
0.0
 11
793.044024289247
 21
438.2994379326756
 31
0.0
  0
LINE
  5
3F8
330
3F4
100
AcDbEntity
  8
0
  6
Continuous
 62
     2
100
AcDbLine
 10
786.7873649720042
 20
449.1362897557893
 30
0.0
 11
795.544024289247
 21
433.9693109137534
 31
0.0
  0
LINE
  5
3F9
330
3F4
100
AcDbEntity
  8
0
  6
Continuous
 62
     2
100
AcDbLine
 10
810.7873649720042
 20
449.1362897557893
 30
0.0
 11
819.544024289247
 21
433.9693109137534
 31
0.0
  0
SOLID
  5
3FA
330
3F4
100
AcDbEntity
  8
0
 62
     2
100
AcDbTrace
 10
775.544024289247
 20
435.9955192248962
 30
0.0
 11
775.544024289247
 21
440.603356640455
 31
0.0
 12
793.044024289247
 22
438.2994379326756
 32
0.0
 13
793.044024289247
 23
438.2994379326756
 33
0.0
  0
SOLID
  5
3FB
330
3F4
100
AcDbEntity
  8
0
 62
     2
100
AcDbTrace
 10
834.544024289247
 20
440.603356640455
 30
0.0
 11
834.544024289247
 21
435.9955192248962
 31
0.0
 12
817.044024289247
 22
438.2994379326756
 32
0.0
 13
817.044024289247
 23
438.2994379326756
 33
0.0
  0
MTEXT
  5
3FC
330
3F4
100
AcDbEntity
  8
0
 62
     7
100
AcDbMText
 10
826.5307696079499
 20
443.2994379326756
 30
0.0
 40
17.5
 41
0.0
 71
     7
 72
     1
  1
ロックナット対辺24
  7
CONVERTER_1
 11
0.9999999999970621
 21
2.424068405545307E-6
 31
0.0
 73
     1
 44
0.60024009603842
  0
ENDBLK
  5
3FE
330
3F4
100
AcDbEntity
  8
0
100
AcDbBlockEnd
  0
BLOCK
  5
408
330
401
100
AcDbEntity
  8
0
100
AcDbBlockBegin
  2
*D632
 70
     1
 71
     0
 10
0.0
 20
0.0
 30
0.0
  3
*D632
  1

  0
LINE
  5
402
330
401
100
AcDbEntity
  8
0
  6
Continuous
 62
     2
100
AcDbLine
 10
823.8297535680612
 20
360.1362897557888
 30
0.0
 11
773.7449763759456
 21
360.1362897557888
 31
0.0
  0
LINE
  5
403
330
401
100
AcDbEntity
  8
0
  6
Continuous
 62
     2
100
AcDbLine
 10
773.7449763759456
 20
475.6362897557892
 30
0.0
 11
773.7449763759456
 21
355.1362897557888
 31
0.0
  0
LINE
  5
404
330
401
100
AcDbEntity
  8
0
  6
Continuous
 62
     2
100
AcDbLine
 10
823.8297535680612
 20
475.6362897557892
 30
0.0
 11
823.8297535680612
 21
355.1362897557888
 31
0.0
  0
SOLID
  5
405
330
401
100
AcDbEntity
  8
0
 62
     2
100
AcDbTrace
 10
806.3297535680612
 20
357.8323710480094
 30
0.0
 11
806.3297535680612
 21
362.4402084635682
 31
0.0
 12
823.8297535680612
 22
360.1362897557888
 32
0.0
 13
823.8297535680612
 23
360.1362897557888
 33
0.0
  0
SOLID
  5
406
330
401
100
AcDbEntity
  8
0
 62
     2
100
AcDbTrace
 10
791.2449763759456
 20
362.4402084635682
 30
0.0
 11
791.2449763759456
 21
357.8323710480094
 31
0.0
 12
773.7449763759456
 22
360.1362897557888
 32
0.0
 13
773.7449763759456
 23
360.1362897557888
 33
0.0
  0
MTEXT
  5
407
330
401
100
AcDbEntity
  8
0
 62
     7
100
AcDbMText
 10
785.6623649720042
 20
365.1362897557888
 30
0.0
 40
17.5
 41
0.0
 71
     7
 72
     1
  1
50
  7
CONVERTER_2
 11
0.9999999999970621
 21
2.424068405545307E-6
 31
0.0
 73
     1
 44
0.60024009603842
  0
ENDBLK
  5
409
330
401
100
AcDbEntity
  8
0
100
AcDbBlockEnd
  0
BLOCK
  5
413
330
40C
100
AcDbEntity
  8
0
100
AcDbBlockBegin
  2
*D733
 70
     1
 71
     0
 10
0.0
 20
0.0
 30
0.0
  3
*D733
  1

  0
LINE
  5
40D
330
40C
100
AcDbEntity
  8
0
  6
Continuous
 62
     2
100
AcDbLine
 10
420.2873649720039
 20
360.1362897557888
 30
0.0
 11
217.2873649720041
 21
360.1362897557888
 31
0.0
  0
LINE
  5
40E
330
40C
100
AcDbEntity
  8
0
  6
Continuous
 62
     2
100
AcDbLine
 10
217.2873649720041
 20
395.1362897557888
 30
0.0
 11
217.2873649720041
 21
355.1362897557888
 31
0.0
  0
LINE
  5
40F
330
40C
100
AcDbEntity
  8
0
  6
Continuous
 62
     2
100
AcDbLine
 10
420.2873649720039
 20
395.1362897557888
 30
0.0
 11
420.2873649720039
 21
355.1362897557888
 31
0.0
  0
SOLID
  5
410
330
40C
100
AcDbEntity
  8
0
 62
     2
100
AcDbTrace
 10
402.7873649720039
 20
357.8323710480094
 30
0.0
 11
402.7873649720039
 21
362.4402084635682
 31
0.0
 12
420.2873649720039
 22
360.1362897557888
 32
0.0
 13
420.2873649720039
 23
360.1362897557888
 33
0.0
  0
SOLID
  5
411
330
40C
100
AcDbEntity
  8
0
 62
     2
100
AcDbTrace
 10
234.7873649720041
 20
362.4402084635682
 30
0.0
 11
234.7873649720041
 21
357.8323710480094
 31
0.0
 12
217.2873649720041
 22
360.1362897557888
 32
0.0
 13
217.2873649720041
 23
360.1362897557888
 33
0.0
  0
MTEXT
  5
412
330
40C
100
AcDbEntity
  8
0
 62
     7
100
AcDbMText
 10
297.787364972004
 20
365.1362897557888
 30
0.0
 40
17.5
 41
0.0
 71
     7
 72
     1
  1
203
  7
CONVERTER_2
 11
0.9999999999970621
 21
2.424068405545307E-6
 31
0.0
 73
     1
 44
0.60024009603842
  0
ENDBLK
  5
414
330
40C
100
AcDbEntity
  8
0
100
AcDbBlockEnd
  0
BLOCK
  5
41E
330
417
100
AcDbEntity
  8
0
100
AcDbBlockBegin
  2
*D834
 70
     1
 71
     0
 10
0.0
 20
0.0
 30
0.0
  3
*D834
  1

  0
LINE
  5
418
330
417
100
AcDbEntity
  8
0
  6
Continuous
 62
     2
100
AcDbLine
 10
195.787364972004
 20
320.1362897557888
 30
0.0
 11
441.7873649720041
 21
320.1362897557888
 31
0.0
  0
LINE
  5
419
330
417
100
AcDbEntity
  8
0
  6
Continuous
 62
     2
100
AcDbLine
 10
441.7873649720041
 20
475.6362897557892
 30
0.0
 11
441.7873649720041
 21
315.1362897557888
 31
0.0
  0
LINE
  5
41A
330
417
100
AcDbEntity
  8
0
  6
Continuous
 62
     2
100
AcDbLine
 10
195.787364972004
 20
475.6362897557892
 30
0.0
 11
195.787364972004
 21
315.1362897557888
 31
0.0
  0
SOLID
  5
41B
330
417
100
AcDbEntity
  8
0
 62
     2
100
AcDbTrace
 10
213.287364972004
 20
322.4402084635682
 30
0.0
 11
213.287364972004
 21
317.8323710480094
 31
0.0
 12
195.787364972004
 22
320.1362897557888
 32
0.0
 13
195.787364972004
 23
320.1362897557888
 33
0.0
  0
SOLID
  5
41C
330
417
100
AcDbEntity
  8
0
 62
     2
100
AcDbTrace
 10
424.2873649720041
 20
317.8323710480094
 30
0.0
 11
424.2873649720041
 21
322.4402084635682
 31
0.0
 12
441.7873649720041
 22
320.1362897557888
 32
0.0
 13
441.7873649720041
 23
320.1362897557888
 33
0.0
  0
MTEXT
  5
41D
330
417
100
AcDbEntity
  8
0
 62
     7
100
AcDbMText
 10
297.7873649720041
 20
325.1362897557888
 30
0.0
 40
17.5
 41
0.0
 71
     7
 72
     1
  1
246
  7
CONVERTER_2
 11
0.9999999999970621
 21
2.424068405545307E-6
 31
0.0
 73
     1
 44
0.60024009603842
  0
ENDBLK
  5
41F
330
417
100
AcDbEntity
  8
0
100
AcDbBlockEnd
  0
BLOCK
  5
429
330
422
100
AcDbEntity
  8
0
100
AcDbBlockBegin
  2
*D935
 70
     1
 71
     0
 10
0.0
 20
0.0
 30
0.0
  3
*D935
  1

  0
LINE
  5
423
330
422
100
AcDbEntity
  8
0
  6
Continuous
 62
     2
100
AcDbLine
 10
155.988232479849
 20
475.6362897557892
 30
0.0
 11
155.988232479849
 21
417.6362897557893
 31
0.0
  0
LINE
  5
424
330
422
100
AcDbEntity
  8
0
  6
Continuous
 62
     2
100
AcDbLine
 10
214.0001852472311
 20
417.6362897557893
 30
0.0
 11
150.988232479849
 21
417.6362897557893
 31
0.0
  0
LINE
  5
425
330
422
100
AcDbEntity
  8
0
  6
Continuous
 62
     2
100
AcDbLine
 10
195.787364972004
 20
475.6362897557892
 30
0.0
 11
150.988232479849
 21
475.6362897557892
 31
0.0
  0
SOLID
  5
426
330
422
100
AcDbEntity
  8
0
 62
     2
100
AcDbTrace
 10
158.2921511876284
 20
458.1362897557892
 30
0.0
 11
153.6843137720696
 21
458.1362897557892
 31
0.0
 12
155.988232479849
 22
475.6362897557892
 32
0.0
 13
155.988232479849
 23
475.6362897557892
 33
0.0
  0
SOLID
  5
427
330
422
100
AcDbEntity
  8
0
 62
     2
100
AcDbTrace
 10
153.6843137720696
 20
435.1362897557893
 30
0.0
 11
158.2921511876284
 21
435.1362897557893
 31
0.0
 12
155.988232479849
 22
417.6362897557893
 32
0.0
 13
155.988232479849
 23
417.6362897557893
 33
0.0
  0
MTEXT
  5
428
330
422
100
AcDbEntity
  8
0
 62
     7
100
AcDbMText
 10
150.988232479849
 20
434.5707351365246
 30
0.0
 40
17.5
 41
0.0
 71
     7
 72
     1
  1
58
  7
CONVERTER_2
 11
0.0
 21
1.0
 31
0.0
 73
     1
 44
0.60024009603842
  0
ENDBLK
  5
42A
330
422
100
AcDbEntity
  8
0
100
AcDbBlockEnd
  0
BLOCK
  5
436
330
42D
100
AcDbEntity
  8
0
100
AcDbBlockBegin
  2
*D1036
 70
     1
 71
     0
 10
0.0
 20
0.0
 30
0.0
  3
*D1036
  1

  0
LINE
  5
42E
330
42D
100
AcDbEntity
  8
1
  6
Continuous
 62
     2
100
AcDbLine
 10
491.7873649720042
 20
459.6362897557896
 30
0.0
 11
491.7873649720042
 21
321.4151909806878
 31
0.0
  0
LINE
  5
42F
330
42D
100
AcDbEntity
  8
1
  6
Continuous
 62
     2
100
AcDbLine
 10
491.7873649720042
 20
474.6362897557896
 30
0.0
 11
491.7873649720042
 21
459.6362897557896
 31
0.0
  0
LINE
  5
430
330
42D
100
AcDbEntity
  8
1
  6
Continuous
 62
     2
100
AcDbLine
 10
491.7873649720042
 20
509.6362897557896
 30
0.0
 11
491.7873649720042
 21
474.6362897557896
 31
0.0
  0
LINE
  5
431
330
42D
100
AcDbEntity
  8
1
  6
Continuous
 62
     2
100
AcDbLine
 10
453.2031783815479
 20
474.6362897557896
 30
0.0
 11
496.7873649720042
 21
474.6362897557896
 31
0.0
  0
LINE
  5
432
330
42D
100
AcDbEntity
  8
1
  6
Continuous
 62
     2
100
AcDbLine
 10
453.2031783815479
 20
459.6362897557896
 30
0.0
 11
496.7873649720042
 21
459.6362897557896
 31
0.0
  0
SOLID
  5
433
330
42D
100
AcDbEntity
  8
1
 62
     2
100
AcDbTrace
 10
489.4834462642248
 20
492.1362897557896
 30
0.0
 11
494.0912836797836
 21
492.1362897557896
 31
0.0
 12
491.7873649720042
 22
474.6362897557896
 32
0.0
 13
491.7873649720042
 23
474.6362897557896
 33
0.0
  0
SOLID
  5
434
330
42D
100
AcDbEntity
  8
1
 62
     2
100
AcDbTrace
 10
494.0912836797836
 20
442.1362897557896
 30
0.0
 11
489.4834462642248
 21
442.1362897557896
 31
0.0
 12
491.7873649720042
 22
459.6362897557896
 32
0.0
 13
491.7873649720042
 23
459.6362897557896
 33
0.0
  0
MTEXT
  5
435
330
42D
100
AcDbEntity
  8
1
 62
     7
100
AcDbMText
 10
486.7873649720042
 20
305.3346354251323
 30
0.0
 40
17.5
 41
0.0
 71
     7
 72
     1
  1
\C7;最大\C7;37最小5
  7
CONVERTER_1
 11
0.0
 21
1.0
 31
0.0
 73
     1
 44
0.60024009603842
  0
ENDBLK
  5
437
330
42D
100
AcDbEntity
  8
0
100
AcDbBlockEnd
  0
BLOCK
  5
441
330
43A
100
AcDbEntity
  8
0
100
AcDbBlockBegin
  2
*D1137
 70
     1
 71
     0
 10
0.0
 20
0.0
 30
0.0
  3
*D1137
  1

  0
LINE
  5
43B
330
43A
100
AcDbEntity
  8
1
  6
Continuous
 62
     2
100
AcDbLine
 10
880.6427327208464
 20
652.1362897557899
 30
0.0
 11
880.6427327208464
 21
475.6362897557892
 31
0.0
  0
LINE
  5
43C
330
43A
100
AcDbEntity
  8
1
  6
Continuous
 62
     2
100
AcDbLine
 10
703.7873649720003
 20
652.1362897557899
 30
0.0
 11
885.6427327208464
 21
652.1362897557899
 31
0.0
  0
LINE
  5
43D
330
43A
100
AcDbEntity
  8
1
  6
Continuous
 62
     2
100
AcDbLine
 10
823.8297535680612
 20
475.6362897557892
 30
0.0
 11
885.6427327208464
 21
475.6362897557892
 31
0.0
  0
SOLID
  5
43E
330
43A
100
AcDbEntity
  8
1
 62
     2
100
AcDbTrace
 10
882.9466514286258
 20
634.6362897557899
 30
0.0
 11
878.338814013067
 21
634.6362897557899
 31
0.0
 12
880.6427327208464
 22
652.1362897557899
 32
0.0
 13
880.6427327208464
 23
652.1362897557899
 33
0.0
  0
SOLID
  5
43F
330
43A
100
AcDbEntity
  8
1
 62
     2
100
AcDbTrace
 10
878.338814013067
 20
493.1362897557892
 30
0.0
 11
882.9466514286258
 21
493.1362897557892
 31
0.0
 12
880.6427327208464
 22
475.6362897557892
 32
0.0
 13
880.6427327208464
 23
475.6362897557892
 33
0.0
  0
MTEXT
  5
440
330
43A
100
AcDbEntity
  8
1
 62
     7
100
AcDbMText
 10
875.6427327208464
 20
508.7710119780119
 30
0.0
 40
17.5
 41
0.0
 71
     7
 72
     1
  1
\C7;最小\C7;177
  7
CONVERTER_1
 11
0.0
 21
1.0
 31
0.0
 73
     1
 44
0.60024009603842
  0
ENDBLK
  5
442
330
43A
100
AcDbEntity
  8
0
100
AcDbBlockEnd
  0
BLOCK
  5
44C
330
445
100
AcDbEntity
  8
0
100
AcDbBlockBegin
  2
*D1238
 70
     1
 71
     0
 10
0.0
 20
0.0
 30
0.0
  3
*D1238
  1

  0
LINE
  5
446
330
445
100
AcDbEntity
  8
1
  6
Continuous
 62
     2
100
AcDbLine
 10
920.6427327208464
 20
686.7009687285433
 30
0.0
 11
920.6427327208464
 21
475.6362897557892
 31
0.0
  0
LINE
  5
447
330
445
100
AcDbEntity
  8
1
  6
Continuous
 62
     2
100
AcDbLine
 10
737.8761736032678
 20
686.7009687285433
 30
0.0
 11
925.6427327208464
 21
686.7009687285433
 31
0.0
  0
LINE
  5
448
330
445
100
AcDbEntity
  8
1
  6
Continuous
 62
     2
100
AcDbLine
 10
823.8297535680612
 20
475.6362897557892
 30
0.0
 11
925.6427327208464
 21
475.6362897557892
 31
0.0
  0
SOLID
  5
449
330
445
100
AcDbEntity
  8
1
 62
     2
100
AcDbTrace
 10
922.9466514286258
 20
669.2009687285433
 30
0.0
 11
918.338814013067
 21
669.2009687285433
 31
0.0
 12
920.6427327208464
 22
686.7009687285433
 32
0.0
 13
920.6427327208464
 23
686.7009687285433
 33
0.0
  0
SOLID
  5
44A
330
445
100
AcDbEntity
  8
1
 62
     2
100
AcDbTrace
 10
918.338814013067
 20
493.1362897557892
 30
0.0
 11
922.9466514286258
 21
493.1362897557892
 31
0.0
 12
920.6427327208464
 22
475.6362897557892
 32
0.0
 13
920.6427327208464
 23
475.6362897557892
 33
0.0
  0
MTEXT
  5
44B
330
445
100
AcDbEntity
  8
1
 62
     7
100
AcDbMText
 10
915.6427327208464
 20
528.6783514643886
 30
0.0
 40
17.5
 41
0.0
 71
     7
 72
     1
  1
\C7;最大\C7;211
  7
CONVERTER_1
 11
0.0
 21
1.0
 31
0.0
 73
     1
 44
0.60024009603842
  0
ENDBLK
  5
44D
330
445
100
AcDbEntity
  8
0
100
AcDbBlockEnd
  0
ENDSEC
  0
SECTION
  2
ENTITIES
  0
INSERT
  5
85
330
1F
100
AcDbEntity
  8
1
100
AcDbBlockReference
  2
88-546-M21
 10
1854.0
 20
375.1383810687153
 30
0.0
  0
INSERT
  5
86
330
1F
100
AcDbEntity
  8
1
100
AcDbBlockReference
  2
87-163-M21__1
 10
4289.914153234306
 20
5230.4099997565
 30
0.0
  0
INSERT
  5
87
330
1F
100
AcDbEntity
  8
1
100
AcDbBlockReference
  2
87-163-M21__2
 10
1238.0
 20
3141.888381068716
 30
0.0
  0
INSERT
  5
88
330
1F
100
AcDbEntity
  8
1
100
AcDbBlockReference
  2
87-163-__F_
 10
2499.633568777156
 20
4124.72264016396
 30
0.0
  0
INSERT
  5
89
330
1F
100
AcDbEntity
  8
1
100
AcDbBlockReference
  2
_J__A4
 10
0.0
 20
0.0
 30
0.0
 41
5.0
 42
5.0
 43
5.0
  0
INSERT
  5
8A
330
1F
100
AcDbEntity
  8
0
100
AcDbBlockReference
  2
61-116
 10
-1300.623671921404
 20
278.6095539685285
 30
0.0
  0
INSERT
  5
8B
330
1F
100
AcDbEntity
  8
0
100
AcDbBlockReference
  2
31-28
 10
-1704.069259549624
 20
1350.307846306129
 30
0.0
  0
INSERT
  5
8C
330
1F
100
AcDbEntity
  8
0
100
AcDbBlockReference
  2
32-16__3
 10
364.2403665383587
 20
367.9408893859725
 30
0.0
  0
INSERT
  5
8D
330
1F
100
AcDbEntity
  8
0
100
AcDbBlockReference
  2
73-1-21_5__4
 10
326.0121835635439
 20
475.5234182913308
 30
0.0
  0
INSERT
  5
8E
330
1F
100
AcDbEntity
  8
0
100
AcDbBlockReference
  2
32-16__5
 10
161.2403665383587
 20
367.9408893859725
 30
0.0
  0
INSERT
  5
8F
330
1F
100
AcDbEntity
  8
0
100
AcDbBlockReference
  2
92-53__6
 10
22.47081715283278
 20
275.4522930483092
 30
0.0
  0
INSERT
  5
90
330
1F
100
AcDbEntity
  8
0
100
AcDbBlockReference
  2
32-25__7
 10
230.6043082770933
 20
423.2137131666524
 30
0.0
  0
INSERT
  5
91
330
1F
100
AcDbEntity
  8
0
100
AcDbBlockReference
  2
73-1-21_5__8
 10
123.012183563544
 20
475.5234182913308
 30
0.0
  0
INSERT
  5
92
330
1F
100
AcDbEntity
  8
0
100
AcDbBlockReference
  2
32-25__9
 10
328.6321964242621
 20
423.7137131666524
 30
0.0
  0
INSERT
  5
93
330
1F
100
AcDbEntity
  8
0
100
AcDbBlockReference
  2
92-53__10
 10
120.4987053000016
 20
275.4522930483092
 30
0.0
  0
INSERT
  5
94
330
1F
100
AcDbEntity
  8
0
100
AcDbBlockReference
  2
06-25__11
 10
309.6873649720041
 20
369.2082737915663
 30
0.0
  0
INSERT
  5
95
330
1F
100
AcDbEntity
  8
0
100
AcDbBlockReference
  2
06-25__12
 10
327.887364972004
 20
369.2082737915663
 30
0.0
  0
INSERT
  5
96
330
1F
100
AcDbEntity
  8
0
100
AcDbBlockReference
  2
M281
 10
440.8292045804803
 20
757.9864501423549
 30
0.0
  0
INSERT
  5
97
330
1F
100
AcDbEntity
  8
1
100
AcDbBlockReference
  2
98-119
 10
197.787364972004
 20
475.1362897557893
 30
0.0
  0
INSERT
  5
98
330
1F
100
AcDbEntity
  8
1
100
AcDbBlockReference
  2
50-13
 10
161.288785090347
 20
277.2132754220669
 30
0.0
  0
INSERT
  5
99
330
1F
100
AcDbEntity
  8
0
100
AcDbBlockReference
  2
61-115
 10
770.7671984703069
 20
410.6841679292202
 30
0.0
  0
LINE
  5
37B
330
1F
100
AcDbEntity
  8
1
  6
Continuous
 62
     2
100
AcDbLine
 10
350.0
 20
1048.462910916579
 30
0.0
 11
392.0
 21
1048.462910916579
 31
0.0
  0
LINE
  5
37C
330
1F
100
AcDbEntity
  8
1
  6
Continuous
 62
     2
100
AcDbLine
 10
250.0
 20
1048.462910916579
 30
0.0
 11
291.0
 21
1048.462910916579
 31
0.0
  0
LINE
  5
37D
330
1F
100
AcDbEntity
  8
1
  6
DASH_CENTER
 62
     2
100
AcDbLine
 10
797.5195101867766
 20
584.5872973091115
 30
0.0
 11
810.6629381269124
 21
612.7734694859514
 31
0.0
  0
LINE
  5
37E
330
1F
100
AcDbEntity
  8
1
  6
DASH_CENTER
 62
     2
100
AcDbLine
 10
721.3596946026171
 20
521.4362897557905
 30
0.0
 11
777.5546286866016
 21
521.4362897557905
 31
0.0
  0
LINE
  5
37F
330
1F
100
AcDbEntity
  8
1
  6
DASH_CENTER
 62
     2
100
AcDbLine
 10
576.7249171898327
 20
642.8653381649763
 30
0.0
 11
523.0950592525306
 21
648.5020633708871
 31
0.0
  0
LINE
  5
380
330
1F
100
AcDbEntity
  8
1
  6
DASH_CENTER
 62
     2
100
AcDbLine
 10
318.7873649720041
 20
1275.900681509852
 30
0.0
 11
318.7873649720041
 21
954.6832504524392
 31
0.0
  0
LINE
  5
381
330
1F
100
AcDbEntity
  8
1
  6
DASH_CENTER
 62
     2
100
AcDbLine
 10
318.7873649720041
 20
667.9006815098519
 30
0.0
 11
318.7873649720041
 21
446.6832504524392
 31
0.0
  0
LINE
  5
382
330
1F
100
AcDbEntity
  8
1
  6
Continuous
 62
     2
100
AcDbLine
 10
625.7224467841841
 20
653.4717903764479
 30
0.0
 11
663.2224467841841
 21
653.4717903764479
 31
0.0
  0
LINE
  5
383
330
1F
100
AcDbEntity
  8
1
  6
Continuous
 62
     2
100
AcDbLine
 10
722.3831275767478
 20
700.746992975727
 30
0.0
 11
761.8831275767478
 21
700.746992975727
 31
0.0
  0
LINE
  5
384
330
1F
100
AcDbEntity
  8
1
  6
DASH_CENTER
 62
     2
100
AcDbLine
 10
798.7873649720042
 20
397.0250602729955
 30
0.0
 11
798.7873649720042
 21
613.8432066973157
 31
0.0
  0
LINE
  5
385
330
1F
100
AcDbEntity
  8
1
  6
CENTER_DASH_DASH
 62
     2
100
AcDbLine
 10
780.2873649720042
 20
459.6362897557896
 30
0.0
 11
764.5278642749471
 21
459.6362897557896
 31
0.0
  0
LINE
  5
386
330
1F
100
AcDbEntity
  8
1
  6
CENTER_DASH_DASH
 62
     2
100
AcDbLine
 10
439.7873649720041
 20
474.6362897557896
 30
0.0
 11
453.2031783815479
 21
474.6362897557896
 31
0.0
  0
LINE
  5
387
330
1F
100
AcDbEntity
  8
1
  6
CENTER_DASH_DASH
 62
     2
100
AcDbLine
 10
438.7873649720038
 20
459.6362897557896
 30
0.0
 11
453.2031783815479
 21
459.6362897557896
 31
0.0
  0
LINE
  5
388
330
1F
100
AcDbEntity
  8
1
  6
CENTER_DASH_DASH
 62
     2
100
AcDbLine
 10
401.787364972004
 20
459.6362897557896
 30
0.0
 11
235.7873649720039
 21
459.6362897557896
 31
0.0
  0
LINE
  5
389
330
1F
100
AcDbEntity
  8
1
  6
CENTER_DASH_DASH
 62
     2
100
AcDbLine
 10
198.7873649720039
 20
459.6362897557896
 30
0.0
 11
187.5781609685168
 21
459.6362897557896
 31
0.0
  0
LINE
  5
38A
330
1F
100
AcDbEntity
  8
1
  6
CENTER_DASH_DASH
 62
     2
100
AcDbLine
 10
197.787364972004
 20
474.6362897557896
 30
0.0
 11
187.5781609685168
 21
474.6362897557896
 31
0.0
  0
LINE
  5
38B
330
1F
100
AcDbEntity
  8
1
  6
CENTER_DASH_DASH
 62
     2
100
AcDbLine
 10
775.7873649720042
 20
474.6362897557896
 30
0.0
 11
764.5278642749471
 21
474.6362897557896
 31
0.0
  0
LINE
  5
38C
330
1F
100
AcDbEntity
  8
1
  6
CENTER_DASH_DASH
 62
     2
100
AcDbLine
 10
821.787364972004
 20
474.6362897557896
 30
0.0
 11
833.852915130815
 21
474.6362897557896
 31
0.0
  0
LINE
  5
38D
330
1F
100
AcDbEntity
  8
1
  6
CENTER_DASH_DASH
 62
     2
100
AcDbLine
 10
817.287364972004
 20
459.6362897557896
 30
0.0
 11
833.852915130815
 21
459.6362897557896
 31
0.0
  0
LINE
  5
38E
330
1F
100
AcDbEntity
  8
1
  6
DASH_CENTER
 62
     2
100
AcDbLine
 10
420.2873649720038
 20
395.1362897557888
 30
0.0
 11
420.2873649720042
 21
487.6362897557892
 31
0.0
  0
LINE
  5
38F
330
1F
100
AcDbEntity
  8
1
  6
DASH_CENTER
 62
     2
100
AcDbLine
 10
183.7873649720036
 20
1243.31861157283
 30
0.0
 11
455.7873649720038
 21
1243.31861157283
 31
0.0
  0
LINE
  5
390
330
1F
100
AcDbEntity
  8
1
  6
DASH_CENTER
 62
     2
100
AcDbLine
 10
648.0499000895374
 20
615.9554758765141
 30
0.0
 11
783.7873649720043
 21
519.7003125250308
 31
0.0
  0
LINE
  5
391
330
1F
100
AcDbEntity
  8
1
  6
DASH_CENTER
 62
     2
100
AcDbLine
 10
541.7230689992699
 20
618.3543410700622
 30
0.0
 11
546.3598129006529
 21
662.4700124287949
 31
0.0
  0
LINE
  5
392
330
1F
100
AcDbEntity
  8
1
  6
DASH_CENTER
 62
     2
100
AcDbLine
 10
329.3850998782912
 20
1253.927535544319
 30
0.0
 11
237.4813472353555
 21
1161.983526095862
 31
0.0
  0
LINE
  5
393
330
1F
100
AcDbEntity
  8
1
  6
DASH_CENTER
 62
     2
100
AcDbLine
 10
308.2075087408341
 20
1253.927535544319
 30
0.0
 11
400.111261383769
 21
1161.983526095863
 31
0.0
  0
LINE
  5
394
330
1F
100
AcDbEntity
  8
1
  6
DASH_CENTER
 62
     2
100
AcDbLine
 10
217.287364972004
 20
487.6362897557892
 30
0.0
 11
217.287364972004
 21
395.1362897557888
 31
0.0
  0
ARC
  5
395
330
1F
100
AcDbEntity
  8
1
  6
Continuous
 62
     2
100
AcDbCircle
 10
344.7629656511531
 20
1269.344345736235
 30
0.0
 40
149.626251783489
100
AcDbArc
 50
-126.0130157994251
 51
-110.9234214330129
  0
ARC
  5
396
330
1F
100
AcDbEntity
  8
1
  6
Continuous
 62
     2
100
AcDbCircle
 10
292.8117642928553
 20
1269.344345736235
 30
0.0
 40
149.6262517834888
100
AcDbArc
 50
-69.07657856698715
 51
-53.98698420057493
  0
ARC
  5
397
330
1F
100
AcDbEntity
  8
1
  6
DASH_CENTER
 62
     2
100
AcDbCircle
 10
560.9933834680395
 20
493.1897929120544
 30
0.0
 40
150.4999999999979
100
AcDbArc
 50
54.65849966865273
 51
83.99999999999558
  0
ARC
  5
398
330
1F
100
AcDbEntity
  8
0
  6
Continuous
 62
     2
100
AcDbCircle
 10
789.7873649720058
 20
574.636289755786
 30
0.0
 40
134.5000000000027
100
AcDbArc
 50
124.1059124431767
 51
144.5803587738509
  0
SOLID
  5
39E
330
1F
100
AcDbEntity
  8
1
 62
     2
100
AcDbTrace
 10
273.267714360851
 20
1141.993061626098
 30
0.0
 11
271.0701426874605
 21
1137.943019109218
 31
0.0
 12
256.7873649720041
 22
1148.31414740574
 32
0.0
 13
256.7873649720041
 23
1148.31414740574
 33
0.0
  0
LEADER
  5
39F
330
1F
100
AcDbEntity
  8
1
  6
Continuous
 62
     2
100
AcDbLeader
  3
Standard
 71
     0
 76
     2
 10
256.7873649720041
 20
1148.31414740574
 30
0.0
 10
261.2971723709454
 20
1145.867105195429
 30
0.0
  0
SOLID
  5
3A0
330
1F
100
AcDbEntity
  8
1
 62
     2
100
AcDbTrace
 10
366.5045872565477
 20
1137.943019109218
 30
0.0
 11
364.3070155831573
 21
1141.993061626098
 31
0.0
 12
380.7873649720041
 22
1148.31414740574
 32
0.0
 13
380.7873649720041
 23
1148.31414740574
 33
0.0
  0
LEADER
  5
3A1
330
1F
100
AcDbEntity
  8
1
  6
Continuous
 62
     2
100
AcDbLeader
  3
Standard
 71
     0
 76
     2
 10
380.7873649720041
 20
1148.31414740574
 30
0.0
 10
376.2775575730627
 20
1145.867105195429
 30
0.0
  0
SOLID
  5
3A2
330
1F
100
AcDbEntity
  8
0
 62
     2
100
AcDbTrace
 10
688.8474829141672
 20
667.96321415052
 30
0.0
 11
692.5317337790713
 21
665.1958216570927
 31
0.0
 12
680.1793918898817
 22
652.5871860741032
 32
0.0
 13
680.1793918898817
 23
652.5871860741032
 33
0.0
  0
LEADER
  5
3A3
330
1F
100
AcDbEntity
  8
0
  6
Continuous
 62
     2
100
AcDbLeader
  3
Standard
 71
     0
 76
     2
 10
680.1793918898817
 20
652.5871860741032
 30
0.0
 10
684.38613578262
 20
658.1876565032383
 30
0.0
  0
SOLID
  5
3A4
330
1F
100
AcDbEntity
  8
0
 62
     2
100
AcDbTrace
 10
701.4011817263366
 20
674.0289155277068
 30
0.0
 11
698.7440575196573
 21
677.7934681702531
 31
0.0
 12
714.3699277315928
 22
686.0026229094331
 32
0.0
 13
714.3699277315928
 23
686.0026229094331
 33
0.0
  0
LEADER
  5
3A5
330
1F
100
AcDbEntity
  8
0
  6
Continuous
 62
     2
100
AcDbLeader
  3
Standard
 71
     0
 76
     2
 10
714.3699277315928
 20
686.0026229094331
 30
0.0
 10
710.1141770889113
 20
682.9987977211603
 30
0.0
  0
SOLID
  5
3A6
330
1F
100
AcDbEntity
  8
1
 62
     2
100
AcDbTrace
 10
740.0054087102474
 20
430.7295621421496
 30
0.0
 11
736.0149044518649
 21
433.0334808499291
 31
0.0
 12
746.7601565810563
 22
447.0369660622669
 32
0.0
 13
746.7601565810563
 23
447.0369660622669
 33
0.0
  0
LEADER
  5
3A7
330
1F
100
AcDbEntity
  8
1
  6
Continuous
 62
     2
100
AcDbLeader
  3
Standard
 71
     0
 76
     3
 10
746.7601565810563
 20
447.0369660622669
 30
0.0
 10
717.4428924822748
 20
396.2579751042624
 30
0.0
 10
602.8123443336401
 20
396.2579751042625
 30
0.0
  0
SOLID
  5
3A8
330
1F
100
AcDbEntity
  8
1
 62
     2
100
AcDbTrace
 10
403.0551171011949
 20
420.5788858356723
 30
0.0
 11
399.0646128428126
 21
422.8828045434518
 31
0.0
 12
409.8098649720039
 22
436.8862897557896
 32
0.0
 13
409.8098649720039
 23
436.8862897557896
 33
0.0
  0
LEADER
  5
3A9
330
1F
100
AcDbEntity
  8
1
  6
Continuous
 62
     2
100
AcDbLeader
  3
Standard
 71
     0
 76
     3
 10
409.8098649720039
 20
436.8862897557896
 30
0.0
 10
386.204154575334
 20
396.0
 30
0.0
 10
315.2727874676845
 20
396.0
 30
0.0
  0
MTEXT
  5
3AB
330
1F
100
AcDbEntity
  8
1
 62
     7
100
AcDbMText
 10
686.437988912443
 20
693.131392299353
 30
0.0
 40
17.5
 41
0.0
 71
     5
 72
     1
  1
25{\Fgdt;~}
  7
CONVERTER_2
 73
     1
 44
0.7202881152461
  0
MTEXT
  5
3AC
330
1F
100
AcDbEntity
  8
1
 62
     7
100
AcDbMText
 10
268.7676385035175
 20
1063.462910916579
 30
0.0
 40
17.5
 41
0.0
 71
     5
 72
     1
  1
湯側
  7
CONVERTER_1
 73
     1
 44
1.32052821128451
  0
MTEXT
  5
3AD
330
1F
100
AcDbEntity
  8
1
 62
     7
100
AcDbMText
 10
268.7676385035175
 20
1103.462910916579
 30
0.0
 40
17.5
 41
0.0
 71
     5
 72
     1
  1
45{\Fgdt;~}
  7
CONVERTER_2
 73
     1
 44
1.32052821128451
  0
MTEXT
  5
3AE
330
1F
100
AcDbEntity
  8
1
 62
     7
100
AcDbMText
 10
368.7873649720041
 20
1103.462910916579
 30
0.0
 40
17.5
 41
0.0
 71
     5
 72
     1
  1
45{\Fgdt;~}
  7
CONVERTER_2
 73
     1
 44
1.32052821128451
  0
MTEXT
  5
3AF
330
1F
100
AcDbEntity
  8
1
 62
     7
100
AcDbMText
 10
368.7873649720041
 20
1063.462910916579
 30
0.0
 40
17.5
 41
0.0
 71
     5
 72
     1
  1
水側
  7
CONVERTER_1
 73
     1
 44
1.32052821128451
  0
MTEXT
  5
3B0
330
1F
100
AcDbEntity
  8
1
 62
     7
100
AcDbMText
 10
468.7499999999999
 20
85.00000000000003
 30
0.0
 40
17.5
 41
0.0
 71
     5
 72
     1
  1
5
  7
CONVERTER_2
 73
     1
 44
0.7202881152461
  0
MTEXT
  5
3B1
330
1F
100
AcDbEntity
  8
1
 62
     7
100
AcDbMText
 10
426.25
 20
85.00000000000003
 30
0.0
 40
17.5
 41
0.0
 71
     5
 72
     1
  1
1
  7
CONVERTER_2
 73
     1
 44
0.7202881152461
  0
MTEXT
  5
3B2
330
1F
100
AcDbEntity
  8
1
 62
     7
100
AcDbMText
 10
285.0
 20
71.25
 30
0.0
 40
17.5
 41
0.0
 71
     5
 72
     1
  1
K676K-13
  7
CONVERTER_2
 73
     1
 44
0.7202881152461
  0
MTEXT
  5
3B3
330
1F
100
AcDbEntity
  8
1
 62
     7
100
AcDbMText
 10
285.0
 20
113.7500000000001
 30
0.0
 40
17.5
 41
0.0
 71
     5
 72
     1
  1
シングル台付混合栓
  7
CONVERTER_1
 73
     1
 44
0.7202881152461
  0
MTEXT
  5
3B4
330
1F
100
AcDbEntity
  8
0
 62
     7
100
AcDbMText
 10
741.3881363347624
 20
715.746992975727
 30
0.0
 40
17.5
 41
0.0
 71
     5
 72
     1
  1
吐水
  7
CONVERTER_1
 73
     1
 44
1.32052821128451
  0
MTEXT
  5
3B5
330
1F
100
AcDbEntity
  8
0
 62
     7
100
AcDbMText
 10
643.2197519908779
 20
668.4717903764479
 30
0.0
 40
17.5
 41
0.0
 71
     5
 72
     1
  1
止水
  7
CONVERTER_1
 73
     1
 44
1.32052821128451
  0
MTEXT
  5
3B6
330
1F
100
AcDbEntity
  8
1
 62
     7
100
AcDbMText
 10
658.1276184079575
 20
381.2579751042624
 30
0.0
 40
17.5
 41
0.0
 71
     5
 72
     1
  1
{\Fgdt;n}23～{\Fgdt;n}27
  7
CONVERTER_1
 73
     1
 44
0.7202881152461
  0
MTEXT
  5
3B7
330
1F
100
AcDbEntity
  8
1
 62
     7
100
AcDbMText
 10
658.1276184079575
 20
411.2579751042625
 30
0.0
 40
17.5
 41
0.0
 71
     5
 72
     1
  1
取付穴径
  7
CONVERTER_1
 73
     1
 44
0.7202881152461
  0
MTEXT
  5
3B8
330
1F
100
AcDbEntity
  8
1
 62
     7
100
AcDbMText
 10
350.7384710215092
 20
410.9999999999999
 30
0.0
 40
17.5
 41
0.0
 71
     5
 72
     1
  1
PJ1/2
  7
CONVERTER_2
 73
     1
 44
1.32052821128451
  0
MTEXT
  5
3B9
330
1F
100
AcDbEntity
  8
1
 62
     7
100
AcDbMText
 10
170.0
 20
187.5
 30
0.0
 40
17.5
 41
0.0
 71
     4
 72
     1
  1
JIS
  7
CONVERTER_2
 73
     1
 44
0.90036014405762
  0
MTEXT
  5
3BA
330
1F
100
AcDbEntity
  8
1
 62
     7
100
AcDbMText
 10
170.0
 20
152.5000000000001
 30
0.0
 40
17.5
 41
0.0
 71
     4
 72
     1
  1
吐水口は回転式(120{\Fgdt;~})
  7
CONVERTER_1
 73
     1
 44
0.90036014405762
  0
DIMENSION
  5
3C7
330
1F
100
AcDbEntity
  8
1
100
AcDbDimension
  2
*D026
 10
798.7873649720003
 20
736.7009687285433
 30
0.0
 11
814.7062355439937
 21
750.4509687285433
 31
0.0
  1
32
 71
     5
 42
0.0
 53
0.00013888888889
  3
ME10_DIM_0
100
AcDbAlignedDimension
 13
830.6549444507306
 23
598.5056782286447
 33
0.0
 14
798.7873649720004
 24
631.1820513358405
 34
0.0
100
AcDbRotatedDimension
  0
DIMENSION
  5
3D2
330
1F
100
AcDbEntity
  8
1
100
AcDbDimension
  2
*D127
 10
318.7873649720041
 20
921.8186115728298
 30
0.0
 11
356.7832126694313
 21
935.5686115728298
 31
0.0
  1
76
 71
     5
 42
0.0
 53
0.00013888888889
  3
ME10_DIM_1
100
AcDbAlignedDimension
 13
394.7790603668585
 23
1185.32037212871
 33
0.0
 14
318.7873649720041
 24
954.6832504524392
 34
0.0
100
AcDbRotatedDimension
  0
DIMENSION
  5
3DD
330
1F
100
AcDbEntity
  8
1
100
AcDbDimension
  2
*D228
 10
242.8135482522646
 20
921.8186115728298
 30
0.0
 11
280.8004566121343
 21
935.5686115728298
 31
0.0
  1
76
 71
     5
 42
0.0
 53
0.00013888888889
  3
ME10_DIM_2
100
AcDbAlignedDimension
 13
318.7873649720041
 23
954.6832504524392
 33
0.0
 14
242.8135482522646
 24
1185.32037212871
 34
0.0
100
AcDbRotatedDimension
  0
DIMENSION
  5
3E8
330
1F
100
AcDbEntity
  8
1
100
AcDbDimension
  2
*D329
 10
588.734574340779
 20
475.6362897557893
 30
0.0
 11
574.984574340779
 21
553.237274375349
 31
0.0
  1
146
 71
     5
 42
0.0
 53
90.0
  3
ME10_DIM_3
100
AcDbAlignedDimension
 13
542.1450238532223
 23
621.3676327001633
 33
0.0
 14
773.7449763759457
 24
475.6362897557892
 34
0.0
 50
90.0
100
AcDbRotatedDimension
  0
DIMENSION
  5
3F3
330
1F
100
AcDbEntity
  8
0
100
AcDbDimension
  2
*D430
 10
798.7873649720042
 20
736.7009687285433
 30
0.0
 11
670.4661944126133
 21
750.4509687285433
 31
0.0
  1
257
 71
     5
 42
0.0
 53
0.00013888888889
  3
ME10_DIM_4
100
AcDbAlignedDimension
 13
542.1450238532223
 23
621.3676327001633
 33
0.0
 14
798.7873649720042
 24
613.8432066973157
 34
0.0
100
AcDbRotatedDimension
  0
DIMENSION
  5
400
330
1F
100
AcDbEntity
  8
0
100
AcDbDimension
  2
*D531
 10
793.044024289247
 20
438.2994379326756
 30
0.0
 11
909.6557696079499
 21
452.0494379326756
 31
0.0
 70
     1
  1
ロックナット対辺24
 71
     5
 42
0.0
 52
120.0
 53
0.00013888888889
  3
ME10_DIM_5
100
AcDbAlignedDimension
 13
810.7873649720043
 23
449.1362897557893
 33
0.0
 14
786.7873649720042
 24
449.1362897557893
 34
0.0
  0
DIMENSION
  5
40B
330
1F
100
AcDbEntity
  8
0
100
AcDbDimension
  2
*D632
 10
823.8297535680612
 20
360.1362897557888
 30
0.0
 11
798.7873649720042
 21
373.8862897557888
 31
0.0
 70
     1
  1
50
 71
     5
 42
0.0
 53
0.00013888888889
  3
ME10_DIM_6
100
AcDbAlignedDimension
 13
773.7449763759457
 23
475.6362897557892
 33
0.0
 14
823.8297535680613
 24
475.6362897557892
 34
0.0
  0
DIMENSION
  5
416
330
1F
100
AcDbEntity
  8
0
100
AcDbDimension
  2
*D733
 10
420.2873649720039
 20
360.1362897557888
 30
0.0
 11
318.787364972004
 21
373.8862897557888
 31
0.0
  1
<>
 71
     5
 42
0.0
 53
0.00013888888889
  3
ME10_DIM_7
100
AcDbAlignedDimension
 13
217.287364972004
 23
395.1362897557888
 33
0.0
 14
420.2873649720038
 24
395.1362897557888
 34
0.0
100
AcDbRotatedDimension
  0
DIMENSION
  5
421
330
1F
100
AcDbEntity
  8
0
100
AcDbDimension
  2
*D834
 10
195.787364972004
 20
320.1362897557888
 30
0.0
 11
318.7873649720041
 21
333.8862897557888
 31
0.0
  1
<>
 71
     5
 42
0.0
 53
0.00013888888889
  3
ME10_DIM_8
100
AcDbAlignedDimension
 13
441.7873649720042
 23
475.6362897557892
 33
0.0
 14
195.787364972004
 24
475.6362897557892
 34
0.0
100
AcDbRotatedDimension
  0
DIMENSION
  5
42C
330
1F
100
AcDbEntity
  8
0
100
AcDbDimension
  2
*D935
 10
155.988232479849
 20
475.6362897557892
 30
0.0
 11
142.238232479849
 21
447.6957351365246
 31
0.0
  1
<>
 71
     5
 42
0.0
 53
90.0
  3
ME10_DIM_9
100
AcDbAlignedDimension
 13
214.0001852472311
 23
417.6362897557893
 33
0.0
 14
195.787364972004
 24
475.6362897557892
 34
0.0
 50
90.0
100
AcDbRotatedDimension
  0
DIMENSION
  5
439
330
1F
100
AcDbEntity
  8
1
100
AcDbDimension
  2
*D1036
 10
491.7873649720042
 20
474.6362897557896
 30
0.0
 11
478.0373649720042
 21
380.57491320291
 31
0.0
  1
最大37最小5
 71
     5
 42
0.0
 53
90.0
  3
ME10_DIM_10
100
AcDbAlignedDimension
 13
453.2031783815479
 23
459.6362897557896
 33
0.0
 14
453.2031783815479
 24
474.6362897557896
 34
0.0
 50
90.0
100
AcDbRotatedDimension
  0
DIMENSION
  5
444
330
1F
100
AcDbEntity
  8
1
100
AcDbDimension
  2
*D1137
 10
880.6427327208464
 20
652.1362897557899
 30
0.0
 11
866.8927327208464
 21
563.8862897557897
 31
0.0
  1
最小177
 71
     5
 42
0.0
 53
90.0
  3
ME10_DIM_11
100
AcDbAlignedDimension
 13
823.8297535680613
 23
475.6362897557892
 33
0.0
 14
703.7873649720004
 24
652.13628975579
 34
0.0
 50
90.0
100
AcDbRotatedDimension
  0
DIMENSION
  5
44F
330
1F
100
AcDbEntity
  8
1
100
AcDbDimension
  2
*D1238
 10
920.6427327208464
 20
686.7009687285433
 30
0.0
 11
906.8927327208464
 21
581.1686292421664
 31
0.0
  1
最大211
 71
     5
 42
0.0
 53
90.0
  3
ME10_DIM_12
100
AcDbAlignedDimension
 13
823.8297535680613
 23
475.6362897557892
 33
0.0
 14
737.8761736032679
 24
686.7009687285433
 34
0.0
 50
90.0
100
AcDbRotatedDimension
  0
HATCH
  5
450
330
1F
100
AcDbEntity
  8
1
  6
Continuous
 62
     4
100
AcDbHatch
 10
0.0
 20
0.0
 30
0.0
210
0.0
220
0.0
230
1.0
  2
CUSTOM3
 70
     0
 71
     0
 91
        1
 92
        1
 93
        7
 72
     1
 10
453.2031783815479
 20
459.6362897557896
 11
430.7873649720038
 21
459.6362897557896
 72
     1
 10
430.7873649720038
 20
459.6362897557896
 11
430.7648649720039
 21
472.4742897557894
 72
     1
 10
430.7648649720039
 20
472.4742897557894
 11
429.6028649720039
 21
472.6362897557896
 72
     1
 10
429.6028649720039
 20
472.6362897557896
 11
430.537364972004
 21
472.6362897557896
 72
     1
 10
430.537364972004
 20
472.6362897557896
 11
430.537364972004
 21
474.6362897557896
 72
     1
 10
430.537364972004
 20
474.6362897557896
 11
453.2031783815479
 21
474.6362897557896
 72
     1
 10
453.2031783815479
 20
474.6362897557896
 11
453.2031783815479
 21
459.6362897557896
 97
        0
 75
     1
 76
     2
 52
45.0
 41
15.0
 77
     0
 78
     2
 53
45.0
 43
0.0
 44
0.0
 45
-21.21320343559642
 46
0.0000000000000017
 79
     0
 53
45.0
 43
3.535533905932737
 44
-3.535533905932738
 45
-21.21320343559642
 46
0.0000000000000017
 79
     0
 98
        1
 10
0.0
 20
0.0
  0
HATCH
  5
451
330
1F
100
AcDbEntity
  8
1
  6
Continuous
 62
     4
100
AcDbHatch
 10
0.0
 20
0.0
 30
0.0
210
0.0
220
0.0
230
1.0
  2
CUSTOM4
 70
     0
 71
     0
 91
        1
 92
        1
 93
        9
 72
     1
 10
409.787364972004
 20
459.6362897557896
 11
227.764864972004
 21
459.6362897557896
 72
     1
 10
227.764864972004
 20
459.6362897557896
 11
227.764864972004
 21
471.4742897557897
 72
     1
 10
227.764864972004
 20
471.4742897557897
 11
227.5373649720039
 21
472.6362897557896
 72
     1
 10
227.5373649720039
 20
472.6362897557896
 11
227.5373649720039
 21
474.6362897557896
 72
     1
 10
227.5373649720039
 20
474.6362897557896
 11
410.037364972004
 21
474.6362897557896
 72
     1
 10
410.037364972004
 20
474.6362897557896
 11
410.037364972004
 21
472.6362897557896
 72
     1
 10
410.037364972004
 20
472.6362897557896
 11
410.9718649720039
 21
472.6362897557896
 72
     1
 10
410.9718649720039
 20
472.6362897557896
 11
409.8098649720038
 21
471.4742897557897
 72
     1
 10
409.8098649720038
 20
471.4742897557897
 11
409.787364972004
 21
459.6362897557896
 97
        0
 75
     1
 76
     2
 52
45.0
 41
15.0
 77
     0
 78
     2
 53
45.0
 43
0.0
 44
0.0
 45
-21.21320343559642
 46
0.0000000000000017
 79
     0
 53
45.0
 43
3.535533905932737
 44
-3.535533905932738
 45
-21.21320343559642
 46
0.0000000000000017
 79
     0
 98
        1
 10
0.0
 20
0.0
  0
HATCH
  5
452
330
1F
100
AcDbEntity
  8
1
  6
Continuous
 62
     4
100
AcDbHatch
 10
0.0
 20
0.0
 30
0.0
210
0.0
220
0.0
230
1.0
  2
CUSTOM5
 70
     0
 71
     0
 91
        1
 92
        1
 93
        5
 72
     1
 10
187.5781609685168
 20
474.6362897557896
 11
187.5781609685168
 21
459.6362897557896
 72
     1
 10
187.5781609685168
 20
459.6362897557896
 11
206.8098649720039
 21
459.6362897557896
 72
     1
 10
206.8098649720039
 20
459.6362897557896
 11
207.0373649720039
 21
472.6362897557896
 72
     1
 10
207.0373649720039
 20
472.6362897557896
 11
207.0373649720039
 21
474.6362897557896
 72
     1
 10
207.0373649720039
 20
474.6362897557896
 11
187.5781609685168
 21
474.6362897557896
 97
        0
 75
     1
 76
     2
 52
45.0
 41
15.0
 77
     0
 78
     2
 53
45.0
 43
0.0
 44
0.0
 45
-21.21320343559642
 46
0.0000000000000017
 79
     0
 53
45.0
 43
3.535533905932737
 44
-3.535533905932738
 45
-21.21320343559642
 46
0.0000000000000017
 79
     0
 98
        1
 10
0.0
 20
0.0
  0
HATCH
  5
453
330
1F
100
AcDbEntity
  8
0
  6
Continuous
 62
     4
100
AcDbHatch
 10
0.0
 20
0.0
 30
0.0
210
0.0
220
0.0
230
1.0
  2
CUSTOM6
 70
     0
 71
     0
 91
        1
 92
        1
 93
        4
 72
     1
 10
833.852915130815
 20
474.6362897557896
 11
833.852915130815
 21
459.6362897557896
 72
     1
 10
833.852915130815
 20
459.6362897557896
 11
809.2648649720042
 21
459.6362897557894
 72
     1
 10
809.2648649720042
 20
459.6362897557894
 11
809.0373649720042
 21
474.6362897557896
 72
     1
 10
809.0373649720042
 20
474.6362897557896
 11
833.852915130815
 21
474.6362897557896
 97
        0
 75
     1
 76
     2
 52
45.0
 41
15.0
 77
     0
 78
     2
 53
45.0
 43
0.0
 44
0.0
 45
-21.21320343559642
 46
0.0000000000000017
 79
     0
 53
45.0
 43
3.535533905932737
 44
-3.535533905932738
 45
-21.21320343559642
 46
0.0000000000000017
 79
     0
 98
        1
 10
0.0
 20
0.0
  0
HATCH
  5
454
330
1F
100
AcDbEntity
  8
0
  6
Continuous
 62
     4
100
AcDbHatch
 10
0.0
 20
0.0
 30
0.0
210
0.0
220
0.0
230
1.0
  2
CUSTOM7
 70
     0
 71
     0
 91
        1
 92
        1
 93
        4
 72
     1
 10
764.5278642749471
 20
474.6362897557896
 11
788.537364972004
 21
474.6362897557899
 72
     1
 10
788.537364972004
 20
474.6362897557899
 11
788.3098649720038
 21
459.6362897557894
 72
     1
 10
788.3098649720038
 20
459.6362897557894
 11
764.5278642749471
 21
459.6362897557896
 72
     1
 10
764.5278642749471
 20
459.6362897557896
 11
764.5278642749471
 21
474.6362897557896
 97
        0
 75
     1
 76
     2
 52
45.0
 41
15.0
 77
     0
 78
     2
 53
45.0
 43
0.0
 44
0.0
 45
-21.21320343559642
 46
0.0000000000000017
 79
     0
 53
45.0
 43
3.535533905932737
 44
-3.535533905932738
 45
-21.21320343559642
 46
0.0000000000000017
 79
     0
 98
        1
 10
0.0
 20
0.0
  0
ENDSEC
  0
SECTION
  2
OBJECTS
  0
DICTIONARY
  5
C
330
0
100
AcDbDictionary
281
     1
  3
ACAD_GROUP
350
D
  3
ACAD_LAYOUT
350
1A
  3
ACAD_MLINESTYLE
350
17
  3
ACAD_PLOTSETTINGS
350
19
  3
ACAD_PLOTSTYLENAME
350
E
  3
ACAD_TABLESTYLE
350
2A
  3
AcDbVariableDictionary
350
2C
  0
DICTIONARY
  5
D
102
{ACAD_REACTORS
330
C
102
}
330
C
100
AcDbDictionary
281
     1
  0
DICTIONARY
  5
1A
102
{ACAD_REACTORS
330
C
102
}
330
C
100
AcDbDictionary
281
     1
  3
Layout1
350
1E
  3
Layout2
350
26
  3
Model
350
22
  0
DICTIONARY
  5
17
102
{ACAD_REACTORS
330
C
102
}
330
C
100
AcDbDictionary
281
     1
  3
Standard
350
18
  0
DICTIONARY
  5
19
102
{ACAD_REACTORS
330
C
102
}
330
C
100
AcDbDictionary
281
     1
  0
ACDBDICTIONARYWDFLT
  5
E
102
{ACAD_REACTORS
330
C
102
}
330
C
100
AcDbDictionary
281
     1
  3
Normal
350
F
100
AcDbDictionaryWithDefault
340
F
  0
DICTIONARY
  5
2A
102
{ACAD_REACTORS
330
C
102
}
330
C
100
AcDbDictionary
281
     1
  3
Standard
350
2B
  0
DICTIONARY
  5
2C
102
{ACAD_REACTORS
330
C
102
}
330
C
100
AcDbDictionary
281
     1
  3
CTABLESTYLE
350
2D
  0
LAYOUT
  5
1E
102
{ACAD_REACTORS
330
1A
102
}
330
1A
100
AcDbPlotSettings
  1

  2

  4

  6

 40
0.0
 41
0.0
 42
0.0
 43
0.0
 44
0.0
 45
0.0
 46
0.0
 47
0.0
 48
0.0
 49
0.0
140
0.0
141
0.0
142
1.0
143
1.0
 70
   688
 72
     0
 73
     0
 74
     5
  7

 75
    16
147
1.0
148
0.0
149
0.0
100
AcDbLayout
  1
Layout1
 70
     1
 71
     1
 10
0.0
 20
0.0
 11
12.0
 21
9.0
 12
0.0
 22
0.0
 32
0.0
 14
1.00000000000000E+20
 24
1.00000000000000E+20
 34
1.00000000000000E+20
 15
-1.00000000000000E+20
 25
-1.00000000000000E+20
 35
-1.00000000000000E+20
146
0.0
 13
0.0
 23
0.0
 33
0.0
 16
1.0
 26
0.0
 36
0.0
 17
0.0
 27
1.0
 37
0.0
 76
     0
330
1B
  0
LAYOUT
  5
26
102
{ACAD_REACTORS
330
1A
102
}
330
1A
100
AcDbPlotSettings
  1

  2

  4

  6

 40
0.0
 41
0.0
 42
0.0
 43
0.0
 44
0.0
 45
0.0
 46
0.0
 47
0.0
 48
0.0
 49
0.0
140
0.0
141
0.0
142
1.0
143
1.0
 70
   688
 72
     0
 73
     0
 74
     5
  7

 75
    16
147
1.0
148
0.0
149
0.0
100
AcDbLayout
  1
Layout2
 70
     1
 71
     2
 10
0.0
 20
0.0
 11
0.0
 21
0.0
 12
0.0
 22
0.0
 32
0.0
 14
0.0
 24
0.0
 34
0.0
 15
0.0
 25
0.0
 35
0.0
146
0.0
 13
0.0
 23
0.0
 33
0.0
 16
1.0
 26
0.0
 36
0.0
 17
0.0
 27
1.0
 37
0.0
 76
     0
330
23
  0
LAYOUT
  5
22
102
{ACAD_REACTORS
330
1A
102
}
330
1A
100
AcDbPlotSettings
  1

  2

  4

  6

 40
0.0
 41
0.0
 42
0.0
 43
0.0
 44
0.0
 45
0.0
 46
0.0
 47
0.0
 48
0.0
 49
0.0
140
0.0
141
0.0
142
1.0
143
1.0
 70
  1712
 72
     0
 73
     0
 74
     0
  7

 75
     0
147
1.0
148
0.0
149
0.0
100
AcDbLayout
  1
Model
 70
     1
 71
     0
 10
0.0
 20
0.0
 11
0.0
 21
0.0
 12
0.0
 22
0.0
 32
0.0
 14
0.0
 24
0.0
 34
0.0
 15
1050.0
 25
1485.0
 35
0.0
146
0.0
 13
0.0
 23
0.0
 33
0.0
 16
1.0
 26
0.0
 36
0.0
 17
0.0
 27
1.0
 37
0.0
 76
     0
330
1F
  0
MLINESTYLE
  5
18
102
{ACAD_REACTORS
330
17
102
}
330
17
100
AcDbMlineStyle
  2
Standard
 70
     0
  3

 62
   256
 51
90.0
 52
90.0
 71
     2
 49
0.5
 62
   256
  6
BYLAYER
 49
-0.5
 62
   256
  6
BYLAYER
  0
ACDBPLACEHOLDER
  5
F
102
{ACAD_REACTORS
330
E
102
}
330
E
  0
TABLESTYLE
  5
2B
102
{ACAD_REACTORS
330
2A
102
}
330
2A
100
AcDbTableStyle
  3
Standard
 70
     0
 71
     0
 40
0.06
 41
0.06
280
     0
281
     0
  7
Standard
140
0.18
170
     2
 62
     0
 63
     7
283
     0
274
    -2
284
     1
 64
     0
275
    -2
285
     1
 65
     0
276
    -2
286
     1
 66
     0
277
    -2
287
     1
 67
     0
278
    -2
288
     1
 68
     0
279
    -2
289
     1
 69
     0
  7
Standard
140
0.25
170
     5
 62
     0
 63
     7
283
     0
274
    -2
284
     1
 64
     0
275
    -2
285
     1
 65
     0
276
    -2
286
     1
 66
     0
277
    -2
287
     1
 67
     0
278
    -2
288
     1
 68
     0
279
    -2
289
     1
 69
     0
  7
Standard
140
0.18
170
     5
 62
     0
 63
     7
283
     0
274
    -2
284
     1
 64
     0
275
    -2
285
     1
 65
     0
276
    -2
286
     1
 66
     0
277
    -2
287
     1
 67
     0
278
    -2
288
     1
 68
     0
279
    -2
289
     1
 69
     0
  0
DICTIONARYVAR
  5
2D
102
{ACAD_REACTORS
330
2C
102
}
330
2C
100
DictionaryVariables
280
     0
  1
Standard
  0
ENDSEC
  0
EOF
