  0
SECTION
  2
HEADER
  9
$ACADVER
  1
AC1015
  9
$ACADMAINTVER
 70
     6
  9
$DWGCODEPAGE
  3
ANSI_932
  9
$INSBASE
 10
0.0
 20
0.0
 30
0.0
  9
$EXTMIN
 10
0.0
 20
0.0
 30
0.0
  9
$EXTMAX
 10
1050.0
 20
1485.0
 30
0.0
  9
$LIMMIN
 10
0.0
 20
0.0
  9
$LIMMAX
 10
12.0
 20
9.0
  9
$ORTHOMODE
 70
     0
  9
$REGENMODE
 70
     1
  9
$FILLMODE
 70
     1
  9
$QTEXTMODE
 70
     0
  9
$MIRRTEXT
 70
     1
  9
$LTSCALE
 40
1.0
  9
$ATTMODE
 70
     1
  9
$TEXTSIZE
 40
0.2
  9
$TRACEWID
 40
0.05
  9
$TEXTSTYLE
  7
Standard
  9
$CLAYER
  8
0
  9
$CELTYPE
  6
ByLayer
  9
$CECOLOR
 62
   256
  9
$CELTSCALE
 40
1.0
  9
$DISPSILH
 70
     0
  9
$DIMSCALE
 40
1.0
  9
$DIMASZ
 40
0.18
  9
$DIMEXO
 40
0.0625
  9
$DIMDLI
 40
0.38
  9
$DIMRND
 40
0.0
  9
$DIMDLE
 40
0.0
  9
$DIMEXE
 40
0.18
  9
$DIMTP
 40
0.0
  9
$DIMTM
 40
0.0
  9
$DIMTXT
 40
0.18
  9
$DIMCEN
 40
0.09
  9
$DIMTSZ
 40
0.0
  9
$DIMTOL
 70
     0
  9
$DIMLIM
 70
     0
  9
$DIMTIH
 70
     1
  9
$DIMTOH
 70
     1
  9
$DIMSE1
 70
     0
  9
$DIMSE2
 70
     0
  9
$DIMTAD
 70
     0
  9
$DIMZIN
 70
     0
  9
$DIMBLK
  1

  9
$DIMASO
 70
     1
  9
$DIMSHO
 70
     1
  9
$DIMPOST
  1

  9
$DIMAPOST
  1

  9
$DIMALT
 70
     0
  9
$DIMALTD
 70
     2
  9
$DIMALTF
 40
25.4
  9
$DIMLFAC
 40
1.0
  9
$DIMTOFL
 70
     0
  9
$DIMTVP
 40
0.0
  9
$DIMTIX
 70
     0
  9
$DIMSOXD
 70
     0
  9
$DIMSAH
 70
     0
  9
$DIMBLK1
  1

  9
$DIMBLK2
  1

  9
$DIMSTYLE
  2
Standard
  9
$DIMCLRD
 70
     0
  9
$DIMCLRE
 70
     0
  9
$DIMCLRT
 70
     0
  9
$DIMTFAC
 40
1.0
  9
$DIMGAP
 40
0.09
  9
$DIMJUST
 70
     0
  9
$DIMSD1
 70
     0
  9
$DIMSD2
 70
     0
  9
$DIMTOLJ
 70
     1
  9
$DIMTZIN
 70
     0
  9
$DIMALTZ
 70
     0
  9
$DIMALTTZ
 70
     0
  9
$DIMUPT
 70
     0
  9
$DIMDEC
 70
     4
  9
$DIMTDEC
 70
     4
  9
$DIMALTU
 70
     2
  9
$DIMALTTD
 70
     2
  9
$DIMTXSTY
  7
Standard
  9
$DIMAUNIT
 70
     0
  9
$DIMADEC
 70
     0
  9
$DIMALTRND
 40
0.0
  9
$DIMAZIN
 70
     0
  9
$DIMDSEP
 70
    46
  9
$DIMATFIT
 70
     3
  9
$DIMFRAC
 70
     0
  9
$DIMLDRBLK
  1

  9
$DIMLUNIT
 70
     2
  9
$DIMLWD
 70
    -2
  9
$DIMLWE
 70
    -2
  9
$DIMTMOVE
 70
     0
  9
$LUNITS
 70
     2
  9
$LUPREC
 70
     4
  9
$SKETCHINC
 40
0.1
  9
$FILLETRAD
 40
0.5
  9
$AUNITS
 70
     0
  9
$AUPREC
 70
     0
  9
$MENU
  1
.
  9
$ELEVATION
 40
0.0
  9
$PELEVATION
 40
0.0
  9
$THICKNESS
 40
0.0
  9
$LIMCHECK
 70
     0
  9
$CHAMFERA
 40
0.5
  9
$CHAMFERB
 40
0.5
  9
$CHAMFERC
 40
1.0
  9
$CHAMFERD
 40
0.0
  9
$SKPOLY
 70
     0
  9
$TDCREATE
 40
2456891.549072014
  9
$TDUCREATE
 40
2456891.174072014
  9
$TDUPDATE
 40
2456891.549073276
  9
$TDUUPDATE
 40
2456891.174073276
  9
$TDINDWG
 40
0.0000000116
  9
$TDUSRTIMER
 40
0.0000000116
  9
$USRTIMER
 70
     1
  9
$ANGBASE
 50
0.0
  9
$ANGDIR
 70
     0
  9
$PDMODE
 70
     0
  9
$PDSIZE
 40
0.0
  9
$PLINEWID
 40
0.0
  9
$SPLFRAME
 70
     0
  9
$SPLINETYPE
 70
     6
  9
$SPLINESEGS
 70
     8
  9
$HANDSEED
  5
509
  9
$SURFTAB1
 70
     6
  9
$SURFTAB2
 70
     6
  9
$SURFTYPE
 70
     6
  9
$SURFU
 70
     6
  9
$SURFV
 70
     6
  9
$UCSBASE
  2

  9
$UCSNAME
  2

  9
$UCSORG
 10
0.0
 20
0.0
 30
0.0
  9
$UCSXDIR
 10
1.0
 20
0.0
 30
0.0
  9
$UCSYDIR
 10
0.0
 20
1.0
 30
0.0
  9
$UCSORTHOREF
  2

  9
$UCSORTHOVIEW
 70
     0
  9
$UCSORGTOP
 10
0.0
 20
0.0
 30
0.0
  9
$UCSORGBOTTOM
 10
0.0
 20
0.0
 30
0.0
  9
$UCSORGLEFT
 10
0.0
 20
0.0
 30
0.0
  9
$UCSORGRIGHT
 10
0.0
 20
0.0
 30
0.0
  9
$UCSORGFRONT
 10
0.0
 20
0.0
 30
0.0
  9
$UCSORGBACK
 10
0.0
 20
0.0
 30
0.0
  9
$PUCSBASE
  2

  9
$PUCSNAME
  2

  9
$PUCSORG
 10
0.0
 20
0.0
 30
0.0
  9
$PUCSXDIR
 10
1.0
 20
0.0
 30
0.0
  9
$PUCSYDIR
 10
0.0
 20
1.0
 30
0.0
  9
$PUCSORTHOREF
  2

  9
$PUCSORTHOVIEW
 70
     0
  9
$PUCSORGTOP
 10
0.0
 20
0.0
 30
0.0
  9
$PUCSORGBOTTOM
 10
0.0
 20
0.0
 30
0.0
  9
$PUCSORGLEFT
 10
0.0
 20
0.0
 30
0.0
  9
$PUCSORGRIGHT
 10
0.0
 20
0.0
 30
0.0
  9
$PUCSORGFRONT
 10
0.0
 20
0.0
 30
0.0
  9
$PUCSORGBACK
 10
0.0
 20
0.0
 30
0.0
  9
$USERI1
 70
     0
  9
$USERI2
 70
     0
  9
$USERI3
 70
     0
  9
$USERI4
 70
     0
  9
$USERI5
 70
     0
  9
$USERR1
 40
18.1
  9
$USERR2
 40
0.0
  9
$USERR3
 40
0.0
  9
$USERR4
 40
0.0
  9
$USERR5
 40
0.0
  9
$WORLDVIEW
 70
     1
  9
$SHADEDGE
 70
     3
  9
$SHADEDIF
 70
    70
  9
$TILEMODE
 70
     1
  9
$MAXACTVP
 70
    64
  9
$PINSBASE
 10
0.0
 20
0.0
 30
0.0
  9
$PLIMCHECK
 70
     0
  9
$PEXTMIN
 10
1.00000000000000E+20
 20
1.00000000000000E+20
 30
1.00000000000000E+20
  9
$PEXTMAX
 10
-1.00000000000000E+20
 20
-1.00000000000000E+20
 30
-1.00000000000000E+20
  9
$PLIMMIN
 10
0.0
 20
0.0
  9
$PLIMMAX
 10
12.0
 20
9.0
  9
$UNITMODE
 70
     0
  9
$VISRETAIN
 70
     1
  9
$PLINEGEN
 70
     0
  9
$PSLTSCALE
 70
     1
  9
$TREEDEPTH
 70
  3020
  9
$CMLSTYLE
  2
Standard
  9
$CMLJUST
 70
     0
  9
$CMLSCALE
 40
1.0
  9
$PROXYGRAPHICS
 70
     1
  9
$MEASUREMENT
 70
     1
  9
$CELWEIGHT
370
    -1
  9
$ENDCAPS
280
     0
  9
$JOINSTYLE
280
     0
  9
$LWDISPLAY
290
     0
  9
$INSUNITS
 70
     4
  9
$HYPERLINKBASE
  1

  9
$STYLESHEET
  1

  9
$XEDIT
290
     1
  9
$CEPSNTYPE
380
     0
  9
$PSTYLEMODE
290
     1
  9
$FINGERPRINTGUID
  2
{5B3E4F3E-034D-44A5-90A9-A60BC53815B0}
  9
$VERSIONGUID
  2
{FAEB1C32-E019-11D5-929B-00C0DF256EC4}
  9
$EXTNAMES
290
     1
  9
$PSVPSCALE
 40
0.0
  9
$OLESTARTUP
290
     0
  0
ENDSEC
  0
SECTION
  2
CLASSES
  0
CLASS
  1
ACDBDICTIONARYWDFLT
  2
AcDbDictionaryWithDefault
  3
ObjectDBX Classes
 90
        0
280
     0
281
     0
  0
CLASS
  1
VISUALSTYLE
  2
AcDbVisualStyle
  3
ObjectDBX Classes
 90
     4095
280
     0
281
     0
  0
CLASS
  1
MATERIAL
  2
AcDbMaterial
  3
ObjectDBX Classes
 90
     1153
280
     0
281
     0
  0
CLASS
  1
DICTIONARYVAR
  2
AcDbDictionaryVar
  3
ObjectDBX Classes
 90
        0
280
     0
281
     0
  0
CLASS
  1
ACDBPLACEHOLDER
  2
AcDbPlaceHolder
  3
ObjectDBX Classes
 90
        0
280
     0
281
     0
  0
CLASS
  1
LAYOUT
  2
AcDbLayout
  3
ObjectDBX Classes
 90
        0
280
     0
281
     0
  0
ENDSEC
  0
SECTION
  2
TABLES
  0
TABLE
  2
VPORT
  5
8
330
0
100
AcDbSymbolTable
 70
     1
  0
VPORT
  5
29
330
8
100
AcDbSymbolTableRecord
100
AcDbViewportTableRecord
  2
*Active
 70
     0
 10
0.0
 20
0.0
 11
1.0
 21
1.0
 12
525.0
 22
742.5
 13
0.0
 23
0.0
 14
0.5
 24
0.5
 15
0.5
 25
0.5
 16
0.0
 26
0.0
 36
1.0
 17
0.0
 27
0.0
 37
0.0
 40
1633.5
 41
1.60267857142857
 42
50.0
 43
0.0
 44
0.0
 50
0.0
 51
0.0
 71
     0
 72
   100
 73
     1
 74
     3
 75
     0
 76
     0
 77
     0
 78
     0
281
     0
 65
     1
110
0.0
120
0.0
130
0.0
111
1.0
121
0.0
131
0.0
112
0.0
122
1.0
132
0.0
 79
     0
146
0.0
  0
ENDTAB
  0
TABLE
  2
LTYPE
  5
5
330
0
100
AcDbSymbolTable
 70
     8
  0
LTYPE
  5
14
330
5
100
AcDbSymbolTableRecord
100
AcDbLinetypeTableRecord
  2
ByBlock
 70
     0
  3

 72
    65
 73
     0
 40
0.0
  0
LTYPE
  5
15
330
5
100
AcDbSymbolTableRecord
100
AcDbLinetypeTableRecord
  2
ByLayer
 70
     0
  3

 72
    65
 73
     0
 40
0.0
  0
LTYPE
  5
16
330
5
100
AcDbSymbolTableRecord
100
AcDbLinetypeTableRecord
  2
Continuous
 70
     0
  3
Solid line
 72
    65
 73
     0
 40
0.0
  0
LTYPE
  5
3F
330
5
100
AcDbSymbolTableRecord
100
AcDbLinetypeTableRecord
  2
DASHED
 70
     0
  3
Dashed
 72
    65
 73
     2
 40
15.0
 49
7.0
 74
     0
 49
-8.0
 74
     0
  0
LTYPE
  5
40
330
5
100
AcDbSymbolTableRecord
100
AcDbLinetypeTableRecord
  2
DOTTED
 70
     0
  3
Dotted
 72
    65
 73
     2
 40
1.0
 49
0.0
 74
     0
 49
-1.0
 74
     0
  0
LTYPE
  5
41
330
5
100
AcDbSymbolTableRecord
100
AcDbLinetypeTableRecord
  2
DOT_CENTER
 70
     0
  3
Dot_Center
 72
    65
 73
     4
 40
14.0
 49
12.0
 74
     0
 49
-1.0
 74
     0
 49
0.0
 74
     0
 49
-1.0
 74
     0
  0
LTYPE
  5
42
330
5
100
AcDbSymbolTableRecord
100
AcDbLinetypeTableRecord
  2
LONG_DASHED
 70
     0
  3
Long_Dashed
 72
    65
 73
     2
 40
15.0
 49
10.0
 74
     0
 49
-5.0
 74
     0
  0
LTYPE
  5
43
330
5
100
AcDbSymbolTableRecord
100
AcDbLinetypeTableRecord
  2
DASH_CENTER
 70
     0
  3
Dash_Center
 72
    65
 73
     4
 40
14.0
 49
11.0
 74
     0
 49
-1.0
 74
     0
 49
1.0
 74
     0
 49
-1.0
 74
     0
  0
LTYPE
  5
44
330
5
100
AcDbSymbolTableRecord
100
AcDbLinetypeTableRecord
  2
PHANTOM
 70
     0
  3
Phantom
 72
    65
 73
     6
 40
13.0
 49
10.0
 74
     0
 49
-1.0
 74
     0
 49
0.0
 74
     0
 49
-1.0
 74
     0
 49
0.0
 74
     0
 49
-1.0
 74
     0
  0
LTYPE
  5
45
330
5
100
AcDbSymbolTableRecord
100
AcDbLinetypeTableRecord
  2
CENTER_DASH_DASH
 70
     0
  3
Center_Dash_Dash
 72
    65
 73
     6
 40
14.0
 49
9.0
 74
     0
 49
-1.0
 74
     0
 49
1.0
 74
     0
 49
-1.0
 74
     0
 49
1.0
 74
     0
 49
-1.0
 74
     0
  0
ENDTAB
  0
TABLE
  2
LAYER
  5
2
330
0
100
AcDbSymbolTable
 70
     2
  0
LAYER
  5
10
330
2
100
AcDbSymbolTableRecord
100
AcDbLayerTableRecord
  2
0
 70
     0
 62
     7
  6
Continuous
370
    -3
390
F
  0
LAYER
  5
46
330
2
100
AcDbSymbolTableRecord
100
AcDbLayerTableRecord
  2
1
 70
     0
 62
     7
  6
Continuous
370
    -3
390
F
  0
ENDTAB
  0
TABLE
  2
STYLE
  5
3
330
0
100
AcDbSymbolTable
 70
     3
  0
STYLE
  5
11
330
3
100
AcDbSymbolTableRecord
100
AcDbTextStyleTableRecord
  2
Standard
 70
     0
 40
0.0
 41
1.0
 50
0.0
 71
     0
 42
0.2
  3
txt
  4

  0
STYLE
  5
25E
330
3
100
AcDbSymbolTableRecord
100
AcDbTextStyleTableRecord
  2
CONVERTER_11
 70
     0
 40
0.0
 41
0.89
 50
0.0
 71
     0
 42
0.2
  3
MS Mincho.ttf
  4

1001
ACAD
1000
MS Mincho
1071
    32785
  0
STYLE
  5
41E
330
3
100
AcDbSymbolTableRecord
100
AcDbTextStyleTableRecord
  2
CONVERTER_12
 70
     0
 40
0.0
 41
0.9
 50
0.0
 71
     0
 42
0.2
  3
txt.shx
  4

  0
ENDTAB
  0
TABLE
  2
VIEW
  5
6
330
0
100
AcDbSymbolTable
 70
     0
  0
ENDTAB
  0
TABLE
  2
UCS
  5
7
330
0
100
AcDbSymbolTable
 70
     0
  0
ENDTAB
  0
TABLE
  2
APPID
  5
9
330
0
100
AcDbSymbolTable
 70
     1
  0
APPID
  5
12
330
9
100
AcDbSymbolTableRecord
100
AcDbRegAppTableRecord
  2
ACAD
 70
     0
  0
ENDTAB
  0
TABLE
  2
DIMSTYLE
  5
A
330
0
100
AcDbSymbolTable
 70
    16
100
AcDbDimStyleTable
  0
DIMSTYLE
105
27
330
A
100
AcDbSymbolTableRecord
100
AcDbDimStyleTableRecord
  2
Standard
 70
     0
178
     0
340
11
  0
DIMSTYLE
105
437
102
{ACAD_REACTORS
330
438
102
}
330
A
100
AcDbSymbolTableRecord
100
AcDbDimStyleTableRecord
  2
ME10_DIM_10
 70
     0
 41
17.5
 42
0.0
 44
5.0
 73
     0
 74
     0
 77
     1
 78
     8
140
17.5
147
5.0
172
     1
173
     1
174
     1
175
     1
176
     2
177
     2
271
     2
178
     7
271
     2
340
41E
  0
DIMSTYLE
105
442
102
{ACAD_REACTORS
330
443
102
}
330
A
100
AcDbSymbolTableRecord
100
AcDbDimStyleTableRecord
  2
ME10_DIM_11
 70
     0
 41
17.5
 42
0.0
 44
5.0
 73
     0
 74
     0
 77
     1
 78
     8
140
17.5
147
5.0
172
     1
173
     1
174
     1
175
     1
176
     2
177
     2
271
     2
178
     7
271
     2
340
41E
  0
DIMSTYLE
105
44F
102
{ACAD_REACTORS
330
450
102
}
330
A
100
AcDbSymbolTableRecord
100
AcDbDimStyleTableRecord
  2
ME10_DIM_12
 70
     0
 41
17.5
 42
0.0
 44
5.0
 73
     0
 74
     0
 77
     1
 78
     8
140
17.5
147
5.0
172
     1
173
     1
174
     1
175
     1
176
     2
177
     2
271
     2
178
     7
271
     2
340
41E
  0
DIMSTYLE
105
45A
102
{ACAD_REACTORS
330
45B
102
}
330
A
100
AcDbSymbolTableRecord
100
AcDbDimStyleTableRecord
  2
ME10_DIM_13
 70
     0
  3
最大<>
 41
17.5
 42
0.0
 44
5.0
 73
     0
 74
     0
 77
     1
 78
     8
140
17.5
147
5.0
172
     1
173
     1
174
     1
175
     1
176
     2
177
     2
271
     2
178
     7
271
     2
340
25E
  0
DIMSTYLE
105
465
102
{ACAD_REACTORS
330
466
102
}
330
A
100
AcDbSymbolTableRecord
100
AcDbDimStyleTableRecord
  2
ME10_DIM_14
 70
     0
  3
最小<>
 41
17.5
 42
0.0
 44
5.0
 73
     0
 74
     0
 77
     1
 78
     8
140
17.5
147
5.0
172
     1
173
     1
174
     1
175
     1
176
     2
177
     2
271
     2
178
     7
271
     2
340
25E
  0
DIMSTYLE
105
470
102
{ACAD_REACTORS
330
471
102
}
330
A
100
AcDbSymbolTableRecord
100
AcDbDimStyleTableRecord
  2
ME10_DIM_15
 70
     0
 41
17.5
 42
0.0
 44
5.0
 73
     0
 74
     0
 77
     1
 78
     8
140
17.5
147
5.0
172
     1
173
     1
174
     1
175
     1
176
     2
177
     2
271
     2
178
     7
271
     2
340
41E
  0
DIMSTYLE
105
47B
102
{ACAD_REACTORS
330
47C
102
}
330
A
100
AcDbSymbolTableRecord
100
AcDbDimStyleTableRecord
  2
ME10_DIM_16
 70
     0
 41
17.5
 42
0.0
 44
5.0
 73
     0
 74
     0
 77
     1
 78
     8
140
17.5
147
5.0
172
     1
173
     1
174
     1
175
     1
176
     2
177
     2
271
     2
178
     7
271
     2
340
41E
  0
DIMSTYLE
105
486
102
{ACAD_REACTORS
330
487
102
}
330
A
100
AcDbSymbolTableRecord
100
AcDbDimStyleTableRecord
  2
ME10_DIM_17
 70
     0
 41
17.5
 42
0.0
 44
5.0
 73
     0
 74
     0
 77
     1
 78
     8
140
17.5
147
5.0
172
     1
173
     1
174
     1
175
     1
176
     2
177
     2
271
     2
178
     7
271
     2
340
41E
  0
DIMSTYLE
105
491
102
{ACAD_REACTORS
330
492
102
}
330
A
100
AcDbSymbolTableRecord
100
AcDbDimStyleTableRecord
  2
ME10_DIM_18
 70
     0
 41
17.5
 42
0.0
 44
5.0
 73
     0
 74
     0
 77
     1
 78
     8
140
17.5
147
5.0
172
     1
173
     1
174
     1
175
     1
176
     2
177
     2
271
     2
178
     7
271
     2
340
41E
  0
DIMSTYLE
105
49C
102
{ACAD_REACTORS
330
49D
102
}
330
A
100
AcDbSymbolTableRecord
100
AcDbDimStyleTableRecord
  2
ME10_DIM_19
 70
     0
 41
17.5
 42
0.0
 44
5.0
 73
     0
 74
     0
 77
     1
 78
     8
140
17.5
147
5.0
172
     1
173
     1
174
     1
175
     1
176
     2
177
     2
271
     2
178
     7
271
     2
340
41E
  0
DIMSTYLE
105
4A9
102
{ACAD_REACTORS
330
4AA
102
}
330
A
100
AcDbSymbolTableRecord
100
AcDbDimStyleTableRecord
  2
ME10_DIM_20
 70
     0
 41
17.5
 42
0.0
 44
5.0
 73
     0
 74
     0
 77
     1
 78
     8
140
17.5
147
5.0
172
     1
173
     1
174
     1
175
     1
176
     2
177
     2
271
     2
178
     7
271
     2
340
25E
  0
DIMSTYLE
105
4B6
102
{ACAD_REACTORS
330
4B7
102
}
330
A
100
AcDbSymbolTableRecord
100
AcDbDimStyleTableRecord
  2
ME10_DIM_21
 70
     0
  3
最大<>
 41
17.5
 42
0.0
 44
5.0
 73
     0
 74
     0
 77
     1
 78
     8
140
17.5
147
5.0
172
     1
173
     1
174
     1
175
     1
176
     2
177
     2
271
     2
178
     7
271
     2
340
25E
  0
DIMSTYLE
105
4C1
102
{ACAD_REACTORS
330
4C2
102
}
330
A
100
AcDbSymbolTableRecord
100
AcDbDimStyleTableRecord
  2
ME10_DIM_22
 70
     0
 41
17.5
 42
0.0
 44
5.0
 73
     0
 74
     0
 77
     1
 78
     8
140
17.5
147
5.0
172
     1
173
     1
174
     1
175
     1
176
     2
177
     2
271
     2
178
     7
271
     2
340
41E
  0
DIMSTYLE
105
4CC
102
{ACAD_REACTORS
330
4CD
102
}
330
A
100
AcDbSymbolTableRecord
100
AcDbDimStyleTableRecord
  2
ME10_DIM_23
 70
     0
 41
17.5
 42
0.0
 44
5.0
 73
     0
 74
     0
 77
     1
 78
     8
140
17.5
147
5.0
172
     1
173
     1
174
     1
175
     1
176
     2
177
     2
271
     2
178
     7
271
     2
340
41E
  0
DIMSTYLE
105
4D7
102
{ACAD_REACTORS
330
4D8
102
}
330
A
100
AcDbSymbolTableRecord
100
AcDbDimStyleTableRecord
  2
ME10_DIM_24
 70
     0
 41
17.5
 42
0.0
 44
5.0
 73
     0
 74
     0
 77
     1
 78
     8
140
17.5
147
5.0
172
     1
173
     1
174
     1
175
     1
176
     2
177
     2
271
     2
178
     7
271
     2
340
41E
  0
ENDTAB
  0
TABLE
  2
BLOCK_RECORD
  5
1
330
0
100
AcDbSymbolTable
 70
    39
  0
BLOCK_RECORD
  5
1F
330
1
100
AcDbSymbolTableRecord
100
AcDbBlockTableRecord
  2
*Model_Space
340
22
  0
BLOCK_RECORD
  5
1B
330
1
100
AcDbSymbolTableRecord
100
AcDbBlockTableRecord
  2
*Paper_Space
340
1E
  0
BLOCK_RECORD
  5
23
330
1
100
AcDbSymbolTableRecord
100
AcDbBlockTableRecord
  2
*Paper_Space0
340
26
  0
BLOCK_RECORD
  5
47
330
1
100
AcDbSymbolTableRecord
100
AcDbBlockTableRecord
  2
32-16__1
340
0
102
{BLKREFS
331
91
102
}
  0
BLOCK_RECORD
  5
4A
330
1
100
AcDbSymbolTableRecord
100
AcDbBlockTableRecord
  2
73-1-21_5__2
340
0
102
{BLKREFS
331
92
102
}
  0
BLOCK_RECORD
  5
4D
330
1
100
AcDbSymbolTableRecord
100
AcDbBlockTableRecord
  2
32-16__3
340
0
102
{BLKREFS
331
93
102
}
  0
BLOCK_RECORD
  5
50
330
1
100
AcDbSymbolTableRecord
100
AcDbBlockTableRecord
  2
92-53A__4
340
0
102
{BLKREFS
331
94
102
}
  0
BLOCK_RECORD
  5
53
330
1
100
AcDbSymbolTableRecord
100
AcDbBlockTableRecord
  2
32-25__5
340
0
102
{BLKREFS
331
95
102
}
  0
BLOCK_RECORD
  5
56
330
1
100
AcDbSymbolTableRecord
100
AcDbBlockTableRecord
  2
73-1-21_5__6
340
0
102
{BLKREFS
331
96
102
}
  0
BLOCK_RECORD
  5
59
330
1
100
AcDbSymbolTableRecord
100
AcDbBlockTableRecord
  2
32-25__7
340
0
102
{BLKREFS
331
97
102
}
  0
BLOCK_RECORD
  5
5C
330
1
100
AcDbSymbolTableRecord
100
AcDbBlockTableRecord
  2
92-53A__8
340
0
102
{BLKREFS
331
98
102
}
  0
BLOCK_RECORD
  5
5F
330
1
100
AcDbSymbolTableRecord
100
AcDbBlockTableRecord
  2
35-276__9
340
0
102
{BLKREFS
331
99
102
}
  0
BLOCK_RECORD
  5
62
330
1
100
AcDbSymbolTableRecord
100
AcDbBlockTableRecord
  2
35-276__10
340
0
102
{BLKREFS
331
9A
102
}
  0
BLOCK_RECORD
  5
65
330
1
100
AcDbSymbolTableRecord
100
AcDbBlockTableRecord
  2
98-119A
340
0
102
{BLKREFS
331
9B
102
}
  0
BLOCK_RECORD
  5
68
330
1
100
AcDbSymbolTableRecord
100
AcDbBlockTableRecord
  2
50-13
340
0
102
{BLKREFS
331
9C
102
}
  0
BLOCK_RECORD
  5
6B
330
1
100
AcDbSymbolTableRecord
100
AcDbBlockTableRecord
  2
開示A4
340
0
102
{BLKREFS
331
9D
102
}
  0
BLOCK_RECORD
  5
6E
330
1
100
AcDbSymbolTableRecord
100
AcDbBlockTableRecord
  2
88-546A-M21
340
0
102
{BLKREFS
331
9E
102
}
  0
BLOCK_RECORD
  5
71
330
1
100
AcDbSymbolTableRecord
100
AcDbBlockTableRecord
  2
84-360A-M22
340
0
102
{BLKREFS
331
75
102
}
  0
BLOCK_RECORD
  5
74
330
1
100
AcDbSymbolTableRecord
100
AcDbBlockTableRecord
  2
87-163A-M21
340
0
102
{BLKREFS
331
9F
102
}
  0
BLOCK_RECORD
  5
78
330
1
100
AcDbSymbolTableRecord
100
AcDbBlockTableRecord
  2
30-252A-C2__11
340
0
102
{BLKREFS
331
7C
102
}
  0
BLOCK_RECORD
  5
7B
330
1
100
AcDbSymbolTableRecord
100
AcDbBlockTableRecord
  2
V872FE__12
340
0
102
{BLKREFS
331
A0
102
}
  0
BLOCK_RECORD
  5
7F
330
1
100
AcDbSymbolTableRecord
100
AcDbBlockTableRecord
  2
30-252A-C2__13
340
0
102
{BLKREFS
331
83
102
}
  0
BLOCK_RECORD
  5
82
330
1
100
AcDbSymbolTableRecord
100
AcDbBlockTableRecord
  2
V872FE__14
340
0
102
{BLKREFS
331
A1
102
}
  0
BLOCK_RECORD
  5
86
330
1
100
AcDbSymbolTableRecord
100
AcDbBlockTableRecord
  2
61-115
340
0
102
{BLKREFS
331
8D
102
}
  0
BLOCK_RECORD
  5
89
330
1
100
AcDbSymbolTableRecord
100
AcDbBlockTableRecord
  2
82-20-M21
340
0
102
{BLKREFS
331
8E
102
}
  0
BLOCK_RECORD
  5
8C
330
1
100
AcDbSymbolTableRecord
100
AcDbBlockTableRecord
  2
61-115AX
340
0
102
{BLKREFS
331
A2
102
}
  0
BLOCK_RECORD
  5
42E
330
1
100
AcDbSymbolTableRecord
100
AcDbBlockTableRecord
  2
*D24
340
0
  0
BLOCK_RECORD
  5
439
330
1
100
AcDbSymbolTableRecord
100
AcDbBlockTableRecord
  2
*D25
340
0
  0
BLOCK_RECORD
  5
444
330
1
100
AcDbSymbolTableRecord
100
AcDbBlockTableRecord
  2
*D26
340
0
  0
BLOCK_RECORD
  5
451
330
1
100
AcDbSymbolTableRecord
100
AcDbBlockTableRecord
  2
*D27
340
0
  0
BLOCK_RECORD
  5
45C
330
1
100
AcDbSymbolTableRecord
100
AcDbBlockTableRecord
  2
*D28
340
0
  0
BLOCK_RECORD
  5
467
330
1
100
AcDbSymbolTableRecord
100
AcDbBlockTableRecord
  2
*D29
340
0
  0
BLOCK_RECORD
  5
472
330
1
100
AcDbSymbolTableRecord
100
AcDbBlockTableRecord
  2
*D30
340
0
  0
BLOCK_RECORD
  5
47D
330
1
100
AcDbSymbolTableRecord
100
AcDbBlockTableRecord
  2
*D31
340
0
  0
BLOCK_RECORD
  5
488
330
1
100
AcDbSymbolTableRecord
100
AcDbBlockTableRecord
  2
*D32
340
0
  0
BLOCK_RECORD
  5
493
330
1
100
AcDbSymbolTableRecord
100
AcDbBlockTableRecord
  2
*D33
340
0
  0
BLOCK_RECORD
  5
49E
330
1
100
AcDbSymbolTableRecord
100
AcDbBlockTableRecord
  2
*D34
340
0
  0
BLOCK_RECORD
  5
4AB
330
1
100
AcDbSymbolTableRecord
100
AcDbBlockTableRecord
  2
*D35
340
0
  0
BLOCK_RECORD
  5
4B8
330
1
100
AcDbSymbolTableRecord
100
AcDbBlockTableRecord
  2
*D36
340
0
  0
BLOCK_RECORD
  5
4C3
330
1
100
AcDbSymbolTableRecord
100
AcDbBlockTableRecord
  2
*D37
340
0
  0
BLOCK_RECORD
  5
4CE
330
1
100
AcDbSymbolTableRecord
100
AcDbBlockTableRecord
  2
*D38
340
0
  0
ENDTAB
  0
ENDSEC
  0
SECTION
  2
BLOCKS
  0
BLOCK
  5
20
330
1F
100
AcDbEntity
  8
0
100
AcDbBlockBegin
  2
*Model_Space
 70
     0
 10
0.0
 20
0.0
 30
0.0
  3
*Model_Space
  1

  0
ENDBLK
  5
21
330
1F
100
AcDbEntity
  8
0
100
AcDbBlockEnd
  0
BLOCK
  5
1C
330
1B
100
AcDbEntity
 67
     1
  8
0
100
AcDbBlockBegin
  2
*Paper_Space
 70
     0
 10
0.0
 20
0.0
 30
0.0
  3
*Paper_Space
  1

  0
ENDBLK
  5
1D
330
1B
100
AcDbEntity
 67
     1
  8
0
100
AcDbBlockEnd
  0
BLOCK
  5
24
330
23
100
AcDbEntity
  8
0
100
AcDbBlockBegin
  2
*Paper_Space0
 70
     0
 10
0.0
 20
0.0
 30
0.0
  3
*Paper_Space0
  1

  0
ENDBLK
  5
25
330
23
100
AcDbEntity
  8
0
100
AcDbBlockEnd
  0
BLOCK
  5
48
330
47
100
AcDbEntity
  8
0
100
AcDbBlockBegin
  2
32-16__1
 70
     0
 10
363.2403665383586
 20
398.9408893859726
 30
0.0
  3
32-16__1
  1

  0
LINE
  5
A3
330
47
100
AcDbEntity
  8
1
  6
Continuous
 62
     7
100
AcDbLine
 10
412.3591617417283
 20
394.7043851838641
 30
0.0
 11
412.3591617417283
 21
406.5681943277136
 31
0.0
  0
LINE
  5
A4
330
47
100
AcDbEntity
  8
1
  6
Continuous
 62
     7
100
AcDbLine
 10
426.2155682022794
 20
406.5681943277136
 30
0.0
 11
426.2155682022794
 21
394.7043851838641
 31
0.0
  0
LINE
  5
A5
330
47
100
AcDbEntity
  8
1
  6
Continuous
 62
     7
100
AcDbLine
 10
429.5880682022793
 20
407.6362897557892
 30
0.0
 11
419.2873649720037
 21
407.6362897557892
 31
0.0
  0
LINE
  5
A6
330
47
100
AcDbEntity
  8
1
  6
Continuous
 62
     7
100
AcDbLine
 10
429.7648649720039
 20
407.6362897557892
 30
0.0
 11
429.5880682022793
 21
407.6362897557892
 31
0.0
  0
LINE
  5
A7
330
47
100
AcDbEntity
  8
1
  6
Continuous
 62
     7
100
AcDbLine
 10
408.8098649720035
 20
407.6362897557892
 30
0.0
 11
407.2873605207623
 21
407.6362897557892
 31
0.0
  0
LINE
  5
A8
330
47
100
AcDbEntity
  8
1
  6
Continuous
 62
     7
100
AcDbLine
 10
408.9866617417284
 20
407.6362897557892
 30
0.0
 11
408.8098649720035
 21
407.6362897557892
 31
0.0
  0
LINE
  5
A9
330
47
100
AcDbEntity
  8
1
  6
Continuous
 62
     7
100
AcDbLine
 10
419.2873649720037
 20
407.6362897557892
 30
0.0
 11
408.9866617417284
 21
407.6362897557892
 31
0.0
  0
LINE
  5
AA
330
47
100
AcDbEntity
  8
1
  6
Continuous
 62
     7
100
AcDbLine
 10
429.6764665871415
 20
393.6362897557892
 30
0.0
 11
431.2873694232454
 21
393.6362897557892
 31
0.0
  0
LINE
  5
AB
330
47
100
AcDbEntity
  8
1
  6
Continuous
 62
     7
100
AcDbLine
 10
419.2873649720037
 20
393.6362897557892
 30
0.0
 11
429.6764665871415
 21
393.6362897557892
 31
0.0
  0
LINE
  5
AC
330
47
100
AcDbEntity
  8
1
  6
Continuous
 62
     7
100
AcDbLine
 10
408.898263356866
 20
393.6362897557892
 30
0.0
 11
419.2873649720037
 21
393.6362897557892
 31
0.0
  0
LINE
  5
AD
330
47
100
AcDbEntity
  8
1
  6
Continuous
 62
     7
100
AcDbLine
 10
406.2353277405584
 20
394.2436811646361
 30
0.0
 11
405.4373649720038
 21
394.7043851838641
 31
0.0
  0
LINE
  5
AE
330
47
100
AcDbEntity
  8
1
  6
Continuous
 62
     7
100
AcDbLine
 10
406.2384956972804
 20
407.0307273676083
 30
0.0
 11
407.2873605207623
 21
407.6362897557892
 31
0.0
  0
LINE
  5
AF
330
47
100
AcDbEntity
  8
1
  6
Continuous
 62
     7
100
AcDbLine
 10
432.336234246727
 20
407.0307273676082
 30
0.0
 11
433.1373649720036
 21
406.5681943277136
 31
0.0
  0
LINE
  5
B0
330
47
100
AcDbEntity
  8
1
  6
Continuous
 62
     7
100
AcDbLine
 10
432.3394022034491
 20
394.2436811646361
 30
0.0
 11
431.2873694232454
 21
393.6362897557892
 31
0.0
  0
LINE
  5
B1
330
47
100
AcDbEntity
  8
1
  6
Continuous
 62
     7
100
AcDbLine
 10
431.2873694232454
 20
407.6362897557892
 30
0.0
 11
429.7648649720039
 21
407.6362897557892
 31
0.0
  0
LINE
  5
B2
330
47
100
AcDbEntity
  8
1
  6
Continuous
 62
     7
100
AcDbLine
 10
407.2873605207623
 20
393.6362897557892
 30
0.0
 11
408.898263356866
 21
393.6362897557892
 31
0.0
  0
LINE
  5
B3
330
47
100
AcDbEntity
  8
1
  6
Continuous
 62
     7
100
AcDbLine
 10
407.2873605207623
 20
393.6362897557892
 30
0.0
 11
406.2353277405584
 21
394.2436811646361
 31
0.0
  0
LINE
  5
B4
330
47
100
AcDbEntity
  8
1
  6
Continuous
 62
     7
100
AcDbLine
 10
405.4373649720038
 20
406.5681943277136
 30
0.0
 11
406.2384956972804
 21
407.0307273676083
 31
0.0
  0
LINE
  5
B5
330
47
100
AcDbEntity
  8
1
  6
Continuous
 62
     7
100
AcDbLine
 10
405.4373649720038
 20
394.7043851838641
 30
0.0
 11
405.4373649720038
 21
406.5681943277136
 31
0.0
  0
LINE
  5
B6
330
47
100
AcDbEntity
  8
1
  6
Continuous
 62
     7
100
AcDbLine
 10
433.1373649720036
 20
406.5681943277136
 30
0.0
 11
433.1373649720036
 21
394.7043851838641
 31
0.0
  0
LINE
  5
B7
330
47
100
AcDbEntity
  8
1
  6
Continuous
 62
     7
100
AcDbLine
 10
431.2873694232454
 20
407.6362897557892
 30
0.0
 11
432.336234246727
 21
407.0307273676082
 31
0.0
  0
LINE
  5
B8
330
47
100
AcDbEntity
  8
1
  6
Continuous
 62
     7
100
AcDbLine
 10
433.1373649720036
 20
394.7043851838641
 30
0.0
 11
432.3394022034491
 21
394.2436811646361
 31
0.0
  0
LINE
  5
B9
330
47
100
AcDbEntity
  8
1
  6
Continuous
 62
     7
100
AcDbLine
 10
808.2648649720041
 20
406.1362897557891
 30
0.0
 11
808.0880682022799
 21
406.1362897557891
 31
0.0
  0
LINE
  5
BA
330
47
100
AcDbEntity
  8
1
  6
Continuous
 62
     7
100
AcDbLine
 10
787.3098649720038
 20
406.1362897557891
 30
0.0
 11
785.7873605207627
 21
406.1362897557891
 31
0.0
  0
LINE
  5
BB
330
47
100
AcDbEntity
  8
1
  6
Continuous
 62
     7
100
AcDbLine
 10
787.4866617417289
 20
406.1362897557891
 30
0.0
 11
787.3098649720038
 21
406.1362897557891
 31
0.0
  0
LINE
  5
BC
330
47
100
AcDbEntity
  8
1
  6
Continuous
 62
     7
100
AcDbLine
 10
787.4866617417289
 20
406.1362897557891
 30
0.0
 11
808.0880682022799
 21
406.1362897557891
 31
0.0
  0
LINE
  5
BD
330
47
100
AcDbEntity
  8
1
  6
Continuous
 62
     7
100
AcDbLine
 10
809.7873694232454
 20
406.1362897557891
 30
0.0
 11
808.2648649720041
 21
406.1362897557891
 31
0.0
  0
LINE
  5
BE
330
47
100
AcDbEntity
  8
1
  6
Continuous
 62
     7
100
AcDbLine
 10
785.7873605207627
 20
392.1362897557891
 30
0.0
 11
809.7873694232454
 21
392.1362897557891
 31
0.0
  0
LINE
  5
BF
330
47
100
AcDbEntity
  8
1
  6
Continuous
 62
     7
100
AcDbLine
 10
809.7873694232454
 20
406.1362897557891
 30
0.0
 11
809.7873694232454
 21
392.1362897557891
 31
0.0
  0
LINE
  5
C0
330
47
100
AcDbEntity
  8
1
  6
Continuous
 62
     7
100
AcDbLine
 10
785.7873605207627
 20
406.1362897557891
 30
0.0
 11
785.7873605207627
 21
405.0681943277135
 31
0.0
  0
LINE
  5
C1
330
47
100
AcDbEntity
  8
1
  6
Continuous
 62
     7
100
AcDbLine
 10
785.7873605207627
 20
393.2043851838641
 30
0.0
 11
785.7873605207627
 21
392.1362897557891
 31
0.0
  0
LINE
  5
C2
330
47
100
AcDbEntity
  8
1
  6
Continuous
 62
     7
100
AcDbLine
 10
785.7873605207627
 20
405.0681943277135
 30
0.0
 11
785.7873605207627
 21
393.2043851838641
 31
0.0
  0
LINE
  5
C3
330
47
100
AcDbEntity
  8
1
  6
Continuous
 62
     7
100
AcDbLine
 10
797.7873649720042
 20
405.0681943277135
 30
0.0
 11
797.7873649720042
 21
393.2043851838641
 31
0.0
  0
ARC
  5
C4
330
47
100
AcDbEntity
  8
1
  6
Continuous
 62
     7
100
AcDbCircle
 10
429.6764665871415
 20
401.4988085650884
 30
0.0
 40
6.138117760409365
100
AcDbArc
 50
89.17482367373994
 51
90.82517632625742
  0
ARC
  5
C5
330
47
100
AcDbEntity
  8
1
  6
Continuous
 62
     7
100
AcDbCircle
 10
429.6764665871415
 20
401.4988085650884
 30
0.0
 40
6.138117760409086
100
AcDbArc
 50
64.32157487155305
 51
89.17482367373994
  0
ARC
  5
C6
330
47
100
AcDbEntity
  8
1
  6
Continuous
 62
     7
100
AcDbCircle
 10
408.898263356866
 20
401.4988085650884
 30
0.0
 40
6.138117760409365
100
AcDbArc
 50
89.17482367373994
 51
90.8251763262606
  0
ARC
  5
C7
330
47
100
AcDbEntity
  8
1
  6
Continuous
 62
     7
100
AcDbCircle
 10
408.898263356866
 20
401.4988085650884
 30
0.0
 40
6.13811776040915
100
AcDbArc
 50
55.67842512844614
 51
89.17482367373994
  0
ARC
  5
C8
330
47
100
AcDbEntity
  8
1
  6
Continuous
 62
     7
100
AcDbCircle
 10
419.2873649720037
 20
384.6323396630403
 30
0.0
 40
23.00395009274874
100
AcDbArc
 50
72.47183986366414
 51
90.0
  0
ARC
  5
C9
330
47
100
AcDbEntity
  8
1
  6
Continuous
 62
     7
100
AcDbCircle
 10
429.6764665871415
 20
399.7774289878221
 30
0.0
 40
6.141139232033206
100
AcDbArc
 50
235.6976682683425
 51
270.0
  0
ARC
  5
CA
330
47
100
AcDbEntity
  8
1
  6
Continuous
 62
     7
100
AcDbCircle
 10
419.2873649720037
 20
416.6402398485375
 30
0.0
 40
23.00395009274867
100
AcDbArc
 50
252.4718398636651
 51
270.0
  0
ARC
  5
CB
330
47
100
AcDbEntity
  8
1
  6
Continuous
 62
     7
100
AcDbCircle
 10
408.898263356866
 20
399.7774289878221
 30
0.0
 40
6.141139232033033
100
AcDbArc
 50
244.3023317316592
 51
270.0
  0
ARC
  5
CC
330
47
100
AcDbEntity
  8
1
  6
Continuous
 62
     7
100
AcDbCircle
 10
408.898263356866
 20
401.4988085650884
 30
0.0
 40
6.138117760409366
100
AcDbArc
 50
90.8251763262606
 51
115.6784251284472
  0
ARC
  5
CD
330
47
100
AcDbEntity
  8
1
  6
Continuous
 62
     7
100
AcDbCircle
 10
429.6764665871415
 20
399.7774289878221
 30
0.0
 40
6.141139232032856
100
AcDbArc
 50
270.0
 51
295.6976682683408
  0
ARC
  5
CE
330
47
100
AcDbEntity
  8
1
  6
Continuous
 62
     7
100
AcDbCircle
 10
429.6764665871415
 20
401.4988085650884
 30
0.0
 40
6.138117760409362
100
AcDbArc
 50
90.82517632625742
 51
124.3215748715517
  0
ARC
  5
CF
330
47
100
AcDbEntity
  8
1
  6
Continuous
 62
     7
100
AcDbCircle
 10
419.2873649720037
 20
416.6402398485375
 30
0.0
 40
23.00395009274825
100
AcDbArc
 50
270.0
 51
287.5281601363358
  0
ARC
  5
D0
330
47
100
AcDbEntity
  8
1
  6
Continuous
 62
     7
100
AcDbCircle
 10
408.898263356866
 20
399.7774289878221
 30
0.0
 40
6.141139232032856
100
AcDbArc
 50
270.0
 51
304.3023317316597
  0
ARC
  5
D1
330
47
100
AcDbEntity
  8
1
  6
Continuous
 62
     7
100
AcDbCircle
 10
419.2873649720037
 20
384.6323396630403
 30
0.0
 40
23.00395009274894
100
AcDbArc
 50
90.0
 51
107.5281601363349
  0
ARC
  5
D2
330
47
100
AcDbEntity
  8
1
  6
Continuous
 62
     7
100
AcDbCircle
 10
808.176466587142
 20
399.9988085650883
 30
0.0
 40
6.138117760409303
100
AcDbArc
 50
89.1748236737431
 51
90.82517632625688
  0
ARC
  5
D3
330
47
100
AcDbEntity
  8
1
  6
Continuous
 62
     7
100
AcDbCircle
 10
787.3982633568666
 20
399.9988085650883
 30
0.0
 40
6.138117760409306
100
AcDbArc
 50
89.17482367374099
 51
90.82517632626326
  0
ARC
  5
D4
330
47
100
AcDbEntity
  8
1
  6
Continuous
 62
     7
100
AcDbCircle
 10
803.7873649720042
 20
388.7498152577201
 30
0.0
 40
17.38647449806885
100
AcDbArc
 50
69.81235377089692
 51
110.1876462291031
  0
ARC
  5
D5
330
47
100
AcDbEntity
  8
1
  6
Continuous
 62
     7
100
AcDbCircle
 10
803.7873649720042
 20
409.5227642538574
 30
0.0
 40
17.3864744980688
100
AcDbArc
 50
249.8123537708969
 51
290.1876462291032
  0
ARC
  5
D6
330
47
100
AcDbEntity
  8
1
  6
Continuous
 62
     7
100
AcDbCircle
 10
791.7873627463833
 20
409.5227767562321
 30
0.0
 40
17.38648700044329
100
AcDbArc
 50
249.8123611052578
 51
290.1876388947429
  0
ARC
  5
D7
330
47
100
AcDbEntity
  8
1
  6
Continuous
 62
     7
100
AcDbCircle
 10
791.7873627463833
 20
388.7498027553455
 30
0.0
 40
17.38648700044336
100
AcDbArc
 50
69.81236110525704
 51
110.1876388947423
  0
ENDBLK
  5
49
330
47
100
AcDbEntity
  8
0
100
AcDbBlockEnd
  0
BLOCK
  5
4B
330
4A
100
AcDbEntity
  8
0
100
AcDbBlockBegin
  2
73-1-21_5__2
 70
     0
 10
325.0121835635438
 20
506.523418291331
 30
0.0
  3
73-1-21_5__2
  1

  0
LINE
  5
D8
330
4A
100
AcDbEntity
  8
1
  6
Continuous
 62
     7
100
AcDbLine
 10
397.7873649720037
 20
488.6362897557895
 30
0.0
 11
397.7873649720037
 21
487.6362897557893
 31
0.0
  0
LINE
  5
D9
330
4A
100
AcDbEntity
  8
1
  6
Continuous
 62
     7
100
AcDbLine
 10
397.7873649720037
 20
487.6362897557893
 30
0.0
 11
401.0241979651527
 21
487.6362897557893
 31
0.0
  0
LINE
  5
DA
330
4A
100
AcDbEntity
  8
1
  6
Continuous
 62
     7
100
AcDbLine
 10
407.5625463804636
 20
486.1362897557893
 30
0.0
 11
410.3580295361284
 21
486.1362897557893
 31
0.0
  0
LINE
  5
DB
330
4A
100
AcDbEntity
  8
1
  6
Continuous
 62
     7
100
AcDbLine
 10
411.2240549399128
 20
486.1362897557893
 30
0.0
 11
418.7873649636841
 21
486.1362897557893
 31
0.0
  0
LINE
  5
DC
330
4A
100
AcDbEntity
  8
1
  6
Continuous
 62
     7
100
AcDbLine
 10
419.2873649720037
 20
488.6362897557893
 30
0.0
 11
397.7873649720037
 21
488.6362897557895
 31
0.0
  0
LINE
  5
DD
330
4A
100
AcDbEntity
  8
1
  6
Continuous
 62
     7
100
AcDbLine
 10
440.787364972004
 20
488.6362897557895
 30
0.0
 11
419.2873649720037
 21
488.6362897557893
 31
0.0
  0
LINE
  5
DE
330
4A
100
AcDbEntity
  8
1
  6
Continuous
 62
     7
100
AcDbLine
 10
419.7873649803236
 20
486.1362897557893
 30
0.0
 11
427.350675004095
 21
486.1362897557893
 31
0.0
  0
LINE
  5
DF
330
4A
100
AcDbEntity
  8
1
  6
Continuous
 62
     7
100
AcDbLine
 10
428.2167004078793
 20
486.1362897557893
 30
0.0
 11
431.0121835635442
 21
486.1362897557893
 31
0.0
  0
LINE
  5
E0
330
4A
100
AcDbEntity
  8
1
  6
Continuous
 62
     7
100
AcDbLine
 10
437.5505319788551
 20
487.6362897557893
 30
0.0
 11
440.787364972004
 21
487.6362897557893
 31
0.0
  0
LINE
  5
E1
330
4A
100
AcDbEntity
  8
1
  6
Continuous
 62
     7
100
AcDbLine
 10
440.787364972004
 20
487.6362897557893
 30
0.0
 11
440.787364972004
 21
488.6362897557895
 31
0.0
  0
LINE
  5
E2
330
4A
100
AcDbEntity
  8
1
  6
Continuous
 62
     7
100
AcDbLine
 10
401.0241979651527
 20
487.6362897557893
 30
0.0
 11
406.9181967407126
 21
487.6362897557893
 31
0.0
  0
LINE
  5
E3
330
4A
100
AcDbEntity
  8
1
  6
Continuous
 62
     7
100
AcDbLine
 10
407.6253035218991
 20
487.6362897557893
 30
0.0
 11
414.4063817850745
 21
487.6362897557893
 31
0.0
  0
LINE
  5
E4
330
4A
100
AcDbEntity
  8
1
  6
Continuous
 62
     7
100
AcDbLine
 10
415.3723076113636
 20
487.6362897557893
 30
0.0
 11
423.2024223326441
 21
487.6362897557893
 31
0.0
  0
LINE
  5
E5
330
4A
100
AcDbEntity
  8
1
  6
Continuous
 62
     7
100
AcDbLine
 10
424.1683481589333
 20
487.6362897557893
 30
0.0
 11
430.9494264221087
 21
487.6362897557893
 31
0.0
  0
LINE
  5
E6
330
4A
100
AcDbEntity
  8
1
  6
Continuous
 62
     7
100
AcDbLine
 10
431.6565332032952
 20
487.6362897557893
 30
0.0
 11
437.5505319788551
 21
487.6362897557893
 31
0.0
  0
LINE
  5
E7
330
4A
100
AcDbEntity
  8
1
  6
Continuous
 62
     7
100
AcDbLine
 10
776.2873649720042
 20
488.6362897557895
 30
0.0
 11
776.2873649720042
 21
487.6362897557893
 31
0.0
  0
LINE
  5
E8
330
4A
100
AcDbEntity
  8
1
  6
Continuous
 62
     7
100
AcDbLine
 10
776.2873649720042
 20
487.6362897557893
 30
0.0
 11
779.5241979651533
 21
487.6362897557893
 31
0.0
  0
LINE
  5
E9
330
4A
100
AcDbEntity
  8
1
  6
Continuous
 62
     7
100
AcDbLine
 10
786.0625463804641
 20
486.1362897557893
 30
0.0
 11
788.8580295361286
 21
486.1362897557893
 31
0.0
  0
LINE
  5
EA
330
4A
100
AcDbEntity
  8
1
  6
Continuous
 62
     7
100
AcDbLine
 10
789.7240549399133
 20
486.1362897557893
 30
0.0
 11
797.2873649636846
 21
486.1362897557893
 31
0.0
  0
LINE
  5
EB
330
4A
100
AcDbEntity
  8
1
  6
Continuous
 62
     7
100
AcDbLine
 10
797.7873649720042
 20
488.6362897557893
 30
0.0
 11
776.2873649720042
 21
488.6362897557895
 31
0.0
  0
LINE
  5
EC
330
4A
100
AcDbEntity
  8
1
  6
Continuous
 62
     7
100
AcDbLine
 10
819.2873649720044
 20
488.6362897557895
 30
0.0
 11
797.7873649720042
 21
488.6362897557893
 31
0.0
  0
LINE
  5
ED
330
4A
100
AcDbEntity
  8
1
  6
Continuous
 62
     7
100
AcDbLine
 10
798.2873649803238
 20
486.1362897557893
 30
0.0
 11
805.8506750040953
 21
486.1362897557893
 31
0.0
  0
LINE
  5
EE
330
4A
100
AcDbEntity
  8
1
  6
Continuous
 62
     7
100
AcDbLine
 10
806.7167004078798
 20
486.1362897557893
 30
0.0
 11
809.5121835635445
 21
486.1362897557893
 31
0.0
  0
LINE
  5
EF
330
4A
100
AcDbEntity
  8
1
  6
Continuous
 62
     7
100
AcDbLine
 10
816.0505319788552
 20
487.6362897557893
 30
0.0
 11
819.2873649720044
 21
487.6362897557893
 31
0.0
  0
LINE
  5
F0
330
4A
100
AcDbEntity
  8
1
  6
Continuous
 62
     7
100
AcDbLine
 10
819.2873649720044
 20
487.6362897557893
 30
0.0
 11
819.2873649720044
 21
488.6362897557895
 31
0.0
  0
LINE
  5
F1
330
4A
100
AcDbEntity
  8
1
  6
Continuous
 62
     7
100
AcDbLine
 10
779.5241979651533
 20
487.6362897557893
 30
0.0
 11
785.4181967407131
 21
487.6362897557893
 31
0.0
  0
LINE
  5
F2
330
4A
100
AcDbEntity
  8
1
  6
Continuous
 62
     7
100
AcDbLine
 10
786.1253035218996
 20
487.6362897557893
 30
0.0
 11
792.906381785075
 21
487.6362897557893
 31
0.0
  0
LINE
  5
F3
330
4A
100
AcDbEntity
  8
1
  6
Continuous
 62
     7
100
AcDbLine
 10
793.8723076113639
 20
487.6362897557893
 30
0.0
 11
801.7024223326447
 21
487.6362897557893
 31
0.0
  0
LINE
  5
F4
330
4A
100
AcDbEntity
  8
1
  6
Continuous
 62
     7
100
AcDbLine
 10
802.6683481589338
 20
487.6362897557893
 30
0.0
 11
809.4494264221092
 21
487.6362897557893
 31
0.0
  0
LINE
  5
F5
330
4A
100
AcDbEntity
  8
1
  6
Continuous
 62
     7
100
AcDbLine
 10
810.1565332032955
 20
487.6362897557893
 30
0.0
 11
816.0505319788552
 21
487.6362897557893
 31
0.0
  0
ARC
  5
F6
330
4A
100
AcDbEntity
  8
1
  6
Continuous
 62
     7
100
AcDbCircle
 10
407.5625463804636
 20
496.1362897557893
 30
0.0
 40
9.999999999999904
100
AcDbArc
 50
244.1580672368339
 51
270.0
  0
ARC
  5
F7
330
4A
100
AcDbEntity
  8
1
  6
Continuous
 62
     7
100
AcDbCircle
 10
431.0121835635442
 20
496.1362897557893
 30
0.0
 40
10.0
100
AcDbArc
 50
270.0
 51
295.8419327631672
  0
ARC
  5
F8
330
4A
100
AcDbEntity
  8
1
  6
Continuous
 62
     7
100
AcDbCircle
 10
786.0625463804641
 20
496.1362897557893
 30
0.0
 40
10.0
100
AcDbArc
 50
244.1580672368328
 51
270.0
  0
ARC
  5
F9
330
4A
100
AcDbEntity
  8
1
  6
Continuous
 62
     7
100
AcDbCircle
 10
809.5121835635445
 20
496.1362897557893
 30
0.0
 40
10.0
100
AcDbArc
 50
270.0
 51
295.8419327631683
  0
SPLINE
  5
FA
330
4A
100
AcDbEntity
  8
1
  6
Continuous
 62
     7
100
AcDbSpline
210
0.0
220
0.0
230
1.0
 70
     8
 71
     3
 72
    31
 73
    27
 74
    25
 42
0.000000001
 43
0.0000000001
 44
0.00000001
 40
0.0
 40
0.0
 40
0.0
 40
0.0
 40
0.2709659657162322
 40
0.5252266825987932
 40
1.065749191989398
 40
1.674599338716108
 40
2.320394603574345
 40
2.934363293921279
 40
3.290221355349622
 40
3.646480797917319
 40
4.68265841162904
 40
5.750236623408712
 40
6.775822658068732
 40
7.208802824113636
 40
7.646130372372916
 40
8.816358621487725
 40
10.01163910374852
 40
11.17461240969503
 40
11.65874765828478
 40
12.14501675838336
 40
13.08086599532663
 40
14.04099014818349
 40
14.98716394131801
 40
15.89608035491205
 40
16.14448976460305
 40
16.39628796370993
 40
16.39628796370993
 40
16.39628796370993
 40
16.39628796370993
 10
812.7534276247655
 20
486.6761450985657
 30
0.0
 10
812.6700310720065
 20
486.6418458162689
 30
0.0
 10
812.5083794287312
 20
486.5753618169675
 30
0.0
 10
812.1616602978027
 20
486.4781955228955
 30
0.0
 10
811.6815159002094
 20
486.6099774278898
 30
0.0
 10
811.2073782343624
 20
486.9770159240883
 30
0.0
 10
810.7289058923201
 20
487.3719636751918
 30
0.0
 10
810.2483863115169
 20
487.6441420204651
 30
0.0
 10
809.8025127124453
 20
487.6924015670634
 30
0.0
 10
809.2199310953664
 20
487.619047828187
 30
0.0
 10
808.4791870608166
 20
487.2112492029068
 30
0.0
 10
807.6822685065691
 20
486.5552857954306
 30
0.0
 10
806.9196527858181
 20
486.1369346585587
 30
0.0
 10
806.2840719032803
 20
486.0792777605336
 30
0.0
 10
805.6032485650627
 20
486.1476215460814
 30
0.0
 10
804.7362784004345
 20
486.5528311470046
 30
0.0
 10
803.7757035644216
 20
487.2156545071527
 30
0.0
 10
802.8990313186874
 20
487.6315069638628
 30
0.0
 10
802.185671821354
 20
487.6980230085527
 30
0.0
 10
801.5488246446388
 20
487.6382427968321
 30
0.0
 10
800.8016787033118
 20
487.3335529347653
 30
0.0
 10
799.9991372540605
 20
486.8321004697808
 30
0.0
 10
799.1934953837197
 20
486.3505595264793
 30
0.0
 10
798.5083634002684
 20
486.1349660693526
 30
0.0
 10
798.0378203922082
 20
486.1267913239056
 30
0.0
 10
797.8712263241403
 20
486.1331093487772
 30
0.0
 10
797.7873649720042
 20
486.1362897557893
 30
0.0
 11
812.7534276247655
 21
486.6761450985657
 31
0.0
 11
812.5007840504362
 21
486.5781972460715
 31
0.0
 11
812.2534276247655
 21
486.5193473624495
 31
0.0
 11
811.7247043265913
 21
486.6316694625373
 31
0.0
 11
811.219517994773
 21
486.9715006998225
 31
0.0
 11
810.7070628725835
 21
487.3644908667561
 31
0.0
 11
810.1565332032955
 21
487.6362897557893
 31
0.0
 11
809.8031819254037
 21
487.6784541299022
 31
0.0
 11
809.4494264221092
 21
487.6362897557893
 31
0.0
 11
808.5123500110632
 21
487.1940773099661
 31
0.0
 11
807.6458586418963
 21
486.5704460533221
 31
0.0
 11
806.7167004078798
 21
486.1362897557893
 31
0.0
 11
806.2858721455165
 21
486.0931755675007
 31
0.0
 11
805.8506750040953
 21
486.1362897557893
 31
0.0
 11
804.7654962696325
 21
486.5742638067846
 31
0.0
 11
803.7449814849524
 21
487.1965539353725
 31
0.0
 11
802.6683481589338
 21
487.6362897557893
 31
0.0
 11
802.1864571183685
 21
487.682851157673
 31
0.0
 11
801.7024223326447
 21
487.6362897557893
 31
0.0
 11
800.8237320402304
 21
487.3142382616732
 31
0.0
 11
799.9933591655259
 21
486.8322431603991
 31
0.0
 11
799.1637535342209
 21
486.37727135682
 31
0.0
 11
798.2873649720044
 21
486.1362897557893
 31
0.0
 11
798.0390600719761
 21
486.1290848367966
 31
0.0
 11
797.7873649720042
 21
486.1362897557893
 31
0.0
  0
SPLINE
  5
FB
330
4A
100
AcDbEntity
  8
1
  6
Continuous
 62
     7
100
AcDbSpline
210
0.0
220
0.0
230
1.0
 70
     8
 71
     3
 72
    31
 73
    27
 74
    25
 42
0.000000001
 43
0.0000000001
 44
0.00000001
 40
0.0
 40
0.0
 40
0.0
 40
0.0
 40
0.2709659657162322
 40
0.5252266825987932
 40
1.065749191989509
 40
1.67459933871603
 40
2.320394603574357
 40
2.934363293921291
 40
3.29022135534986
 40
3.646480797917557
 40
4.682658411629072
 40
5.750236623408652
 40
6.775822658068568
 40
7.208802824113473
 40
7.646130372372979
 40
8.816358621487787
 40
10.01163910374868
 40
11.1746124096953
 40
11.65874765828504
 40
12.14501675838339
 40
13.08086599532673
 40
14.04099014818341
 40
14.98716394131806
 40
15.8960803549121
 40
16.14448976460299
 40
16.39628796370976
 40
16.39628796370976
 40
16.39628796370976
 40
16.39628796370976
 10
782.821302319243
 20
486.6761450985657
 30
0.0
 10
782.904698872002
 20
486.6418458162689
 30
0.0
 10
783.0663505152772
 20
486.5753618169674
 30
0.0
 10
783.4130696462058
 20
486.4781955228954
 30
0.0
 10
783.8932140437992
 20
486.6099774278896
 30
0.0
 10
784.3673517096463
 20
486.9770159240885
 30
0.0
 10
784.8458240516883
 20
487.3719636751919
 30
0.0
 10
785.326343632492
 20
487.644142020465
 30
0.0
 10
785.7722172315634
 20
487.6924015670635
 30
0.0
 10
786.3547988486424
 20
487.6190478281869
 30
0.0
 10
787.095542883192
 20
487.2112492029067
 30
0.0
 10
787.8924614374391
 20
486.5552857954306
 30
0.0
 10
788.6550771581897
 20
486.136934658559
 30
0.0
 10
789.2906580407285
 20
486.0792777605336
 30
0.0
 10
789.9714813789456
 20
486.1476215460814
 30
0.0
 10
790.8384515435741
 20
486.5528311470045
 30
0.0
 10
791.7990263795868
 20
487.2156545071527
 30
0.0
 10
792.6756986253215
 20
487.6315069638629
 30
0.0
 10
793.3890581226547
 20
487.6980230085525
 30
0.0
 10
794.0259052993697
 20
487.6382427968322
 30
0.0
 10
794.773051240697
 20
487.3335529347654
 30
0.0
 10
795.5755926899484
 20
486.8321004697807
 30
0.0
 10
796.3812345602885
 20
486.3505595264795
 30
0.0
 10
797.0663665437405
 20
486.1349660693525
 30
0.0
 10
797.5369095518001
 20
486.1267913239058
 30
0.0
 10
797.7035036198681
 20
486.1331093487773
 30
0.0
 10
797.7873649720042
 20
486.1362897557893
 30
0.0
 11
782.821302319243
 21
486.6761450985657
 31
0.0
 11
783.0739458935724
 21
486.5781972460715
 31
0.0
 11
783.321302319243
 21
486.5193473624495
 31
0.0
 11
783.8500256174174
 21
486.6316694625373
 31
0.0
 11
784.3552119492355
 21
486.9715006998225
 31
0.0
 11
784.8676670714251
 21
487.3644908667561
 31
0.0
 11
785.4181967407131
 21
487.6362897557893
 31
0.0
 11
785.7715480186051
 21
487.6784541299022
 31
0.0
 11
786.1253035218996
 21
487.6362897557893
 31
0.0
 11
787.0623799329454
 21
487.1940773099661
 31
0.0
 11
787.9288713021122
 21
486.5704460533221
 31
0.0
 11
788.8580295361286
 21
486.1362897557893
 31
0.0
 11
789.2888577984919
 21
486.0931755675007
 31
0.0
 11
789.7240549399133
 21
486.1362897557893
 31
0.0
 11
790.8092336743761
 21
486.5742638067846
 31
0.0
 11
791.8297484590563
 21
487.1965539353725
 31
0.0
 11
792.906381785075
 21
487.6362897557893
 31
0.0
 11
793.3882728256403
 21
487.682851157673
 31
0.0
 11
793.8723076113639
 21
487.6362897557893
 31
0.0
 11
794.7509979037783
 21
487.3142382616733
 31
0.0
 11
795.5813707784826
 21
486.8322431603991
 31
0.0
 11
796.4109764097877
 21
486.37727135682
 31
0.0
 11
797.2873649720042
 21
486.1362897557893
 31
0.0
 11
797.5356698720324
 21
486.1290848367966
 31
0.0
 11
797.7873649720042
 21
486.1362897557893
 31
0.0
  0
SPLINE
  5
FC
330
4A
100
AcDbEntity
  8
1
  6
Continuous
 62
     7
100
AcDbSpline
210
0.0
220
0.0
230
1.0
 70
     8
 71
     3
 72
    31
 73
    27
 74
    25
 42
0.000000001
 43
0.0000000001
 44
0.00000001
 40
0.0
 40
0.0
 40
0.0
 40
0.0
 40
0.2709659657161791
 40
0.5252266825987955
 40
1.065749191989511
 40
1.674599338716127
 40
2.320394603574319
 40
2.934363293921355
 40
3.290221355349881
 40
3.646480797917705
 40
4.68265841162945
 40
5.750236623409043
 40
6.775822658069062
 40
7.208802824113905
 40
7.646130372373066
 40
8.81635862148778
 40
10.01163910374868
 40
11.17461240969535
 40
11.65874765828522
 40
12.14501675838386
 40
13.08086599532712
 40
14.04099014818385
 40
14.98716394131822
 40
15.89608035491228
 40
16.1444897646034
 40
16.39628796371033
 40
16.39628796371033
 40
16.39628796371033
 40
16.39628796371033
 10
434.2534276247654
 20
486.6761450985657
 30
0.0
 10
434.1700310720064
 20
486.6418458162687
 30
0.0
 10
434.0083794287312
 20
486.5753618169674
 30
0.0
 10
433.6616602978024
 20
486.4781955228955
 30
0.0
 10
433.1815159002092
 20
486.6099774278898
 30
0.0
 10
432.7073782343618
 20
486.9770159240882
 30
0.0
 10
432.2289058923204
 20
487.3719636751922
 30
0.0
 10
431.7483863115162
 20
487.6441420204648
 30
0.0
 10
431.302512712445
 20
487.6924015670637
 30
0.0
 10
430.7199310953657
 20
487.6190478281867
 30
0.0
 10
429.9791870608165
 20
487.2112492029069
 30
0.0
 10
429.1822685065687
 20
486.5552857954305
 30
0.0
 10
428.4196527858181
 20
486.136934658559
 30
0.0
 10
427.7840719032798
 20
486.0792777605336
 30
0.0
 10
427.1032485650624
 20
486.1476215460814
 30
0.0
 10
426.2362784004343
 20
486.5528311470044
 30
0.0
 10
425.2757035644216
 20
487.2156545071529
 30
0.0
 10
424.3990313186872
 20
487.6315069638629
 30
0.0
 10
423.6856718213534
 20
487.6980230085526
 30
0.0
 10
423.0488246446384
 20
487.6382427968323
 30
0.0
 10
422.3016787033111
 20
487.3335529347652
 30
0.0
 10
421.4991372540599
 20
486.8321004697809
 30
0.0
 10
420.6934953837196
 20
486.3505595264794
 30
0.0
 10
420.0083634002679
 20
486.1349660693525
 30
0.0
 10
419.5378203922079
 20
486.1267913239056
 30
0.0
 10
419.3712263241398
 20
486.1331093487773
 30
0.0
 10
419.2873649720037
 20
486.1362897557893
 30
0.0
 11
434.2534276247654
 21
486.6761450985657
 31
0.0
 11
434.000784050436
 21
486.5781972460715
 31
0.0
 11
433.7534276247654
 21
486.5193473624495
 31
0.0
 11
433.2247043265911
 21
486.6316694625373
 31
0.0
 11
432.7195179947729
 21
486.9715006998225
 31
0.0
 11
432.2070628725833
 21
487.3644908667561
 31
0.0
 11
431.6565332032952
 21
487.6362897557893
 31
0.0
 11
431.3031819254032
 21
487.6784541299023
 31
0.0
 11
430.9494264221087
 21
487.6362897557893
 31
0.0
 11
430.0123500110627
 21
487.194077309966
 31
0.0
 11
429.1458586418959
 21
486.5704460533221
 31
0.0
 11
428.2167004078793
 21
486.1362897557893
 31
0.0
 11
427.7858721455161
 21
486.0931755675007
 31
0.0
 11
427.350675004095
 21
486.1362897557893
 31
0.0
 11
426.2654962696323
 21
486.5742638067845
 31
0.0
 11
425.2449814849521
 21
487.1965539353725
 31
0.0
 11
424.1683481589333
 21
487.6362897557893
 31
0.0
 11
423.6864571183679
 21
487.682851157673
 31
0.0
 11
423.2024223326441
 21
487.6362897557893
 31
0.0
 11
422.3237320402298
 21
487.3142382616732
 31
0.0
 11
421.4933591655255
 21
486.8322431603991
 31
0.0
 11
420.6637535342205
 21
486.37727135682
 31
0.0
 11
419.787364972004
 21
486.1362897557893
 31
0.0
 11
419.5390600719757
 21
486.1290848367966
 31
0.0
 11
419.2873649720037
 21
486.1362897557893
 31
0.0
  0
SPLINE
  5
FD
330
4A
100
AcDbEntity
  8
1
  6
Continuous
 62
     7
100
AcDbSpline
210
0.0
220
0.0
230
1.0
 70
     8
 71
     3
 72
    31
 73
    27
 74
    25
 42
0.000000001
 43
0.0000000001
 44
0.00000001
 40
0.0
 40
0.0
 40
0.0
 40
0.0
 40
0.2709659657161791
 40
0.5252266825987955
 40
1.065749191989455
 40
1.674599338716166
 40
2.320394603574313
 40
2.934363293921348
 40
3.290221355349932
 40
3.646480797917699
 40
4.682658411629419
 40
5.750236623409045
 40
6.775822658068962
 40
7.208802824113918
 40
7.646130372373079
 40
8.816358621487845
 40
10.0116391037488
 40
11.17461240969536
 40
11.65874765828517
 40
12.14501675838381
 40
13.08086599532702
 40
14.04099014818383
 40
14.9871639413182
 40
15.89608035491218
 40
16.14448976460313
 40
16.3962879637099
 40
16.3962879637099
 40
16.3962879637099
 40
16.3962879637099
 10
404.3213023192424
 20
486.6761450985657
 30
0.0
 10
404.4046988720013
 20
486.6418458162689
 30
0.0
 10
404.5663505152766
 20
486.5753618169675
 30
0.0
 10
404.9130696462055
 20
486.4781955228955
 30
0.0
 10
405.3932140437985
 20
486.6099774278898
 30
0.0
 10
405.867351709646
 20
486.9770159240884
 30
0.0
 10
406.3458240516874
 20
487.3719636751919
 30
0.0
 10
406.8263436324916
 20
487.644142020465
 30
0.0
 10
407.2722172315629
 20
487.6924015670636
 30
0.0
 10
407.854798848642
 20
487.6190478281869
 30
0.0
 10
408.5955428831915
 20
487.2112492029068
 30
0.0
 10
409.3924614374391
 20
486.5552857954306
 30
0.0
 10
410.1550771581896
 20
486.136934658559
 30
0.0
 10
410.7906580407281
 20
486.0792777605335
 30
0.0
 10
411.4714813789451
 20
486.1476215460815
 30
0.0
 10
412.3384515435738
 20
486.5528311470044
 30
0.0
 10
413.2990263795863
 20
487.2156545071528
 30
0.0
 10
414.1756986253207
 20
487.6315069638627
 30
0.0
 10
414.8890581226543
 20
487.6980230085526
 30
0.0
 10
415.5259052993693
 20
487.6382427968321
 30
0.0
 10
416.2730512406966
 20
487.3335529347652
 30
0.0
 10
417.075592689948
 20
486.8321004697808
 30
0.0
 10
417.8812345602881
 20
486.3505595264793
 30
0.0
 10
418.5663665437399
 20
486.1349660693526
 30
0.0
 10
419.0369095517995
 20
486.1267913239056
 30
0.0
 10
419.2035036198676
 20
486.1331093487773
 30
0.0
 10
419.2873649720037
 20
486.1362897557893
 30
0.0
 11
404.3213023192424
 21
486.6761450985657
 31
0.0
 11
404.5739458935718
 21
486.5781972460715
 31
0.0
 11
404.8213023192424
 21
486.5193473624495
 31
0.0
 11
405.3500256174166
 21
486.6316694625373
 31
0.0
 11
405.855211949235
 21
486.9715006998225
 31
0.0
 11
406.3676670714245
 21
487.3644908667561
 31
0.0
 11
406.9181967407126
 21
487.6362897557893
 31
0.0
 11
407.2715480186046
 21
487.6784541299023
 31
0.0
 11
407.6253035218991
 21
487.6362897557893
 31
0.0
 11
408.5623799329451
 21
487.1940773099661
 31
0.0
 11
409.4288713021119
 21
486.5704460533221
 31
0.0
 11
410.3580295361284
 21
486.1362897557893
 31
0.0
 11
410.7888577984917
 21
486.0931755675007
 31
0.0
 11
411.2240549399128
 21
486.1362897557893
 31
0.0
 11
412.3092336743755
 21
486.5742638067845
 31
0.0
 11
413.3297484590558
 21
487.1965539353725
 31
0.0
 11
414.4063817850745
 21
487.6362897557893
 31
0.0
 11
414.8882728256398
 21
487.682851157673
 31
0.0
 11
415.3723076113636
 21
487.6362897557893
 31
0.0
 11
416.2509979037779
 21
487.3142382616732
 31
0.0
 11
417.0813707784823
 21
486.8322431603991
 31
0.0
 11
417.9109764097873
 21
486.37727135682
 31
0.0
 11
418.7873649720037
 21
486.1362897557893
 31
0.0
 11
419.0356698720319
 21
486.1290848367966
 31
0.0
 11
419.2873649720037
 21
486.1362897557893
 31
0.0
  0
ARC
  5
FE
330
4A
100
AcDbEntity
  8
1
  6
Continuous
 62
     7
100
AcDbCircle
 10
401.0241979651527
 20
482.6362897557893
 30
0.0
 40
5.000000000000027
100
AcDbArc
 50
64.15806723683225
 51
90.0
  0
ARC
  5
FF
330
4A
100
AcDbEntity
  8
1
  6
Continuous
 62
     7
100
AcDbCircle
 10
437.5505319788551
 20
482.6362897557893
 30
0.0
 40
5.0
100
AcDbArc
 50
90.0
 51
115.8419327631654
  0
ARC
  5
100
330
4A
100
AcDbEntity
  8
1
  6
Continuous
 62
     7
100
AcDbCircle
 10
779.5241979651533
 20
482.6362897557893
 30
0.0
 40
4.999999999999902
100
AcDbArc
 50
64.1580672368352
 51
90.0
  0
ARC
  5
101
330
4A
100
AcDbEntity
  8
1
  6
Continuous
 62
     7
100
AcDbCircle
 10
816.0505319788552
 20
482.6362897557893
 30
0.0
 40
5.0
100
AcDbArc
 50
90.0
 51
115.8419327631625
  0
ENDBLK
  5
4C
330
4A
100
AcDbEntity
  8
0
100
AcDbBlockEnd
  0
BLOCK
  5
4E
330
4D
100
AcDbEntity
  8
0
100
AcDbBlockBegin
  2
32-16__3
 70
     0
 10
160.2403665383586
 20
398.9408893859726
 30
0.0
  3
32-16__3
  1

  0
LINE
  5
102
330
4D
100
AcDbEntity
  8
1
  6
Continuous
 62
     7
100
AcDbLine
 10
230.1373649720038
 20
394.7043851838641
 30
0.0
 11
229.3394022034493
 21
394.2436811646361
 31
0.0
  0
LINE
  5
103
330
4D
100
AcDbEntity
  8
1
  6
Continuous
 62
     7
100
AcDbLine
 10
228.2873694232454
 20
407.6362897557892
 30
0.0
 11
229.3362342467271
 21
407.0307273676082
 31
0.0
  0
LINE
  5
104
330
4D
100
AcDbEntity
  8
1
  6
Continuous
 62
     7
100
AcDbLine
 10
230.1373649720038
 20
406.5681943277136
 30
0.0
 11
230.1373649720038
 21
394.7043851838641
 31
0.0
  0
LINE
  5
105
330
4D
100
AcDbEntity
  8
1
  6
Continuous
 62
     7
100
AcDbLine
 10
202.4373649720039
 20
394.7043851838641
 30
0.0
 11
202.4373649720039
 21
400.6362897557892
 31
0.0
  0
LINE
  5
106
330
4D
100
AcDbEntity
  8
1
  6
Continuous
 62
     7
100
AcDbLine
 10
202.4373649720039
 20
406.5681943277136
 30
0.0
 11
203.2384956972805
 21
407.0307273676083
 31
0.0
  0
LINE
  5
107
330
4D
100
AcDbEntity
  8
1
  6
Continuous
 62
     7
100
AcDbLine
 10
204.2873605207623
 20
393.6362897557892
 30
0.0
 11
203.2353277405585
 21
394.2436811646361
 31
0.0
  0
LINE
  5
108
330
4D
100
AcDbEntity
  8
1
  6
Continuous
 62
     7
100
AcDbLine
 10
204.2873605207623
 20
393.6362897557892
 30
0.0
 11
205.8982633568662
 21
393.6362897557892
 31
0.0
  0
LINE
  5
109
330
4D
100
AcDbEntity
  8
1
  6
Continuous
 62
     7
100
AcDbLine
 10
228.2873694232454
 20
407.6362897557892
 30
0.0
 11
226.7648649720039
 21
407.6362897557892
 31
0.0
  0
LINE
  5
10A
330
4D
100
AcDbEntity
  8
1
  6
Continuous
 62
     7
100
AcDbLine
 10
229.3394022034493
 20
394.2436811646361
 30
0.0
 11
228.2873694232454
 21
393.6362897557892
 31
0.0
  0
LINE
  5
10B
330
4D
100
AcDbEntity
  8
1
  6
Continuous
 62
     7
100
AcDbLine
 10
229.3362342467271
 20
407.0307273676082
 30
0.0
 11
230.1373649720038
 21
406.5681943277136
 31
0.0
  0
LINE
  5
10C
330
4D
100
AcDbEntity
  8
1
  6
Continuous
 62
     7
100
AcDbLine
 10
203.2384956972805
 20
407.0307273676083
 30
0.0
 11
204.2873605207623
 21
407.6362897557892
 31
0.0
  0
LINE
  5
10D
330
4D
100
AcDbEntity
  8
1
  6
Continuous
 62
     7
100
AcDbLine
 10
203.2353277405585
 20
394.2436811646361
 30
0.0
 11
202.4373649720039
 21
394.7043851838641
 31
0.0
  0
LINE
  5
10E
330
4D
100
AcDbEntity
  8
1
  6
Continuous
 62
     7
100
AcDbLine
 10
205.8982633568662
 20
393.6362897557892
 30
0.0
 11
216.2873649720038
 21
393.6362897557892
 31
0.0
  0
LINE
  5
10F
330
4D
100
AcDbEntity
  8
1
  6
Continuous
 62
     7
100
AcDbLine
 10
216.2873649720038
 20
393.6362897557892
 30
0.0
 11
226.6764665871417
 21
393.6362897557892
 31
0.0
  0
LINE
  5
110
330
4D
100
AcDbEntity
  8
1
  6
Continuous
 62
     7
100
AcDbLine
 10
226.6764665871417
 20
393.6362897557892
 30
0.0
 11
228.2873694232454
 21
393.6362897557892
 31
0.0
  0
LINE
  5
111
330
4D
100
AcDbEntity
  8
1
  6
Continuous
 62
     7
100
AcDbLine
 10
216.2873649720038
 20
407.6362897557892
 30
0.0
 11
205.9866617417283
 21
407.6362897557892
 31
0.0
  0
LINE
  5
112
330
4D
100
AcDbEntity
  8
1
  6
Continuous
 62
     7
100
AcDbLine
 10
205.9866617417283
 20
407.6362897557892
 30
0.0
 11
205.8098649720037
 21
407.6362897557892
 31
0.0
  0
LINE
  5
113
330
4D
100
AcDbEntity
  8
1
  6
Continuous
 62
     7
100
AcDbLine
 10
205.8098649720037
 20
407.6362897557892
 30
0.0
 11
204.2873605207623
 21
407.6362897557892
 31
0.0
  0
LINE
  5
114
330
4D
100
AcDbEntity
  8
1
  6
Continuous
 62
     7
100
AcDbLine
 10
226.7648649720039
 20
407.6362897557892
 30
0.0
 11
226.5880682022793
 21
407.6362897557892
 31
0.0
  0
LINE
  5
115
330
4D
100
AcDbEntity
  8
1
  6
Continuous
 62
     7
100
AcDbLine
 10
226.5880682022793
 20
407.6362897557892
 30
0.0
 11
216.2873649720038
 21
407.6362897557892
 31
0.0
  0
LINE
  5
116
330
4D
100
AcDbEntity
  8
1
  6
Continuous
 62
     7
100
AcDbLine
 10
223.2155682022793
 20
406.5681943277136
 30
0.0
 11
223.2155682022793
 21
394.7043851838641
 31
0.0
  0
LINE
  5
117
330
4D
100
AcDbEntity
  8
1
  6
Continuous
 62
     7
100
AcDbLine
 10
209.3591617417283
 20
394.7043851838641
 30
0.0
 11
209.3591617417283
 21
406.5681943277136
 31
0.0
  0
LINE
  5
118
330
4D
100
AcDbEntity
  8
1
  6
Continuous
 62
     7
100
AcDbLine
 10
202.4373649720039
 20
400.6362897557892
 30
0.0
 11
202.4373649720039
 21
406.5681943277136
 31
0.0
  0
ARC
  5
119
330
4D
100
AcDbEntity
  8
1
  6
Continuous
 62
     7
100
AcDbCircle
 10
216.2873649720038
 20
384.6323396630403
 30
0.0
 40
23.00395009274894
100
AcDbArc
 50
90.0
 51
107.5281601363353
  0
ARC
  5
11A
330
4D
100
AcDbEntity
  8
1
  6
Continuous
 62
     7
100
AcDbCircle
 10
205.8982633568662
 20
399.7774289878221
 30
0.0
 40
6.141139232032856
100
AcDbArc
 50
270.0
 51
304.3023317316577
  0
ARC
  5
11B
330
4D
100
AcDbEntity
  8
1
  6
Continuous
 62
     7
100
AcDbCircle
 10
216.2873649720038
 20
416.6402398485375
 30
0.0
 40
23.00395009274825
100
AcDbArc
 50
270.0
 51
287.5281601363352
  0
ARC
  5
11C
330
4D
100
AcDbEntity
  8
1
  6
Continuous
 62
     7
100
AcDbCircle
 10
226.6764665871417
 20
401.4988085650884
 30
0.0
 40
6.138117760409365
100
AcDbArc
 50
90.82517632625981
 51
124.3215748715545
  0
ARC
  5
11D
330
4D
100
AcDbEntity
  8
1
  6
Continuous
 62
     7
100
AcDbCircle
 10
226.6764665871417
 20
399.7774289878221
 30
0.0
 40
6.141139232032856
100
AcDbArc
 50
270.0
 51
295.6976682683408
  0
ARC
  5
11E
330
4D
100
AcDbEntity
  8
1
  6
Continuous
 62
     7
100
AcDbCircle
 10
205.8982633568662
 20
401.4988085650884
 30
0.0
 40
6.138117760409366
100
AcDbArc
 50
90.8251763262606
 51
115.6784251284484
  0
ARC
  5
11F
330
4D
100
AcDbEntity
  8
1
  6
Continuous
 62
     7
100
AcDbCircle
 10
205.8982633568662
 20
399.7774289878221
 30
0.0
 40
6.141139232033082
100
AcDbArc
 50
244.3023317316582
 51
270.0
  0
ARC
  5
120
330
4D
100
AcDbEntity
  8
1
  6
Continuous
 62
     7
100
AcDbCircle
 10
216.2873649720038
 20
416.6402398485375
 30
0.0
 40
23.00395009274872
100
AcDbArc
 50
252.4718398636648
 51
270.0
  0
ARC
  5
121
330
4D
100
AcDbEntity
  8
1
  6
Continuous
 62
     7
100
AcDbCircle
 10
226.6764665871417
 20
399.7774289878221
 30
0.0
 40
6.141139232033414
100
AcDbArc
 50
235.6976682683397
 51
270.0
  0
ARC
  5
122
330
4D
100
AcDbEntity
  8
1
  6
Continuous
 62
     7
100
AcDbCircle
 10
216.2873649720038
 20
384.6323396630403
 30
0.0
 40
23.00395009274866
100
AcDbArc
 50
72.47183986366474
 51
90.0
  0
ARC
  5
123
330
4D
100
AcDbEntity
  8
1
  6
Continuous
 62
     7
100
AcDbCircle
 10
205.8982633568662
 20
401.4988085650884
 30
0.0
 40
6.138117760409006
100
AcDbArc
 50
55.6784251284481
 51
89.17482367374312
  0
ARC
  5
124
330
4D
100
AcDbEntity
  8
1
  6
Continuous
 62
     7
100
AcDbCircle
 10
205.8982633568662
 20
401.4988085650884
 30
0.0
 40
6.13811776040936
100
AcDbArc
 50
89.17482367374312
 51
90.8251763262606
  0
ARC
  5
125
330
4D
100
AcDbEntity
  8
1
  6
Continuous
 62
     7
100
AcDbCircle
 10
226.6764665871417
 20
401.4988085650884
 30
0.0
 40
6.138117760409037
100
AcDbArc
 50
64.32157487155402
 51
89.17482367374231
  0
ARC
  5
126
330
4D
100
AcDbEntity
  8
1
  6
Continuous
 62
     7
100
AcDbCircle
 10
226.6764665871417
 20
401.4988085650884
 30
0.0
 40
6.138117760409362
100
AcDbArc
 50
89.17482367374231
 51
90.82517632625981
  0
ENDBLK
  5
4F
330
4D
100
AcDbEntity
  8
0
100
AcDbBlockEnd
  0
BLOCK
  5
51
330
50
100
AcDbEntity
  8
0
100
AcDbBlockBegin
  2
92-53A__4
 70
     0
 10
21.47081715283269
 20
306.4522930483093
 30
0.0
  3
92-53A__4
  1

  0
LINE
  5
127
330
50
100
AcDbEntity
  8
1
  6
Continuous
 62
     7
100
AcDbLine
 10
197.7873649720038
 20
488.6362897557895
 30
0.0
 11
234.7873649720038
 21
488.6362897557895
 31
0.0
  0
LINE
  5
128
330
50
100
AcDbEntity
  8
1
  6
Continuous
 62
     7
100
AcDbLine
 10
197.7873649720038
 20
490.6362897557895
 30
0.0
 11
197.7873649720038
 21
488.6362897557895
 31
0.0
  0
LINE
  5
129
330
50
100
AcDbEntity
  8
1
  6
Continuous
 62
     7
100
AcDbLine
 10
234.7873649720038
 20
488.6362897557895
 30
0.0
 11
234.7873649720038
 21
490.6362897557895
 31
0.0
  0
LINE
  5
12A
330
50
100
AcDbEntity
  8
1
  6
Continuous
 62
     7
100
AcDbLine
 10
197.7873649720038
 20
490.6362897557895
 30
0.0
 11
234.7873649720038
 21
490.6362897557895
 31
0.0
  0
ENDBLK
  5
52
330
50
100
AcDbEntity
  8
0
100
AcDbBlockEnd
  0
BLOCK
  5
54
330
53
100
AcDbEntity
  8
0
100
AcDbBlockBegin
  2
32-25__5
 70
     0
 10
229.6043082770933
 20
454.2137131666526
 30
0.0
  3
32-25__5
  1

  0
LINE
  5
12B
330
53
100
AcDbEntity
  8
1
  6
Continuous
 62
     7
100
AcDbLine
 10
228.2873649720038
 20
480.1362897557893
 30
0.0
 11
226.7873649720038
 21
480.1362897557893
 31
0.0
  0
LINE
  5
12C
330
53
100
AcDbEntity
  8
1
  6
Continuous
 62
     7
100
AcDbLine
 10
230.1373605207623
 20
486.1362897557893
 30
0.0
 11
226.7873649720038
 21
486.1362897557893
 31
0.0
  0
LINE
  5
12D
330
53
100
AcDbEntity
  8
1
  6
Continuous
 62
     7
100
AcDbLine
 10
230.1373605207623
 20
486.1362897557893
 30
0.0
 11
230.1373605207623
 21
481.2043851838647
 31
0.0
  0
LINE
  5
12E
330
53
100
AcDbEntity
  8
1
  6
Continuous
 62
     7
100
AcDbLine
 10
230.1373605207623
 20
481.2043851838647
 30
0.0
 11
229.3362267289917
 21
480.741850373529
 31
0.0
  0
LINE
  5
12F
330
53
100
AcDbEntity
  8
1
  6
Continuous
 62
     7
100
AcDbLine
 10
205.7873649720038
 20
486.1362897557893
 30
0.0
 11
202.4373694232453
 21
486.1362897557893
 31
0.0
  0
LINE
  5
130
330
53
100
AcDbEntity
  8
1
  6
Continuous
 62
     7
100
AcDbLine
 10
204.2873649720038
 20
480.1362897557893
 30
0.0
 11
203.2353350987715
 21
480.7436794862956
 31
0.0
  0
LINE
  5
131
330
53
100
AcDbEntity
  8
1
  6
Continuous
 62
     7
100
AcDbLine
 10
202.4373694232453
 20
481.2043851838647
 30
0.0
 11
202.4373694232453
 21
486.1362897557893
 31
0.0
  0
LINE
  5
132
330
53
100
AcDbEntity
  8
1
  6
Continuous
 62
     7
100
AcDbLine
 10
226.7648649720039
 20
480.1362897557893
 30
0.0
 11
226.5880637510379
 21
480.1362897557893
 31
0.0
  0
LINE
  5
133
330
53
100
AcDbEntity
  8
1
  6
Continuous
 62
     7
100
AcDbLine
 10
229.3362267289917
 20
480.741850373529
 30
0.0
 11
228.2873649720038
 21
480.1362897557893
 31
0.0
  0
LINE
  5
134
330
53
100
AcDbEntity
  8
1
  6
Continuous
 62
     7
100
AcDbLine
 10
203.2353350987715
 20
480.7436794862956
 30
0.0
 11
202.4373694232453
 21
481.2043851838647
 31
0.0
  0
LINE
  5
135
330
53
100
AcDbEntity
  8
1
  6
Continuous
 62
     7
100
AcDbLine
 10
216.2873649720038
 20
480.1362897557893
 30
0.0
 11
205.8982655824868
 21
480.1362897557893
 31
0.0
  0
LINE
  5
136
330
53
100
AcDbEntity
  8
1
  6
Continuous
 62
     7
100
AcDbLine
 10
226.5880637510379
 20
480.1362897557893
 30
0.0
 11
216.2873649720038
 21
480.1362897557893
 31
0.0
  0
LINE
  5
137
330
53
100
AcDbEntity
  8
1
  6
Continuous
 62
     7
100
AcDbLine
 10
205.8982655824868
 20
480.1362897557893
 30
0.0
 11
204.2873649720038
 21
480.1362897557893
 31
0.0
  0
LINE
  5
138
330
53
100
AcDbEntity
  8
1
  6
Continuous
 62
     7
100
AcDbLine
 10
223.2155682022793
 20
481.2043851838647
 30
0.0
 11
223.2155682022793
 21
486.1362897557893
 31
0.0
  0
LINE
  5
139
330
53
100
AcDbEntity
  8
1
  6
Continuous
 62
     7
100
AcDbLine
 10
209.3591617417283
 20
481.2043851838647
 30
0.0
 11
209.3591617417283
 21
486.1362897557893
 31
0.0
  0
ARC
  5
13A
330
53
100
AcDbEntity
  8
1
  6
Continuous
 62
     7
100
AcDbCircle
 10
216.2873649720038
 20
503.1402398485381
 30
0.0
 40
23.00395009274882
100
AcDbArc
 50
270.0
 51
287.5281601363352
  0
ARC
  5
13B
330
53
100
AcDbEntity
  8
1
  6
Continuous
 62
     7
100
AcDbCircle
 10
205.8982655824868
 20
486.2774217762527
 30
0.0
 40
6.141132020463431
100
AcDbArc
 50
270.0
 51
304.3023524963331
  0
ARC
  5
13C
330
53
100
AcDbEntity
  8
1
  6
Continuous
 62
     7
100
AcDbCircle
 10
226.6764643615207
 20
486.2737635507195
 30
0.0
 40
6.138110397458548
100
AcDbArc
 50
270.8251980932286
 51
295.6784033614804
  0
ARC
  5
13D
330
53
100
AcDbEntity
  8
1
  6
Continuous
 62
     7
100
AcDbCircle
 10
216.2873649720038
 20
503.1402398485381
 30
0.0
 40
23.00395009274872
100
AcDbArc
 50
252.4718398636648
 51
270.0
  0
ARC
  5
13E
330
53
100
AcDbEntity
  8
1
  6
Continuous
 62
     7
100
AcDbCircle
 10
226.6764643615207
 20
486.2737635507195
 30
0.0
 40
6.138110397458415
100
AcDbArc
 50
235.6784033614788
 51
269.1748019067754
  0
ARC
  5
13F
330
53
100
AcDbEntity
  8
1
  6
Continuous
 62
     7
100
AcDbCircle
 10
226.6764643615207
 20
486.2737635507195
 30
0.0
 40
6.138110397458542
100
AcDbArc
 50
269.1748019067754
 51
270.8251980932286
  0
ARC
  5
140
330
53
100
AcDbEntity
  8
1
  6
Continuous
 62
     7
100
AcDbCircle
 10
205.8982655824868
 20
486.2774217762527
 30
0.0
 40
6.141132020463326
100
AcDbArc
 50
244.302352496333
 51
270.0
  0
ENDBLK
  5
55
330
53
100
AcDbEntity
  8
0
100
AcDbBlockEnd
  0
BLOCK
  5
57
330
56
100
AcDbEntity
  8
0
100
AcDbBlockBegin
  2
73-1-21_5__6
 70
     0
 10
122.0121835635439
 20
506.523418291331
 30
0.0
  3
73-1-21_5__6
  1

  0
LINE
  5
141
330
56
100
AcDbEntity
  8
1
  6
Continuous
 62
     7
100
AcDbLine
 10
228.6565332032951
 20
487.6362897557893
 30
0.0
 11
234.5505319788551
 21
487.6362897557893
 31
0.0
  0
LINE
  5
142
330
56
100
AcDbEntity
  8
1
  6
Continuous
 62
     7
100
AcDbLine
 10
221.1683481589332
 20
487.6362897557893
 30
0.0
 11
227.9494264221087
 21
487.6362897557893
 31
0.0
  0
LINE
  5
143
330
56
100
AcDbEntity
  8
1
  6
Continuous
 62
     7
100
AcDbLine
 10
212.3723076113636
 20
487.6362897557893
 30
0.0
 11
220.2024223326441
 21
487.6362897557893
 31
0.0
  0
LINE
  5
144
330
56
100
AcDbEntity
  8
1
  6
Continuous
 62
     7
100
AcDbLine
 10
204.6253035218992
 20
487.6362897557893
 30
0.0
 11
211.4063817850746
 21
487.6362897557893
 31
0.0
  0
LINE
  5
145
330
56
100
AcDbEntity
  8
1
  6
Continuous
 62
     7
100
AcDbLine
 10
198.0241979651527
 20
487.6362897557893
 30
0.0
 11
203.9181967407127
 21
487.6362897557893
 31
0.0
  0
LINE
  5
146
330
56
100
AcDbEntity
  8
1
  6
Continuous
 62
     7
100
AcDbLine
 10
237.787364972004
 20
487.6362897557893
 30
0.0
 11
237.787364972004
 21
488.6362897557895
 31
0.0
  0
LINE
  5
147
330
56
100
AcDbEntity
  8
1
  6
Continuous
 62
     7
100
AcDbLine
 10
234.5505319788551
 20
487.6362897557893
 30
0.0
 11
237.787364972004
 21
487.6362897557893
 31
0.0
  0
LINE
  5
148
330
56
100
AcDbEntity
  8
1
  6
Continuous
 62
     7
100
AcDbLine
 10
225.2167004078794
 20
486.1362897557893
 30
0.0
 11
228.0121835635441
 21
486.1362897557893
 31
0.0
  0
LINE
  5
149
330
56
100
AcDbEntity
  8
1
  6
Continuous
 62
     7
100
AcDbLine
 10
216.7873649803236
 20
486.1362897557893
 30
0.0
 11
224.3506750040949
 21
486.1362897557893
 31
0.0
  0
LINE
  5
14A
330
56
100
AcDbEntity
  8
1
  6
Continuous
 62
     7
100
AcDbLine
 10
237.787364972004
 20
488.6362897557895
 30
0.0
 11
216.2873649720038
 21
488.6362897557893
 31
0.0
  0
LINE
  5
14B
330
56
100
AcDbEntity
  8
1
  6
Continuous
 62
     7
100
AcDbLine
 10
216.2873649720038
 20
488.6362897557893
 30
0.0
 11
194.7873649720038
 21
488.6362897557895
 31
0.0
  0
LINE
  5
14C
330
56
100
AcDbEntity
  8
1
  6
Continuous
 62
     7
100
AcDbLine
 10
208.2240549399128
 20
486.1362897557893
 30
0.0
 11
215.7873649636842
 21
486.1362897557893
 31
0.0
  0
LINE
  5
14D
330
56
100
AcDbEntity
  8
1
  6
Continuous
 62
     7
100
AcDbLine
 10
204.5625463804637
 20
486.1362897557893
 30
0.0
 11
207.3580295361284
 21
486.1362897557893
 31
0.0
  0
LINE
  5
14E
330
56
100
AcDbEntity
  8
1
  6
Continuous
 62
     7
100
AcDbLine
 10
194.7873649720038
 20
487.6362897557893
 30
0.0
 11
198.0241979651527
 21
487.6362897557893
 31
0.0
  0
LINE
  5
14F
330
56
100
AcDbEntity
  8
1
  6
Continuous
 62
     7
100
AcDbLine
 10
194.7873649720038
 20
488.6362897557895
 30
0.0
 11
194.7873649720038
 21
487.6362897557893
 31
0.0
  0
ARC
  5
150
330
56
100
AcDbEntity
  8
1
  6
Continuous
 62
     7
100
AcDbCircle
 10
228.0121835635441
 20
496.1362897557893
 30
0.0
 40
10.0
100
AcDbArc
 50
270.0
 51
295.8419327631678
  0
ARC
  5
151
330
56
100
AcDbEntity
  8
1
  6
Continuous
 62
     7
100
AcDbCircle
 10
204.5625463804637
 20
496.1362897557893
 30
0.0
 40
9.999999999999917
100
AcDbArc
 50
244.1580672368339
 51
270.0
  0
SPLINE
  5
152
330
56
100
AcDbEntity
  8
1
  6
Continuous
 62
     7
100
AcDbSpline
210
0.0
220
0.0
230
1.0
 70
     8
 71
     3
 72
    31
 73
    27
 74
    25
 42
0.000000001
 43
0.0000000001
 44
0.00000001
 40
0.0
 40
0.0
 40
0.0
 40
0.0
 40
0.2709659657161791
 40
0.5252266825987955
 40
1.065749191989483
 40
1.674599338716193
 40
2.320394603574408
 40
2.934363293921469
 40
3.290221355350067
 40
3.646480797917764
 40
4.682658411629408
 40
5.750236623408988
 40
6.775822658068981
 40
7.208802824113852
 40
7.646130372373098
 40
8.816358621487932
 40
10.01163910374885
 40
11.17461240969547
 40
11.65874765828519
 40
12.14501675838371
 40
13.08086599532706
 40
14.04099014818387
 40
14.98716394131829
 40
15.89608035491229
 40
16.14448976460324
 40
16.39628796370998
 40
16.39628796370998
 40
16.39628796370998
 40
16.39628796370998
 10
201.3213023192424
 20
486.6761450985657
 30
0.0
 10
201.4046988720013
 20
486.6418458162689
 30
0.0
 10
201.5663505152765
 20
486.5753618169673
 30
0.0
 10
201.9130696462054
 20
486.4781955228956
 30
0.0
 10
202.3932140437985
 20
486.6099774278896
 30
0.0
 10
202.8673517096459
 20
486.9770159240884
 30
0.0
 10
203.3458240516875
 20
487.3719636751919
 30
0.0
 10
203.8263436324916
 20
487.644142020465
 30
0.0
 10
204.272217231563
 20
487.6924015670634
 30
0.0
 10
204.854798848642
 20
487.619047828187
 30
0.0
 10
205.5955428831915
 20
487.2112492029067
 30
0.0
 10
206.392461437439
 20
486.5552857954304
 30
0.0
 10
207.1550771581895
 20
486.1369346585591
 30
0.0
 10
207.7906580407281
 20
486.0792777605334
 30
0.0
 10
208.4714813789453
 20
486.1476215460817
 30
0.0
 10
209.3384515435737
 20
486.5528311470044
 30
0.0
 10
210.2990263795865
 20
487.2156545071527
 30
0.0
 10
211.1756986253208
 20
487.6315069638629
 30
0.0
 10
211.8890581226544
 20
487.6980230085526
 30
0.0
 10
212.5259052993694
 20
487.6382427968323
 30
0.0
 10
213.2730512406966
 20
487.3335529347652
 30
0.0
 10
214.0755926899481
 20
486.8321004697806
 30
0.0
 10
214.8812345602882
 20
486.3505595264793
 30
0.0
 10
215.56636654374
 20
486.1349660693526
 30
0.0
 10
216.0369095517997
 20
486.1267913239055
 30
0.0
 10
216.2035036198677
 20
486.1331093487772
 30
0.0
 10
216.2873649720038
 20
486.1362897557893
 30
0.0
 11
201.3213023192424
 21
486.6761450985657
 31
0.0
 11
201.5739458935717
 21
486.5781972460715
 31
0.0
 11
201.8213023192424
 21
486.5193473624495
 31
0.0
 11
202.3500256174167
 21
486.6316694625373
 31
0.0
 11
202.855211949235
 21
486.9715006998225
 31
0.0
 11
203.3676670714246
 21
487.3644908667561
 31
0.0
 11
203.9181967407127
 21
487.6362897557893
 31
0.0
 11
204.2715480186047
 21
487.6784541299022
 31
0.0
 11
204.6253035218992
 21
487.6362897557893
 31
0.0
 11
205.5623799329451
 21
487.1940773099661
 31
0.0
 11
206.4288713021119
 21
486.5704460533221
 31
0.0
 11
207.3580295361284
 21
486.1362897557893
 31
0.0
 11
207.7888577984916
 21
486.0931755675007
 31
0.0
 11
208.2240549399128
 21
486.1362897557893
 31
0.0
 11
209.3092336743756
 21
486.5742638067846
 31
0.0
 11
210.3297484590559
 21
487.1965539353725
 31
0.0
 11
211.4063817850746
 21
487.6362897557893
 31
0.0
 11
211.8882728256399
 21
487.682851157673
 31
0.0
 11
212.3723076113636
 21
487.6362897557893
 31
0.0
 11
213.2509979037779
 21
487.3142382616732
 31
0.0
 11
214.0813707784823
 21
486.832243160399
 31
0.0
 11
214.9109764097874
 21
486.3772713568199
 31
0.0
 11
215.7873649720038
 21
486.1362897557893
 31
0.0
 11
216.035669872032
 21
486.1290848367966
 31
0.0
 11
216.2873649720038
 21
486.1362897557893
 31
0.0
  0
SPLINE
  5
153
330
56
100
AcDbEntity
  8
1
  6
Continuous
 62
     7
100
AcDbSpline
210
0.0
220
0.0
230
1.0
 70
     8
 71
     3
 72
    31
 73
    27
 74
    25
 42
0.000000001
 43
0.0000000001
 44
0.00000001
 40
0.0
 40
0.0
 40
0.0
 40
0.0
 40
0.2709659657161527
 40
0.5252266825987966
 40
1.065749191989457
 40
1.67459933871619
 40
2.320394603574405
 40
2.934363293921466
 40
3.290221355349951
 40
3.646480797917648
 40
4.682658411629343
 40
5.750236623408946
 40
6.775822658068965
 40
7.208802824113898
 40
7.646130372373178
 40
8.816358621487934
 40
10.01163910374885
 40
11.17461240969547
 40
11.65874765828519
 40
12.14501675838383
 40
13.08086599532715
 40
14.04099014818386
 40
14.98716394131828
 40
15.89608035491229
 40
16.14448976460332
 40
16.3962879637102
 40
16.3962879637102
 40
16.3962879637102
 40
16.3962879637102
 10
231.2534276247654
 20
486.6761450985657
 30
0.0
 10
231.1700310720065
 20
486.6418458162689
 30
0.0
 10
231.0083794287312
 20
486.5753618169675
 30
0.0
 10
230.6616602978025
 20
486.4781955228955
 30
0.0
 10
230.1815159002092
 20
486.6099774278896
 30
0.0
 10
229.7073782343619
 20
486.9770159240884
 30
0.0
 10
229.2289058923203
 20
487.3719636751919
 30
0.0
 10
228.7483863115162
 20
487.644142020465
 30
0.0
 10
228.3025127124449
 20
487.6924015670634
 30
0.0
 10
227.7199310953659
 20
487.619047828187
 30
0.0
 10
226.9791870608164
 20
487.2112492029069
 30
0.0
 10
226.1822685065687
 20
486.5552857954304
 30
0.0
 10
225.4196527858184
 20
486.136934658559
 30
0.0
 10
224.7840719032796
 20
486.0792777605335
 30
0.0
 10
224.1032485650625
 20
486.1476215460815
 30
0.0
 10
223.2362784004341
 20
486.5528311470046
 30
0.0
 10
222.2757035644213
 20
487.2156545071526
 30
0.0
 10
221.399031318687
 20
487.631506963863
 30
0.0
 10
220.6856718213533
 20
487.6980230085526
 30
0.0
 10
220.0488246446383
 20
487.6382427968323
 30
0.0
 10
219.301678703311
 20
487.3335529347653
 30
0.0
 10
218.4991372540597
 20
486.8321004697805
 30
0.0
 10
217.6934953837197
 20
486.3505595264795
 30
0.0
 10
217.0083634002677
 20
486.1349660693526
 30
0.0
 10
216.537820392208
 20
486.1267913239055
 30
0.0
 10
216.3712263241399
 20
486.1331093487773
 30
0.0
 10
216.2873649720038
 20
486.1362897557893
 30
0.0
 11
231.2534276247654
 21
486.6761450985657
 31
0.0
 11
231.0007840504361
 21
486.5781972460715
 31
0.0
 11
230.7534276247654
 21
486.5193473624495
 31
0.0
 11
230.2247043265912
 21
486.6316694625373
 31
0.0
 11
229.7195179947728
 21
486.9715006998225
 31
0.0
 11
229.2070628725832
 21
487.3644908667561
 31
0.0
 11
228.6565332032951
 21
487.6362897557893
 31
0.0
 11
228.3031819254032
 21
487.6784541299022
 31
0.0
 11
227.9494264221087
 21
487.6362897557893
 31
0.0
 11
227.0123500110627
 21
487.1940773099661
 31
0.0
 11
226.1458586418959
 21
486.5704460533221
 31
0.0
 11
225.2167004078794
 21
486.1362897557893
 31
0.0
 11
224.7858721455161
 21
486.0931755675007
 31
0.0
 11
224.3506750040949
 21
486.1362897557893
 31
0.0
 11
223.2654962696322
 21
486.5742638067846
 31
0.0
 11
222.2449814849519
 21
487.1965539353725
 31
0.0
 11
221.1683481589332
 21
487.6362897557893
 31
0.0
 11
220.6864571183679
 21
487.682851157673
 31
0.0
 11
220.2024223326441
 21
487.6362897557893
 31
0.0
 11
219.3237320402298
 21
487.3142382616732
 31
0.0
 11
218.4933591655255
 21
486.8322431603991
 31
0.0
 11
217.6637535342204
 21
486.37727135682
 31
0.0
 11
216.787364972004
 21
486.1362897557893
 31
0.0
 11
216.5390600719757
 21
486.1290848367966
 31
0.0
 11
216.2873649720038
 21
486.1362897557893
 31
0.0
  0
ARC
  5
154
330
56
100
AcDbEntity
  8
1
  6
Continuous
 62
     7
100
AcDbCircle
 10
234.5505319788551
 20
482.6362897557893
 30
0.0
 40
5.0
100
AcDbArc
 50
90.0
 51
115.8419327631657
  0
ARC
  5
155
330
56
100
AcDbEntity
  8
1
  6
Continuous
 62
     7
100
AcDbCircle
 10
198.0241979651527
 20
482.6362897557893
 30
0.0
 40
5.000000000000075
100
AcDbArc
 50
64.15806723683109
 51
90.0
  0
ENDBLK
  5
58
330
56
100
AcDbEntity
  8
0
100
AcDbBlockEnd
  0
BLOCK
  5
5A
330
59
100
AcDbEntity
  8
0
100
AcDbBlockBegin
  2
32-25__7
 70
     0
 10
327.6321964242621
 20
454.7137131666526
 30
0.0
  3
32-25__7
  1

  0
LINE
  5
156
330
59
100
AcDbEntity
  8
1
  6
Continuous
 62
     7
100
AcDbLine
 10
797.7873649720042
 20
481.2043851838647
 30
0.0
 11
797.7873649720042
 21
486.1362897557893
 31
0.0
  0
LINE
  5
157
330
59
100
AcDbEntity
  8
1
  6
Continuous
 62
     7
100
AcDbLine
 10
785.7873649720042
 20
481.2043851838647
 30
0.0
 11
785.7873649720042
 21
486.1362897557893
 31
0.0
  0
LINE
  5
158
330
59
100
AcDbEntity
  8
1
  6
Continuous
 62
     7
100
AcDbLine
 10
809.7873649720042
 20
481.2043851838647
 30
0.0
 11
809.7873649720042
 21
486.1362897557893
 31
0.0
  0
LINE
  5
159
330
59
100
AcDbEntity
  8
1
  6
Continuous
 62
     7
100
AcDbLine
 10
785.7873649720042
 20
480.1362897557893
 30
0.0
 11
785.7873649720042
 21
481.2043851838647
 31
0.0
  0
LINE
  5
15A
330
59
100
AcDbEntity
  8
1
  6
Continuous
 62
     7
100
AcDbLine
 10
809.7873649720042
 20
486.1362897557893
 30
0.0
 11
808.2873649720042
 21
486.1362897557893
 31
0.0
  0
LINE
  5
15B
330
59
100
AcDbEntity
  8
1
  6
Continuous
 62
     7
100
AcDbLine
 10
809.7873649720042
 20
480.1362897557893
 30
0.0
 11
809.7873649720042
 21
481.2043851838647
 31
0.0
  0
LINE
  5
15C
330
59
100
AcDbEntity
  8
1
  6
Continuous
 62
     7
100
AcDbLine
 10
809.7873649720042
 20
480.1362897557893
 30
0.0
 11
808.2873649720042
 21
480.1362897557893
 31
0.0
  0
LINE
  5
15D
330
59
100
AcDbEntity
  8
1
  6
Continuous
 62
     7
100
AcDbLine
 10
787.2873649720042
 20
486.1362897557893
 30
0.0
 11
785.7873649720042
 21
486.1362897557893
 31
0.0
  0
LINE
  5
15E
330
59
100
AcDbEntity
  8
1
  6
Continuous
 62
     7
100
AcDbLine
 10
808.2648649720041
 20
480.1362897557893
 30
0.0
 11
808.0880637510382
 21
480.1362897557893
 31
0.0
  0
LINE
  5
15F
330
59
100
AcDbEntity
  8
1
  6
Continuous
 62
     7
100
AcDbLine
 10
785.7873649720042
 20
480.1362897557893
 30
0.0
 11
808.0880637510382
 21
480.1362897557893
 31
0.0
  0
LINE
  5
160
330
59
100
AcDbEntity
  8
1
  6
Continuous
 62
     7
100
AcDbLine
 10
431.2873649720037
 20
480.1362897557893
 30
0.0
 11
429.7873649720037
 21
480.1362897557893
 31
0.0
  0
LINE
  5
161
330
59
100
AcDbEntity
  8
1
  6
Continuous
 62
     7
100
AcDbLine
 10
433.1373605207622
 20
486.1362897557893
 30
0.0
 11
429.7873649720037
 21
486.1362897557893
 31
0.0
  0
LINE
  5
162
330
59
100
AcDbEntity
  8
1
  6
Continuous
 62
     7
100
AcDbLine
 10
433.1373605207622
 20
486.1362897557893
 30
0.0
 11
433.1373605207622
 21
481.2043851838647
 31
0.0
  0
LINE
  5
163
330
59
100
AcDbEntity
  8
1
  6
Continuous
 62
     7
100
AcDbLine
 10
433.1373605207622
 20
481.2043851838647
 30
0.0
 11
432.3362267289917
 21
480.741850373529
 31
0.0
  0
LINE
  5
164
330
59
100
AcDbEntity
  8
1
  6
Continuous
 62
     7
100
AcDbLine
 10
408.7873649720038
 20
486.1362897557893
 30
0.0
 11
405.4373694232452
 21
486.1362897557893
 31
0.0
  0
LINE
  5
165
330
59
100
AcDbEntity
  8
1
  6
Continuous
 62
     7
100
AcDbLine
 10
407.2873649720038
 20
480.1362897557893
 30
0.0
 11
406.2353350987714
 21
480.7436794862956
 31
0.0
  0
LINE
  5
166
330
59
100
AcDbEntity
  8
1
  6
Continuous
 62
     7
100
AcDbLine
 10
405.4373694232455
 20
481.2043851838647
 30
0.0
 11
405.4373694232452
 21
486.1362897557893
 31
0.0
  0
LINE
  5
167
330
59
100
AcDbEntity
  8
1
  6
Continuous
 62
     7
100
AcDbLine
 10
429.7648649720039
 20
480.1362897557893
 30
0.0
 11
429.5880637510377
 21
480.1362897557893
 31
0.0
  0
LINE
  5
168
330
59
100
AcDbEntity
  8
1
  6
Continuous
 62
     7
100
AcDbLine
 10
432.3362267289917
 20
480.741850373529
 30
0.0
 11
431.2873649720037
 21
480.1362897557893
 31
0.0
  0
LINE
  5
169
330
59
100
AcDbEntity
  8
1
  6
Continuous
 62
     7
100
AcDbLine
 10
406.2353350987714
 20
480.7436794862956
 30
0.0
 11
405.4373694232455
 21
481.2043851838647
 31
0.0
  0
LINE
  5
16A
330
59
100
AcDbEntity
  8
1
  6
Continuous
 62
     7
100
AcDbLine
 10
419.2873649720037
 20
480.1362897557893
 30
0.0
 11
408.8982655824868
 21
480.1362897557893
 31
0.0
  0
LINE
  5
16B
330
59
100
AcDbEntity
  8
1
  6
Continuous
 62
     7
100
AcDbLine
 10
429.5880637510377
 20
480.1362897557893
 30
0.0
 11
419.2873649720037
 21
480.1362897557893
 31
0.0
  0
LINE
  5
16C
330
59
100
AcDbEntity
  8
1
  6
Continuous
 62
     7
100
AcDbLine
 10
408.8982655824868
 20
480.1362897557893
 30
0.0
 11
407.2873649720038
 21
480.1362897557893
 31
0.0
  0
LINE
  5
16D
330
59
100
AcDbEntity
  8
1
  6
Continuous
 62
     7
100
AcDbLine
 10
426.2155682022794
 20
481.2043851838647
 30
0.0
 11
426.2155682022794
 21
486.1362897557893
 31
0.0
  0
LINE
  5
16E
330
59
100
AcDbEntity
  8
1
  6
Continuous
 62
     7
100
AcDbLine
 10
412.3591617417283
 20
481.2043851838647
 30
0.0
 11
412.3591617417283
 21
486.1362897557893
 31
0.0
  0
ARC
  5
16F
330
59
100
AcDbEntity
  8
1
  6
Continuous
 62
     7
100
AcDbCircle
 10
791.7873649720042
 20
497.5227642538602
 30
0.0
 40
17.38647449807083
100
AcDbArc
 50
249.8123537708993
 51
290.1876462291007
  0
ARC
  5
170
330
59
100
AcDbEntity
  8
1
  6
Continuous
 62
     7
100
AcDbCircle
 10
803.7873649720042
 20
497.5227642538604
 30
0.0
 40
17.38647449807099
100
AcDbArc
 50
249.8123537708995
 51
290.1876462291005
  0
ARC
  5
171
330
59
100
AcDbEntity
  8
1
  6
Continuous
 62
     7
100
AcDbCircle
 10
808.176464361521
 20
486.2737635507195
 30
0.0
 40
6.138110397458541
100
AcDbArc
 50
269.1748019067759
 51
270.8251980932283
  0
ARC
  5
172
330
59
100
AcDbEntity
  8
1
  6
Continuous
 62
     7
100
AcDbCircle
 10
419.2873649720037
 20
503.1402398485381
 30
0.0
 40
23.00395009274882
100
AcDbArc
 50
270.0
 51
287.5281601363358
  0
ARC
  5
173
330
59
100
AcDbEntity
  8
1
  6
Continuous
 62
     7
100
AcDbCircle
 10
408.8982655824868
 20
486.2774217762527
 30
0.0
 40
6.141132020463431
100
AcDbArc
 50
270.0
 51
304.3023524963336
  0
ARC
  5
174
330
59
100
AcDbEntity
  8
1
  6
Continuous
 62
     7
100
AcDbCircle
 10
429.6764643615206
 20
486.2737635507195
 30
0.0
 40
6.13811039745855
100
AcDbArc
 50
270.8251980932299
 51
295.6784033614811
  0
ARC
  5
175
330
59
100
AcDbEntity
  8
1
  6
Continuous
 62
     7
100
AcDbCircle
 10
419.2873649720037
 20
503.1402398485381
 30
0.0
 40
23.00395009274867
100
AcDbArc
 50
252.4718398636651
 51
270.0
  0
ARC
  5
176
330
59
100
AcDbEntity
  8
1
  6
Continuous
 62
     7
100
AcDbCircle
 10
429.6764643615206
 20
486.2737635507195
 30
0.0
 40
6.13811039745827
100
AcDbArc
 50
235.6784033614807
 51
269.1748019067743
  0
ARC
  5
177
330
59
100
AcDbEntity
  8
1
  6
Continuous
 62
     7
100
AcDbCircle
 10
429.6764643615206
 20
486.2737635507195
 30
0.0
 40
6.138110397458544
100
AcDbArc
 50
269.1748019067743
 51
270.8251980932299
  0
ARC
  5
178
330
59
100
AcDbEntity
  8
1
  6
Continuous
 62
     7
100
AcDbCircle
 10
408.8982655824868
 20
486.2774217762527
 30
0.0
 40
6.141132020463363
100
AcDbArc
 50
244.3023524963323
 51
270.0
  0
ENDBLK
  5
5B
330
59
100
AcDbEntity
  8
0
100
AcDbBlockEnd
  0
BLOCK
  5
5D
330
5C
100
AcDbEntity
  8
0
100
AcDbBlockBegin
  2
92-53A__8
 70
     0
 10
119.4987053000015
 20
306.4522930483093
 30
0.0
  3
92-53A__8
  1

  0
LINE
  5
179
330
5C
100
AcDbEntity
  8
1
  6
Continuous
 62
     7
100
AcDbLine
 10
400.7873649720038
 20
488.6362897557895
 30
0.0
 11
408.7873649720038
 21
488.6362897557895
 31
0.0
  0
LINE
  5
17A
330
5C
100
AcDbEntity
  8
1
  6
Continuous
 62
     7
100
AcDbLine
 10
437.7873649720037
 20
488.6362897557895
 30
0.0
 11
437.7873649720037
 21
490.6362897557895
 31
0.0
  0
LINE
  5
17B
330
5C
100
AcDbEntity
  8
1
  6
Continuous
 62
     7
100
AcDbLine
 10
437.7873649720037
 20
490.6362897557895
 30
0.0
 11
408.7873649720038
 21
490.6362897557895
 31
0.0
  0
LINE
  5
17C
330
5C
100
AcDbEntity
  8
1
  6
Continuous
 62
     7
100
AcDbLine
 10
400.7873649720038
 20
490.6362897557895
 30
0.0
 11
400.7873649720038
 21
488.6362897557895
 31
0.0
  0
LINE
  5
17D
330
5C
100
AcDbEntity
  8
1
  6
Continuous
 62
     7
100
AcDbLine
 10
408.7873649720038
 20
488.6362897557895
 30
0.0
 11
437.7873649720037
 21
488.6362897557895
 31
0.0
  0
LINE
  5
17E
330
5C
100
AcDbEntity
  8
1
  6
Continuous
 62
     7
100
AcDbLine
 10
408.7873649720038
 20
490.6362897557895
 30
0.0
 11
400.7873649720038
 21
490.6362897557895
 31
0.0
  0
LINE
  5
17F
330
5C
100
AcDbEntity
  8
1
  6
Continuous
 62
     7
100
AcDbLine
 10
779.287364972004
 20
488.6362897557895
 30
0.0
 11
787.287364972004
 21
488.6362897557895
 31
0.0
  0
LINE
  5
180
330
5C
100
AcDbEntity
  8
1
  6
Continuous
 62
     7
100
AcDbLine
 10
816.287364972004
 20
488.6362897557895
 30
0.0
 11
816.287364972004
 21
490.6362897557895
 31
0.0
  0
LINE
  5
181
330
5C
100
AcDbEntity
  8
1
  6
Continuous
 62
     7
100
AcDbLine
 10
816.287364972004
 20
490.6362897557895
 30
0.0
 11
787.287364972004
 21
490.6362897557895
 31
0.0
  0
LINE
  5
182
330
5C
100
AcDbEntity
  8
1
  6
Continuous
 62
     7
100
AcDbLine
 10
779.287364972004
 20
490.6362897557895
 30
0.0
 11
779.287364972004
 21
488.6362897557895
 31
0.0
  0
LINE
  5
183
330
5C
100
AcDbEntity
  8
1
  6
Continuous
 62
     7
100
AcDbLine
 10
787.287364972004
 20
488.6362897557895
 30
0.0
 11
816.287364972004
 21
488.6362897557895
 31
0.0
  0
LINE
  5
184
330
5C
100
AcDbEntity
  8
1
  6
Continuous
 62
     7
100
AcDbLine
 10
787.287364972004
 20
490.6362897557895
 30
0.0
 11
779.287364972004
 21
490.6362897557895
 31
0.0
  0
ENDBLK
  5
5E
330
5C
100
AcDbEntity
  8
0
100
AcDbBlockEnd
  0
BLOCK
  5
60
330
5F
100
AcDbEntity
  8
0
100
AcDbBlockBegin
  2
35-276__9
 70
     0
 10
308.6873649720039
 20
400.2082737915664
 30
0.0
  3
35-276__9
  1

  0
LINE
  5
185
330
5F
100
AcDbEntity
  8
1
  6
Continuous
 62
     2
100
AcDbLine
 10
409.971864972004
 20
500.6362897557898
 30
0.0
 11
408.8098649720039
 21
502.6362897557898
 31
0.0
  0
LINE
  5
186
330
5F
100
AcDbEntity
  8
1
  6
Continuous
 62
     2
100
AcDbLine
 10
428.6028649720038
 20
500.6362897557897
 30
0.0
 11
429.764864972004
 21
502.6362897557897
 31
0.0
  0
LINE
  5
187
330
5F
100
AcDbEntity
  8
1
  6
Continuous
 62
     7
100
AcDbLine
 10
408.8098649720039
 20
502.6362897557898
 30
0.0
 11
408.8098649720039
 21
504.6362897557897
 31
0.0
  0
LINE
  5
188
330
5F
100
AcDbEntity
  8
1
  6
Continuous
 62
     7
100
AcDbLine
 10
429.764864972004
 20
502.6362897557897
 30
0.0
 11
429.764864972004
 21
504.6362897557897
 31
0.0
  0
LINE
  5
189
330
5F
100
AcDbEntity
  8
1
  6
Continuous
 62
     7
100
AcDbLine
 10
429.764864972004
 20
500.6362897557898
 30
0.0
 11
428.6028649720038
 21
500.6362897557897
 31
0.0
  0
LINE
  5
18A
330
5F
100
AcDbEntity
  8
1
  6
Continuous
 62
     7
100
AcDbLine
 10
408.8098649720039
 20
500.6362897557898
 30
0.0
 11
428.6028649720038
 21
500.6362897557897
 31
0.0
  0
LINE
  5
18B
330
5F
100
AcDbEntity
  8
1
  6
Continuous
 62
     7
100
AcDbLine
 10
408.8098649720039
 20
500.6362897557898
 30
0.0
 11
408.8098649720039
 21
502.6362897557898
 31
0.0
  0
LINE
  5
18C
330
5F
100
AcDbEntity
  8
1
  6
Continuous
 62
     7
100
AcDbLine
 10
429.764864972004
 20
500.6362897557898
 30
0.0
 11
429.764864972004
 21
502.6362897557897
 31
0.0
  0
LINE
  5
18D
330
5F
100
AcDbEntity
  8
1
  6
Continuous
 62
     7
100
AcDbLine
 10
427.787364972004
 20
504.6362897557897
 30
0.0
 11
429.764864972004
 21
504.6362897557897
 31
0.0
  0
LINE
  5
18E
330
5F
100
AcDbEntity
  8
1
  6
Continuous
 62
     7
100
AcDbLine
 10
408.8098649720039
 20
504.6362897557897
 30
0.0
 11
427.787364972004
 21
504.6362897557897
 31
0.0
  0
LINE
  5
18F
330
5F
100
AcDbEntity
  8
1
  6
Continuous
 62
     7
100
AcDbLine
 10
429.764864972004
 20
500.6362897557898
 30
0.0
 11
429.764864972004
 21
490.6362897557893
 31
0.0
  0
LINE
  5
190
330
5F
100
AcDbEntity
  8
1
  6
Continuous
 62
     2
100
AcDbLine
 10
428.6028649720038
 20
454.1362897557889
 30
0.0
 11
428.6028649720038
 21
480.1362897557893
 31
0.0
  0
LINE
  5
191
330
5F
100
AcDbEntity
  8
1
  6
Continuous
 62
     7
100
AcDbLine
 10
408.8098649720039
 20
500.6362897557898
 30
0.0
 11
408.8098649720039
 21
490.6362897557893
 31
0.0
  0
LINE
  5
192
330
5F
100
AcDbEntity
  8
1
  6
Continuous
 62
     2
100
AcDbLine
 10
409.971864972004
 20
454.1362897557889
 30
0.0
 11
409.971864972004
 21
480.1362897557893
 31
0.0
  0
LINE
  5
193
330
5F
100
AcDbEntity
  8
1
  6
Continuous
 62
     7
100
AcDbLine
 10
427.787364972004
 20
505.5161715660347
 30
0.0
 11
427.787364972004
 21
505.6362897557895
 31
0.0
  0
LINE
  5
194
330
5F
100
AcDbEntity
  8
1
  6
Continuous
 62
     7
100
AcDbLine
 10
411.2953649720039
 20
505.5161715660347
 30
0.0
 11
427.787364972004
 21
505.5161715660347
 31
0.0
  0
LINE
  5
195
330
5F
100
AcDbEntity
  8
1
  6
Continuous
 62
     7
100
AcDbLine
 10
410.787364972004
 20
505.5161715660347
 30
0.0
 11
410.787364972004
 21
504.6362897557897
 31
0.0
  0
LINE
  5
196
330
5F
100
AcDbEntity
  8
1
  6
Continuous
 62
     7
100
AcDbLine
 10
411.2953649720039
 20
505.5161715660347
 30
0.0
 11
410.787364972004
 21
505.5161715660347
 31
0.0
  0
LINE
  5
197
330
5F
100
AcDbEntity
  8
1
  6
Continuous
 62
     2
100
AcDbLine
 10
411.2953649720039
 20
505.6362897557895
 30
0.0
 11
411.2953649720039
 21
505.5161715660347
 31
0.0
  0
LINE
  5
198
330
5F
100
AcDbEntity
  8
1
  6
Continuous
 62
     2
100
AcDbLine
 10
411.2953649720039
 20
505.5161715660347
 30
0.0
 11
410.787364972004
 21
504.6362897557897
 31
0.0
  0
LINE
  5
199
330
5F
100
AcDbEntity
  8
1
  6
Continuous
 62
     7
100
AcDbLine
 10
410.787364972004
 20
505.6362897557895
 30
0.0
 11
410.787364972004
 21
505.5161715660347
 31
0.0
  0
LINE
  5
19A
330
5F
100
AcDbEntity
  8
1
  6
Continuous
 62
     7
100
AcDbLine
 10
427.787364972004
 20
504.6362897557897
 30
0.0
 11
427.787364972004
 21
505.5161715660347
 31
0.0
  0
LINE
  5
19B
330
5F
100
AcDbEntity
  8
1
  6
Continuous
 62
     2
100
AcDbLine
 10
427.279364972004
 20
505.5161715660347
 30
0.0
 11
427.279364972004
 21
505.6362897557895
 31
0.0
  0
LINE
  5
19C
330
5F
100
AcDbEntity
  8
1
  6
Continuous
 62
     2
100
AcDbLine
 10
427.787364972004
 20
504.6362897557897
 30
0.0
 11
427.279364972004
 21
505.5161715660347
 31
0.0
  0
LINE
  5
19D
330
5F
100
AcDbEntity
  8
1
  6
Continuous
 62
     7
100
AcDbLine
 10
787.3098649720042
 20
502.6362897557895
 30
0.0
 11
787.3098649720042
 21
499.1362897557895
 31
0.0
  0
LINE
  5
19E
330
5F
100
AcDbEntity
  8
1
  6
Continuous
 62
     2
100
AcDbLine
 10
788.471864972004
 20
498.9317425554401
 30
0.0
 11
788.4718649720043
 21
490.6362897557891
 31
0.0
  0
LINE
  5
19F
330
5F
100
AcDbEntity
  8
0
  6
Continuous
 62
     2
100
AcDbLine
 10
788.471864972004
 20
498.9317425554401
 30
0.0
 11
787.3098649720042
 21
502.6362897557895
 31
0.0
  0
LINE
  5
1A0
330
5F
100
AcDbEntity
  8
1
  6
Continuous
 62
     7
100
AcDbLine
 10
808.2648649720041
 20
502.6362897557895
 30
0.0
 11
808.2648649720041
 21
499.1362897557893
 31
0.0
  0
LINE
  5
1A1
330
5F
100
AcDbEntity
  8
0
  6
Continuous
 62
     2
100
AcDbLine
 10
808.2648649720041
 20
502.6362897557895
 30
0.0
 11
807.1028649720039
 21
499.1362897557893
 31
0.0
  0
LINE
  5
1A2
330
5F
100
AcDbEntity
  8
0
  6
Continuous
 62
     7
100
AcDbLine
 10
808.037364972004
 20
504.6362897557893
 30
0.0
 11
808.2648649720041
 21
504.6362897557895
 31
0.0
  0
LINE
  5
1A3
330
5F
100
AcDbEntity
  8
0
  6
Continuous
 62
     7
100
AcDbLine
 10
787.3098649720042
 20
504.6362897557895
 30
0.0
 11
787.537364972004
 21
504.6362897557895
 31
0.0
  0
LINE
  5
1A4
330
5F
100
AcDbEntity
  8
1
  6
Continuous
 62
     2
100
AcDbLine
 10
807.1028649720039
 20
499.1362897557893
 30
0.0
 11
807.1028649720039
 21
490.6362897557892
 31
0.0
  0
LINE
  5
1A5
330
5F
100
AcDbEntity
  8
1
  6
Continuous
 62
     2
100
AcDbLine
 10
788.471864972004
 20
499.1362897557893
 30
0.0
 11
788.471864972004
 21
498.9317425554401
 31
0.0
  0
LINE
  5
1A6
330
5F
100
AcDbEntity
  8
1
  6
Continuous
 62
     7
100
AcDbLine
 10
807.1028649720039
 20
499.1362897557893
 30
0.0
 11
788.471864972004
 21
499.1362897557893
 31
0.0
  0
LINE
  5
1A7
330
5F
100
AcDbEntity
  8
1
  6
Continuous
 62
     7
100
AcDbLine
 10
787.3098649720038
 20
490.6362897557891
 30
0.0
 11
787.3098649720042
 21
499.1362897557895
 31
0.0
  0
LINE
  5
1A8
330
5F
100
AcDbEntity
  8
1
  6
Continuous
 62
     7
100
AcDbLine
 10
808.2648649720041
 20
490.6362897557891
 30
0.0
 11
808.2648649720041
 21
499.1362897557893
 31
0.0
  0
LINE
  5
1A9
330
5F
100
AcDbEntity
  8
1
  6
Continuous
 62
     7
100
AcDbLine
 10
787.3098649720042
 20
504.6362897557895
 30
0.0
 11
787.3098649720042
 21
502.6362897557895
 31
0.0
  0
LINE
  5
1AA
330
5F
100
AcDbEntity
  8
1
  6
Continuous
 62
     7
100
AcDbLine
 10
808.2648649720041
 20
504.6362897557895
 30
0.0
 11
808.2648649720041
 21
502.6362897557895
 31
0.0
  0
LINE
  5
1AB
330
5F
100
AcDbEntity
  8
1
  6
Continuous
 62
     7
100
AcDbLine
 10
807.1028649720039
 20
499.1362897557893
 30
0.0
 11
808.2648649720041
 21
499.1362897557893
 31
0.0
  0
LINE
  5
1AC
330
5F
100
AcDbEntity
  8
1
  6
Continuous
 62
     7
100
AcDbLine
 10
788.471864972004
 20
499.1362897557893
 30
0.0
 11
787.3098649720042
 21
499.1362897557895
 31
0.0
  0
LINE
  5
1AD
330
5F
100
AcDbEntity
  8
1
  6
Continuous
 62
     2
100
AcDbLine
 10
788.4718649720043
 20
480.1362897557893
 30
0.0
 11
788.4718649720043
 21
454.1362897557889
 31
0.0
  0
LINE
  5
1AE
330
5F
100
AcDbEntity
  8
1
  6
Continuous
 62
     2
100
AcDbLine
 10
807.1028649720039
 20
480.1362897557893
 30
0.0
 11
807.1028649720039
 21
454.1362897557889
 31
0.0
  0
LINE
  5
1AF
330
5F
100
AcDbEntity
  8
1
  6
Continuous
 62
     7
100
AcDbLine
 10
787.3098649720038
 20
454.1362897557889
 30
0.0
 11
787.3098649720038
 21
480.1369260450574
 31
0.0
  0
LINE
  5
1B0
330
5F
100
AcDbEntity
  8
1
  6
Continuous
 62
     7
100
AcDbLine
 10
808.2648649720041
 20
454.1362897557889
 30
0.0
 11
808.2648649720041
 21
480.1362897557893
 31
0.0
  0
LINE
  5
1B1
330
5F
100
AcDbEntity
  8
1
  6
Continuous
 62
     7
100
AcDbLine
 10
429.764864972004
 20
480.1362897557893
 30
0.0
 11
429.764864972004
 21
454.1362897557889
 31
0.0
  0
LINE
  5
1B2
330
5F
100
AcDbEntity
  8
1
  6
Continuous
 62
     2
100
AcDbLine
 10
428.6028649720038
 20
490.6362897557893
 30
0.0
 11
428.6028649720038
 21
500.6362897557897
 31
0.0
  0
LINE
  5
1B3
330
5F
100
AcDbEntity
  8
1
  6
Continuous
 62
     2
100
AcDbLine
 10
409.971864972004
 20
490.6362897557893
 30
0.0
 11
409.971864972004
 21
500.6362897557898
 31
0.0
  0
LINE
  5
1B4
330
5F
100
AcDbEntity
  8
1
  6
Continuous
 62
     7
100
AcDbLine
 10
408.8098649720039
 20
480.1362897557893
 30
0.0
 11
408.8098649720039
 21
454.1362897557889
 31
0.0
  0
LINE
  5
1B5
330
5F
100
AcDbEntity
  8
1
  6
Continuous
 62
     7
100
AcDbLine
 10
806.287364972004
 20
504.6362897557897
 30
0.0
 11
808.2648649720041
 21
504.6362897557895
 31
0.0
  0
LINE
  5
1B6
330
5F
100
AcDbEntity
  8
1
  6
Continuous
 62
     7
100
AcDbLine
 10
787.3098649720042
 20
504.6362897557895
 30
0.0
 11
806.287364972004
 21
504.6362897557897
 31
0.0
  0
LINE
  5
1B7
330
5F
100
AcDbEntity
  8
1
  6
Continuous
 62
     7
100
AcDbLine
 10
806.287364972004
 20
505.5161715660347
 30
0.0
 11
806.287364972004
 21
505.6362897557895
 31
0.0
  0
LINE
  5
1B8
330
5F
100
AcDbEntity
  8
1
  6
Continuous
 62
     7
100
AcDbLine
 10
789.795364972004
 20
505.5161715660347
 30
0.0
 11
806.287364972004
 21
505.5161715660347
 31
0.0
  0
LINE
  5
1B9
330
5F
100
AcDbEntity
  8
1
  6
Continuous
 62
     7
100
AcDbLine
 10
789.287364972004
 20
505.5161715660347
 30
0.0
 11
789.287364972004
 21
504.6362897557897
 31
0.0
  0
LINE
  5
1BA
330
5F
100
AcDbEntity
  8
1
  6
Continuous
 62
     7
100
AcDbLine
 10
789.795364972004
 20
505.5161715660347
 30
0.0
 11
789.287364972004
 21
505.5161715660347
 31
0.0
  0
LINE
  5
1BB
330
5F
100
AcDbEntity
  8
1
  6
Continuous
 62
     2
100
AcDbLine
 10
789.7953649720041
 20
505.6362897557895
 30
0.0
 11
789.795364972004
 21
505.5161715660347
 31
0.0
  0
LINE
  5
1BC
330
5F
100
AcDbEntity
  8
1
  6
Continuous
 62
     2
100
AcDbLine
 10
789.795364972004
 20
505.5161715660347
 30
0.0
 11
789.287364972004
 21
504.6362897557897
 31
0.0
  0
LINE
  5
1BD
330
5F
100
AcDbEntity
  8
1
  6
Continuous
 62
     7
100
AcDbLine
 10
789.287364972004
 20
505.6362897557895
 30
0.0
 11
789.287364972004
 21
505.5161715660347
 31
0.0
  0
LINE
  5
1BE
330
5F
100
AcDbEntity
  8
1
  6
Continuous
 62
     7
100
AcDbLine
 10
806.287364972004
 20
504.6362897557897
 30
0.0
 11
806.287364972004
 21
505.5161715660347
 31
0.0
  0
LINE
  5
1BF
330
5F
100
AcDbEntity
  8
1
  6
Continuous
 62
     2
100
AcDbLine
 10
805.7793649720041
 20
505.5161715660347
 30
0.0
 11
805.7793649720041
 21
505.6362897557895
 31
0.0
  0
LINE
  5
1C0
330
5F
100
AcDbEntity
  8
1
  6
Continuous
 62
     2
100
AcDbLine
 10
806.287364972004
 20
504.6362897557897
 30
0.0
 11
805.7793649720041
 21
505.5161715660347
 31
0.0
  0
LINE
  5
1C1
330
5F
100
AcDbEntity
  8
1
  6
PHANTOM
 62
     4
100
AcDbLine
 10
213.0001852472311
 20
448.6362897557898
 30
0.0
 11
220.5001852472311
 21
448.6362897557898
 31
0.0
  0
ENDBLK
  5
61
330
5F
100
AcDbEntity
  8
0
100
AcDbBlockEnd
  0
BLOCK
  5
63
330
62
100
AcDbEntity
  8
0
100
AcDbBlockBegin
  2
35-276__10
 70
     0
 10
326.8873649720039
 20
400.2082737915664
 30
0.0
  3
35-276__10
  1

  0
LINE
  5
1C2
330
62
100
AcDbEntity
  8
1
  6
Continuous
 62
     7
100
AcDbLine
 10
205.8098649720041
 20
502.6362897557897
 30
0.0
 11
205.8098649720041
 21
499.1362897557898
 31
0.0
  0
LINE
  5
1C3
330
62
100
AcDbEntity
  8
1
  6
Continuous
 62
     2
100
AcDbLine
 10
206.9718649720039
 20
498.9317425554403
 30
0.0
 11
206.9718649720039
 21
490.6362897557894
 31
0.0
  0
LINE
  5
1C4
330
62
100
AcDbEntity
  8
0
  6
Continuous
 62
     2
100
AcDbLine
 10
206.9718649720039
 20
498.9317425554403
 30
0.0
 11
205.8098649720041
 21
502.6362897557897
 31
0.0
  0
LINE
  5
1C5
330
62
100
AcDbEntity
  8
1
  6
Continuous
 62
     7
100
AcDbLine
 10
226.7648649720039
 20
502.6362897557897
 30
0.0
 11
226.7648649720039
 21
499.1362897557895
 31
0.0
  0
LINE
  5
1C6
330
62
100
AcDbEntity
  8
0
  6
Continuous
 62
     2
100
AcDbLine
 10
226.7648649720039
 20
502.6362897557897
 30
0.0
 11
225.6028649720037
 21
499.1362897557897
 31
0.0
  0
LINE
  5
1C7
330
62
100
AcDbEntity
  8
0
  6
Continuous
 62
     7
100
AcDbLine
 10
226.5373649720038
 20
504.6362897557895
 30
0.0
 11
226.7648649720039
 21
504.6362897557897
 31
0.0
  0
LINE
  5
1C8
330
62
100
AcDbEntity
  8
0
  6
Continuous
 62
     7
100
AcDbLine
 10
205.8098649720041
 20
504.6362897557897
 30
0.0
 11
206.0373649720038
 21
504.6362897557897
 31
0.0
  0
LINE
  5
1C9
330
62
100
AcDbEntity
  8
1
  6
Continuous
 62
     2
100
AcDbLine
 10
225.6028649720037
 20
499.1362897557897
 30
0.0
 11
225.6028649720038
 21
490.6362897557893
 31
0.0
  0
LINE
  5
1CA
330
62
100
AcDbEntity
  8
1
  6
Continuous
 62
     2
100
AcDbLine
 10
206.9718649720039
 20
499.1362897557897
 30
0.0
 11
206.9718649720039
 21
498.9317425554403
 31
0.0
  0
LINE
  5
1CB
330
62
100
AcDbEntity
  8
1
  6
Continuous
 62
     7
100
AcDbLine
 10
225.6028649720037
 20
499.1362897557897
 30
0.0
 11
206.9718649720039
 21
499.1362897557897
 31
0.0
  0
LINE
  5
1CC
330
62
100
AcDbEntity
  8
1
  6
Continuous
 62
     7
100
AcDbLine
 10
205.8098649720038
 20
490.6362897557893
 30
0.0
 11
205.8098649720041
 21
499.1362897557898
 31
0.0
  0
LINE
  5
1CD
330
62
100
AcDbEntity
  8
1
  6
Continuous
 62
     7
100
AcDbLine
 10
226.7648649720039
 20
490.6362897557893
 30
0.0
 11
226.7648649720039
 21
499.1362897557895
 31
0.0
  0
LINE
  5
1CE
330
62
100
AcDbEntity
  8
1
  6
Continuous
 62
     2
100
AcDbLine
 10
206.9718649720039
 20
480.1362897557893
 30
0.0
 11
206.9718649720039
 21
455.6362897557896
 31
0.0
  0
LINE
  5
1CF
330
62
100
AcDbEntity
  8
1
  6
Continuous
 62
     2
100
AcDbLine
 10
225.6028649720038
 20
480.1362897557893
 30
0.0
 11
225.6028649720038
 21
455.6362897557896
 31
0.0
  0
LINE
  5
1D0
330
62
100
AcDbEntity
  8
1
  6
Continuous
 62
     7
100
AcDbLine
 10
205.8098649720037
 20
455.6362897557896
 30
0.0
 11
205.8098649720038
 21
480.1369260450574
 31
0.0
  0
LINE
  5
1D1
330
62
100
AcDbEntity
  8
1
  6
Continuous
 62
     7
100
AcDbLine
 10
226.7648649720039
 20
455.6362897557896
 30
0.0
 11
226.7648649720039
 21
480.1362897557893
 31
0.0
  0
LINE
  5
1D2
330
62
100
AcDbEntity
  8
1
  6
Continuous
 62
     7
100
AcDbLine
 10
205.8098649720041
 20
504.6362897557897
 30
0.0
 11
205.8098649720041
 21
502.6362897557897
 31
0.0
  0
LINE
  5
1D3
330
62
100
AcDbEntity
  8
1
  6
Continuous
 62
     7
100
AcDbLine
 10
226.7648649720039
 20
504.6362897557897
 30
0.0
 11
226.7648649720039
 21
502.6362897557897
 31
0.0
  0
LINE
  5
1D4
330
62
100
AcDbEntity
  8
1
  6
Continuous
 62
     7
100
AcDbLine
 10
225.6028649720037
 20
499.1362897557897
 30
0.0
 11
226.7648649720039
 21
499.1362897557895
 31
0.0
  0
LINE
  5
1D5
330
62
100
AcDbEntity
  8
1
  6
Continuous
 62
     7
100
AcDbLine
 10
206.9718649720039
 20
499.1362897557897
 30
0.0
 11
205.8098649720041
 21
499.1362897557898
 31
0.0
  0
LINE
  5
1D6
330
62
100
AcDbEntity
  8
1
  6
Continuous
 62
     7
100
AcDbLine
 10
207.787364972004
 20
505.5161715660347
 30
0.0
 11
207.787364972004
 21
504.6362897557897
 31
0.0
  0
LINE
  5
1D7
330
62
100
AcDbEntity
  8
1
  6
Continuous
 62
     7
100
AcDbLine
 10
208.295364972004
 20
505.5161715660347
 30
0.0
 11
207.787364972004
 21
505.5161715660347
 31
0.0
  0
LINE
  5
1D8
330
62
100
AcDbEntity
  8
1
  6
Continuous
 62
     2
100
AcDbLine
 10
208.295364972004
 20
505.6362897557895
 30
0.0
 11
208.295364972004
 21
505.5161715660347
 31
0.0
  0
LINE
  5
1D9
330
62
100
AcDbEntity
  8
1
  6
Continuous
 62
     2
100
AcDbLine
 10
208.295364972004
 20
505.5161715660347
 30
0.0
 11
207.787364972004
 21
504.6362897557897
 31
0.0
  0
LINE
  5
1DA
330
62
100
AcDbEntity
  8
1
  6
Continuous
 62
     7
100
AcDbLine
 10
207.787364972004
 20
505.6362897557895
 30
0.0
 11
207.787364972004
 21
505.5161715660347
 31
0.0
  0
LINE
  5
1DB
330
62
100
AcDbEntity
  8
1
  6
Continuous
 62
     7
100
AcDbLine
 10
205.8098649720041
 20
504.6362897557897
 30
0.0
 11
207.787364972004
 21
504.6362897557897
 31
0.0
  0
LINE
  5
1DC
330
62
100
AcDbEntity
  8
1
  6
Continuous
 62
     7
100
AcDbLine
 10
207.787364972004
 20
504.6362897557897
 30
0.0
 11
226.7648649720039
 21
504.6362897557897
 31
0.0
  0
LINE
  5
1DD
330
62
100
AcDbEntity
  8
1
  6
Continuous
 62
     7
100
AcDbLine
 10
224.787364972004
 20
505.5161715660347
 30
0.0
 11
224.787364972004
 21
505.6362897557895
 31
0.0
  0
LINE
  5
1DE
330
62
100
AcDbEntity
  8
1
  6
Continuous
 62
     7
100
AcDbLine
 10
208.295364972004
 20
505.5161715660347
 30
0.0
 11
224.787364972004
 21
505.5161715660347
 31
0.0
  0
LINE
  5
1DF
330
62
100
AcDbEntity
  8
1
  6
Continuous
 62
     7
100
AcDbLine
 10
224.787364972004
 20
504.6362897557897
 30
0.0
 11
224.787364972004
 21
505.5161715660347
 31
0.0
  0
LINE
  5
1E0
330
62
100
AcDbEntity
  8
1
  6
Continuous
 62
     2
100
AcDbLine
 10
224.2793649720039
 20
505.5161715660347
 30
0.0
 11
224.2793649720039
 21
505.6362897557895
 31
0.0
  0
LINE
  5
1E1
330
62
100
AcDbEntity
  8
1
  6
Continuous
 62
     2
100
AcDbLine
 10
224.787364972004
 20
504.6362897557897
 30
0.0
 11
224.2793649720039
 21
505.5161715660347
 31
0.0
  0
ENDBLK
  5
64
330
62
100
AcDbEntity
  8
0
100
AcDbBlockEnd
  0
BLOCK
  5
66
330
65
100
AcDbEntity
  8
0
100
AcDbBlockBegin
  2
98-119A
 70
     0
 10
196.787364972004
 20
506.1362897557895
 30
0.0
  3
98-119A
  1

  0
LINE
  5
1E2
330
65
100
AcDbEntity
  8
1
  6
Continuous
 62
     7
100
AcDbLine
 10
820.7873649720042
 20
505.6362897557895
 30
0.0
 11
774.7873649720042
 21
505.6362897557895
 31
0.0
  0
LINE
  5
1E3
330
65
100
AcDbEntity
  8
1
  6
Continuous
 62
     7
100
AcDbLine
 10
820.7873649720042
 20
505.6362897557895
 30
0.0
 11
820.7873649720042
 21
506.6362897557895
 31
0.0
  0
LINE
  5
1E4
330
65
100
AcDbEntity
  8
1
  6
Continuous
 62
     7
100
AcDbLine
 10
774.7873649720042
 20
506.6362897557895
 30
0.0
 11
774.7873649720042
 21
505.6362897557895
 31
0.0
  0
LINE
  5
1E5
330
65
100
AcDbEntity
  8
1
  6
Continuous
 62
     7
100
AcDbLine
 10
196.787364972004
 20
505.6362897557895
 30
0.0
 11
226.5373649720038
 21
505.6362897557895
 31
0.0
  0
LINE
  5
1E6
330
65
100
AcDbEntity
  8
1
  6
Continuous
 62
     7
100
AcDbLine
 10
196.787364972004
 20
506.6362897557895
 30
0.0
 11
196.787364972004
 21
505.6362897557895
 31
0.0
  0
LINE
  5
1E7
330
65
100
AcDbEntity
  8
1
  6
Continuous
 62
     7
100
AcDbLine
 10
409.0373649720038
 20
505.6362897557895
 30
0.0
 11
226.5373649720038
 21
505.6362897557895
 31
0.0
  0
LINE
  5
1E8
330
65
100
AcDbEntity
  8
1
  6
Continuous
 62
     7
100
AcDbLine
 10
409.0373649720038
 20
505.6362897557895
 30
0.0
 11
438.787364972004
 21
505.6362897557895
 31
0.0
  0
LINE
  5
1E9
330
65
100
AcDbEntity
  8
1
  6
Continuous
 62
     7
100
AcDbLine
 10
438.787364972004
 20
505.6362897557895
 30
0.0
 11
438.787364972004
 21
506.6362897557895
 31
0.0
  0
ENDBLK
  5
67
330
65
100
AcDbEntity
  8
0
100
AcDbBlockEnd
  0
BLOCK
  5
69
330
68
100
AcDbEntity
  8
0
100
AcDbBlockBegin
  2
50-13
 70
     0
 10
160.288785090347
 20
308.213275422067
 30
0.0
  3
50-13
  1

  0
LINE
  5
1EA
330
68
100
AcDbEntity
  8
0
  6
Continuous
 62
     7
100
AcDbLine
 10
773.7449763759456
 20
506.6362897557893
 30
0.0
 11
774.2873649720042
 21
506.6362897557893
 31
0.0
  0
LINE
  5
1EB
330
68
100
AcDbEntity
  8
0
  6
Continuous
 62
     7
100
AcDbLine
 10
821.8297535680612
 20
506.6362897557893
 30
0.0
 11
774.2873649720042
 21
506.6362897557893
 31
0.0
  0
LINE
  5
1EC
330
68
100
AcDbEntity
  8
0
  6
Continuous
 62
     7
100
AcDbLine
 10
295.7873649720041
 20
529.8862897557892
 30
0.0
 11
295.7873649720041
 21
530.2362897557897
 31
0.0
  0
LINE
  5
1ED
330
68
100
AcDbEntity
  8
1
  6
Continuous
 62
     7
100
AcDbLine
 10
293.787364972004
 20
529.6362897557893
 30
0.0
 11
295.5373649720041
 21
529.6362897557892
 31
0.0
  0
LINE
  5
1EE
330
68
100
AcDbEntity
  8
0
  6
Continuous
 62
     7
100
AcDbLine
 10
339.7873649720037
 20
530.2362897557897
 30
0.0
 11
339.7873649720037
 21
529.8862897557892
 31
0.0
  0
LINE
  5
1EF
330
68
100
AcDbEntity
  8
1
  6
Continuous
 62
     7
100
AcDbLine
 10
194.787364972004
 20
522.973527284097
 30
0.0
 11
194.787364972004
 21
506.6362897557893
 31
0.0
  0
LINE
  5
1F0
330
68
100
AcDbEntity
  8
1
  6
Continuous
 62
     7
100
AcDbLine
 10
194.787364972004
 20
506.6362897557893
 30
0.0
 11
195.787364972004
 21
506.6362897557893
 31
0.0
  0
LINE
  5
1F1
330
68
100
AcDbEntity
  8
1
  6
Continuous
 62
     7
100
AcDbLine
 10
195.787364972004
 20
506.6362897557893
 30
0.0
 11
436.7873649720036
 21
506.6362897557893
 31
0.0
  0
LINE
  5
1F2
330
68
100
AcDbEntity
  8
1
  6
Continuous
 62
     7
100
AcDbLine
 10
440.787364972004
 20
506.6362897557893
 30
0.0
 11
440.7873649720036
 21
522.973527284097
 31
0.0
  0
LINE
  5
1F3
330
68
100
AcDbEntity
  8
1
  6
Continuous
 62
     7
100
AcDbLine
 10
340.0373649720037
 20
529.6362897557892
 30
0.0
 11
341.7873649720036
 21
529.6362897557893
 31
0.0
  0
LINE
  5
1F4
330
68
100
AcDbEntity
  8
1
  6
Continuous
 62
     7
100
AcDbLine
 10
436.7873649720036
 20
506.6362897557893
 30
0.0
 11
440.787364972004
 21
506.6362897557893
 31
0.0
  0
LINE
  5
1F5
330
68
100
AcDbEntity
  8
1
  6
Continuous
 62
     7
100
AcDbLine
 10
772.7449763759456
 20
528.3862897557893
 30
0.0
 11
772.7449763759456
 21
506.6362897557893
 31
0.0
  0
LINE
  5
1F6
330
68
100
AcDbEntity
  8
1
  6
Continuous
 62
     7
100
AcDbLine
 10
822.8297535680612
 20
528.3862897557893
 30
0.0
 11
822.8297535680612
 21
506.6362897557893
 31
0.0
  0
LINE
  5
1F7
330
68
100
AcDbEntity
  8
1
  6
Continuous
 62
     7
100
AcDbLine
 10
773.9949763759456
 20
529.6362897557893
 30
0.0
 11
821.5797535680612
 21
529.6362897557863
 31
0.0
  0
LINE
  5
1F8
330
68
100
AcDbEntity
  8
1
  6
Continuous
 62
     7
100
AcDbLine
 10
772.7449763759456
 20
506.6362897557893
 30
0.0
 11
773.7449763759456
 21
506.6362897557893
 31
0.0
  0
LINE
  5
1F9
330
68
100
AcDbEntity
  8
1
  6
Continuous
 62
     7
100
AcDbLine
 10
822.8297535680612
 20
506.6362897557893
 30
0.0
 11
821.8297535680612
 21
506.6362897557893
 31
0.0
  0
LINE
  5
1FA
330
68
100
AcDbEntity
  8
1
  6
Continuous
 62
     7
100
AcDbLine
 10
297.0452455330143
 20
529.6362897557892
 30
0.0
 11
338.0452455330143
 21
529.6362897557892
 31
0.0
  0
ARC
  5
1FB
330
68
100
AcDbEntity
  8
1
  6
Continuous
 62
     7
100
AcDbCircle
 10
216.787364972004
 20
1274.31861157283
 30
0.0
 40
22.00000000000006
100
AcDbArc
 50
93.45075904091455
 51
180.0
  0
ARC
  5
1FC
330
68
100
AcDbEntity
  8
1
  6
Continuous
 62
     7
100
AcDbCircle
 10
418.787364972004
 20
1274.31861157283
 30
0.0
 40
22.00000000000006
100
AcDbArc
 50
273.4507590409146
 51
0.0
  0
ARC
  5
1FD
330
68
100
AcDbEntity
  8
1
  6
Continuous
 62
     7
100
AcDbCircle
 10
317.7873649720038
 20
2949.276222976795
 30
0.0
 40
1700.000000000023
100
AcDbArc
 50
266.5492409590856
 51
269.2090437421168
  0
ARC
  5
1FE
330
68
100
AcDbEntity
  8
1
  6
Continuous
 62
     7
100
AcDbCircle
 10
317.7873649720038
 20
2949.276222976795
 30
0.0
 40
1700.000000000022
100
AcDbArc
 50
270.7909562913219
 51
273.4507590409144
  0
ARC
  5
1FF
330
68
100
AcDbEntity
  8
1
  6
Continuous
 62
     7
100
AcDbCircle
 10
418.787364972004
 20
1274.31861157283
 30
0.0
 40
21.99999999999966
100
AcDbArc
 50
0.0
 51
86.54924095908545
  0
ARC
  5
200
330
68
100
AcDbEntity
  8
1
  6
Continuous
 62
     7
100
AcDbCircle
 10
216.787364972004
 20
1274.31861157283
 30
0.0
 40
22.00000000000043
100
AcDbArc
 50
180.0
 51
266.5492409590854
  0
ARC
  5
201
330
68
100
AcDbEntity
  8
1
  6
Continuous
 62
     7
100
AcDbCircle
 10
317.7873649720038
 20
-400.6389998311349
 30
0.0
 40
1700.000000000022
100
AcDbArc
 50
90.19358254511017
 51
93.45075904091442
  0
ARC
  5
202
330
68
100
AcDbEntity
  8
1
  6
Continuous
 62
     7
100
AcDbCircle
 10
293.7873649720165
 20
-1170.363710244689
 30
0.0
 40
1700.000000000478
100
AcDbArc
 50
90.00000000000043
 51
93.21105509699505
  0
ARC
  5
203
330
68
100
AcDbEntity
  8
1
  6
Continuous
 62
     7
100
AcDbCircle
 10
341.7873649719909
 20
-1170.363710244689
 30
0.0
 40
1700.000000000478
100
AcDbArc
 50
86.78894490300496
 51
89.99999999999957
  0
ARC
  5
204
330
68
100
AcDbEntity
  8
1
  6
Continuous
 62
     7
100
AcDbCircle
 10
317.7873649720038
 20
-400.6389998311349
 30
0.0
 40
1700.000000000023
100
AcDbArc
 50
86.54924095908557
 51
89.80366607524883
  0
ARC
  5
205
330
68
100
AcDbEntity
  8
1
  6
PHANTOM
 62
     4
100
AcDbCircle
 10
317.7873649720038
 20
-400.6389998311349
 30
0.0
 40
1700.000000000022
100
AcDbArc
 50
89.80366607524883
 51
89.99999999999999
  0
ARC
  5
206
330
68
100
AcDbEntity
  8
1
  6
Continuous
 62
     7
100
AcDbCircle
 10
317.7873649720038
 20
-400.6389998311349
 30
0.0
 40
1700.000000000022
100
AcDbArc
 50
90.19358254511017
 51
93.45075904091442
  0
ARC
  5
207
330
68
100
AcDbEntity
  8
1
  6
Continuous
 62
     7
100
AcDbCircle
 10
317.7873649720038
 20
2949.276222976795
 30
0.0
 40
1700.000000000022
100
AcDbArc
 50
270.7909562913219
 51
273.4507590409144
  0
ARC
  5
208
330
68
100
AcDbEntity
  8
1
  6
PHANTOM
 62
     4
100
AcDbCircle
 10
317.7873649720038
 20
-400.6389998311349
 30
0.0
 40
1700.000000000022
100
AcDbArc
 50
89.99999999999999
 51
90.19358254511017
  0
ARC
  5
209
330
68
100
AcDbEntity
  8
1
  6
Continuous
 62
     7
100
AcDbCircle
 10
317.7873649720038
 20
-400.6389998311349
 30
0.0
 40
1700.000000000023
100
AcDbArc
 50
86.54924095908557
 51
89.80366607524883
  0
ARC
  5
20A
330
68
100
AcDbEntity
  8
1
  6
Continuous
 62
     7
100
AcDbCircle
 10
317.7873649720038
 20
2949.276222976795
 30
0.0
 40
1700.000000000023
100
AcDbArc
 50
266.5492409590856
 51
269.2090437421168
  0
ARC
  5
20B
330
68
100
AcDbEntity
  8
0
  6
Continuous
 62
     7
100
AcDbCircle
 10
775.5373649720044
 20
529.8862897557892
 30
0.0
 40
0.25
100
AcDbArc
 50
270.0
 51
348.4630409671462
  0
ARC
  5
20C
330
68
100
AcDbEntity
  8
0
  6
Continuous
 62
     7
100
AcDbCircle
 10
820.037364972004
 20
529.8862897557892
 30
0.0
 40
0.2499999999998673
100
AcDbArc
 50
191.5369590328642
 51
270.0
  0
ARC
  5
20D
330
68
100
AcDbEntity
  8
0
  6
Continuous
 62
     7
100
AcDbCircle
 10
295.5373649720041
 20
529.8862897557892
 30
0.0
 40
0.25
100
AcDbArc
 50
270.0
 51
0.0
  0
ARC
  5
20E
330
68
100
AcDbEntity
  8
0
  6
Continuous
 62
     7
100
AcDbCircle
 10
340.0373649720037
 20
529.8862897557892
 30
0.0
 40
0.25
100
AcDbArc
 50
180.0
 51
270.0
  0
ARC
  5
20F
330
68
100
AcDbEntity
  8
1
  6
Continuous
 62
     7
100
AcDbCircle
 10
198.787364972004
 20
522.973527284097
 30
0.0
 40
4.000000000000003
100
AcDbArc
 50
93.21105509699439
 51
180.0
  0
ARC
  5
210
330
68
100
AcDbEntity
  8
1
  6
Continuous
 62
     7
100
AcDbCircle
 10
436.7873649720036
 20
522.973527284097
 30
0.0
 40
4.0
100
AcDbArc
 50
0.0
 51
86.78894490300766
  0
ARC
  5
211
330
68
100
AcDbEntity
  8
1
  6
Continuous
 62
     7
100
AcDbCircle
 10
773.9949763759456
 20
528.3862897557893
 30
0.0
 40
1.25
100
AcDbArc
 50
90.0
 51
180.0
  0
ARC
  5
212
330
68
100
AcDbEntity
  8
1
  6
Continuous
 62
     7
100
AcDbCircle
 10
821.5797535680612
 20
528.3862897557893
 30
0.0
 40
1.25
100
AcDbArc
 50
0.0
 51
90.0
  0
ENDBLK
  5
6A
330
68
100
AcDbEntity
  8
0
100
AcDbBlockEnd
  0
BLOCK
  5
6C
330
6B
100
AcDbEntity
  8
0
100
AcDbBlockBegin
  2
開示A4
 70
     0
 10
0.0
 20
0.0
 30
0.0
  3
開示A4
  1

  0
POINT
  5
213
330
6B
100
AcDbEntity
  8
1
 62
     4
100
AcDbPoint
 10
34.0
 20
34.00000000000001
 30
0.0
  0
POINT
  5
214
330
6B
100
AcDbEntity
  8
1
 62
     4
100
AcDbPoint
 10
57.0
 20
12.25
 30
0.0
  0
POINT
  5
215
330
6B
100
AcDbEntity
  8
1
 62
     4
100
AcDbPoint
 10
57.0
 20
20.75000000000001
 30
0.0
  0
POINT
  5
216
330
6B
100
AcDbEntity
  8
1
 62
     4
100
AcDbPoint
 10
57.0
 20
24.75000000000001
 30
0.0
  0
POINT
  5
217
330
6B
100
AcDbEntity
  8
1
 62
     4
100
AcDbPoint
 10
57.0
 20
16.25
 30
0.0
  0
POINT
  5
218
330
6B
100
AcDbEntity
  8
1
 62
     4
100
AcDbPoint
 10
157.5
 20
19.00000000000001
 30
0.0
  0
POINT
  5
219
330
6B
100
AcDbEntity
  8
1
 62
     4
100
AcDbPoint
 10
47.5
 20
282.0000000000003
 30
0.0
  0
POINT
  5
21A
330
6B
100
AcDbEntity
  8
1
 62
     4
100
AcDbPoint
 10
57.0
 20
22.75000000000001
 30
0.0
  0
POINT
  5
21B
330
6B
100
AcDbEntity
  8
1
 62
     4
100
AcDbPoint
 10
57.0
 20
14.25
 30
0.0
  0
POINT
  5
21C
330
6B
100
AcDbEntity
  8
1
 62
     4
100
AcDbPoint
 10
157.5
 20
12.5
 30
0.0
  0
POINT
  5
21D
330
6B
100
AcDbEntity
  8
1
 62
     4
100
AcDbPoint
 10
163.25
 20
12.5
 30
0.0
  0
POINT
  5
21E
330
6B
100
AcDbEntity
  8
1
 62
     4
100
AcDbPoint
 10
151.75
 20
12.5
 30
0.0
  0
POINT
  5
21F
330
6B
100
AcDbEntity
  8
1
 62
     4
100
AcDbPoint
 10
134.75
 20
12.5
 30
0.0
  0
POINT
  5
220
330
6B
100
AcDbEntity
  8
1
 62
     4
100
AcDbPoint
 10
146.25
 20
12.5
 30
0.0
  0
POINT
  5
221
330
6B
100
AcDbEntity
  8
1
 62
     4
100
AcDbPoint
 10
140.5
 20
12.5
 30
0.0
  0
POINT
  5
222
330
6B
100
AcDbEntity
  8
1
 62
     4
100
AcDbPoint
 10
140.5
 20
19.00000000000001
 30
0.0
  0
POINT
  5
223
330
6B
100
AcDbEntity
  8
1
 62
     4
100
AcDbPoint
 10
117.75
 20
12.5
 30
0.0
  0
POINT
  5
224
330
6B
100
AcDbEntity
  8
1
 62
     4
100
AcDbPoint
 10
129.25
 20
12.5
 30
0.0
  0
POINT
  5
225
330
6B
100
AcDbEntity
  8
1
 62
     4
100
AcDbPoint
 10
123.5
 20
12.5
 30
0.0
  0
POINT
  5
226
330
6B
100
AcDbEntity
  8
1
 62
     4
100
AcDbPoint
 10
123.5
 20
19.00000000000001
 30
0.0
  0
POINT
  5
227
330
6B
100
AcDbEntity
  8
1
 62
     4
100
AcDbPoint
 10
100.75
 20
12.5
 30
0.0
  0
POINT
  5
228
330
6B
100
AcDbEntity
  8
1
 62
     4
100
AcDbPoint
 10
112.25
 20
12.5
 30
0.0
  0
POINT
  5
229
330
6B
100
AcDbEntity
  8
1
 62
     4
100
AcDbPoint
 10
106.5
 20
12.5
 30
0.0
  0
POINT
  5
22A
330
6B
100
AcDbEntity
  8
1
 62
     4
100
AcDbPoint
 10
106.5
 20
19.00000000000001
 30
0.0
  0
POINT
  5
22B
330
6B
100
AcDbEntity
  8
1
 62
     4
100
AcDbPoint
 10
85.25
 20
17.0
 30
0.0
  0
POINT
  5
22C
330
6B
100
AcDbEntity
  8
1
 62
     4
100
AcDbPoint
 10
93.75
 20
17.0
 30
0.0
  0
LINE
  5
22D
330
6B
100
AcDbEntity
  8
1
  6
Continuous
 62
     2
100
AcDbLine
 10
81.0
 20
27.00000000000001
 30
0.0
 11
81.0
 21
10.0
 31
0.0
  0
LINE
  5
22E
330
6B
100
AcDbEntity
  8
1
  6
DOT_CENTER
 62
     2
100
AcDbLine
 10
187.0
 20
26.50000000000001
 30
0.0
 11
187.0
 21
20.50000000000001
 31
0.0
  0
LINE
  5
22F
330
6B
100
AcDbEntity
  8
1
  6
DOT_CENTER
 62
     2
100
AcDbLine
 10
184.0
 20
23.50000000000001
 30
0.0
 11
197.0
 21
23.50000000000001
 31
0.0
  0
LINE
  5
230
330
6B
100
AcDbEntity
  8
1
  6
Continuous
 62
     7
100
AcDbLine
 10
196.0
 20
21.50000000000001
 30
0.0
 11
191.0
 21
22.30000000000001
 31
0.0
  0
LINE
  5
231
330
6B
100
AcDbEntity
  8
1
  6
Continuous
 62
     7
100
AcDbLine
 10
196.0
 20
25.50000000000001
 30
0.0
 11
196.0
 21
21.50000000000001
 31
0.0
  0
LINE
  5
232
330
6B
100
AcDbEntity
  8
1
  6
Continuous
 62
     7
100
AcDbLine
 10
191.0
 20
24.70000000000001
 30
0.0
 11
196.0
 21
25.50000000000001
 31
0.0
  0
LINE
  5
233
330
6B
100
AcDbEntity
  8
1
  6
Continuous
 62
     7
100
AcDbLine
 10
191.0
 20
24.70000000000001
 30
0.0
 11
191.0
 21
22.30000000000001
 31
0.0
  0
LINE
  5
234
330
6B
100
AcDbEntity
  8
1
  6
Continuous
 62
     2
100
AcDbLine
 10
33.0
 20
27.0
 30
0.0
 11
33.0
 21
10.0
 31
0.0
  0
LINE
  5
235
330
6B
100
AcDbEntity
  8
1
  6
Continuous
 62
     2
100
AcDbLine
 10
25.0
 20
18.50000000000001
 30
0.0
 11
81.0
 21
18.50000000000001
 31
0.0
  0
LINE
  5
236
330
6B
100
AcDbEntity
  8
1
  6
Continuous
 62
     7
100
AcDbLine
 10
200.0
 20
287.0000000000003
 30
0.0
 11
105.0
 21
287.0000000000003
 31
0.0
  0
LINE
  5
237
330
6B
100
AcDbEntity
  8
1
  6
Continuous
 62
     7
100
AcDbLine
 10
200.0
 20
10.0
 30
0.0
 11
200.0
 21
148.5
 31
0.0
  0
LINE
  5
238
330
6B
100
AcDbEntity
  8
1
  6
Continuous
 62
     7
100
AcDbLine
 10
25.0
 20
10.0
 30
0.0
 11
105.0
 21
10.0
 31
0.0
  0
LINE
  5
239
330
6B
100
AcDbEntity
  8
1
  6
PHANTOM
 62
     4
100
AcDbLine
 10
0.0
 20
297.0
 30
0.0
 11
0.0
 21
0.0
 31
0.0
  0
LINE
  5
23A
330
6B
100
AcDbEntity
  8
1
  6
PHANTOM
 62
     4
100
AcDbLine
 10
210.0
 20
297.0
 30
0.0
 11
0.0
 21
297.0
 31
0.0
  0
LINE
  5
23B
330
6B
100
AcDbEntity
  8
1
  6
PHANTOM
 62
     4
100
AcDbLine
 10
210.0
 20
0.0
 30
0.0
 11
210.0
 21
297.0
 31
0.0
  0
LINE
  5
23C
330
6B
100
AcDbEntity
  8
1
  6
PHANTOM
 62
     4
100
AcDbLine
 10
0.0
 20
0.0
 30
0.0
 11
210.0
 21
0.0
 31
0.0
  0
LINE
  5
23D
330
6B
100
AcDbEntity
  8
1
  6
Continuous
 62
     7
100
AcDbLine
 10
25.0
 20
41.0
 30
0.0
 11
200.0
 21
41.0
 31
0.0
  0
LINE
  5
23E
330
6B
100
AcDbEntity
  8
1
  6
Continuous
 62
     7
100
AcDbLine
 10
200.0
 20
27.00000000000001
 30
0.0
 11
25.0
 21
27.00000000000001
 31
0.0
  0
LINE
  5
23F
330
6B
100
AcDbEntity
  8
1
  6
Continuous
 62
     2
100
AcDbLine
 10
33.0
 20
41.00000000000001
 30
0.0
 11
33.0
 21
27.0
 31
0.0
  0
LINE
  5
240
330
6B
100
AcDbEntity
  8
1
  6
Continuous
 62
     2
100
AcDbLine
 10
55.0
 20
287.0000000000003
 30
0.0
 11
55.0
 21
277.0000000000003
 31
0.0
  0
LINE
  5
241
330
6B
100
AcDbEntity
  8
1
  6
Continuous
 62
     2
100
AcDbLine
 10
40.0
 20
287.0000000000003
 30
0.0
 11
40.0
 21
277.0000000000003
 31
0.0
  0
LINE
  5
242
330
6B
100
AcDbEntity
  8
1
  6
Continuous
 62
     7
100
AcDbLine
 10
25.0
 20
10.0
 30
0.0
 11
25.0
 21
148.5
 31
0.0
  0
LINE
  5
243
330
6B
100
AcDbEntity
  8
1
  6
Continuous
 62
     2
100
AcDbLine
 10
55.0
 20
277.0000000000003
 30
0.0
 11
25.0
 21
277.0000000000003
 31
0.0
  0
LINE
  5
244
330
6B
100
AcDbEntity
  8
1
  6
Continuous
 62
     2
100
AcDbLine
 10
166.0
 20
27.00000000000001
 30
0.0
 11
166.0
 21
10.0
 31
0.0
  0
LINE
  5
245
330
6B
100
AcDbEntity
  8
1
  6
Continuous
 62
     2
100
AcDbLine
 10
132.0
 20
27.00000000000001
 30
0.0
 11
132.0
 21
9.99999999999999
 31
0.0
  0
LINE
  5
246
330
6B
100
AcDbEntity
  8
1
  6
Continuous
 62
     2
100
AcDbLine
 10
149.0
 20
27.00000000000001
 30
0.0
 11
149.0
 21
10.0
 31
0.0
  0
LINE
  5
247
330
6B
100
AcDbEntity
  8
1
  6
Continuous
 62
     2
100
AcDbLine
 10
115.0
 20
27.00000000000001
 30
0.0
 11
115.0
 21
9.99999999999999
 31
0.0
  0
LINE
  5
248
330
6B
100
AcDbEntity
  8
1
  6
Continuous
 62
     2
100
AcDbLine
 10
98.0
 20
27.00000000000001
 30
0.0
 11
98.0
 21
9.99999999999999
 31
0.0
  0
LINE
  5
249
330
6B
100
AcDbEntity
  8
1
  6
Continuous
 62
     2
100
AcDbLine
 10
166.0
 20
20.00000000000001
 30
0.0
 11
200.0
 21
20.00000000000001
 31
0.0
  0
LINE
  5
24A
330
6B
100
AcDbEntity
  8
1
  6
Continuous
 62
     2
100
AcDbLine
 10
105.0
 20
287.0000000000003
 30
0.0
 11
105.0
 21
292.0000000000003
 31
0.0
  0
LINE
  5
24B
330
6B
100
AcDbEntity
  8
1
  6
Continuous
 62
     7
100
AcDbLine
 10
105.0
 20
287.0000000000003
 30
0.0
 11
25.0
 21
287.0000000000003
 31
0.0
  0
LINE
  5
24C
330
6B
100
AcDbEntity
  8
1
  6
Continuous
 62
     2
100
AcDbLine
 10
25.0
 20
148.5
 30
0.0
 11
20.0
 21
148.5
 31
0.0
  0
LINE
  5
24D
330
6B
100
AcDbEntity
  8
1
  6
Continuous
 62
     7
100
AcDbLine
 10
25.0
 20
148.5
 30
0.0
 11
25.0
 21
287.0000000000003
 31
0.0
  0
LINE
  5
24E
330
6B
100
AcDbEntity
  8
1
  6
Continuous
 62
     2
100
AcDbLine
 10
200.0
 20
148.5
 30
0.0
 11
205.0
 21
148.5
 31
0.0
  0
LINE
  5
24F
330
6B
100
AcDbEntity
  8
1
  6
Continuous
 62
     7
100
AcDbLine
 10
200.0
 20
148.5
 30
0.0
 11
200.0
 21
287.0000000000003
 31
0.0
  0
LINE
  5
250
330
6B
100
AcDbEntity
  8
1
  6
Continuous
 62
     2
100
AcDbLine
 10
105.0
 20
10.0
 30
0.0
 11
105.0
 21
5.0
 31
0.0
  0
LINE
  5
251
330
6B
100
AcDbEntity
  8
1
  6
Continuous
 62
     7
100
AcDbLine
 10
105.0
 20
10.0
 30
0.0
 11
200.0
 21
10.0
 31
0.0
  0
CIRCLE
  5
252
330
6B
100
AcDbEntity
  8
1
  6
DOT_CENTER
 62
     7
100
AcDbCircle
 10
89.5
 20
18.0
 30
0.0
 40
0.1000000000000227
  0
CIRCLE
  5
253
330
6B
100
AcDbEntity
  8
1
  6
DOT_CENTER
 62
     7
100
AcDbCircle
 10
89.5
 20
16.0
 30
0.0
 40
0.1000000000000227
  0
CIRCLE
  5
254
330
6B
100
AcDbEntity
  8
1
  6
Continuous
 62
     7
100
AcDbCircle
 10
187.0
 20
23.50000000000001
 30
0.0
 40
2.0
  0
CIRCLE
  5
255
330
6B
100
AcDbEntity
  8
1
  6
Continuous
 62
     7
100
AcDbCircle
 10
187.0
 20
23.50000000000001
 30
0.0
 40
1.200000000000102
  0
CIRCLE
  5
256
330
6B
100
AcDbEntity
  8
1
  6
Continuous
 62
     7
100
AcDbCircle
 10
154.5
 20
12.5
 30
0.0
 40
0.3000000000000114
  0
CIRCLE
  5
257
330
6B
100
AcDbEntity
  8
1
  6
Continuous
 62
     7
100
AcDbCircle
 10
160.5
 20
12.5
 30
0.0
 40
0.3000000000000114
  0
CIRCLE
  5
258
330
6B
100
AcDbEntity
  8
1
  6
Continuous
 62
     7
100
AcDbCircle
 10
143.5
 20
12.5
 30
0.0
 40
0.3000000000000114
  0
CIRCLE
  5
259
330
6B
100
AcDbEntity
  8
1
  6
Continuous
 62
     7
100
AcDbCircle
 10
137.5
 20
12.5
 30
0.0
 40
0.3000000000000114
  0
CIRCLE
  5
25A
330
6B
100
AcDbEntity
  8
1
  6
Continuous
 62
     7
100
AcDbCircle
 10
126.5
 20
12.5
 30
0.0
 40
0.2999999999999972
  0
CIRCLE
  5
25B
330
6B
100
AcDbEntity
  8
1
  6
Continuous
 62
     7
100
AcDbCircle
 10
120.5
 20
12.5
 30
0.0
 40
0.2999999999999972
  0
CIRCLE
  5
25C
330
6B
100
AcDbEntity
  8
1
  6
Continuous
 62
     7
100
AcDbCircle
 10
109.5
 20
12.5
 30
0.0
 40
0.2999999999999972
  0
CIRCLE
  5
25D
330
6B
100
AcDbEntity
  8
1
  6
Continuous
 62
     7
100
AcDbCircle
 10
103.5
 20
12.5
 30
0.0
 40
0.2999999999999972
  0
MTEXT
  5
25F
330
6B
100
AcDbEntity
  8
1
 62
   250
100
AcDbMText
 10
25.0
 20
5.0
 30
0.0
 40
3.5
 41
0.0
 71
     4
 72
     1
  1
備考欄の文字列 原点位置=4
  7
CONVERTER_11
 73
     1
 44
0.54545454545455
  0
MTEXT
  5
260
330
6B
100
AcDbEntity
  8
1
 62
     2
100
AcDbMText
 10
89.5
 20
24.00000000000001
 30
0.0
 40
3.5
 41
0.0
 71
     5
 72
     1
  1
尺度
  7
CONVERTER_11
 73
     1
 44
0.54545454545455
  0
MTEXT
  5
261
330
6B
100
AcDbEntity
  8
1
 62
     2
100
AcDbMText
 10
135.5
 20
25.00000000000001
 30
0.0
 40
3.0
 41
0.0
 71
     5
 72
     1
  1
製図
  7
CONVERTER_11
 73
     1
 44
0.59090909090909
  0
MTEXT
  5
262
330
6B
100
AcDbEntity
  8
1
 62
     2
100
AcDbMText
 10
152.5
 20
25.00000000000001
 30
0.0
 40
3.0
 41
0.0
 71
     5
 72
     1
  1
設計
  7
CONVERTER_11
 73
     1
 44
0.59090909090909
  0
MTEXT
  5
263
330
6B
100
AcDbEntity
  8
1
 62
     2
100
AcDbMText
 10
118.5
 20
25.00000000000001
 30
0.0
 40
3.0
 41
0.0
 71
     5
 72
     1
  1
検図
  7
CONVERTER_11
 73
     1
 44
0.59090909090909
  0
MTEXT
  5
264
330
6B
100
AcDbEntity
  8
1
 62
     2
100
AcDbMText
 10
175.0
 20
23.50000000000001
 30
0.0
 40
3.5
 41
0.0
 71
     5
 72
     1
  1
第三角法
  7
CONVERTER_11
 73
     1
 44
0.54545454545455
  0
MTEXT
  5
265
330
6B
100
AcDbEntity
  8
1
 62
     2
100
AcDbMText
 10
101.5
 20
25.00000000000001
 30
0.0
 40
3.0
 41
0.0
 71
     5
 72
     1
  1
承認
  7
CONVERTER_11
 73
     1
 44
0.59090909090909
  0
MTEXT
  5
266
330
6B
100
AcDbEntity
  8
1
 62
     2
100
AcDbMText
 10
29.0
 20
14.25
 30
0.0
 40
3.5
 41
0.0
 71
     5
 72
     1
  1
品番
  7
CONVERTER_11
 73
     1
 44
0.72727272727273
  0
MTEXT
  5
267
330
6B
100
AcDbEntity
  8
1
 62
     2
100
AcDbMText
 10
29.0
 20
22.75
 30
0.0
 40
3.5
 41
0.0
 71
     5
 72
     1
  1
品名
  7
CONVERTER_11
 73
     1
 44
0.72727272727273
  0
MTEXT
  5
268
330
6B
100
AcDbEntity
  8
1
 62
     2
100
AcDbMText
 10
29.0
 20
34.00000000000001
 30
0.0
 40
3.5
 41
0.0
 71
     5
 72
     1
  1
備考
  7
CONVERTER_11
 73
     1
 44
0.45454545454545
  0
MTEXT
  5
269
330
6B
100
AcDbEntity
  8
1
 62
     2
100
AcDbMText
 10
32.5
 20
282.0000000000003
 30
0.0
 40
5.0
 41
0.0
 71
     5
 72
     1
  1
図番
  7
CONVERTER_11
 73
     1
 44
0.45454545454545
  0
MTEXT
  5
26A
330
6B
100
AcDbEntity
  8
1
 62
     7
100
AcDbMText
 10
171.5
 20
15.0
 30
0.0
 40
2.5
 41
0.0
 71
     5
 72
     1
  1
株式会社
  7
CONVERTER_11
 73
     1
 44
1.0
  0
MTEXT
  5
26B
330
6B
100
AcDbEntity
  8
1
 62
     7
100
AcDbMText
 10
188.5
 20
15.0
 30
0.0
 40
3.0
 41
0.0
 71
     5
 72
     1
  1
三栄水栓製作所
  7
CONVERTER_11
 73
     1
 44
1.0
  0
ENDBLK
  5
6D
330
6B
100
AcDbEntity
  8
0
100
AcDbBlockEnd
  0
BLOCK
  5
6F
330
6E
100
AcDbEntity
  8
0
100
AcDbBlockBegin
  2
88-546A-M21
 70
     0
 10
1853.000000000002
 20
406.1383810687139
 30
0.0
  3
88-546A-M21
  1

  0
LINE
  5
26C
330
6E
100
AcDbEntity
  8
1
  6
Continuous
 62
     7
100
AcDbLine
 10
302.7873649720058
 20
574.8362897557881
 30
0.0
 11
293.7873649720058
 21
574.8362897557881
 31
0.0
  0
LINE
  5
26D
330
6E
100
AcDbEntity
  8
1
  6
Continuous
 62
     7
100
AcDbLine
 10
341.7873649720048
 20
574.8362897557881
 30
0.0
 11
332.7873649720058
 21
574.8362897557881
 31
0.0
  0
LINE
  5
26E
330
6E
100
AcDbEntity
  8
1
  6
Continuous
 62
     7
100
AcDbLine
 10
341.7873649720048
 20
574.8362897557881
 30
0.0
 11
341.7873649720058
 21
604.8362897557881
 31
0.0
  0
LINE
  5
26F
330
6E
100
AcDbEntity
  8
1
  6
Continuous
 62
     7
100
AcDbLine
 10
293.7873649720048
 20
604.8362897557881
 30
0.0
 11
293.7873649720058
 21
574.8362897557881
 31
0.0
  0
LINE
  5
270
330
6E
100
AcDbEntity
  8
1
  6
PHANTOM
 62
     4
100
AcDbLine
 10
317.7873649720048
 20
634.8362897557881
 30
0.0
 11
317.7873649720048
 21
571.8362897557881
 31
0.0
  0
LINE
  5
271
330
6E
100
AcDbEntity
  8
1
  6
PHANTOM
 62
     4
100
AcDbLine
 10
797.7873649720042
 20
634.8362897557881
 30
0.0
 11
797.7873649720042
 21
571.8362897557881
 31
0.0
  0
LINE
  5
272
330
6E
100
AcDbEntity
  8
1
  6
Continuous
 62
     7
100
AcDbLine
 10
773.7873649720042
 20
604.8362897557881
 30
0.0
 11
773.7873649720053
 21
574.8362897557881
 31
0.0
  0
LINE
  5
273
330
6E
100
AcDbEntity
  8
1
  6
Continuous
 62
     7
100
AcDbLine
 10
821.7873649720042
 20
574.8362897557881
 30
0.0
 11
821.7873649720053
 21
604.8362897557881
 31
0.0
  0
LINE
  5
274
330
6E
100
AcDbEntity
  8
1
  6
Continuous
 62
     7
100
AcDbLine
 10
821.7873649720042
 20
574.8362897557881
 30
0.0
 11
773.7873649720053
 21
574.8362897557881
 31
0.0
  0
ARC
  5
275
330
6E
100
AcDbEntity
  8
1
  6
Continuous
 62
     7
100
AcDbCircle
 10
282.4604418950818
 20
604.8362897557881
 30
0.0
 40
59.326923076924
100
AcDbArc
 50
0.0
 51
17.96646499934029
  0
ARC
  5
276
330
6E
100
AcDbEntity
  8
1
  6
Continuous
 62
     7
100
AcDbCircle
 10
353.1142880489288
 20
604.8362897557881
 30
0.0
 40
59.32692307692421
100
AcDbArc
 50
162.0335350006594
 51
180.0
  0
ARC
  5
277
330
6E
100
AcDbEntity
  8
1
  6
Continuous
 62
     7
100
AcDbCircle
 10
762.4604418950813
 20
604.8362897557881
 30
0.0
 40
59.326923076924
100
AcDbArc
 50
0.0
 51
21.55878422828498
  0
ARC
  5
278
330
6E
100
AcDbEntity
  8
1
  6
Continuous
 62
     7
100
AcDbCircle
 10
833.1142880489282
 20
604.8362897557881
 30
0.0
 40
59.32692307692405
100
AcDbArc
 50
162.0335350006593
 51
180.0
  0
ENDBLK
  5
70
330
6E
100
AcDbEntity
  8
0
100
AcDbBlockEnd
  0
BLOCK
  5
72
330
71
100
AcDbEntity
  8
0
100
AcDbBlockBegin
  2
84-360A-M22
 70
     0
 10
1471.209117938344
 20
796.2524739304331
 30
0.0
  3
84-360A-M22
  1

  0
LINE
  5
279
330
71
100
AcDbEntity
  8
1
  6
PHANTOM
 62
     5
100
AcDbLine
 10
786.9645375055576
 20
685.8038515984731
 30
0.0
 11
784.663197821024
 21
685.6025104651549
 31
0.0
  0
LINE
  5
27A
330
71
100
AcDbEntity
  8
1
  6
PHANTOM
 62
     5
100
AcDbLine
 10
828.7283775780357
 20
625.7344658381885
 30
0.0
 11
828.3057593162954
 21
624.8281580511525
 31
0.0
  0
LINE
  5
27B
330
71
100
AcDbEntity
  8
1
  6
Continuous
 62
     7
100
AcDbLine
 10
759.5500521039172
 20
674.9274803377934
 30
0.0
 11
762.0543956507291
 21
672.337819896657
 31
0.0
  0
LINE
  5
27C
330
71
100
AcDbEntity
  8
1
  6
Continuous
 62
     7
100
AcDbLine
 10
793.7873649720019
 20
659.0210104219218
 30
0.0
 11
791.7873649720019
 21
659.5362897557893
 31
0.0
  0
LINE
  5
27D
330
71
100
AcDbEntity
  8
1
  6
Continuous
 62
     7
100
AcDbLine
 10
764.7873649720019
 20
670.9406898597049
 30
0.0
 11
763.2873649720019
 21
671.9264981453721
 31
0.0
  0
LINE
  5
27E
330
71
100
AcDbEntity
  8
1
  6
Continuous
 62
     7
100
AcDbLine
 10
759.5500521039172
 20
674.9274803377934
 30
0.0
 11
757.5494204669877
 21
673.7724151236639
 31
0.0
  0
LINE
  5
27F
102
{ACAD_REACTORS
330
2A9
102
}
330
71
100
AcDbEntity
  8
1
  6
Continuous
 62
     7
100
AcDbLine
 10
764.7873649720019
 20
670.9406898597049
 30
0.0
 11
763.2873649720019
 21
671.9264981453721
 31
0.0
  0
LINE
  5
280
102
{ACAD_REACTORS
330
2A9
102
}
330
71
100
AcDbEntity
  8
1
  6
Continuous
 62
     7
100
AcDbLine
 10
793.7873649720019
 20
659.0210104219218
 30
0.0
 11
791.7873649720019
 21
659.5362897557893
 31
0.0
  0
LINE
  5
281
330
71
100
AcDbEntity
  8
1
  6
PHANTOM
 62
     4
100
AcDbLine
 10
797.7873649720019
 20
662.1820513358393
 30
0.0
 11
797.7873649720019
 21
620.1362897557888
 31
0.0
  0
LINE
  5
282
330
71
100
AcDbEntity
  8
1
  6
Continuous
 62
     7
100
AcDbLine
 10
822.7873649720019
 20
638.1362897557888
 30
0.0
 11
822.7873649720019
 21
637.1362897557888
 31
0.0
  0
LINE
  5
283
330
71
100
AcDbEntity
  8
1
  6
Continuous
 62
     7
100
AcDbLine
 10
822.7873649720019
 20
637.1362897557888
 30
0.0
 11
819.8077993681524
 21
637.1362897557888
 31
0.0
  0
LINE
  5
284
330
71
100
AcDbEntity
  8
1
  6
Continuous
 62
     7
100
AcDbLine
 10
333.1683821439659
 20
1240.103338251518
 30
0.0
 11
332.6547239083046
 21
1239.803128186004
 31
0.0
  0
LINE
  5
285
102
{ACAD_REACTORS
330
2AB
102
}
330
71
100
AcDbEntity
  8
1
  6
Continuous
 62
     7
100
AcDbLine
 10
333.7164857930337
 20
1269.902688661718
 30
0.0
 11
335.7252311136184
 21
1268.303128186003
 31
0.0
  0
LINE
  5
286
330
71
100
AcDbEntity
  8
1
  6
Continuous
 62
     7
100
AcDbLine
 10
302.4242264751632
 20
1240.103338251518
 30
0.0
 11
302.9378847108241
 21
1239.803128186004
 31
0.0
  0
LINE
  5
287
102
{ACAD_REACTORS
330
2AA
102
}
330
71
100
AcDbEntity
  8
1
  6
Continuous
 62
     7
100
AcDbLine
 10
301.8761228260954
 20
1269.902688661718
 30
0.0
 11
299.8673775055107
 21
1268.303128186003
 31
0.0
  0
LINE
  5
288
102
{ACAD_REACTORS
330
2AB
102
}
330
71
100
AcDbEntity
  8
1
  6
Continuous
 62
     7
100
AcDbLine
 10
335.221217980286
 20
1241.303128186003
 30
0.0
 11
333.1683821439659
 21
1240.103338251518
 31
0.0
  0
LINE
  5
289
330
71
100
AcDbEntity
  8
1
  6
Continuous
 62
     7
100
AcDbLine
 10
333.2136095137061
 20
1270.303128186004
 30
0.0
 11
333.7164857930337
 21
1269.902688661718
 31
0.0
  0
LINE
  5
28A
102
{ACAD_REACTORS
330
2AA
102
}
330
71
100
AcDbEntity
  8
1
  6
Continuous
 62
     7
100
AcDbLine
 10
300.3713906388429
 20
1241.303128186004
 30
0.0
 11
302.4242264751632
 21
1240.103338251518
 31
0.0
  0
LINE
  5
28B
330
71
100
AcDbEntity
  8
1
  6
Continuous
 62
     7
100
AcDbLine
 10
302.3789991054226
 20
1270.303128186004
 30
0.0
 11
301.8761228260954
 21
1269.902688661718
 31
0.0
  0
ARC
  5
28C
330
71
100
AcDbEntity
  8
1
  6
PHANTOM
 62
     5
100
AcDbCircle
 10
819.6652997076695
 20
629.9606484555957
 30
0.0
 40
9.999999999999819
100
AcDbArc
 50
334.9999999999984
 51
0.21991324594256
  0
ARC
  5
28D
330
71
100
AcDbEntity
  8
1
  6
PHANTOM
 62
     5
100
AcDbCircle
 10
819.6652997076695
 20
629.9606484555957
 30
0.0
 40
9.999999999999819
100
AcDbArc
 50
334.9999999999984
 51
29.6997515601383
  0
ARC
  5
28E
330
71
100
AcDbEntity
  8
1
  6
PHANTOM
 62
     5
100
AcDbCircle
 10
819.6652997076695
 20
629.9606484555957
 30
0.0
 40
9.999999999999819
100
AcDbArc
 50
334.9999999999984
 51
29.6997515601383
  0
ARC
  5
28F
330
71
100
AcDbEntity
  8
1
  6
PHANTOM
 62
     5
100
AcDbCircle
 10
819.6652997076695
 20
629.9606484555957
 30
0.0
 40
10.00000000000041
100
AcDbArc
 50
0.21991324594256
 51
29.6997515601383
  0
ARC
  5
290
330
71
100
AcDbEntity
  8
1
  6
PHANTOM
 62
     5
100
AcDbCircle
 10
654.3146774703474
 20
535.6472689038849
 30
0.0
 40
200.3571428571432
100
AcDbArc
 50
29.69975156013769
 51
48.54229199834976
  0
ARC
  5
291
330
71
100
AcDbEntity
  8
1
  6
Continuous
 62
     7
100
AcDbCircle
 10
693.050505868615
 20
463.4396073745345
 30
0.0
 40
220.0000000000004
100
AcDbArc
 50
71.38191495189244
 51
71.72042120108433
  0
ARC
  5
292
330
71
100
AcDbEntity
  8
1
  6
Continuous
 62
     7
100
AcDbCircle
 10
702.7873649720019
 20
482.7791468986459
 30
0.0
 40
200.3571428571429
100
AcDbArc
 50
54.69975156013984
 51
73.54229199835183
  0
ARC
  5
293
330
71
100
AcDbEntity
  8
1
  6
Continuous
 62
     7
100
AcDbCircle
 10
693.050505868615
 20
463.4396073745345
 30
0.0
 40
219.5515342386311
100
AcDbArc
 50
63.2742373199663
 51
70.92881112818715
  0
ARC
  5
294
102
{ACAD_REACTORS
330
2A9
102
}
330
71
100
AcDbEntity
  8
1
  6
Continuous
 62
     7
100
AcDbCircle
 10
693.050505868615
 20
463.4396073745345
 30
0.0
 40
220.0000000000004
100
AcDbArc
 50
62.7486530843121
 51
71.38191495189244
  0
ARC
  5
295
330
71
100
AcDbEntity
  8
1
  6
Continuous
 62
     7
100
AcDbCircle
 10
693.050505868615
 20
463.4396073745345
 30
0.0
 40
220.0000000000002
100
AcDbArc
 50
57.03802307375578
 51
62.7486530843121
  0
ARC
  5
296
102
{ACAD_REACTORS
330
2A9
102
}
330
71
100
AcDbEntity
  8
1
  6
Continuous
 62
     7
100
AcDbCircle
 10
693.050505868615
 20
463.4396073745345
 30
0.0
 40
219.5515342386311
100
AcDbArc
 50
63.2742373199663
 51
70.92881112818715
  0
ARC
  5
297
330
71
100
AcDbEntity
  8
1
  6
Continuous
 62
     7
100
AcDbCircle
 10
807.3077993681524
 20
639.6362897557888
 30
0.0
 40
10.0
100
AcDbArc
 50
0.0
 51
57.03802307375751
  0
ARC
  5
298
330
71
100
AcDbEntity
  8
1
  6
Continuous
 62
     7
100
AcDbCircle
 10
819.8077993681524
 20
639.6362897557888
 30
0.0
 40
2.5
100
AcDbArc
 50
180.0
 51
270.0
  0
ARC
  5
299
330
71
100
AcDbEntity
  8
1
  6
Continuous
 62
     7
100
AcDbCircle
 10
812.7873649720019
 20
638.1362897557888
 30
0.0
 40
10.0
100
AcDbArc
 50
0.0
 51
54.69975156014128
  0
ARC
  5
29A
102
{ACAD_REACTORS
330
2AB
102
}
330
71
100
AcDbEntity
  8
1
  6
Continuous
 62
     7
100
AcDbCircle
 10
-257.6851334087983
 20
1265.875706058434
 30
0.0
 40
591.4153293443075
100
AcDbArc
 50
357.502405522131
 51
0.39013342878285
  0
ARC
  5
29B
102
{ACAD_REACTORS
330
2AA
102
}
330
71
100
AcDbEntity
  8
1
  6
Continuous
 62
     7
100
AcDbCircle
 10
893.2777420279266
 20
1265.875706058434
 30
0.0
 40
591.4153293443068
100
AcDbArc
 50
179.6098665712171
 51
182.497594477869
  0
ARC
  5
29C
330
71
100
AcDbEntity
  8
1
  6
Continuous
 62
     7
100
AcDbCircle
 10
317.7963043095641
 20
1269.303128186004
 30
0.0
 40
45.00000000000205
100
AcDbArc
 50
251.7052947919987
 51
288.2947052080019
  0
ARC
  5
29D
330
71
100
AcDbEntity
  8
1
  6
Continuous
 62
     7
100
AcDbCircle
 10
-257.6851334087983
 20
1265.875706058434
 30
0.0
 40
590.915329344307
100
AcDbArc
 50
357.3514819526911
 51
357.4711541167296
  0
ARC
  5
29E
330
71
100
AcDbEntity
  8
1
  6
Continuous
 62
     7
100
AcDbCircle
 10
-257.6851334087983
 20
1265.875706058434
 30
0.0
 40
590.9153293443076
100
AcDbArc
 50
357.4711541167296
 51
0.42929158021493
  0
ARC
  5
29F
330
71
100
AcDbEntity
  8
1
  6
Continuous
 62
     7
100
AcDbCircle
 10
893.2777420279266
 20
1265.875706058434
 30
0.0
 40
590.9153293443073
100
AcDbArc
 50
179.5707084197851
 51
182.5288458832704
  0
ARC
  5
2A0
330
71
100
AcDbEntity
  8
1
  6
Continuous
 62
     7
100
AcDbCircle
 10
893.2777420279266
 20
1265.875706058434
 30
0.0
 40
590.915329344307
100
AcDbArc
 50
177.2239373385472
 51
179.5707084197851
  0
ARC
  5
2A1
102
{ACAD_REACTORS
330
2AA
102
}
330
71
100
AcDbEntity
  8
1
  6
Continuous
 62
     7
100
AcDbCircle
 10
893.2777420279266
 20
1265.875706058434
 30
0.0
 40
593.4153293443067
100
AcDbArc
 50
179.7656254835274
 51
182.3732242779171
  0
ARC
  5
2A2
102
{ACAD_REACTORS
330
2AB
102
}
330
71
100
AcDbEntity
  8
1
  6
Continuous
 62
     7
100
AcDbCircle
 10
-257.6851334087983
 20
1265.875706058434
 30
0.0
 40
593.4153293443076
100
AcDbArc
 50
357.6267757220828
 51
0.2343745164726
  0
ARC
  5
2A3
330
71
100
AcDbEntity
  8
1
  6
Continuous
 62
     7
100
AcDbCircle
 10
-257.6851334087983
 20
1265.875706058434
 30
0.0
 40
590.9153293443077
100
AcDbArc
 50
0.42929158021493
 51
2.77606266145281
  0
ARC
  5
2A4
330
71
100
AcDbEntity
  8
1
  6
Continuous
 62
     7
100
AcDbCircle
 10
-257.6851334087983
 20
1265.875706058434
 30
0.0
 40
590.9153293443077
100
AcDbArc
 50
356.1868068539
 51
357.3514819526911
  0
ARC
  5
2A5
330
71
100
AcDbEntity
  8
1
  6
Continuous
 62
     7
100
AcDbCircle
 10
893.2777420279266
 20
1265.875706058434
 30
0.0
 40
590.9153293443071
100
AcDbArc
 50
182.5288458832704
 51
182.6485180473088
  0
ARC
  5
2A6
330
71
100
AcDbEntity
  8
1
  6
Continuous
 62
     7
100
AcDbCircle
 10
317.7963043095646
 20
1274.303128186004
 30
0.0
 40
24.99999999999919
100
AcDbArc
 50
53.8701568634348
 51
126.1298431365668
  0
ARC
  5
2A7
330
71
100
AcDbEntity
  8
1
  6
Continuous
 62
     7
100
AcDbCircle
 10
893.2777420279266
 20
1265.875706058434
 30
0.0
 40
590.915329344307
100
AcDbArc
 50
182.6485180473088
 51
183.8131931461
  0
ARC
  5
2A8
330
71
100
AcDbEntity
  8
1
  6
Continuous
 62
     7
100
AcDbCircle
 10
317.7963043095641
 20
1281.06581531792
 30
0.0
 40
45.00000000000078
100
AcDbArc
 50
250.7950441663104
 51
289.2049558336897
  0
HATCH
  5
2A9
330
71
100
AcDbEntity
  8
1
  6
Continuous
 62
     2
100
AcDbHatch
 10
0.0
 20
0.0
 30
0.0
210
0.0
220
0.0
230
1.0
  2
CUSTOM0
 70
     0
 71
     1
 91
        1
 92
        1
 93
        4
 72
     1
 10
793.7873649720019
 20
659.0210104219218
 11
791.7873649720019
 21
659.5362897557893
 72
     2
 10
693.050505868615
 20
463.4396073745345
 40
219.5515342386311
 50
63.2742373199663
 51
70.92881112818715
 73
     1
 72
     1
 10
764.7873649720019
 20
670.9406898597049
 11
763.2873649720019
 21
671.9264981453721
 72
     2
 10
693.050505868615
 20
463.4396073745345
 40
220.0000000000004
 50
288.6180850481076
 51
297.2513469156879
 73
     0
 97
        4
330
280
330
296
330
27F
330
294
 75
     1
 76
     2
 52
45.0
 41
0.5
 77
     0
 78
     1
 53
45.0
 43
0.0
 44
0.0
 45
-1.414213562373095
 46
0.0000000000000001
 79
     0
 98
        1
 10
0.0
 20
0.0
  0
HATCH
  5
2AA
330
71
100
AcDbEntity
  8
1
  6
Continuous
 62
     2
100
AcDbHatch
 10
0.0
 20
0.0
 30
0.0
210
0.0
220
0.0
230
1.0
  2
CUSTOM1
 70
     0
 71
     1
 91
        1
 92
        1
 93
        4
 72
     2
 10
893.2777420279266
 20
1265.875706058434
 40
593.4153293443067
 50
179.7656254835274
 51
182.3732242779171
 73
     1
 72
     1
 10
300.3713906388429
 20
1241.303128186004
 11
302.4242264751632
 21
1240.103338251518
 72
     2
 10
893.2777420279266
 20
1265.875706058434
 40
591.4153293443068
 50
177.502405522131
 51
180.3901334287829
 73
     0
 72
     1
 10
301.8761228260954
 20
1269.902688661718
 11
299.8673775055107
 21
1268.303128186003
 97
        4
330
2A1
330
28A
330
29B
330
287
 75
     1
 76
     2
 52
45.0
 41
0.5
 77
     0
 78
     1
 53
45.0
 43
0.0
 44
0.0
 45
-1.414213562373095
 46
0.0000000000000001
 79
     0
 98
        1
 10
0.0
 20
0.0
  0
HATCH
  5
2AB
330
71
100
AcDbEntity
  8
1
  6
Continuous
 62
     2
100
AcDbHatch
 10
0.0
 20
0.0
 30
0.0
210
0.0
220
0.0
230
1.0
  2
CUSTOM2
 70
     0
 71
     1
 91
        1
 92
        1
 93
        4
 72
     2
 10
-257.6851334087983
 20
1265.875706058434
 40
593.4153293443076
 50
359.7656254835274
 51
362.3732242779172
 73
     0
 72
     1
 10
335.221217980286
 20
1241.303128186003
 11
333.1683821439659
 21
1240.103338251518
 72
     2
 10
-257.6851334087983
 20
1265.875706058434
 40
591.4153293443075
 50
357.502405522131
 51
360.3901334287828
 73
     1
 72
     1
 10
333.7164857930337
 20
1269.902688661718
 11
335.7252311136184
 21
1268.303128186003
 97
        4
330
29A
330
288
330
2A2
330
285
 75
     1
 76
     2
 52
45.0
 41
0.5
 77
     0
 78
     1
 53
45.0
 43
0.0
 44
0.0
 45
-1.414213562373095
 46
0.0000000000000001
 79
     0
 98
        1
 10
0.0
 20
0.0
  0
ENDBLK
  5
73
330
71
100
AcDbEntity
  8
0
100
AcDbBlockEnd
  0
BLOCK
  5
76
330
74
100
AcDbEntity
  8
0
100
AcDbBlockBegin
  2
87-163A-M21
 70
     0
 10
4288.914153234307
 20
5261.409999756499
 30
0.0
  3
87-163A-M21
  1

  0
INSERT
  5
75
330
74
100
AcDbEntity
  8
1
100
AcDbBlockReference
  2
84-360A-M22
 10
1471.209117938344
 20
796.252473930433
 30
0.0
 41
1.0
 42
1.0
 43
1.0
  0
LINE
  5
2AC
330
74
100
AcDbEntity
  8
1
  6
PHANTOM
 62
     5
100
AcDbLine
 10
828.3057593162954
 20
624.8281580511516
 30
0.0
 11
824.4293881178279
 21
616.5152531895751
 31
0.0
  0
LINE
  5
2AD
330
74
100
AcDbEntity
  8
1
  6
PHANTOM
 62
     5
100
AcDbLine
 10
823.8468247017582
 20
616.2435994073016
 30
0.0
 11
820.4972863216941
 21
617.1411055112571
 31
0.0
  0
LINE
  5
2AE
330
74
100
AcDbEntity
  8
1
  6
PHANTOM
 62
     5
100
AcDbLine
 10
732.3446346680863
 20
714.8140600372458
 30
0.0
 11
731.8643322697031
 21
713.7840482199758
 31
0.0
  0
LINE
  5
2AF
330
74
100
AcDbEntity
  8
1
  6
PHANTOM
 62
     5
100
AcDbLine
 10
822.7873649720019
 20
638.1362897557888
 30
0.0
 11
822.7873649720019
 21
637.1362897557888
 31
0.0
  0
LINE
  5
2B0
330
74
100
AcDbEntity
  8
1
  6
Continuous
 62
     7
100
AcDbLine
 10
822.7873649720019
 20
637.1362897557888
 30
0.0
 11
819.8077993681524
 21
637.1362897557888
 31
0.0
  0
LINE
  5
2B1
330
74
100
AcDbEntity
  8
1
  6
Continuous
 62
     7
100
AcDbLine
 10
697.7873649720019
 20
678.1362897557888
 30
0.0
 11
697.7873649720019
 21
676.9997974603434
 31
0.0
  0
LINE
  5
2B2
330
74
100
AcDbEntity
  8
1
  6
PHANTOM
 62
     4
100
AcDbLine
 10
797.7873649720019
 20
662.1820513358393
 30
0.0
 11
797.7873649720019
 21
620.1362897557888
 31
0.0
  0
LINE
  5
2B3
330
74
100
AcDbEntity
  8
1
  6
Continuous
 62
     7
100
AcDbLine
 10
772.7873649720019
 20
623.6362897557888
 30
0.0
 11
772.7873649720019
 21
646.1362897557888
 31
0.0
  0
LINE
  5
2B4
330
74
100
AcDbEntity
  8
1
  6
Continuous
 62
     7
100
AcDbLine
 10
795.1627050662242
 20
623.1362897557888
 30
0.0
 11
773.2873649720019
 21
623.1362897557888
 31
0.0
  0
LINE
  5
2B5
330
74
100
AcDbEntity
  8
1
  6
Continuous
 62
     7
100
AcDbLine
 10
822.7873649720019
 20
637.1362897557888
 30
0.0
 11
822.7873649720019
 21
627.9640140890892
 31
0.0
  0
LINE
  5
2B6
330
74
100
AcDbEntity
  8
1
  6
Continuous
 62
     7
100
AcDbLine
 10
822.3741890608354
 20
627.4716102125835
 30
0.0
 11
800.3721503962321
 21
623.5920571654228
 31
0.0
  0
LINE
  5
2B7
330
74
100
AcDbEntity
  8
1
  6
Continuous
 62
     7
100
AcDbLine
 10
797.7873649720019
 20
623.1362897557888
 30
0.0
 11
795.1627050662242
 21
623.1362897557888
 31
0.0
  0
LINE
  5
2B8
330
74
100
AcDbEntity
  8
1
  6
Continuous
 62
     7
100
AcDbLine
 10
793.7873649720019
 20
659.0210104219218
 30
0.0
 11
791.7873649720019
 21
659.5362897557893
 31
0.0
  0
LINE
  5
2B9
330
74
100
AcDbEntity
  8
1
  6
Continuous
 62
     7
100
AcDbLine
 10
764.7873649720019
 20
670.9406898597049
 30
0.0
 11
763.2873649720019
 21
671.9264981453721
 31
0.0
  0
LINE
  5
2BA
330
74
100
AcDbEntity
  8
1
  6
Continuous
 62
     7
100
AcDbLine
 10
302.7873649720083
 20
623.1362897557883
 30
0.0
 11
293.2873649720058
 21
623.1362897557883
 31
0.0
  0
LINE
  5
2BB
330
74
100
AcDbEntity
  8
1
  6
Continuous
 62
     7
100
AcDbLine
 10
342.2873649720058
 20
623.1362897557883
 30
0.0
 11
332.7873649720084
 21
623.1362897557883
 31
0.0
  0
LINE
  5
2BC
330
74
100
AcDbEntity
  8
1
  6
Continuous
 62
     7
100
AcDbLine
 10
342.7873649720058
 20
623.6362897557883
 30
0.0
 11
342.7873649720058
 21
645.1362897557883
 31
0.0
  0
LINE
  5
2BD
330
74
100
AcDbEntity
  8
1
  6
Continuous
 62
     7
100
AcDbLine
 10
292.7873649720058
 20
645.1362897557883
 30
0.0
 11
292.7873649720058
 21
623.6362897557883
 31
0.0
  0
LINE
  5
2BE
330
74
100
AcDbEntity
  8
1
  6
Continuous
 62
     7
100
AcDbLine
 10
335.9752332043858
 20
1268.303128186004
 30
0.0
 11
333.4636165281933
 21
1270.303128186004
 31
0.0
  0
LINE
  5
2BF
330
74
100
AcDbEntity
  8
1
  6
Continuous
 62
     7
100
AcDbLine
 10
335.4714325012391
 20
1241.303128186004
 30
0.0
 11
332.9049675087925
 21
1239.803128186004
 31
0.0
  0
LINE
  5
2C0
330
74
100
AcDbEntity
  8
1
  6
Continuous
 62
     7
100
AcDbLine
 10
300.1211761178901
 20
1241.303128186004
 30
0.0
 11
302.6876411103365
 21
1239.803128186004
 31
0.0
  0
LINE
  5
2C1
330
74
100
AcDbEntity
  8
1
  6
Continuous
 62
     7
100
AcDbLine
 10
302.1289920909356
 20
1270.303128186004
 30
0.0
 11
299.6173754147429
 21
1268.303128186004
 31
0.0
  0
ARC
  5
2C2
330
74
100
AcDbEntity
  8
1
  6
PHANTOM
 62
     5
100
AcDbCircle
 10
375.7790603668612
 20
1216.320372128709
 30
0.0
 40
18.00000000000132
100
AcDbArc
 50
232.2854734842116
 51
0.0
  0
ARC
  5
2C3
330
74
100
AcDbEntity
  8
1
  6
PHANTOM
 62
     5
100
AcDbCircle
 10
259.8135482522674
 20
1216.320372128709
 30
0.0
 40
17.99999999999828
100
AcDbArc
 50
142.2854734842158
 51
181.0262737123372
  0
ARC
  5
2C4
330
74
100
AcDbEntity
  8
1
  6
PHANTOM
 62
     5
100
AcDbCircle
 10
736.8761736032694
 20
712.7009687285422
 30
0.0
 40
5.000000000000322
100
AcDbArc
 50
65.00000000000058
 51
90.0
  0
ARC
  5
2C5
330
74
100
AcDbEntity
  8
1
  6
PHANTOM
 62
     5
100
AcDbCircle
 10
774.1056253016174
 20
660.032496885889
 30
0.0
 40
14.00000000000035
100
AcDbArc
 50
20.27842980764776
 51
41.49354248246961
  0
ARC
  5
2C6
330
74
100
AcDbEntity
  8
1
  6
PHANTOM
 62
     5
100
AcDbCircle
 10
634.7859715365404
 20
536.80086914861
 30
0.0
 40
200.0000000000006
100
AcDbArc
 50
41.49354248247094
 51
60.68838098644664
  0
ARC
  5
2C7
330
74
100
AcDbEntity
  8
1
  6
PHANTOM
 62
     5
100
AcDbCircle
 10
654.3146774703474
 20
535.6472689038849
 30
0.0
 40
200.357142857143
100
AcDbArc
 50
64.42805402126213
 51
64.99999999999795
  0
ARC
  5
2C8
330
74
100
AcDbEntity
  8
1
  6
PHANTOM
 62
     5
100
AcDbCircle
 10
736.8761736032694
 20
712.7009687285422
 30
0.0
 40
5.0
100
AcDbArc
 50
90.0
 51
154.9999999999984
  0
ARC
  5
2C9
330
74
100
AcDbEntity
  8
1
  6
PHANTOM
 62
     5
100
AcDbCircle
 10
637.3168436671232
 20
522.2346681045676
 30
0.0
 40
220.0000000000011
100
AcDbArc
 50
47.95175246216949
 51
61.94185502721912
  0
ARC
  5
2CA
330
74
100
AcDbEntity
  8
1
  6
Continuous
 62
     7
100
AcDbCircle
 10
758.7873649720019
 20
646.1362897557888
 30
0.0
 40
14.0
100
AcDbArc
 50
0.0
 51
66.49354248247413
  0
ARC
  5
2CB
330
74
100
AcDbEntity
  8
1
  6
Continuous
 62
     7
100
AcDbCircle
 10
702.7873649720019
 20
482.7791468986459
 30
0.0
 40
200.3571428571431
100
AcDbArc
 50
89.42805402126429
 51
90.0
  0
ARC
  5
2CC
330
74
100
AcDbEntity
  8
1
  6
Continuous
 62
     7
100
AcDbCircle
 10
702.7873649720019
 20
678.1362897557888
 30
0.0
 40
5.0
100
AcDbArc
 50
90.0
 51
180.0
  0
ARC
  5
2CD
330
74
100
AcDbEntity
  8
1
  6
Continuous
 62
     7
100
AcDbCircle
 10
684.6008141832746
 20
475.5714760277763
 30
0.0
 40
200.0000000000006
100
AcDbArc
 50
66.49354248247306
 51
85.68838098644868
  0
ARC
  5
2CE
330
74
100
AcDbEntity
  8
1
  6
Continuous
 62
     7
100
AcDbCircle
 10
693.050505868615
 20
463.4396073745345
 30
0.0
 40
220.0000000000004
100
AcDbArc
 50
71.38191495189244
 51
86.94185502722127
  0
ARC
  5
2CF
330
74
100
AcDbEntity
  8
1
  6
Continuous
 62
     7
100
AcDbCircle
 10
819.8077993681524
 20
639.6362897557888
 30
0.0
 40
2.5
100
AcDbArc
 50
180.0
 51
270.0
  0
ARC
  5
2D0
330
74
100
AcDbEntity
  8
1
  6
Continuous
 62
     7
100
AcDbCircle
 10
807.3077993681524
 20
639.6362897557888
 30
0.0
 40
10.0
100
AcDbArc
 50
0.0
 51
57.03802307375533
  0
ARC
  5
2D1
330
74
100
AcDbEntity
  8
1
  6
Continuous
 62
     7
100
AcDbCircle
 10
693.050505868615
 20
463.4396073745345
 30
0.0
 40
219.5515342386311
100
AcDbArc
 50
63.2742373199663
 51
70.92881112818715
  0
ARC
  5
2D2
330
74
100
AcDbEntity
  8
1
  6
Continuous
 62
     7
100
AcDbCircle
 10
693.050505868615
 20
463.4396073745345
 30
0.0
 40
220.0000000000005
100
AcDbArc
 50
57.03802307375568
 51
62.7486530843121
  0
ARC
  5
2D3
330
74
100
AcDbEntity
  8
1
  6
Continuous
 62
     7
100
AcDbCircle
 10
252.7873649720057
 20
645.1362897557883
 30
0.0
 40
90.00000000000009
100
AcDbArc
 50
0.0
 51
19.81251447871881
  0
ARC
  5
2D4
330
74
100
AcDbEntity
  8
1
  6
Continuous
 62
     7
100
AcDbCircle
 10
382.7873649720058
 20
645.1362897557883
 30
0.0
 40
89.99999999999991
100
AcDbArc
 50
160.1874855212812
 51
180.0
  0
ARC
  5
2D5
330
74
100
AcDbEntity
  8
1
  6
PHANTOM
 62
     5
100
AcDbCircle
 10
-95.08961008239956
 20
1675.270867909316
 30
0.0
 40
591.1653293443076
100
AcDbArc
 50
307.9451402673781
 51
310.9954473632213
  0
ARC
  5
2D6
330
74
100
AcDbEntity
  8
1
  6
PHANTOM
 62
     5
100
AcDbCircle
 10
718.7640440328763
 20
861.41721379404
 30
0.0
 40
591.1653293443089
100
AcDbArc
 50
142.0548597326217
 51
142.2854734842086
  0
ARC
  5
2D7
330
74
100
AcDbEntity
  8
1
  6
PHANTOM
 62
     5
100
AcDbCircle
 10
259.8135482522674
 20
1216.320372128709
 30
0.0
 40
10.99999999999886
100
AcDbArc
 50
142.2854734842158
 51
307.7145265157885
  0
ARC
  5
2D8
330
74
100
AcDbEntity
  8
1
  6
PHANTOM
 62
     5
100
AcDbCircle
 10
259.8135482522674
 20
1216.320372128709
 30
0.0
 40
18.00000000000118
100
AcDbArc
 50
181.0262737123372
 51
307.7145265157878
  0
ARC
  5
2D9
330
74
100
AcDbEntity
  8
1
  6
PHANTOM
 62
     5
100
AcDbCircle
 10
264.4097423299812
 20
1220.916566206421
 30
0.0
 40
12.5000000000001
100
AcDbArc
 50
161.2782275840331
 51
288.7217724159545
  0
ARC
  5
2DA
330
74
100
AcDbEntity
  8
1
  6
PHANTOM
 62
     5
100
AcDbCircle
 10
-95.08961008239956
 20
1675.270867909316
 30
0.0
 40
591.165329344307
100
AcDbArc
 50
307.7145265157914
 51
307.9451402673781
  0
ARC
  5
2DB
330
74
100
AcDbEntity
  8
1
  6
PHANTOM
 62
     5
100
AcDbCircle
 10
1036.642779612783
 20
615.6038455507951
 30
0.0
 40
1000.000000000002
100
AcDbArc
 50
138.3405795102228
 51
142.2854734842088
  0
ARC
  5
2DC
330
74
100
AcDbEntity
  8
1
  6
PHANTOM
 62
     5
100
AcDbCircle
 10
718.7640440328763
 20
861.41721379404
 30
0.0
 40
591.1653293443071
100
AcDbArc
 50
138.8032659793443
 51
142.0548597326217
  0
ARC
  5
2DD
330
74
100
AcDbEntity
  8
1
  6
PHANTOM
 62
     5
100
AcDbCircle
 10
314.2607704036312
 20
1270.767594280071
 30
0.0
 40
45.00000000000007
100
AcDbArc
 50
206.3613151914896
 51
241.1042250445674
  0
ARC
  5
2DE
330
74
100
AcDbEntity
  8
1
  6
PHANTOM
 62
     5
100
AcDbCircle
 10
-340.9029783256418
 20
1993.149603489221
 30
0.0
 40
999.9999999999969
100
AcDbArc
 50
307.7145265157912
 51
309.3784162572703
  0
ARC
  5
2DF
330
74
100
AcDbEntity
  8
1
  6
PHANTOM
 62
     5
100
AcDbCircle
 10
321.3318382154974
 20
1270.767594280071
 30
0.0
 40
45.00000000000133
100
AcDbArc
 50
298.8957749554332
 51
333.6386848085118
  0
ARC
  5
2E0
330
74
100
AcDbEntity
  8
1
  6
PHANTOM
 62
     5
100
AcDbCircle
 10
730.6822187015276
 20
1675.270867909316
 30
0.0
 40
591.1653293443056
100
AcDbArc
 50
229.0045526367788
 51
232.054859732622
  0
ARC
  5
2E1
330
74
100
AcDbEntity
  8
1
  6
PHANTOM
 62
     5
100
AcDbCircle
 10
-83.17143541374801
 20
861.41721379404
 30
0.0
 40
591.1653293443069
100
AcDbArc
 50
37.94514026737799
 51
41.19673402065573
  0
ARC
  5
2E2
330
74
100
AcDbEntity
  8
1
  6
PHANTOM
 62
     5
100
AcDbCircle
 10
-83.17143541374801
 20
861.41721379404
 30
0.0
 40
591.1653293443078
100
AcDbArc
 50
37.71452651579136
 51
37.94514026737799
  0
ARC
  5
2E3
330
74
100
AcDbEntity
  8
1
  6
PHANTOM
 62
     5
100
AcDbCircle
 10
371.1828662891475
 20
1220.916566206421
 30
0.0
 40
12.50000000000001
100
AcDbArc
 50
251.278227584044
 51
18.72177241594908
  0
ARC
  5
2E4
330
74
100
AcDbEntity
  8
1
  6
PHANTOM
 62
     5
100
AcDbCircle
 10
375.7790603668612
 20
1216.320372128709
 30
0.0
 40
17.99999999999824
100
AcDbArc
 50
0.0
 51
37.71452651578441
  0
ARC
  5
2E5
330
74
100
AcDbEntity
  8
1
  6
PHANTOM
 62
     5
100
AcDbCircle
 10
375.7790603668612
 20
1216.320372128709
 30
0.0
 40
11.00000000000146
100
AcDbArc
 50
232.2854734842113
 51
37.71452651578369
  0
ARC
  5
2E6
330
74
100
AcDbEntity
  8
1
  6
PHANTOM
 62
     5
100
AcDbCircle
 10
730.6822187015276
 20
1675.270867909316
 30
0.0
 40
591.1653293443073
100
AcDbArc
 50
232.054859732622
 51
232.2854734842086
  0
ARC
  5
2E7
330
74
100
AcDbEntity
  8
1
  6
PHANTOM
 62
     5
100
AcDbCircle
 10
-401.0501709936509
 20
615.6038455507983
 30
0.0
 40
999.9999999999951
100
AcDbArc
 50
37.71452651579123
 51
41.6594204897772
  0
ARC
  5
2E8
330
74
100
AcDbEntity
  8
1
  6
PHANTOM
 62
     5
100
AcDbCircle
 10
976.4955869447734
 20
1993.149603489222
 30
0.0
 40
1000.000000000001
100
AcDbArc
 50
230.6215837427296
 51
232.2854734842086
  0
ARC
  5
2E9
330
74
100
AcDbEntity
  8
1
  6
Continuous
 62
     7
100
AcDbCircle
 10
317.7963043095646
 20
1274.303128186004
 30
0.0
 40
24.99999999999969
100
AcDbArc
 50
53.13010235415693
 51
53.87015686343756
  0
ARC
  5
2EA
330
74
100
AcDbEntity
  8
1
  6
Continuous
 62
     7
100
AcDbCircle
 10
893.2777420279266
 20
1265.875706058435
 30
0.0
 40
593.6653293443075
100
AcDbArc
 50
179.7657241821592
 51
182.3722243114999
  0
ARC
  5
2EB
330
74
100
AcDbEntity
  8
1
  6
Continuous
 62
     7
100
AcDbCircle
 10
-257.6851334087983
 20
1265.875706058435
 30
0.0
 40
591.1653293443075
100
AcDbArc
 50
0.42911003218281
 51
2.75625041500955
  0
ARC
  5
2EC
330
74
100
AcDbEntity
  8
1
  6
Continuous
 62
     7
100
AcDbCircle
 10
893.2777420279266
 20
1265.875706058435
 30
0.0
 40
591.1653293443075
100
AcDbArc
 50
187.0548597326219
 51
187.2854734842087
  0
ARC
  5
2ED
330
74
100
AcDbEntity
  8
1
  6
Continuous
 62
     7
100
AcDbCircle
 10
317.7963043095646
 20
1192.303128186004
 30
0.0
 40
11.00000000000059
100
AcDbArc
 50
187.2854734842078
 51
352.7145265157919
  0
ARC
  5
2EE
330
74
100
AcDbEntity
  8
1
  6
Continuous
 62
     7
100
AcDbCircle
 10
317.7963043095646
 20
1274.303128186004
 30
0.0
 40
25.00000000000031
100
AcDbArc
 50
126.869897645845
 51
182.5000932383824
  0
ARC
  5
2EF
330
74
100
AcDbEntity
  8
1
  6
Continuous
 62
     7
100
AcDbCircle
 10
317.7963043095646
 20
1269.303128186004
 30
0.0
 40
45.00000000000014
100
AcDbArc
 50
251.3613151914882
 51
288.6386848085108
  0
ARC
  5
2F0
330
74
100
AcDbEntity
  8
1
  6
Continuous
 62
     7
100
AcDbCircle
 10
317.7963043095646
 20
1192.303128186004
 30
0.0
 40
18.00000000000033
100
AcDbArc
 50
187.2854734842082
 51
352.7145265157916
  0
ARC
  5
2F1
330
74
100
AcDbEntity
  8
1
  6
Continuous
 62
     7
100
AcDbCircle
 10
317.7963043095646
 20
1198.803128186007
 30
0.0
 40
12.50000000000044
100
AcDbArc
 50
206.278227584048
 51
333.7217724159506
  0
ARC
  5
2F2
330
74
100
AcDbEntity
  8
1
  6
Continuous
 62
     7
100
AcDbCircle
 10
1291.86825114259
 20
1316.833615990888
 30
0.0
 40
1000.000000000002
100
AcDbArc
 50
182.5000932383834
 51
187.2854734842087
  0
ARC
  5
2F3
330
74
100
AcDbEntity
  8
1
  6
Continuous
 62
     7
100
AcDbCircle
 10
-656.2756425234556
 20
1316.833615990888
 30
0.0
 40
999.999999999996
100
AcDbArc
 50
352.7145265157912
 51
357.4999067616165
  0
ARC
  5
2F4
330
74
100
AcDbEntity
  8
1
  6
Continuous
 62
     7
100
AcDbCircle
 10
893.2777420279266
 20
1265.875706058435
 30
0.0
 40
591.1653293443073
100
AcDbArc
 50
177.2437495849904
 51
179.5708899678172
  0
ARC
  5
2F5
330
74
100
AcDbEntity
  8
1
  6
Continuous
 62
     7
100
AcDbCircle
 10
317.7963043095646
 20
1274.303128186004
 30
0.0
 40
25.00000000000042
100
AcDbArc
 50
357.4999067616176
 51
53.13010235415693
  0
ARC
  5
2F6
330
74
100
AcDbEntity
  8
1
  6
Continuous
 62
     7
100
AcDbCircle
 10
317.7963043095646
 20
1274.303128186004
 30
0.0
 40
25.00000000000158
100
AcDbArc
 50
126.1298431365648
 51
126.869897645845
  0
ARC
  5
2F7
330
74
100
AcDbEntity
  8
1
  6
Continuous
 62
     7
100
AcDbCircle
 10
893.2777420279266
 20
1265.875706058435
 30
0.0
 40
591.1653293443072
100
AcDbArc
 50
182.5277757561427
 51
183.8032659793443
  0
ARC
  5
2F8
330
74
100
AcDbEntity
  8
1
  6
Continuous
 62
     7
100
AcDbCircle
 10
893.2777420279266
 20
1265.875706058435
 30
0.0
 40
591.1653293443073
100
AcDbArc
 50
183.8032659793443
 51
187.0548597326219
  0
ARC
  5
2F9
330
74
100
AcDbEntity
  8
1
  6
Continuous
 62
     7
100
AcDbCircle
 10
-257.6851334087983
 20
1265.875706058435
 30
0.0
 40
591.1653293443075
100
AcDbArc
 50
356.1967340206557
 51
357.4722242438573
  0
ARC
  5
2FA
330
74
100
AcDbEntity
  8
1
  6
Continuous
 62
     7
100
AcDbCircle
 10
-257.6851334087983
 20
1265.875706058435
 30
0.0
 40
591.1653293443077
100
AcDbArc
 50
352.945140267378
 51
356.1967340206557
  0
ARC
  5
2FB
330
74
100
AcDbEntity
  8
1
  6
Continuous
 62
     7
100
AcDbCircle
 10
-257.6851334087983
 20
1265.875706058435
 30
0.0
 40
591.1653293443079
100
AcDbArc
 50
352.7145265157912
 51
352.945140267378
  0
ARC
  5
2FC
330
74
100
AcDbEntity
  8
1
  6
Continuous
 62
     7
100
AcDbCircle
 10
-257.6851334087983
 20
1265.875706058435
 30
0.0
 40
593.6653293443077
100
AcDbArc
 50
357.6277756885002
 51
0.23427581784082
  0
ARC
  5
2FD
330
74
100
AcDbEntity
  8
1
  6
PHANTOM
 62
     5
100
AcDbCircle
 10
823.9762342243095
 20
616.7265623204462
 30
0.0
 40
0.5000000000000006
100
AcDbArc
 50
255.0000000000056
 51
334.9999999999294
  0
ARC
  5
2FE
330
74
100
AcDbEntity
  8
1
  6
PHANTOM
 62
     5
100
AcDbCircle
 10
733.6769478437765
 20
712.9388116964942
 30
0.0
 40
2.000000000000123
100
AcDbArc
 50
154.9999999999947
 51
240.6883809864309
  0
ARC
  5
2FF
330
74
100
AcDbEntity
  8
1
  6
Continuous
 62
     7
100
AcDbCircle
 10
699.7873649720019
 20
676.9997974603434
 30
0.0
 40
2.0
100
AcDbArc
 50
180.0
 51
265.688380986446
  0
ARC
  5
300
330
74
100
AcDbEntity
  8
1
  6
Continuous
 62
     7
100
AcDbCircle
 10
795.1627050662242
 20
653.1362897557888
 30
0.0
 40
30.0
100
AcDbArc
 50
270.0
 51
280.0
  0
ARC
  5
301
330
74
100
AcDbEntity
  8
1
  6
Continuous
 62
     7
100
AcDbCircle
 10
822.2873649720019
 20
627.9640140890892
 30
0.0
 40
0.4999999999996145
100
AcDbArc
 50
280.0000000000129
 51
0.0
  0
ARC
  5
302
330
74
100
AcDbEntity
  8
1
  6
Continuous
 62
     7
100
AcDbCircle
 10
773.2873649720019
 20
623.6362897557888
 30
0.0
 40
0.5
100
AcDbArc
 50
180.0
 51
270.0
  0
ARC
  5
303
330
74
100
AcDbEntity
  8
1
  6
Continuous
 62
     7
100
AcDbCircle
 10
328.0519057529634
 20
672.2517632171084
 30
0.0
 40
9.999999999999755
100
AcDbArc
 50
19.81251447871865
 51
56.47542937283043
  0
ARC
  5
304
330
74
100
AcDbEntity
  8
1
  6
Continuous
 62
     7
100
AcDbCircle
 10
307.5228241910481
 20
672.2517632171084
 30
0.0
 40
9.999999999999535
100
AcDbArc
 50
123.5245706271674
 51
160.1874855212817
  0
ARC
  5
305
330
74
100
AcDbEntity
  8
1
  6
Continuous
 62
     7
100
AcDbCircle
 10
342.2873649720058
 20
623.6362897557883
 30
0.0
 40
0.5
100
AcDbArc
 50
270.0
 51
0.0
  0
ARC
  5
306
330
74
100
AcDbEntity
  8
1
  6
Continuous
 62
     7
100
AcDbCircle
 10
293.2873649720058
 20
623.6362897557883
 30
0.0
 40
0.5
100
AcDbArc
 50
180.0
 51
270.0
  0
ENDBLK
  5
77
330
74
100
AcDbEntity
  8
0
100
AcDbBlockEnd
  0
BLOCK
  5
79
330
78
100
AcDbEntity
  8
0
100
AcDbBlockBegin
  2
30-252A-C2__11
 70
     0
 10
833.9341280730371
 20
2891.565470378916
 30
0.0
  3
30-252A-C2__11
  1

  0
LINE
  5
307
330
78
100
AcDbEntity
  8
1
  6
Continuous
 62
     7
100
AcDbLine
 10
406.3950601265909
 20
455.1362897557886
 30
0.0
 11
406.2873649720042
 21
455.1362897557886
 31
0.0
  0
LINE
  5
308
330
78
100
AcDbEntity
  8
1
  6
Continuous
 62
     7
100
AcDbLine
 10
406.7873649720056
 20
455.6362897557895
 30
0.0
 11
406.2873649720042
 21
455.1362897557886
 31
0.0
  0
LINE
  5
309
330
78
100
AcDbEntity
  8
1
  6
Continuous
 62
     7
100
AcDbLine
 10
406.2873649720042
 20
427.2262243958469
 30
0.0
 11
406.2873649720042
 21
455.1362897557886
 31
0.0
  0
LINE
  5
30A
330
78
100
AcDbEntity
  8
0
  6
Continuous
 62
     7
100
AcDbLine
 10
429.6373649720043
 20
422.6362897557895
 30
0.0
 11
408.9373649720043
 21
422.6362897557895
 31
0.0
  0
LINE
  5
30B
330
78
100
AcDbEntity
  8
1
  6
Continuous
 62
     7
100
AcDbLine
 10
414.2873649720042
 20
440.4362897557897
 30
0.0
 11
411.3950601265909
 21
440.4362897557897
 31
0.0
  0
LINE
  5
30C
330
78
100
AcDbEntity
  8
1
  6
Continuous
 62
     7
100
AcDbLine
 10
414.2873649720042
 20
440.6362897557895
 30
0.0
 11
411.3950601265909
 21
440.6362897557895
 31
0.0
  0
LINE
  5
30D
330
78
100
AcDbEntity
  8
1
  6
Continuous
 62
     7
100
AcDbLine
 10
414.2873649720042
 20
440.8362897557897
 30
0.0
 11
411.3950601265909
 21
440.8362897557897
 31
0.0
  0
LINE
  5
30E
330
78
100
AcDbEntity
  8
1
  6
Continuous
 62
     7
100
AcDbLine
 10
411.3950601265909
 20
455.1362897557886
 30
0.0
 11
411.3950601265909
 21
427.2262243958469
 31
0.0
  0
LINE
  5
30F
330
78
100
AcDbEntity
  8
1
  6
Continuous
 62
     7
100
AcDbLine
 10
414.2873649720042
 20
427.2262243958469
 30
0.0
 11
414.2873649720042
 21
455.1362897557886
 31
0.0
  0
LINE
  5
310
330
78
100
AcDbEntity
  8
1
  6
Continuous
 62
     7
100
AcDbLine
 10
427.1796698174177
 20
440.4362897557897
 30
0.0
 11
424.2873649720042
 21
440.4362897557897
 31
0.0
  0
LINE
  5
311
330
78
100
AcDbEntity
  8
1
  6
Continuous
 62
     7
100
AcDbLine
 10
427.1796698174177
 20
440.6362897557895
 30
0.0
 11
424.2873649720042
 21
440.6362897557895
 31
0.0
  0
LINE
  5
312
330
78
100
AcDbEntity
  8
1
  6
Continuous
 62
     7
100
AcDbLine
 10
427.1796698174177
 20
440.8362897557897
 30
0.0
 11
424.2873649720042
 21
440.8362897557897
 31
0.0
  0
LINE
  5
313
330
78
100
AcDbEntity
  8
1
  6
Continuous
 62
     7
100
AcDbLine
 10
424.2873649720042
 20
455.1362897557886
 30
0.0
 11
424.2873649720042
 21
427.2262243958469
 31
0.0
  0
LINE
  5
314
330
78
100
AcDbEntity
  8
1
  6
Continuous
 62
     7
100
AcDbLine
 10
427.1796698174177
 20
427.2262243958469
 30
0.0
 11
427.1796698174177
 21
455.1362897557886
 31
0.0
  0
LINE
  5
315
330
78
100
AcDbEntity
  8
1
  6
Continuous
 62
     7
100
AcDbLine
 10
432.1796698174177
 20
455.1362897557886
 30
0.0
 11
432.1796698174177
 21
427.2262243958469
 31
0.0
  0
LINE
  5
316
330
78
100
AcDbEntity
  8
1
  6
Continuous
 62
     7
100
AcDbLine
 10
432.1796698174177
 20
427.2262243958469
 30
0.0
 11
432.2873649720042
 21
427.2262243958469
 31
0.0
  0
LINE
  5
317
330
78
100
AcDbEntity
  8
1
  6
Continuous
 62
     7
100
AcDbLine
 10
424.2873649720042
 20
427.2262243958469
 30
0.0
 11
427.1796698174177
 21
427.2262243958469
 31
0.0
  0
LINE
  5
318
330
78
100
AcDbEntity
  8
1
  6
Continuous
 62
     7
100
AcDbLine
 10
411.3950601265909
 20
427.2262243958469
 30
0.0
 11
414.2873649720042
 21
427.2262243958469
 31
0.0
  0
LINE
  5
319
330
78
100
AcDbEntity
  8
1
  6
Continuous
 62
     7
100
AcDbLine
 10
406.2873649720042
 20
427.2262243958469
 30
0.0
 11
406.3950601265909
 21
427.2262243958469
 31
0.0
  0
LINE
  5
31A
330
78
100
AcDbEntity
  8
1
  6
Continuous
 62
     7
100
AcDbLine
 10
406.3950601265909
 20
455.1362897557886
 30
0.0
 11
406.3950601265909
 21
427.2262243958469
 31
0.0
  0
LINE
  5
31B
330
78
100
AcDbEntity
  8
1
  6
Continuous
 62
     7
100
AcDbLine
 10
432.2873649720042
 20
455.1362897557895
 30
0.0
 11
432.1796698174177
 21
455.1362897557886
 31
0.0
  0
LINE
  5
31C
330
78
100
AcDbEntity
  8
1
  6
Continuous
 62
     7
100
AcDbLine
 10
414.2873649720042
 20
455.1362897557886
 30
0.0
 11
411.3950601265909
 21
455.1362897557886
 31
0.0
  0
LINE
  5
31D
330
78
100
AcDbEntity
  8
1
  6
Continuous
 62
     7
100
AcDbLine
 10
427.1796698174177
 20
455.1362897557886
 30
0.0
 11
424.2873649720042
 21
455.1362897557886
 31
0.0
  0
LINE
  5
31E
330
78
100
AcDbEntity
  8
0
  6
PHANTOM
 62
     4
100
AcDbLine
 10
419.2873649720042
 20
458.6362897557895
 30
0.0
 11
419.2873649720042
 21
397.2186278852858
 31
0.0
  0
LINE
  5
31F
330
78
100
AcDbEntity
  8
1
  6
Continuous
 62
     7
100
AcDbLine
 10
429.6373649720043
 20
415.636289755789
 30
0.0
 11
429.6373649720043
 21
417.6489327941843
 31
0.0
  0
LINE
  5
320
330
78
100
AcDbEntity
  8
1
  6
Continuous
 62
     7
100
AcDbLine
 10
429.6373649720043
 20
415.636289755789
 30
0.0
 11
408.9373649720043
 21
415.636289755789
 31
0.0
  0
LINE
  5
321
330
78
100
AcDbEntity
  8
1
  6
Continuous
 62
     2
100
AcDbLine
 10
428.4753649720043
 20
415.636289755789
 30
0.0
 11
428.4753649720043
 21
407.6362897557897
 31
0.0
  0
LINE
  5
322
330
78
100
AcDbEntity
  8
1
  6
Continuous
 62
     7
100
AcDbLine
 10
429.6373649720043
 20
417.6489327941843
 30
0.0
 11
429.6373649720043
 21
422.6362897557895
 31
0.0
  0
LINE
  5
323
330
78
100
AcDbEntity
  8
1
  6
Continuous
 62
     2
100
AcDbLine
 10
429.6373649720043
 20
417.6489327941843
 30
0.0
 11
428.4753649720043
 21
415.636289755789
 31
0.0
  0
LINE
  5
324
330
78
100
AcDbEntity
  8
1
  6
Continuous
 62
     7
100
AcDbLine
 10
429.6373649720043
 20
422.6362897557895
 30
0.0
 11
432.2873649720042
 21
427.2262243958469
 31
0.0
  0
LINE
  5
325
330
78
100
AcDbEntity
  8
1
  6
Continuous
 62
     7
100
AcDbLine
 10
408.9373649720043
 20
417.6489327941843
 30
0.0
 11
408.9373649720043
 21
415.636289755789
 31
0.0
  0
LINE
  5
326
330
78
100
AcDbEntity
  8
1
  6
Continuous
 62
     7
100
AcDbLine
 10
408.9373649720043
 20
422.6362897557895
 30
0.0
 11
408.9373649720043
 21
417.6489327941843
 31
0.0
  0
LINE
  5
327
330
78
100
AcDbEntity
  8
1
  6
Continuous
 62
     2
100
AcDbLine
 10
410.0993649720043
 20
415.636289755789
 30
0.0
 11
408.9373649720043
 21
417.6489327941843
 31
0.0
  0
LINE
  5
328
330
78
100
AcDbEntity
  8
1
  6
Continuous
 62
     7
100
AcDbLine
 10
408.9373649720043
 20
422.6362897557895
 30
0.0
 11
406.2873649720042
 21
427.2262243958469
 31
0.0
  0
LINE
  5
329
330
78
100
AcDbEntity
  8
1
  6
Continuous
 62
     7
100
AcDbLine
 10
432.2873649720042
 20
455.1362897557895
 30
0.0
 11
431.7873649720033
 21
455.6362897557895
 31
0.0
  0
LINE
  5
32A
330
78
100
AcDbEntity
  8
0
  6
Continuous
 62
     7
100
AcDbLine
 10
432.2873649720042
 20
455.1362897557895
 30
0.0
 11
432.2873649720033
 21
455.1362897557906
 31
0.0
  0
LINE
  5
32B
330
78
100
AcDbEntity
  8
1
  6
Continuous
 62
     7
100
AcDbLine
 10
431.7873649720033
 20
455.6362897557895
 30
0.0
 11
406.7873649720056
 21
455.6362897557895
 31
0.0
  0
LINE
  5
32C
330
78
100
AcDbEntity
  8
1
  6
Continuous
 62
     7
100
AcDbLine
 10
432.2873649720042
 20
455.1362897557895
 30
0.0
 11
432.2873649720042
 21
427.2262243958469
 31
0.0
  0
LINE
  5
32D
330
78
100
AcDbEntity
  8
1
  6
Continuous
 62
     7
100
AcDbLine
 10
408.9373649720043
 20
415.636289755789
 30
0.0
 11
408.9373649720043
 21
407.6361652714106
 31
0.0
  0
LINE
  5
32E
330
78
100
AcDbEntity
  8
1
  6
Continuous
 62
     2
100
AcDbLine
 10
410.0993649720043
 20
407.6362897557897
 30
0.0
 11
410.0993649720043
 21
415.636289755789
 31
0.0
  0
LINE
  5
32F
330
78
100
AcDbEntity
  8
1
  6
Continuous
 62
     7
100
AcDbLine
 10
429.6373649720043
 20
407.6362897557897
 30
0.0
 11
429.6373649720043
 21
415.636289755789
 31
0.0
  0
LINE
  5
330
330
78
100
AcDbEntity
  8
1
  6
PHANTOM
 62
     4
100
AcDbLine
 10
797.7873649720044
 20
457.136289755789
 30
0.0
 11
797.7873649720044
 21
396.1362897557892
 31
0.0
  0
LINE
  5
331
330
78
100
AcDbEntity
  8
1
  6
Continuous
 62
     2
100
AcDbLine
 10
806.9753649720045
 20
414.1362897557892
 30
0.0
 11
806.9753649720045
 21
406.1362897557892
 31
0.0
  0
LINE
  5
332
330
78
100
AcDbEntity
  8
1
  6
Continuous
 62
     7
100
AcDbLine
 10
808.1174919909267
 20
438.9362897557894
 30
0.0
 11
809.7873649720048
 21
438.9362897557894
 31
0.0
  0
LINE
  5
333
330
78
100
AcDbEntity
  8
1
  6
Continuous
 62
     7
100
AcDbLine
 10
808.1174919909267
 20
439.136289755789
 30
0.0
 11
809.5873649720045
 21
439.136289755789
 31
0.0
  0
LINE
  5
334
330
78
100
AcDbEntity
  8
1
  6
Continuous
 62
     7
100
AcDbLine
 10
808.1174919909267
 20
439.3362897557893
 30
0.0
 11
809.7873649720048
 21
439.3362897557893
 31
0.0
  0
LINE
  5
335
330
78
100
AcDbEntity
  8
1
  6
Continuous
 62
     7
100
AcDbLine
 10
796.1174919909267
 20
438.9362897557894
 30
0.0
 11
799.457237953082
 21
438.9362897557894
 31
0.0
  0
LINE
  5
336
330
78
100
AcDbEntity
  8
1
  6
Continuous
 62
     7
100
AcDbLine
 10
796.1174919909267
 20
439.136289755789
 30
0.0
 11
799.457237953082
 21
439.136289755789
 31
0.0
  0
LINE
  5
337
330
78
100
AcDbEntity
  8
1
  6
Continuous
 62
     7
100
AcDbLine
 10
796.1174919909267
 20
439.3362897557893
 30
0.0
 11
799.457237953082
 21
439.3362897557893
 31
0.0
  0
LINE
  5
338
330
78
100
AcDbEntity
  8
1
  6
Continuous
 62
     7
100
AcDbLine
 10
809.7873649720044
 20
423.9941735882776
 30
0.0
 11
809.7873649720048
 21
438.9362897557894
 31
0.0
  0
LINE
  5
339
330
78
100
AcDbEntity
  8
1
  6
Continuous
 62
     7
100
AcDbLine
 10
808.1373649720047
 20
416.1489327941843
 30
0.0
 11
808.1373649720047
 21
421.1362897557892
 31
0.0
  0
LINE
  5
33A
330
78
100
AcDbEntity
  8
1
  6
Continuous
 62
     7
100
AcDbLine
 10
787.4373649720044
 20
421.1362897557892
 30
0.0
 11
787.4373649720044
 21
416.1489327941843
 31
0.0
  0
LINE
  5
33B
330
78
100
AcDbEntity
  8
1
  6
Continuous
 62
     7
100
AcDbLine
 10
806.9753649720045
 20
414.1362897557892
 30
0.0
 11
787.4373649720044
 21
414.1362897557892
 31
0.0
  0
LINE
  5
33C
330
78
100
AcDbEntity
  8
1
  6
Continuous
 62
     7
100
AcDbLine
 10
787.4373649720044
 20
416.1489327941843
 30
0.0
 11
787.4373649720044
 21
414.1362897557892
 31
0.0
  0
LINE
  5
33D
330
78
100
AcDbEntity
  8
1
  6
Continuous
 62
     2
100
AcDbLine
 10
788.5993649720044
 20
414.1362897557892
 30
0.0
 11
787.4373649720044
 21
416.1489327941843
 31
0.0
  0
LINE
  5
33E
330
78
100
AcDbEntity
  8
1
  6
Continuous
 62
     7
100
AcDbLine
 10
787.4373649720044
 20
414.1362897557892
 30
0.0
 11
787.4373649720044
 21
406.136289755789
 31
0.0
  0
LINE
  5
33F
330
78
100
AcDbEntity
  8
1
  6
Continuous
 62
     2
100
AcDbLine
 10
808.1373649720047
 20
416.1489327941843
 30
0.0
 11
806.9753649720045
 21
414.1362897557892
 31
0.0
  0
LINE
  5
340
330
78
100
AcDbEntity
  8
1
  6
Continuous
 62
     7
100
AcDbLine
 10
808.1373649720047
 20
414.1362897557892
 30
0.0
 11
806.9753649720045
 21
414.1362897557892
 31
0.0
  0
LINE
  5
341
330
78
100
AcDbEntity
  8
1
  6
Continuous
 62
     7
100
AcDbLine
 10
808.1373649720047
 20
414.1362897557892
 30
0.0
 11
808.1373649720047
 21
416.1489327941843
 31
0.0
  0
LINE
  5
342
330
78
100
AcDbEntity
  8
1
  6
Continuous
 62
     7
100
AcDbLine
 10
787.4373649720044
 20
421.1362897557892
 30
0.0
 11
785.7873649720048
 21
423.9941735882776
 31
0.0
  0
LINE
  5
343
330
78
100
AcDbEntity
  8
1
  6
Continuous
 62
     7
100
AcDbLine
 10
808.1373649720047
 20
421.1362897557892
 30
0.0
 11
809.7873649720044
 21
423.9941735882776
 31
0.0
  0
LINE
  5
344
330
78
100
AcDbEntity
  8
0
  6
Continuous
 62
     7
100
AcDbLine
 10
808.1373649720047
 20
421.1362897557892
 30
0.0
 11
787.4373649720044
 21
421.1362897557892
 31
0.0
  0
LINE
  5
345
330
78
100
AcDbEntity
  8
1
  6
Continuous
 62
     7
100
AcDbLine
 10
785.7873649720048
 20
454.136289755789
 30
0.0
 11
785.7873649720048
 21
453.636289755789
 31
0.0
  0
LINE
  5
346
330
78
100
AcDbEntity
  8
1
  6
Continuous
 62
     7
100
AcDbLine
 10
787.4572379530823
 20
453.6362897557881
 30
0.0
 11
785.7873649720048
 21
453.636289755789
 31
0.0
  0
LINE
  5
347
330
78
100
AcDbEntity
  8
1
  6
Continuous
 62
     7
100
AcDbLine
 10
796.1174919909267
 20
425.7262243958467
 30
0.0
 11
799.457237953082
 21
425.7262243958467
 31
0.0
  0
LINE
  5
348
330
78
100
AcDbEntity
  8
1
  6
Continuous
 62
     7
100
AcDbLine
 10
787.4572379530823
 20
425.7262243958467
 30
0.0
 11
785.7873649720048
 21
425.7262243958467
 31
0.0
  0
LINE
  5
349
330
78
100
AcDbEntity
  8
1
  6
Continuous
 62
     7
100
AcDbLine
 10
808.1174919909267
 20
425.7262243958467
 30
0.0
 11
809.7873649720048
 21
425.7262243958467
 31
0.0
  0
LINE
  5
34A
330
78
100
AcDbEntity
  8
1
  6
Continuous
 62
     7
100
AcDbLine
 10
808.1174919909267
 20
453.6362897557881
 30
0.0
 11
809.7873649720048
 21
453.636289755789
 31
0.0
  0
LINE
  5
34B
330
78
100
AcDbEntity
  8
1
  6
Continuous
 62
     7
100
AcDbLine
 10
796.1174919909267
 20
453.6362897557881
 30
0.0
 11
799.457237953082
 21
453.6362897557881
 31
0.0
  0
LINE
  5
34C
330
78
100
AcDbEntity
  8
1
  6
Continuous
 62
     7
100
AcDbLine
 10
785.7873649720048
 20
453.636289755789
 30
0.0
 11
785.7873649720048
 21
439.3362897557893
 31
0.0
  0
LINE
  5
34D
330
78
100
AcDbEntity
  8
1
  6
Continuous
 62
     7
100
AcDbLine
 10
787.4572379530823
 20
453.6362897557881
 30
0.0
 11
787.4572379530823
 21
425.7262243958467
 31
0.0
  0
LINE
  5
34E
330
78
100
AcDbEntity
  8
1
  6
Continuous
 62
     7
100
AcDbLine
 10
796.1174919909267
 20
453.6362897557881
 30
0.0
 11
796.1174919909267
 21
425.7262243958467
 31
0.0
  0
LINE
  5
34F
330
78
100
AcDbEntity
  8
1
  6
Continuous
 62
     7
100
AcDbLine
 10
799.457237953082
 20
425.7262243958467
 30
0.0
 11
799.457237953082
 21
453.6362897557881
 31
0.0
  0
LINE
  5
350
330
78
100
AcDbEntity
  8
1
  6
Continuous
 62
     7
100
AcDbLine
 10
808.1174919909267
 20
453.6362897557881
 30
0.0
 11
808.1174919909267
 21
425.7262243958467
 31
0.0
  0
LINE
  5
351
330
78
100
AcDbEntity
  8
1
  6
Continuous
 62
     7
100
AcDbLine
 10
809.7873649720048
 20
454.136289755789
 30
0.0
 11
809.7873649720048
 21
453.636289755789
 31
0.0
  0
LINE
  5
352
330
78
100
AcDbEntity
  8
1
  6
Continuous
 62
     7
100
AcDbLine
 10
785.7873649720048
 20
454.136289755789
 30
0.0
 11
809.7873649720048
 21
454.136289755789
 31
0.0
  0
LINE
  5
353
330
78
100
AcDbEntity
  8
1
  6
Continuous
 62
     7
100
AcDbLine
 10
785.7873649720048
 20
439.3362897557893
 30
0.0
 11
787.4572379530823
 21
439.3362897557893
 31
0.0
  0
LINE
  5
354
330
78
100
AcDbEntity
  8
1
  6
Continuous
 62
     7
100
AcDbLine
 10
809.7873649720048
 20
439.3362897557893
 30
0.0
 11
809.7873649720048
 21
453.636289755789
 31
0.0
  0
LINE
  5
355
330
78
100
AcDbEntity
  8
1
  6
Continuous
 62
     7
100
AcDbLine
 10
785.7873649720048
 20
438.9362897557894
 30
0.0
 11
787.4572379530823
 21
438.9362897557894
 31
0.0
  0
LINE
  5
356
330
78
100
AcDbEntity
  8
1
  6
Continuous
 62
     7
100
AcDbLine
 10
785.7873649720048
 20
439.3362897557893
 30
0.0
 11
785.9873649720046
 21
439.136289755789
 31
0.0
  0
LINE
  5
357
330
78
100
AcDbEntity
  8
1
  6
Continuous
 62
     7
100
AcDbLine
 10
785.9873649720046
 20
439.136289755789
 30
0.0
 11
785.7873649720048
 21
438.9362897557894
 31
0.0
  0
LINE
  5
358
330
78
100
AcDbEntity
  8
1
  6
Continuous
 62
     7
100
AcDbLine
 10
809.7873649720048
 20
439.3362897557893
 30
0.0
 11
809.5873649720045
 21
439.136289755789
 31
0.0
  0
LINE
  5
359
330
78
100
AcDbEntity
  8
1
  6
Continuous
 62
     7
100
AcDbLine
 10
809.5873649720045
 20
439.136289755789
 30
0.0
 11
809.7873649720048
 21
438.9362897557894
 31
0.0
  0
LINE
  5
35A
330
78
100
AcDbEntity
  8
1
  6
Continuous
 62
     7
100
AcDbLine
 10
785.9873649720046
 20
439.136289755789
 30
0.0
 11
787.4572379530823
 21
439.136289755789
 31
0.0
  0
LINE
  5
35B
330
78
100
AcDbEntity
  8
1
  6
Continuous
 62
     7
100
AcDbLine
 10
785.7873649720048
 20
438.9362897557894
 30
0.0
 11
785.7873649720048
 21
423.9941735882776
 31
0.0
  0
LINE
  5
35C
330
78
100
AcDbEntity
  8
1
  6
Continuous
 62
     2
100
AcDbLine
 10
788.5993649720044
 20
406.136289755789
 30
0.0
 11
788.5993649720044
 21
414.1362897557892
 31
0.0
  0
LINE
  5
35D
330
78
100
AcDbEntity
  8
1
  6
Continuous
 62
     7
100
AcDbLine
 10
808.1373649720044
 20
406.1362897557892
 30
0.0
 11
808.1373649720047
 21
414.1362897557892
 31
0.0
  0
ARC
  5
35E
330
78
100
AcDbEntity
  8
1
  6
Continuous
 62
     7
100
AcDbCircle
 10
408.8950601265909
 20
428.16441858328
 30
0.0
 40
2.670244995002009
100
AcDbArc
 50
200.569992092103
 51
339.430007907897
  0
ARC
  5
35F
330
78
100
AcDbEntity
  8
1
  6
Continuous
 62
     7
100
AcDbCircle
 10
419.2873649720042
 20
433.5770773569327
 30
0.0
 40
8.082903768654711
100
AcDbArc
 50
231.7867892982615
 51
308.2132107017385
  0
ARC
  5
360
330
78
100
AcDbEntity
  8
1
  6
Continuous
 62
     7
100
AcDbCircle
 10
429.6796698174179
 20
428.16441858328
 30
0.0
 40
2.670244995002221
100
AcDbArc
 50
200.5699920921012
 51
339.4300079078953
  0
ARC
  5
361
330
78
100
AcDbEntity
  8
1
  6
Continuous
 62
     7
100
AcDbCircle
 10
429.6796698174177
 20
449.1362897558022
 30
0.0
 40
6.49999999998746
100
AcDbArc
 50
67.38013505191351
 51
112.6198649480865
  0
ARC
  5
362
330
78
100
AcDbEntity
  8
1
  6
Continuous
 62
     7
100
AcDbCircle
 10
408.895060126591
 20
449.1362897558022
 30
0.0
 40
6.499999999987438
100
AcDbArc
 50
67.38013505191398
 51
112.619864948087
  0
ARC
  5
363
330
78
100
AcDbEntity
  8
1
  6
Continuous
 62
     7
100
AcDbCircle
 10
419.2873649720044
 20
430.3862897558438
 30
0.0
 40
25.24999999994585
100
AcDbArc
 50
78.57881372497643
 51
101.4211862750246
  0
ARC
  5
364
330
78
100
AcDbEntity
  8
1
  6
Continuous
 62
     7
100
AcDbCircle
 10
791.7873649720045
 20
430.2728577657183
 30
0.0
 40
6.27868417743957
100
AcDbArc
 50
226.3971810273169
 51
313.6028189726831
  0
ARC
  5
365
330
78
100
AcDbEntity
  8
1
  6
Continuous
 62
     7
100
AcDbCircle
 10
803.7873649720042
 20
430.2728577657183
 30
0.0
 40
6.27868417743957
100
AcDbArc
 50
226.3971810273169
 51
313.6028189726853
  0
ARC
  5
366
330
78
100
AcDbEntity
  8
1
  6
Continuous
 62
     7
100
AcDbCircle
 10
791.7873649720045
 20
435.1362897558256
 30
0.0
 40
18.99999999996347
100
AcDbArc
 50
76.82644889271525
 51
103.1735511072848
  0
ARC
  5
367
330
78
100
AcDbEntity
  8
1
  6
Continuous
 62
     7
100
AcDbCircle
 10
803.7873649720042
 20
435.1362897558256
 30
0.0
 40
18.99999999996355
100
AcDbArc
 50
76.82644889271424
 51
103.1735511072848
  0
ENDBLK
  5
7A
330
78
100
AcDbEntity
  8
0
100
AcDbBlockEnd
  0
BLOCK
  5
7D
330
7B
100
AcDbEntity
  8
0
100
AcDbBlockBegin
  2
V872FE__12
 70
     0
 10
993.5000000000001
 20
6006.832338129498
 30
0.0
  3
V872FE__12
  1

  0
INSERT
  5
7C
330
7B
100
AcDbEntity
  8
1
100
AcDbBlockReference
  2
30-252A-C2__11
 10
833.934128073037
 20
2891.565470378916
 30
0.0
 41
1.0
 42
1.0
 43
1.0
  0
LINE
  5
368
330
7B
100
AcDbEntity
  8
1
  6
PHANTOM
 62
     4
100
AcDbLine
 10
419.2873649720042
 20
462.636289755789
 30
0.0
 11
419.2873649720042
 21
389.636289755789
 31
0.0
  0
LINE
  5
369
330
7B
100
AcDbEntity
  8
1
  6
PHANTOM
 62
     4
100
AcDbLine
 10
797.7873649720042
 20
462.636289755789
 30
0.0
 11
797.7873649720042
 21
389.636289755789
 31
0.0
  0
ENDBLK
  5
7E
330
7B
100
AcDbEntity
  8
0
100
AcDbBlockEnd
  0
BLOCK
  5
80
330
7F
100
AcDbEntity
  8
0
100
AcDbBlockBegin
  2
30-252A-C2__13
 70
     0
 10
56.7873649720029
 20
570.1743585336721
 30
0.0
  3
30-252A-C2__13
  1

  0
LINE
  5
36A
330
7F
100
AcDbEntity
  8
1
  6
Continuous
 62
     7
100
AcDbLine
 10
205.9373649723139
 20
415.6362897557896
 30
0.0
 11
205.9373649723139
 21
407.6362897557898
 31
0.0
  0
LINE
  5
36B
330
7F
100
AcDbEntity
  8
1
  6
Continuous
 62
     7
100
AcDbLine
 10
229.2873649723138
 20
455.1362897557883
 30
0.0
 11
229.2873649723138
 21
427.2262243958471
 31
0.0
  0
LINE
  5
36C
330
7F
100
AcDbEntity
  8
1
  6
Continuous
 62
     7
100
AcDbLine
 10
228.7873649723129
 20
455.6362897557896
 30
0.0
 11
203.787364972315
 21
455.6362897557896
 31
0.0
  0
LINE
  5
36D
330
7F
100
AcDbEntity
  8
0
  6
Continuous
 62
     7
100
AcDbLine
 10
229.2873649723129
 20
455.1362897557905
 30
0.0
 11
229.2873649723129
 21
455.1362897557905
 31
0.0
  0
LINE
  5
36E
330
7F
100
AcDbEntity
  8
1
  6
Continuous
 62
     7
100
AcDbLine
 10
229.2873649723138
 20
455.1362897557883
 30
0.0
 11
228.7873649723129
 21
455.6362897557896
 31
0.0
  0
LINE
  5
36F
330
7F
100
AcDbEntity
  8
1
  6
Continuous
 62
     7
100
AcDbLine
 10
205.9373649723139
 20
422.6362897557896
 30
0.0
 11
203.2873649723138
 21
427.2262243958471
 31
0.0
  0
LINE
  5
370
330
7F
100
AcDbEntity
  8
1
  6
Continuous
 62
     2
100
AcDbLine
 10
207.0993649723139
 20
415.6362897557896
 30
0.0
 11
205.9373649723139
 21
417.6489327941844
 31
0.0
  0
LINE
  5
371
330
7F
100
AcDbEntity
  8
1
  6
Continuous
 62
     7
100
AcDbLine
 10
205.9373649723139
 20
422.6362897557896
 30
0.0
 11
205.9373649723139
 21
417.6489327941844
 31
0.0
  0
LINE
  5
372
330
7F
100
AcDbEntity
  8
1
  6
Continuous
 62
     7
100
AcDbLine
 10
205.9373649723139
 20
417.6489327941844
 30
0.0
 11
205.9373649723139
 21
415.6362897557896
 31
0.0
  0
LINE
  5
373
330
7F
100
AcDbEntity
  8
1
  6
Continuous
 62
     7
100
AcDbLine
 10
226.637364972314
 20
422.6362897557896
 30
0.0
 11
229.2873649723138
 21
427.2262243958471
 31
0.0
  0
LINE
  5
374
330
7F
100
AcDbEntity
  8
1
  6
Continuous
 62
     2
100
AcDbLine
 10
226.637364972314
 20
417.6489327941844
 30
0.0
 11
225.4753649723139
 21
415.6362897557896
 31
0.0
  0
LINE
  5
375
330
7F
100
AcDbEntity
  8
1
  6
Continuous
 62
     7
100
AcDbLine
 10
226.637364972314
 20
417.6489327941844
 30
0.0
 11
226.637364972314
 21
422.6362897557896
 31
0.0
  0
LINE
  5
376
330
7F
100
AcDbEntity
  8
1
  6
Continuous
 62
     2
100
AcDbLine
 10
225.4753649723139
 20
415.6362897557896
 30
0.0
 11
225.4753649723139
 21
407.6362897557898
 31
0.0
  0
LINE
  5
377
330
7F
100
AcDbEntity
  8
1
  6
Continuous
 62
     7
100
AcDbLine
 10
226.637364972314
 20
415.6362897557896
 30
0.0
 11
205.9373649723139
 21
415.6362897557896
 31
0.0
  0
LINE
  5
378
330
7F
100
AcDbEntity
  8
1
  6
Continuous
 62
     7
100
AcDbLine
 10
226.637364972314
 20
415.6362897557896
 30
0.0
 11
226.637364972314
 21
417.6489327941844
 31
0.0
  0
LINE
  5
379
330
7F
100
AcDbEntity
  8
0
  6
PHANTOM
 62
     4
100
AcDbLine
 10
216.2873649723138
 20
458.6362897557896
 30
0.0
 11
216.2873649723138
 21
397.2186278852859
 31
0.0
  0
LINE
  5
37A
330
7F
100
AcDbEntity
  8
1
  6
Continuous
 62
     7
100
AcDbLine
 10
224.1796698177273
 20
455.1362897557883
 30
0.0
 11
221.2873649723138
 21
455.1362897557883
 31
0.0
  0
LINE
  5
37B
330
7F
100
AcDbEntity
  8
1
  6
Continuous
 62
     7
100
AcDbLine
 10
211.2873649723138
 20
455.1362897557883
 30
0.0
 11
208.3950601269006
 21
455.1362897557883
 31
0.0
  0
LINE
  5
37C
330
7F
100
AcDbEntity
  8
1
  6
Continuous
 62
     7
100
AcDbLine
 10
229.2873649723138
 20
455.1362897557883
 30
0.0
 11
229.1796698177273
 21
455.1362897557883
 31
0.0
  0
LINE
  5
37D
330
7F
100
AcDbEntity
  8
1
  6
Continuous
 62
     7
100
AcDbLine
 10
203.3950601269006
 20
455.1362897557883
 30
0.0
 11
203.3950601269006
 21
427.2262243958471
 31
0.0
  0
LINE
  5
37E
330
7F
100
AcDbEntity
  8
1
  6
Continuous
 62
     7
100
AcDbLine
 10
203.2873649723138
 20
427.2262243958471
 30
0.0
 11
203.3950601269006
 21
427.2262243958471
 31
0.0
  0
LINE
  5
37F
330
7F
100
AcDbEntity
  8
1
  6
Continuous
 62
     7
100
AcDbLine
 10
208.3950601269006
 20
427.2262243958471
 30
0.0
 11
211.2873649723138
 21
427.2262243958471
 31
0.0
  0
LINE
  5
380
330
7F
100
AcDbEntity
  8
1
  6
Continuous
 62
     7
100
AcDbLine
 10
221.2873649723138
 20
427.2262243958471
 30
0.0
 11
224.1796698177273
 21
427.2262243958471
 31
0.0
  0
LINE
  5
381
330
7F
100
AcDbEntity
  8
1
  6
Continuous
 62
     7
100
AcDbLine
 10
229.1796698177273
 20
427.2262243958471
 30
0.0
 11
229.2873649723138
 21
427.2262243958471
 31
0.0
  0
LINE
  5
382
330
7F
100
AcDbEntity
  8
1
  6
Continuous
 62
     7
100
AcDbLine
 10
229.1796698177273
 20
455.1362897557883
 30
0.0
 11
229.1796698177273
 21
427.2262243958471
 31
0.0
  0
LINE
  5
383
330
7F
100
AcDbEntity
  8
1
  6
Continuous
 62
     7
100
AcDbLine
 10
224.1796698177273
 20
427.2262243958471
 30
0.0
 11
224.1796698177273
 21
455.1362897557883
 31
0.0
  0
LINE
  5
384
330
7F
100
AcDbEntity
  8
1
  6
Continuous
 62
     7
100
AcDbLine
 10
221.2873649723138
 20
455.1362897557883
 30
0.0
 11
221.2873649723138
 21
427.2262243958471
 31
0.0
  0
LINE
  5
385
330
7F
100
AcDbEntity
  8
1
  6
Continuous
 62
     7
100
AcDbLine
 10
224.1796698177273
 20
440.8362897557896
 30
0.0
 11
221.2873649723138
 21
440.8362897557896
 31
0.0
  0
LINE
  5
386
330
7F
100
AcDbEntity
  8
1
  6
Continuous
 62
     7
100
AcDbLine
 10
224.1796698177273
 20
440.6362897557896
 30
0.0
 11
221.2873649723138
 21
440.6362897557896
 31
0.0
  0
LINE
  5
387
330
7F
100
AcDbEntity
  8
1
  6
Continuous
 62
     7
100
AcDbLine
 10
224.1796698177273
 20
440.4362897557897
 30
0.0
 11
221.2873649723138
 21
440.4362897557897
 31
0.0
  0
LINE
  5
388
330
7F
100
AcDbEntity
  8
1
  6
Continuous
 62
     7
100
AcDbLine
 10
211.2873649723138
 20
427.2262243958471
 30
0.0
 11
211.2873649723138
 21
455.1362897557883
 31
0.0
  0
LINE
  5
389
330
7F
100
AcDbEntity
  8
1
  6
Continuous
 62
     7
100
AcDbLine
 10
208.3950601269006
 20
455.1362897557883
 30
0.0
 11
208.3950601269006
 21
427.2262243958471
 31
0.0
  0
LINE
  5
38A
330
7F
100
AcDbEntity
  8
1
  6
Continuous
 62
     7
100
AcDbLine
 10
211.2873649723138
 20
440.8362897557896
 30
0.0
 11
208.3950601269006
 21
440.8362897557896
 31
0.0
  0
LINE
  5
38B
330
7F
100
AcDbEntity
  8
1
  6
Continuous
 62
     7
100
AcDbLine
 10
211.2873649723138
 20
440.6362897557896
 30
0.0
 11
208.3950601269006
 21
440.6362897557896
 31
0.0
  0
LINE
  5
38C
330
7F
100
AcDbEntity
  8
1
  6
Continuous
 62
     7
100
AcDbLine
 10
211.2873649723138
 20
440.4362897557897
 30
0.0
 11
208.3950601269006
 21
440.4362897557897
 31
0.0
  0
LINE
  5
38D
330
7F
100
AcDbEntity
  8
0
  6
Continuous
 62
     7
100
AcDbLine
 10
226.637364972314
 20
422.6362897557896
 30
0.0
 11
205.9373649723139
 21
422.6362897557896
 31
0.0
  0
LINE
  5
38E
330
7F
100
AcDbEntity
  8
1
  6
Continuous
 62
     7
100
AcDbLine
 10
203.2873649723138
 20
427.2262243958471
 30
0.0
 11
203.2873649723138
 21
455.1362897557883
 31
0.0
  0
LINE
  5
38F
330
7F
100
AcDbEntity
  8
1
  6
Continuous
 62
     7
100
AcDbLine
 10
203.787364972315
 20
455.6362897557896
 30
0.0
 11
203.2873649723138
 21
455.1362897557883
 31
0.0
  0
LINE
  5
390
330
7F
100
AcDbEntity
  8
1
  6
Continuous
 62
     7
100
AcDbLine
 10
203.3950601269006
 20
455.1362897557883
 30
0.0
 11
203.2873649723138
 21
455.1362897557883
 31
0.0
  0
LINE
  5
391
330
7F
100
AcDbEntity
  8
1
  6
Continuous
 62
     2
100
AcDbLine
 10
207.0993649723139
 20
407.6362897557898
 30
0.0
 11
207.0993649723139
 21
415.6362897557896
 31
0.0
  0
LINE
  5
392
330
7F
100
AcDbEntity
  8
1
  6
Continuous
 62
     7
100
AcDbLine
 10
226.637364972314
 20
407.6362897557898
 30
0.0
 11
226.637364972314
 21
415.6362897557896
 31
0.0
  0
ARC
  5
393
330
7F
100
AcDbEntity
  8
1
  6
Continuous
 62
     7
100
AcDbCircle
 10
216.287364972314
 20
430.3862897558439
 30
0.0
 40
25.24999999994547
100
AcDbArc
 50
78.57881372497619
 51
101.4211862750247
  0
ARC
  5
394
330
7F
100
AcDbEntity
  8
1
  6
Continuous
 62
     7
100
AcDbCircle
 10
205.8950601269006
 20
449.1362897558025
 30
0.0
 40
6.499999999986882
100
AcDbArc
 50
67.38013505191138
 51
112.6198649480886
  0
ARC
  5
395
330
7F
100
AcDbEntity
  8
1
  6
Continuous
 62
     7
100
AcDbCircle
 10
226.6796698177273
 20
449.1362897558025
 30
0.0
 40
6.499999999986882
100
AcDbArc
 50
67.38013505191138
 51
112.6198649480886
  0
ARC
  5
396
330
7F
100
AcDbEntity
  8
1
  6
Continuous
 62
     7
100
AcDbCircle
 10
226.6796698177273
 20
428.1644185832803
 30
0.0
 40
2.670244995002029
100
AcDbArc
 50
200.5699920921041
 51
339.4300079078959
  0
ARC
  5
397
330
7F
100
AcDbEntity
  8
1
  6
Continuous
 62
     7
100
AcDbCircle
 10
216.2873649723138
 20
433.5770773569331
 30
0.0
 40
8.082903768654846
100
AcDbArc
 50
231.7867892982623
 51
308.2132107017377
  0
ARC
  5
398
330
7F
100
AcDbEntity
  8
1
  6
Continuous
 62
     7
100
AcDbCircle
 10
205.8950601269006
 20
428.1644185832803
 30
0.0
 40
2.670244995002029
100
AcDbArc
 50
200.5699920921041
 51
339.4300079078959
  0
ENDBLK
  5
81
330
7F
100
AcDbEntity
  8
0
100
AcDbBlockEnd
  0
BLOCK
  5
84
330
82
100
AcDbEntity
  8
0
100
AcDbBlockBegin
  2
V872FE__14
 70
     0
 10
204.2873649720033
 20
1837.218627885286
 30
0.0
  3
V872FE__14
  1

  0
INSERT
  5
83
330
82
100
AcDbEntity
  8
1
100
AcDbBlockReference
  2
30-252A-C2__13
 10
56.78736497200289
 20
570.174358533672
 30
0.0
 41
1.0
 42
1.0
 43
1.0
  0
LINE
  5
399
330
82
100
AcDbEntity
  8
1
  6
PHANTOM
 62
     4
100
AcDbLine
 10
216.287364972003
 20
392.136289755789
 30
0.0
 11
216.287364972003
 21
453.136289755789
 31
0.0
  0
ENDBLK
  5
85
330
82
100
AcDbEntity
  8
0
100
AcDbBlockEnd
  0
BLOCK
  5
87
330
86
100
AcDbEntity
  8
0
100
AcDbBlockBegin
  2
61-115
 70
     0
 10
769.7671984703085
 20
441.6841679292188
 30
0.0
  3
61-115
  1

  0
LINE
  5
39A
330
86
100
AcDbEntity
  8
1
  6
Continuous
 62
     7
100
AcDbLine
 10
339.9373649720058
 20
574.8362897557881
 30
0.0
 11
339.9373649720058
 21
573.4362897557887
 31
0.0
  0
LINE
  5
39B
330
86
100
AcDbEntity
  8
1
  6
Continuous
 62
     7
100
AcDbLine
 10
295.6373649720057
 20
573.4362897557887
 30
0.0
 11
295.6373649720057
 21
574.8362897557881
 31
0.0
  0
LINE
  5
39C
330
86
100
AcDbEntity
  8
1
  6
Continuous
 62
     7
100
AcDbLine
 10
765.2223173233226
 20
550.5100002177537
 30
0.0
 11
773.7873649720057
 21
544.4362897557887
 31
0.0
  0
LINE
  5
39D
330
86
100
AcDbEntity
  8
1
  6
Continuous
 62
     7
100
AcDbLine
 10
766.7364463430067
 20
549.4362897557887
 30
0.0
 11
758.2753439882088
 21
555.4362897557885
 31
0.0
  0
LINE
  5
39E
330
86
100
AcDbEntity
  8
1
  6
Continuous
 62
     7
100
AcDbLine
 10
526.6438077814569
 20
667.4661337000457
 30
0.0
 11
527.7413566457537
 21
677.9086136012875
 31
0.0
  0
LINE
  5
39F
330
86
100
AcDbEntity
  8
1
  6
Continuous
 62
     7
100
AcDbLine
 10
526.6438077814569
 20
667.4661337000457
 30
0.0
 11
558.4685084332277
 21
664.1212228753534
 31
0.0
  0
LINE
  5
3A0
330
86
100
AcDbEntity
  8
1
  6
Continuous
 62
     7
100
AcDbLine
 10
558.4685084332277
 20
664.1212228753534
 30
0.0
 11
558.5207726648616
 21
664.6184838230397
 31
0.0
  0
LINE
  5
3A1
330
86
100
AcDbEntity
  8
1
  6
Continuous
 62
     7
100
AcDbLine
 10
561.1540035471646
 20
664.8444742446586
 30
0.0
 11
559.0702978441798
 21
665.0634805390896
 31
0.0
  0
LINE
  5
3A2
330
86
100
AcDbEntity
  8
1
  6
Continuous
 62
     7
100
AcDbLine
 10
527.7413566457537
 20
677.9086136012875
 30
0.0
 11
527.8981493406557
 21
679.4003964443395
 31
0.0
  0
LINE
  5
3A3
330
86
100
AcDbEntity
  8
1
  6
Continuous
 62
     7
100
AcDbLine
 10
576.7179375908768
 20
682.313296170973
 30
0.0
 11
536.6905522097436
 21
686.5203439011443
 31
0.0
  0
LINE
  5
3A4
330
86
100
AcDbEntity
  8
1
  6
Continuous
 62
     7
100
AcDbLine
 10
574.7318967887871
 20
663.4173801589782
 30
0.0
 11
561.1540035471646
 21
664.8444742446586
 31
0.0
  0
LINE
  5
3A5
330
86
100
AcDbEntity
  8
1
  6
Continuous
 62
     7
100
AcDbLine
 10
652.5451619360797
 20
653.704804701511
 30
0.0
 11
740.6552038998716
 21
591.2235546687766
 31
0.0
  0
LINE
  5
3A6
330
86
100
AcDbEntity
  8
1
  6
Continuous
 62
     7
100
AcDbLine
 10
641.5546382430007
 20
638.2061470515141
 30
0.0
 11
731.0921556344676
 21
574.712634998195
 31
0.0
  0
LINE
  5
3A7
330
86
100
AcDbEntity
  8
1
  6
Continuous
 62
     7
100
AcDbLine
 10
731.0921556344676
 20
574.712634998195
 30
0.0
 11
759.5122855575337
 21
554.5591405257305
 31
0.0
  0
LINE
  5
3A8
330
86
100
AcDbEntity
  8
1
  6
Continuous
 62
     7
100
AcDbLine
 10
740.6552038998716
 20
591.2235546687766
 30
0.0
 11
773.7873649720054
 21
567.7286295281947
 31
0.0
  0
LINE
  5
3A9
330
86
100
AcDbEntity
  8
1
  6
Continuous
 62
     7
100
AcDbLine
 10
819.9373649720064
 20
572.4362897557887
 30
0.0
 11
819.9373649720065
 21
574.8362897557881
 31
0.0
  0
LINE
  5
3AA
330
86
100
AcDbEntity
  8
1
  6
Continuous
 62
     7
100
AcDbLine
 10
775.6373649720056
 20
572.4362897557887
 30
0.0
 11
775.6373649720056
 21
574.8362897557881
 31
0.0
  0
LINE
  5
3AB
330
86
100
AcDbEntity
  8
0
  6
Continuous
 62
     7
100
AcDbLine
 10
301.7873649720058
 20
678.7565716072863
 30
0.0
 11
301.7873649720058
 21
665.1453574799393
 31
0.0
  0
LINE
  5
3AC
330
86
100
AcDbEntity
  8
0
  6
Continuous
 62
     7
100
AcDbLine
 10
317.7873649720058
 20
686.7565716072863
 30
0.0
 11
309.7873649720058
 21
686.7565716072863
 31
0.0
  0
LINE
  5
3AD
330
86
100
AcDbEntity
  8
0
  6
Continuous
 62
     7
100
AcDbLine
 10
325.7873649720058
 20
686.7565716072863
 30
0.0
 11
317.7873649720058
 21
686.7565716072863
 31
0.0
  0
LINE
  5
3AE
330
86
100
AcDbEntity
  8
0
  6
Continuous
 62
     7
100
AcDbLine
 10
333.7873649720058
 20
665.1453574799393
 30
0.0
 11
333.7873649720058
 21
678.7565716072863
 31
0.0
  0
LINE
  5
3AF
330
86
100
AcDbEntity
  8
1
  6
Continuous
 62
     7
100
AcDbLine
 10
302.7873649720058
 20
573.4362897557887
 30
0.0
 11
294.2873649720058
 21
573.4362897557887
 31
0.0
  0
LINE
  5
3B0
330
86
100
AcDbEntity
  8
1
  6
Continuous
 62
     7
100
AcDbLine
 10
302.7873649720058
 20
558.8362897557893
 30
0.0
 11
302.7873649720058
 21
664.5808657808429
 31
0.0
  0
LINE
  5
3B1
330
86
100
AcDbEntity
  8
1
  6
Continuous
 62
     7
100
AcDbLine
 10
332.7873649720058
 20
558.8362897557893
 30
0.0
 11
332.7873649720058
 21
664.5808657808429
 31
0.0
  0
LINE
  5
3B2
330
86
100
AcDbEntity
  8
1
  6
Continuous
 62
     7
100
AcDbLine
 10
332.7873649720058
 20
1182.339790381082
 30
0.0
 11
332.7873649720058
 21
1012.818611572829
 31
0.0
  0
LINE
  5
3B3
330
86
100
AcDbEntity
  8
1
  6
Continuous
 62
     7
100
AcDbLine
 10
302.7873649720052
 20
1012.818611572829
 30
0.0
 11
302.7873649720058
 21
1182.764493509249
 31
0.0
  0
LINE
  5
3B4
330
86
100
AcDbEntity
  8
1
  6
Continuous
 62
     7
100
AcDbLine
 10
773.7873649720058
 20
571.9362897557887
 30
0.0
 11
773.7873649720058
 21
530.336289755789
 31
0.0
  0
LINE
  5
3B5
330
86
100
AcDbEntity
  8
1
  6
Continuous
 62
     7
100
AcDbLine
 10
341.7873649720058
 20
530.336289755789
 30
0.0
 11
341.7873649720058
 21
572.9362897557887
 31
0.0
  0
LINE
  5
3B6
330
86
100
AcDbEntity
  8
1
  6
Continuous
 62
     7
100
AcDbLine
 10
341.0373649720058
 20
529.836289755789
 30
0.0
 11
341.2873649720058
 21
529.836289755789
 31
0.0
  0
LINE
  5
3B7
330
86
100
AcDbEntity
  8
1
  6
Continuous
 62
     7
100
AcDbLine
 10
294.2873649720058
 20
529.836289755789
 30
0.0
 11
294.5373649720058
 21
529.836289755789
 31
0.0
  0
LINE
  5
3B8
330
86
100
AcDbEntity
  8
1
  6
Continuous
 62
     7
100
AcDbLine
 10
294.5373649720058
 20
529.836289755789
 30
0.0
 11
339.7873649720054
 21
529.836289755789
 31
0.0
  0
LINE
  5
3B9
330
86
100
AcDbEntity
  8
1
  6
Continuous
 62
     7
100
AcDbLine
 10
341.2873649720058
 20
573.4362897557887
 30
0.0
 11
332.7873649720058
 21
573.4362897557887
 31
0.0
  0
LINE
  5
3BA
330
86
100
AcDbEntity
  8
1
  6
Continuous
 62
     7
100
AcDbLine
 10
293.7873649720058
 20
530.336289755789
 30
0.0
 11
293.7873649720058
 21
572.9362897557887
 31
0.0
  0
LINE
  5
3BB
330
86
100
AcDbEntity
  8
1
  6
Continuous
 62
     7
100
AcDbLine
 10
821.2873649720058
 20
572.4362897557887
 30
0.0
 11
774.2873649720058
 21
572.4362897557887
 31
0.0
  0
LINE
  5
3BC
330
86
100
AcDbEntity
  8
1
  6
Continuous
 62
     7
100
AcDbLine
 10
821.7873649720058
 20
571.9362897557887
 30
0.0
 11
821.7873649720058
 21
530.336289755789
 31
0.0
  0
LINE
  5
3BD
330
86
100
AcDbEntity
  8
1
  6
Continuous
 62
     7
100
AcDbLine
 10
821.2873649720058
 20
529.836289755789
 30
0.0
 11
819.7873649720058
 21
529.836289755789
 31
0.0
  0
LINE
  5
3BE
330
86
100
AcDbEntity
  8
1
  6
Continuous
 62
     7
100
AcDbLine
 10
819.7873649720058
 20
529.836289755789
 30
0.0
 11
774.2873649720058
 21
529.836289755789
 31
0.0
  0
LINE
  5
3BF
330
86
100
AcDbEntity
  8
1
  6
Continuous
 62
     7
100
AcDbLine
 10
339.7873649720054
 20
529.836289755789
 30
0.0
 11
341.0373649720058
 21
529.836289755789
 31
0.0
  0
LINE
  5
3C0
330
86
100
AcDbEntity
  8
0
  6
Continuous
 62
     7
100
AcDbLine
 10
312.7873649720052
 20
1002.818611572829
 30
0.0
 11
322.7873649720058
 21
1002.818611572829
 31
0.0
  0
ARC
  5
3C1
330
86
100
AcDbEntity
  8
1
  6
Continuous
 62
     7
100
AcDbCircle
 10
559.9933834680417
 20
523.1897929120521
 30
0.0
 40
140.9999999999997
100
AcDbArc
 50
54.65849966865276
 51
62.85545892935485
  0
ARC
  5
3C2
330
86
100
AcDbEntity
  8
1
  6
Continuous
 62
     7
100
AcDbCircle
 10
559.9933834680417
 20
523.1897929120521
 30
0.0
 40
141.0000000000002
100
AcDbArc
 50
62.85545892935485
 51
83.99999999999743
  0
ARC
  5
3C3
330
86
100
AcDbEntity
  8
1
  6
Continuous
 62
     7
100
AcDbCircle
 10
559.9933834680417
 20
523.1897929120521
 30
0.0
 40
159.9999999999984
100
AcDbArc
 50
83.4011624597138
 51
83.99999999999613
  0
ARC
  5
3C4
330
86
100
AcDbEntity
  8
1
  6
Continuous
 62
     7
100
AcDbCircle
 10
559.9933834680417
 20
523.1897929120521
 30
0.0
 40
140.9999999999997
100
AcDbArc
 50
54.65849966865276
 51
56.26255193514281
  0
ARC
  5
3C5
330
86
100
AcDbEntity
  8
1
  6
Continuous
 62
     7
100
AcDbCircle
 10
559.9933834680417
 20
523.1897929120521
 30
0.0
 40
159.9999999999981
100
AcDbArc
 50
54.6584996686526
 51
83.99999999999613
  0
ARC
  5
3C6
330
86
100
AcDbEntity
  8
1
  6
Continuous
 62
     7
100
AcDbCircle
 10
317.7873649720058
 20
558.8362897557893
 30
0.0
 40
15.0
100
AcDbArc
 50
180.0
 51
0.0
  0
SPLINE
  5
3C7
330
86
100
AcDbEntity
  8
0
  6
Continuous
 62
     7
100
AcDbSpline
210
0.0
220
0.0
230
1.0
 70
     8
 71
     3
 72
     9
 73
     5
 74
     3
 42
0.000000001
 43
0.0000000001
 44
0.00000001
 40
0.0
 40
0.0
 40
0.0
 40
0.0
 40
0.077168062430335
 40
0.172920812464039
 40
0.172920812464039
 40
0.172920812464039
 40
0.172920812464039
 10
333.7873649720058
 20
665.1453574799152
 30
0.0
 10
333.7827975046106
 20
665.1712731702125
 30
0.0
 10
333.7725625503068
 20
665.2293459216987
 30
0.0
 10
333.7304908516365
 20
665.2712134550289
 30
0.0
 10
333.7071941624115
 20
665.294397075445
 30
0.0
 11
333.7873649720058
 21
665.1453574799152
 31
0.0
 11
333.7673222696138
 21
665.2198772776801
 31
0.0
 11
333.7071941624115
 21
665.294397075445
 31
0.0
  0
SPLINE
  5
3C8
330
86
100
AcDbEntity
  8
0
  6
Continuous
 62
     7
100
AcDbSpline
210
0.0
220
0.0
230
1.0
 70
     8
 71
     3
 72
    17
 73
    13
 74
    11
 42
0.000000001
 43
0.0000000001
 44
0.00000001
 40
0.0
 40
0.0
 40
0.0
 40
0.0
 40
0.281439317486339
 40
0.5628809441340357
 40
1.268807243377051
 40
1.976290562687188
 40
2.470198754861254
 40
2.959085047809833
 40
3.247666356731032
 40
3.564285788615414
 40
3.660038541842909
 40
3.737206606088689
 40
3.737206606088689
 40
3.737206606088689
 40
3.737206606088689
 10
330.2873649720174
 20
664.1314483895712
 30
0.0
 10
330.3804155563271
 20
664.143384748786
 30
0.0
 10
330.5665174896566
 20
664.1672575555169
 30
0.0
 10
330.9857078726894
 20
664.2234720158929
 30
0.0
 10
331.5438850276465
 20
664.3112331362037
 30
0.0
 10
332.1684321896582
 20
664.4315346415751
 30
0.0
 10
332.7161720509423
 20
664.5638834126627
 30
0.0
 10
333.1291874125081
 20
664.6585840020784
 30
0.0
 10
333.470241674728
 20
664.7983796597756
 30
0.0
 10
333.6544074896622
 20
664.9409481834183
 30
0.0
 10
333.7724694320503
 20
665.0615546374208
 30
0.0
 10
333.7827687615442
 20
665.1194990619608
 30
0.0
 10
333.7873649720058
 20
665.1453574799152
 30
0.0
 11
330.2873649720174
 21
664.1314483895712
 31
0.0
 11
330.5664825912399
 21
664.1675238645358
 31
0.0
 11
330.8453822084442
 21
664.2052649926891
 31
0.0
 11
331.5427061923817
 21
664.3151340122737
 31
0.0
 11
332.2369525712325
 21
664.4513493287354
 31
0.0
 11
332.7179989380787
 21
664.5633301085106
 31
0.0
 11
333.1902208202138
 21
664.6898856333082
 31
0.0
 11
333.4547603299668
 21
664.8052026717293
 31
0.0
 11
333.7071941624114
 21
664.996317884434
 31
0.0
 11
333.7673222696005
 21
665.0708376821746
 31
0.0
 11
333.7873649720058
 21
665.1453574799152
 31
0.0
  0
SPLINE
  5
3C9
330
86
100
AcDbEntity
  8
0
  6
Continuous
 62
     7
100
AcDbSpline
210
0.0
220
0.0
230
1.0
 70
     8
 71
     3
 72
    13
 73
     9
 74
     7
 42
0.000000001
 43
0.0000000001
 44
0.00000001
 40
0.0
 40
0.0
 40
0.0
 40
0.0
 40
0.2818734651090603
 40
0.5654702608363237
 40
1.272953579581908
 40
1.97887987869198
 40
2.260321505338267
 40
2.541760815696972
 40
2.541760815696972
 40
2.541760815696972
 40
2.541760815696972
 10
302.7873649720058
 20
664.5808657808429
 30
0.0
 10
302.8785291419269
 20
664.5581104121356
 30
0.0
 10
303.0614148488154
 20
664.5124605660454
 30
0.0
 10
303.4755236686871
 20
664.4198100896408
 30
0.0
 10
304.0307121810072
 20
664.310664918708
 30
0.0
 10
304.5890348037087
 20
664.223526492288
 30
0.0
 10
305.0082105088306
 20
664.167249217272
 30
0.0
 10
305.1943137389396
 20
664.1433819612706
 30
0.0
 10
305.2873649720119
 20
664.131448389569
 30
0.0
 11
302.7873649720058
 21
664.5808657808429
 31
0.0
 11
303.0611231886242
 21
664.5137160277025
 31
0.0
 11
303.3377773727791
 21
664.4513493287357
 31
0.0
 11
304.0320237516298
 21
664.3151340122737
 31
0.0
 11
304.7293477355672
 21
664.2052649926891
 31
0.0
 11
305.0082473527804
 21
664.1675238645348
 31
0.0
 11
305.2873649720119
 21
664.131448389569
 31
0.0
  0
SPLINE
  5
3CA
330
86
100
AcDbEntity
  8
0
  6
Continuous
 62
     7
100
AcDbSpline
210
0.0
220
0.0
230
1.0
 70
     8
 71
     3
 72
    47
 73
    43
 74
    41
 42
0.000000001
 43
0.0000000001
 44
0.00000001
 40
0.0
 40
0.0
 40
0.0
 40
0.0
 40
0.3166194352293936
 40
0.6052007424758762
 40
1.094087035480277
 40
1.587995228155737
 40
2.295478548410354
 40
3.001404848732967
 40
3.90085217236729
 40
4.800500691852907
 40
5.868767449482212
 40
6.936948684809552
 40
8.142187368348399
 40
9.347419677406386
 40
10.65380752824139
 40
11.96018570368516
 40
13.32855945702677
 40
14.69693007816339
 40
16.0861849047346
 40
17.47543973124884
 40
18.84381035221101
 40
20.2121841052398
 40
21.51856228022327
 40
22.82495013039666
 40
24.03018243862419
 40
25.23542112109023
 40
26.30360235525896
 40
27.37186911155962
 40
28.27151762983284
 40
29.17096495221102
 40
29.87689125153468
 40
30.58437457079067
 40
31.07828276276146
 40
31.56716905493416
 40
31.85575036312718
 40
32.17236979347644
 40
32.34160383041969
 40
32.51083786964868
 40
32.82745730256323
 40
33.11603861089537
 40
33.32428751930446
 40
33.53339586623516
 40
33.53339586623516
 40
33.53339586623516
 40
33.53339586623516
 10
333.7071941624115
 20
665.294397075445
 30
0.0
 10
333.6262347955982
 20
665.363234590509
 30
0.0
 10
333.4714853994768
 20
665.4948137480127
 30
0.0
 10
333.1286119915398
 20
665.6309834883649
 30
0.0
 10
332.7163593961762
 20
665.72721103838
 30
0.0
 10
332.1683524135319
 20
665.858994246605
 30
0.0
 10
331.5439360876086
 20
665.9797341644941
 30
0.0
 10
330.7820512517585
 20
666.0983775106085
 30
0.0
 10
329.9534966820799
 20
666.2026652402974
 30
0.0
 10
329.0033370868817
 20
666.3065086272472
 30
0.0
 10
327.9954478460359
 20
666.3985883063713
 30
0.0
 10
326.8848117089512
 20
666.4841168815053
 30
0.0
 10
325.7275615119477
 20
666.5576404729754
 30
0.0
 10
324.4902816984194
 20
666.6224316863963
 30
0.0
 10
323.2186846789626
 20
666.6751716336096
 30
0.0
 10
321.8922879876395
 20
666.7173087808144
 30
0.0
 10
320.5448925933912
 20
666.7472181675212
 30
0.0
 10
319.1696634570662
 20
666.7655183740568
 30
0.0
 10
317.787364962609
 20
666.7714939919839
 30
0.0
 10
316.4050664681455
 20
666.7655183731017
 30
0.0
 10
315.0298373322203
 20
666.747218164732
 30
0.0
 10
313.6824419375813
 20
666.7173087795472
 30
0.0
 10
312.3560452493829
 20
666.6751716216351
 30
0.0
 10
311.0844482212351
 20
666.6224317075317
 30
0.0
 10
309.8471684410837
 20
666.5576403744038
 30
0.0
 10
308.6899181306441
 20
666.4841172000713
 30
0.0
 10
307.5792823760936
 20
666.3985872317098
 30
0.0
 10
306.5713918239212
 20
666.3065123451457
 30
0.0
 10
305.6212363982147
 20
666.2026537368838
 30
0.0
 10
304.7926679441888
 20
666.0984167122876
 30
0.0
 10
304.0308244962785
 20
665.9796222348566
 30
0.0
 10
303.4062766527254
 20
665.8593625793544
 30
0.0
 10
302.8586221013287
 20
665.726292411107
 30
0.0
 10
302.445340725527
 20
665.6338216297946
 30
0.0
 10
302.1049249114631
 20
665.4886775705168
 30
0.0
 10
301.8995395254648
 20
665.3471916994976
 30
0.0
 10
301.7482963786487
 20
665.1453819701851
 30
0.0
 10
301.8995142265876
 20
664.9433825588584
 30
0.0
 10
302.1051273961177
 20
664.8029600269638
 30
0.0
 10
302.3574297544184
 20
664.6914428322177
 30
0.0
 10
302.5854964726224
 20
664.6344873768136
 30
0.0
 10
302.7199831582844
 20
664.598764165103
 30
0.0
 10
302.7873649720058
 20
664.5808657808429
 30
0.0
 11
333.7071941624115
 21
665.294397075445
 31
0.0
 11
333.454760329967
 21
665.4855122881498
 31
0.0
 11
333.190220820214
 21
665.6008293265709
 31
0.0
 11
332.7179989380787
 21
665.7273848513682
 31
0.0
 11
332.2369525712325
 21
665.8393656311437
 31
0.0
 11
331.5427061923817
 21
665.9755809476053
 31
0.0
 11
330.8453822084442
 21
666.0854499671898
 31
0.0
 11
329.9532874940622
 21
666.2002215065563
 31
0.0
 11
329.0589661832811
 21
666.2979806465871
 31
0.0
 11
327.9952115789592
 21
666.3960622673203
 31
0.0
 11
326.9302062276167
 21
666.4783711402595
 31
0.0
 11
325.7274321329922
 21
666.5554085266772
 31
0.0
 11
324.5238562885479
 21
666.618575791501
 31
0.0
 11
323.218605191581
 21
666.6730623841853
 31
0.0
 11
321.9128881661166
 21
666.7146193966478
 31
0.0
 11
320.5448559744422
 21
666.7451914467282
 31
0.0
 11
319.1766064083353
 21
666.763392567824
 31
0.0
 11
317.7873649720058
 21
666.769492084525
 31
0.0
 11
316.3981235356762
 21
666.7633925678241
 31
0.0
 11
315.0298739695693
 21
666.7451914467283
 31
0.0
 11
313.6618417778949
 21
666.7146193966475
 31
0.0
 11
312.3561247524304
 21
666.673062384185
 31
0.0
 11
311.0508736554636
 21
666.6185757915009
 31
0.0
 11
309.8472978110192
 21
666.555408526677
 31
0.0
 11
308.6445237163946
 21
666.4783711402595
 31
0.0
 11
307.5795183650522
 21
666.3960622673202
 31
0.0
 11
306.5157637607302
 21
666.2979806465873
 31
0.0
 11
305.6214424499491
 21
666.2002215065563
 31
0.0
 11
304.7293477355672
 21
666.0854499671899
 31
0.0
 11
304.0320237516298
 21
665.9755809476054
 31
0.0
 11
303.3377773727791
 21
665.8393656311436
 31
0.0
 11
302.8567310059328
 21
665.7273848513684
 31
0.0
 11
302.3845091237976
 21
665.6008293265709
 31
0.0
 11
302.1199696140445
 21
665.4855122881497
 31
0.0
 11
301.8675357815999
 21
665.2943970754449
 31
0.0
 11
301.7873649720057
 21
665.1453574799393
 31
0.0
 11
301.8675357815998
 21
664.996317884434
 31
0.0
 11
302.1199696140444
 21
664.8052026717293
 31
0.0
 11
302.3845091237976
 21
664.6898856333082
 31
0.0
 11
302.5851320587898
 21
664.6340461664358
 31
0.0
 11
302.7873649720058
 21
664.5808657808429
 31
0.0
  0
ARC
  5
3CB
330
86
100
AcDbEntity
  8
1
  6
Continuous
 62
     7
100
AcDbCircle
 10
559.0180336125457
 20
664.566219591406
 30
0.0
 40
0.4999999999994691
100
AcDbArc
 50
83.9999999999591
 51
174.0000000000164
  0
ARC
  5
3CC
330
86
100
AcDbEntity
  8
1
  6
Continuous
 62
     7
100
AcDbCircle
 10
535.8543245036017
 20
678.5641687381981
 30
0.0
 40
8.000000000000123
100
AcDbArc
 50
83.99999999999507
 51
173.9999999999982
  0
ARC
  5
3CD
330
86
100
AcDbEntity
  8
0
  6
Continuous
 62
     7
100
AcDbCircle
 10
309.7873649720058
 20
678.7565716072863
 30
0.0
 40
8.0
100
AcDbArc
 50
90.0
 51
180.0
  0
ARC
  5
3CE
330
86
100
AcDbEntity
  8
0
  6
Continuous
 62
     7
100
AcDbCircle
 10
325.7873649720058
 20
678.7565716072863
 30
0.0
 40
8.0
100
AcDbArc
 50
0.0
 51
90.0
  0
ARC
  5
3CF
330
86
100
AcDbEntity
  8
1
  6
Continuous
 62
     7
100
AcDbCircle
 10
341.2873649720058
 20
530.336289755789
 30
0.0
 40
0.5
100
AcDbArc
 50
270.0
 51
0.0
  0
ARC
  5
3D0
330
86
100
AcDbEntity
  8
1
  6
Continuous
 62
     7
100
AcDbCircle
 10
294.2873649720058
 20
530.336289755789
 30
0.0
 40
0.5
100
AcDbArc
 50
180.0
 51
270.0
  0
ARC
  5
3D1
330
86
100
AcDbEntity
  8
1
  6
Continuous
 62
     7
100
AcDbCircle
 10
341.2873649720058
 20
572.9362897557887
 30
0.0
 40
0.5
100
AcDbArc
 50
0.0
 51
90.0
  0
ARC
  5
3D2
330
86
100
AcDbEntity
  8
1
  6
Continuous
 62
     7
100
AcDbCircle
 10
294.2873649720058
 20
572.9362897557887
 30
0.0
 40
0.5
100
AcDbArc
 50
90.0
 51
180.0
  0
ARC
  5
3D3
330
86
100
AcDbEntity
  8
1
  6
Continuous
 62
     7
100
AcDbCircle
 10
821.2873649720058
 20
530.336289755789
 30
0.0
 40
0.5
100
AcDbArc
 50
270.0
 51
0.0
  0
ARC
  5
3D4
330
86
100
AcDbEntity
  8
1
  6
Continuous
 62
     7
100
AcDbCircle
 10
774.2873649720058
 20
530.336289755789
 30
0.0
 40
0.5
100
AcDbArc
 50
180.0
 51
270.0
  0
ARC
  5
3D5
330
86
100
AcDbEntity
  8
1
  6
Continuous
 62
     7
100
AcDbCircle
 10
774.2873649720058
 20
571.9362897557887
 30
0.0
 40
0.5
100
AcDbArc
 50
90.0
 51
180.0
  0
ARC
  5
3D6
330
86
100
AcDbEntity
  8
1
  6
Continuous
 62
     7
100
AcDbCircle
 10
821.2873649720058
 20
571.9362897557887
 30
0.0
 40
0.5
100
AcDbArc
 50
0.0
 51
90.0
  0
ARC
  5
3D7
330
86
100
AcDbEntity
  8
0
  6
Continuous
 62
     7
100
AcDbCircle
 10
312.7873649720052
 20
1012.818611572829
 30
0.0
 40
10.0
100
AcDbArc
 50
180.0
 51
270.0
  0
ARC
  5
3D8
330
86
100
AcDbEntity
  8
0
  6
Continuous
 62
     7
100
AcDbCircle
 10
322.7873649720058
 20
1012.818611572829
 30
0.0
 40
10.0
100
AcDbArc
 50
270.0
 51
0.0
  0
ENDBLK
  5
88
330
86
100
AcDbEntity
  8
0
100
AcDbBlockEnd
  0
BLOCK
  5
8A
330
89
100
AcDbEntity
  8
0
100
AcDbBlockBegin
  2
82-20-M21
 70
     0
 10
293.5505452107544
 20
665.6358141322748
 30
0.0
  3
82-20-M21
  1

  0
LINE
  5
3D9
330
89
100
AcDbEntity
  8
0
  6
Continuous
 62
     7
100
AcDbLine
 10
305.2873649720058
 20
655.8594001816141
 30
0.0
 11
306.6273649720057
 21
652.378573547825
 31
0.0
  0
LINE
  5
3DA
330
89
100
AcDbEntity
  8
0
  6
Continuous
 62
     7
100
AcDbLine
 10
330.2873649720058
 20
655.8594001816141
 30
0.0
 11
328.9473649720056
 21
652.378573547825
 31
0.0
  0
LINE
  5
3DB
330
89
100
AcDbEntity
  8
0
  6
Continuous
 62
     7
100
AcDbLine
 10
305.2873649720058
 20
665.8046191352969
 30
0.0
 11
305.2873649720058
 21
655.8594001816141
 31
0.0
  0
LINE
  5
3DC
330
89
100
AcDbEntity
  8
0
  6
Continuous
 62
     7
100
AcDbLine
 10
330.2873649720058
 20
655.8594001816141
 30
0.0
 11
330.2873649720058
 21
665.8046191352969
 31
0.0
  0
LINE
  5
3DD
330
89
100
AcDbEntity
  8
1
  6
Continuous
 62
     7
100
AcDbLine
 10
541.1450238532238
 20
652.3676327001613
 30
0.0
 11
551.8318563792701
 21
651.2444013401046
 31
0.0
  0
LINE
  5
3DE
330
89
100
AcDbEntity
  8
1
  6
Continuous
 62
     7
100
AcDbLine
 10
554.9667761067832
 20
664.2881681177205
 30
0.0
 11
553.942397166765
 21
654.5418535431108
 31
0.0
  0
LINE
  5
3DF
330
89
100
AcDbEntity
  8
1
  6
Continuous
 62
     7
100
AcDbLine
 10
553.942397166765
 20
654.5418535431108
 30
0.0
 11
552.8639252840608
 21
651.8652004380169
 31
0.0
  0
LINE
  5
3E0
330
89
100
AcDbEntity
  8
1
  6
Continuous
 62
     7
100
AcDbLine
 10
529.0793497825571
 20
657.1550651247899
 30
0.0
 11
529.577746994273
 21
654.3126763994142
 31
0.0
  0
LINE
  5
3E1
330
89
100
AcDbEntity
  8
1
  6
Continuous
 62
     7
100
AcDbLine
 10
530.1037287225752
 20
666.9013796993995
 30
0.0
 11
529.0793497825571
 21
657.1550651247899
 31
0.0
  0
LINE
  5
3E2
330
89
100
AcDbEntity
  8
1
  6
Continuous
 62
     7
100
AcDbLine
 10
530.3235387943023
 20
667.0793783858198
 30
0.0
 11
531.3748264979072
 21
666.9688835956886
 31
0.0
  0
LINE
  5
3E3
330
89
100
AcDbEntity
  8
1
  6
Continuous
 62
     7
100
AcDbLine
 10
530.4581913271817
 20
653.4908640602184
 30
0.0
 11
541.1450238532238
 21
652.3676327001613
 31
0.0
  0
LINE
  5
3E4
330
89
100
AcDbEntity
  8
1
  6
Continuous
 62
     7
100
AcDbLine
 10
531.3748264979072
 20
666.9688835956886
 30
0.0
 11
554.7887774203631
 21
664.5079781894474
 31
0.0
  0
LINE
  5
3E5
330
89
100
AcDbEntity
  8
1
  6
Continuous
 62
     7
100
AcDbLine
 10
553.942397166765
 20
654.5418535431108
 30
0.0
 11
529.0793497825571
 21
657.1550651247899
 31
0.0
  0
SPLINE
  5
3E6
330
89
100
AcDbEntity
  8
0
  6
Continuous
 62
     7
100
AcDbSpline
210
0.0
220
0.0
230
1.0
 70
     8
 71
     3
 72
    47
 73
    43
 74
    41
 42
0.000000001
 43
0.0000000001
 44
0.00000001
 40
0.0
 40
0.0
 40
0.0
 40
0.0
 40
0.058595430015819
 40
0.1291179506840201
 40
0.353319637383073
 40
0.5597608010258894
 40
0.904766515023963
 40
1.252095258315307
 40
1.746736125851191
 40
2.240608423293781
 40
2.869026782204356
 40
3.497489596188435
 40
4.243146816698548
 40
4.988759298831487
 40
5.829723923056411
 40
6.670677888546537
 40
7.582019858423292
 40
8.493354754133494
 40
9.447836841398413
 40
10.40231613195308
 40
11.37133107829288
 40
12.34034602463274
 40
13.29482531518753
 40
14.24930740245233
 40
15.16064229816248
 40
16.07198426803934
 40
16.91293823352946
 40
17.75390285775429
 40
18.49951533988716
 40
19.24517256039744
 40
19.87363537438159
 40
20.50205373329216
 40
20.99592603073473
 40
21.49056689827058
 40
21.58424172099875
 40
21.67771905444092
 40
21.93090434846069
 40
22.18292883454888
 40
22.38936999819154
 40
22.61357168489073
 40
22.68409420556661
 40
22.742689635575
 40
22.742689635575
 40
22.742689635575
 40
22.742689635575
 10
328.9473649720056
 20
652.378573547825
 30
0.0
 10
328.9442758300903
 20
652.358915172361
 30
0.0
 10
328.9374687667344
 20
652.3155969585372
 30
0.0
 10
328.8576283379261
 20
652.2242459274213
 30
0.0
 10
328.7298750919495
 20
652.1165139469517
 30
0.0
 10
328.4916672639164
 20
652.0091895601618
 30
0.0
 10
328.2017021295546
 20
651.9336005843669
 30
0.0
 10
327.8191249914347
 20
651.8326059669415
 30
0.0
 10
327.3831308072369
 20
651.7409963100549
 30
0.0
 10
326.8517852742884
 20
651.6502229438101
 30
0.0
 10
326.2736271068472
 20
651.5702384244016
 30
0.0
 10
325.6108289304667
 20
651.4908461351722
 30
0.0
 10
324.9077175640725
 20
651.4204811352138
 30
0.0
 10
324.1330374238249
 20
651.3550878406585
 30
0.0
 10
323.3257888948345
 20
651.2988587449622
 30
0.0
 10
322.4627706143326
 20
651.2493230910277
 30
0.0
 10
321.5757895092061
 20
651.2090008866552
 30
0.0
 10
320.6506144684024
 20
651.1767851625355
 30
0.0
 10
319.7107772968567
 20
651.1539168793911
 30
0.0
 10
318.7515389468053
 20
651.1399257058546
 30
0.0
 10
317.7873649719685
 20
651.1353568919279
 30
0.0
 10
316.8231909973545
 20
651.1399257063598
 30
0.0
 10
315.8639526466449
 20
651.1539168774044
 30
0.0
 10
314.9241154774674
 20
651.1767851698464
 30
0.0
 10
313.998940428221
 20
651.2090008607305
 30
0.0
 10
313.1119593534873
 20
651.2493231847693
 30
0.0
 10
312.2489409679185
 20
651.2988584250174
 30
0.0
 10
311.441692809705
 20
651.3550889805972
 30
0.0
 10
310.6670114346832
 20
651.4204774134002
 30
0.0
 10
309.9639043206622
 20
651.490859156486
 30
0.0
 10
309.3010926307191
 20
651.5701982379452
 30
0.0
 10
308.7229795141128
 20
651.6503601387399
 30
0.0
 10
308.191499564235
 20
651.7406042570542
 30
0.0
 10
307.8386398146392
 20
651.8161829529988
 30
0.0
 10
307.6176566250246
 20
651.869240308079
 30
0.0
 10
307.4752759974929
 20
651.9049323256971
 30
0.0
 10
307.283246469979
 20
651.959368501175
 30
0.0
 10
307.0542919933442
 20
652.0212680667541
 30
0.0
 10
306.8449146249092
 20
652.1167323377874
 30
0.0
 10
306.7170969592716
 20
652.2242289494557
 30
0.0
 10
306.6372616633146
 20
652.3155987343787
 30
0.0
 10
306.6304542656392
 20
652.358915726698
 30
0.0
 10
306.6273649720057
 20
652.378573547825
 30
0.0
 11
328.9473649720056
 21
652.378573547825
 31
0.0
 11
328.9334905274122
 21
652.321644434057
 31
0.0
 11
328.891867193663
 21
652.264715320305
 31
0.0
 11
328.7192552251329
 21
652.1216366558094
 31
0.0
 11
328.5330225115165
 21
652.0325561857115
 31
0.0
 11
328.2025048375318
 21
651.9336268705866
 31
0.0
 11
327.8660225445971
 21
651.8475053158727
 31
0.0
 11
327.3823275220704
 21
651.7440224061402
 31
0.0
 11
326.8956467533482
 21
651.6600481530588
 31
0.0
 11
326.2734076725163
 21
651.572138201581
 31
0.0
 11
325.6494111082585
 21
651.497346518589
 31
0.0
 11
324.907529695922
 21
651.4224021404816
 31
0.0
 11
324.1645778082599
 21
651.359469911892
 31
0.0
 11
323.3256786139808
 21
651.3005662612452
 31
0.0
 11
322.486112785006
 21
651.2522672978411
 31
0.0
 11
321.5757232563643
 21
651.2106128751467
 31
0.0
 11
320.6649423967374
 21
651.1788399850595
 31
0.0
 11
319.7107465403541
 21
651.1554664733899
 31
0.0
 11
318.7563686964846
 21
651.1415508110002
 31
0.0
 11
317.7873649720057
 21
651.1368874931712
 31
0.0
 11
316.8183612475268
 21
651.1415508110001
 31
0.0
 11
315.8639834036572
 21
651.1554664733899
 31
0.0
 11
314.909787547274
 21
651.1788399850595
 31
0.0
 11
313.9990066876473
 21
651.2106128751467
 31
0.0
 11
313.0886171590055
 21
651.2522672978412
 31
0.0
 11
312.2490513300306
 21
651.3005662612451
 31
0.0
 11
311.4101521357517
 21
651.3594699118921
 31
0.0
 11
310.6672002480897
 21
651.4224021404816
 31
0.0
 11
309.925318835753
 21
651.497346518589
 31
0.0
 11
309.3013222714952
 21
651.572138201581
 31
0.0
 11
308.6790831906633
 21
651.6600481530588
 31
0.0
 11
308.1924024219411
 21
651.7440224061404
 31
0.0
 11
307.7087073994144
 21
651.8475053158726
 31
0.0
 11
307.6176290196921
 21
651.8694073966598
 31
0.0
 11
307.5269820387756
 21
651.8922358153391
 31
0.0
 11
307.2827508244763
 21
651.9589734126934
 31
0.0
 11
307.0417074324948
 21
652.0325561857117
 31
0.0
 11
306.8554747188784
 21
652.1216366558093
 31
0.0
 11
306.6828627503486
 21
652.2647153203047
 31
0.0
 11
306.6412394165955
 21
652.3216444340609
 31
0.0
 11
306.6273649720057
 21
652.378573547825
 31
0.0
  0
SPLINE
  5
3E7
330
89
100
AcDbEntity
  8
0
  6
Continuous
 62
     7
100
AcDbSpline
210
0.0
220
0.0
230
1.0
 70
     8
 71
     3
 72
     9
 73
     5
 74
     3
 42
0.000000001
 43
0.0000000001
 44
0.00000001
 40
0.0
 40
0.0
 40
0.0
 40
0.0
 40
0.058595426266137
 40
0.1291179448979582
 40
0.1291179448979582
 40
0.1291179448979582
 40
0.1291179448979582
 10
328.9473649720056
 20
652.3785735477932
 30
0.0
 10
328.944306520697
 20
652.3982781458434
 30
0.0
 10
328.9375670520941
 20
652.4416982045079
 30
0.0
 10
328.9080105658749
 20
652.47451026557
 30
0.0
 10
328.8918671936631
 20
652.4924317753457
 30
0.0
 11
328.9473649720056
 21
652.3785735477932
 31
0.0
 11
328.9334905274278
 21
652.4355026615694
 31
0.0
 11
328.8918671936631
 21
652.4924317753457
 31
0.0
  0
SPLINE
  5
3E8
330
89
100
AcDbEntity
  8
0
  6
Continuous
 62
     7
100
AcDbSpline
210
0.0
220
0.0
230
1.0
 70
     8
 71
     3
 72
    43
 73
    39
 74
    37
 42
0.000000001
 43
0.0000000001
 44
0.00000001
 40
0.0
 40
0.0
 40
0.0
 40
0.0
 40
0.2484686977764906
 40
0.475677602419166
 40
0.8590104327019494
 40
1.245834303678738
 40
1.798935429194301
 40
2.350938871391356
 40
3.053990038131317
 40
3.75716293847766
 40
4.591927248453218
 40
5.42663049709392
 40
6.36832774866621
 40
7.310017772938643
 40
8.330679069214519
 40
9.351332728152359
 40
10.42038863221217
 40
11.4894418777216
 40
12.57480046876023
 40
13.66015905976053
 40
14.72921230515748
 40
15.79826820903107
 40
16.81892186772275
 40
17.83958316368718
 40
18.78127318761584
 40
19.72297043879362
 40
20.55767368704475
 40
21.39243799659748
 40
22.09561089656621
 40
22.79866206291587
 40
23.35066550480256
 40
23.90376663002426
 40
24.29059050085248
 40
24.67392333116201
 40
24.9011322369055
 40
25.14960093284063
 40
25.22568699063185
 40
25.28762727595091
 40
25.28762727595091
 40
25.28762727595091
 40
25.28762727595091
 10
330.2248751418715
 20
655.9792757428927
 30
0.0
 10
330.162127442282
 20
656.0342276178154
 30
0.0
 10
330.0420009496039
 20
656.139429516634
 30
0.0
 10
329.7738464315251
 20
656.2491817616938
 30
0.0
 10
329.4511642768286
 20
656.3276412648004
 30
0.0
 10
329.022825892015
 20
656.4336156752871
 30
0.0
 10
328.5348791855982
 20
656.5305547330017
 30
0.0
 10
327.9396741363661
 20
656.6260103876018
 30
0.0
 10
327.292286439607
 20
656.7099998536743
 30
0.0
 10
326.5499513286589
 20
656.7935401801549
 30
0.0
 10
325.7625017931961
 20
656.867606744863
 30
0.0
 10
324.8948136413737
 20
656.9364153649288
 30
0.0
 10
323.9906895457259
 20
656.9955708587503
 30
0.0
 10
323.0240593743475
 20
657.0476953848877
 30
0.0
 10
322.0306100347223
 20
657.0901247099879
 30
0.0
 10
320.9943581462475
 20
657.1240240774525
 30
0.0
 10
319.9416957913413
 20
657.1480866000768
 30
0.0
 10
318.8672926433033
 20
657.162809082436
 30
0.0
 10
317.7873649679489
 20
657.1676165288732
 30
0.0
 10
316.7074372925895
 20
657.1628090820966
 30
0.0
 10
315.6330341447994
 20
657.1480865991343
 30
0.0
 10
314.5803717896143
 20
657.1240240769974
 30
0.0
 10
313.5441199030691
 20
657.0901247061854
 30
0.0
 10
312.5506705577441
 20
657.0476953916459
 30
0.0
 10
311.5840404075144
 20
656.9955708277294
 30
0.0
 10
310.6799162389193
 20
656.9364154660881
 30
0.0
 10
309.8122283316875
 20
656.8676064050609
 30
0.0
 10
309.0247779559205
 20
656.7935413579094
 30
0.0
 10
308.2824455156318
 20
656.7099962109099
 30
0.0
 10
307.6350489217709
 20
656.626022806774
 30
0.0
 10
307.0398704003087
 20
656.5305192639346
 30
0.0
 10
306.5518393651079
 20
656.4337324397218
 30
0.0
 10
306.1237273726738
 20
656.327349338488
 30
0.0
 10
305.8003826646317
 20
656.250085897593
 30
0.0
 10
305.5338152437341
 20
656.137468572927
 30
0.0
 10
305.3901706579157
 20
656.0232081365593
 30
0.0
 10
305.2988203454767
 20
655.9264397010465
 30
0.0
 10
305.2909133141928
 20
655.8801658801123
 30
0.0
 10
305.2873649720058
 20
655.8594001815836
 30
0.0
 11
330.2248751418715
 21
655.9792757428927
 31
0.0
 11
330.0288929689766
 21
656.1320097612165
 31
0.0
 11
329.8216219431886
 21
656.2250828961855
 31
0.0
 11
329.4522621877788
 21
656.3276374154295
 31
0.0
 11
329.0761152569514
 21
656.4178936797391
 31
0.0
 11
328.5339332346109
 21
656.5272532200986
 31
0.0
 11
327.9890507612417
 21
656.6156324587771
 31
0.0
 11
327.2920965855687
 21
656.7080219559493
 31
0.0
 11
326.5933376063062
 21
656.7866858985205
 31
0.0
 11
325.7623096261158
 21
656.8655779023125
 31
0.0
 11
324.9302371375032
 21
656.931796373787
 31
0.0
 11
323.9905816789383
 21
656.99377485063
 31
0.0
 11
323.0502639330367
 21
657.0445945065144
 31
0.0
 11
322.0305443129928
 21
657.0884280208754
 31
0.0
 11
321.0104383704355
 21
657.1218608838622
 31
0.0
 11
319.9416654284184
 21
657.1464560719143
 31
0.0
 11
318.872712469805
 21
657.1610989186559
 31
0.0
 11
317.7873649720058
 21
657.166005972454
 31
0.0
 11
316.7020174742066
 21
657.1610989186559
 31
0.0
 11
315.6330645155932
 21
657.1464560719143
 31
0.0
 11
314.5642915735762
 21
657.1218608838623
 31
0.0
 11
313.5441856310187
 21
657.0884280208754
 31
0.0
 11
312.5244660109748
 21
657.0445945065144
 31
0.0
 11
311.5841482650733
 21
656.9937748506298
 31
0.0
 11
310.6444928065084
 21
656.9317963737869
 31
0.0
 11
309.8124203178957
 21
656.8655779023125
 31
0.0
 11
308.9813923377053
 21
656.7866858985205
 31
0.0
 11
308.2826333584429
 21
656.7080219559492
 31
0.0
 11
307.5856791827699
 21
656.6156324587772
 31
0.0
 11
307.0407967094006
 21
656.5272532200986
 31
0.0
 11
306.4986146870602
 21
656.4178936797389
 31
0.0
 11
306.1224677562328
 21
656.3276374154291
 31
0.0
 11
305.753108000823
 21
656.2250828961854
 31
0.0
 11
305.5458369750349
 21
656.1320097612166
 31
0.0
 11
305.3498548021399
 21
655.9792757428929
 31
0.0
 11
305.3029874295315
 21
655.9193379622384
 31
0.0
 11
305.2873649720058
 21
655.8594001815836
 31
0.0
  0
SPLINE
  5
3E9
330
89
100
AcDbEntity
  8
0
  6
Continuous
 62
     7
100
AcDbSpline
210
0.0
220
0.0
230
1.0
 70
     8
 71
     3
 72
     9
 73
     5
 74
     3
 42
0.000000001
 43
0.0000000001
 44
0.00000001
 40
0.0
 40
0.0
 40
0.0
 40
0.0
 40
0.0593252713171934
 40
0.130429590435493
 40
0.130429590435493
 40
0.130429590435493
 40
0.130429590435493
 10
328.9473649720056
 20
652.3785735478568
 30
0.0
 10
328.9443246434272
 20
652.3985259594012
 30
0.0
 10
328.9376403096597
 20
652.4423923328422
 30
0.0
 10
328.9080594395959
 20
652.4757542049093
 30
0.0
 10
328.8919332766193
 20
652.4939415848949
 30
0.0
 11
328.9473649720056
 21
652.3785735478568
 31
0.0
 11
328.9335070481515
 21
652.4362575663756
 31
0.0
 11
328.8919332766193
 21
652.4939415848949
 31
0.0
  0
SPLINE
  5
3EA
330
89
100
AcDbEntity
  8
0
  6
Continuous
 62
     7
100
AcDbSpline
210
0.0
220
0.0
230
1.0
 70
     8
 71
     3
 72
    43
 73
    39
 74
    37
 42
0.000000001
 43
0.0000000001
 44
0.00000001
 40
0.0
 40
0.0
 40
0.0
 40
0.0
 40
0.2247548553271743
 40
0.4320074826221968
 40
0.7776252719430019
 40
1.125402497973504
 40
1.620241479081506
 40
2.114354191160507
 40
2.742939120768458
 40
3.371555430131248
 40
4.117300278857306
 40
4.863002251855765
 40
5.704016686345382
 40
6.545019578815405
 40
7.45638351707793
 40
8.367740306555849
 40
9.322229045302166
 40
10.27671489315332
 40
11.24573140085848
 40
12.21474790852378
 40
13.16923375625786
 40
14.12372249481064
 40
15.03507928403386
 40
15.94644322197589
 40
16.78744611409453
 40
17.62846054818365
 40
18.3741625207896
 40
19.11990736909308
 40
19.74852367808122
 40
20.37710860730499
 40
20.87122131908037
 40
21.36606029990439
 40
21.71383752579219
 40
22.05945531514146
 40
22.26670794355906
 40
22.49146279705316
 40
22.56256711828183
 40
22.62189239315107
 40
22.62189239315107
 40
22.62189239315107
 40
22.62189239315107
 10
328.8919332766193
 20
652.4939415848949
 30
0.0
 10
328.8370842341585
 20
652.545792097787
 30
0.0
 10
328.7316573914951
 20
652.64545540377
 30
0.0
 10
328.4916135208897
 20
652.751673874737
 30
0.0
 10
328.2021189110712
 20
652.8298208935552
 30
0.0
 10
327.8192123864184
 20
652.9317805691243
 30
0.0
 10
327.3832457265916
 20
653.0246772399233
 30
0.0
 10
326.8518756380364
 20
653.1166270331469
 30
0.0
 10
326.273690854693
 20
653.1977363163107
 30
0.0
 10
325.6108802825248
 20
653.2781871750307
 30
0.0
 10
324.9077524181808
 20
653.3494918710235
 30
0.0
 10
324.1330699517276
 20
653.4157611771124
 30
0.0
 10
323.3258108662544
 20
653.4727462144805
 30
0.0
 10
322.4627900982144
 20
653.5229454087985
 30
0.0
 10
321.5758022195519
 20
653.5638078634411
 30
0.0
 10
320.6506250229197
 20
653.596455152632
 30
0.0
 10
319.7107832092802
 20
653.6196299763941
 30
0.0
 10
318.751542283718
 20
653.6338085549548
 30
0.0
 10
317.7873649680132
 20
653.638438605712
 30
0.0
 10
316.8231876523008
 20
653.6338085545938
 30
0.0
 10
315.8639467270048
 20
653.6196299754397
 30
0.0
 10
314.9241049130462
 20
653.5964551520581
 30
0.0
 10
313.9989277185243
 20
653.5638078598471
 30
0.0
 10
313.1119398335554
 20
653.5229454145488
 30
0.0
 10
312.2489190888072
 20
653.4727461866268
 30
0.0
 10
311.441659922851
 20
653.4157612667148
 30
0.0
 10
310.6669777261845
 20
653.3494915685762
 30
0.0
 10
309.9638489345538
 20
653.2781882220977
 30
0.0
 10
309.301041311275
 20
653.1977330737589
 30
0.0
 10
308.722846697684
 20
653.1166380923528
 30
0.0
 10
308.1915059460237
 20
653.0246456194959
 30
0.0
 10
307.7554459263131
 20
652.9318847713561
 30
0.0
 10
307.3727912850683
 20
652.8295586494911
 30
0.0
 10
307.0825545029716
 20
652.7524913611558
 30
0.0
 10
306.8443026360692
 20
652.6436658374716
 30
0.0
 10
306.7166627097654
 20
652.5346705579019
 30
0.0
 10
306.6371931749334
 20
652.4422416642492
 30
0.0
 10
306.6304376821724
 20
652.3984788513344
 30
0.0
 10
306.6273649720057
 20
652.3785735478568
 30
0.0
 11
328.8919332766193
 21
652.4939415848949
 31
0.0
 11
328.7198267336906
 21
652.6384894374188
 31
0.0
 11
328.5333353554198
 21
652.7289030291136
 31
0.0
 11
328.2026719165929
 21
652.8294681627767
 31
0.0
 11
327.8660435709101
 21
652.9168200689694
 31
0.0
 11
327.3824241823261
 21
653.0215955605618
 31
0.0
 11
326.8956943971274
 21
653.1066924929974
 31
0.0
 11
326.2734578286082
 21
653.1958029061459
 31
0.0
 11
325.6494284777469
 21
653.2716041786564
 31
0.0
 11
324.9075604465103
 21
653.3475462792213
 31
0.0
 11
324.1645906912677
 21
653.4113222495478
 31
0.0
 11
323.3256973873253
 21
653.4710156536848
 31
0.0
 11
322.4861200645842
 21
653.5199623923879
 31
0.0
 11
321.5757342257616
 21
653.562174372749
 31
0.0
 11
320.6649464108875
 21
653.594373020848
 31
0.0
 11
319.7107516212283
 21
653.6180596141946
 31
0.0
 11
318.7563699556025
 21
653.6321617089861
 31
0.0
 11
317.7873649720058
 21
653.6368874931712
 31
0.0
 11
316.818359988409
 21
653.6321617089859
 31
0.0
 11
315.8639783227832
 21
653.6180596141942
 31
0.0
 11
314.909783533124
 21
653.5943730208478
 31
0.0
 11
313.99899571825
 21
653.5621743727492
 31
0.0
 11
313.0886098794274
 21
653.519962392388
 31
0.0
 11
312.2490325566862
 21
653.4710156536847
 31
0.0
 11
311.4101392527438
 21
653.4113222495479
 31
0.0
 11
310.6671694975012
 21
653.3475462792212
 31
0.0
 11
309.9253014662646
 21
653.2716041786564
 31
0.0
 11
309.3012721154033
 21
653.195802906146
 31
0.0
 11
308.6790355468839
 21
653.1066924929972
 31
0.0
 11
308.1923057616852
 21
653.0215955605618
 31
0.0
 11
307.7086863731014
 21
652.9168200689694
 31
0.0
 11
307.3720580274186
 21
652.8294681627766
 31
0.0
 11
307.0413945885918
 21
652.7289030291137
 31
0.0
 11
306.8549032103209
 21
652.6384894374187
 31
0.0
 11
306.6827966673921
 21
652.4939415848944
 31
0.0
 11
306.6412228958599
 21
652.4362575663755
 31
0.0
 11
306.6273649720057
 21
652.3785735478568
 31
0.0
  0
SPLINE
  5
3EB
330
89
100
AcDbEntity
  8
0
  6
Continuous
 62
     7
100
AcDbSpline
210
0.0
220
0.0
230
1.0
 70
     8
 71
     3
 72
     9
 73
     5
 74
     3
 42
0.000000001
 43
0.0000000001
 44
0.00000001
 40
0.0
 40
0.0
 40
0.0
 40
0.0
 40
0.0619402815199207
 40
0.1380263370870243
 40
0.1380263370870243
 40
0.1380263370870243
 40
0.1380263370870243
 10
330.2873649720058
 20
655.8594001816373
 30
0.0
 10
330.2838426751478
 20
655.8802128963559
 30
0.0
 10
330.2759936492059
 20
655.9265914775857
 30
0.0
 10
330.2430403998864
 20
655.960554093354
 30
0.0
 10
330.2248751418715
 20
655.9792757428927
 30
0.0
 11
330.2873649720058
 21
655.8594001816373
 31
0.0
 11
330.2717425144663
 21
655.9193379622649
 31
0.0
 11
330.2248751418715
 21
655.9792757428927
 31
0.0
  0
SPLINE
  5
3EC
330
89
100
AcDbEntity
  8
0
  6
Continuous
 62
     7
100
AcDbSpline
210
0.0
220
0.0
230
1.0
 70
     8
 71
     3
 72
    43
 73
    39
 74
    37
 42
0.000000001
 43
0.0000000001
 44
0.00000001
 40
0.0
 40
0.0
 40
0.0
 40
0.0
 40
0.2484686977764906
 40
0.475677602419166
 40
0.8590104327019494
 40
1.245834303678738
 40
1.798935429194301
 40
2.350938871391356
 40
3.053990038131317
 40
3.75716293847766
 40
4.591927248453218
 40
5.42663049709392
 40
6.36832774866621
 40
7.310017772938643
 40
8.330679069214519
 40
9.351332728152359
 40
10.42038863221217
 40
11.4894418777216
 40
12.57480046876023
 40
13.66015905976053
 40
14.72921230515748
 40
15.79826820903107
 40
16.81892186772275
 40
17.83958316368718
 40
18.78127318761584
 40
19.72297043879362
 40
20.55767368704475
 40
21.39243799659748
 40
22.09561089656621
 40
22.79866206291587
 40
23.35066550480256
 40
23.90376663002426
 40
24.29059050085248
 40
24.67392333116201
 40
24.9011322369055
 40
25.14960093284063
 40
25.22568699063185
 40
25.28762727595091
 40
25.28762727595091
 40
25.28762727595091
 40
25.28762727595091
 10
330.2248751418715
 20
655.9792757428927
 30
0.0
 10
330.162127442282
 20
656.0342276178154
 30
0.0
 10
330.0420009496039
 20
656.139429516634
 30
0.0
 10
329.7738464315251
 20
656.2491817616938
 30
0.0
 10
329.4511642768286
 20
656.3276412648004
 30
0.0
 10
329.022825892015
 20
656.4336156752871
 30
0.0
 10
328.5348791855982
 20
656.5305547330017
 30
0.0
 10
327.9396741363661
 20
656.6260103876018
 30
0.0
 10
327.292286439607
 20
656.7099998536743
 30
0.0
 10
326.5499513286589
 20
656.7935401801549
 30
0.0
 10
325.7625017931961
 20
656.867606744863
 30
0.0
 10
324.8948136413737
 20
656.9364153649288
 30
0.0
 10
323.9906895457259
 20
656.9955708587503
 30
0.0
 10
323.0240593743475
 20
657.0476953848877
 30
0.0
 10
322.0306100347223
 20
657.0901247099879
 30
0.0
 10
320.9943581462475
 20
657.1240240774525
 30
0.0
 10
319.9416957913413
 20
657.1480866000768
 30
0.0
 10
318.8672926433033
 20
657.162809082436
 30
0.0
 10
317.7873649679489
 20
657.1676165288732
 30
0.0
 10
316.7074372925895
 20
657.1628090820966
 30
0.0
 10
315.6330341447994
 20
657.1480865991343
 30
0.0
 10
314.5803717896143
 20
657.1240240769974
 30
0.0
 10
313.5441199030691
 20
657.0901247061854
 30
0.0
 10
312.5506705577441
 20
657.0476953916459
 30
0.0
 10
311.5840404075144
 20
656.9955708277294
 30
0.0
 10
310.6799162389193
 20
656.9364154660881
 30
0.0
 10
309.8122283316875
 20
656.8676064050609
 30
0.0
 10
309.0247779559205
 20
656.7935413579094
 30
0.0
 10
308.2824455156318
 20
656.7099962109099
 30
0.0
 10
307.6350489217709
 20
656.626022806774
 30
0.0
 10
307.0398704003087
 20
656.5305192639346
 30
0.0
 10
306.5518393651079
 20
656.4337324397218
 30
0.0
 10
306.1237273726738
 20
656.327349338488
 30
0.0
 10
305.8003826646317
 20
656.250085897593
 30
0.0
 10
305.5338152437341
 20
656.137468572927
 30
0.0
 10
305.3901706579157
 20
656.0232081365593
 30
0.0
 10
305.2988203454767
 20
655.9264397010465
 30
0.0
 10
305.2909133141928
 20
655.8801658801123
 30
0.0
 10
305.2873649720058
 20
655.8594001815836
 30
0.0
 11
330.2248751418715
 21
655.9792757428927
 31
0.0
 11
330.0288929689766
 21
656.1320097612165
 31
0.0
 11
329.8216219431886
 21
656.2250828961855
 31
0.0
 11
329.4522621877788
 21
656.3276374154295
 31
0.0
 11
329.0761152569514
 21
656.4178936797391
 31
0.0
 11
328.5339332346109
 21
656.5272532200986
 31
0.0
 11
327.9890507612417
 21
656.6156324587771
 31
0.0
 11
327.2920965855687
 21
656.7080219559493
 31
0.0
 11
326.5933376063062
 21
656.7866858985205
 31
0.0
 11
325.7623096261158
 21
656.8655779023125
 31
0.0
 11
324.9302371375032
 21
656.931796373787
 31
0.0
 11
323.9905816789383
 21
656.99377485063
 31
0.0
 11
323.0502639330367
 21
657.0445945065144
 31
0.0
 11
322.0305443129928
 21
657.0884280208754
 31
0.0
 11
321.0104383704355
 21
657.1218608838622
 31
0.0
 11
319.9416654284184
 21
657.1464560719143
 31
0.0
 11
318.872712469805
 21
657.1610989186559
 31
0.0
 11
317.7873649720058
 21
657.166005972454
 31
0.0
 11
316.7020174742066
 21
657.1610989186559
 31
0.0
 11
315.6330645155932
 21
657.1464560719143
 31
0.0
 11
314.5642915735762
 21
657.1218608838623
 31
0.0
 11
313.5441856310187
 21
657.0884280208754
 31
0.0
 11
312.5244660109748
 21
657.0445945065144
 31
0.0
 11
311.5841482650733
 21
656.9937748506298
 31
0.0
 11
310.6444928065084
 21
656.9317963737869
 31
0.0
 11
309.8124203178957
 21
656.8655779023125
 31
0.0
 11
308.9813923377053
 21
656.7866858985205
 31
0.0
 11
308.2826333584429
 21
656.7080219559492
 31
0.0
 11
307.5856791827699
 21
656.6156324587772
 31
0.0
 11
307.0407967094006
 21
656.5272532200986
 31
0.0
 11
306.4986146870602
 21
656.4178936797389
 31
0.0
 11
306.1224677562328
 21
656.3276374154291
 31
0.0
 11
305.753108000823
 21
656.2250828961854
 31
0.0
 11
305.5458369750349
 21
656.1320097612166
 31
0.0
 11
305.3498548021399
 21
655.9792757428929
 31
0.0
 11
305.3029874295315
 21
655.9193379622384
 31
0.0
 11
305.2873649720058
 21
655.8594001815836
 31
0.0
  0
SPLINE
  5
3ED
330
89
100
AcDbEntity
  8
0
  6
Continuous
 62
     7
100
AcDbSpline
210
0.0
220
0.0
230
1.0
 70
     8
 71
     3
 72
    27
 73
    23
 74
    21
 42
0.000000001
 43
0.0000000001
 44
0.00000001
 40
0.0
 40
0.0
 40
0.0
 40
0.0
 40
0.5426682759320697
 40
1.085344516927687
 40
2.15433008885449
 40
3.223317209570027
 40
4.243745144783856
 40
5.264180667752038
 40
6.205365031410751
 40
7.146543773123433
 40
7.98032615942045
 40
8.814206134676041
 40
9.515778177921806
 40
10.21701812820952
 40
10.76657635475011
 40
11.31794993153346
 40
11.69995780892108
 40
12.07595054032923
 40
12.29427288313128
 40
12.53747907131328
 40
12.60701182445422
 40
12.66027218653254
 40
12.66027218653254
 40
12.66027218653254
 40
12.66027218653254
 10
317.7873649720058
 20
666.9123205470632
 30
0.0
 10
317.9682545128164
 20
666.9121186154354
 30
0.0
 10
318.33003624948
 20
666.9117147595523
 30
0.0
 10
319.0481360742299
 20
666.9074657344775
 30
0.0
 10
319.9416348800504
 20
666.8971444561513
 30
0.0
 10
320.9942490827074
 20
666.8767290933242
 30
0.0
 10
322.0304790419464
 20
666.8479962604258
 30
0.0
 10
323.0238583756602
 20
666.8120257789716
 30
0.0
 10
323.990461563845
 20
666.76783808909
 30
0.0
 10
324.8944744894041
 20
666.7177166588766
 30
0.0
 10
325.7621472578483
 20
666.6593886086525
 30
0.0
 10
326.5494205206634
 20
666.5965410917443
 30
0.0
 10
327.291628421852
 20
666.5257074099371
 30
0.0
 10
327.9386110700727
 20
666.4549515106655
 30
0.0
 10
328.5339325523141
 20
666.3740132023461
 30
0.0
 10
329.0213635572523
 20
666.2909958099749
 30
0.0
 10
329.448463193059
 20
666.2005366864097
 30
0.0
 10
329.7680135066687
 20
666.1400870769833
 30
0.0
 10
330.0338941006174
 20
666.0453888528995
 30
0.0
 10
330.1786801528531
 20
665.9463026488226
 30
0.0
 10
330.2748249002904
 20
665.8633917624982
 30
0.0
 10
330.2835712976539
 20
665.8223992507665
 30
0.0
 10
330.2873649720058
 20
665.8046191352969
 30
0.0
 11
317.7873649720058
 21
666.9123205470632
 31
0.0
 11
318.3300322443984
 21
666.9112805644806
 31
0.0
 11
318.8726995167908
 21
666.9081606167329
 31
0.0
 11
319.9416130158695
 21
666.8957475384975
 31
0.0
 11
321.0103967780013
 21
666.8748972616667
 31
0.0
 11
322.0304310628228
 21
666.8465559715657
 31
0.0
 11
323.0501896228616
 21
666.8093923371773
 31
0.0
 11
323.9903877815263
 21
666.7663176486429
 31
0.0
 11
324.9300993685787
 21
666.7137861633274
 31
0.0
 11
325.7619900681427
 21
666.6576530036533
 31
0.0
 11
326.5931780451864
 21
666.5907025752365
 31
0.0
 11
327.2915808332327
 21
666.5240926853613
 31
0.0
 11
327.988463989596
 21
666.4460456858603
 31
0.0
 11
328.5328820988446
 21
666.3710579097076
 31
0.0
 11
329.0762164319153
 21
666.277246271183
 31
0.0
 11
329.450639656224
 21
666.2015015199571
 31
0.0
 11
329.8172786888492
 21
666.1181567333607
 31
0.0
 11
330.021365000534
 21
666.0406104727165
 31
0.0
 11
330.2241488706135
 21
665.9063422648039
 31
0.0
 11
330.2715609466577
 21
665.8554807000504
 31
0.0
 11
330.2873649720058
 21
665.8046191352969
 31
0.0
  0
SPLINE
  5
3EE
330
89
100
AcDbEntity
  8
0
  6
Continuous
 62
     7
100
AcDbSpline
210
0.0
220
0.0
230
1.0
 70
     8
 71
     3
 72
    27
 73
    23
 74
    21
 42
0.000000001
 43
0.0000000001
 44
0.00000001
 40
0.0
 40
0.0
 40
0.0
 40
0.0
 40
0.5426682759320697
 40
1.085344516927744
 40
2.15433008885449
 40
3.223317209570084
 40
4.243745144783856
 40
5.264180667752151
 40
6.205365031410864
 40
7.146543773123546
 40
7.980326159420336
 40
8.814206134676041
 40
9.515778177921806
 40
10.21701812820952
 40
10.76657635475005
 40
11.31794993153363
 40
11.69995780892124
 40
12.07595054032934
 40
12.29427288313139
 40
12.5374790713134
 40
12.6070118244543
 40
12.6602721865326
 40
12.6602721865326
 40
12.6602721865326
 40
12.6602721865326
 10
317.7873649720058
 20
666.9123205470632
 30
0.0
 10
317.6064754311952
 20
666.9121186154354
 30
0.0
 10
317.2446936945315
 20
666.9117147595523
 30
0.0
 10
316.5265938697818
 20
666.9074657344776
 30
0.0
 10
315.633095063961
 20
666.8971444561514
 30
0.0
 10
314.5804808613042
 20
666.8767290933242
 30
0.0
 10
313.5442509020651
 20
666.8479962604258
 30
0.0
 10
312.5508715683514
 20
666.8120257789715
 30
0.0
 10
311.5842683801665
 20
666.76783808909
 30
0.0
 10
310.6802554546074
 20
666.7177166588768
 30
0.0
 10
309.8125826861633
 20
666.6593886086523
 30
0.0
 10
309.025309423348
 20
666.5965410917444
 30
0.0
 10
308.2831015221596
 20
666.525707409937
 30
0.0
 10
307.6361188739388
 20
666.4549515106655
 30
0.0
 10
307.0407973916975
 20
666.3740132023462
 30
0.0
 10
306.5533663867591
 20
666.2909958099746
 30
0.0
 10
306.1262667509525
 20
666.2005366864097
 30
0.0
 10
305.8067164373426
 20
666.1400870769833
 30
0.0
 10
305.5408358433939
 20
666.0453888528996
 30
0.0
 10
305.3960497911584
 20
665.946302648822
 30
0.0
 10
305.299905043721
 20
665.8633917624984
 30
0.0
 10
305.2911586463575
 20
665.8223992507666
 30
0.0
 10
305.2873649720058
 20
665.8046191352969
 30
0.0
 11
317.7873649720058
 21
666.9123205470632
 31
0.0
 11
317.2446976996132
 21
666.9112805644806
 31
0.0
 11
316.7020304272207
 21
666.9081606167329
 31
0.0
 11
315.633116928142
 21
666.8957475384975
 31
0.0
 11
314.5643331660102
 21
666.8748972616667
 31
0.0
 11
313.5442988811888
 21
666.8465559715657
 31
0.0
 11
312.5245403211499
 21
666.8093923371773
 31
0.0
 11
311.5843421624851
 21
666.7663176486429
 31
0.0
 11
310.6446305754328
 21
666.7137861633274
 31
0.0
 11
309.812739875869
 21
666.6576530036533
 31
0.0
 11
308.9815518988251
 21
666.5907025752365
 31
0.0
 11
308.2831491107788
 21
666.5240926853613
 31
0.0
 11
307.5862659544156
 21
666.4460456858603
 31
0.0
 11
307.041847845167
 21
666.3710579097076
 31
0.0
 11
306.4985135120961
 21
666.277246271183
 31
0.0
 11
306.1240902877873
 21
666.2015015199571
 31
0.0
 11
305.7574512551622
 21
666.1181567333607
 31
0.0
 11
305.5533649434774
 21
666.0406104727165
 31
0.0
 11
305.350581073398
 21
665.9063422648039
 31
0.0
 11
305.3031689973538
 21
665.8554807000504
 31
0.0
 11
305.2873649720058
 21
665.8046191352969
 31
0.0
  0
ARC
  5
3EF
330
89
100
AcDbEntity
  8
1
  6
Continuous
 62
     7
100
AcDbCircle
 10
530.3026331016488
 20
666.8804740067462
 30
0.0
 40
0.1999999999999543
100
AcDbArc
 50
84.00000000000342
 51
174.0000000000682
  0
ARC
  5
3F0
330
89
100
AcDbEntity
  8
1
  6
Continuous
 62
     7
100
AcDbCircle
 10
554.7678717277096
 20
664.3090738103738
 30
0.0
 40
0.1999999999999305
100
AcDbArc
 50
354.0000000000682
 51
84.00000000000342
  0
ARC
  5
3F1
330
89
100
AcDbEntity
  8
1
  6
Continuous
 62
     7
100
AcDbCircle
 10
530.5627197904488
 20
654.4853859555869
 30
0.0
 40
0.9999999999999241
100
AcDbArc
 50
189.9453959009532
 51
264.0000000000321
  0
ARC
  5
3F2
330
89
100
AcDbEntity
  8
1
  6
Continuous
 62
     7
100
AcDbCircle
 10
551.9363848425373
 20
652.2389232354726
 30
0.0
 40
0.9999999999997359
100
AcDbArc
 50
264.0000000000229
 51
338.0546040991013
  0
ENDBLK
  5
8B
330
89
100
AcDbEntity
  8
0
100
AcDbBlockEnd
  0
BLOCK
  5
8F
330
8C
100
AcDbEntity
  8
0
100
AcDbBlockBegin
  2
61-115AX
 70
     0
 10
293.7873649720058
 20
529.836289755789
 30
0.0
  3
61-115AX
  1

  0
INSERT
  5
8D
330
8C
100
AcDbEntity
  8
0
100
AcDbBlockReference
  2
61-115
 10
769.7671984703084
 20
441.6841679292187
 30
0.0
 41
1.0
 42
1.0
 43
1.0
  0
INSERT
  5
8E
330
8C
100
AcDbEntity
  8
0
100
AcDbBlockReference
  2
82-20-M21
 10
293.5505452107544
 20
665.6358141322747
 30
0.0
 41
1.0
 42
1.0
 43
1.0
  0
ENDBLK
  5
90
330
8C
100
AcDbEntity
  8
0
100
AcDbBlockEnd
  0
BLOCK
  5
435
330
42E
100
AcDbEntity
  8
0
100
AcDbBlockBegin
  2
*D24
 70
     1
 10
0.0
 20
0.0
 30
0.0
  3
*D24
  1

  0
LINE
  5
42F
330
42E
100
AcDbEntity
  8
1
  6
Continuous
 62
     2
100
AcDbLine
 10
317.787364972004
 20
952.818611572829
 30
0.0
 11
393.7790603668594
 21
952.818611572829
 31
0.0
  0
LINE
  5
430
330
42E
100
AcDbEntity
  8
1
  6
Continuous
 62
     2
100
AcDbLine
 10
393.7790603668594
 20
1216.320372128709
 30
0.0
 11
393.7790603668594
 21
947.818611572829
 31
0.0
  0
LINE
  5
431
330
42E
100
AcDbEntity
  8
1
  6
Continuous
 62
     2
100
AcDbLine
 10
317.787364972004
 20
985.6832504524393
 30
0.0
 11
317.787364972004
 21
947.818611572829
 31
0.0
  0
SOLID
  5
432
330
42E
100
AcDbEntity
  8
1
 62
     2
100
AcDbTrace
 10
335.287364972004
 20
955.1225302806084
 30
0.0
 11
335.287364972004
 21
950.5146928650496
 31
0.0
 12
317.787364972004
 22
952.818611572829
 32
0.0
 13
317.787364972004
 23
952.818611572829
 33
0.0
  0
SOLID
  5
433
330
42E
100
AcDbEntity
  8
1
 62
     2
100
AcDbTrace
 10
376.2790603668594
 20
950.5146928650496
 30
0.0
 11
376.2790603668594
 21
955.1225302806084
 31
0.0
 12
393.7790603668594
 22
952.818611572829
 32
0.0
 13
393.7790603668594
 23
952.818611572829
 33
0.0
  0
MTEXT
  5
434
330
42E
100
AcDbEntity
  8
1
 62
     7
100
AcDbMText
 10
342.6582126694317
 20
957.818611572829
 30
0.0
 40
17.5
 41
0.0
 71
     7
 72
     1
  1
76
  7
CONVERTER_12
 11
0.9999999999970619
 21
2.424068405545306E-6
 31
0.0
 73
     1
 44
0.60024009603842
  0
ENDBLK
  5
436
330
42E
100
AcDbEntity
  8
0
100
AcDbBlockEnd
  0
BLOCK
  5
440
330
439
100
AcDbEntity
  8
0
100
AcDbBlockBegin
  2
*D25
 70
     1
 10
0.0
 20
0.0
 30
0.0
  3
*D25
  1

  0
LINE
  5
43A
330
439
100
AcDbEntity
  8
1
  6
Continuous
 62
     2
100
AcDbLine
 10
241.8164356861108
 20
952.818611572829
 30
0.0
 11
317.787364972004
 21
952.818611572829
 31
0.0
  0
LINE
  5
43B
330
439
100
AcDbEntity
  8
1
  6
Continuous
 62
     2
100
AcDbLine
 10
317.787364972004
 20
985.6832504524393
 30
0.0
 11
317.787364972004
 21
947.818611572829
 31
0.0
  0
LINE
  5
43C
330
439
100
AcDbEntity
  8
1
  6
Continuous
 62
     2
100
AcDbLine
 10
241.8164356861108
 20
1215.997975973134
 30
0.0
 11
241.8164356861108
 21
947.818611572829
 31
0.0
  0
SOLID
  5
43D
330
439
100
AcDbEntity
  8
1
 62
     2
100
AcDbTrace
 10
259.3164356861108
 20
955.1225302806084
 30
0.0
 11
259.3164356861108
 21
950.5146928650496
 31
0.0
 12
241.8164356861108
 22
952.818611572829
 32
0.0
 13
241.8164356861108
 23
952.818611572829
 33
0.0
  0
SOLID
  5
43E
330
439
100
AcDbEntity
  8
1
 62
     2
100
AcDbTrace
 10
300.287364972004
 20
950.5146928650496
 30
0.0
 11
300.287364972004
 21
955.1225302806084
 31
0.0
 12
317.787364972004
 22
952.818611572829
 32
0.0
 13
317.787364972004
 23
952.818611572829
 33
0.0
  0
MTEXT
  5
43F
330
439
100
AcDbEntity
  8
1
 62
     7
100
AcDbMText
 10
266.6769003290574
 20
957.818611572829
 30
0.0
 40
17.5
 41
0.0
 71
     7
 72
     1
  1
76
  7
CONVERTER_12
 11
0.9999999999970619
 21
2.424068405545306E-6
 31
0.0
 73
     1
 44
0.60024009603842
  0
ENDBLK
  5
441
330
439
100
AcDbEntity
  8
0
100
AcDbBlockEnd
  0
BLOCK
  5
44D
330
444
100
AcDbEntity
  8
0
100
AcDbBlockBegin
  2
*D26
 70
     1
 10
0.0
 20
0.0
 30
0.0
  3
*D26
  1

  0
LINE
  5
445
330
444
100
AcDbEntity
  8
1
  6
Continuous
 62
     2
100
AcDbLine
 10
829.6652260484723
 20
807.7009687285422
 30
0.0
 11
864.6652260484723
 21
807.7009687285422
 31
0.0
  0
LINE
  5
446
330
444
100
AcDbEntity
  8
1
  6
Continuous
 62
     2
100
AcDbLine
 10
797.7873649720019
 20
807.7009687285422
 30
0.0
 11
829.6652260484723
 21
807.7009687285422
 31
0.0
  0
LINE
  5
447
330
444
100
AcDbEntity
  8
1
  6
Continuous
 62
     2
100
AcDbLine
 10
762.7873649720019
 20
807.7009687285422
 30
0.0
 11
797.7873649720019
 21
807.7009687285422
 31
0.0
  0
LINE
  5
448
330
444
100
AcDbEntity
  8
1
  6
Continuous
 62
     2
100
AcDbLine
 10
797.7873649720019
 20
662.1820513358393
 30
0.0
 11
797.7873649720019
 21
812.7009687285422
 31
0.0
  0
LINE
  5
449
330
444
100
AcDbEntity
  8
1
  6
Continuous
 62
     2
100
AcDbLine
 10
829.6652260484723
 20
629.9990304634603
 30
0.0
 11
829.6652260484723
 21
812.7009687285422
 31
0.0
  0
SOLID
  5
44A
330
444
100
AcDbEntity
  8
1
 62
     2
100
AcDbTrace
 10
780.2873649720019
 20
805.3970500207628
 30
0.0
 11
780.2873649720019
 21
810.0048874363216
 31
0.0
 12
797.7873649720019
 22
807.7009687285422
 32
0.0
 13
797.7873649720019
 23
807.7009687285422
 33
0.0
  0
SOLID
  5
44B
330
444
100
AcDbEntity
  8
1
 62
     2
100
AcDbTrace
 10
847.1652260484723
 20
810.0048874363216
 30
0.0
 11
847.1652260484723
 21
805.3970500207628
 31
0.0
 12
829.6652260484723
 22
807.7009687285422
 32
0.0
 13
829.6652260484723
 23
807.7009687285422
 33
0.0
  0
MTEXT
  5
44C
330
444
100
AcDbEntity
  8
1
 62
     7
100
AcDbMText
 10
800.6012955102372
 20
812.7009687285422
 30
0.0
 40
17.5
 41
0.0
 71
     7
 72
     1
  1
32
  7
CONVERTER_12
 11
0.9999999999970619
 21
2.424068405545306E-6
 31
0.0
 73
     1
 44
0.60024009603842
  0
ENDBLK
  5
44E
330
444
100
AcDbEntity
  8
0
100
AcDbBlockEnd
  0
BLOCK
  5
458
330
451
100
AcDbEntity
  8
0
100
AcDbBlockBegin
  2
*D27
 70
     1
 10
0.0
 20
0.0
 30
0.0
  3
*D27
  1

  0
LINE
  5
452
330
451
100
AcDbEntity
  8
1
  6
Continuous
 62
     2
100
AcDbLine
 10
919.6652260484723
 20
717.7009687285422
 30
0.0
 11
919.6652260484723
 21
506.6362897557893
 31
0.0
  0
LINE
  5
453
330
451
100
AcDbEntity
  8
1
  6
Continuous
 62
     2
100
AcDbLine
 10
822.8297535680612
 20
506.6362897557893
 30
0.0
 11
924.6652260484723
 21
506.6362897557893
 31
0.0
  0
LINE
  5
454
330
451
100
AcDbEntity
  8
1
  6
Continuous
 62
     2
100
AcDbLine
 10
736.8761736032693
 20
717.7009687285422
 30
0.0
 11
924.6652260484723
 21
717.7009687285422
 31
0.0
  0
SOLID
  5
455
330
451
100
AcDbEntity
  8
1
 62
     2
100
AcDbTrace
 10
921.9691447562517
 20
700.2009687285422
 30
0.0
 11
917.3613073406929
 21
700.2009687285422
 31
0.0
 12
919.6652260484723
 22
717.7009687285422
 32
0.0
 13
919.6652260484723
 23
717.7009687285422
 33
0.0
  0
SOLID
  5
456
330
451
100
AcDbEntity
  8
1
 62
     2
100
AcDbTrace
 10
917.3613073406929
 20
524.1362897557893
 30
0.0
 11
921.9691447562517
 21
524.1362897557893
 31
0.0
 12
919.6652260484723
 22
506.6362897557893
 32
0.0
 13
919.6652260484723
 23
506.6362897557893
 33
0.0
  0
MTEXT
  5
457
330
451
100
AcDbEntity
  8
1
 62
     7
100
AcDbMText
 10
914.6652260484723
 20
588.3905042421658
 30
0.0
 40
17.5
 41
0.0
 71
     7
 72
     1
  1
\C7;最大\C7;211
  7
CONVERTER_11
 11
0.0
 21
1.0
 31
0.0
 73
     1
 44
0.45454545454545
  0
ENDBLK
  5
459
330
451
100
AcDbEntity
  8
0
100
AcDbBlockEnd
  0
BLOCK
  5
463
330
45C
100
AcDbEntity
  8
0
100
AcDbBlockBegin
  2
*D28
 70
     1
 10
0.0
 20
0.0
 30
0.0
  3
*D28
  1

  0
LINE
  5
45D
330
45C
100
AcDbEntity
  8
1
  6
Continuous
 62
     2
100
AcDbLine
 10
879.6652260484723
 20
683.1362897557888
 30
0.0
 11
879.6652260484723
 21
506.6362897557893
 31
0.0
  0
LINE
  5
45E
330
45C
100
AcDbEntity
  8
1
  6
Continuous
 62
     2
100
AcDbLine
 10
821.8297535680612
 20
506.6362897557893
 30
0.0
 11
884.6652260484723
 21
506.6362897557893
 31
0.0
  0
LINE
  5
45F
330
45C
100
AcDbEntity
  8
1
  6
Continuous
 62
     2
100
AcDbLine
 10
702.7873649720019
 20
683.1362897557888
 30
0.0
 11
884.6652260484723
 21
683.1362897557888
 31
0.0
  0
SOLID
  5
460
330
45C
100
AcDbEntity
  8
1
 62
     2
100
AcDbTrace
 10
881.9691447562517
 20
665.6362897557888
 30
0.0
 11
877.3613073406929
 21
665.6362897557888
 31
0.0
 12
879.6652260484723
 22
683.1362897557888
 32
0.0
 13
879.6652260484723
 23
683.1362897557888
 33
0.0
  0
SOLID
  5
461
330
45C
100
AcDbEntity
  8
1
 62
     2
100
AcDbTrace
 10
877.3613073406929
 20
524.1362897557892
 30
0.0
 11
881.9691447562517
 21
524.1362897557892
 31
0.0
 12
879.6652260484723
 22
506.6362897557893
 32
0.0
 13
879.6652260484723
 23
506.6362897557893
 33
0.0
  0
MTEXT
  5
462
330
45C
100
AcDbEntity
  8
1
 62
     7
100
AcDbMText
 10
874.6652260484723
 20
568.4781735441063
 30
0.0
 40
17.5
 41
0.0
 71
     7
 72
     1
  1
\C7;最小\C7;177
  7
CONVERTER_11
 11
0.0
 21
1.0
 31
0.0
 73
     1
 44
0.45454545454545
  0
ENDBLK
  5
464
330
45C
100
AcDbEntity
  8
0
100
AcDbBlockEnd
  0
BLOCK
  5
46E
330
467
100
AcDbEntity
  8
0
100
AcDbBlockBegin
  2
*D29
 70
     1
 10
0.0
 20
0.0
 30
0.0
  3
*D29
  1

  0
LINE
  5
468
330
467
100
AcDbEntity
  8
1
  6
Continuous
 62
     2
100
AcDbLine
 10
541.1450238532238
 20
807.7009687285422
 30
0.0
 11
797.7873649720042
 21
807.7009687285422
 31
0.0
  0
LINE
  5
469
330
467
100
AcDbEntity
  8
1
  6
Continuous
 62
     2
100
AcDbLine
 10
541.1450238532238
 20
652.3676327001613
 30
0.0
 11
541.1450238532238
 21
812.7009687285422
 31
0.0
  0
LINE
  5
46A
330
467
100
AcDbEntity
  8
1
  6
Continuous
 62
     2
100
AcDbLine
 10
797.7873649720042
 20
644.843206697316
 30
0.0
 11
797.7873649720042
 21
812.7009687285422
 31
0.0
  0
SOLID
  5
46B
330
467
100
AcDbEntity
  8
1
 62
     2
100
AcDbTrace
 10
558.6450238532238
 20
810.0048874363216
 30
0.0
 11
558.6450238532238
 21
805.3970500207628
 31
0.0
 12
541.1450238532238
 22
807.7009687285422
 32
0.0
 13
541.1450238532238
 23
807.7009687285422
 33
0.0
  0
SOLID
  5
46C
330
467
100
AcDbEntity
  8
1
 62
     2
100
AcDbTrace
 10
780.2873649720042
 20
805.3970500207628
 30
0.0
 11
780.2873649720042
 21
810.0048874363216
 31
0.0
 12
797.7873649720042
 22
807.7009687285422
 32
0.0
 13
797.7873649720042
 23
807.7009687285422
 33
0.0
  0
MTEXT
  5
46D
330
467
100
AcDbEntity
  8
1
 62
     7
100
AcDbMText
 10
648.466194412613
 20
812.7009687285422
 30
0.0
 40
17.5
 41
0.0
 71
     7
 72
     1
  1
257
  7
CONVERTER_12
 11
0.9999999999970619
 21
2.424068405545306E-6
 31
0.0
 73
     1
 44
0.60024009603842
  0
ENDBLK
  5
46F
330
467
100
AcDbEntity
  8
0
100
AcDbBlockEnd
  0
BLOCK
  5
479
330
472
100
AcDbEntity
  8
0
100
AcDbBlockBegin
  2
*D30
 70
     1
 10
0.0
 20
0.0
 30
0.0
  3
*D30
  1

  0
LINE
  5
473
330
472
100
AcDbEntity
  8
1
  6
Continuous
 62
     2
100
AcDbLine
 10
576.765957160746
 20
652.3676327001613
 30
0.0
 11
576.765957160746
 21
506.6362897557893
 31
0.0
  0
LINE
  5
474
330
472
100
AcDbEntity
  8
1
  6
Continuous
 62
     2
100
AcDbLine
 10
541.1450238532238
 20
652.3676327001613
 30
0.0
 11
581.765957160746
 21
652.3676327001613
 31
0.0
  0
LINE
  5
475
330
472
100
AcDbEntity
  8
1
  6
Continuous
 62
     2
100
AcDbLine
 10
772.7449763759456
 20
506.6362897557893
 30
0.0
 11
571.765957160746
 21
506.6362897557893
 31
0.0
  0
SOLID
  5
476
330
472
100
AcDbEntity
  8
1
 62
     2
100
AcDbTrace
 10
579.0698758685254
 20
634.8676327001613
 30
0.0
 11
574.4620384529666
 21
634.8676327001613
 31
0.0
 12
576.765957160746
 22
652.3676327001613
 32
0.0
 13
576.765957160746
 23
652.3676327001613
 33
0.0
  0
SOLID
  5
477
330
472
100
AcDbEntity
  8
1
 62
     2
100
AcDbTrace
 10
574.4620384529666
 20
524.1362897557893
 30
0.0
 11
579.0698758685254
 21
524.1362897557893
 31
0.0
 12
576.765957160746
 22
506.6362897557893
 32
0.0
 13
576.765957160746
 23
506.6362897557893
 33
0.0
  0
MTEXT
  5
478
330
472
100
AcDbEntity
  8
1
 62
     7
100
AcDbMText
 10
571.765957160746
 20
563.042560138566
 30
0.0
 40
17.5
 41
0.0
 71
     7
 72
     1
  1
146
  7
CONVERTER_12
 11
0.0
 21
1.0
 31
0.0
 73
     1
 44
0.60024009603842
  0
ENDBLK
  5
47A
330
472
100
AcDbEntity
  8
0
100
AcDbBlockEnd
  0
BLOCK
  5
484
330
47D
100
AcDbEntity
  8
0
100
AcDbBlockBegin
  2
*D31
 70
     1
 10
0.0
 20
0.0
 30
0.0
  3
*D31
  1

  0
LINE
  5
47E
330
47D
100
AcDbEntity
  8
0
  6
Continuous
 62
     2
100
AcDbLine
 10
194.787364972004
 20
302.1362897557891
 30
0.0
 11
440.787364972004
 21
302.1362897557891
 31
0.0
  0
LINE
  5
47F
330
47D
100
AcDbEntity
  8
0
  6
Continuous
 62
     2
100
AcDbLine
 10
194.787364972004
 20
506.6362897557893
 30
0.0
 11
194.787364972004
 21
297.1362897557891
 31
0.0
  0
LINE
  5
480
330
47D
100
AcDbEntity
  8
0
  6
Continuous
 62
     2
100
AcDbLine
 10
440.787364972004
 20
506.6362897557893
 30
0.0
 11
440.787364972004
 21
297.1362897557891
 31
0.0
  0
SOLID
  5
481
330
47D
100
AcDbEntity
  8
0
 62
     2
100
AcDbTrace
 10
212.287364972004
 20
304.4402084635685
 30
0.0
 11
212.287364972004
 21
299.8323710480097
 31
0.0
 12
194.787364972004
 22
302.1362897557891
 32
0.0
 13
194.787364972004
 23
302.1362897557891
 33
0.0
  0
SOLID
  5
482
330
47D
100
AcDbEntity
  8
0
 62
     2
100
AcDbTrace
 10
423.287364972004
 20
299.8323710480097
 30
0.0
 11
423.287364972004
 21
304.4402084635685
 31
0.0
 12
440.787364972004
 22
302.1362897557891
 32
0.0
 13
440.787364972004
 23
302.1362897557891
 33
0.0
  0
MTEXT
  5
483
330
47D
100
AcDbEntity
  8
0
 62
     7
100
AcDbMText
 10
296.7873649720058
 20
307.1362897557891
 30
0.0
 40
17.5
 41
0.0
 71
     7
 72
     1
  1
246
  7
CONVERTER_12
 11
0.9999999999970619
 21
2.424068405545306E-6
 31
0.0
 73
     1
 44
0.60024009603842
  0
ENDBLK
  5
485
330
47D
100
AcDbEntity
  8
0
100
AcDbBlockEnd
  0
BLOCK
  5
48F
330
488
100
AcDbEntity
  8
0
100
AcDbBlockBegin
  2
*D32
 70
     1
 10
0.0
 20
0.0
 30
0.0
  3
*D32
  1

  0
LINE
  5
489
330
488
100
AcDbEntity
  8
0
  6
Continuous
 62
     2
100
AcDbLine
 10
419.2873649720042
 20
342.1362897557891
 30
0.0
 11
216.287364972004
 21
342.1362897557891
 31
0.0
  0
LINE
  5
48A
330
488
100
AcDbEntity
  8
0
  6
Continuous
 62
     2
100
AcDbLine
 10
419.2873649720042
 20
378.6362897557888
 30
0.0
 11
419.2873649720042
 21
337.1362897557891
 31
0.0
  0
LINE
  5
48B
330
488
100
AcDbEntity
  8
0
  6
Continuous
 62
     2
100
AcDbLine
 10
216.287364972004
 20
378.6362897557888
 30
0.0
 11
216.287364972004
 21
337.1362897557891
 31
0.0
  0
SOLID
  5
48C
330
488
100
AcDbEntity
  8
0
 62
     2
100
AcDbTrace
 10
401.7873649720042
 20
339.8323710480097
 30
0.0
 11
401.7873649720042
 21
344.4402084635685
 31
0.0
 12
419.2873649720042
 22
342.1362897557891
 32
0.0
 13
419.2873649720042
 23
342.1362897557891
 33
0.0
  0
SOLID
  5
48D
330
488
100
AcDbEntity
  8
0
 62
     2
100
AcDbTrace
 10
233.787364972004
 20
344.4402084635685
 30
0.0
 11
233.787364972004
 21
339.8323710480097
 31
0.0
 12
216.287364972004
 22
342.1362897557891
 32
0.0
 13
216.287364972004
 23
342.1362897557891
 33
0.0
  0
MTEXT
  5
48E
330
488
100
AcDbEntity
  8
0
 62
     7
100
AcDbMText
 10
296.7873649720058
 20
347.1362897557891
 30
0.0
 40
17.5
 41
0.0
 71
     7
 72
     1
  1
203
  7
CONVERTER_12
 11
0.9999999999970619
 21
2.424068405545306E-6
 31
0.0
 73
     1
 44
0.60024009603842
  0
ENDBLK
  5
490
330
488
100
AcDbEntity
  8
0
100
AcDbBlockEnd
  0
BLOCK
  5
49A
330
493
100
AcDbEntity
  8
0
100
AcDbBlockBegin
  2
*D33
 70
     1
 10
0.0
 20
0.0
 30
0.0
  3
*D33
  1

  0
LINE
  5
494
330
493
100
AcDbEntity
  8
0
  6
Continuous
 62
     2
100
AcDbLine
 10
822.8297535680612
 20
342.1362897557891
 30
0.0
 11
772.7449763759456
 21
342.1362897557891
 31
0.0
  0
LINE
  5
495
330
493
100
AcDbEntity
  8
0
  6
Continuous
 62
     2
100
AcDbLine
 10
822.8297535680612
 20
506.6362897557893
 30
0.0
 11
822.8297535680612
 21
337.1362897557891
 31
0.0
  0
LINE
  5
496
330
493
100
AcDbEntity
  8
0
  6
Continuous
 62
     2
100
AcDbLine
 10
772.7449763759456
 20
506.6362897557893
 30
0.0
 11
772.7449763759456
 21
337.1362897557891
 31
0.0
  0
SOLID
  5
497
330
493
100
AcDbEntity
  8
0
 62
     2
100
AcDbTrace
 10
805.3297535680612
 20
339.8323710480097
 30
0.0
 11
805.3297535680612
 21
344.4402084635685
 31
0.0
 12
822.8297535680612
 22
342.1362897557891
 32
0.0
 13
822.8297535680612
 23
342.1362897557891
 33
0.0
  0
SOLID
  5
498
330
493
100
AcDbEntity
  8
0
 62
     2
100
AcDbTrace
 10
790.2449763759456
 20
344.4402084635685
 30
0.0
 11
790.2449763759456
 21
339.8323710480097
 31
0.0
 12
772.7449763759456
 22
342.1362897557891
 32
0.0
 13
772.7449763759456
 23
342.1362897557891
 33
0.0
  0
MTEXT
  5
499
330
493
100
AcDbEntity
  8
0
 62
     7
100
AcDbMText
 10
784.6623649720044
 20
347.1362897557891
 30
0.0
 40
17.5
 41
0.0
 71
     7
 72
     1
  1
50
  7
CONVERTER_12
 11
0.9999999999970619
 21
2.424068405545306E-6
 31
0.0
 73
     1
 44
0.60024009603842
  0
ENDBLK
  5
49B
330
493
100
AcDbEntity
  8
0
100
AcDbBlockEnd
  0
BLOCK
  5
4A7
330
49E
100
AcDbEntity
  8
0
100
AcDbBlockBegin
  2
*D34
 70
     1
 10
0.0
 20
0.0
 30
0.0
  3
*D34
  1

  0
LINE
  5
49F
330
49E
100
AcDbEntity
  8
0
  6
Continuous
 62
     2
100
AcDbLine
 10
819.1223644787513
 20
463.9675963214731
 30
0.0
 11
994.3981545214671
 21
463.9675963214731
 31
0.0
  0
LINE
  5
4A0
330
49E
100
AcDbEntity
  8
0
  6
Continuous
 62
     2
100
AcDbLine
 10
795.1223644787513
 20
463.9675963214731
 30
0.0
 11
819.1223644787513
 21
463.9675963214731
 31
0.0
  0
LINE
  5
4A1
330
49E
100
AcDbEntity
  8
0
  6
Continuous
 62
     2
100
AcDbLine
 10
760.1223644787513
 20
463.9675963214731
 30
0.0
 11
795.1223644787513
 21
463.9675963214731
 31
0.0
  0
LINE
  5
4A2
330
49E
100
AcDbEntity
  8
0
  6
Continuous
 62
     2
100
AcDbLine
 10
785.7873649720042
 20
480.1362897557893
 30
0.0
 11
797.6223644787513
 21
459.6374693025509
 31
0.0
  0
LINE
  5
4A3
330
49E
100
AcDbEntity
  8
0
  6
Continuous
 62
     2
100
AcDbLine
 10
809.7873649720042
 20
480.1362897557893
 30
0.0
 11
821.6223644787513
 21
459.6374693025509
 31
0.0
  0
SOLID
  5
4A4
330
49E
100
AcDbEntity
  8
0
 62
     2
100
AcDbTrace
 10
777.6223644787513
 20
461.6636776136937
 30
0.0
 11
777.6223644787513
 21
466.2715150292525
 31
0.0
 12
795.1223644787513
 22
463.9675963214731
 32
0.0
 13
795.1223644787513
 23
463.9675963214731
 33
0.0
  0
SOLID
  5
4A5
330
49E
100
AcDbEntity
  8
0
 62
     2
100
AcDbTrace
 10
836.6223644787513
 20
466.2715150292525
 30
0.0
 11
836.6223644787513
 21
461.6636776136937
 31
0.0
 12
819.1223644787513
 22
463.9675963214731
 32
0.0
 13
819.1223644787513
 23
463.9675963214731
 33
0.0
  0
MTEXT
  5
4A6
330
49E
100
AcDbEntity
  8
0
 62
     7
100
AcDbMText
 10
828.1481545214671
 20
468.9675963214731
 30
0.0
 40
17.5
 41
0.0
 71
     7
 72
     1
  1
ロックナット対辺24
  7
CONVERTER_11
 11
0.9999999999970619
 21
2.424068405545306E-6
 31
0.0
 73
     1
 44
0.45454545454545
  0
ENDBLK
  5
4A8
330
49E
100
AcDbEntity
  8
0
100
AcDbBlockEnd
  0
BLOCK
  5
4B4
330
4AB
100
AcDbEntity
  8
0
100
AcDbBlockBegin
  2
*D35
 70
     1
 10
0.0
 20
0.0
 30
0.0
  3
*D35
  1

  0
LINE
  5
4AC
330
4AB
100
AcDbEntity
  8
1
  6
Continuous
 62
     2
100
AcDbLine
 10
490.787364972002
 20
490.6362897557895
 30
0.0
 11
490.787364972002
 21
455.6362897557896
 31
0.0
  0
LINE
  5
4AD
330
4AB
100
AcDbEntity
  8
1
  6
Continuous
 62
     2
100
AcDbLine
 10
490.787364972002
 20
505.6362897557895
 30
0.0
 11
490.787364972002
 21
490.6362897557895
 31
0.0
  0
LINE
  5
4AE
330
4AB
100
AcDbEntity
  8
1
  6
Continuous
 62
     2
100
AcDbLine
 10
490.787364972002
 20
646.585062745896
 30
0.0
 11
490.787364972002
 21
505.6362897557895
 31
0.0
  0
LINE
  5
4AF
330
4AB
100
AcDbEntity
  8
1
  6
Continuous
 62
     2
100
AcDbLine
 10
452.2031783815478
 20
490.6362897557895
 30
0.0
 11
495.787364972002
 21
490.6362897557895
 31
0.0
  0
LINE
  5
4B0
330
4AB
100
AcDbEntity
  8
1
  6
Continuous
 62
     2
100
AcDbLine
 10
452.2031783815478
 20
505.6362897557895
 30
0.0
 11
495.787364972002
 21
505.6362897557895
 31
0.0
  0
SOLID
  5
4B1
330
4AB
100
AcDbEntity
  8
1
 62
     2
100
AcDbTrace
 10
488.4834462642226
 20
523.1362897557894
 30
0.0
 11
493.0912836797814
 21
523.1362897557894
 31
0.0
 12
490.787364972002
 22
505.6362897557895
 32
0.0
 13
490.787364972002
 23
505.6362897557895
 33
0.0
  0
SOLID
  5
4B2
330
4AB
100
AcDbEntity
  8
1
 62
     2
100
AcDbTrace
 10
493.0912836797814
 20
473.1362897557895
 30
0.0
 11
488.4834462642226
 21
473.1362897557895
 31
0.0
 12
490.787364972002
 22
490.6362897557895
 32
0.0
 13
490.787364972002
 23
490.6362897557895
 33
0.0
  0
MTEXT
  5
4B3
330
4AB
100
AcDbEntity
  8
1
 62
     7
100
AcDbMText
 10
485.787364972002
 20
540.885062745896
 30
0.0
 40
17.5
 41
0.0
 71
     7
 72
     1
  1
\C7;最大\C7;37最小5
  7
CONVERTER_11
 11
0.0
 21
1.0
 31
0.0
 73
     1
 44
0.45454545454545
  0
ENDBLK
  5
4B5
330
4AB
100
AcDbEntity
  8
0
100
AcDbBlockEnd
  0
BLOCK
  5
4BF
330
4B8
100
AcDbEntity
  8
0
100
AcDbBlockBegin
  2
*D36
 70
     1
 10
0.0
 20
0.0
 30
0.0
  3
*D36
  1

  0
LINE
  5
4B9
330
4B8
100
AcDbEntity
  8
1
  6
Continuous
 62
     2
100
AcDbLine
 10
154.787364972004
 20
506.6362897557892
 30
0.0
 11
154.787364972004
 21
400.6362897557892
 31
0.0
  0
LINE
  5
4BA
330
4B8
100
AcDbEntity
  8
1
  6
Continuous
 62
     2
100
AcDbLine
 10
194.787364972004
 20
506.6362897557892
 30
0.0
 11
149.787364972004
 21
506.6362897557892
 31
0.0
  0
LINE
  5
4BB
330
4B8
100
AcDbEntity
  8
1
  6
Continuous
 62
     2
100
AcDbLine
 10
202.4373649720039
 20
400.6362897557892
 30
0.0
 11
149.787364972004
 21
400.6362897557892
 31
0.0
  0
SOLID
  5
4BC
330
4B8
100
AcDbEntity
  8
1
 62
     2
100
AcDbTrace
 10
157.0912836797834
 20
489.1362897557892
 30
0.0
 11
152.4834462642246
 21
489.1362897557892
 31
0.0
 12
154.787364972004
 22
506.6362897557892
 32
0.0
 13
154.787364972004
 23
506.6362897557892
 33
0.0
  0
SOLID
  5
4BD
330
4B8
100
AcDbEntity
  8
1
 62
     2
100
AcDbTrace
 10
152.4834462642246
 20
418.1362897557892
 30
0.0
 11
157.0912836797834
 21
418.1362897557892
 31
0.0
 12
154.787364972004
 22
400.6362897557892
 32
0.0
 13
154.787364972004
 23
400.6362897557892
 33
0.0
  0
MTEXT
  5
4BE
330
4B8
100
AcDbEntity
  8
1
 62
     7
100
AcDbMText
 10
149.787364972004
 20
435.2612897557893
 30
0.0
 40
17.5
 41
0.0
 71
     7
 72
     1
  1
106
  7
CONVERTER_12
 11
0.0
 21
1.0
 31
0.0
 73
     1
 44
0.60024009603842
  0
ENDBLK
  5
4C0
330
4B8
100
AcDbEntity
  8
0
100
AcDbBlockEnd
  0
BLOCK
  5
4CA
330
4C3
100
AcDbEntity
  8
0
100
AcDbBlockBegin
  2
*D37
 70
     1
 10
0.0
 20
0.0
 30
0.0
  3
*D37
  1

  0
LINE
  5
4C4
330
4C3
100
AcDbEntity
  8
1
  6
Continuous
 62
     2
100
AcDbLine
 10
423.8650617265485
 20
1168.234370769017
 30
0.0
 11
427.4005956324812
 21
1164.698836863085
 31
0.0
  0
LINE
  5
4C5
330
4C3
100
AcDbEntity
  8
1
  6
Continuous
 62
     2
100
AcDbLine
 10
399.1135841460144
 20
1192.985848349553
 30
0.0
 11
423.8650617265485
 21
1168.234370769017
 31
0.0
  0
ARC
  5
4C6
330
4C3
100
AcDbEntity
  8
1
  6
Continuous
 62
     2
100
AcDbCircle
 10
317.787364972004
 20
1274.312067523567
 30
0.0
 40
150.0165174155804
100
AcDbArc
 50
270.0
 51
314.9999999999987
  0
SOLID
  5
4C7
330
4C3
100
AcDbEntity
  8
1
 62
     2
100
AcDbTrace
 10
335.1233013817958
 20
1127.615693208473
 30
0.0
 11
335.3919099399986
 21
1123.015691568182
 31
0.0
 12
317.787364972004
 22
1124.295550107986
 32
0.0
 13
317.787364972004
 23
1124.295550107986
 33
0.0
  0
SOLID
  5
4C8
330
4C3
100
AcDbEntity
  8
1
 62
     2
100
AcDbTrace
 10
412.3217652524322
 20
1154.881080989989
 30
0.0
 11
409.2590078321026
 21
1158.323708276298
 31
0.0
 12
423.8650617265485
 22
1168.234370769017
 32
0.0
 13
423.8650617265485
 23
1168.234370769017
 33
0.0
  0
MTEXT
  5
4C9
330
4C3
100
AcDbEntity
  8
1
 62
     7
100
AcDbMText
 10
355.5016222329734
 20
1132.968558218764
 30
0.0
 40
17.5
 41
0.0
 71
     7
 72
     1
  1
45{\Fgdt;~}
  7
CONVERTER_12
 11
0.9238700029673931
 21
0.3827064379090445
 31
0.0
 73
     1
 44
0.60024009603842
  0
ENDBLK
  5
4CB
330
4C3
100
AcDbEntity
  8
0
100
AcDbBlockEnd
  0
BLOCK
  5
4D5
330
4CE
100
AcDbEntity
  8
0
100
AcDbBlockBegin
  2
*D38
 70
     1
 10
0.0
 20
0.0
 30
0.0
  3
*D38
  1

  0
LINE
  5
4CF
330
4CE
100
AcDbEntity
  8
1
  6
Continuous
 62
     2
100
AcDbLine
 10
211.7213477940241
 20
1168.228171670462
 30
0.0
 11
208.1858138880914
 21
1164.69263776453
 31
0.0
  0
LINE
  5
4D0
330
4CE
100
AcDbEntity
  8
1
  6
Continuous
 62
     2
100
AcDbLine
 10
236.4790244731121
 20
1192.985848349551
 30
0.0
 11
211.7213477940241
 21
1168.228171670462
 31
0.0
  0
ARC
  5
4D1
330
4CE
100
AcDbEntity
  8
1
  6
Continuous
 62
     2
100
AcDbCircle
 10
317.787364972004
 20
1274.294188848447
 30
0.0
 40
150.0000000000002
100
AcDbArc
 50
225.0000000000013
 51
270.0
  0
SOLID
  5
4D2
330
4CE
100
AcDbEntity
  8
1
 62
     2
100
AcDbTrace
 10
226.3274653416992
 20
1158.317602988719
 30
0.0
 11
223.2647300325057
 21
1154.87495603121
 31
0.0
 12
211.7213477940241
 22
1168.228171670462
 32
0.0
 13
211.7213477940241
 23
1168.228171670462
 33
0.0
  0
SOLID
  5
4D3
330
4CE
100
AcDbEntity
  8
1
 62
     2
100
AcDbTrace
 10
300.1828117841838
 20
1123.014443377947
 30
0.0
 11
300.4514498869599
 21
1127.614443292943
 31
0.0
 12
317.787364972004
 22
1124.294188848447
 32
0.0
 13
317.787364972004
 23
1124.294188848447
 33
0.0
  0
MTEXT
  5
4D4
330
4CE
100
AcDbEntity
  8
1
 62
     7
100
AcDbMText
 10
244.5192551684904
 20
1147.695031719261
 30
0.0
 40
17.5
 41
0.0
 71
     7
 72
     1
  1
45{\Fgdt;~}
  7
CONVERTER_12
 11
0.9238966677061926
 21
-0.3826420617253062
 31
0.0
 73
     1
 44
0.60024009603842
  0
ENDBLK
  5
4D6
330
4CE
100
AcDbEntity
  8
0
100
AcDbBlockEnd
  0
ENDSEC
  0
SECTION
  2
ENTITIES
  0
INSERT
  5
91
330
1F
100
AcDbEntity
  8
0
100
AcDbBlockReference
  2
32-16__1
 10
363.2403665383586
 20
398.9408893859725
 30
0.0
 41
1.0
 42
1.0
 43
1.0
  0
INSERT
  5
92
330
1F
100
AcDbEntity
  8
0
100
AcDbBlockReference
  2
73-1-21_5__2
 10
325.0121835635437
 20
506.5234182913309
 30
0.0
 41
1.0
 42
1.0
 43
1.0
  0
INSERT
  5
93
330
1F
100
AcDbEntity
  8
0
100
AcDbBlockReference
  2
32-16__3
 10
160.2403665383586
 20
398.9408893859725
 30
0.0
 41
1.0
 42
1.0
 43
1.0
  0
INSERT
  5
94
330
1F
100
AcDbEntity
  8
0
100
AcDbBlockReference
  2
92-53A__4
 10
21.47081715283269
 20
306.4522930483092
 30
0.0
 41
1.0
 42
1.0
 43
1.0
  0
INSERT
  5
95
330
1F
100
AcDbEntity
  8
0
100
AcDbBlockReference
  2
32-25__5
 10
229.6043082770933
 20
454.2137131666526
 30
0.0
 41
1.0
 42
1.0
 43
1.0
  0
INSERT
  5
96
330
1F
100
AcDbEntity
  8
0
100
AcDbBlockReference
  2
73-1-21_5__6
 10
122.0121835635439
 20
506.5234182913309
 30
0.0
 41
1.0
 42
1.0
 43
1.0
  0
INSERT
  5
97
330
1F
100
AcDbEntity
  8
0
100
AcDbBlockReference
  2
32-25__7
 10
327.632196424262
 20
454.7137131666526
 30
0.0
 41
1.0
 42
1.0
 43
1.0
  0
INSERT
  5
98
330
1F
100
AcDbEntity
  8
0
100
AcDbBlockReference
  2
92-53A__8
 10
119.4987053000015
 20
306.4522930483092
 30
0.0
 41
1.0
 42
1.0
 43
1.0
  0
INSERT
  5
99
330
1F
100
AcDbEntity
  8
0
100
AcDbBlockReference
  2
35-276__9
 10
308.6873649720038
 20
400.2082737915663
 30
0.0
 41
1.0
 42
1.0
 43
1.0
  0
INSERT
  5
9A
330
1F
100
AcDbEntity
  8
0
100
AcDbBlockReference
  2
35-276__10
 10
326.8873649720039
 20
400.2082737915663
 30
0.0
 41
1.0
 42
1.0
 43
1.0
  0
INSERT
  5
9B
330
1F
100
AcDbEntity
  8
1
100
AcDbBlockReference
  2
98-119A
 10
196.787364972004
 20
506.1362897557894
 30
0.0
 41
1.0
 42
1.0
 43
1.0
  0
INSERT
  5
9C
330
1F
100
AcDbEntity
  8
1
100
AcDbBlockReference
  2
50-13
 10
160.288785090347
 20
308.2132754220669
 30
0.0
 41
1.0
 42
1.0
 43
1.0
  0
INSERT
  5
9D
330
1F
100
AcDbEntity
  8
1
100
AcDbBlockReference
  2
開示A4
 10
0.0
 20
0.0
 30
0.0
 41
5.0
 42
5.0
 43
5.0
  0
INSERT
  5
9E
330
1F
100
AcDbEntity
  8
1
100
AcDbBlockReference
  2
88-546A-M21
 10
1853.000000000002
 20
406.1383810687138
 30
0.0
 41
1.0
 42
1.0
 43
1.0
  0
INSERT
  5
9F
330
1F
100
AcDbEntity
  8
1
100
AcDbBlockReference
  2
87-163A-M21
 10
4288.914153234306
 20
5261.409999756498
 30
0.0
 41
1.0
 42
1.0
 43
1.0
  0
INSERT
  5
A0
330
1F
100
AcDbEntity
  8
1
100
AcDbBlockReference
  2
V872FE__12
 10
993.5
 20
6006.832338129497
 30
0.0
 41
1.0
 42
1.0
 43
1.0
  0
INSERT
  5
A1
330
1F
100
AcDbEntity
  8
1
100
AcDbBlockReference
  2
V872FE__14
 10
204.2873649720033
 20
1837.218627885286
 30
0.0
 41
1.0
 42
1.0
 43
1.0
  0
INSERT
  5
A2
330
1F
100
AcDbEntity
  8
1
100
AcDbBlockReference
  2
61-115AX
 10
293.7873649720057
 20
529.8362897557889
 30
0.0
 41
1.0
 42
1.0
 43
1.0
  0
LINE
  5
3F3
330
1F
100
AcDbEntity
  8
1
  6
DASH_CENTER
 62
     2
100
AcDbLine
 10
307.1742192049431
 20
1284.925213290628
 30
0.0
 11
399.1135841460144
 21
1192.985848349553
 31
0.0
  0
LINE
  5
3F4
330
1F
100
AcDbEntity
  8
1
  6
DASH_CENTER
 62
     2
100
AcDbLine
 10
328.3939666898021
 20
1284.900790566245
 30
0.0
 11
236.4790244731121
 21
1192.985848349551
 31
0.0
  0
LINE
  5
3F5
330
1F
100
AcDbEntity
  8
1
  6
Continuous
 62
     2
100
AcDbLine
 10
250.0
 20
1055.0
 30
0.0
 11
300.0
 21
1055.0
 31
0.0
  0
LINE
  5
3F6
330
1F
100
AcDbEntity
  8
1
  6
DASH_CENTER
 62
     2
100
AcDbLine
 10
540.7230689992699
 20
649.3543410700623
 30
0.0
 11
545.3598129006529
 21
693.470012428795
 31
0.0
  0
LINE
  5
3F7
330
1F
100
AcDbEntity
  8
1
  6
DASH_CENTER
 62
     2
100
AcDbLine
 10
575.7249171898326
 20
673.8653381649765
 30
0.0
 11
522.0950592525306
 21
679.5020633708871
 31
0.0
  0
LINE
  5
3F8
330
1F
100
AcDbEntity
  8
1
  6
DASH_CENTER
 62
     2
100
AcDbLine
 10
647.0499000895373
 20
646.9554758765142
 30
0.0
 11
782.7873649720042
 21
550.700312525031
 31
0.0
  0
LINE
  5
3F9
330
1F
100
AcDbEntity
  8
1
  6
DASH_CENTER
 62
     2
100
AcDbLine
 10
182.7873649720036
 20
1274.31861157283
 30
0.0
 11
454.7873649720037
 21
1274.31861157283
 31
0.0
  0
LINE
  5
3FA
330
1F
100
AcDbEntity
  8
1
  6
DASH_CENTER
 62
     2
100
AcDbLine
 10
419.2873649720042
 20
378.6362897557888
 30
0.0
 11
419.2873649720041
 21
518.6362897557893
 31
0.0
  0
LINE
  5
3FB
330
1F
100
AcDbEntity
  8
1
  6
Continuous
 62
     2
100
AcDbLine
 10
337.0
 20
1055.0
 30
0.0
 11
387.0
 21
1055.0
 31
0.0
  0
LINE
  5
3FC
330
1F
100
AcDbEntity
  8
1
  6
DASH_CENTER
 62
     2
100
AcDbLine
 10
216.287364972004
 20
518.6362897557893
 30
0.0
 11
216.287364972004
 21
378.6362897557888
 31
0.0
  0
LINE
  5
3FD
330
1F
100
AcDbEntity
  8
1
  6
CENTER_DASH_DASH
 62
     2
100
AcDbLine
 10
816.287364972004
 20
490.6362897557895
 30
0.0
 11
832.852915130815
 21
490.6362897557895
 31
0.0
  0
LINE
  5
3FE
330
1F
100
AcDbEntity
  8
1
  6
CENTER_DASH_DASH
 62
     2
100
AcDbLine
 10
820.787364972004
 20
505.6362897557895
 30
0.0
 11
832.852915130815
 21
505.6362897557895
 31
0.0
  0
LINE
  5
3FF
330
1F
100
AcDbEntity
  8
1
  6
CENTER_DASH_DASH
 62
     2
100
AcDbLine
 10
774.7873649720042
 20
505.6362897557895
 30
0.0
 11
763.5278642749471
 21
505.6362897557895
 31
0.0
  0
LINE
  5
400
330
1F
100
AcDbEntity
  8
1
  6
CENTER_DASH_DASH
 62
     2
100
AcDbLine
 10
196.787364972004
 20
505.6362897557895
 30
0.0
 11
186.5781609685168
 21
505.6362897557895
 31
0.0
  0
LINE
  5
401
330
1F
100
AcDbEntity
  8
1
  6
CENTER_DASH_DASH
 62
     2
100
AcDbLine
 10
197.7873649720038
 20
490.6362897557895
 30
0.0
 11
186.5781609685168
 21
490.6362897557895
 31
0.0
  0
LINE
  5
402
330
1F
100
AcDbEntity
  8
1
  6
CENTER_DASH_DASH
 62
     2
100
AcDbLine
 10
400.7873649720038
 20
490.6362897557895
 30
0.0
 11
234.7873649720038
 21
490.6362897557895
 31
0.0
  0
LINE
  5
403
330
1F
100
AcDbEntity
  8
1
  6
CENTER_DASH_DASH
 62
     2
100
AcDbLine
 10
437.7873649720037
 20
490.6362897557895
 30
0.0
 11
452.2031783815478
 21
490.6362897557895
 31
0.0
  0
LINE
  5
404
330
1F
100
AcDbEntity
  8
1
  6
CENTER_DASH_DASH
 62
     2
100
AcDbLine
 10
438.787364972004
 20
505.6362897557895
 30
0.0
 11
452.2031783815478
 21
505.6362897557895
 31
0.0
  0
LINE
  5
405
330
1F
100
AcDbEntity
  8
1
  6
CENTER_DASH_DASH
 62
     2
100
AcDbLine
 10
779.2873649720042
 20
490.6362897557895
 30
0.0
 11
763.5278642749471
 21
490.6362897557895
 31
0.0
  0
LINE
  5
406
330
1F
100
AcDbEntity
  8
1
  6
DASH_CENTER
 62
     2
100
AcDbLine
 10
797.7873649720042
 20
389.6362897557889
 30
0.0
 11
797.7873649720042
 21
644.8432066973158
 31
0.0
  0
LINE
  5
407
330
1F
100
AcDbEntity
  8
1
  6
Continuous
 62
     2
100
AcDbLine
 10
709.3831275767478
 20
750.7469929757272
 30
0.0
 11
753.8831275767478
 21
750.7469929757272
 31
0.0
  0
LINE
  5
408
330
1F
100
AcDbEntity
  8
1
  6
Continuous
 62
     2
100
AcDbLine
 10
614.722446784184
 20
684.4717903764479
 30
0.0
 11
662.222446784184
 21
684.4717903764479
 31
0.0
  0
LINE
  5
409
330
1F
100
AcDbEntity
  8
1
  6
DASH_CENTER
 62
     2
100
AcDbLine
 10
317.787364972004
 20
698.9006815098521
 30
0.0
 11
317.787364972004
 21
477.6832504524393
 31
0.0
  0
LINE
  5
40A
330
1F
100
AcDbEntity
  8
1
  6
DASH_CENTER
 62
     2
100
AcDbLine
 10
317.787364972004
 20
1306.900681509852
 30
0.0
 11
317.787364972004
 21
1192.985848349553
 31
0.0
  0
LINE
  5
40B
330
1F
100
AcDbEntity
  8
1
  6
DASH_CENTER
 62
     2
100
AcDbLine
 10
796.5195101867771
 20
618.5872973091115
 30
0.0
 11
809.6629381269129
 21
646.7734694859514
 31
0.0
  0
LINE
  5
40C
330
1F
100
AcDbEntity
  8
1
  6
DASH_CENTER
 62
     2
100
AcDbLine
 10
317.787364972004
 20
1192.985848349553
 30
0.0
 11
317.787364972004
 21
985.6832504524393
 31
0.0
  0
ARC
  5
40D
330
1F
100
AcDbEntity
  8
0
  6
Continuous
 62
     2
100
AcDbCircle
 10
788.7873649720058
 20
625.6362897557862
 30
0.0
 40
134.5000000000027
100
AcDbArc
 50
124.1059124431767
 51
144.5803587738509
  0
ARC
  5
40E
330
1F
100
AcDbEntity
  8
1
  6
DASH_CENTER
 62
     2
100
AcDbCircle
 10
559.9933834680395
 20
524.1897929120546
 30
0.0
 40
150.4999999999978
100
AcDbArc
 50
54.65849966865271
 51
83.99999999999561
  0
SOLID
  5
414
330
1F
100
AcDbEntity
  8
1
 62
     2
100
AcDbTrace
 10
440.5101171011953
 20
451.5105606060372
 30
0.0
 11
436.5196128428129
 21
449.2066418982578
 31
0.0
 12
429.764864972004
 22
465.5140458183751
 32
0.0
 13
429.764864972004
 23
465.5140458183751
 33
0.0
  0
LEADER
  5
415
330
1F
100
AcDbEntity
  8
1
  6
Continuous
 62
     2
100
AcDbLeader
  3
Standard
 71
     0
 76
     3
 10
429.764864972004
 20
465.5140458183751
 30
0.0
 10
459.2388956523124
 20
414.4635271762373
 30
0.0
 10
527.0672345595235
 20
414.4635271762373
 30
0.0
  0
SOLID
  5
416
330
1F
100
AcDbEntity
  8
1
 62
     2
100
AcDbTrace
 10
402.1826171011953
 20
397.828885835671
 30
0.0
 11
398.1921128428129
 21
400.1328045434504
 31
0.0
 12
408.9373649720043
 22
414.1362897557883
 32
0.0
 13
408.9373649720043
 23
414.1362897557883
 33
0.0
  0
LEADER
  5
417
330
1F
100
AcDbEntity
  8
1
  6
Continuous
 62
     2
100
AcDbLeader
  3
Standard
 71
     0
 76
     3
 10
408.9373649720043
 20
414.1362897557883
 30
0.0
 10
390.0947942961496
 20
381.5000000000004
 30
0.0
 10
333.1885057413293
 20
381.5000000000004
 30
0.0
  0
SOLID
  5
418
330
1F
100
AcDbEntity
  8
1
 62
     2
100
AcDbTrace
 10
739.0054087102474
 20
461.7295621421497
 30
0.0
 11
735.0149044518649
 21
464.0334808499292
 31
0.0
 12
745.7601565810563
 22
478.036966062267
 32
0.0
 13
745.7601565810563
 23
478.036966062267
 33
0.0
  0
LEADER
  5
419
330
1F
100
AcDbEntity
  8
1
  6
Continuous
 62
     2
100
AcDbLeader
  3
Standard
 71
     0
 76
     3
 10
745.7601565810563
 20
478.036966062267
 30
0.0
 10
724.1151699735542
 20
440.5467495289255
 30
0.0
 10
611.4846218249195
 20
440.5467495289255
 30
0.0
  0
SOLID
  5
41A
330
1F
100
AcDbEntity
  8
0
 62
     2
100
AcDbTrace
 10
700.4011817263366
 20
725.0289155277069
 30
0.0
 11
697.7440575196573
 21
728.7934681702532
 31
0.0
 12
713.3699277315928
 22
737.0026229094332
 32
0.0
 13
713.3699277315928
 23
737.0026229094332
 33
0.0
  0
LEADER
  5
41B
330
1F
100
AcDbEntity
  8
0
  6
Continuous
 62
     2
100
AcDbLeader
  3
Standard
 71
     0
 76
     2
 10
713.3699277315928
 20
737.0026229094332
 30
0.0
 10
709.1141770889113
 20
733.9987977211604
 30
0.0
  0
SOLID
  5
41C
330
1F
100
AcDbEntity
  8
0
 62
     2
100
AcDbTrace
 10
687.8474829141672
 20
718.9632141505201
 30
0.0
 11
691.5317337790713
 21
716.1958216570928
 31
0.0
 12
679.1793918898817
 22
703.5871860741033
 32
0.0
 13
679.1793918898817
 23
703.5871860741033
 33
0.0
  0
LEADER
  5
41D
330
1F
100
AcDbEntity
  8
0
  6
Continuous
 62
     2
100
AcDbLeader
  3
Standard
 71
     0
 76
     2
 10
679.1793918898817
 20
703.5871860741033
 30
0.0
 10
683.38613578262
 20
709.1876565032384
 30
0.0
  0
MTEXT
  5
41F
330
1F
100
AcDbEntity
  8
1
 62
     7
100
AcDbMText
 10
672.460254856427
 20
737.327636773541
 30
0.0
 40
25.0
 41
0.0
 71
     5
 72
     1
  1
25{\Fgdt;~}
  7
CONVERTER_12
 73
     1
 44
0.7202881152461
  0
MTEXT
  5
420
330
1F
100
AcDbEntity
  8
1
 62
     7
100
AcDbMText
 10
170.0
 20
152.5000000000001
 30
0.0
 40
17.5
 41
0.0
 71
     4
 72
     1
  1
吐水口は回転式(120{\Fgdt;~})
  7
CONVERTER_11
 73
     1
 44
0.68181818181818
  0
MTEXT
  5
421
330
1F
100
AcDbEntity
  8
1
 62
     7
100
AcDbMText
 10
170.0
 20
187.5
 30
0.0
 40
17.5
 41
0.0
 71
     4
 72
     1
  1
JIS
  7
CONVERTER_12
 73
     1
 44
0.90036014405762
  0
MTEXT
  5
422
330
1F
100
AcDbEntity
  8
1
 62
     7
100
AcDbMText
 10
285.0
 20
113.7500000000001
 30
0.0
 40
17.5
 41
0.0
 71
     5
 72
     1
  1
シングル台付混合栓
  7
CONVERTER_11
 73
     1
 44
0.54545454545455
  0
MTEXT
  5
423
330
1F
100
AcDbEntity
  8
1
 62
     7
100
AcDbMText
 10
285.0
 20
71.25
 30
0.0
 40
17.5
 41
0.0
 71
     5
 72
     1
  1
K676V-13
  7
CONVERTER_12
 73
     1
 44
0.7202881152461
  0
MTEXT
  5
424
330
1F
100
AcDbEntity
  8
1
 62
     7
100
AcDbMText
 10
426.25
 20
85.00000000000003
 30
0.0
 40
15.0
 41
0.0
 71
     5
 72
     1
  1
1
  7
CONVERTER_12
 73
     1
 44
0.7202881152461
  0
MTEXT
  5
425
330
1F
100
AcDbEntity
  8
1
 62
     7
100
AcDbMText
 10
468.7499999999999
 20
85.00000000000003
 30
0.0
 40
15.0
 41
0.0
 71
     5
 72
     1
  1
5
  7
CONVERTER_12
 73
     1
 44
0.7202881152461
  0
MTEXT
  5
426
330
1F
100
AcDbEntity
  8
1
 62
     7
100
AcDbMText
 10
274.7873649720039
 20
1072.5
 30
0.0
 40
25.0
 41
0.0
 71
     5
 72
     1
  1
湯側
  7
CONVERTER_11
 73
     1
 44
1.0
  0
MTEXT
  5
427
330
1F
100
AcDbEntity
  8
1
 62
     7
100
AcDbMText
 10
491.9899358621371
 20
429.463527176237
 30
0.0
 40
17.5
 41
0.0
 71
     5
 72
     1
  1
PJ1/2
  7
CONVERTER_12
 73
     1
 44
1.32052821128451
  0
MTEXT
  5
428
330
1F
100
AcDbEntity
  8
0
 62
     7
100
AcDbMText
 10
361.6500000000002
 20
396.5000000000004
 30
0.0
 40
17.5
 41
0.0
 71
     5
 72
     1
  1
G1/2
  7
CONVERTER_12
 73
     1
 44
0.7202881152461
  0
MTEXT
  5
429
330
1F
100
AcDbEntity
  8
1
 62
     7
100
AcDbMText
 10
666.7998958992368
 20
455.5467495289255
 30
0.0
 40
17.5
 41
0.0
 71
     5
 72
     1
  1
取付穴径
  7
CONVERTER_11
 73
     1
 44
0.54545454545455
  0
MTEXT
  5
42A
330
1F
100
AcDbEntity
  8
1
 62
     7
100
AcDbMText
 10
666.7998958992368
 20
425.5467495289255
 30
0.0
 40
17.5
 41
0.0
 71
     5
 72
     1
  1
{\Fgdt;n}23～{\Fgdt;n}27
  7
CONVERTER_11
 73
     1
 44
0.54545454545455
  0
MTEXT
  5
42B
330
1F
100
AcDbEntity
  8
1
 62
     7
100
AcDbMText
 10
360.787364972004
 20
1072.5
 30
0.0
 40
25.0
 41
0.0
 71
     5
 72
     1
  1
水側
  7
CONVERTER_11
 73
     1
 44
1.0
  0
MTEXT
  5
42C
330
1F
100
AcDbEntity
  8
0
 62
     7
100
AcDbMText
 10
637.2197519908779
 20
701.9717903764479
 30
0.0
 40
25.0
 41
0.0
 71
     5
 72
     1
  1
止水
  7
CONVERTER_11
 73
     1
 44
1.0
  0
MTEXT
  5
42D
330
1F
100
AcDbEntity
  8
0
 62
     7
100
AcDbMText
 10
733.3881363347624
 20
768.2469929757272
 30
0.0
 40
25.0
 41
0.0
 71
     5
 72
     1
  1
吐水
  7
CONVERTER_11
 73
     1
 44
1.0
  0
DIMENSION
  5
438
330
1F
100
AcDbEntity
  8
1
100
AcDbDimension
  2
*D24
 10
317.787364972004
 20
952.818611572829
 30
0.0
 11
355.7832126694317
 21
966.568611572829
 31
0.0
 70
    32
  1
76
 71
     5
 42
-1.0
 53
0.00013888888889
  3
ME10_DIM_10
100
AcDbAlignedDimension
 13
393.7790603668594
 23
1216.320372128709
 33
0.0
 14
317.787364972004
 24
985.6832504524393
 34
0.0
100
AcDbRotatedDimension
  0
DIMENSION
  5
443
330
1F
100
AcDbEntity
  8
1
100
AcDbDimension
  2
*D25
 10
241.8164356861108
 20
952.818611572829
 30
0.0
 11
279.8019003290574
 21
966.568611572829
 31
0.0
 70
    32
  1
76
 71
     5
 42
-1.0
 53
0.00013888888889
  3
ME10_DIM_11
100
AcDbAlignedDimension
 13
317.787364972004
 23
985.6832504524393
 33
0.0
 14
241.8164356861107
 24
1215.997975973134
 34
0.0
100
AcDbRotatedDimension
  0
DIMENSION
  5
450
330
1F
100
AcDbEntity
  8
1
100
AcDbDimension
  2
*D26
 10
797.7873649720019
 20
807.7009687285422
 30
0.0
 11
813.7262955102372
 21
821.4509687285422
 31
0.0
 70
    32
  1
32
 71
     5
 42
-1.0
 53
0.00013888888889
  3
ME10_DIM_12
100
AcDbAlignedDimension
 13
829.6652260484722
 23
629.9990304634601
 33
0.0
 14
797.7873649720017
 24
662.1820513358391
 34
0.0
100
AcDbRotatedDimension
  0
DIMENSION
  5
45B
330
1F
100
AcDbEntity
  8
1
100
AcDbDimension
  2
*D27
 10
919.6652260484723
 20
717.7009687285422
 30
0.0
 11
905.9152260484723
 21
612.1686292421658
 31
0.0
 70
    32
  1
最大211
 71
     5
 42
-1.0
 53
90.0
  3
ME10_DIM_13
100
AcDbAlignedDimension
 13
822.8297535680609
 23
506.6362897557892
 33
0.0
 14
736.8761736032693
 24
717.700968728542
 34
0.0
 50
90.0
100
AcDbRotatedDimension
  0
DIMENSION
  5
466
330
1F
100
AcDbEntity
  8
1
100
AcDbDimension
  2
*D28
 10
879.6652260484723
 20
683.1362897557888
 30
0.0
 11
865.9152260484723
 21
594.8812985441064
 31
0.0
 70
    32
  1
最小177
 71
     5
 42
-1.0
 53
90.0
  3
ME10_DIM_14
100
AcDbAlignedDimension
 13
821.8297535680609
 23
506.6362897557892
 33
0.0
 14
702.7873649720017
 24
683.1362897557885
 34
0.0
 50
90.0
100
AcDbRotatedDimension
  0
DIMENSION
  5
471
330
1F
100
AcDbEntity
  8
1
100
AcDbDimension
  2
*D29
 10
541.1450238532238
 20
807.7009687285422
 30
0.0
 11
669.466194412613
 21
821.4509687285422
 31
0.0
 70
    32
  1
257
 71
     5
 42
-1.0
 53
0.00013888888889
  3
ME10_DIM_15
100
AcDbAlignedDimension
 13
797.7873649720042
 23
644.8432066973158
 33
0.0
 14
541.1450238532237
 24
652.3676327001612
 34
0.0
100
AcDbRotatedDimension
  0
DIMENSION
  5
47C
330
1F
100
AcDbEntity
  8
1
100
AcDbDimension
  2
*D30
 10
576.765957160746
 20
652.3676327001613
 30
0.0
 11
563.015957160746
 21
581.417560138566
 31
0.0
 70
    32
  1
146
 71
     5
 42
-1.0
 53
90.0
  3
ME10_DIM_16
100
AcDbAlignedDimension
 13
772.7449763759454
 23
506.6362897557892
 33
0.0
 14
541.1450238532237
 24
652.3676327001612
 34
0.0
 50
90.0
100
AcDbRotatedDimension
  0
DIMENSION
  5
487
330
1F
100
AcDbEntity
  8
0
100
AcDbDimension
  2
*D31
 10
194.787364972004
 20
302.1362897557891
 30
0.0
 11
317.7873649720058
 21
315.8862897557891
 31
0.0
 70
    32
  1
<>
 71
     5
 42
-1.0
 53
0.00013888888889
  3
ME10_DIM_17
100
AcDbAlignedDimension
 13
440.7873649720039
 23
506.6362897557892
 33
0.0
 14
194.787364972004
 24
506.6362897557892
 34
0.0
100
AcDbRotatedDimension
  0
DIMENSION
  5
492
330
1F
100
AcDbEntity
  8
0
100
AcDbDimension
  2
*D32
 10
419.2873649720042
 20
342.1362897557891
 30
0.0
 11
317.7873649720058
 21
355.8862897557891
 31
0.0
 70
    32
  1
<>
 71
     5
 42
-1.0
 53
0.00013888888889
  3
ME10_DIM_18
100
AcDbAlignedDimension
 13
216.287364972004
 23
378.6362897557888
 33
0.0
 14
419.2873649720042
 24
378.6362897557888
 34
0.0
100
AcDbRotatedDimension
  0
DIMENSION
  5
49D
330
1F
100
AcDbEntity
  8
0
100
AcDbDimension
  2
*D33
 10
822.8297535680612
 20
342.1362897557891
 30
0.0
 11
797.7873649720044
 21
355.8862897557891
 31
0.0
 70
    33
  1
50
 71
     5
 42
-1.0
 53
0.00013888888889
  3
ME10_DIM_19
100
AcDbAlignedDimension
 13
772.7449763759454
 23
506.6362897557892
 33
0.0
 14
822.8297535680609
 24
506.6362897557892
 34
0.0
  0
DIMENSION
  5
4AA
330
1F
100
AcDbEntity
  8
0
100
AcDbDimension
  2
*D34
 10
795.1223644787513
 20
463.9675963214731
 30
0.0
 11
911.2731545214671
 21
477.7175963214731
 31
0.0
 70
    33
  1
ロックナット対辺24
 71
     5
 42
-1.0
 52
120.0
 53
0.00013888888889
  3
ME10_DIM_20
100
AcDbAlignedDimension
 13
809.787364972004
 23
480.1362897557892
 33
0.0
 14
785.787364972004
 24
480.1362897557892
 34
0.0
  0
DIMENSION
  5
4B7
330
1F
100
AcDbEntity
  8
1
100
AcDbDimension
  2
*D35
 10
490.787364972002
 20
505.6362897557895
 30
0.0
 11
477.037364972002
 21
587.413187745896
 31
0.0
 70
    32
  1
最大37最小5
 71
     5
 42
-1.0
 53
90.0
  3
ME10_DIM_21
100
AcDbAlignedDimension
 13
452.2031783815478
 23
490.6362897557895
 33
0.0
 14
452.2031783815478
 24
505.6362897557895
 34
0.0
 50
90.0
100
AcDbRotatedDimension
  0
DIMENSION
  5
4C2
330
1F
100
AcDbEntity
  8
1
100
AcDbDimension
  2
*D36
 10
154.787364972004
 20
506.6362897557892
 30
0.0
 11
141.037364972004
 21
453.6362897557893
 31
0.0
 70
    32
  1
<>
 71
     5
 42
-1.0
 53
90.0
  3
ME10_DIM_22
100
AcDbAlignedDimension
 13
202.4373649720038
 23
400.6362897557892
 33
0.0
 14
194.787364972004
 24
506.6362897557892
 34
0.0
 50
90.0
100
AcDbRotatedDimension
  0
DIMENSION
  5
4CD
330
1F
100
AcDbEntity
  8
1
100
AcDbDimension
  2
*D37
 10
375.1962007680542
 20
1135.714877544688
 30
0.0
 11
369.9374384583916
 21
1148.419519674478
 31
0.0
 70
    37
  1
<>
 71
     5
 42
-1.0
  3
ME10_DIM_23
100
AcDb3PointAngularDimension
 13
317.787364972004
 23
1192.985848349553
 33
0.0
 14
399.1135841460144
 24
1192.985848349553
 34
0.0
 15
317.787364972004
 25
1274.312067523567
 35
0.0
  0
DIMENSION
  5
4D8
330
1F
100
AcDbEntity
  8
1
100
AcDbDimension
  2
*D38
 10
260.3848501172422
 20
1135.712258971753
 30
0.0
 11
265.652384061931
 21
1148.413267873478
 31
0.0
 70
    37
  1
<>
 71
     5
 42
-1.0
  3
ME10_DIM_24
100
AcDb3PointAngularDimension
 13
236.4790244731121
 23
1192.985848349551
 33
0.0
 14
317.787364972004
 24
1192.985848349553
 34
0.0
 15
317.787364972004
 25
1274.294188848447
 35
0.0
  0
HATCH
  5
4D9
330
1F
100
AcDbEntity
  8
0
  6
Continuous
 62
     4
100
AcDbHatch
 10
0.0
 20
0.0
 30
0.0
210
0.0
220
0.0
230
1.0
  2
CUSTOM3
 70
     0
 71
     0
 91
        1
 92
        1
 93
        4
 72
     1
 10
763.5278642749471
 20
505.6362897557895
 11
787.537364972004
 21
505.6362897557897
 72
     1
 10
787.537364972004
 20
505.6362897557897
 11
787.3098649720038
 21
490.6362897557892
 72
     1
 10
787.3098649720038
 20
490.6362897557892
 11
763.5278642749471
 21
490.6362897557895
 72
     1
 10
763.5278642749471
 20
490.6362897557895
 11
763.5278642749471
 21
505.6362897557895
 97
        0
 75
     1
 76
     2
 52
45.0
 41
15.0
 77
     0
 78
     2
 53
45.0
 43
0.0
 44
0.0
 45
-21.21320343559642
 46
0.0000000000000017
 79
     0
 53
45.0
 43
3.535533905932737
 44
-3.535533905932737
 45
-21.21320343559642
 46
0.0000000000000017
 79
     0
 98
        1
 10
0.0
 20
0.0
  0
HATCH
  5
4DA
330
1F
100
AcDbEntity
  8
0
  6
Continuous
 62
     4
100
AcDbHatch
 10
0.0
 20
0.0
 30
0.0
210
0.0
220
0.0
230
1.0
  2
CUSTOM4
 70
     0
 71
     0
 91
        1
 92
        1
 93
        4
 72
     1
 10
832.852915130815
 20
505.6362897557895
 11
832.852915130815
 21
490.6362897557895
 72
     1
 10
832.852915130815
 20
490.6362897557895
 11
808.2648649720041
 21
490.6362897557892
 72
     1
 10
808.2648649720041
 20
490.6362897557892
 11
808.0373649720042
 21
505.6362897557895
 72
     1
 10
808.0373649720042
 20
505.6362897557895
 11
832.852915130815
 21
505.6362897557895
 97
        0
 75
     1
 76
     2
 52
45.0
 41
15.0
 77
     0
 78
     2
 53
45.0
 43
0.0
 44
0.0
 45
-21.21320343559642
 46
0.0000000000000017
 79
     0
 53
45.0
 43
3.535533905932737
 44
-3.535533905932737
 45
-21.21320343559642
 46
0.0000000000000017
 79
     0
 98
        1
 10
0.0
 20
0.0
  0
HATCH
  5
4DB
330
1F
100
AcDbEntity
  8
1
  6
Continuous
 62
     4
100
AcDbHatch
 10
0.0
 20
0.0
 30
0.0
210
0.0
220
0.0
230
1.0
  2
CUSTOM5
 70
     0
 71
     0
 91
        1
 92
        1
 93
        5
 72
     1
 10
186.5781609685168
 20
505.6362897557895
 11
186.5781609685168
 21
490.6362897557895
 72
     1
 10
186.5781609685168
 20
490.6362897557895
 11
205.8098649720038
 21
490.6362897557895
 72
     1
 10
205.8098649720038
 20
490.6362897557895
 11
206.0373649720038
 21
503.6362897557895
 72
     1
 10
206.0373649720038
 20
503.6362897557895
 11
206.0373649720038
 21
505.6362897557895
 72
     1
 10
206.0373649720038
 20
505.6362897557895
 11
186.5781609685168
 21
505.6362897557895
 97
        0
 75
     1
 76
     2
 52
45.0
 41
15.0
 77
     0
 78
     2
 53
45.0
 43
0.0
 44
0.0
 45
-21.21320343559642
 46
0.0000000000000017
 79
     0
 53
45.0
 43
3.535533905932737
 44
-3.535533905932737
 45
-21.21320343559642
 46
0.0000000000000017
 79
     0
 98
        1
 10
0.0
 20
0.0
  0
HATCH
  5
4DC
330
1F
100
AcDbEntity
  8
1
  6
Continuous
 62
     4
100
AcDbHatch
 10
0.0
 20
0.0
 30
0.0
210
0.0
220
0.0
230
1.0
  2
CUSTOM6
 70
     0
 71
     0
 91
        1
 92
        1
 93
        9
 72
     1
 10
408.7873649720038
 20
490.6362897557895
 11
226.7648649720039
 21
490.6362897557895
 72
     1
 10
226.7648649720039
 20
490.6362897557895
 11
226.7648649720039
 21
502.4742897557895
 72
     1
 10
226.7648649720039
 20
502.4742897557895
 11
226.5373649720038
 21
503.6362897557895
 72
     1
 10
226.5373649720038
 20
503.6362897557895
 11
226.5373649720038
 21
505.6362897557895
 72
     1
 10
226.5373649720038
 20
505.6362897557895
 11
409.0373649720038
 21
505.6362897557895
 72
     1
 10
409.0373649720038
 20
505.6362897557895
 11
409.0373649720038
 21
503.6362897557895
 72
     1
 10
409.0373649720038
 20
503.6362897557895
 11
409.9718649720039
 21
503.6362897557895
 72
     1
 10
409.9718649720039
 20
503.6362897557895
 11
408.8098649720037
 21
502.4742897557895
 72
     1
 10
408.8098649720037
 20
502.4742897557895
 11
408.7873649720038
 21
490.6362897557895
 97
        0
 75
     1
 76
     2
 52
45.0
 41
15.0
 77
     0
 78
     2
 53
45.0
 43
0.0
 44
0.0
 45
-21.21320343559642
 46
0.0000000000000017
 79
     0
 53
45.0
 43
3.535533905932737
 44
-3.535533905932737
 45
-21.21320343559642
 46
0.0000000000000017
 79
     0
 98
        1
 10
0.0
 20
0.0
  0
HATCH
  5
4DD
330
1F
100
AcDbEntity
  8
1
  6
Continuous
 62
     4
100
AcDbHatch
 10
0.0
 20
0.0
 30
0.0
210
0.0
220
0.0
230
1.0
  2
CUSTOM7
 70
     0
 71
     0
 91
        1
 92
        1
 93
        7
 72
     1
 10
452.2031783815478
 20
490.6362897557895
 11
429.7873649720037
 21
490.6362897557895
 72
     1
 10
429.7873649720037
 20
490.6362897557895
 11
429.7648649720039
 21
502.4742897557895
 72
     1
 10
429.7648649720039
 20
502.4742897557895
 11
428.6028649720038
 21
503.6362897557895
 72
     1
 10
428.6028649720038
 20
503.6362897557895
 11
429.5373649720038
 21
503.6362897557895
 72
     1
 10
429.5373649720038
 20
503.6362897557895
 11
429.5373649720038
 21
505.6362897557895
 72
     1
 10
429.5373649720038
 20
505.6362897557895
 11
452.2031783815478
 21
505.6362897557895
 72
     1
 10
452.2031783815478
 20
505.6362897557895
 11
452.2031783815478
 21
490.6362897557895
 97
        0
 75
     1
 76
     2
 52
45.0
 41
15.0
 77
     0
 78
     2
 53
45.0
 43
0.0
 44
0.0
 45
-21.21320343559642
 46
0.0000000000000017
 79
     0
 53
45.0
 43
3.535533905932737
 44
-3.535533905932737
 45
-21.21320343559642
 46
0.0000000000000017
 79
     0
 98
        1
 10
0.0
 20
0.0
  0
ENDSEC
  0
SECTION
  2
OBJECTS
  0
DICTIONARY
  5
C
330
0
100
AcDbDictionary
281
     1
  3
ACAD_GROUP
350
D
  3
ACAD_LAYOUT
350
1A
  3
ACAD_MATERIAL
350
3B
  3
ACAD_MLEADERSTYLE
350
4E0
  3
ACAD_MLINESTYLE
350
17
  3
ACAD_PLOTSETTINGS
350
19
  3
ACAD_PLOTSTYLENAME
350
E
  3
ACAD_VISUALSTYLE
350
2A
  3
AcDbVariableDictionary
350
4DE
  0
DICTIONARY
  5
D
102
{ACAD_REACTORS
330
C
102
}
330
C
100
AcDbDictionary
281
     1
  0
DICTIONARY
  5
1A
102
{ACAD_REACTORS
330
C
102
}
330
C
100
AcDbDictionary
281
     1
  3
Layout1
350
1E
  3
Layout2
350
26
  3
Model
350
22
  0
DICTIONARY
  5
3B
102
{ACAD_REACTORS
330
C
102
}
330
C
100
AcDbDictionary
281
     1
  3
ByBlock
350
3D
  3
ByLayer
350
3C
  3
Global
350
3E
  0
DICTIONARY
  5
4E0
102
{ACAD_REACTORS
330
C
102
}
330
C
100
AcDbDictionary
281
     1
  0
DICTIONARY
  5
17
102
{ACAD_REACTORS
330
C
102
}
330
C
100
AcDbDictionary
281
     1
  3
Standard
350
18
  0
DICTIONARY
  5
19
102
{ACAD_REACTORS
330
C
102
}
330
C
100
AcDbDictionary
281
     1
  0
ACDBDICTIONARYWDFLT
  5
E
102
{ACAD_REACTORS
330
C
102
}
330
C
100
AcDbDictionary
281
     1
  3
Normal
350
F
100
AcDbDictionaryWithDefault
340
F
  0
DICTIONARY
  5
2A
102
{ACAD_REACTORS
330
C
102
}
330
C
100
AcDbDictionary
281
     1
  3
2dWireframe
350
2F
  3
3D Hidden
350
31
  3
3dWireframe
350
30
  3
Basic
350
32
  3
Brighten
350
36
  3
ColorChange
350
3A
  3
Conceptual
350
34
  3
Dim
350
35
  3
Facepattern
350
39
  3
Flat
350
2B
  3
FlatWithEdges
350
2C
  3
Gouraud
350
2D
  3
GouraudWithEdges
350
2E
  3
Linepattern
350
38
  3
Realistic
350
33
  3
Thicken
350
37
  0
DICTIONARY
  5
4DE
102
{ACAD_REACTORS
330
C
102
}
330
C
100
AcDbDictionary
281
     1
  3
DIMASSOC
350
4E1
  3
HIDETEXT
350
4E2
  0
LAYOUT
  5
1E
102
{ACAD_REACTORS
330
1A
102
}
330
1A
100
AcDbPlotSettings
  1

  2
none_device
  4

  6

 40
0.0
 41
0.0
 42
0.0
 43
0.0
 44
0.0
 45
0.0
 46
0.0
 47
0.0
 48
0.0
 49
0.0
140
0.0
141
0.0
142
1.0
143
1.0
 70
   688
 72
     0
 73
     0
 74
     5
  7

 75
    16
147
1.0
148
0.0
149
0.0
100
AcDbLayout
  1
Layout1
 70
     1
 71
     1
 10
0.0
 20
0.0
 11
12.0
 21
9.0
 12
0.0
 22
0.0
 32
0.0
 14
1.00000000000000E+20
 24
1.00000000000000E+20
 34
1.00000000000000E+20
 15
-1.00000000000000E+20
 25
-1.00000000000000E+20
 35
-1.00000000000000E+20
146
0.0
 13
0.0
 23
0.0
 33
0.0
 16
1.0
 26
0.0
 36
0.0
 17
0.0
 27
1.0
 37
0.0
 76
     0
330
1B
  0
LAYOUT
  5
26
102
{ACAD_REACTORS
330
1A
102
}
330
1A
100
AcDbPlotSettings
  1

  2
none_device
  4

  6

 40
0.0
 41
0.0
 42
0.0
 43
0.0
 44
0.0
 45
0.0
 46
0.0
 47
0.0
 48
0.0
 49
0.0
140
0.0
141
0.0
142
1.0
143
1.0
 70
   688
 72
     0
 73
     0
 74
     5
  7

 75
    16
147
1.0
148
0.0
149
0.0
100
AcDbLayout
  1
Layout2
 70
     1
 71
     2
 10
0.0
 20
0.0
 11
0.0
 21
0.0
 12
0.0
 22
0.0
 32
0.0
 14
0.0
 24
0.0
 34
0.0
 15
0.0
 25
0.0
 35
0.0
146
0.0
 13
0.0
 23
0.0
 33
0.0
 16
1.0
 26
0.0
 36
0.0
 17
0.0
 27
1.0
 37
0.0
 76
     0
330
23
  0
LAYOUT
  5
22
102
{ACAD_REACTORS
330
1A
102
}
330
1A
100
AcDbPlotSettings
  1

  2
none_device
  4

  6

 40
0.0
 41
0.0
 42
0.0
 43
0.0
 44
0.0
 45
0.0
 46
0.0
 47
0.0
 48
0.0
 49
0.0
140
0.0
141
0.0
142
1.0
143
1.0
 70
  1712
 72
     0
 73
     0
 74
     0
  7

 75
     0
147
1.0
148
0.0
149
0.0
100
AcDbLayout
  1
Model
 70
     1
 71
     0
 10
0.0
 20
0.0
 11
12.0
 21
9.0
 12
0.0
 22
0.0
 32
0.0
 14
0.0
 24
0.0
 34
0.0
 15
1050.0
 25
1485.0
 35
0.0
146
0.0
 13
0.0
 23
0.0
 33
0.0
 16
1.0
 26
0.0
 36
0.0
 17
0.0
 27
1.0
 37
0.0
 76
     0
330
1F
331
29
  0
MATERIAL
  5
3D
102
{ACAD_REACTORS
330
3B
102
}
102
{ACAD_XDICTIONARY
360
505
102
}
330
3B
100
AcDbMaterial
  1
ByBlock
  0
MATERIAL
  5
3C
102
{ACAD_REACTORS
330
3B
102
}
102
{ACAD_XDICTIONARY
360
503
102
}
330
3B
100
AcDbMaterial
  1
ByLayer
  0
MATERIAL
  5
3E
102
{ACAD_REACTORS
330
3B
102
}
102
{ACAD_XDICTIONARY
360
507
102
}
330
3B
100
AcDbMaterial
  1
Global
  0
MLINESTYLE
  5
18
102
{ACAD_REACTORS
330
17
102
}
330
17
100
AcDbMlineStyle
  2
Standard
 70
     0
  3

 62
   256
 51
90.0
 52
90.0
 71
     2
 49
0.5
 62
   256
  6
BYLAYER
 49
-0.5
 62
   256
  6
BYLAYER
  0
ACDBPLACEHOLDER
  5
F
102
{ACAD_REACTORS
330
E
102
}
330
E
  0
VISUALSTYLE
  5
2F
102
{ACAD_REACTORS
330
2A
102
}
102
{ACAD_XDICTIONARY
360
4EB
102
}
330
2A
100
AcDbVisualStyle
  2
2dWireframe
 70
     4
 71
     0
 72
     2
 73
     0
 90
        0
 40
-0.6
 41
-30.0
 62
     5
 63
     7
 74
     1
 91
        4
 64
     7
 65
   257
 75
     1
175
     1
 42
1.0
 92
        0
 66
   257
 43
1.0
 76
     1
 77
     6
 78
     2
 67
     7
 79
     5
170
     0
171
     0
290
     0
174
     0
 93
        1
 44
0.0
173
     0
291
     0
 45
0.0
1001
ACAD
1000
AcDbSavedByObjectVersion
1070
     0
  0
VISUALSTYLE
  5
31
102
{ACAD_REACTORS
330
2A
102
}
102
{ACAD_XDICTIONARY
360
4EF
102
}
330
2A
100
AcDbVisualStyle
  2
3D Hidden
 70
     6
 71
     1
 72
     2
 73
     2
 90
        0
 40
-0.6
 41
-30.0
 62
     5
 63
     7
 74
     2
 91
        2
 64
     7
 65
   257
 75
     2
175
     1
 42
40.0
 92
        0
 66
   257
 43
1.0
 76
     1
 77
     6
 78
     2
 67
     7
 79
     3
170
     0
171
     0
290
     0
174
     0
 93
        1
 44
0.0
173
     0
291
     0
 45
0.0
1001
ACAD
1000
AcDbSavedByObjectVersion
1070
     0
  0
VISUALSTYLE
  5
30
102
{ACAD_REACTORS
330
2A
102
}
102
{ACAD_XDICTIONARY
360
4ED
102
}
330
2A
100
AcDbVisualStyle
  2
3dWireframe
 70
     5
 71
     0
 72
     2
 73
     0
 90
        0
 40
-0.6
 41
-30.0
 62
     5
 63
     7
 74
     1
 91
        4
 64
     7
 65
   257
 75
     1
175
     1
 42
1.0
 92
        0
 66
   257
 43
1.0
 76
     1
 77
     6
 78
     2
 67
     7
 79
     5
170
     0
171
     0
290
     0
174
     0
 93
        1
 44
0.0
173
     0
291
     0
 45
0.0
1001
ACAD
1000
AcDbSavedByObjectVersion
1070
     0
  0
VISUALSTYLE
  5
32
102
{ACAD_REACTORS
330
2A
102
}
102
{ACAD_XDICTIONARY
360
4F1
102
}
330
2A
100
AcDbVisualStyle
  2
Basic
 70
     7
 71
     1
 72
     0
 73
     1
 90
        0
 40
-0.6
 41
-30.0
 62
     5
 63
     7
 74
     0
 91
        4
 64
     7
 65
   257
 75
     1
175
     1
 42
1.0
 92
        8
 66
     7
 43
1.0
 76
     1
 77
     6
 78
     2
 67
     7
 79
     5
170
     0
171
     0
290
     0
174
     0
 93
        1
 44
0.0
173
     0
291
     1
 45
0.0
1001
ACAD
1000
AcDbSavedByObjectVersion
1070
     0
  0
VISUALSTYLE
  5
36
102
{ACAD_REACTORS
330
2A
102
}
102
{ACAD_XDICTIONARY
360
4F9
102
}
330
2A
100
AcDbVisualStyle
  2
Brighten
 70
    12
 71
     2
 72
     2
 73
     0
 90
        0
 40
-0.6
 41
-30.0
 62
     5
 63
     7
 74
     1
 91
        4
 64
     7
 65
   257
 75
     1
175
     1
 42
1.0
 92
        8
 66
     7
 43
1.0
 76
     1
 77
     6
 78
     2
 67
     7
 79
     5
170
     0
171
     0
290
     0
174
     0
 93
        1
 44
50.0
173
     0
291
     1
 45
0.0
1001
ACAD
1000
AcDbSavedByObjectVersion
1070
     0
  0
VISUALSTYLE
  5
3A
102
{ACAD_REACTORS
330
2A
102
}
102
{ACAD_XDICTIONARY
360
501
102
}
330
2A
100
AcDbVisualStyle
  2
ColorChange
 70
    16
 71
     2
 72
     2
 73
     3
 90
        0
 40
-0.6
 41
-30.0
 62
     5
 63
     8
 74
     1
 91
        4
 64
     7
 65
   257
 75
     1
175
     1
 42
1.0
 92
        8
 66
     8
 43
1.0
 76
     1
 77
     6
 78
     2
 67
     7
 79
     5
170
     0
171
     0
290
     0
174
     0
 93
        1
 44
0.0
173
     0
291
     1
 45
0.0
1001
ACAD
1000
AcDbSavedByObjectVersion
1070
     0
  0
VISUALSTYLE
  5
34
102
{ACAD_REACTORS
330
2A
102
}
102
{ACAD_XDICTIONARY
360
4F5
102
}
330
2A
100
AcDbVisualStyle
  2
Conceptual
 70
     9
 71
     3
 72
     2
 73
     0
 90
        0
 40
-0.6
 41
-30.0
 62
     5
 63
     7
 74
     2
 91
        2
 64
     7
 65
   257
 75
     1
175
     1
 42
40.0
 92
        8
 66
     7
 43
1.0
 76
     1
 77
     6
 78
     2
 67
     7
 79
     3
170
     0
171
     0
290
     0
174
     0
 93
        1
 44
0.0
173
     0
291
     0
 45
0.0
1001
ACAD
1000
AcDbSavedByObjectVersion
1070
     0
  0
VISUALSTYLE
  5
35
102
{ACAD_REACTORS
330
2A
102
}
102
{ACAD_XDICTIONARY
360
4F7
102
}
330
2A
100
AcDbVisualStyle
  2
Dim
 70
    11
 71
     2
 72
     2
 73
     0
 90
        0
 40
-0.6
 41
-30.0
 62
     5
 63
     7
 74
     1
 91
        4
 64
     7
 65
   257
 75
     1
175
     1
 42
1.0
 92
        8
 66
     7
 43
1.0
 76
     1
 77
     6
 78
     2
 67
     7
 79
     5
170
     0
171
     0
290
     0
174
     0
 93
        1
 44
-50.0
173
     0
291
     1
 45
0.0
1001
ACAD
1000
AcDbSavedByObjectVersion
1070
     0
  0
VISUALSTYLE
  5
39
102
{ACAD_REACTORS
330
2A
102
}
102
{ACAD_XDICTIONARY
360
4FF
102
}
330
2A
100
AcDbVisualStyle
  2
Facepattern
 70
    15
 71
     2
 72
     2
 73
     0
 90
        0
 40
-0.6
 41
-30.0
 62
     5
 63
     7
 74
     1
 91
        4
 64
     7
 65
   257
 75
     1
175
     1
 42
1.0
 92
        8
 66
     7
 43
1.0
 76
     1
 77
     6
 78
     2
 67
     7
 79
     5
170
     0
171
     0
290
     0
174
     0
 93
        1
 44
0.0
173
     0
291
     1
 45
0.0
1001
ACAD
1000
AcDbSavedByObjectVersion
1070
     0
  0
VISUALSTYLE
  5
2B
102
{ACAD_REACTORS
330
2A
102
}
102
{ACAD_XDICTIONARY
360
4E3
102
}
330
2A
100
AcDbVisualStyle
  2
Flat
 70
     0
 71
     2
 72
     1
 73
     1
 90
        2
 40
-0.6
 41
30.0
 62
     5
 63
     7
 74
     0
 91
        4
 64
     7
 65
   257
 75
     1
175
     1
 42
1.0
 92
        8
 66
     7
 43
1.0
 76
     1
 77
     6
 78
     2
 67
     7
 79
     5
170
     0
171
     0
290
     0
174
     0
 93
       13
 44
0.0
173
     0
291
     1
 45
0.0
1001
ACAD
1000
AcDbSavedByObjectVersion
1070
     0
  0
VISUALSTYLE
  5
2C
102
{ACAD_REACTORS
330
2A
102
}
102
{ACAD_XDICTIONARY
360
4E5
102
}
330
2A
100
AcDbVisualStyle
  2
FlatWithEdges
 70
     1
 71
     2
 72
     1
 73
     1
 90
        2
 40
-0.6
 41
30.0
 62
     5
 63
     7
 74
     1
 91
        4
 64
     7
 65
   257
 75
     1
175
     1
 42
1.0
 92
        0
 66
   257
 43
1.0
 76
     1
 77
     6
 78
     2
 67
     7
 79
     5
170
     0
171
     0
290
     0
174
     0
 93
       13
 44
0.0
173
     0
291
     1
 45
0.0
1001
ACAD
1000
AcDbSavedByObjectVersion
1070
     0
  0
VISUALSTYLE
  5
2D
102
{ACAD_REACTORS
330
2A
102
}
102
{ACAD_XDICTIONARY
360
4E7
102
}
330
2A
100
AcDbVisualStyle
  2
Gouraud
 70
     2
 71
     2
 72
     2
 73
     1
 90
        2
 40
-0.6
 41
30.0
 62
     5
 63
     7
 74
     0
 91
        4
 64
     7
 65
   257
 75
     1
175
     1
 42
1.0
 92
        0
 66
     7
 43
1.0
 76
     1
 77
     6
 78
     2
 67
     7
 79
     5
170
     0
171
     0
290
     0
174
     0
 93
       13
 44
0.0
173
     0
291
     1
 45
0.0
1001
ACAD
1000
AcDbSavedByObjectVersion
1070
     0
  0
VISUALSTYLE
  5
2E
102
{ACAD_REACTORS
330
2A
102
}
102
{ACAD_XDICTIONARY
360
4E9
102
}
330
2A
100
AcDbVisualStyle
  2
GouraudWithEdges
 70
     3
 71
     2
 72
     2
 73
     1
 90
        2
 40
-0.6
 41
30.0
 62
     5
 63
     7
 74
     1
 91
        4
 64
     7
 65
   257
 75
     1
175
     1
 42
1.0
 92
        0
 66
   257
 43
1.0
 76
     1
 77
     6
 78
     2
 67
     7
 79
     5
170
     0
171
     0
290
     0
174
     0
 93
       13
 44
0.0
173
     0
291
     1
 45
0.0
1001
ACAD
1000
AcDbSavedByObjectVersion
1070
     0
  0
VISUALSTYLE
  5
38
102
{ACAD_REACTORS
330
2A
102
}
102
{ACAD_XDICTIONARY
360
4FD
102
}
330
2A
100
AcDbVisualStyle
  2
Linepattern
 70
    14
 71
     2
 72
     2
 73
     0
 90
        0
 40
-0.6
 41
-30.0
 62
     5
 63
     7
 74
     1
 91
        4
 64
     7
 65
   257
 75
     7
175
     7
 42
1.0
 92
        8
 66
     7
 43
1.0
 76
     1
 77
     6
 78
     2
 67
     7
 79
     5
170
     0
171
     0
290
     0
174
     0
 93
        1
 44
0.0
173
     0
291
     1
 45
0.0
1001
ACAD
1000
AcDbSavedByObjectVersion
1070
     0
  0
VISUALSTYLE
  5
33
102
{ACAD_REACTORS
330
2A
102
}
102
{ACAD_XDICTIONARY
360
4F3
102
}
330
2A
100
AcDbVisualStyle
  2
Realistic
 70
     8
 71
     2
 72
     2
 73
     0
 90
        0
 40
-0.6
 41
-30.0
 62
     5
 63
     7
 74
     1
 91
        0
 64
     7
 65
   257
 75
     1
175
     1
 42
1.0
 92
        8
 66
     8
 43
1.0
 76
     1
 77
     6
 78
     2
 67
     7
 79
     5
170
     0
171
     0
290
     0
174
     0
 93
       13
 44
0.0
173
     0
291
     0
 45
0.0
1001
ACAD
1000
AcDbSavedByObjectVersion
1070
     0
  0
VISUALSTYLE
  5
37
102
{ACAD_REACTORS
330
2A
102
}
102
{ACAD_XDICTIONARY
360
4FB
102
}
330
2A
100
AcDbVisualStyle
  2
Thicken
 70
    13
 71
     2
 72
     2
 73
     0
 90
        0
 40
-0.6
 41
-30.0
 62
     5
 63
     7
 74
     1
 91
        4
 64
     7
 65
   257
 75
     1
175
     1
 42
1.0
 92
       12
 66
     7
 43
1.0
 76
     1
 77
     6
 78
     2
 67
     7
 79
     5
170
     0
171
     0
290
     0
174
     0
 93
        1
 44
0.0
173
     0
291
     1
 45
0.0
1001
ACAD
1000
AcDbSavedByObjectVersion
1070
     0
  0
DICTIONARYVAR
  5
4E1
102
{ACAD_REACTORS
330
4DE
102
}
330
4DE
100
DictionaryVariables
280
     0
  1
2
  0
DICTIONARYVAR
  5
4E2
102
{ACAD_REACTORS
330
4DE
102
}
330
4DE
100
DictionaryVariables
280
     0
  1
1
  0
DICTIONARY
  5
505
330
3D
100
AcDbDictionary
280
     1
281
     1
  3
ACAD_XREC_ROUNDTRIP
360
506
  0
DICTIONARY
  5
503
330
3C
100
AcDbDictionary
280
     1
281
     1
  3
ACAD_XREC_ROUNDTRIP
360
504
  0
DICTIONARY
  5
507
330
3E
100
AcDbDictionary
280
     1
281
     1
  3
ACAD_XREC_ROUNDTRIP
360
508
  0
DICTIONARY
  5
4EB
330
2F
100
AcDbDictionary
280
     1
281
     1
  3
ACAD_XREC_ROUNDTRIP
360
4EC
  0
DICTIONARY
  5
4EF
330
31
100
AcDbDictionary
280
     1
281
     1
  3
ACAD_XREC_ROUNDTRIP
360
4F0
  0
DICTIONARY
  5
4ED
330
30
100
AcDbDictionary
280
     1
281
     1
  3
ACAD_XREC_ROUNDTRIP
360
4EE
  0
DICTIONARY
  5
4F1
330
32
100
AcDbDictionary
280
     1
281
     1
  3
ACAD_XREC_ROUNDTRIP
360
4F2
  0
DICTIONARY
  5
4F9
330
36
100
AcDbDictionary
280
     1
281
     1
  3
ACAD_XREC_ROUNDTRIP
360
4FA
  0
DICTIONARY
  5
501
330
3A
100
AcDbDictionary
280
     1
281
     1
  3
ACAD_XREC_ROUNDTRIP
360
502
  0
DICTIONARY
  5
4F5
330
34
100
AcDbDictionary
280
     1
281
     1
  3
ACAD_XREC_ROUNDTRIP
360
4F6
  0
DICTIONARY
  5
4F7
330
35
100
AcDbDictionary
280
     1
281
     1
  3
ACAD_XREC_ROUNDTRIP
360
4F8
  0
DICTIONARY
  5
4FF
330
39
100
AcDbDictionary
280
     1
281
     1
  3
ACAD_XREC_ROUNDTRIP
360
500
  0
DICTIONARY
  5
4E3
330
2B
100
AcDbDictionary
280
     1
281
     1
  3
ACAD_XREC_ROUNDTRIP
360
4E4
  0
DICTIONARY
  5
4E5
330
2C
100
AcDbDictionary
280
     1
281
     1
  3
ACAD_XREC_ROUNDTRIP
360
4E6
  0
DICTIONARY
  5
4E7
330
2D
100
AcDbDictionary
280
     1
281
     1
  3
ACAD_XREC_ROUNDTRIP
360
4E8
  0
DICTIONARY
  5
4E9
330
2E
100
AcDbDictionary
280
     1
281
     1
  3
ACAD_XREC_ROUNDTRIP
360
4EA
  0
DICTIONARY
  5
4FD
330
38
100
AcDbDictionary
280
     1
281
     1
  3
ACAD_XREC_ROUNDTRIP
360
4FE
  0
DICTIONARY
  5
4F3
330
33
100
AcDbDictionary
280
     1
281
     1
  3
ACAD_XREC_ROUNDTRIP
360
4F4
  0
DICTIONARY
  5
4FB
330
37
100
AcDbDictionary
280
     1
281
     1
  3
ACAD_XREC_ROUNDTRIP
360
4FC
  0
XRECORD
  5
506
102
{ACAD_REACTORS
330
505
102
}
330
505
100
AcDbXrecord
280
     1
102
MATERIAL
148
0.0
149
0.0
149
0.0
 93
        0
 94
      127
282
     0
 72
     1
 77
     1
171
     1
175
     1
179
     1
273
     0
  0
XRECORD
  5
504
102
{ACAD_REACTORS
330
503
102
}
330
503
100
AcDbXrecord
280
     1
102
MATERIAL
148
0.0
149
0.0
149
0.0
 93
        0
 94
      127
282
     0
 72
     1
 77
     1
171
     1
175
     1
179
     1
273
     0
  0
XRECORD
  5
508
102
{ACAD_REACTORS
330
507
102
}
330
507
100
AcDbXrecord
280
     1
102
MATERIAL
148
0.0
149
0.0
149
0.0
 93
        0
 94
      127
282
     0
 72
     1
 77
     1
171
     1
175
     1
179
     1
273
     0
  0
XRECORD
  5
4EC
102
{ACAD_REACTORS
330
4EB
102
}
330
4EB
100
AcDbXrecord
280
     1
102
RTVSPropertyOp0
 70
     1
102
RTVSPropertyOp1
 70
     1
102
RTVSPropertyOp2
 70
     1
102
RTVSPropertyOp3
 70
     1
102
RTVSPropertyOp4
 70
     1
102
RTVSPropertyOp5
 70
     1
102
RTVSPropertyOp6
 70
     1
102
RTVSPropertyOp7
 70
     1
102
RTVSPropertyOp8
 70
     1
102
RTVSPropertyOp9
 70
     1
102
RTVSPropertyOp10
 70
     1
102
RTVSPropertyOp11
 70
     1
102
RTVSPropertyOp12
 70
     1
102
RTVSPropertyOp13
 70
     1
102
RTVSPropertyOp14
 70
     1
102
RTVSPropertyOp15
 70
     1
102
RTVSPropertyOp16
 70
     1
102
RTVSPropertyOp17
 70
     1
102
RTVSPropertyOp18
 70
     1
102
RTVSPropertyOp19
 70
     1
102
RTVSPropertyOp20
 70
     1
102
RTVSPropertyOp21
 70
     1
102
RTVSPropertyOp22
 70
     1
102
RTVSPropertyOp23
 70
     1
102
RTVSPropertyOp24
 70
     1
102
RTVSPropertyOp25
 70
     1
102
RTVSPropertyOp26
 70
     1
102
RTVSPropertyOp27
 70
     1
102
RTVSPropertyOp28
 70
     1
102
RTVSPropertyOp29
 70
     1
102
RTVSPropertyOp30
 70
     1
102
RTVSPropertyOp31
 70
     1
102
RTVSPropertyOp32
 70
     1
  0
XRECORD
  5
4F0
102
{ACAD_REACTORS
330
4EF
102
}
330
4EF
100
AcDbXrecord
280
     1
102
RTVSPropertyOp0
 70
     1
102
RTVSPropertyOp1
 70
     1
102
RTVSPropertyOp2
 70
     1
102
RTVSPropertyOp3
 70
     1
102
RTVSPropertyOp4
 70
     1
102
RTVSPropertyOp5
 70
     1
102
RTVSPropertyOp6
 70
     1
102
RTVSPropertyOp7
 70
     1
102
RTVSPropertyOp8
 70
     1
102
RTVSPropertyOp9
 70
     1
102
RTVSPropertyOp10
 70
     1
102
RTVSPropertyOp11
 70
     1
102
RTVSPropertyOp12
 70
     1
102
RTVSPropertyOp13
 70
     1
102
RTVSPropertyOp14
 70
     1
102
RTVSPropertyOp15
 70
     1
102
RTVSPropertyOp16
 70
     1
102
RTVSPropertyOp17
 70
     1
102
RTVSPropertyOp18
 70
     1
102
RTVSPropertyOp19
 70
     1
102
RTVSPropertyOp20
 70
     1
102
RTVSPropertyOp21
 70
     1
102
RTVSPropertyOp22
 70
     1
102
RTVSPropertyOp23
 70
     1
102
RTVSPropertyOp24
 70
     1
102
RTVSPropertyOp25
 70
     1
102
RTVSPropertyOp26
 70
     1
102
RTVSPropertyOp27
 70
     1
102
RTVSPropertyOp28
 70
     1
102
RTVSPropertyOp29
 70
     1
102
RTVSPropertyOp30
 70
     1
102
RTVSPropertyOp31
 70
     1
102
RTVSPropertyOp32
 70
     1
  0
XRECORD
  5
4EE
102
{ACAD_REACTORS
330
4ED
102
}
330
4ED
100
AcDbXrecord
280
     1
102
RTVSPropertyOp0
 70
     1
102
RTVSPropertyOp1
 70
     1
102
RTVSPropertyOp2
 70
     1
102
RTVSPropertyOp3
 70
     1
102
RTVSPropertyOp4
 70
     1
102
RTVSPropertyOp5
 70
     1
102
RTVSPropertyOp6
 70
     1
102
RTVSPropertyOp7
 70
     1
102
RTVSPropertyOp8
 70
     1
102
RTVSPropertyOp9
 70
     1
102
RTVSPropertyOp10
 70
     1
102
RTVSPropertyOp11
 70
     1
102
RTVSPropertyOp12
 70
     1
102
RTVSPropertyOp13
 70
     1
102
RTVSPropertyOp14
 70
     1
102
RTVSPropertyOp15
 70
     1
102
RTVSPropertyOp16
 70
     1
102
RTVSPropertyOp17
 70
     1
102
RTVSPropertyOp18
 70
     1
102
RTVSPropertyOp19
 70
     1
102
RTVSPropertyOp20
 70
     1
102
RTVSPropertyOp21
 70
     1
102
RTVSPropertyOp22
 70
     1
102
RTVSPropertyOp23
 70
     1
102
RTVSPropertyOp24
 70
     1
102
RTVSPropertyOp25
 70
     1
102
RTVSPropertyOp26
 70
     1
102
RTVSPropertyOp27
 70
     1
102
RTVSPropertyOp28
 70
     1
102
RTVSPropertyOp29
 70
     1
102
RTVSPropertyOp30
 70
     1
102
RTVSPropertyOp31
 70
     1
102
RTVSPropertyOp32
 70
     1
  0
XRECORD
  5
4F2
102
{ACAD_REACTORS
330
4F1
102
}
330
4F1
100
AcDbXrecord
280
     1
102
RTVSPropertyOp0
 70
     1
102
RTVSPropertyOp1
 70
     1
102
RTVSPropertyOp2
 70
     1
102
RTVSPropertyOp3
 70
     1
102
RTVSPropertyOp4
 70
     1
102
RTVSPropertyOp5
 70
     1
102
RTVSPropertyOp6
 70
     1
102
RTVSPropertyOp7
 70
     1
102
RTVSPropertyOp8
 70
     1
102
RTVSPropertyOp9
 70
     1
102
RTVSPropertyOp10
 70
     1
102
RTVSPropertyOp11
 70
     1
102
RTVSPropertyOp12
 70
     1
102
RTVSPropertyOp13
 70
     1
102
RTVSPropertyOp14
 70
     1
102
RTVSPropertyOp15
 70
     1
102
RTVSPropertyOp16
 70
     1
102
RTVSPropertyOp17
 70
     1
102
RTVSPropertyOp18
 70
     1
102
RTVSPropertyOp19
 70
     1
102
RTVSPropertyOp20
 70
     1
102
RTVSPropertyOp21
 70
     1
102
RTVSPropertyOp22
 70
     1
102
RTVSPropertyOp23
 70
     1
102
RTVSPropertyOp24
 70
     1
102
RTVSPropertyOp25
 70
     1
102
RTVSPropertyOp26
 70
     1
102
RTVSPropertyOp27
 70
     1
102
RTVSPropertyOp28
 70
     1
102
RTVSPropertyOp29
 70
     1
102
RTVSPropertyOp30
 70
     1
102
RTVSPropertyOp31
 70
     1
102
RTVSPropertyOp32
 70
     1
  0
XRECORD
  5
4FA
102
{ACAD_REACTORS
330
4F9
102
}
330
4F9
100
AcDbXrecord
280
     1
102
RTVSPropertyOp0
 70
     1
102
RTVSPropertyOp1
 70
     1
102
RTVSPropertyOp2
 70
     1
102
RTVSPropertyOp3
 70
     1
102
RTVSPropertyOp4
 70
     1
102
RTVSPropertyOp5
 70
     1
102
RTVSPropertyOp6
 70
     1
102
RTVSPropertyOp7
 70
     1
102
RTVSPropertyOp8
 70
     1
102
RTVSPropertyOp9
 70
     1
102
RTVSPropertyOp10
 70
     1
102
RTVSPropertyOp11
 70
     1
102
RTVSPropertyOp12
 70
     1
102
RTVSPropertyOp13
 70
     1
102
RTVSPropertyOp14
 70
     1
102
RTVSPropertyOp15
 70
     1
102
RTVSPropertyOp16
 70
     1
102
RTVSPropertyOp17
 70
     1
102
RTVSPropertyOp18
 70
     1
102
RTVSPropertyOp19
 70
     1
102
RTVSPropertyOp20
 70
     1
102
RTVSPropertyOp21
 70
     1
102
RTVSPropertyOp22
 70
     1
102
RTVSPropertyOp23
 70
     1
102
RTVSPropertyOp24
 70
     1
102
RTVSPropertyOp25
 70
     1
102
RTVSPropertyOp26
 70
     1
102
RTVSPropertyOp27
 70
     1
102
RTVSPropertyOp28
 70
     1
102
RTVSPropertyOp29
 70
     1
102
RTVSPropertyOp30
 70
     1
102
RTVSPropertyOp31
 70
     1
102
RTVSPropertyOp32
 70
     1
  0
XRECORD
  5
502
102
{ACAD_REACTORS
330
501
102
}
330
501
100
AcDbXrecord
280
     1
102
RTVSPropertyOp0
 70
     1
102
RTVSPropertyOp1
 70
     1
102
RTVSPropertyOp2
 70
     1
102
RTVSPropertyOp3
 70
     1
102
RTVSPropertyOp4
 70
     1
102
RTVSPropertyOp5
 70
     1
102
RTVSPropertyOp6
 70
     1
102
RTVSPropertyOp7
 70
     1
102
RTVSPropertyOp8
 70
     1
102
RTVSPropertyOp9
 70
     1
102
RTVSPropertyOp10
 70
     1
102
RTVSPropertyOp11
 70
     1
102
RTVSPropertyOp12
 70
     1
102
RTVSPropertyOp13
 70
     1
102
RTVSPropertyOp14
 70
     1
102
RTVSPropertyOp15
 70
     1
102
RTVSPropertyOp16
 70
     1
102
RTVSPropertyOp17
 70
     1
102
RTVSPropertyOp18
 70
     1
102
RTVSPropertyOp19
 70
     1
102
RTVSPropertyOp20
 70
     1
102
RTVSPropertyOp21
 70
     1
102
RTVSPropertyOp22
 70
     1
102
RTVSPropertyOp23
 70
     1
102
RTVSPropertyOp24
 70
     1
102
RTVSPropertyOp25
 70
     1
102
RTVSPropertyOp26
 70
     1
102
RTVSPropertyOp27
 70
     1
102
RTVSPropertyOp28
 70
     1
102
RTVSPropertyOp29
 70
     1
102
RTVSPropertyOp30
 70
     1
102
RTVSPropertyOp31
 70
     1
102
RTVSPropertyOp32
 70
     1
  0
XRECORD
  5
4F6
102
{ACAD_REACTORS
330
4F5
102
}
330
4F5
100
AcDbXrecord
280
     1
102
RTVSPropertyOp0
 70
     1
102
RTVSPropertyOp1
 70
     1
102
RTVSPropertyOp2
 70
     1
102
RTVSPropertyOp3
 70
     1
102
RTVSPropertyOp4
 70
     1
102
RTVSPropertyOp5
 70
     1
102
RTVSPropertyOp6
 70
     1
102
RTVSPropertyOp7
 70
     1
102
RTVSPropertyOp8
 70
     1
102
RTVSPropertyOp9
 70
     1
102
RTVSPropertyOp10
 70
     1
102
RTVSPropertyOp11
 70
     1
102
RTVSPropertyOp12
 70
     1
102
RTVSPropertyOp13
 70
     1
102
RTVSPropertyOp14
 70
     1
102
RTVSPropertyOp15
 70
     1
102
RTVSPropertyOp16
 70
     1
102
RTVSPropertyOp17
 70
     1
102
RTVSPropertyOp18
 70
     1
102
RTVSPropertyOp19
 70
     1
102
RTVSPropertyOp20
 70
     1
102
RTVSPropertyOp21
 70
     1
102
RTVSPropertyOp22
 70
     1
102
RTVSPropertyOp23
 70
     1
102
RTVSPropertyOp24
 70
     1
102
RTVSPropertyOp25
 70
     1
102
RTVSPropertyOp26
 70
     1
102
RTVSPropertyOp27
 70
     1
102
RTVSPropertyOp28
 70
     1
102
RTVSPropertyOp29
 70
     1
102
RTVSPropertyOp30
 70
     1
102
RTVSPropertyOp31
 70
     1
102
RTVSPropertyOp32
 70
     1
  0
XRECORD
  5
4F8
102
{ACAD_REACTORS
330
4F7
102
}
330
4F7
100
AcDbXrecord
280
     1
102
RTVSPropertyOp0
 70
     1
102
RTVSPropertyOp1
 70
     1
102
RTVSPropertyOp2
 70
     1
102
RTVSPropertyOp3
 70
     1
102
RTVSPropertyOp4
 70
     1
102
RTVSPropertyOp5
 70
     1
102
RTVSPropertyOp6
 70
     1
102
RTVSPropertyOp7
 70
     1
102
RTVSPropertyOp8
 70
     1
102
RTVSPropertyOp9
 70
     1
102
RTVSPropertyOp10
 70
     1
102
RTVSPropertyOp11
 70
     1
102
RTVSPropertyOp12
 70
     1
102
RTVSPropertyOp13
 70
     1
102
RTVSPropertyOp14
 70
     1
102
RTVSPropertyOp15
 70
     1
102
RTVSPropertyOp16
 70
     1
102
RTVSPropertyOp17
 70
     1
102
RTVSPropertyOp18
 70
     1
102
RTVSPropertyOp19
 70
     1
102
RTVSPropertyOp20
 70
     1
102
RTVSPropertyOp21
 70
     1
102
RTVSPropertyOp22
 70
     1
102
RTVSPropertyOp23
 70
     1
102
RTVSPropertyOp24
 70
     1
102
RTVSPropertyOp25
 70
     1
102
RTVSPropertyOp26
 70
     1
102
RTVSPropertyOp27
 70
     1
102
RTVSPropertyOp28
 70
     1
102
RTVSPropertyOp29
 70
     1
102
RTVSPropertyOp30
 70
     1
102
RTVSPropertyOp31
 70
     1
102
RTVSPropertyOp32
 70
     1
  0
XRECORD
  5
500
102
{ACAD_REACTORS
330
4FF
102
}
330
4FF
100
AcDbXrecord
280
     1
102
RTVSPropertyOp0
 70
     1
102
RTVSPropertyOp1
 70
     1
102
RTVSPropertyOp2
 70
     1
102
RTVSPropertyOp3
 70
     1
102
RTVSPropertyOp4
 70
     1
102
RTVSPropertyOp5
 70
     1
102
RTVSPropertyOp6
 70
     1
102
RTVSPropertyOp7
 70
     1
102
RTVSPropertyOp8
 70
     1
102
RTVSPropertyOp9
 70
     1
102
RTVSPropertyOp10
 70
     1
102
RTVSPropertyOp11
 70
     1
102
RTVSPropertyOp12
 70
     1
102
RTVSPropertyOp13
 70
     1
102
RTVSPropertyOp14
 70
     1
102
RTVSPropertyOp15
 70
     1
102
RTVSPropertyOp16
 70
     1
102
RTVSPropertyOp17
 70
     1
102
RTVSPropertyOp18
 70
     1
102
RTVSPropertyOp19
 70
     1
102
RTVSPropertyOp20
 70
     1
102
RTVSPropertyOp21
 70
     1
102
RTVSPropertyOp22
 70
     1
102
RTVSPropertyOp23
 70
     1
102
RTVSPropertyOp24
 70
     1
102
RTVSPropertyOp25
 70
     1
102
RTVSPropertyOp26
 70
     1
102
RTVSPropertyOp27
 70
     1
102
RTVSPropertyOp28
 70
     1
102
RTVSPropertyOp29
 70
     1
102
RTVSPropertyOp30
 70
     1
102
RTVSPropertyOp31
 70
     1
102
RTVSPropertyOp32
 70
     1
  0
XRECORD
  5
4E4
102
{ACAD_REACTORS
330
4E3
102
}
330
4E3
100
AcDbXrecord
280
     1
102
RTVSPropertyOp0
 70
     1
102
RTVSPropertyOp1
 70
     1
102
RTVSPropertyOp2
 70
     1
102
RTVSPropertyOp3
 70
     1
102
RTVSPropertyOp4
 70
     1
102
RTVSPropertyOp5
 70
     1
102
RTVSPropertyOp6
 70
     1
102
RTVSPropertyOp7
 70
     1
102
RTVSPropertyOp8
 70
     1
102
RTVSPropertyOp9
 70
     1
102
RTVSPropertyOp10
 70
     1
102
RTVSPropertyOp11
 70
     1
102
RTVSPropertyOp12
 70
     1
102
RTVSPropertyOp13
 70
     1
102
RTVSPropertyOp14
 70
     1
102
RTVSPropertyOp15
 70
     1
102
RTVSPropertyOp16
 70
     1
102
RTVSPropertyOp17
 70
     1
102
RTVSPropertyOp18
 70
     1
102
RTVSPropertyOp19
 70
     1
102
RTVSPropertyOp20
 70
     1
102
RTVSPropertyOp21
 70
     1
102
RTVSPropertyOp22
 70
     1
102
RTVSPropertyOp23
 70
     1
102
RTVSPropertyOp24
 70
     1
102
RTVSPropertyOp25
 70
     1
102
RTVSPropertyOp26
 70
     1
102
RTVSPropertyOp27
 70
     1
102
RTVSPropertyOp28
 70
     1
102
RTVSPropertyOp29
 70
     1
102
RTVSPropertyOp30
 70
     1
102
RTVSPropertyOp31
 70
     1
102
RTVSPropertyOp32
 70
     1
  0
XRECORD
  5
4E6
102
{ACAD_REACTORS
330
4E5
102
}
330
4E5
100
AcDbXrecord
280
     1
102
RTVSPropertyOp0
 70
     1
102
RTVSPropertyOp1
 70
     1
102
RTVSPropertyOp2
 70
     1
102
RTVSPropertyOp3
 70
     1
102
RTVSPropertyOp4
 70
     1
102
RTVSPropertyOp5
 70
     1
102
RTVSPropertyOp6
 70
     1
102
RTVSPropertyOp7
 70
     1
102
RTVSPropertyOp8
 70
     1
102
RTVSPropertyOp9
 70
     1
102
RTVSPropertyOp10
 70
     1
102
RTVSPropertyOp11
 70
     1
102
RTVSPropertyOp12
 70
     1
102
RTVSPropertyOp13
 70
     1
102
RTVSPropertyOp14
 70
     1
102
RTVSPropertyOp15
 70
     1
102
RTVSPropertyOp16
 70
     1
102
RTVSPropertyOp17
 70
     1
102
RTVSPropertyOp18
 70
     1
102
RTVSPropertyOp19
 70
     1
102
RTVSPropertyOp20
 70
     1
102
RTVSPropertyOp21
 70
     1
102
RTVSPropertyOp22
 70
     1
102
RTVSPropertyOp23
 70
     1
102
RTVSPropertyOp24
 70
     1
102
RTVSPropertyOp25
 70
     1
102
RTVSPropertyOp26
 70
     1
102
RTVSPropertyOp27
 70
     1
102
RTVSPropertyOp28
 70
     1
102
RTVSPropertyOp29
 70
     1
102
RTVSPropertyOp30
 70
     1
102
RTVSPropertyOp31
 70
     1
102
RTVSPropertyOp32
 70
     1
  0
XRECORD
  5
4E8
102
{ACAD_REACTORS
330
4E7
102
}
330
4E7
100
AcDbXrecord
280
     1
102
RTVSPropertyOp0
 70
     1
102
RTVSPropertyOp1
 70
     1
102
RTVSPropertyOp2
 70
     1
102
RTVSPropertyOp3
 70
     1
102
RTVSPropertyOp4
 70
     1
102
RTVSPropertyOp5
 70
     1
102
RTVSPropertyOp6
 70
     1
102
RTVSPropertyOp7
 70
     1
102
RTVSPropertyOp8
 70
     1
102
RTVSPropertyOp9
 70
     1
102
RTVSPropertyOp10
 70
     1
102
RTVSPropertyOp11
 70
     1
102
RTVSPropertyOp12
 70
     1
102
RTVSPropertyOp13
 70
     1
102
RTVSPropertyOp14
 70
     1
102
RTVSPropertyOp15
 70
     1
102
RTVSPropertyOp16
 70
     1
102
RTVSPropertyOp17
 70
     1
102
RTVSPropertyOp18
 70
     1
102
RTVSPropertyOp19
 70
     1
102
RTVSPropertyOp20
 70
     1
102
RTVSPropertyOp21
 70
     1
102
RTVSPropertyOp22
 70
     1
102
RTVSPropertyOp23
 70
     1
102
RTVSPropertyOp24
 70
     1
102
RTVSPropertyOp25
 70
     1
102
RTVSPropertyOp26
 70
     1
102
RTVSPropertyOp27
 70
     1
102
RTVSPropertyOp28
 70
     1
102
RTVSPropertyOp29
 70
     1
102
RTVSPropertyOp30
 70
     1
102
RTVSPropertyOp31
 70
     1
102
RTVSPropertyOp32
 70
     1
  0
XRECORD
  5
4EA
102
{ACAD_REACTORS
330
4E9
102
}
330
4E9
100
AcDbXrecord
280
     1
102
RTVSPropertyOp0
 70
     1
102
RTVSPropertyOp1
 70
     1
102
RTVSPropertyOp2
 70
     1
102
RTVSPropertyOp3
 70
     1
102
RTVSPropertyOp4
 70
     1
102
RTVSPropertyOp5
 70
     1
102
RTVSPropertyOp6
 70
     1
102
RTVSPropertyOp7
 70
     1
102
RTVSPropertyOp8
 70
     1
102
RTVSPropertyOp9
 70
     1
102
RTVSPropertyOp10
 70
     1
102
RTVSPropertyOp11
 70
     1
102
RTVSPropertyOp12
 70
     1
102
RTVSPropertyOp13
 70
     1
102
RTVSPropertyOp14
 70
     1
102
RTVSPropertyOp15
 70
     1
102
RTVSPropertyOp16
 70
     1
102
RTVSPropertyOp17
 70
     1
102
RTVSPropertyOp18
 70
     1
102
RTVSPropertyOp19
 70
     1
102
RTVSPropertyOp20
 70
     1
102
RTVSPropertyOp21
 70
     1
102
RTVSPropertyOp22
 70
     1
102
RTVSPropertyOp23
 70
     1
102
RTVSPropertyOp24
 70
     1
102
RTVSPropertyOp25
 70
     1
102
RTVSPropertyOp26
 70
     1
102
RTVSPropertyOp27
 70
     1
102
RTVSPropertyOp28
 70
     1
102
RTVSPropertyOp29
 70
     1
102
RTVSPropertyOp30
 70
     1
102
RTVSPropertyOp31
 70
     1
102
RTVSPropertyOp32
 70
     1
  0
XRECORD
  5
4FE
102
{ACAD_REACTORS
330
4FD
102
}
330
4FD
100
AcDbXrecord
280
     1
102
RTVSPropertyOp0
 70
     1
102
RTVSPropertyOp1
 70
     1
102
RTVSPropertyOp2
 70
     1
102
RTVSPropertyOp3
 70
     1
102
RTVSPropertyOp4
 70
     1
102
RTVSPropertyOp5
 70
     1
102
RTVSPropertyOp6
 70
     1
102
RTVSPropertyOp7
 70
     1
102
RTVSPropertyOp8
 70
     1
102
RTVSPropertyOp9
 70
     1
102
RTVSPropertyOp10
 70
     1
102
RTVSPropertyOp11
 70
     1
102
RTVSPropertyOp12
 70
     1
102
RTVSPropertyOp13
 70
     1
102
RTVSPropertyOp14
 70
     1
102
RTVSPropertyOp15
 70
     1
102
RTVSPropertyOp16
 70
     1
102
RTVSPropertyOp17
 70
     1
102
RTVSPropertyOp18
 70
     1
102
RTVSPropertyOp19
 70
     1
102
RTVSPropertyOp20
 70
     1
102
RTVSPropertyOp21
 70
     1
102
RTVSPropertyOp22
 70
     1
102
RTVSPropertyOp23
 70
     1
102
RTVSPropertyOp24
 70
     1
102
RTVSPropertyOp25
 70
     1
102
RTVSPropertyOp26
 70
     1
102
RTVSPropertyOp27
 70
     1
102
RTVSPropertyOp28
 70
     1
102
RTVSPropertyOp29
 70
     1
102
RTVSPropertyOp30
 70
     1
102
RTVSPropertyOp31
 70
     1
102
RTVSPropertyOp32
 70
     1
  0
XRECORD
  5
4F4
102
{ACAD_REACTORS
330
4F3
102
}
330
4F3
100
AcDbXrecord
280
     1
102
RTVSPropertyOp0
 70
     1
102
RTVSPropertyOp1
 70
     1
102
RTVSPropertyOp2
 70
     1
102
RTVSPropertyOp3
 70
     1
102
RTVSPropertyOp4
 70
     1
102
RTVSPropertyOp5
 70
     1
102
RTVSPropertyOp6
 70
     1
102
RTVSPropertyOp7
 70
     1
102
RTVSPropertyOp8
 70
     1
102
RTVSPropertyOp9
 70
     1
102
RTVSPropertyOp10
 70
     1
102
RTVSPropertyOp11
 70
     1
102
RTVSPropertyOp12
 70
     1
102
RTVSPropertyOp13
 70
     1
102
RTVSPropertyOp14
 70
     1
102
RTVSPropertyOp15
 70
     1
102
RTVSPropertyOp16
 70
     1
102
RTVSPropertyOp17
 70
     1
102
RTVSPropertyOp18
 70
     1
102
RTVSPropertyOp19
 70
     1
102
RTVSPropertyOp20
 70
     1
102
RTVSPropertyOp21
 70
     1
102
RTVSPropertyOp22
 70
     1
102
RTVSPropertyOp23
 70
     1
102
RTVSPropertyOp24
 70
     1
102
RTVSPropertyOp25
 70
     1
102
RTVSPropertyOp26
 70
     1
102
RTVSPropertyOp27
 70
     1
102
RTVSPropertyOp28
 70
     1
102
RTVSPropertyOp29
 70
     1
102
RTVSPropertyOp30
 70
     1
102
RTVSPropertyOp31
 70
     1
102
RTVSPropertyOp32
 70
     1
  0
XRECORD
  5
4FC
102
{ACAD_REACTORS
330
4FB
102
}
330
4FB
100
AcDbXrecord
280
     1
102
RTVSPropertyOp0
 70
     1
102
RTVSPropertyOp1
 70
     1
102
RTVSPropertyOp2
 70
     1
102
RTVSPropertyOp3
 70
     1
102
RTVSPropertyOp4
 70
     1
102
RTVSPropertyOp5
 70
     1
102
RTVSPropertyOp6
 70
     1
102
RTVSPropertyOp7
 70
     1
102
RTVSPropertyOp8
 70
     1
102
RTVSPropertyOp9
 70
     1
102
RTVSPropertyOp10
 70
     1
102
RTVSPropertyOp11
 70
     1
102
RTVSPropertyOp12
 70
     1
102
RTVSPropertyOp13
 70
     1
102
RTVSPropertyOp14
 70
     1
102
RTVSPropertyOp15
 70
     1
102
RTVSPropertyOp16
 70
     1
102
RTVSPropertyOp17
 70
     1
102
RTVSPropertyOp18
 70
     1
102
RTVSPropertyOp19
 70
     1
102
RTVSPropertyOp20
 70
     1
102
RTVSPropertyOp21
 70
     1
102
RTVSPropertyOp22
 70
     1
102
RTVSPropertyOp23
 70
     1
102
RTVSPropertyOp24
 70
     1
102
RTVSPropertyOp25
 70
     1
102
RTVSPropertyOp26
 70
     1
102
RTVSPropertyOp27
 70
     1
102
RTVSPropertyOp28
 70
     1
102
RTVSPropertyOp29
 70
     1
102
RTVSPropertyOp30
 70
     1
102
RTVSPropertyOp31
 70
     1
102
RTVSPropertyOp32
 70
     1
  0
ENDSEC
  0
EOF
