  0
SECTION
  2
HEADER
  9
$ACADVER
  1
AC1015
  9
$ACADMAINTVER
 70
     6
  9
$DWGCODEPAGE
  3
DOS932
  9
$INSBASE
 10
0.0
 20
0.0
 30
0.0
  9
$EXTMIN
 10
0.0
 20
0.0
 30
0.0
  9
$EXTMAX
 10
630.0
 20
891.0
 30
0.0
  9
$LIMMIN
 10
0.0
 20
0.0
  9
$LIMMAX
 10
12.0
 20
9.0
  9
$ORTHOMODE
 70
     0
  9
$REGENMODE
 70
     1
  9
$FILLMODE
 70
     1
  9
$QTEXTMODE
 70
     0
  9
$MIRRTEXT
 70
     1
  9
$LTSCALE
 40
1.0
  9
$ATTMODE
 70
     1
  9
$TEXTSIZE
 40
0.2
  9
$TRACEWID
 40
0.05
  9
$TEXTSTYLE
  7
Standard
  9
$CLAYER
  8
0
  9
$CELTYPE
  6
ByLayer
  9
$CECOLOR
 62
   256
  9
$CELTSCALE
 40
1.0
  9
$DISPSILH
 70
     0
  9
$DIMSCALE
 40
1.0
  9
$DIMASZ
 40
0.18
  9
$DIMEXO
 40
0.0625
  9
$DIMDLI
 40
0.38
  9
$DIMRND
 40
0.0
  9
$DIMDLE
 40
0.0
  9
$DIMEXE
 40
0.18
  9
$DIMTP
 40
0.0
  9
$DIMTM
 40
0.0
  9
$DIMTXT
 40
0.18
  9
$DIMCEN
 40
0.09
  9
$DIMTSZ
 40
0.0
  9
$DIMTOL
 70
     0
  9
$DIMLIM
 70
     0
  9
$DIMTIH
 70
     1
  9
$DIMTOH
 70
     1
  9
$DIMSE1
 70
     0
  9
$DIMSE2
 70
     0
  9
$DIMTAD
 70
     0
  9
$DIMZIN
 70
     0
  9
$DIMBLK
  1

  9
$DIMASO
 70
     1
  9
$DIMSHO
 70
     1
  9
$DIMPOST
  1

  9
$DIMAPOST
  1

  9
$DIMALT
 70
     0
  9
$DIMALTD
 70
     2
  9
$DIMALTF
 40
25.4
  9
$DIMLFAC
 40
1.0
  9
$DIMTOFL
 70
     0
  9
$DIMTVP
 40
0.0
  9
$DIMTIX
 70
     0
  9
$DIMSOXD
 70
     0
  9
$DIMSAH
 70
     0
  9
$DIMBLK1
  1

  9
$DIMBLK2
  1

  9
$DIMSTYLE
  2
Standard
  9
$DIMCLRD
 70
     0
  9
$DIMCLRE
 70
     0
  9
$DIMCLRT
 70
     0
  9
$DIMTFAC
 40
1.0
  9
$DIMGAP
 40
0.09
  9
$DIMJUST
 70
     0
  9
$DIMSD1
 70
     0
  9
$DIMSD2
 70
     0
  9
$DIMTOLJ
 70
     1
  9
$DIMTZIN
 70
     0
  9
$DIMALTZ
 70
     0
  9
$DIMALTTZ
 70
     0
  9
$DIMUPT
 70
     0
  9
$DIMDEC
 70
     4
  9
$DIMTDEC
 70
     4
  9
$DIMALTU
 70
     2
  9
$DIMALTTD
 70
     2
  9
$DIMTXSTY
  7
Standard
  9
$DIMAUNIT
 70
     0
  9
$DIMADEC
 70
     0
  9
$DIMALTRND
 40
0.0
  9
$DIMAZIN
 70
     0
  9
$DIMDSEP
 70
    46
  9
$DIMATFIT
 70
     3
  9
$DIMFRAC
 70
     0
  9
$DIMLDRBLK
  1

  9
$DIMLUNIT
 70
     2
  9
$DIMLWD
 70
    -2
  9
$DIMLWE
 70
    -2
  9
$DIMTMOVE
 70
     0
  9
$LUNITS
 70
     2
  9
$LUPREC
 70
     4
  9
$SKETCHINC
 40
0.1
  9
$FILLETRAD
 40
0.5
  9
$AUNITS
 70
     0
  9
$AUPREC
 70
     0
  9
$MENU
  1
.
  9
$ELEVATION
 40
0.0
  9
$PELEVATION
 40
0.0
  9
$THICKNESS
 40
0.0
  9
$LIMCHECK
 70
     0
  9
$CHAMFERA
 40
0.5
  9
$CHAMFERB
 40
0.5
  9
$CHAMFERC
 40
1.0
  9
$CHAMFERD
 40
0.0
  9
$SKPOLY
 70
     0
  9
$TDCREATE
 40
2456140.64610441
  9
$TDUCREATE
 40
2456140.27110441
  9
$TDUPDATE
 40
2456140.646104422
  9
$TDUUPDATE
 40
2456140.271104422
  9
$TDINDWG
 40
0.0000000116
  9
$TDUSRTIMER
 40
0.0000000116
  9
$USRTIMER
 70
     1
  9
$ANGBASE
 50
0.0
  9
$ANGDIR
 70
     0
  9
$PDMODE
 70
     0
  9
$PDSIZE
 40
0.0
  9
$PLINEWID
 40
0.0
  9
$SPLFRAME
 70
     0
  9
$SPLINETYPE
 70
     6
  9
$SPLINESEGS
 70
     8
  9
$HANDSEED
  5
54C
  9
$SURFTAB1
 70
     6
  9
$SURFTAB2
 70
     6
  9
$SURFTYPE
 70
     6
  9
$SURFU
 70
     6
  9
$SURFV
 70
     6
  9
$UCSBASE
  2

  9
$UCSNAME
  2

  9
$UCSORG
 10
0.0
 20
0.0
 30
0.0
  9
$UCSXDIR
 10
1.0
 20
0.0
 30
0.0
  9
$UCSYDIR
 10
0.0
 20
1.0
 30
0.0
  9
$UCSORTHOREF
  2

  9
$UCSORTHOVIEW
 70
     0
  9
$UCSORGTOP
 10
0.0
 20
0.0
 30
0.0
  9
$UCSORGBOTTOM
 10
0.0
 20
0.0
 30
0.0
  9
$UCSORGLEFT
 10
0.0
 20
0.0
 30
0.0
  9
$UCSORGRIGHT
 10
0.0
 20
0.0
 30
0.0
  9
$UCSORGFRONT
 10
0.0
 20
0.0
 30
0.0
  9
$UCSORGBACK
 10
0.0
 20
0.0
 30
0.0
  9
$PUCSBASE
  2

  9
$PUCSNAME
  2

  9
$PUCSORG
 10
0.0
 20
0.0
 30
0.0
  9
$PUCSXDIR
 10
1.0
 20
0.0
 30
0.0
  9
$PUCSYDIR
 10
0.0
 20
1.0
 30
0.0
  9
$PUCSORTHOREF
  2

  9
$PUCSORTHOVIEW
 70
     0
  9
$PUCSORGTOP
 10
0.0
 20
0.0
 30
0.0
  9
$PUCSORGBOTTOM
 10
0.0
 20
0.0
 30
0.0
  9
$PUCSORGLEFT
 10
0.0
 20
0.0
 30
0.0
  9
$PUCSORGRIGHT
 10
0.0
 20
0.0
 30
0.0
  9
$PUCSORGFRONT
 10
0.0
 20
0.0
 30
0.0
  9
$PUCSORGBACK
 10
0.0
 20
0.0
 30
0.0
  9
$USERI1
 70
     0
  9
$USERI2
 70
     0
  9
$USERI3
 70
     0
  9
$USERI4
 70
     0
  9
$USERI5
 70
     0
  9
$USERR1
 40
13.2
  9
$USERR2
 40
0.0
  9
$USERR3
 40
0.0
  9
$USERR4
 40
0.0
  9
$USERR5
 40
0.0
  9
$WORLDVIEW
 70
     1
  9
$SHADEDGE
 70
     3
  9
$SHADEDIF
 70
    70
  9
$TILEMODE
 70
     1
  9
$MAXACTVP
 70
    64
  9
$PINSBASE
 10
0.0
 20
0.0
 30
0.0
  9
$PLIMCHECK
 70
     0
  9
$PEXTMIN
 10
1.00000000000000E+20
 20
1.00000000000000E+20
 30
1.00000000000000E+20
  9
$PEXTMAX
 10
-1.00000000000000E+20
 20
-1.00000000000000E+20
 30
-1.00000000000000E+20
  9
$PLIMMIN
 10
0.0
 20
0.0
  9
$PLIMMAX
 10
12.0
 20
9.0
  9
$UNITMODE
 70
     0
  9
$VISRETAIN
 70
     1
  9
$PLINEGEN
 70
     0
  9
$PSLTSCALE
 70
     1
  9
$TREEDEPTH
 70
  3020
  9
$CMLSTYLE
  2
Standard
  9
$CMLJUST
 70
     0
  9
$CMLSCALE
 40
1.0
  9
$PROXYGRAPHICS
 70
     1
  9
$MEASUREMENT
 70
     1
  9
$CELWEIGHT
370
    -1
  9
$ENDCAPS
280
     0
  9
$JOINSTYLE
280
     0
  9
$LWDISPLAY
290
     0
  9
$INSUNITS
 70
     1
  9
$HYPERLINKBASE
  1

  9
$STYLESHEET
  1

  9
$XEDIT
290
     1
  9
$CEPSNTYPE
380
     0
  9
$PSTYLEMODE
290
     0
  9
$FINGERPRINTGUID
  2
{FAEB1C30-E019-11D5-929B-00C0DF256EC4}
  9
$VERSIONGUID
  2
{FAEB1C32-E019-11D5-929B-00C0DF256EC4}
  9
$EXTNAMES
290
     1
  9
$PSVPSCALE
 40
0.0
  9
$OLESTARTUP
290
     0
  0
ENDSEC
  0
SECTION
  2
CLASSES
  0
CLASS
  1
ACDBDICTIONARYWDFLT
  2
AcDbDictionaryWithDefault
  3
ObjectDBX Classes
 90
        0
280
     0
281
     0
  0
CLASS
  1
TABLESTYLE
  2
AcDbTableStyle
  3
ObjectDBX Classes
 90
     2047
280
     0
281
     0
  0
CLASS
  1
DICTIONARYVAR
  2
AcDbDictionaryVar
  3
ObjectDBX Classes
 90
        0
280
     0
281
     0
  0
CLASS
  1

  2
exOdDbCircle
  3

 90
        0
280
     0
281
     1
  0
CLASS
  1

  2
exOdDbSpline
  3

 90
        0
280
     0
281
     1
  0
CLASS
  1

  2
exOdDbPolyline
  3

 90
        0
280
     0
281
     1
  0
CLASS
  1
ACDBPLACEHOLDER
  2
AcDbPlaceHolder
  3
ObjectDBX Classes
 90
        0
280
     0
281
     0
  0
CLASS
  1
LAYOUT
  2
AcDbLayout
  3
ObjectDBX Classes
 90
        0
280
     0
281
     0
  0
ENDSEC
  0
SECTION
  2
TABLES
  0
TABLE
  2
VPORT
  5
8
330
0
100
AcDbSymbolTable
 70
     2
  0
VPORT
  5
29
330
8
100
AcDbSymbolTableRecord
100
AcDbViewportTableRecord
  2
*Active
 70
     0
 10
0.0
 20
0.0
 11
1.0
 21
1.0
 12
315.0
 22
445.5
 13
0.0
 23
0.0
 14
0.5
 24
0.5
 15
0.5
 25
0.5
 16
0.0
 26
0.0
 36
1.0
 17
0.0
 27
0.0
 37
0.0
 40
980.1
 41
1.60267857142857
 42
50.0
 43
0.0
 44
0.0
 50
0.0
 51
0.0
 71
     0
 72
   100
 73
     1
 74
     3
 75
     0
 76
     0
 77
     0
 78
     0
281
     0
 65
     1
110
0.0
120
0.0
130
0.0
111
1.0
121
0.0
131
0.0
112
0.0
122
1.0
132
0.0
 79
     0
146
0.0
  0
ENDTAB
  0
TABLE
  2
LTYPE
  5
5
330
0
100
AcDbSymbolTable
 70
     8
  0
LTYPE
  5
14
330
5
100
AcDbSymbolTableRecord
100
AcDbLinetypeTableRecord
  2
ByBlock
 70
     0
  3

 72
    65
 73
     0
 40
0.0
  0
LTYPE
  5
15
330
5
100
AcDbSymbolTableRecord
100
AcDbLinetypeTableRecord
  2
ByLayer
 70
     0
  3

 72
    65
 73
     0
 40
0.0
  0
LTYPE
  5
16
330
5
100
AcDbSymbolTableRecord
100
AcDbLinetypeTableRecord
  2
Continuous
 70
     0
  3
Solid line
 72
    65
 73
     0
 40
0.0
  0
LTYPE
  5
2E
330
5
100
AcDbSymbolTableRecord
100
AcDbLinetypeTableRecord
  2
DASHED
 70
     0
  3
Dashed
 72
    65
 73
     2
 40
15.0
 49
7.0
 74
     0
 49
-8.0
 74
     0
  0
LTYPE
  5
2F
330
5
100
AcDbSymbolTableRecord
100
AcDbLinetypeTableRecord
  2
DOTTED
 70
     0
  3
Dotted
 72
    65
 73
     2
 40
1.0
 49
0.0
 74
     0
 49
-1.0
 74
     0
  0
LTYPE
  5
30
330
5
100
AcDbSymbolTableRecord
100
AcDbLinetypeTableRecord
  2
DOT_CENTER
 70
     0
  3
Dot_Center
 72
    65
 73
     4
 40
14.0
 49
12.0
 74
     0
 49
-1.0
 74
     0
 49
0.0
 74
     0
 49
-1.0
 74
     0
  0
LTYPE
  5
31
330
5
100
AcDbSymbolTableRecord
100
AcDbLinetypeTableRecord
  2
LONG_DASHED
 70
     0
  3
Long_Dashed
 72
    65
 73
     2
 40
15.0
 49
10.0
 74
     0
 49
-5.0
 74
     0
  0
LTYPE
  5
32
330
5
100
AcDbSymbolTableRecord
100
AcDbLinetypeTableRecord
  2
DASH_CENTER
 70
     0
  3
Dash_Center
 72
    65
 73
     4
 40
14.0
 49
11.0
 74
     0
 49
-1.0
 74
     0
 49
1.0
 74
     0
 49
-1.0
 74
     0
  0
LTYPE
  5
33
330
5
100
AcDbSymbolTableRecord
100
AcDbLinetypeTableRecord
  2
PHANTOM
 70
     0
  3
Phantom
 72
    65
 73
     6
 40
13.0
 49
10.0
 74
     0
 49
-1.0
 74
     0
 49
0.0
 74
     0
 49
-1.0
 74
     0
 49
0.0
 74
     0
 49
-1.0
 74
     0
  0
LTYPE
  5
34
330
5
100
AcDbSymbolTableRecord
100
AcDbLinetypeTableRecord
  2
CENTER_DASH_DASH
 70
     0
  3
Center_Dash_Dash
 72
    65
 73
     6
 40
14.0
 49
9.0
 74
     0
 49
-1.0
 74
     0
 49
1.0
 74
     0
 49
-1.0
 74
     0
 49
1.0
 74
     0
 49
-1.0
 74
     0
  0
ENDTAB
  0
TABLE
  2
LAYER
  5
2
330
0
100
AcDbSymbolTable
 70
     4
  0
LAYER
  5
10
330
2
100
AcDbSymbolTableRecord
100
AcDbLayerTableRecord
  2
0
 70
     0
 62
     7
  6
Continuous
370
    -3
390
F
  0
LAYER
  5
35
330
2
100
AcDbSymbolTableRecord
100
AcDbLayerTableRecord
  2
1
 70
     0
 62
     7
  6
Continuous
370
    -3
390
F
  0
LAYER
  5
36
330
2
100
AcDbSymbolTableRecord
100
AcDbLayerTableRecord
  2
2
 70
     0
 62
     7
  6
Continuous
370
    -3
390
F
  0
LAYER
  5
37
330
2
100
AcDbSymbolTableRecord
100
AcDbLayerTableRecord
  2
8
 70
     0
 62
     7
  6
Continuous
370
    -3
390
F
  0
ENDTAB
  0
TABLE
  2
STYLE
  5
3
330
0
100
AcDbSymbolTable
 70
     3
  0
STYLE
  5
11
330
3
100
AcDbSymbolTableRecord
100
AcDbTextStyleTableRecord
  2
Standard
 70
     0
 40
0.0
 41
1.0
 50
0.0
 71
     0
 42
0.2
  3
txt
  4

  0
STYLE
  5
16E
330
3
100
AcDbSymbolTableRecord
100
AcDbTextStyleTableRecord
  2
CONVERTER_1
 70
     0
 40
0.0
 41
0.89
 50
0.0
 71
     0
 42
0.2
  3
msmincho.ttc
  4

1001
ACAD
1000
MS Mincho
1071
    32785
  0
STYLE
  5
404
330
3
100
AcDbSymbolTableRecord
100
AcDbTextStyleTableRecord
  2
CONVERTER_2
 70
     0
 40
0.0
 41
0.9
 50
0.0
 71
     0
 42
0.2
  3
txt.shx
  4

  0
ENDTAB
  0
TABLE
  2
VIEW
  5
6
330
0
100
AcDbSymbolTable
 70
     0
  0
ENDTAB
  0
TABLE
  2
UCS
  5
7
330
0
100
AcDbSymbolTable
 70
     0
  0
ENDTAB
  0
TABLE
  2
APPID
  5
9
330
0
100
AcDbSymbolTable
 70
     1
  0
APPID
  5
12
330
9
100
AcDbSymbolTableRecord
100
AcDbRegAppTableRecord
  2
ACAD
 70
     0
  0
ENDTAB
  0
TABLE
  2
DIMSTYLE
  5
A
330
0
100
AcDbSymbolTable
 70
    27
100
AcDbDimStyleTable
  0
DIMSTYLE
105
27
330
A
100
AcDbSymbolTableRecord
100
AcDbDimStyleTableRecord
  2
Standard
 70
     0
340
11
  0
DIMSTYLE
105
422
102
{ACAD_REACTORS
330
423
102
}
330
A
100
AcDbSymbolTableRecord
100
AcDbDimStyleTableRecord
  2
ME10_DIM_0
 70
     0
 41
5.25
 42
0.0
 44
3.0
 73
     0
 74
     0
 77
     1
 78
     8
140
10.5
147
0.625
172
     1
173
     1
176
     2
177
     2
178
     7
271
     2
340
16E
344
41D
  0
DIMSTYLE
105
42F
102
{ACAD_REACTORS
330
430
102
}
330
A
100
AcDbSymbolTableRecord
100
AcDbDimStyleTableRecord
  2
ME10_DIM_1
 70
     0
 41
5.25
 42
0.0
 44
3.0
 73
     0
 74
     0
 77
     1
 78
     8
140
10.5
147
0.625
172
     1
173
     1
176
     2
177
     2
178
     7
271
     2
340
16E
344
41D
  0
DIMSTYLE
105
43A
102
{ACAD_REACTORS
330
43B
102
}
330
A
100
AcDbSymbolTableRecord
100
AcDbDimStyleTableRecord
  2
ME10_DIM_2
 70
     0
 41
10.5
 42
0.0
 44
3.0
 73
     0
 74
     0
 77
     1
 78
     8
140
10.5
147
0.625
172
     1
173
     1
176
     2
177
     2
178
     7
271
     2
340
404
  0
DIMSTYLE
105
445
102
{ACAD_REACTORS
330
446
102
}
330
A
100
AcDbSymbolTableRecord
100
AcDbDimStyleTableRecord
  2
ME10_DIM_3
 70
     0
  3
以上
 41
10.5
 42
0.0
 44
3.0
 73
     0
 74
     0
 77
     1
 78
     8
140
10.5
147
0.625
172
     1
173
     1
176
     2
177
     2
178
     7
271
     2
340
16E
  0
DIMSTYLE
105
450
102
{ACAD_REACTORS
330
451
102
}
330
A
100
AcDbSymbolTableRecord
100
AcDbDimStyleTableRecord
  2
ME10_DIM_4
 70
     0
 41
10.5
 42
0.0
 44
3.0
 73
     0
 74
     0
 77
     1
 78
     8
140
10.5
147
0.625
172
     1
173
     1
176
     2
177
     2
178
     7
271
     2
340
404
  0
DIMSTYLE
105
45E
102
{ACAD_REACTORS
330
45F
102
}
330
A
100
AcDbSymbolTableRecord
100
AcDbDimStyleTableRecord
  2
ME10_DIM_5
 70
     0
 41
10.5
 42
0.0
 44
3.0
 73
     0
 74
     0
 77
     1
 78
     8
140
10.5
147
0.625
172
     1
173
     1
176
     2
177
     2
178
     7
271
     2
340
404
  0
DIMSTYLE
105
469
102
{ACAD_REACTORS
330
46A
102
}
330
A
100
AcDbSymbolTableRecord
100
AcDbDimStyleTableRecord
  2
ME10_DIM_6
 70
     0
 41
10.5
 42
0.0
 44
3.0
 73
     0
 74
     0
 77
     1
 78
     8
140
10.5
147
0.625
172
     1
173
     1
176
     2
177
     2
178
     7
271
     2
340
404
  0
DIMSTYLE
105
474
102
{ACAD_REACTORS
330
475
102
}
330
A
100
AcDbSymbolTableRecord
100
AcDbDimStyleTableRecord
  2
ME10_DIM_7
 70
     0
 41
10.5
 42
0.0
 44
3.0
 73
     0
 74
     0
 77
     1
 78
     8
140
10.5
147
0.625
172
     1
173
     1
176
     2
177
     2
178
     7
271
     2
340
404
  0
DIMSTYLE
105
481
102
{ACAD_REACTORS
330
482
102
}
330
A
100
AcDbSymbolTableRecord
100
AcDbDimStyleTableRecord
  2
ME10_DIM_8
 70
     0
 41
10.5
 42
0.0
 44
3.0
 73
     0
 74
     0
 77
     1
 78
     8
140
10.5
147
0.625
172
     1
173
     1
176
     2
177
     2
178
     7
271
     2
340
404
  0
DIMSTYLE
105
48E
102
{ACAD_REACTORS
330
48F
102
}
330
A
100
AcDbSymbolTableRecord
100
AcDbDimStyleTableRecord
  2
ME10_DIM_9
 70
     0
 41
10.5
 42
0.0
 44
3.0
 73
     0
 74
     0
 77
     1
 78
     8
140
10.5
147
0.625
172
     1
173
     1
176
     2
177
     2
178
     7
271
     2
340
16E
  0
DIMSTYLE
105
49B
102
{ACAD_REACTORS
330
49C
102
}
330
A
100
AcDbSymbolTableRecord
100
AcDbDimStyleTableRecord
  2
ME10_DIM_10
 70
     0
 41
10.5
 42
0.0
 44
3.0
 73
     0
 74
     0
 77
     1
 78
     8
140
10.5
147
0.625
172
     1
173
     1
176
     2
177
     2
178
     7
271
     2
340
404
  0
DIMSTYLE
105
4A6
102
{ACAD_REACTORS
330
4A7
102
}
330
A
100
AcDbSymbolTableRecord
100
AcDbDimStyleTableRecord
  2
ME10_DIM_11
 70
     0
 41
10.5
 42
0.0
 44
3.0
 73
     0
 74
     0
 77
     1
 78
     8
140
10.5
147
0.625
172
     1
173
     1
176
     2
177
     2
178
     7
271
     2
340
404
  0
DIMSTYLE
105
4B1
102
{ACAD_REACTORS
330
4B2
102
}
330
A
100
AcDbSymbolTableRecord
100
AcDbDimStyleTableRecord
  2
ME10_DIM_12
 70
     0
 41
10.5
 42
0.0
 44
3.0
 73
     0
 74
     0
 77
     1
 78
     8
140
10.5
147
0.625
172
     1
173
     1
176
     2
177
     2
178
     7
271
     2
340
404
  0
DIMSTYLE
105
4BC
102
{ACAD_REACTORS
330
4BD
102
}
330
A
100
AcDbSymbolTableRecord
100
AcDbDimStyleTableRecord
  2
ME10_DIM_13
 70
     0
 41
10.5
 42
0.0
 44
3.0
 73
     0
 74
     0
 77
     1
 78
     8
140
10.5
147
0.625
172
     1
173
     1
176
     2
177
     2
178
     7
271
     2
340
404
  0
DIMSTYLE
105
4C9
102
{ACAD_REACTORS
330
4CA
102
}
330
A
100
AcDbSymbolTableRecord
100
AcDbDimStyleTableRecord
  2
ME10_DIM_14
 70
     0
 41
10.5
 42
0.0
 44
3.0
 73
     0
 74
     0
 77
     1
 78
     8
140
10.5
147
0.625
172
     1
173
     1
176
     2
177
     2
178
     7
271
     2
340
404
  0
DIMSTYLE
105
4D6
102
{ACAD_REACTORS
330
4D7
102
}
330
A
100
AcDbSymbolTableRecord
100
AcDbDimStyleTableRecord
  2
ME10_DIM_15
 70
     0
  3
t=<>
 41
10.5
 42
0.0
 44
3.0
 73
     0
 74
     0
 77
     1
 78
     8
140
10.5
147
0.625
172
     1
173
     1
176
     2
177
     2
178
     7
271
     2
340
404
  0
DIMSTYLE
105
4E3
102
{ACAD_REACTORS
330
4E4
102
}
330
A
100
AcDbSymbolTableRecord
100
AcDbDimStyleTableRecord
  2
ME10_DIM_16
 70
     0
  3
ロックナット対辺<>
 41
10.5
 42
0.0
 44
3.0
 73
     0
 74
     0
 77
     1
 78
     8
140
10.5
147
0.625
172
     1
173
     1
176
     2
177
     2
178
     7
271
     2
340
16E
  0
DIMSTYLE
105
4EE
102
{ACAD_REACTORS
330
4EF
102
}
330
A
100
AcDbSymbolTableRecord
100
AcDbDimStyleTableRecord
  2
ME10_DIM_17
 70
     0
  3
{\Fgdt;n}<>
 41
10.5
 42
0.0
 44
3.0
 73
     0
 74
     0
 77
     1
 78
     8
140
10.5
147
0.625
172
     1
173
     1
176
     2
177
     2
178
     7
271
     2
340
404
  0
DIMSTYLE
105
4FA
102
{ACAD_REACTORS
330
4FB
102
}
330
A
100
AcDbSymbolTableRecord
100
AcDbDimStyleTableRecord
  2
ME10_DIM_18
 70
     0
 41
10.5
 42
0.0
 44
3.0
 73
     0
 74
     0
 77
     1
 78
     8
140
10.5
147
0.625
172
     1
173
     1
176
     2
177
     2
178
     7
271
     2
340
404
  0
DIMSTYLE
105
505
102
{ACAD_REACTORS
330
506
102
}
330
A
100
AcDbSymbolTableRecord
100
AcDbDimStyleTableRecord
  2
ME10_DIM_19
 70
     0
 41
10.5
 42
0.0
 44
3.0
 73
     0
 74
     0
 77
     1
 78
     8
140
10.5
147
0.625
172
     1
173
     1
176
     2
177
     2
178
     7
271
     2
340
404
  0
DIMSTYLE
105
510
102
{ACAD_REACTORS
330
511
102
}
330
A
100
AcDbSymbolTableRecord
100
AcDbDimStyleTableRecord
  2
ME10_DIM_20
 70
     0
 41
10.5
 42
0.0
 44
3.0
 73
     0
 74
     0
 77
     1
 78
     8
140
10.5
147
0.625
172
     1
173
     1
176
     2
177
     2
178
     7
271
     2
340
404
  0
DIMSTYLE
105
51B
102
{ACAD_REACTORS
330
51C
102
}
330
A
100
AcDbSymbolTableRecord
100
AcDbDimStyleTableRecord
  2
ME10_DIM_21
 70
     0
 41
10.5
 42
0.0
 44
3.0
 73
     0
 74
     0
 77
     1
 78
     8
140
10.5
147
0.625
172
     1
173
     1
176
     2
177
     2
178
     7
271
     2
340
404
  0
DIMSTYLE
105
526
102
{ACAD_REACTORS
330
527
102
}
330
A
100
AcDbSymbolTableRecord
100
AcDbDimStyleTableRecord
  2
ME10_DIM_22
 70
     0
 41
10.5
 42
0.0
 44
3.0
 73
     0
 74
     0
 77
     1
 78
     8
140
10.5
147
0.625
172
     1
173
     1
176
     2
177
     2
178
     7
271
     2
340
404
  0
DIMSTYLE
105
531
102
{ACAD_REACTORS
330
532
102
}
330
A
100
AcDbSymbolTableRecord
100
AcDbDimStyleTableRecord
  2
ME10_DIM_23
 70
     0
 41
10.5
 42
0.0
 44
3.0
 73
     0
 74
     0
 77
     1
 78
     8
140
10.5
147
0.625
172
     1
173
     1
176
     2
177
     2
178
     7
271
     2
340
404
  0
DIMSTYLE
105
53C
102
{ACAD_REACTORS
330
53D
102
}
330
A
100
AcDbSymbolTableRecord
100
AcDbDimStyleTableRecord
  2
ME10_DIM_24
 70
     0
 41
10.5
 42
0.0
 44
3.0
 73
     0
 74
     0
 77
     1
 78
     8
140
10.5
147
0.625
172
     1
173
     1
176
     2
177
     2
178
     7
271
     2
340
404
  0
DIMSTYLE
105
54A
102
{ACAD_REACTORS
330
54B
102
}
330
A
100
AcDbSymbolTableRecord
100
AcDbDimStyleTableRecord
  2
ME10_DIM_25
 70
     0
 41
10.5
 42
0.0
 44
3.0
 73
     0
 74
     0
 77
     1
 78
     8
140
10.5
147
0.625
172
     1
173
     1
176
     2
177
     2
178
     7
271
     2
340
404
  0
ENDTAB
  0
TABLE
  2
BLOCK_RECORD
  5
1
330
0
100
AcDbSymbolTable
 70
    78
  0
BLOCK_RECORD
  5
1F
330
1
100
AcDbSymbolTableRecord
100
AcDbBlockTableRecord
  2
*Model_Space
340
22
  0
BLOCK_RECORD
  5
1B
330
1
100
AcDbSymbolTableRecord
100
AcDbBlockTableRecord
  2
*Paper_Space
340
1E
  0
BLOCK_RECORD
  5
23
330
1
100
AcDbSymbolTableRecord
100
AcDbBlockTableRecord
  2
*Paper_Space0
340
26
  0
BLOCK_RECORD
  5
38
330
1
100
AcDbSymbolTableRecord
100
AcDbBlockTableRecord
  2
76-105-C4__1
340
0
102
{BLKREFS
331
D4
102
}
  0
BLOCK_RECORD
  5
3B
330
1
100
AcDbSymbolTableRecord
100
AcDbBlockTableRecord
  2
78-78__2
340
0
102
{BLKREFS
331
45
102
}
  0
BLOCK_RECORD
  5
3E
330
1
100
AcDbSymbolTableRecord
100
AcDbBlockTableRecord
  2
36-99__3
340
0
102
{BLKREFS
331
46
102
}
  0
BLOCK_RECORD
  5
41
330
1
100
AcDbSymbolTableRecord
100
AcDbBlockTableRecord
  2
30-302-M11__4
340
0
102
{BLKREFS
331
47
102
}
  0
BLOCK_RECORD
  5
44
330
1
100
AcDbSymbolTableRecord
100
AcDbBlockTableRecord
  2
30-302X__5
340
0
102
{BLKREFS
331
D5
102
}
  0
BLOCK_RECORD
  5
4A
330
1
100
AcDbSymbolTableRecord
100
AcDbBlockTableRecord
  2
32-25__6
340
0
102
{BLKREFS
331
D6
102
}
  0
BLOCK_RECORD
  5
4D
330
1
100
AcDbSymbolTableRecord
100
AcDbBlockTableRecord
  2
73-1-21_5-MS11__7
340
0
102
{BLKREFS
331
D7
102
}
  0
BLOCK_RECORD
  5
50
330
1
100
AcDbSymbolTableRecord
100
AcDbBlockTableRecord
  2
92-53__8
340
0
102
{BLKREFS
331
D8
102
}
  0
BLOCK_RECORD
  5
53
330
1
100
AcDbSymbolTableRecord
100
AcDbBlockTableRecord
  2
98-198__9
340
0
102
{BLKREFS
331
D9
102
}
  0
BLOCK_RECORD
  5
56
330
1
100
AcDbSymbolTableRecord
100
AcDbBlockTableRecord
  2
____10
340
0
102
{BLKREFS
331
DA
102
}
  0
BLOCK_RECORD
  5
59
330
1
100
AcDbSymbolTableRecord
100
AcDbBlockTableRecord
  2
32-16__11
340
0
102
{BLKREFS
331
DB
102
}
  0
BLOCK_RECORD
  5
5C
330
1
100
AcDbSymbolTableRecord
100
AcDbBlockTableRecord
  2
35-276__12
340
0
102
{BLKREFS
331
DC
102
}
  0
BLOCK_RECORD
  5
5F
330
1
100
AcDbSymbolTableRecord
100
AcDbBlockTableRecord
  2
K7590-0-M1__13
340
0
102
{BLKREFS
331
DD
102
}
  0
BLOCK_RECORD
  5
62
330
1
100
AcDbSymbolTableRecord
100
AcDbBlockTableRecord
  2
84-364-M21__14
340
0
102
{BLKREFS
331
DE
102
}
  0
BLOCK_RECORD
  5
65
330
1
100
AcDbSymbolTableRecord
100
AcDbBlockTableRecord
  2
98-201__15
340
0
102
{BLKREFS
331
DF
102
}
  0
BLOCK_RECORD
  5
68
330
1
100
AcDbSymbolTableRecord
100
AcDbBlockTableRecord
  2
92-53__16
340
0
102
{BLKREFS
331
E0
102
}
  0
BLOCK_RECORD
  5
6B
330
1
100
AcDbSymbolTableRecord
100
AcDbBlockTableRecord
  2
73-1-21_5-MS11__17
340
0
102
{BLKREFS
331
E1
102
}
  0
BLOCK_RECORD
  5
6E
330
1
100
AcDbSymbolTableRecord
100
AcDbBlockTableRecord
  2
32-16__18
340
0
102
{BLKREFS
331
E2
102
}
  0
BLOCK_RECORD
  5
71
330
1
100
AcDbSymbolTableRecord
100
AcDbBlockTableRecord
  2
35-276__19
340
0
102
{BLKREFS
331
E3
102
}
  0
BLOCK_RECORD
  5
74
330
1
100
AcDbSymbolTableRecord
100
AcDbBlockTableRecord
  2
32-16__20
340
0
102
{BLKREFS
331
E4
102
}
  0
BLOCK_RECORD
  5
77
330
1
100
AcDbSymbolTableRecord
100
AcDbBlockTableRecord
  2
35-276__21
340
0
102
{BLKREFS
331
E5
102
}
  0
BLOCK_RECORD
  5
7A
330
1
100
AcDbSymbolTableRecord
100
AcDbBlockTableRecord
  2
32-25__22
340
0
102
{BLKREFS
331
E6
102
}
  0
BLOCK_RECORD
  5
7D
330
1
100
AcDbSymbolTableRecord
100
AcDbBlockTableRecord
  2
73-1-21_5-MS11__23
340
0
102
{BLKREFS
331
E7
102
}
  0
BLOCK_RECORD
  5
80
330
1
100
AcDbSymbolTableRecord
100
AcDbBlockTableRecord
  2
92-53__24
340
0
102
{BLKREFS
331
E8
102
}
  0
BLOCK_RECORD
  5
83
330
1
100
AcDbSymbolTableRecord
100
AcDbBlockTableRecord
  2
32-25__25
340
0
102
{BLKREFS
331
E9
102
}
  0
BLOCK_RECORD
  5
86
330
1
100
AcDbSymbolTableRecord
100
AcDbBlockTableRecord
  2
30-302-M11__26
340
0
102
{BLKREFS
331
90
102
}
  0
BLOCK_RECORD
  5
89
330
1
100
AcDbSymbolTableRecord
100
AcDbBlockTableRecord
  2
36-99__27
340
0
102
{BLKREFS
331
91
102
}
  0
BLOCK_RECORD
  5
8C
330
1
100
AcDbSymbolTableRecord
100
AcDbBlockTableRecord
  2
78-78__28
340
0
102
{BLKREFS
331
92
102
}
  0
BLOCK_RECORD
  5
8F
330
1
100
AcDbSymbolTableRecord
100
AcDbBlockTableRecord
  2
30-302X__29
340
0
102
{BLKREFS
331
EA
102
}
  0
BLOCK_RECORD
  5
95
330
1
100
AcDbSymbolTableRecord
100
AcDbBlockTableRecord
  2
76-105-C4__30
340
0
102
{BLKREFS
331
EB
102
}
  0
BLOCK_RECORD
  5
98
330
1
100
AcDbSymbolTableRecord
100
AcDbBlockTableRecord
  2
98-198__31
340
0
102
{BLKREFS
331
EC
102
}
  0
BLOCK_RECORD
  5
9B
330
1
100
AcDbSymbolTableRecord
100
AcDbBlockTableRecord
  2
____32
340
0
102
{BLKREFS
331
ED
102
}
  0
BLOCK_RECORD
  5
9E
330
1
100
AcDbSymbolTableRecord
100
AcDbBlockTableRecord
  2
K7590-0-M1__33
340
0
102
{BLKREFS
331
EE
102
}
  0
BLOCK_RECORD
  5
A1
330
1
100
AcDbSymbolTableRecord
100
AcDbBlockTableRecord
  2
98-201__34
340
0
102
{BLKREFS
331
EF
102
}
  0
BLOCK_RECORD
  5
A4
330
1
100
AcDbSymbolTableRecord
100
AcDbBlockTableRecord
  2
32-25__35
340
0
102
{BLKREFS
331
F0
102
}
  0
BLOCK_RECORD
  5
A7
330
1
100
AcDbSymbolTableRecord
100
AcDbBlockTableRecord
  2
73-1-21_5-MS11__36
340
0
102
{BLKREFS
331
F1
102
}
  0
BLOCK_RECORD
  5
AA
330
1
100
AcDbSymbolTableRecord
100
AcDbBlockTableRecord
  2
92-53__37
340
0
102
{BLKREFS
331
F2
102
}
  0
BLOCK_RECORD
  5
AD
330
1
100
AcDbSymbolTableRecord
100
AcDbBlockTableRecord
  2
98-198__38
340
0
102
{BLKREFS
331
F3
102
}
  0
BLOCK_RECORD
  5
B0
330
1
100
AcDbSymbolTableRecord
100
AcDbBlockTableRecord
  2
____39
340
0
102
{BLKREFS
331
F4
102
}
  0
BLOCK_RECORD
  5
B3
330
1
100
AcDbSymbolTableRecord
100
AcDbBlockTableRecord
  2
32-16__40
340
0
102
{BLKREFS
331
F5
102
}
  0
BLOCK_RECORD
  5
B6
330
1
100
AcDbSymbolTableRecord
100
AcDbBlockTableRecord
  2
35-276__41
340
0
102
{BLKREFS
331
F6
102
}
  0
BLOCK_RECORD
  5
B9
330
1
100
AcDbSymbolTableRecord
100
AcDbBlockTableRecord
  2
K7590-0-M1__42
340
0
102
{BLKREFS
331
F7
102
}
  0
BLOCK_RECORD
  5
BC
330
1
100
AcDbSymbolTableRecord
100
AcDbBlockTableRecord
  2
98-201__43
340
0
102
{BLKREFS
331
F8
102
}
  0
BLOCK_RECORD
  5
BF
330
1
100
AcDbSymbolTableRecord
100
AcDbBlockTableRecord
  2
_J__A4
340
0
102
{BLKREFS
331
F9
102
}
  0
BLOCK_RECORD
  5
C2
330
1
100
AcDbSymbolTableRecord
100
AcDbBlockTableRecord
  2
88-554-R21__44
340
0
102
{BLKREFS
331
FA
102
}
  0
BLOCK_RECORD
  5
C5
330
1
100
AcDbSymbolTableRecord
100
AcDbBlockTableRecord
  2
84-364-M21__45
340
0
102
{BLKREFS
331
FB
102
}
  0
BLOCK_RECORD
  5
C8
330
1
100
AcDbSymbolTableRecord
100
AcDbBlockTableRecord
  2
88-554-R21__46
340
0
102
{BLKREFS
331
FC
102
}
  0
BLOCK_RECORD
  5
CB
330
1
100
AcDbSymbolTableRecord
100
AcDbBlockTableRecord
  2
84-364-M21__47
340
0
102
{BLKREFS
331
FD
102
}
  0
BLOCK_RECORD
  5
CE
330
1
100
AcDbSymbolTableRecord
100
AcDbBlockTableRecord
  2
81-164-M21__48
340
0
102
{BLKREFS
331
FE
102
}
  0
BLOCK_RECORD
  5
D1
330
1
100
AcDbSymbolTableRecord
100
AcDbBlockTableRecord
  2
81-164-M21__49
340
0
102
{BLKREFS
331
FF
102
}
  0
BLOCK_RECORD
  5
412
330
1
100
AcDbSymbolTableRecord
100
AcDbBlockTableRecord
  2
*D051
340
0
  0
BLOCK_RECORD
  5
41D
330
1
100
AcDbSymbolTableRecord
100
AcDbBlockTableRecord
  2
_Dot
340
0
  0
BLOCK_RECORD
  5
424
330
1
100
AcDbSymbolTableRecord
100
AcDbBlockTableRecord
  2
*D153
340
0
  0
BLOCK_RECORD
  5
431
330
1
100
AcDbSymbolTableRecord
100
AcDbBlockTableRecord
  2
*D254
340
0
  0
BLOCK_RECORD
  5
43C
330
1
100
AcDbSymbolTableRecord
100
AcDbBlockTableRecord
  2
*D355
340
0
  0
BLOCK_RECORD
  5
447
330
1
100
AcDbSymbolTableRecord
100
AcDbBlockTableRecord
  2
*D456
340
0
  0
BLOCK_RECORD
  5
452
330
1
100
AcDbSymbolTableRecord
100
AcDbBlockTableRecord
  2
*D557
340
0
  0
BLOCK_RECORD
  5
460
330
1
100
AcDbSymbolTableRecord
100
AcDbBlockTableRecord
  2
*D658
340
0
  0
BLOCK_RECORD
  5
46B
330
1
100
AcDbSymbolTableRecord
100
AcDbBlockTableRecord
  2
*D759
340
0
  0
BLOCK_RECORD
  5
476
330
1
100
AcDbSymbolTableRecord
100
AcDbBlockTableRecord
  2
*D860
340
0
  0
BLOCK_RECORD
  5
483
330
1
100
AcDbSymbolTableRecord
100
AcDbBlockTableRecord
  2
*D961
340
0
  0
BLOCK_RECORD
  5
490
330
1
100
AcDbSymbolTableRecord
100
AcDbBlockTableRecord
  2
*D1062
340
0
  0
BLOCK_RECORD
  5
49D
330
1
100
AcDbSymbolTableRecord
100
AcDbBlockTableRecord
  2
*D1163
340
0
  0
BLOCK_RECORD
  5
4A8
330
1
100
AcDbSymbolTableRecord
100
AcDbBlockTableRecord
  2
*D1264
340
0
  0
BLOCK_RECORD
  5
4B3
330
1
100
AcDbSymbolTableRecord
100
AcDbBlockTableRecord
  2
*D1365
340
0
  0
BLOCK_RECORD
  5
4BE
330
1
100
AcDbSymbolTableRecord
100
AcDbBlockTableRecord
  2
*D1466
340
0
  0
BLOCK_RECORD
  5
4CB
330
1
100
AcDbSymbolTableRecord
100
AcDbBlockTableRecord
  2
*D1567
340
0
  0
BLOCK_RECORD
  5
4D8
330
1
100
AcDbSymbolTableRecord
100
AcDbBlockTableRecord
  2
*D1668
340
0
  0
BLOCK_RECORD
  5
4E5
330
1
100
AcDbSymbolTableRecord
100
AcDbBlockTableRecord
  2
*D1769
340
0
  0
BLOCK_RECORD
  5
4F0
330
1
100
AcDbSymbolTableRecord
100
AcDbBlockTableRecord
  2
*D1870
340
0
  0
BLOCK_RECORD
  5
4FC
330
1
100
AcDbSymbolTableRecord
100
AcDbBlockTableRecord
  2
*D1971
340
0
  0
BLOCK_RECORD
  5
507
330
1
100
AcDbSymbolTableRecord
100
AcDbBlockTableRecord
  2
*D2072
340
0
  0
BLOCK_RECORD
  5
512
330
1
100
AcDbSymbolTableRecord
100
AcDbBlockTableRecord
  2
*D2173
340
0
  0
BLOCK_RECORD
  5
51D
330
1
100
AcDbSymbolTableRecord
100
AcDbBlockTableRecord
  2
*D2274
340
0
  0
BLOCK_RECORD
  5
528
330
1
100
AcDbSymbolTableRecord
100
AcDbBlockTableRecord
  2
*D2375
340
0
  0
BLOCK_RECORD
  5
533
330
1
100
AcDbSymbolTableRecord
100
AcDbBlockTableRecord
  2
*D2476
340
0
  0
BLOCK_RECORD
  5
53E
330
1
100
AcDbSymbolTableRecord
100
AcDbBlockTableRecord
  2
*D2577
340
0
  0
ENDTAB
  0
ENDSEC
  0
SECTION
  2
BLOCKS
  0
BLOCK
  5
20
330
1F
100
AcDbEntity
  8
0
100
AcDbBlockBegin
  2
*Model_Space
 70
     0
 71
     0
 10
0.0
 20
0.0
 30
0.0
  3
*Model_Space
  1

  0
ENDBLK
  5
21
330
1F
100
AcDbEntity
  8
0
100
AcDbBlockEnd
  0
BLOCK
  5
1C
330
1B
100
AcDbEntity
 67
     1
  8
0
100
AcDbBlockBegin
  2
*Paper_Space
 70
     0
 71
     0
 10
0.0
 20
0.0
 30
0.0
  3
*Paper_Space
  1

  0
ENDBLK
  5
1D
330
1B
100
AcDbEntity
 67
     1
  8
0
100
AcDbBlockEnd
  0
BLOCK
  5
24
330
23
100
AcDbEntity
  8
0
100
AcDbBlockBegin
  2
*Paper_Space0
 70
     0
 71
     0
 10
0.0
 20
0.0
 30
0.0
  3
*Paper_Space0
  1

  0
ENDBLK
  5
25
330
23
100
AcDbEntity
  8
0
100
AcDbBlockEnd
  0
BLOCK
  5
39
330
38
100
AcDbEntity
  8
0
100
AcDbBlockBegin
  2
76-105-C4__1
 70
     0
 71
     0
 10
308.5
 20
744.0000000000002
 30
0.0
  3
76-105-C4__1
  1

  0
LINE
  5
100
330
38
100
AcDbEntity
  8
1
  6
Continuous
 62
     7
100
AcDbLine
 10
550.0
 20
689.0000000000005
 30
0.0
 11
550.0
 21
749.0000000000005
 31
0.0
  0
LINE
  5
101
330
38
100
AcDbEntity
  8
1
  6
PHANTOM
 62
     4
100
AcDbLine
 10
403.9453801971505
 20
725.3013415468029
 30
0.0
 11
405.5976155198645
 21
727.34264175878
 31
0.0
  0
LINE
  5
102
330
38
100
AcDbEntity
  8
1
  6
PHANTOM
 62
     4
100
AcDbLine
 10
403.9453801971505
 20
728.1006583046444
 30
0.0
 11
403.9453801971505
 21
725.3013415468029
 31
0.0
  0
LINE
  5
103
330
38
100
AcDbEntity
  8
1
  6
Continuous
 62
     7
100
AcDbLine
 10
550.0
 20
689.0000000000005
 30
0.0
 11
557.0
 21
689.0000000000005
 31
0.0
  0
LINE
  5
104
330
38
100
AcDbEntity
  8
1
  6
Continuous
 62
     7
100
AcDbLine
 10
557.0
 20
689.0000000000005
 30
0.0
 11
557.0
 21
749.0000000000005
 31
0.0
  0
LINE
  5
105
330
38
100
AcDbEntity
  8
8
  6
PHANTOM
 62
     5
100
AcDbLine
 10
446.817803001022
 20
775.3517277026398
 30
0.0
 11
449.7379890532172
 21
771.2930932745892
 31
0.0
  0
ARC
  5
106
330
38
100
AcDbEntity
  8
1
  6
Continuous
 62
     7
100
AcDbCircle
 10
507.0
 20
749.0000000000005
 30
0.0
 40
50.0
100
AcDbArc
 50
90.0
 51
96.77128748116985
  0
ARC
  5
107
330
38
100
AcDbEntity
  8
1
  6
Continuous
 62
     7
100
AcDbCircle
 10
507.0
 20
749.0000000000005
 30
0.0
 40
43.0
100
AcDbArc
 50
0.0
 51
96.77128748117075
  0
ARC
  5
108
330
38
100
AcDbEntity
  8
1
  6
Continuous
 62
     7
100
AcDbCircle
 10
512.895317532533
 20
699.3487640517324
 30
0.0
 40
93.00000000000011
100
AcDbArc
 50
120.0
 51
122.2001682892451
  0
ARC
  5
109
330
38
100
AcDbEntity
  8
1
  6
Continuous
 62
     7
100
AcDbCircle
 10
507.0
 20
749.0000000000005
 30
0.0
 40
50.0
100
AcDbArc
 50
0.0
 51
90.0
  0
ARC
  5
10A
330
38
100
AcDbEntity
  8
1
  6
Continuous
 62
     7
100
AcDbCircle
 10
512.895317532533
 20
699.3487640517324
 30
0.0
 40
99.99999999999994
100
AcDbArc
 50
120.0
 51
122.2001682892449
  0
ARC
  5
10B
330
38
100
AcDbEntity
  8
1
  6
Continuous
 62
     7
100
AcDbCircle
 10
592.8274058730619
 20
572.4195886246033
 30
0.0
 40
250.0005144027475
100
AcDbArc
 50
125.7350023801608
 51
136.3279884166232
  0
ARC
  5
10C
330
38
100
AcDbEntity
  8
1
  6
PHANTOM
 62
     5
100
AcDbCircle
 10
592.8274058730619
 20
572.4195886246033
 30
0.0
 40
245.0005144027481
100
AcDbArc
 50
130.0
 51
140.3544885906752
  0
ARC
  5
10D
330
38
100
AcDbEntity
  8
1
  6
Continuous
 62
     7
100
AcDbCircle
 10
592.8274058730619
 20
572.4195886246033
 30
0.0
 40
250.0005144027481
100
AcDbArc
 50
122.2001682892448
 51
125.7350023801608
  0
ARC
  5
10E
330
38
100
AcDbEntity
  8
1
  6
Continuous
 62
     7
100
AcDbCircle
 10
433.7000330666513
 20
724.3363604478723
 30
0.0
 40
29.99999999999999
100
AcDbArc
 50
136.3279884166231
 51
172.5417697746352
  0
ARC
  5
10F
330
38
100
AcDbEntity
  8
1
  6
Continuous
 62
     7
100
AcDbCircle
 10
592.8274058730619
 20
572.4195886246033
 30
0.0
 40
243.0005144027481
100
AcDbArc
 50
130.0
 51
140.3544885906752
  0
ARC
  5
110
330
38
100
AcDbEntity
  8
1
  6
Continuous
 62
     7
100
AcDbCircle
 10
512.895317532533
 20
699.3487640517324
 30
0.0
 40
92.99999999999993
100
AcDbArc
 50
96.77128748117106
 51
120.0
  0
ARC
  5
111
330
38
100
AcDbEntity
  8
1
  6
Continuous
 62
     7
100
AcDbCircle
 10
512.895317532533
 20
699.3487640517324
 30
0.0
 40
99.99999999999946
100
AcDbArc
 50
96.77128748117059
 51
120.0
  0
ARC
  5
112
330
38
100
AcDbEntity
  8
1
  6
Continuous
 62
     7
100
AcDbCircle
 10
592.8274058730619
 20
572.4195886246033
 30
0.0
 40
243.0005144027481
100
AcDbArc
 50
122.2001682892449
 51
130.0
  0
ARC
  5
113
330
38
100
AcDbEntity
  8
1
  6
PHANTOM
 62
     5
100
AcDbCircle
 10
592.8274058730619
 20
572.4195886246033
 30
0.0
 40
245.0005144027482
100
AcDbArc
 50
125.7350023791923
 51
130.0
  0
ARC
  5
114
330
38
100
AcDbEntity
  8
1
  6
Continuous
 62
     7
100
AcDbCircle
 10
404.9453801971505
 20
728.1006583046444
 30
0.0
 40
1.0
100
AcDbArc
 50
-90.0
 51
-39.64551140932847
  0
ARC
  5
115
330
38
100
AcDbEntity
  8
1
  6
Continuous
 62
     7
100
AcDbCircle
 10
404.9453801971505
 20
728.1006583046444
 30
0.0
 40
1.000000000000027
100
AcDbArc
 50
140.3544885906807
 51
172.5417697746343
  0
ARC
  5
116
330
38
100
AcDbEntity
  8
1
  6
Continuous
 62
     7
100
AcDbCircle
 10
404.9453801971505
 20
728.1006583046444
 30
0.0
 40
1.0
100
AcDbArc
 50
180.0
 51
-90.0
  0
ARC
  5
117
330
38
100
AcDbEntity
  8
1
  6
Continuous
 62
     7
100
AcDbCircle
 10
404.9453801971505
 20
728.1006583046444
 30
0.0
 40
1.000000000000045
100
AcDbArc
 50
172.5417697746343
 51
180.0
  0
ENDBLK
  5
3A
330
38
100
AcDbEntity
  8
0
100
AcDbBlockEnd
  0
BLOCK
  5
3C
330
3B
100
AcDbEntity
  8
0
100
AcDbBlockBegin
  2
78-78__2
 70
     0
 71
     0
 10
519.1500000000001
 20
687.8000000000002
 30
0.0
  3
78-78__2
  1

  0
LINE
  5
118
330
3B
100
AcDbEntity
  8
1
  6
Continuous
 62
     7
100
AcDbLine
 10
528.889087296526
 20
710.6109127034741
 30
0.0
 11
528.6415999231108
 21
710.8584000768894
 31
0.0
  0
LINE
  5
119
330
3B
100
AcDbEntity
  8
1
  6
Continuous
 62
     7
100
AcDbLine
 10
521.1109127034738
 20
710.6109127034741
 30
0.0
 11
521.3584000768892
 21
710.8584000768894
 31
0.0
  0
ARC
  5
11A
330
3B
100
AcDbEntity
  8
1
  6
Continuous
 62
     7
100
AcDbCircle
 10
525.0
 20
714.5000000000002
 30
0.0
 40
5.849999999999897
100
AcDbArc
 50
172.6341141710352
 51
-172.6341141710352
  0
ARC
  5
11B
330
3B
100
AcDbEntity
  8
1
  6
Continuous
 62
     7
100
AcDbCircle
 10
525.0
 20
714.5000000000002
 30
0.0
 40
5.849999999999897
100
AcDbArc
 50
-7.3658858289648
 51
7.3658858289648
  0
ARC
  5
11C
330
3B
100
AcDbEntity
  8
1
  6
Continuous
 62
     7
100
AcDbCircle
 10
525.0
 20
714.5000000000002
 30
0.0
 40
5.150000000000091
100
AcDbArc
 50
0.0
 51
-135.0
  0
ARC
  5
11D
330
3B
100
AcDbEntity
  8
1
  6
Continuous
 62
     7
100
AcDbCircle
 10
525.0
 20
714.5000000000002
 30
0.0
 40
5.150000000000098
100
AcDbArc
 50
-45.0
 51
0.0
  0
ENDBLK
  5
3D
330
3B
100
AcDbEntity
  8
0
100
AcDbBlockEnd
  0
BLOCK
  5
3F
330
3E
100
AcDbEntity
  8
0
100
AcDbBlockBegin
  2
36-99__3
 70
     0
 71
     0
 10
519.75
 20
672.5000000000001
 30
0.0
  3
36-99__3
  1

  0
LINE
  5
11E
330
3E
100
AcDbEntity
  8
1
  6
Continuous
 62
     7
100
AcDbLine
 10
525.5
 20
710.2795142459668
 30
0.0
 11
525.5
 21
718.7204857540337
 31
0.0
  0
LINE
  5
11F
330
3E
100
AcDbEntity
  8
1
  6
Continuous
 62
     7
100
AcDbLine
 10
524.5
 20
710.2795142459668
 30
0.0
 11
524.5
 21
718.7204857540337
 31
0.0
  0
LINE
  5
120
330
3E
100
AcDbEntity
  8
1
  6
Continuous
 62
     7
100
AcDbLine
 10
524.5
 20
710.2795142459668
 30
0.0
 11
524.5
 21
709.2738637599085
 31
0.0
  0
LINE
  5
121
330
3E
100
AcDbEntity
  8
1
  6
Continuous
 62
     7
100
AcDbLine
 10
525.5
 20
709.2738637599085
 30
0.0
 11
525.5
 21
710.2795142459668
 31
0.0
  0
LINE
  5
122
330
3E
100
AcDbEntity
  8
1
  6
Continuous
 62
     7
100
AcDbLine
 10
524.5
 20
718.7204857540337
 30
0.0
 11
524.5
 21
719.6256706878226
 31
0.0
  0
LINE
  5
123
330
3E
100
AcDbEntity
  8
1
  6
Continuous
 62
     7
100
AcDbLine
 10
525.5
 20
719.6256706878226
 30
0.0
 11
525.5
 21
718.7204857540337
 31
0.0
  0
ARC
  5
124
330
3E
100
AcDbEntity
  8
1
  6
Continuous
 62
     7
100
AcDbCircle
 10
525.0
 20
714.5000000000002
 30
0.0
 40
5.249999999999988
100
AcDbArc
 50
-95.46502379990589
 51
-84.53497620009411
  0
ARC
  5
125
330
3E
100
AcDbEntity
  8
1
  6
Continuous
 62
     7
100
AcDbCircle
 10
525.0
 20
714.5000000000002
 30
0.0
 40
4.249999999999929
100
AcDbArc
 50
-83.24367296941206
 51
0.0
  0
ARC
  5
126
330
3E
100
AcDbEntity
  8
1
  6
Continuous
 62
     7
100
AcDbCircle
 10
525.0
 20
714.5000000000002
 30
0.0
 40
4.25
100
AcDbArc
 50
0.0
 51
83.24367296941206
  0
ARC
  5
127
330
3E
100
AcDbEntity
  8
1
  6
Continuous
 62
     7
100
AcDbCircle
 10
525.0
 20
714.5000000000002
 30
0.0
 40
4.249999999999929
100
AcDbArc
 50
96.75632703058794
 51
-96.75632703058794
  0
ENDBLK
  5
40
330
3E
100
AcDbEntity
  8
0
100
AcDbBlockEnd
  0
BLOCK
  5
42
330
41
100
AcDbEntity
  8
0
100
AcDbBlockBegin
  2
30-302-M11__4
 70
     0
 71
     0
 10
578.75
 20
686.7500000000002
 30
0.0
  3
30-302-M11__4
  1

  0
LINE
  5
128
330
41
100
AcDbEntity
  8
1
  6
Continuous
 62
     7
100
AcDbLine
 10
515.7821006600652
 20
715.2500000000002
 30
0.0
 11
519.5513763205743
 21
715.2500000000002
 31
0.0
  0
LINE
  5
129
330
41
100
AcDbEntity
  8
1
  6
Continuous
 62
     7
100
AcDbLine
 10
519.5513763205743
 20
713.7500000000002
 30
0.0
 11
515.7821006600652
 21
713.7500000000002
 31
0.0
  0
LINE
  5
12A
330
41
100
AcDbEntity
  8
1
  6
Continuous
 62
     7
100
AcDbLine
 10
534.2178993399348
 20
713.7500000000002
 30
0.0
 11
530.448623679426
 21
713.7500000000002
 31
0.0
  0
LINE
  5
12B
330
41
100
AcDbEntity
  8
1
  6
Continuous
 62
     7
100
AcDbLine
 10
530.448623679426
 20
715.2500000000002
 30
0.0
 11
534.2178993399348
 21
715.2500000000002
 31
0.0
  0
ARC
  5
12C
330
41
100
AcDbEntity
  8
1
  6
Continuous
 62
     7
100
AcDbCircle
 10
525.0
 20
714.5000000000002
 30
0.0
 40
5.499999999999896
100
AcDbArc
 50
-172.1625202369156
 51
-7.83747976308412
  0
ARC
  5
12D
330
41
100
AcDbEntity
  8
1
  6
Continuous
 62
     7
100
AcDbCircle
 10
525.0
 20
714.5000000000002
 30
0.0
 40
5.500000000000121
100
AcDbArc
 50
7.83747976308412
 51
172.1625202369156
  0
ARC
  5
12E
330
41
100
AcDbEntity
  8
1
  6
Continuous
 62
     7
100
AcDbCircle
 10
525.0
 20
714.5000000000002
 30
0.0
 40
8.499999999999984
100
AcDbArc
 50
5.06209296428467
 51
174.9379070357153
  0
ARC
  5
12F
330
41
100
AcDbEntity
  8
1
  6
Continuous
 62
     7
100
AcDbCircle
 10
525.0
 20
714.5000000000002
 30
0.0
 40
8.499999999999984
100
AcDbArc
 50
-174.9379070357153
 51
-5.06209296428467
  0
ARC
  5
130
330
41
100
AcDbEntity
  8
1
  6
Continuous
 62
     7
100
AcDbCircle
 10
525.0
 20
714.5000000000002
 30
0.0
 40
9.248360300138071
100
AcDbArc
 50
175.3484646255681
 51
-175.3484646255681
  0
ARC
  5
131
330
41
100
AcDbEntity
  8
1
  6
Continuous
 62
     7
100
AcDbCircle
 10
525.0
 20
714.5000000000002
 30
0.0
 40
9.248360300138071
100
AcDbArc
 50
-4.65153537443193
 51
4.65153537443193
  0
CIRCLE
  5
132
330
41
100
AcDbEntity
  8
1
  6
Continuous
 62
     7
100
AcDbCircle
 10
525.0
 20
714.5000000000002
 30
0.0
 40
9.5
  0
ENDBLK
  5
43
330
41
100
AcDbEntity
  8
0
100
AcDbBlockEnd
  0
BLOCK
  5
48
330
44
100
AcDbEntity
  8
0
100
AcDbBlockBegin
  2
30-302X__5
 70
     0
 71
     0
 10
1260.0
 20
375.0
 30
0.0
  3
30-302X__5
  1

  0
INSERT
  5
45
330
44
100
AcDbEntity
  8
1
100
AcDbBlockReference
  2
78-78__2
 10
519.1500000000001
 20
687.8000000000002
 30
0.0
  0
INSERT
  5
46
330
44
100
AcDbEntity
  8
1
100
AcDbBlockReference
  2
36-99__3
 10
519.75
 20
672.5000000000001
 30
0.0
  0
INSERT
  5
47
330
44
100
AcDbEntity
  8
1
100
AcDbBlockReference
  2
30-302-M11__4
 10
578.75
 20
686.7500000000002
 30
0.0
  0
ENDBLK
  5
49
330
44
100
AcDbEntity
  8
0
100
AcDbBlockEnd
  0
BLOCK
  5
4B
330
4A
100
AcDbEntity
  8
0
100
AcDbBlockBegin
  2
32-25__6
 70
     0
 71
     0
 10
266.4485900044969
 20
674.8720289807661
 30
0.0
  3
32-25__6
  1

  0
LINE
  5
133
330
4A
100
AcDbEntity
  8
1
  6
Continuous
 62
     7
100
AcDbLine
 10
525.0
 20
666.0000000000005
 30
0.0
 11
513.0000000000013
 21
666.0000000000005
 31
0.0
  0
LINE
  5
134
330
4A
100
AcDbEntity
  8
1
  6
Continuous
 62
     7
100
AcDbLine
 10
513.0
 20
672.0000000000005
 30
0.0
 11
513.0000000000013
 21
666.0000000000005
 31
0.0
  0
LINE
  5
135
330
4A
100
AcDbEntity
  8
1
  6
Continuous
 62
     7
100
AcDbLine
 10
537.0
 20
672.0000000000005
 30
0.0
 11
537.0
 21
666.0000000000005
 31
0.0
  0
LINE
  5
136
330
4A
100
AcDbEntity
  8
1
  6
Continuous
 62
     7
100
AcDbLine
 10
525.0
 20
667.0680954280756
 30
0.0
 11
525.0
 21
672.0000000000005
 31
0.0
  0
LINE
  5
137
330
4A
100
AcDbEntity
  8
1
  6
Continuous
 62
     7
100
AcDbLine
 10
537.0
 20
666.0000000000005
 30
0.0
 11
525.0
 21
666.0000000000005
 31
0.0
  0
LINE
  5
138
330
4A
100
AcDbEntity
  8
1
  6
Continuous
 62
     7
100
AcDbLine
 10
537.0
 20
672.0000000000005
 30
0.0
 11
525.0
 21
672.0000000000005
 31
0.0
  0
LINE
  5
139
330
4A
100
AcDbEntity
  8
1
  6
Continuous
 62
     7
100
AcDbLine
 10
525.0
 20
672.0000000000005
 30
0.0
 11
513.0
 21
672.0000000000005
 31
0.0
  0
ARC
  5
13A
330
4A
100
AcDbEntity
  8
1
  6
Continuous
 62
     7
100
AcDbCircle
 10
531.0000000000011
 20
683.3864744980756
 30
0.0
 40
17.38647449807543
100
AcDbArc
 50
-110.1876462290991
 51
-69.81235377090444
  0
ARC
  5
13B
330
4A
100
AcDbEntity
  8
1
  6
Continuous
 62
     7
100
AcDbCircle
 10
519.0
 20
683.3864744980756
 30
0.0
 40
17.38647449807504
100
AcDbArc
 50
-110.1876462290956
 51
-69.81235377090444
  0
ENDBLK
  5
4C
330
4A
100
AcDbEntity
  8
0
100
AcDbBlockEnd
  0
BLOCK
  5
4E
330
4D
100
AcDbEntity
  8
0
100
AcDbBlockBegin
  2
73-1-21_5-MS11__7
 70
     0
 71
     0
 10
279.0
 20
694.5988383552631
 30
0.0
  3
73-1-21_5-MS11__7
  1

  0
LINE
  5
13C
330
4D
100
AcDbEntity
  8
1
  6
Continuous
 62
     7
100
AcDbLine
 10
503.5
 20
674.5000000000009
 30
0.0
 11
503.5
 21
673.5000000000009
 31
0.0
  0
LINE
  5
13D
330
4D
100
AcDbEntity
  8
1
  6
Continuous
 62
     7
100
AcDbLine
 10
503.5
 20
673.5000000000009
 30
0.0
 11
506.7368329931491
 21
673.5000000000009
 31
0.0
  0
LINE
  5
13E
330
4D
100
AcDbEntity
  8
1
  6
Continuous
 62
     7
100
AcDbLine
 10
525.0
 20
674.5000000000009
 30
0.0
 11
503.5
 21
674.5000000000009
 31
0.0
  0
LINE
  5
13F
330
4D
100
AcDbEntity
  8
1
  6
Continuous
 62
     7
100
AcDbLine
 10
546.5000000000011
 20
674.5000000000009
 30
0.0
 11
525.0
 21
674.5000000000009
 31
0.0
  0
LINE
  5
140
330
4D
100
AcDbEntity
  8
1
  6
Continuous
 62
     7
100
AcDbLine
 10
543.2631670068511
 20
673.5000000000009
 30
0.0
 11
546.5000000000011
 21
673.5000000000009
 31
0.0
  0
LINE
  5
141
330
4D
100
AcDbEntity
  8
1
  6
Continuous
 62
     7
100
AcDbLine
 10
546.5000000000011
 20
673.5000000000009
 30
0.0
 11
546.5000000000011
 21
674.5000000000009
 31
0.0
  0
LINE
  5
142
330
4D
100
AcDbEntity
  8
1
  6
Continuous
 62
     7
100
AcDbLine
 10
506.7368329931491
 20
673.5000000000009
 30
0.0
 11
512.630831768709
 21
673.5000000000009
 31
0.0
  0
LINE
  5
143
330
4D
100
AcDbEntity
  8
1
  6
Continuous
 62
     7
100
AcDbLine
 10
513.3379385498949
 20
673.5000000000009
 30
0.0
 11
520.1190168130711
 21
673.5000000000009
 31
0.0
  0
LINE
  5
144
330
4D
100
AcDbEntity
  8
1
  6
Continuous
 62
     7
100
AcDbLine
 10
521.08494263936
 20
673.5000000000009
 30
0.0
 11
528.9150573606401
 21
673.5000000000009
 31
0.0
  0
LINE
  5
145
330
4D
100
AcDbEntity
  8
1
  6
Continuous
 62
     7
100
AcDbLine
 10
529.8809831869291
 20
673.5000000000009
 30
0.0
 11
536.6620614501051
 21
673.5000000000009
 31
0.0
  0
LINE
  5
146
330
4D
100
AcDbEntity
  8
1
  6
Continuous
 62
     7
100
AcDbLine
 10
537.369168231291
 20
673.5000000000009
 30
0.0
 11
543.2631670068511
 21
673.5000000000009
 31
0.0
  0
ARC
  5
147
330
4D
100
AcDbEntity
  8
1
  6
Continuous
 62
     7
100
AcDbCircle
 10
513.27518140846
 20
682.0000000000005
 30
0.0
 40
9.999999999999668
100
AcDbArc
 50
-115.8419327631692
 51
-90.0
  0
ARC
  5
148
330
4D
100
AcDbEntity
  8
1
  6
Continuous
 62
     7
100
AcDbCircle
 10
536.72481859154
 20
682.0000000000005
 30
0.0
 40
10.0
100
AcDbArc
 50
-90.0
 51
-64.15806723683053
  0
SPLINE
  5
149
330
4D
100
AcDbEntity
  8
1
  6
Continuous
 62
     7
100
AcDbSpline
210
0.0
220
0.0
230
1.0
 70
     8
 71
     3
 72
    31
 73
    27
 74
    25
 42
0.0000000001
 43
0.0000000001
 44
0.00000001
 40
0.0
 40
0.0
 40
0.0
 40
0.0
 40
0.2709659710334854
 40
0.5252266839304467
 40
1.065749190585482
 40
1.674599336098397
 40
2.32039460053218
 40
2.934363290976848
 40
3.290221352613901
 40
3.646480795373373
 40
4.682658409192251
 40
5.750236620427225
 40
6.775822655105993
 40
7.208802821953141
 40
7.646130370974675
 40
8.816358620110538
 40
10.01163910179226
 40
11.17461240778501
 40
11.65874765657669
 40
12.14501675690689
 40
13.08086599414815
 40
14.04099014689946
 40
14.98716393936282
 40
15.89608035137143
 40
16.1444897598807
 40
16.39628796124016
 40
16.39628796124016
 40
16.39628796124016
 40
16.39628796124016
 10
539.9660626527621
 20
672.5398553427767
 30
0.0
 10
539.8826660983665
 20
672.5055560598067
 30
0.0
 10
539.7210144505625
 20
672.4390720707405
 30
0.0
 10
539.3742953211136
 20
672.3419057756249
 30
0.0
 10
538.8941509260394
 20
672.4736876830048
 30
0.0
 10
538.4200132622676
 20
672.8407261784312
 30
0.0
 10
537.9415409206567
 20
673.2356739295756
 30
0.0
 10
537.4610213398428
 20
673.5078522746862
 30
0.0
 10
537.0151477406035
 20
673.556111821272
 30
0.0
 10
536.432566123358
 20
673.4827580824302
 30
0.0
 10
535.6918220887485
 20
673.0749594573608
 30
0.0
 10
534.8949035350191
 20
672.4189960494284
 30
0.0
 10
534.132287814069
 20
672.0006449125718
 30
0.0
 10
533.4967069309878
 20
671.9429880147891
 30
0.0
 10
532.8158835922185
 20
672.0113318000134
 30
0.0
 10
531.9489134274327
 20
672.4165414009738
 30
0.0
 10
530.9883385919264
 20
673.0793647615755
 30
0.0
 10
530.1116663461905
 20
673.4952172180945
 30
0.0
 10
529.3983068486987
 20
673.5617332627458
 30
0.0
 10
528.7614596717419
 20
673.5019530509912
 30
0.0
 10
528.0143137302445
 20
673.1972631891315
 30
0.0
 10
527.211772281105
 20
672.6958107235714
 30
0.0
 10
526.4061304116956
 20
672.2142697827385
 30
0.0
 10
525.720998429329
 20
671.9986763191512
 30
0.0
 10
525.2504554217126
 20
671.9905015819677
 30
0.0
 10
525.0838613528864
 20
671.9968195929606
 30
0.0
 10
525.0
 20
672.0000000000009
 30
0.0
 11
539.9660626527621
 21
672.5398553427767
 31
0.0
 11
539.7134190784327
 21
672.4419074902826
 31
0.0
 11
539.4660626527621
 21
672.3830576066607
 31
0.0
 11
538.9373393545876
 21
672.4953797067487
 31
0.0
 11
538.4321530227691
 21
672.835210944034
 31
0.0
 11
537.9196979005793
 21
673.2282011109677
 31
0.0
 11
537.369168231291
 21
673.5000000000009
 31
0.0
 11
537.0158169533993
 21
673.5421643741139
 31
0.0
 11
536.6620614501051
 21
673.5000000000009
 31
0.0
 11
535.7249850390592
 21
673.0577875541778
 31
0.0
 11
534.8584936698925
 21
672.434156297534
 31
0.0
 11
533.9293354358761
 21
672.0000000000009
 31
0.0
 11
533.4985071735125
 21
671.9568858117123
 31
0.0
 11
533.0633100320911
 21
672.0000000000009
 31
0.0
 11
531.9781312976282
 21
672.4379740509962
 31
0.0
 11
530.9576165129479
 21
673.0602641795842
 31
0.0
 11
529.8809831869291
 21
673.5000000000009
 31
0.0
 11
529.3990921463637
 21
673.5465614018846
 31
0.0
 11
528.9150573606401
 21
673.5000000000009
 31
0.0
 11
528.036367068226
 21
673.1779485058848
 31
0.0
 11
527.205994193522
 21
672.6959534046108
 31
0.0
 11
526.3763885622172
 21
672.2409816010318
 31
0.0
 11
525.5000000000011
 21
672.0000000000009
 31
0.0
 11
525.2516950999725
 21
671.9927950810081
 31
0.0
 11
525.0
 21
672.0000000000009
 31
0.0
  0
SPLINE
  5
14A
330
4D
100
AcDbEntity
  8
1
  6
Continuous
 62
     7
100
AcDbSpline
210
0.0
220
0.0
230
1.0
 70
     8
 71
     3
 72
    31
 73
    27
 74
    25
 42
0.0000000001
 43
0.0000000001
 44
0.00000001
 40
0.0
 40
0.0
 40
0.0
 40
0.0
 40
0.2709659710333793
 40
0.5252266839304514
 40
1.065749190585264
 40
1.674599336097896
 40
2.320394600531477
 40
2.934363290975892
 40
3.290221352612931
 40
3.646480795372389
 40
4.682658409191727
 40
5.750236620427044
 40
6.775822655106024
 40
7.208802821952584
 40
7.64613037097353
 40
8.816358620109456
 40
10.01163910179134
 40
11.17461240778408
 40
11.65874765657555
 40
12.14501675690576
 40
13.08086599414724
 40
14.0409901468988
 40
14.98716393936245
 40
15.89608035137136
 40
16.14448975988018
 40
16.39628796123895
 40
16.39628796123895
 40
16.39628796123895
 40
16.39628796123895
 10
510.0339373472391
 20
672.5398553427767
 30
0.0
 10
510.1173339016344
 20
672.5055560598067
 30
0.0
 10
510.2789855494385
 20
672.4390720707409
 30
0.0
 10
510.6257046788876
 20
672.3419057756245
 30
0.0
 10
511.1058490739616
 20
672.4736876830048
 30
0.0
 10
511.5799867377328
 20
672.8407261784312
 30
0.0
 10
512.0584590793435
 20
673.2356739295758
 30
0.0
 10
512.5389786601572
 20
673.5078522746862
 30
0.0
 10
512.9848522593966
 20
673.5561118212718
 30
0.0
 10
513.5674338766421
 20
673.4827580824305
 30
0.0
 10
514.3081779112521
 20
673.0749594573608
 30
0.0
 10
515.1050964649816
 20
672.418996049428
 30
0.0
 10
515.8677121859319
 20
672.0006449125719
 30
0.0
 10
516.5032930690129
 20
671.9429880147893
 30
0.0
 10
517.1841164077817
 20
672.0113318000134
 30
0.0
 10
518.0510865725677
 20
672.4165414009735
 30
0.0
 10
519.0116614080738
 20
673.0793647615757
 30
0.0
 10
519.8883336538094
 20
673.4952172180941
 30
0.0
 10
520.6016931513017
 20
673.5617332627459
 30
0.0
 10
521.2385403282582
 20
673.5019530509912
 30
0.0
 10
521.9856862697557
 20
673.1972631891314
 30
0.0
 10
522.7882277188955
 20
672.6958107235713
 30
0.0
 10
523.5938695883053
 20
672.2142697827386
 30
0.0
 10
524.2790015706715
 20
671.9986763191506
 30
0.0
 10
524.7495445782882
 20
671.990501581968
 30
0.0
 10
524.9161386471139
 20
671.9968195929606
 30
0.0
 10
525.0
 20
672.0000000000009
 30
0.0
 11
510.0339373472391
 21
672.5398553427767
 31
0.0
 11
510.2865809215683
 21
672.4419074902826
 31
0.0
 11
510.5339373472391
 21
672.3830576066607
 31
0.0
 11
511.0626606454133
 21
672.4953797067487
 31
0.0
 11
511.5678469772315
 21
672.835210944034
 31
0.0
 11
512.0803020994209
 21
673.2282011109678
 31
0.0
 11
512.630831768709
 21
673.5000000000009
 31
0.0
 11
512.9841830466007
 21
673.5421643741138
 31
0.0
 11
513.3379385498949
 21
673.5000000000009
 31
0.0
 11
514.2750149609412
 21
673.0577875541777
 31
0.0
 11
515.1415063301083
 21
672.4341562975337
 31
0.0
 11
516.0706645641251
 21
672.0000000000009
 31
0.0
 11
516.5014928264881
 21
671.9568858117125
 31
0.0
 11
516.9366899679089
 21
672.0000000000009
 31
0.0
 11
518.0218687023719
 21
672.4379740509961
 31
0.0
 11
519.0423834870524
 21
673.0602641795842
 31
0.0
 11
520.1190168130711
 21
673.5000000000009
 31
0.0
 11
520.6009078536363
 21
673.5465614018847
 31
0.0
 11
521.08494263936
 21
673.5000000000009
 31
0.0
 11
521.9636329317742
 21
673.1779485058848
 31
0.0
 11
522.7940058064785
 21
672.6959534046107
 31
0.0
 11
523.6236114377836
 21
672.2409816010317
 31
0.0
 11
524.5
 21
672.0000000000009
 31
0.0
 11
524.7483049000282
 21
671.9927950810082
 31
0.0
 11
525.0
 21
672.0000000000009
 31
0.0
  0
ARC
  5
14B
330
4D
100
AcDbEntity
  8
1
  6
Continuous
 62
     7
100
AcDbCircle
 10
506.7368329931491
 20
668.5000000000009
 30
0.0
 40
4.999999999999853
100
AcDbArc
 50
64.15806723683636
 51
90.0
  0
ARC
  5
14C
330
4D
100
AcDbEntity
  8
1
  6
Continuous
 62
     7
100
AcDbCircle
 10
543.2631670068511
 20
668.5000000000009
 30
0.0
 40
5.0
100
AcDbArc
 50
90.0
 51
115.8419327631648
  0
ENDBLK
  5
4F
330
4D
100
AcDbEntity
  8
0
100
AcDbBlockEnd
  0
BLOCK
  5
51
330
50
100
AcDbEntity
  8
0
100
AcDbBlockBegin
  2
92-53__8
 70
     0
 71
     0
 10
163.574689978551
 20
596.7052211851083
 30
0.0
  3
92-53__8
  1

  0
LINE
  5
14D
330
50
100
AcDbEntity
  8
1
  6
Continuous
 62
     7
100
AcDbLine
 10
543.750342327925
 20
674.5000000000005
 30
0.0
 11
543.750342327925
 21
676.0000000000005
 31
0.0
  0
LINE
  5
14E
330
50
100
AcDbEntity
  8
1
  6
Continuous
 62
     7
100
AcDbLine
 10
506.750342327925
 20
676.0000000000005
 30
0.0
 11
543.750342327925
 21
676.0000000000005
 31
0.0
  0
LINE
  5
14F
330
50
100
AcDbEntity
  8
1
  6
Continuous
 62
     7
100
AcDbLine
 10
506.750342327925
 20
676.0000000000005
 30
0.0
 11
506.750342327925
 21
674.5000000000005
 31
0.0
  0
ENDBLK
  5
52
330
50
100
AcDbEntity
  8
0
100
AcDbBlockEnd
  0
BLOCK
  5
54
330
53
100
AcDbEntity
  8
0
100
AcDbBlockBegin
  2
98-198__9
 70
     0
 71
     0
 10
118.5
 20
686.0
 30
0.0
  3
98-198__9
  1

  0
LINE
  5
150
330
53
100
AcDbEntity
  8
1
  6
Continuous
 62
     7
100
AcDbLine
 10
549.0
 20
686.0000000000005
 30
0.0
 11
506.5
 21
686.0000000000005
 31
0.0
  0
LINE
  5
151
330
53
100
AcDbEntity
  8
1
  6
Continuous
 62
     7
100
AcDbLine
 10
506.5
 20
686.0000000000005
 30
0.0
 11
506.5
 21
688.9999999999992
 31
0.0
  0
LINE
  5
152
330
53
100
AcDbEntity
  8
1
  6
Continuous
 62
     7
100
AcDbLine
 10
549.0
 20
689.0000000000005
 30
0.0
 11
549.0
 21
686.0000000000005
 31
0.0
  0
LINE
  5
153
330
53
100
AcDbEntity
  8
1
  6
Continuous
 62
     7
100
AcDbLine
 10
506.5
 20
688.9999999999992
 30
0.0
 11
549.0
 21
689.0000000000005
 31
0.0
  0
ENDBLK
  5
55
330
53
100
AcDbEntity
  8
0
100
AcDbBlockEnd
  0
BLOCK
  5
57
330
56
100
AcDbEntity
  8
0
100
AcDbBlockBegin
  2
____10
 70
     0
 71
     0
 10
561.2500000000011
 20
676.0000000000005
 30
0.0
  3
____10
  1

  0
LINE
  5
154
102
{ACAD_REACTORS
330
170
330
170
102
}
330
56
100
AcDbEntity
  8
1
  6
PHANTOM
 62
     4
100
AcDbLine
 10
398.02
 20
559.0
 30
0.0
 11
405.1279862832002
 21
559.0
 31
0.0
  0
LINE
  5
155
102
{ACAD_REACTORS
330
170
330
170
102
}
330
56
100
AcDbEntity
  8
1
  6
PHANTOM
 62
     2
100
AcDbLine
 10
493.9400661641445
 20
686.0000000000005
 30
0.0
 11
486.9400661641445
 21
686.0000000000005
 31
0.0
  0
LINE
  5
156
330
56
100
AcDbEntity
  8
1
  6
PHANTOM
 62
     2
100
AcDbLine
 10
486.9400661641445
 20
686.0000000000005
 30
0.0
 11
460.7500000000014
 21
686.0000000000005
 31
0.0
  0
LINE
  5
157
330
56
100
AcDbEntity
  8
1
  6
PHANTOM
 62
     2
100
AcDbLine
 10
439.0438595253354
 20
706.0000000000002
 30
0.0
 11
423.9400661641444
 21
706.0000000000002
 31
0.0
  0
LINE
  5
158
330
56
100
AcDbEntity
  8
1
  6
PHANTOM
 62
     2
100
AcDbLine
 10
423.9400661641444
 20
706.0000000000002
 30
0.0
 11
421.3173199711157
 21
691.125667198005
 31
0.0
  0
LINE
  5
159
102
{ACAD_REACTORS
330
170
330
170
102
}
330
56
100
AcDbEntity
  8
1
  6
PHANTOM
 62
     2
100
AcDbLine
 10
486.9400661641445
 20
688.0000000000003
 30
0.0
 11
486.9400661641445
 21
686.0000000000005
 31
0.0
  0
LINE
  5
15A
102
{ACAD_REACTORS
330
170
330
170
102
}
330
56
100
AcDbEntity
  8
1
  6
PHANTOM
 62
     2
100
AcDbLine
 10
439.0438595253355
 20
699.0000000000002
 30
0.0
 11
475.9400661641445
 21
699.0000000000003
 31
0.0
  0
LINE
  5
15B
102
{ACAD_REACTORS
330
170
330
170
102
}
330
56
100
AcDbEntity
  8
1
  6
PHANTOM
 62
     2
100
AcDbLine
 10
405.1279862832002
 20
559.0
 30
0.0
 11
428.2109742422011
 21
689.9101299543364
 31
0.0
  0
LINE
  5
15C
102
{ACAD_REACTORS
330
170
330
170
102
}
330
56
100
AcDbEntity
  8
1
  6
PHANTOM
 62
     2
100
AcDbLine
 10
421.3173199711157
 20
691.125667198005
 30
0.0
 11
398.02
 21
559.0
 31
0.0
  0
LINE
  5
15D
102
{ACAD_REACTORS
330
170
330
170
102
}
330
56
100
AcDbEntity
  8
1
  6
PHANTOM
 62
     2
100
AcDbLine
 10
475.9400661641445
 20
706.0000000000003
 30
0.0
 11
439.0438595253354
 21
706.0000000000002
 31
0.0
  0
LINE
  5
15E
102
{ACAD_REACTORS
330
170
330
170
102
}
330
56
100
AcDbEntity
  8
1
  6
PHANTOM
 62
     2
100
AcDbLine
 10
493.9400661641445
 20
686.0000000000005
 30
0.0
 11
493.9400661641445
 21
688.0000000000003
 31
0.0
  0
LINE
  5
15F
102
{ACAD_REACTORS
330
171
330
171
102
}
330
56
100
AcDbEntity
  8
1
  6
PHANTOM
 62
     4
100
AcDbLine
 10
600.0
 20
839.0000000000005
 30
0.0
 11
585.0
 21
839.0000000000005
 31
0.0
  0
LINE
  5
160
102
{ACAD_REACTORS
330
171
330
171
102
}
330
56
100
AcDbEntity
  8
1
  6
PHANTOM
 62
     4
100
AcDbLine
 10
600.0
 20
839.0000000000005
 30
0.0
 11
600.0
 21
676.0000000000005
 31
0.0
  0
LINE
  5
161
102
{ACAD_REACTORS
330
171
330
171
102
}
330
56
100
AcDbEntity
  8
1
  6
PHANTOM
 62
     2
100
AcDbLine
 10
585.0
 20
839.0000000000005
 30
0.0
 11
585.0
 21
686.0000000000005
 31
0.0
  0
LINE
  5
162
102
{ACAD_REACTORS
330
171
330
171
102
}
330
56
100
AcDbEntity
  8
1
  6
PHANTOM
 62
     2
100
AcDbLine
 10
536.5
 20
676.0000000000005
 30
0.0
 11
600.0
 21
676.0000000000005
 31
0.0
  0
LINE
  5
163
102
{ACAD_REACTORS
330
171
330
171
102
}
330
56
100
AcDbEntity
  8
1
  6
PHANTOM
 62
     2
100
AcDbLine
 10
585.0
 20
686.0000000000005
 30
0.0
 11
536.5
 21
686.0000000000005
 31
0.0
  0
LINE
  5
164
330
56
100
AcDbEntity
  8
1
  6
PHANTOM
 62
     2
100
AcDbLine
 10
513.5
 20
686.0000000000005
 30
0.0
 11
493.9400661641445
 21
686.0000000000005
 31
0.0
  0
LINE
  5
165
330
56
100
AcDbEntity
  8
1
  6
PHANTOM
 62
     2
100
AcDbLine
 10
460.7500000000014
 20
686.0000000000005
 30
0.0
 11
460.7500000000013
 21
676.0000000000005
 31
0.0
  0
LINE
  5
166
330
56
100
AcDbEntity
  8
1
  6
PHANTOM
 62
     2
100
AcDbLine
 10
460.7500000000013
 20
676.0000000000005
 30
0.0
 11
513.5
 21
676.0000000000005
 31
0.0
  0
LINE
  5
167
330
56
100
AcDbEntity
  8
1
  6
PHANTOM
 62
     2
100
AcDbLine
 10
513.5
 20
676.0000000000005
 30
0.0
 11
513.5
 21
686.0000000000005
 31
0.0
  0
LINE
  5
168
102
{ACAD_REACTORS
330
171
330
171
102
}
330
56
100
AcDbEntity
  8
1
  6
PHANTOM
 62
     2
100
AcDbLine
 10
536.5
 20
676.0000000000005
 30
0.0
 11
536.5
 21
686.0000000000005
 31
0.0
  0
ARC
  5
169
102
{ACAD_REACTORS
330
170
330
170
102
}
330
56
100
AcDbEntity
  8
1
  6
PHANTOM
 62
     2
100
AcDbCircle
 10
475.9400661641445
 20
688.0000000000003
 30
0.0
 40
11.0
100
AcDbArc
 50
0.0
 51
90.0
  0
ARC
  5
16A
102
{ACAD_REACTORS
330
170
330
170
102
}
330
56
100
AcDbEntity
  8
1
  6
PHANTOM
 62
     2
100
AcDbCircle
 10
475.9400661641445
 20
688.0000000000003
 30
0.0
 40
18.0
100
AcDbArc
 50
0.0
 51
90.0
  0
ARC
  5
16C
102
{ACAD_REACTORS
330
170
330
170
102
}
330
56
100
AcDbEntity
  8
1
  6
PHANTOM
 62
     2
100
AcDbCircle
 10
439.0438595253355
 20
688.0000000000002
 30
0.0
 40
11.0
100
AcDbArc
 50
90.0
 51
170.0000000000004
  0
ARC
  5
16D
102
{ACAD_REACTORS
330
170
330
170
102
}
330
56
100
AcDbEntity
  8
1
  6
PHANTOM
 62
     2
100
AcDbCircle
 10
439.0438595253355
 20
688.0000000000002
 30
0.0
 40
18.0
100
AcDbArc
 50
90.00000000000037
 51
170.0
  0
MTEXT
  5
16F
102
{ACAD_REACTORS
330
171
330
171
102
}
330
56
100
AcDbEntity
  8
1
 62
     7
100
AcDbMText
 10
583.155
 20
799.0000000000005
 30
0.0
 40
10.5
 41
0.0
 71
     4
 72
     1
  1
壁\P仕\P上\Pげ\P面
  7
CONVERTER_1
 73
     1
 44
0.7202881152461
  0
HATCH
  5
170
330
56
100
AcDbEntity
  8
1
  6
Continuous
 62
     4
100
AcDbHatch
 10
0.0
 20
0.0
 30
0.0
210
0.0
220
0.0
230
1.0
  2
CUSTOM0
 70
     0
 71
     1
 91
        1
 92
        1
 93
       12
 72
     1
 10
398.02
 20
559.0
 11
405.1279862832002
 21
559.0
 72
     1
 10
405.1279862832002
 20
559.0
 11
428.2109742422011
 21
689.9101299543364
 72
     2
 10
439.0438595253355
 20
688.0000000000002
 40
11.0
 50
189.9999999999996
 51
270.0
 73
     0
 72
     1
 10
439.0438595253355
 20
699.0000000000002
 11
475.9400661641445
 21
699.0000000000003
 72
     2
 10
475.9400661641445
 20
688.0000000000003
 40
11.0
 50
270.0
 51
360.0
 73
     0
 72
     1
 10
486.9400661641445
 20
688.0000000000003
 11
486.9400661641445
 21
686.0000000000005
 72
     1
 10
486.9400661641445
 20
686.0000000000005
 11
493.9400661641445
 21
686.0000000000005
 72
     1
 10
493.9400661641445
 20
686.0000000000005
 11
493.9400661641445
 21
688.0000000000003
 72
     2
 10
475.9400661641445
 20
688.0000000000003
 40
18.0
 50
0.0
 51
90.0
 73
     1
 72
     1
 10
475.9400661641445
 20
706.0000000000003
 11
439.0438595253354
 21
706.0000000000002
 72
     2
 10
439.0438595253355
 20
688.0000000000002
 40
18.0
 50
90.00000000000037
 51
170.0
 73
     1
 72
     1
 10
421.3173199711157
 20
691.125667198005
 11
398.02
 21
559.0
 97
       12
330
16D
330
15D
330
16A
330
15E
330
155
330
159
330
169
330
15A
330
16C
330
15B
330
154
330
15C
 75
     1
 76
     2
 52
315.0
 41
15.0
 77
     0
 78
     2
 53
315.0
 43
0.0
 44
0.0
 45
0.000000000000005
 46
21.21320343559642
 79
     0
 53
315.0
 43
-3.535533905932738
 44
-3.535533905932736
 45
0.000000000000005
 46
21.21320343559642
 79
     0
 98
        1
 10
0.0
 20
0.0
  0
HATCH
  5
171
330
56
100
AcDbEntity
  8
1
  6
Continuous
 62
     4
100
AcDbHatch
 10
0.0
 20
0.0
 30
0.0
210
0.0
220
0.0
230
1.0
  2
CUSTOM1
 70
     0
 71
     1
 91
        2
 92
        1
 93
        6
 72
     1
 10
600.0
 20
839.0000000000005
 11
600.0
 21
676.0000000000005
 72
     1
 10
600.0
 20
676.0000000000005
 11
536.5
 21
676.0000000000005
 72
     1
 10
536.5
 20
676.0000000000005
 11
536.5
 21
686.0000000000005
 72
     1
 10
536.5
 20
686.0000000000005
 11
585.0
 21
686.0000000000005
 72
     1
 10
585.0
 20
686.0000000000005
 11
585.0
 21
839.0000000000005
 72
     1
 10
585.0
 20
839.0000000000005
 11
600.0
 21
839.0000000000005
 97
        6
330
160
330
162
330
168
330
163
330
161
330
15F
 92
       16
 93
        4
 72
     1
 10
580.81875
 20
768.4359243697484
 11
604.18125
 21
768.4359243697484
 72
     1
 10
604.18125
 20
768.4359243697484
 11
604.18125
 21
829.5640756302526
 72
     1
 10
604.18125
 20
829.5640756302526
 11
580.81875
 21
829.5640756302526
 72
     1
 10
580.81875
 20
829.5640756302526
 11
580.81875
 21
768.4359243697484
 97
        1
330
16F
 75
     1
 76
     2
 52
45.0
 41
15.0
 77
     0
 78
     2
 53
45.0
 43
0.0
 44
0.0
 45
-21.21320343559642
 46
0.0000000000000017
 79
     0
 53
45.0
 43
3.535533905932737
 44
-3.535533905932738
 45
-21.21320343559642
 46
0.0000000000000017
 79
     0
 98
        1
 10
0.0
 20
0.0
  0
HATCH
  5
172
330
56
100
AcDbEntity
  8
1
  6
Continuous
 62
     4
100
AcDbHatch
 10
0.0
 20
0.0
 30
0.0
210
0.0
220
0.0
230
1.0
  2
CUSTOM2
 70
     0
 71
     0
 91
        1
 92
        1
 93
        6
 72
     1
 10
460.7500000000014
 20
686.0000000000005
 11
486.9400661641445
 21
686.0000000000005
 72
     1
 10
486.9400661641445
 20
686.0000000000005
 11
493.9400661641445
 21
686.0000000000005
 72
     1
 10
493.9400661641445
 20
686.0000000000005
 11
513.5
 21
686.0000000000005
 72
     1
 10
513.5
 20
686.0000000000005
 11
513.5
 21
676.0000000000005
 72
     1
 10
513.5
 20
676.0000000000005
 11
460.7500000000013
 21
676.0000000000005
 72
     1
 10
460.7500000000013
 20
676.0000000000005
 11
460.7500000000014
 21
686.0000000000005
 97
        0
 75
     1
 76
     2
 52
45.0
 41
15.0
 77
     0
 78
     2
 53
45.0
 43
0.0
 44
0.0
 45
-21.21320343559642
 46
0.0000000000000017
 79
     0
 53
45.0
 43
3.535533905932737
 44
-3.535533905932738
 45
-21.21320343559642
 46
0.0000000000000017
 79
     0
 98
        1
 10
0.0
 20
0.0
  0
ENDBLK
  5
58
330
56
100
AcDbEntity
  8
0
100
AcDbBlockEnd
  0
BLOCK
  5
5A
330
59
100
AcDbEntity
  8
0
100
AcDbBlockBegin
  2
32-16__11
 70
     0
 71
     0
 10
279.5
 20
630.0
 30
0.0
  3
32-16__11
  1

  0
LINE
  5
173
330
59
100
AcDbEntity
  8
1
  6
Continuous
 62
     7
100
AcDbLine
 10
518.2500000000011
 20
640.0000000000005
 30
0.0
 11
525.0
 21
640.0000000000005
 31
0.0
  0
LINE
  5
174
330
59
100
AcDbEntity
  8
1
  6
Continuous
 62
     7
100
AcDbLine
 10
512.999995548759
 20
640.0000000000005
 30
0.0
 11
518.2500000000011
 21
640.0000000000005
 31
0.0
  0
LINE
  5
175
330
59
100
AcDbEntity
  8
1
  6
Continuous
 62
     7
100
AcDbLine
 10
512.999995548759
 20
626.0000000000005
 30
0.0
 11
525.0
 21
626.0000000000005
 31
0.0
  0
LINE
  5
176
330
59
100
AcDbEntity
  8
1
  6
Continuous
 62
     7
100
AcDbLine
 10
525.0
 20
626.0000000000005
 30
0.0
 11
537.0000044512422
 21
626.0000000000005
 31
0.0
  0
LINE
  5
177
330
59
100
AcDbEntity
  8
1
  6
Continuous
 62
     7
100
AcDbLine
 10
531.75
 20
640.0000000000005
 30
0.0
 11
537.0000044512422
 21
640.0000000000005
 31
0.0
  0
LINE
  5
178
330
59
100
AcDbEntity
  8
1
  6
Continuous
 62
     7
100
AcDbLine
 10
525.0
 20
640.0000000000005
 30
0.0
 11
531.75
 21
640.0000000000005
 31
0.0
  0
LINE
  5
179
330
59
100
AcDbEntity
  8
1
  6
Continuous
 62
     7
100
AcDbLine
 10
537.0
 20
626.0000000000005
 30
0.0
 11
537.0
 21
640.0000000000005
 31
0.0
  0
LINE
  5
17A
330
59
100
AcDbEntity
  8
1
  6
Continuous
 62
     7
100
AcDbLine
 10
513.0
 20
626.0000000000005
 30
0.0
 11
513.0
 21
640.0000000000005
 31
0.0
  0
LINE
  5
17B
330
59
100
AcDbEntity
  8
1
  6
Continuous
 62
     7
100
AcDbLine
 10
525.0
 20
627.0680954280756
 30
0.0
 11
525.0
 21
638.9319045719249
 31
0.0
  0
ARC
  5
17C
330
59
100
AcDbEntity
  8
1
  6
Continuous
 62
     7
100
AcDbCircle
 10
531.0000000000011
 20
643.3864744980729
 30
0.0
 40
17.38647449807288
100
AcDbArc
 50
-110.1876462291022
 51
-69.81235377090133
  0
ARC
  5
17D
330
59
100
AcDbEntity
  8
1
  6
Continuous
 62
     7
100
AcDbCircle
 10
519.0
 20
643.3864744980729
 30
0.0
 40
17.38647449807248
100
AcDbArc
 50
-110.1876462290987
 51
-69.81235377090133
  0
ARC
  5
17E
330
59
100
AcDbEntity
  8
1
  6
Continuous
 62
     7
100
AcDbCircle
 10
519.0000000000011
 20
622.613525501934
 30
0.0
 40
17.38647449806611
100
AcDbArc
 50
69.8123537708976
 51
110.1876462291056
  0
ARC
  5
17F
330
59
100
AcDbEntity
  8
1
  6
Continuous
 62
     7
100
AcDbCircle
 10
531.0
 20
622.613525501934
 30
0.0
 40
17.38647449806651
100
AcDbArc
 50
69.81235377089409
 51
110.1876462291059
  0
ENDBLK
  5
5B
330
59
100
AcDbEntity
  8
0
100
AcDbBlockEnd
  0
BLOCK
  5
5D
330
5C
100
AcDbEntity
  8
0
100
AcDbBlockBegin
  2
35-276__12
 70
     0
 71
     0
 10
552.5574083019772
 20
709.245576420195
 30
0.0
  3
35-276__12
  1

  0
LINE
  5
180
330
5C
100
AcDbEntity
  8
1
  6
Continuous
 62
     2
100
AcDbLine
 10
515.6845
 20
676.0000000000005
 30
0.0
 11
515.6845
 21
685.0
 31
0.0
  0
LINE
  5
181
330
5C
100
AcDbEntity
  8
1
  6
Continuous
 62
     2
100
AcDbLine
 10
534.3154999999999
 20
676.0000000000005
 30
0.0
 11
534.3154999999999
 21
684.9873569616052
 31
0.0
  0
LINE
  5
182
330
5C
100
AcDbEntity
  8
0
  6
Continuous
 62
     2
100
AcDbLine
 10
534.3154999999999
 20
684.9873569616052
 30
0.0
 11
534.9001497308104
 21
686.0000000000005
 31
0.0
  0
LINE
  5
183
330
5C
100
AcDbEntity
  8
0
  6
Continuous
 62
     7
100
AcDbLine
 10
515.6845
 20
685.0
 30
0.0
 11
514.5225000000002
 21
685.0
 31
0.0
  0
LINE
  5
184
330
5C
100
AcDbEntity
  8
0
  6
Continuous
 62
     7
100
AcDbLine
 10
534.3154999999999
 20
684.9873569616052
 30
0.0
 11
535.4775
 21
684.9873569616052
 31
0.0
  0
LINE
  5
185
330
5C
100
AcDbEntity
  8
1
  6
Continuous
 62
     7
100
AcDbLine
 10
515.6845
 20
684.9873569616052
 30
0.0
 11
534.3154999999999
 21
684.9873569616052
 31
0.0
  0
LINE
  5
186
330
5C
100
AcDbEntity
  8
1
  6
Continuous
 62
     7
100
AcDbLine
 10
535.4775
 20
666.0000000000005
 30
0.0
 11
535.4775
 21
640.0000000000005
 31
0.0
  0
LINE
  5
187
330
5C
100
AcDbEntity
  8
1
  6
Continuous
 62
     7
100
AcDbLine
 10
514.5225000000002
 20
666.0000000000005
 30
0.0
 11
514.5225000000002
 21
640.0000000000005
 31
0.0
  0
LINE
  5
188
330
5C
100
AcDbEntity
  8
1
  6
Continuous
 62
     2
100
AcDbLine
 10
534.3154999999999
 20
640.0000000000005
 30
0.0
 11
534.3154999999999
 21
666.0000000000005
 31
0.0
  0
LINE
  5
189
330
5C
100
AcDbEntity
  8
1
  6
Continuous
 62
     2
100
AcDbLine
 10
515.6845
 20
640.0000000000005
 30
0.0
 11
515.6845
 21
666.3190506965111
 31
0.0
  0
LINE
  5
18A
330
5C
100
AcDbEntity
  8
1
  6
Continuous
 62
     7
100
AcDbLine
 10
535.4775
 20
686.0000000000005
 30
0.0
 11
535.4775
 21
676.0000000000005
 31
0.0
  0
LINE
  5
18B
330
5C
100
AcDbEntity
  8
0
  6
Continuous
 62
     2
100
AcDbLine
 10
515.1071497308101
 20
686.0000000000005
 30
0.0
 11
515.6845
 21
685.0
 31
0.0
  0
LINE
  5
18C
330
5C
100
AcDbEntity
  8
1
  6
Continuous
 62
     7
100
AcDbLine
 10
514.5225000000002
 20
686.0000000000005
 30
0.0
 11
514.5225000000002
 21
676.0000000000005
 31
0.0
  0
ENDBLK
  5
5E
330
5C
100
AcDbEntity
  8
0
100
AcDbBlockEnd
  0
BLOCK
  5
60
330
5F
100
AcDbEntity
  8
0
100
AcDbBlockBegin
  2
K7590-0-M1__13
 70
     0
 71
     0
 10
-319.3680853867004
 20
-80.39706618355712
 30
0.0
  3
K7590-0-M1__13
  1

  0
LINE
  5
18D
330
5F
100
AcDbEntity
  8
1
  6
Continuous
 62
     7
100
AcDbLine
 10
505.0
 20
752.0
 30
0.0
 11
505.0
 21
689.0000000000005
 31
0.0
  0
LINE
  5
18E
330
5F
100
AcDbEntity
  8
1
  6
Continuous
 62
     7
100
AcDbLine
 10
505.0
 20
689.0000000000005
 30
0.0
 11
550.0
 21
689.0000000000005
 31
0.0
  0
LINE
  5
18F
330
5F
100
AcDbEntity
  8
1
  6
Continuous
 62
     7
100
AcDbLine
 10
550.0
 20
689.0000000000005
 30
0.0
 11
550.0
 21
747.0
 31
0.0
  0
ARC
  5
190
330
5F
100
AcDbEntity
  8
1
  6
Continuous
 62
     7
100
AcDbCircle
 10
525.0
 20
747.0
 30
0.0
 40
25.0
100
AcDbArc
 50
0.0
 51
90.0
  0
ARC
  5
191
330
5F
100
AcDbEntity
  8
1
  6
Continuous
 62
     7
100
AcDbCircle
 10
525.0
 20
752.0
 30
0.0
 40
20.0
100
AcDbArc
 50
90.0
 51
180.0
  0
CIRCLE
  5
192
330
5F
100
AcDbEntity
  8
1
  6
Continuous
 62
     7
100
AcDbCircle
 10
525.0
 20
714.5000000000002
 30
0.0
 40
9.750000000000455
  0
CIRCLE
  5
193
330
5F
100
AcDbEntity
  8
1
  6
Continuous
 62
     7
100
AcDbCircle
 10
525.0
 20
714.5000000000002
 30
0.0
 40
10.25000000000046
  0
ENDBLK
  5
61
330
5F
100
AcDbEntity
  8
0
100
AcDbBlockEnd
  0
BLOCK
  5
63
330
62
100
AcDbEntity
  8
0
100
AcDbBlockBegin
  2
84-364-M21__14
 70
     0
 71
     0
 10
430.4999999999991
 20
609.5
 30
0.0
  3
84-364-M21__14
  1

  0
CIRCLE
  5
194
330
62
100
AcDbEntity
  8
1
  6
Continuous
 62
     7
100
AcDbCircle
 10
525.0
 20
752.0
 30
0.0
 40
20.0
  0
ENDBLK
  5
64
330
62
100
AcDbEntity
  8
0
100
AcDbBlockEnd
  0
BLOCK
  5
66
330
65
100
AcDbEntity
  8
0
100
AcDbBlockBegin
  2
98-201__15
 70
     0
 71
     0
 10
118.5
 20
689.0
 30
0.0
  3
98-201__15
  1

  0
LINE
  5
195
330
65
100
AcDbEntity
  8
1
  6
Continuous
 62
     7
100
AcDbLine
 10
556.0
 20
686.0000000000005
 30
0.0
 11
556.0
 21
689.0000000000001
 31
0.0
  0
LINE
  5
196
330
65
100
AcDbEntity
  8
1
  6
Continuous
 62
     7
100
AcDbLine
 10
556.0
 20
686.0000000000005
 30
0.0
 11
551.0
 21
686.0000000000005
 31
0.0
  0
LINE
  5
197
330
65
100
AcDbEntity
  8
1
  6
Continuous
 62
     7
100
AcDbLine
 10
551.0
 20
689.0000000000001
 30
0.0
 11
556.0
 21
689.0000000000001
 31
0.0
  0
LINE
  5
198
330
65
100
AcDbEntity
  8
1
  6
Continuous
 62
     7
100
AcDbLine
 10
551.0
 20
686.0000000000005
 30
0.0
 11
551.0
 21
689.0000000000001
 31
0.0
  0
ENDBLK
  5
67
330
65
100
AcDbEntity
  8
0
100
AcDbBlockEnd
  0
BLOCK
  5
69
330
68
100
AcDbEntity
  8
0
100
AcDbBlockBegin
  2
92-53__16
 70
     0
 71
     0
 10
49.2015869268243
 20
115.8160032925198
 30
0.0
  3
92-53__16
  1

  0
LINE
  5
199
330
68
100
AcDbEntity
  8
1
  6
Continuous
 62
     7
100
AcDbLine
 10
129.0000000000002
 20
301.0
 30
0.0
 11
165.9999999999998
 21
301.0
 31
0.0
  0
LINE
  5
19A
330
68
100
AcDbEntity
  8
1
  6
Continuous
 62
     7
100
AcDbLine
 10
165.9999999999998
 20
299.5
 30
0.0
 11
165.9999999999998
 21
301.0
 31
0.0
  0
LINE
  5
19B
330
68
100
AcDbEntity
  8
1
  6
Continuous
 62
     7
100
AcDbLine
 10
129.0000000000002
 20
301.0
 30
0.0
 11
129.0000000000002
 21
299.5
 31
0.0
  0
ENDBLK
  5
6A
330
68
100
AcDbEntity
  8
0
100
AcDbBlockEnd
  0
BLOCK
  5
6C
330
6B
100
AcDbEntity
  8
0
100
AcDbBlockBegin
  2
73-1-21_5-MS11__17
 70
     0
 71
     0
 10
149.742953337535
 20
316.3871285355417
 30
0.0
  3
73-1-21_5-MS11__17
  1

  0
LINE
  5
19C
330
6B
100
AcDbEntity
  8
1
  6
Continuous
 62
     7
100
AcDbLine
 10
125.9999999999996
 20
299.5000000000001
 30
0.0
 11
125.9999999999996
 21
298.5000000000001
 31
0.0
  0
LINE
  5
19D
330
6B
100
AcDbEntity
  8
1
  6
Continuous
 62
     7
100
AcDbLine
 10
125.9999999999996
 20
298.5000000000001
 30
0.0
 11
129.2368329931486
 21
298.5000000000001
 31
0.0
  0
LINE
  5
19E
330
6B
100
AcDbEntity
  8
1
  6
Continuous
 62
     7
100
AcDbLine
 10
135.7751814084596
 20
297.0000000000002
 30
0.0
 11
138.5706645641243
 21
297.0000000000002
 31
0.0
  0
LINE
  5
19F
330
6B
100
AcDbEntity
  8
1
  6
Continuous
 62
     7
100
AcDbLine
 10
139.4366899679087
 20
297.0000000000002
 30
0.0
 11
146.9999999916801
 21
297.0000000000002
 31
0.0
  0
LINE
  5
1A0
330
6B
100
AcDbEntity
  8
1
  6
Continuous
 62
     7
100
AcDbLine
 10
147.4999999999999
 20
299.5000000000001
 30
0.0
 11
125.9999999999996
 21
299.5000000000001
 31
0.0
  0
LINE
  5
1A1
330
6B
100
AcDbEntity
  8
1
  6
Continuous
 62
     7
100
AcDbLine
 10
168.9999999999999
 20
299.5000000000001
 30
0.0
 11
147.4999999999999
 21
299.5000000000001
 31
0.0
  0
LINE
  5
1A2
330
6B
100
AcDbEntity
  8
1
  6
Continuous
 62
     7
100
AcDbLine
 10
148.0000000083195
 20
297.0000000000002
 30
0.0
 11
155.5633100320908
 21
297.0000000000002
 31
0.0
  0
LINE
  5
1A3
330
6B
100
AcDbEntity
  8
1
  6
Continuous
 62
     7
100
AcDbLine
 10
156.4293354358755
 20
297.0000000000002
 30
0.0
 11
159.22481859154
 21
297.0000000000002
 31
0.0
  0
LINE
  5
1A4
330
6B
100
AcDbEntity
  8
1
  6
Continuous
 62
     7
100
AcDbLine
 10
165.7631670068511
 20
298.5000000000001
 30
0.0
 11
168.9999999999999
 21
298.5000000000001
 31
0.0
  0
LINE
  5
1A5
330
6B
100
AcDbEntity
  8
1
  6
Continuous
 62
     7
100
AcDbLine
 10
168.9999999999999
 20
298.5000000000001
 30
0.0
 11
168.9999999999999
 21
299.5000000000001
 31
0.0
  0
LINE
  5
1A6
330
6B
100
AcDbEntity
  8
1
  6
Continuous
 62
     7
100
AcDbLine
 10
129.2368329931486
 20
298.5000000000001
 30
0.0
 11
135.1308317687085
 21
298.5000000000001
 31
0.0
  0
LINE
  5
1A7
330
6B
100
AcDbEntity
  8
1
  6
Continuous
 62
     7
100
AcDbLine
 10
135.8379385498951
 20
298.5000000000001
 30
0.0
 11
142.6190168130704
 21
298.5000000000001
 31
0.0
  0
LINE
  5
1A8
330
6B
100
AcDbEntity
  8
1
  6
Continuous
 62
     7
100
AcDbLine
 10
143.5849426393595
 20
298.5000000000001
 30
0.0
 11
151.4150573606401
 21
298.5000000000001
 31
0.0
  0
LINE
  5
1A9
330
6B
100
AcDbEntity
  8
1
  6
Continuous
 62
     7
100
AcDbLine
 10
152.3809831869291
 20
298.5000000000001
 30
0.0
 11
159.1620614501045
 21
298.5000000000001
 31
0.0
  0
LINE
  5
1AA
330
6B
100
AcDbEntity
  8
1
  6
Continuous
 62
     7
100
AcDbLine
 10
159.869168231291
 20
298.5000000000001
 30
0.0
 11
165.7631670068511
 21
298.5000000000001
 31
0.0
  0
ARC
  5
1AB
330
6B
100
AcDbEntity
  8
1
  6
Continuous
 62
     7
100
AcDbCircle
 10
135.7751814084596
 20
307.0000000000001
 30
0.0
 40
10.0
100
AcDbArc
 50
-115.8419327631672
 51
-90.0
  0
ARC
  5
1AC
330
6B
100
AcDbEntity
  8
1
  6
Continuous
 62
     7
100
AcDbCircle
 10
159.22481859154
 20
307.0000000000001
 30
0.0
 40
9.999999999999886
100
AcDbArc
 50
-90.0
 51
-64.15806723683372
  0
SPLINE
  5
1AD
330
6B
100
AcDbEntity
  8
1
  6
Continuous
 62
     7
100
AcDbSpline
210
0.0
220
0.0
230
1.0
 70
     8
 71
     3
 72
    31
 73
    27
 74
    25
 42
0.0000000001
 43
0.0000000001
 44
0.00000001
 40
0.0
 40
0.0
 40
0.0
 40
0.0
 40
0.2709659710335264
 40
0.5252266839305273
 40
1.06574919058536
 40
1.674599336098047
 40
2.320394600531705
 40
2.934363290976221
 40
3.290221352613528
 40
3.646480795373281
 40
4.682658409192235
 40
5.750236620427196
 40
6.775822655105868
 40
7.208802821952817
 40
7.646130370974239
 40
8.816358620110002
 40
10.01163910179165
 40
11.17461240778434
 40
11.65874765657595
 40
12.14501675690612
 40
13.08086599414763
 40
14.04099014689932
 40
14.98716393936295
 40
15.89608035137184
 40
16.14448975988066
 40
16.39628796123943
 40
16.39628796123943
 40
16.39628796123943
 40
16.39628796123943
 10
162.4660626527614
 20
297.5398553427766
 30
0.0
 10
162.3826660983659
 20
297.5055560598067
 30
0.0
 10
162.2210144505619
 20
297.4390720707405
 30
0.0
 10
161.874295321113
 20
297.3419057756241
 30
0.0
 10
161.3941509260389
 20
297.4736876830042
 30
0.0
 10
160.9200132622674
 20
297.8407261784304
 30
0.0
 10
160.4415409206567
 20
298.2356739295749
 30
0.0
 10
159.9610213398426
 20
298.5078522746853
 30
0.0
 10
159.5151477406033
 20
298.5561118212712
 30
0.0
 10
158.9325661233575
 20
298.4827580824296
 30
0.0
 10
158.1918220887479
 20
298.0749594573601
 30
0.0
 10
157.3949035350186
 20
297.4189960494272
 30
0.0
 10
156.6322878140685
 20
297.0006449125716
 30
0.0
 10
155.9967069309872
 20
296.9429880147881
 30
0.0
 10
155.3158835922183
 20
297.011331800013
 30
0.0
 10
154.4489134274323
 20
297.4165414009727
 30
0.0
 10
153.4883385919263
 20
298.0793647615749
 30
0.0
 10
152.6116663461907
 20
298.4952172180936
 30
0.0
 10
151.8983068486984
 20
298.5617332627449
 30
0.0
 10
151.2614596717419
 20
298.5019530509903
 30
0.0
 10
150.5143137302442
 20
298.1972631891308
 30
0.0
 10
149.7117722811045
 20
297.6958107235705
 30
0.0
 10
148.9061304116947
 20
297.2142697827379
 30
0.0
 10
148.2209984293281
 20
296.99867631915
 30
0.0
 10
147.7504554217118
 20
296.9905015819674
 30
0.0
 10
147.583861352886
 20
296.9968195929598
 30
0.0
 10
147.4999999999999
 20
297.0000000000002
 30
0.0
 11
162.4660626527614
 21
297.5398553427766
 31
0.0
 11
162.2134190784321
 21
297.4419074902824
 31
0.0
 11
161.9660626527614
 21
297.3830576066603
 31
0.0
 11
161.4373393545871
 21
297.4953797067482
 31
0.0
 11
160.9321530227688
 21
297.8352109440333
 31
0.0
 11
160.4196979005791
 21
298.228201110967
 31
0.0
 11
159.869168231291
 21
298.5000000000001
 31
0.0
 11
159.515816953399
 21
298.5421643741131
 31
0.0
 11
159.1620614501045
 21
298.5000000000001
 31
0.0
 11
158.2249850390586
 21
298.057787554177
 31
0.0
 11
157.3584936698919
 21
297.434156297533
 31
0.0
 11
156.4293354358755
 21
297.0000000000002
 31
0.0
 11
155.9985071735121
 21
296.9568858117116
 31
0.0
 11
155.5633100320908
 21
297.0000000000002
 31
0.0
 11
154.4781312976281
 21
297.4379740509955
 31
0.0
 11
153.4576165129478
 21
298.0602641795834
 31
0.0
 11
152.3809831869291
 21
298.5000000000001
 31
0.0
 11
151.8990921463638
 21
298.5465614018838
 31
0.0
 11
151.4150573606401
 21
298.5000000000001
 31
0.0
 11
150.5363670682258
 21
298.1779485058841
 31
0.0
 11
149.7059941935214
 21
297.6959534046099
 31
0.0
 11
148.8763885622163
 21
297.2409816010309
 31
0.0
 11
147.9999999999999
 21
297.0000000000002
 31
0.0
 11
147.7516950999717
 21
296.9927950810076
 31
0.0
 11
147.4999999999999
 21
297.0000000000002
 31
0.0
  0
SPLINE
  5
1AE
330
6B
100
AcDbEntity
  8
1
  6
Continuous
 62
     7
100
AcDbSpline
210
0.0
220
0.0
230
1.0
 70
     8
 71
     3
 72
    31
 73
    27
 74
    25
 42
0.0000000001
 43
0.0000000001
 44
0.00000001
 40
0.0
 40
0.0
 40
0.0
 40
0.0
 40
0.2709659710334734
 40
0.5252266839305295
 40
1.065749190585307
 40
1.674599336097923
 40
2.320394600531558
 40
2.934363290976074
 40
3.290221352613416
 40
3.646480795373233
 40
4.682658409192237
 40
5.750236620427268
 40
6.775822655105966
 40
7.208802821952762
 40
7.64613037097406
 40
8.816358620109822
 40
10.01163910179147
 40
11.17461240778413
 40
11.65874765657577
 40
12.14501675690604
 40
13.0808659941476
 40
14.04099014689934
 40
14.98716393936302
 40
15.89608035137191
 40
16.14448975988073
 40
16.3962879612395
 40
16.3962879612395
 40
16.3962879612395
 40
16.3962879612395
 10
132.5339373472383
 20
297.5398553427766
 30
0.0
 10
132.6173339016338
 20
297.5055560598066
 30
0.0
 10
132.7789855494377
 20
297.4390720707404
 30
0.0
 10
133.1257046788868
 20
297.3419057756241
 30
0.0
 10
133.6058490739607
 20
297.4736876830041
 30
0.0
 10
134.0799867377322
 20
297.8407261784305
 30
0.0
 10
134.5584590793429
 20
298.2356739295747
 30
0.0
 10
135.0389786601569
 20
298.5078522746854
 30
0.0
 10
135.4848522593964
 20
298.5561118212713
 30
0.0
 10
136.067433876642
 20
298.4827580824294
 30
0.0
 10
136.8081779112518
 20
298.07495945736
 30
0.0
 10
137.6050964649812
 20
297.4189960494273
 30
0.0
 10
138.3677121859312
 20
297.0006449125714
 30
0.0
 10
139.0032930690124
 20
296.9429880147883
 30
0.0
 10
139.6841164077813
 20
297.0113318000127
 30
0.0
 10
140.5510865725672
 20
297.416541400973
 30
0.0
 10
141.5116614080732
 20
298.0793647615748
 30
0.0
 10
142.3883336538088
 20
298.4952172180936
 30
0.0
 10
143.1016931513011
 20
298.561733262745
 30
0.0
 10
143.7385403282577
 20
298.5019530509903
 30
0.0
 10
144.4856862697555
 20
298.1972631891309
 30
0.0
 10
145.2882277188952
 20
297.6958107235703
 30
0.0
 10
146.0938695883051
 20
297.2142697827379
 30
0.0
 10
146.7790015706716
 20
296.9986763191498
 30
0.0
 10
147.249544578288
 20
296.9905015819675
 30
0.0
 10
147.4161386471139
 20
296.9968195929598
 30
0.0
 10
147.4999999999999
 20
297.0000000000002
 30
0.0
 11
132.5339373472383
 21
297.5398553427766
 31
0.0
 11
132.7865809215676
 21
297.4419074902824
 31
0.0
 11
133.0339373472383
 21
297.3830576066603
 31
0.0
 11
133.5626606454125
 21
297.4953797067482
 31
0.0
 11
134.0678469772308
 21
297.8352109440333
 31
0.0
 11
134.5803020994204
 21
298.228201110967
 31
0.0
 11
135.1308317687085
 21
298.5000000000001
 31
0.0
 11
135.4841830466006
 21
298.5421643741132
 31
0.0
 11
135.8379385498951
 21
298.5000000000001
 31
0.0
 11
136.7750149609411
 21
298.057787554177
 31
0.0
 11
137.6415063301078
 21
297.434156297533
 31
0.0
 11
138.5706645641243
 21
297.0000000000002
 31
0.0
 11
139.0014928264875
 21
296.9568858117117
 31
0.0
 11
139.4366899679087
 21
297.0000000000002
 31
0.0
 11
140.5218687023715
 21
297.4379740509955
 31
0.0
 11
141.5423834870518
 21
298.0602641795834
 31
0.0
 11
142.6190168130704
 21
298.5000000000001
 31
0.0
 11
143.1009078536358
 21
298.5465614018839
 31
0.0
 11
143.5849426393595
 21
298.5000000000001
 31
0.0
 11
144.4636329317739
 21
298.1779485058841
 31
0.0
 11
145.2940058064783
 21
297.6959534046099
 31
0.0
 11
146.1236114377834
 21
297.2409816010309
 31
0.0
 11
146.9999999999999
 21
297.0000000000002
 31
0.0
 11
147.2483049000281
 21
296.9927950810076
 31
0.0
 11
147.4999999999999
 21
297.0000000000002
 31
0.0
  0
ARC
  5
1AF
330
6B
100
AcDbEntity
  8
1
  6
Continuous
 62
     7
100
AcDbCircle
 10
129.2368329931486
 20
293.5000000000001
 30
0.0
 40
4.999999999999989
100
AcDbArc
 50
64.15806723683313
 51
90.0
  0
ARC
  5
1B0
330
6B
100
AcDbEntity
  8
1
  6
Continuous
 62
     7
100
AcDbCircle
 10
165.7631670068511
 20
293.5000000000001
 30
0.0
 40
5.0
100
AcDbArc
 50
90.0
 51
115.8419327631698
  0
ENDBLK
  5
6D
330
6B
100
AcDbEntity
  8
0
100
AcDbBlockEnd
  0
BLOCK
  5
6F
330
6E
100
AcDbEntity
  8
0
100
AcDbBlockBegin
  2
32-16__18
 70
     0
 71
     0
 10
187.9711363123499
 20
208.8045996301831
 30
0.0
  3
32-16__18
  1

  0
LINE
  5
1B1
330
6E
100
AcDbEntity
  8
1
  6
Continuous
 62
     7
100
AcDbLine
 10
140.5717967697242
 20
252.0680954280754
 30
0.0
 11
140.5717967697242
 21
263.9319045719249
 31
0.0
  0
LINE
  5
1B2
330
6E
100
AcDbEntity
  8
1
  6
Continuous
 62
     7
100
AcDbLine
 10
154.4282032302752
 20
263.9319045719249
 30
0.0
 11
154.4282032302752
 21
252.0680954280754
 31
0.0
  0
LINE
  5
1B3
330
6E
100
AcDbEntity
  8
1
  6
Continuous
 62
     7
100
AcDbLine
 10
159.5000044512412
 20
265.0000000000001
 30
0.0
 11
135.4999955487582
 21
265.0000000000001
 31
0.0
  0
LINE
  5
1B4
330
6E
100
AcDbEntity
  8
1
  6
Continuous
 62
     7
100
AcDbLine
 10
135.4999955487582
 20
251.0000000000001
 30
0.0
 11
159.5000044512412
 21
251.0000000000001
 31
0.0
  0
LINE
  5
1B5
330
6E
100
AcDbEntity
  8
1
  6
Continuous
 62
     7
100
AcDbLine
 10
135.4999955487582
 20
251.0000000000001
 30
0.0
 11
133.6499999999996
 21
252.0680954280754
 31
0.0
  0
LINE
  5
1B6
330
6E
100
AcDbEntity
  8
1
  6
Continuous
 62
     7
100
AcDbLine
 10
133.6499999999996
 20
263.9319045719249
 30
0.0
 11
135.4999955487582
 21
265.0000000000001
 31
0.0
  0
LINE
  5
1B7
330
6E
100
AcDbEntity
  8
1
  6
Continuous
 62
     7
100
AcDbLine
 10
133.6499999999996
 20
252.0680954280754
 30
0.0
 11
133.6499999999996
 21
263.9319045719249
 31
0.0
  0
LINE
  5
1B8
330
6E
100
AcDbEntity
  8
1
  6
Continuous
 62
     7
100
AcDbLine
 10
161.3499999999996
 20
263.9319045719249
 30
0.0
 11
161.3499999999998
 21
252.0680954280754
 31
0.0
  0
LINE
  5
1B9
330
6E
100
AcDbEntity
  8
1
  6
Continuous
 62
     7
100
AcDbLine
 10
159.5000044512412
 20
265.0000000000001
 30
0.0
 11
161.3499999999996
 21
263.9319045719249
 31
0.0
  0
LINE
  5
1BA
330
6E
100
AcDbEntity
  8
1
  6
Continuous
 62
     7
100
AcDbLine
 10
161.3499999999998
 20
252.0680954280754
 30
0.0
 11
159.5000044512412
 21
251.0000000000001
 31
0.0
  0
ARC
  5
1BB
330
6E
100
AcDbEntity
  8
1
  6
Continuous
 62
     7
100
AcDbCircle
 10
137.1108983848619
 20
258.8625188092996
 30
0.0
 40
6.138117760409165
100
AcDbArc
 50
55.67842512844687
 51
115.6784251284467
  0
ARC
  5
1BC
330
6E
100
AcDbEntity
  8
1
  6
Continuous
 62
     7
100
AcDbCircle
 10
157.8891016151373
 20
257.1411392320334
 30
0.0
 40
6.141139232033262
100
AcDbArc
 50
-124.3023317316578
 51
-64.30233173165811
  0
ARC
  5
1BD
330
6E
100
AcDbEntity
  8
1
  6
Continuous
 62
     7
100
AcDbCircle
 10
157.8891016151373
 20
258.8625188092996
 30
0.0
 40
6.13811776040931
100
AcDbArc
 50
64.32157487154994
 51
124.3215748715518
  0
ARC
  5
1BE
330
6E
100
AcDbEntity
  8
1
  6
Continuous
 62
     7
100
AcDbCircle
 10
147.4999999999999
 20
274.0039500927488
 30
0.0
 40
23.0039500927488
100
AcDbArc
 50
-107.5281601363357
 51
-72.4718398636653
  0
ARC
  5
1BF
330
6E
100
AcDbEntity
  8
1
  6
Continuous
 62
     7
100
AcDbCircle
 10
137.1108983848619
 20
257.1411392320334
 30
0.0
 40
6.141139232033247
100
AcDbArc
 50
-115.6976682683419
 51
-55.69766826834091
  0
ARC
  5
1C0
330
6E
100
AcDbEntity
  8
1
  6
Continuous
 62
     7
100
AcDbCircle
 10
147.4999999999999
 20
241.9960499072515
 30
0.0
 40
23.00395009274869
100
AcDbArc
 50
72.4718398636653
 51
107.5281601363357
  0
ENDBLK
  5
70
330
6E
100
AcDbEntity
  8
0
100
AcDbBlockEnd
  0
BLOCK
  5
72
330
71
100
AcDbEntity
  8
0
100
AcDbBlockBegin
  2
35-276__19
 70
     0
 71
     0
 10
-90.0366722578101
 20
601.4821630225835
 30
0.0
  3
35-276__19
  1

  0
LINE
  5
1C1
330
71
100
AcDbEntity
  8
1
  6
Continuous
 62
     7
100
AcDbLine
 10
137.0224999999997
 20
311.0000000000001
 30
0.0
 11
137.0224999999997
 21
310.0000000000001
 31
0.0
  0
LINE
  5
1C2
330
71
100
AcDbEntity
  8
1
  6
Continuous
 62
     7
100
AcDbLine
 10
157.9774999999997
 20
311.0000000000001
 30
0.0
 11
157.9774999999997
 21
301.0000000000001
 31
0.0
  0
LINE
  5
1C3
330
71
100
AcDbEntity
  8
1
  6
Continuous
 62
     2
100
AcDbLine
 10
138.1844999999997
 20
301.0000000000001
 30
0.0
 11
138.1844999999997
 21
310.0000000000001
 31
0.0
  0
LINE
  5
1C4
330
71
100
AcDbEntity
  8
1
  6
Continuous
 62
     7
100
AcDbLine
 10
137.0224999999997
 20
291.0000000000002
 30
0.0
 11
137.0224999999994
 21
265.0000000000001
 31
0.0
  0
LINE
  5
1C5
330
71
100
AcDbEntity
  8
1
  6
Continuous
 62
     2
100
AcDbLine
 10
156.8154999999997
 20
301.0000000000001
 30
0.0
 11
156.8154999999997
 21
310.0000000000001
 31
0.0
  0
LINE
  5
1C6
330
71
100
AcDbEntity
  8
1
  6
Continuous
 62
     7
100
AcDbLine
 10
157.9775000000032
 20
291.0000000000002
 30
0.0
 11
157.9774999999997
 21
265.0000000000001
 31
0.0
  0
LINE
  5
1C7
330
71
100
AcDbEntity
  8
1
  6
Continuous
 62
     2
100
AcDbLine
 10
138.1844999999997
 20
265.0000000000001
 30
0.0
 11
138.1844999999997
 21
291.0000000000002
 31
0.0
  0
LINE
  5
1C8
330
71
100
AcDbEntity
  8
1
  6
Continuous
 62
     2
100
AcDbLine
 10
156.8154999999997
 20
265.0000000000001
 30
0.0
 11
156.8154999999997
 21
291.0000000000002
 31
0.0
  0
LINE
  5
1C9
330
71
100
AcDbEntity
  8
0
  6
Continuous
 62
     7
100
AcDbLine
 10
137.0224999999997
 20
310.0000000000001
 30
0.0
 11
157.9774999999997
 21
310.0000000000001
 31
0.0
  0
LINE
  5
1CA
330
71
100
AcDbEntity
  8
0
  6
Continuous
 62
     2
100
AcDbLine
 10
137.6071497308102
 20
311.0000000000001
 30
0.0
 11
138.1844999999997
 21
310.0000000000001
 31
0.0
  0
LINE
  5
1CB
330
71
100
AcDbEntity
  8
1
  6
Continuous
 62
     7
100
AcDbLine
 10
137.0224999999997
 20
310.0000000000001
 30
0.0
 11
137.0224999999997
 21
301.0000000000001
 31
0.0
  0
LINE
  5
1CC
330
71
100
AcDbEntity
  8
0
  6
Continuous
 62
     2
100
AcDbLine
 10
156.8154999999997
 20
310.0000000000001
 30
0.0
 11
157.3928502691892
 21
311.0000000000001
 31
0.0
  0
ENDBLK
  5
73
330
71
100
AcDbEntity
  8
0
100
AcDbBlockEnd
  0
BLOCK
  5
75
330
74
100
AcDbEntity
  8
0
100
AcDbBlockBegin
  2
32-16__20
 70
     0
 71
     0
 10
272.9711363123502
 20
208.8045996301831
 30
0.0
  3
32-16__20
  1

  0
LINE
  5
1CD
330
74
100
AcDbEntity
  8
1
  6
Continuous
 62
     7
100
AcDbLine
 10
246.35
 20
252.0680954280754
 30
0.0
 11
244.5000044512415
 21
251.0000000000001
 31
0.0
  0
LINE
  5
1CE
330
74
100
AcDbEntity
  8
1
  6
Continuous
 62
     7
100
AcDbLine
 10
244.5000044512415
 20
265.0000000000001
 30
0.0
 11
246.3499999999998
 21
263.9319045719249
 31
0.0
  0
LINE
  5
1CF
330
74
100
AcDbEntity
  8
1
  6
Continuous
 62
     7
100
AcDbLine
 10
246.3499999999998
 20
263.9319045719249
 30
0.0
 11
246.35
 21
252.0680954280754
 31
0.0
  0
LINE
  5
1D0
330
74
100
AcDbEntity
  8
1
  6
Continuous
 62
     7
100
AcDbLine
 10
218.6499999999999
 20
252.0680954280754
 30
0.0
 11
218.6499999999999
 21
263.9319045719249
 31
0.0
  0
LINE
  5
1D1
330
74
100
AcDbEntity
  8
1
  6
Continuous
 62
     7
100
AcDbLine
 10
218.6499999999999
 20
263.9319045719249
 30
0.0
 11
220.4999955487584
 21
265.0000000000001
 31
0.0
  0
LINE
  5
1D2
330
74
100
AcDbEntity
  8
1
  6
Continuous
 62
     7
100
AcDbLine
 10
220.4999955487584
 20
251.0000000000001
 30
0.0
 11
218.6499999999999
 21
252.0680954280754
 31
0.0
  0
LINE
  5
1D3
330
74
100
AcDbEntity
  8
1
  6
Continuous
 62
     7
100
AcDbLine
 10
220.4999955487584
 20
251.0000000000001
 30
0.0
 11
244.5000044512415
 21
251.0000000000001
 31
0.0
  0
LINE
  5
1D4
330
74
100
AcDbEntity
  8
1
  6
Continuous
 62
     7
100
AcDbLine
 10
244.5000044512415
 20
265.0000000000001
 30
0.0
 11
220.4999955487584
 21
265.0000000000001
 31
0.0
  0
LINE
  5
1D5
330
74
100
AcDbEntity
  8
1
  6
Continuous
 62
     7
100
AcDbLine
 10
239.4282032302755
 20
263.9319045719249
 30
0.0
 11
239.4282032302755
 21
258.0
 31
0.0
  0
LINE
  5
1D6
330
74
100
AcDbEntity
  8
1
  6
Continuous
 62
     7
100
AcDbLine
 10
225.5717967697245
 20
252.0680954280754
 30
0.0
 11
225.5717967697245
 21
263.9319045719249
 31
0.0
  0
LINE
  5
1D7
330
74
100
AcDbEntity
  8
1
  6
Continuous
 62
     7
100
AcDbLine
 10
239.4282032302755
 20
258.0
 30
0.0
 11
239.4282032302755
 21
252.0680954280754
 31
0.0
  0
ARC
  5
1D8
330
74
100
AcDbEntity
  8
1
  6
Continuous
 62
     7
100
AcDbCircle
 10
232.5000000000001
 20
241.9960499072515
 30
0.0
 40
23.00395009274871
100
AcDbArc
 50
72.47183986366508
 51
107.5281601363355
  0
ARC
  5
1D9
330
74
100
AcDbEntity
  8
1
  6
Continuous
 62
     7
100
AcDbCircle
 10
222.1108983848621
 20
257.1411392320334
 30
0.0
 40
6.14113923203321
100
AcDbArc
 50
-115.6976682683412
 51
-55.69766826834003
  0
ARC
  5
1DA
330
74
100
AcDbEntity
  8
1
  6
Continuous
 62
     7
100
AcDbCircle
 10
232.5000000000001
 20
274.0039500927488
 30
0.0
 40
23.00395009274878
100
AcDbArc
 50
-107.5281601363355
 51
-72.47183986366508
  0
ARC
  5
1DB
330
74
100
AcDbEntity
  8
1
  6
Continuous
 62
     7
100
AcDbCircle
 10
242.8891016151375
 20
258.8625188092996
 30
0.0
 40
6.13811776040931
100
AcDbArc
 50
64.32157487154994
 51
124.321574871551
  0
ARC
  5
1DC
330
74
100
AcDbEntity
  8
1
  6
Continuous
 62
     7
100
AcDbCircle
 10
242.8891016151375
 20
257.1411392320334
 30
0.0
 40
6.141139232033198
100
AcDbArc
 50
-124.3023317316569
 51
-64.30233173165811
  0
ARC
  5
1DD
330
74
100
AcDbEntity
  8
1
  6
Continuous
 62
     7
100
AcDbCircle
 10
222.1108983848621
 20
258.8625188092996
 30
0.0
 40
6.138117760409229
100
AcDbArc
 50
55.67842512844599
 51
115.6784251284467
  0
ENDBLK
  5
76
330
74
100
AcDbEntity
  8
0
100
AcDbBlockEnd
  0
BLOCK
  5
78
330
77
100
AcDbEntity
  8
0
100
AcDbBlockBegin
  2
35-276__21
 70
     0
 71
     0
 10
-5.03667225780987
 20
601.4821630225835
 30
0.0
  3
35-276__21
  1

  0
LINE
  5
1DE
330
77
100
AcDbEntity
  8
0
  6
Continuous
 62
     2
100
AcDbLine
 10
241.8154999999999
 20
310.0000000000001
 30
0.0
 11
242.3928502691895
 21
311.0000000000001
 31
0.0
  0
LINE
  5
1DF
330
77
100
AcDbEntity
  8
1
  6
Continuous
 62
     7
100
AcDbLine
 10
222.0224999999999
 20
310.0000000000001
 30
0.0
 11
222.0224999999999
 21
301.0000000000001
 31
0.0
  0
LINE
  5
1E0
330
77
100
AcDbEntity
  8
0
  6
Continuous
 62
     2
100
AcDbLine
 10
222.6071497308104
 20
311.0000000000001
 30
0.0
 11
223.1845
 21
310.0000000000001
 31
0.0
  0
LINE
  5
1E1
330
77
100
AcDbEntity
  8
0
  6
Continuous
 62
     7
100
AcDbLine
 10
222.0224999999999
 20
310.0000000000001
 30
0.0
 11
242.9775
 21
310.0000000000001
 31
0.0
  0
LINE
  5
1E2
330
77
100
AcDbEntity
  8
1
  6
Continuous
 62
     2
100
AcDbLine
 10
241.8154999999999
 20
265.0000000000001
 30
0.0
 11
241.8154999999999
 21
291.0000000000002
 31
0.0
  0
LINE
  5
1E3
330
77
100
AcDbEntity
  8
1
  6
Continuous
 62
     2
100
AcDbLine
 10
223.1845
 20
265.0000000000001
 30
0.0
 11
223.1845
 21
291.0000000000002
 31
0.0
  0
LINE
  5
1E4
330
77
100
AcDbEntity
  8
1
  6
Continuous
 62
     7
100
AcDbLine
 10
242.9775000000034
 20
291.0000000000002
 30
0.0
 11
242.9775
 21
265.0000000000001
 31
0.0
  0
LINE
  5
1E5
330
77
100
AcDbEntity
  8
1
  6
Continuous
 62
     2
100
AcDbLine
 10
241.8154999999999
 20
301.0000000000001
 30
0.0
 11
241.8154999999999
 21
310.0000000000001
 31
0.0
  0
LINE
  5
1E6
330
77
100
AcDbEntity
  8
1
  6
Continuous
 62
     7
100
AcDbLine
 10
222.0224999999999
 20
291.0000000000002
 30
0.0
 11
222.0224999999996
 21
265.0000000000001
 31
0.0
  0
LINE
  5
1E7
330
77
100
AcDbEntity
  8
1
  6
Continuous
 62
     2
100
AcDbLine
 10
223.1845
 20
301.0000000000001
 30
0.0
 11
223.1845
 21
310.0000000000001
 31
0.0
  0
LINE
  5
1E8
330
77
100
AcDbEntity
  8
1
  6
Continuous
 62
     7
100
AcDbLine
 10
242.9775
 20
311.0000000000001
 30
0.0
 11
242.9775
 21
301.0000000000001
 31
0.0
  0
LINE
  5
1E9
330
77
100
AcDbEntity
  8
1
  6
Continuous
 62
     7
100
AcDbLine
 10
222.0224999999999
 20
311.0000000000001
 30
0.0
 11
222.0224999999999
 21
310.0000000000001
 31
0.0
  0
ENDBLK
  5
79
330
77
100
AcDbEntity
  8
0
100
AcDbBlockEnd
  0
BLOCK
  5
7B
330
7A
100
AcDbEntity
  8
0
100
AcDbBlockBegin
  2
32-25__22
 70
     0
 71
     0
 10
342.3350780510845
 20
264.0774234108632
 30
0.0
  3
32-25__22
  1

  0
LINE
  5
1EA
330
7A
100
AcDbEntity
  8
1
  6
Continuous
 62
     7
100
AcDbLine
 10
246.3499955487583
 20
297.0000000000002
 30
0.0
 11
244.2248185915403
 21
297.0000000000002
 31
0.0
  0
LINE
  5
1EB
330
7A
100
AcDbEntity
  8
1
  6
Continuous
 62
     7
100
AcDbLine
 10
246.3499955487583
 20
297.0000000000002
 30
0.0
 11
246.3499955487583
 21
292.0680954280755
 31
0.0
  0
LINE
  5
1EC
330
7A
100
AcDbEntity
  8
1
  6
Continuous
 62
     7
100
AcDbLine
 10
246.3499955487583
 20
292.0680954280755
 30
0.0
 11
244.4999999999998
 21
291.0000000000002
 31
0.0
  0
LINE
  5
1ED
330
7A
100
AcDbEntity
  8
1
  6
Continuous
 62
     7
100
AcDbLine
 10
220.5000000000001
 20
291.0000000000002
 30
0.0
 11
218.6500044512414
 21
292.0680954280755
 31
0.0
  0
LINE
  5
1EE
330
7A
100
AcDbEntity
  8
1
  6
Continuous
 62
     7
100
AcDbLine
 10
218.6500044512414
 20
292.0680954280755
 30
0.0
 11
218.6500044512414
 21
297.0000000000002
 31
0.0
  0
LINE
  5
1EF
330
7A
100
AcDbEntity
  8
1
  6
Continuous
 62
     7
100
AcDbLine
 10
239.4282032302755
 20
292.0680954280755
 30
0.0
 11
239.4282032302755
 21
297.0000000000002
 31
0.0
  0
LINE
  5
1F0
330
7A
100
AcDbEntity
  8
1
  6
Continuous
 62
     7
100
AcDbLine
 10
225.5717967697245
 20
292.0680954280755
 30
0.0
 11
225.5717967697245
 21
297.0000000000002
 31
0.0
  0
LINE
  5
1F1
330
7A
100
AcDbEntity
  8
1
  6
Continuous
 62
     7
100
AcDbLine
 10
220.7751814084598
 20
297.0000000000002
 30
0.0
 11
218.6500044512414
 21
297.0000000000002
 31
0.0
  0
LINE
  5
1F2
330
7A
100
AcDbEntity
  8
1
  6
Continuous
 62
     7
100
AcDbLine
 10
244.4999999999998
 20
291.0000000000002
 30
0.0
 11
220.5000000000001
 21
291.0000000000002
 31
0.0
  0
ARC
  5
1F3
330
7A
100
AcDbEntity
  8
1
  6
Continuous
 62
     7
100
AcDbCircle
 10
232.5000000000001
 20
314.0039500927488
 30
0.0
 40
23.0039500927487
100
AcDbArc
 50
-107.5281601363355
 51
-72.47183986366503
  0
ARC
  5
1F4
330
7A
100
AcDbEntity
  8
1
  6
Continuous
 62
     7
100
AcDbCircle
 10
222.1109006104829
 20
297.1411320204635
 30
0.0
 40
6.141132020463363
100
AcDbArc
 50
-115.6976475036677
 51
-55.69764750366599
  0
ARC
  5
1F5
330
7A
100
AcDbEntity
  8
1
  6
Continuous
 62
     7
100
AcDbCircle
 10
242.8890993895167
 20
297.1374737949304
 30
0.0
 40
6.138110397458396
100
AcDbArc
 50
-124.3215966385191
 51
-64.32159663851981
  0
ENDBLK
  5
7C
330
7A
100
AcDbEntity
  8
0
100
AcDbBlockEnd
  0
BLOCK
  5
7E
330
7D
100
AcDbEntity
  8
0
100
AcDbBlockBegin
  2
73-1-21_5-MS11__23
 70
     0
 71
     0
 10
234.7429533375353
 20
316.3871285355417
 30
0.0
  3
73-1-21_5-MS11__23
  1

  0
LINE
  5
1F6
330
7D
100
AcDbEntity
  8
1
  6
Continuous
 62
     7
100
AcDbLine
 10
244.8691682312913
 20
298.5000000000001
 30
0.0
 11
250.7631670068512
 21
298.5000000000001
 31
0.0
  0
LINE
  5
1F7
330
7D
100
AcDbEntity
  8
1
  6
Continuous
 62
     7
100
AcDbLine
 10
237.3809831869294
 20
298.5000000000001
 30
0.0
 11
244.1620614501047
 21
298.5000000000001
 31
0.0
  0
LINE
  5
1F8
330
7D
100
AcDbEntity
  8
1
  6
Continuous
 62
     7
100
AcDbLine
 10
228.5849426393598
 20
298.5000000000001
 30
0.0
 11
236.4150573606403
 21
298.5000000000001
 31
0.0
  0
LINE
  5
1F9
330
7D
100
AcDbEntity
  8
1
  6
Continuous
 62
     7
100
AcDbLine
 10
220.8379385498953
 20
298.5000000000001
 30
0.0
 11
227.6190168130706
 21
298.5000000000001
 31
0.0
  0
LINE
  5
1FA
330
7D
100
AcDbEntity
  8
1
  6
Continuous
 62
     7
100
AcDbLine
 10
214.2368329931488
 20
298.5000000000001
 30
0.0
 11
220.1308317687087
 21
298.5000000000001
 31
0.0
  0
LINE
  5
1FB
330
7D
100
AcDbEntity
  8
1
  6
Continuous
 62
     7
100
AcDbLine
 10
254.0000000000001
 20
298.5000000000001
 30
0.0
 11
254.0000000000001
 21
299.5000000000001
 31
0.0
  0
LINE
  5
1FC
330
7D
100
AcDbEntity
  8
1
  6
Continuous
 62
     7
100
AcDbLine
 10
250.7631670068512
 20
298.5000000000001
 30
0.0
 11
254.0000000000001
 21
298.5000000000001
 31
0.0
  0
LINE
  5
1FD
330
7D
100
AcDbEntity
  8
1
  6
Continuous
 62
     7
100
AcDbLine
 10
241.4293354358757
 20
297.0000000000002
 30
0.0
 11
244.2248185915403
 21
297.0000000000002
 31
0.0
  0
LINE
  5
1FE
330
7D
100
AcDbEntity
  8
1
  6
Continuous
 62
     7
100
AcDbLine
 10
233.0000000083197
 20
297.0000000000002
 30
0.0
 11
240.5633100320911
 21
297.0000000000002
 31
0.0
  0
LINE
  5
1FF
330
7D
100
AcDbEntity
  8
1
  6
Continuous
 62
     7
100
AcDbLine
 10
254.0000000000001
 20
299.5000000000001
 30
0.0
 11
232.5000000000001
 21
299.5000000000001
 31
0.0
  0
LINE
  5
200
330
7D
100
AcDbEntity
  8
1
  6
Continuous
 62
     7
100
AcDbLine
 10
232.5000000000001
 20
299.5000000000001
 30
0.0
 11
210.9999999999998
 21
299.5000000000001
 31
0.0
  0
LINE
  5
201
330
7D
100
AcDbEntity
  8
1
  6
Continuous
 62
     7
100
AcDbLine
 10
224.4366899679089
 20
297.0000000000002
 30
0.0
 11
231.9999999916803
 21
297.0000000000002
 31
0.0
  0
LINE
  5
202
330
7D
100
AcDbEntity
  8
1
  6
Continuous
 62
     7
100
AcDbLine
 10
220.7751814084598
 20
297.0000000000002
 30
0.0
 11
223.5706645641245
 21
297.0000000000002
 31
0.0
  0
LINE
  5
203
330
7D
100
AcDbEntity
  8
1
  6
Continuous
 62
     7
100
AcDbLine
 10
210.9999999999998
 20
298.5000000000001
 30
0.0
 11
214.2368329931488
 21
298.5000000000001
 31
0.0
  0
LINE
  5
204
330
7D
100
AcDbEntity
  8
1
  6
Continuous
 62
     7
100
AcDbLine
 10
210.9999999999998
 20
299.5000000000001
 30
0.0
 11
210.9999999999998
 21
298.5000000000001
 31
0.0
  0
ARC
  5
205
330
7D
100
AcDbEntity
  8
1
  6
Continuous
 62
     7
100
AcDbCircle
 10
244.2248185915403
 20
307.0000000000001
 30
0.0
 40
9.999999999999886
100
AcDbArc
 50
-90.0
 51
-64.15806723683372
  0
ARC
  5
206
330
7D
100
AcDbEntity
  8
1
  6
Continuous
 62
     7
100
AcDbCircle
 10
220.7751814084598
 20
307.0000000000001
 30
0.0
 40
9.999999999999966
100
AcDbArc
 50
-115.8419327631667
 51
-90.0
  0
SPLINE
  5
207
330
7D
100
AcDbEntity
  8
1
  6
Continuous
 62
     7
100
AcDbSpline
210
0.0
220
0.0
230
1.0
 70
     8
 71
     3
 72
    31
 73
    27
 74
    25
 42
0.0000000001
 43
0.0000000001
 44
0.00000001
 40
0.0
 40
0.0
 40
0.0
 40
0.0
 40
0.2709659710335
 40
0.5252266839305284
 40
1.065749190585306
 40
1.674599336097922
 40
2.320394600531557
 40
2.934363290976073
 40
3.290221352613443
 40
3.646480795373232
 40
4.682658409192236
 40
5.750236620427289
 40
6.775822655105989
 40
7.208802821952785
 40
7.646130370974055
 40
8.816358620109792
 40
10.01163910179144
 40
11.17461240778413
 40
11.6587476565758
 40
12.14501675690615
 40
13.08086599414771
 40
14.04099014689943
 40
14.98716393936305
 40
15.89608035137195
 40
16.14448975988076
 40
16.39628796123953
 40
16.39628796123953
 40
16.39628796123953
 40
16.39628796123953
 10
217.5339373472385
 20
297.5398553427766
 30
0.0
 10
217.617333901634
 20
297.5055560598067
 30
0.0
 10
217.778985549438
 20
297.4390720707405
 30
0.0
 10
218.125704678887
 20
297.3419057756241
 30
0.0
 10
218.6058490739609
 20
297.4736876830041
 30
0.0
 10
219.0799867377324
 20
297.8407261784305
 30
0.0
 10
219.5584590793431
 20
298.2356739295748
 30
0.0
 10
220.0389786601571
 20
298.5078522746853
 30
0.0
 10
220.4848522593966
 20
298.5561118212713
 30
0.0
 10
221.0674338766422
 20
298.4827580824294
 30
0.0
 10
221.808177911252
 20
298.07495945736
 30
0.0
 10
222.6050964649814
 20
297.4189960494272
 30
0.0
 10
223.3677121859315
 20
297.0006449125714
 30
0.0
 10
224.0032930690126
 20
296.9429880147883
 30
0.0
 10
224.6841164077816
 20
297.0113318000128
 30
0.0
 10
225.5510865725673
 20
297.4165414009729
 30
0.0
 10
226.5116614080734
 20
298.0793647615749
 30
0.0
 10
227.388333653809
 20
298.4952172180935
 30
0.0
 10
228.1016931513013
 20
298.561733262745
 30
0.0
 10
228.7385403282579
 20
298.5019530509903
 30
0.0
 10
229.4856862697558
 20
298.1972631891309
 30
0.0
 10
230.2882277188955
 20
297.6958107235703
 30
0.0
 10
231.0938695883054
 20
297.2142697827379
 30
0.0
 10
231.7790015706718
 20
296.99867631915
 30
0.0
 10
232.2495445782882
 20
296.9905015819674
 30
0.0
 10
232.4161386471141
 20
296.9968195929598
 30
0.0
 10
232.5000000000001
 20
297.0000000000002
 30
0.0
 11
217.5339373472385
 21
297.5398553427766
 31
0.0
 11
217.7865809215678
 21
297.4419074902824
 31
0.0
 11
218.0339373472385
 21
297.3830576066603
 31
0.0
 11
218.5626606454127
 21
297.4953797067482
 31
0.0
 11
219.067846977231
 21
297.8352109440333
 31
0.0
 11
219.5803020994206
 21
298.228201110967
 31
0.0
 11
220.1308317687087
 21
298.5000000000001
 31
0.0
 11
220.4841830466008
 21
298.5421643741132
 31
0.0
 11
220.8379385498953
 21
298.5000000000001
 31
0.0
 11
221.7750149609412
 21
298.0577875541769
 31
0.0
 11
222.641506330108
 21
297.434156297533
 31
0.0
 11
223.5706645641245
 21
297.0000000000002
 31
0.0
 11
224.0014928264877
 21
296.9568858117117
 31
0.0
 11
224.4366899679089
 21
297.0000000000002
 31
0.0
 11
225.5218687023716
 21
297.4379740509955
 31
0.0
 11
226.5423834870519
 21
298.0602641795834
 31
0.0
 11
227.6190168130706
 21
298.5000000000001
 31
0.0
 11
228.100907853636
 21
298.5465614018839
 31
0.0
 11
228.5849426393598
 21
298.5000000000001
 31
0.0
 11
229.4636329317742
 21
298.1779485058841
 31
0.0
 11
230.2940058064786
 21
297.6959534046099
 31
0.0
 11
231.1236114377837
 21
297.2409816010309
 31
0.0
 11
232.0000000000001
 21
297.0000000000002
 31
0.0
 11
232.2483049000283
 21
296.9927950810076
 31
0.0
 11
232.5000000000001
 21
297.0000000000002
 31
0.0
  0
SPLINE
  5
208
330
7D
100
AcDbEntity
  8
1
  6
Continuous
 62
     7
100
AcDbSpline
210
0.0
220
0.0
230
1.0
 70
     8
 71
     3
 72
    31
 73
    27
 74
    25
 42
0.0000000001
 43
0.0000000001
 44
0.00000001
 40
0.0
 40
0.0
 40
0.0
 40
0.0
 40
0.2709659710335
 40
0.5252266839305284
 40
1.065749190585306
 40
1.674599336097922
 40
2.320394600531534
 40
2.934363290976076
 40
3.290221352613445
 40
3.646480795373234
 40
4.682658409192163
 40
5.750236620427147
 40
6.775822655105793
 40
7.208802821952686
 40
7.646130370974108
 40
8.816358620109845
 40
10.01163910179152
 40
11.17461240778418
 40
11.65874765657579
 40
12.14501675690609
 40
13.0808659941476
 40
14.04099014689926
 40
14.98716393936292
 40
15.8960803513718
 40
16.14448975988061
 40
16.39628796123938
 40
16.39628796123938
 40
16.39628796123938
 40
16.39628796123938
 10
247.4660626527615
 20
297.5398553427766
 30
0.0
 10
247.382666098366
 20
297.5055560598067
 30
0.0
 10
247.2210144505621
 20
297.4390720707405
 30
0.0
 10
246.874295321113
 20
297.3419057756241
 30
0.0
 10
246.3941509260391
 20
297.4736876830041
 30
0.0
 10
245.9200132622676
 20
297.8407261784306
 30
0.0
 10
245.441540920657
 20
298.2356739295748
 30
0.0
 10
244.9610213398429
 20
298.5078522746854
 30
0.0
 10
244.5151477406035
 20
298.5561118212712
 30
0.0
 10
243.9325661233578
 20
298.4827580824295
 30
0.0
 10
243.191822088748
 20
298.07495945736
 30
0.0
 10
242.3949035350188
 20
297.4189960494273
 30
0.0
 10
241.6322878140686
 20
297.0006449125714
 30
0.0
 10
240.9967069309876
 20
296.9429880147882
 30
0.0
 10
240.3158835922185
 20
297.0113318000128
 30
0.0
 10
239.4489134274327
 20
297.4165414009729
 30
0.0
 10
238.4883385919266
 20
298.0793647615748
 30
0.0
 10
237.6116663461909
 20
298.4952172180934
 30
0.0
 10
236.8983068486988
 20
298.5617332627451
 30
0.0
 10
236.2614596717422
 20
298.5019530509903
 30
0.0
 10
235.5143137302445
 20
298.1972631891309
 30
0.0
 10
234.7117722811047
 20
297.6958107235703
 30
0.0
 10
233.9061304116949
 20
297.2142697827378
 30
0.0
 10
233.2209984293283
 20
296.99867631915
 30
0.0
 10
232.7504554217121
 20
296.9905015819674
 30
0.0
 10
232.5838613528862
 20
296.9968195929598
 30
0.0
 10
232.5000000000001
 20
297.0000000000002
 30
0.0
 11
247.4660626527615
 21
297.5398553427766
 31
0.0
 11
247.2134190784322
 21
297.4419074902824
 31
0.0
 11
246.9660626527615
 21
297.3830576066603
 31
0.0
 11
246.4373393545873
 21
297.4953797067482
 31
0.0
 11
245.932153022769
 21
297.8352109440333
 31
0.0
 11
245.4196979005795
 21
298.228201110967
 31
0.0
 11
244.8691682312913
 21
298.5000000000001
 31
0.0
 11
244.5158169533992
 21
298.5421643741132
 31
0.0
 11
244.1620614501047
 21
298.5000000000001
 31
0.0
 11
243.2249850390588
 21
298.057787554177
 31
0.0
 11
242.3584936698921
 21
297.434156297533
 31
0.0
 11
241.4293354358757
 21
297.0000000000002
 31
0.0
 11
240.9985071735124
 21
296.9568858117116
 31
0.0
 11
240.5633100320911
 21
297.0000000000002
 31
0.0
 11
239.4781312976284
 21
297.4379740509955
 31
0.0
 11
238.4576165129481
 21
298.0602641795834
 31
0.0
 11
237.3809831869294
 21
298.5000000000001
 31
0.0
 11
236.8990921463641
 21
298.5465614018839
 31
0.0
 11
236.4150573606403
 21
298.5000000000001
 31
0.0
 11
235.536367068226
 21
298.1779485058841
 31
0.0
 11
234.7059941935216
 21
297.6959534046099
 31
0.0
 11
233.8763885622166
 21
297.2409816010309
 31
0.0
 11
233.0000000000001
 21
297.0000000000002
 31
0.0
 11
232.7516950999719
 21
296.9927950810076
 31
0.0
 11
232.5000000000001
 21
297.0000000000002
 31
0.0
  0
ARC
  5
209
330
7D
100
AcDbEntity
  8
1
  6
Continuous
 62
     7
100
AcDbCircle
 10
250.7631670068512
 20
293.5000000000001
 30
0.0
 40
5.0
100
AcDbArc
 50
90.0
 51
115.8419327631678
  0
ARC
  5
20A
330
7D
100
AcDbEntity
  8
1
  6
Continuous
 62
     7
100
AcDbCircle
 10
214.2368329931488
 20
293.5000000000001
 30
0.0
 40
5.000000000000027
100
AcDbArc
 50
64.15806723683225
 51
90.0
  0
ENDBLK
  5
7F
330
7D
100
AcDbEntity
  8
0
100
AcDbBlockEnd
  0
BLOCK
  5
81
330
80
100
AcDbEntity
  8
0
100
AcDbBlockBegin
  2
92-53__24
 70
     0
 71
     0
 10
134.2015869268242
 20
115.8160032925198
 30
0.0
  3
92-53__24
  1

  0
LINE
  5
20B
330
80
100
AcDbEntity
  8
1
  6
Continuous
 62
     7
100
AcDbLine
 10
214.0000000000001
 20
301.0
 30
0.0
 11
214.0000000000001
 21
299.5
 31
0.0
  0
LINE
  5
20C
330
80
100
AcDbEntity
  8
1
  6
Continuous
 62
     7
100
AcDbLine
 10
250.9999999999998
 20
299.5
 30
0.0
 11
250.9999999999998
 21
301.0
 31
0.0
  0
LINE
  5
20D
330
80
100
AcDbEntity
  8
1
  6
Continuous
 62
     7
100
AcDbLine
 10
214.0000000000001
 20
301.0
 30
0.0
 11
250.9999999999998
 21
301.0
 31
0.0
  0
ENDBLK
  5
82
330
80
100
AcDbEntity
  8
0
100
AcDbBlockEnd
  0
BLOCK
  5
84
330
83
100
AcDbEntity
  8
0
100
AcDbBlockBegin
  2
32-25__25
 70
     0
 71
     0
 10
257.3350780510843
 20
264.0774234108632
 30
0.0
  3
32-25__25
  1

  0
LINE
  5
20E
330
83
100
AcDbEntity
  8
1
  6
Continuous
 62
     7
100
AcDbLine
 10
135.7751814084598
 20
297.0000000000002
 30
0.0
 11
135.5
 21
297.0000000000002
 31
0.0
  0
LINE
  5
20F
330
83
100
AcDbEntity
  8
1
  6
Continuous
 62
     7
100
AcDbLine
 10
159.5
 20
291.0000000000002
 30
0.0
 11
135.5
 21
291.0000000000002
 31
0.0
  0
LINE
  5
210
330
83
100
AcDbEntity
  8
1
  6
Continuous
 62
     7
100
AcDbLine
 10
159.5
 20
297.0000000000002
 30
0.0
 11
159.2248185915402
 21
297.0000000000002
 31
0.0
  0
LINE
  5
211
330
83
100
AcDbEntity
  8
1
  6
Continuous
 62
     7
100
AcDbLine
 10
159.5
 20
297.0000000000002
 30
0.0
 11
159.5
 21
291.0000000000002
 31
0.0
  0
LINE
  5
212
330
83
100
AcDbEntity
  8
1
  6
Continuous
 62
     7
100
AcDbLine
 10
135.5
 20
297.0000000000002
 30
0.0
 11
135.5
 21
291.0000000000002
 31
0.0
  0
LINE
  5
213
330
83
100
AcDbEntity
  8
1
  6
Continuous
 62
     7
100
AcDbLine
 10
147.5
 20
292.0680954280754
 30
0.0
 11
147.5
 21
297.0000000000002
 31
0.0
  0
ARC
  5
214
330
83
100
AcDbEntity
  8
1
  6
Continuous
 62
     7
100
AcDbCircle
 10
153.5
 20
308.3864744980712
 30
0.0
 40
17.3864744980711
100
AcDbArc
 50
-110.1876462291004
 51
-69.81235377089965
  0
ARC
  5
215
330
83
100
AcDbEntity
  8
1
  6
Continuous
 62
     7
100
AcDbCircle
 10
141.4999999999999
 20
308.3864744980709
 30
0.0
 40
17.38647449807079
100
AcDbArc
 50
-110.1876462291003
 51
-69.81235377089897
  0
ENDBLK
  5
85
330
83
100
AcDbEntity
  8
0
100
AcDbBlockEnd
  0
BLOCK
  5
87
330
86
100
AcDbEntity
  8
0
100
AcDbBlockBegin
  2
30-302-M11__26
 70
     0
 71
     0
 10
578.75
 20
311.7500000000002
 30
0.0
  3
30-302-M11__26
  1

  0
LINE
  5
216
330
86
100
AcDbEntity
  8
1
  6
Continuous
 62
     7
100
AcDbLine
 10
530.448623679426
 20
340.2500000000002
 30
0.0
 11
534.2178993399348
 21
340.2500000000002
 31
0.0
  0
LINE
  5
217
330
86
100
AcDbEntity
  8
1
  6
Continuous
 62
     7
100
AcDbLine
 10
534.2178993399348
 20
338.7500000000002
 30
0.0
 11
530.448623679426
 21
338.7500000000002
 31
0.0
  0
LINE
  5
218
330
86
100
AcDbEntity
  8
1
  6
Continuous
 62
     7
100
AcDbLine
 10
519.5513763205743
 20
338.7500000000002
 30
0.0
 11
515.7821006600652
 21
338.7500000000002
 31
0.0
  0
LINE
  5
219
330
86
100
AcDbEntity
  8
1
  6
Continuous
 62
     7
100
AcDbLine
 10
515.7821006600652
 20
340.2500000000002
 30
0.0
 11
519.5513763205743
 21
340.2500000000002
 31
0.0
  0
ARC
  5
21A
330
86
100
AcDbEntity
  8
1
  6
Continuous
 62
     7
100
AcDbCircle
 10
525.0
 20
339.5000000000002
 30
0.0
 40
9.248360300138071
100
AcDbArc
 50
-4.65153537443193
 51
4.65153537443193
  0
ARC
  5
21B
330
86
100
AcDbEntity
  8
1
  6
Continuous
 62
     7
100
AcDbCircle
 10
525.0
 20
339.5000000000002
 30
0.0
 40
9.248360300138071
100
AcDbArc
 50
175.3484646255681
 51
-175.3484646255681
  0
ARC
  5
21C
330
86
100
AcDbEntity
  8
1
  6
Continuous
 62
     7
100
AcDbCircle
 10
525.0
 20
339.5000000000002
 30
0.0
 40
8.499999999999984
100
AcDbArc
 50
-174.9379070357153
 51
-5.06209296428467
  0
ARC
  5
21D
330
86
100
AcDbEntity
  8
1
  6
Continuous
 62
     7
100
AcDbCircle
 10
525.0
 20
339.5000000000002
 30
0.0
 40
8.499999999999984
100
AcDbArc
 50
5.06209296428467
 51
174.9379070357153
  0
ARC
  5
21E
330
86
100
AcDbEntity
  8
1
  6
Continuous
 62
     7
100
AcDbCircle
 10
525.0
 20
339.5000000000002
 30
0.0
 40
5.500000000000121
100
AcDbArc
 50
7.83747976308412
 51
172.1625202369156
  0
ARC
  5
21F
330
86
100
AcDbEntity
  8
1
  6
Continuous
 62
     7
100
AcDbCircle
 10
525.0
 20
339.5000000000002
 30
0.0
 40
5.499999999999896
100
AcDbArc
 50
-172.1625202369156
 51
-7.83747976308412
  0
CIRCLE
  5
220
330
86
100
AcDbEntity
  8
1
  6
Continuous
 62
     7
100
AcDbCircle
 10
525.0
 20
339.5000000000002
 30
0.0
 40
9.5
  0
ENDBLK
  5
88
330
86
100
AcDbEntity
  8
0
100
AcDbBlockEnd
  0
BLOCK
  5
8A
330
89
100
AcDbEntity
  8
0
100
AcDbBlockBegin
  2
36-99__27
 70
     0
 71
     0
 10
519.75
 20
297.5000000000001
 30
0.0
  3
36-99__27
  1

  0
LINE
  5
221
330
89
100
AcDbEntity
  8
1
  6
Continuous
 62
     7
100
AcDbLine
 10
525.5
 20
344.6256706878225
 30
0.0
 11
525.5
 21
343.7204857540337
 31
0.0
  0
LINE
  5
222
330
89
100
AcDbEntity
  8
1
  6
Continuous
 62
     7
100
AcDbLine
 10
524.5
 20
343.7204857540337
 30
0.0
 11
524.5
 21
344.6256706878225
 31
0.0
  0
LINE
  5
223
330
89
100
AcDbEntity
  8
1
  6
Continuous
 62
     7
100
AcDbLine
 10
525.5
 20
334.2738637599085
 30
0.0
 11
525.5
 21
335.2795142459667
 31
0.0
  0
LINE
  5
224
330
89
100
AcDbEntity
  8
1
  6
Continuous
 62
     7
100
AcDbLine
 10
524.5
 20
335.2795142459667
 30
0.0
 11
524.5
 21
334.2738637599085
 31
0.0
  0
LINE
  5
225
330
89
100
AcDbEntity
  8
1
  6
Continuous
 62
     7
100
AcDbLine
 10
524.5
 20
335.2795142459667
 30
0.0
 11
524.5
 21
343.7204857540337
 31
0.0
  0
LINE
  5
226
330
89
100
AcDbEntity
  8
1
  6
Continuous
 62
     7
100
AcDbLine
 10
525.5
 20
335.2795142459667
 30
0.0
 11
525.5
 21
343.7204857540337
 31
0.0
  0
ARC
  5
227
330
89
100
AcDbEntity
  8
1
  6
Continuous
 62
     7
100
AcDbCircle
 10
525.0
 20
339.5000000000002
 30
0.0
 40
4.249999999999929
100
AcDbArc
 50
96.75632703058794
 51
-96.75632703058786
  0
ARC
  5
228
330
89
100
AcDbEntity
  8
1
  6
Continuous
 62
     7
100
AcDbCircle
 10
525.0
 20
339.5000000000002
 30
0.0
 40
4.25
100
AcDbArc
 50
0.0
 51
83.24367296941206
  0
ARC
  5
229
330
89
100
AcDbEntity
  8
1
  6
Continuous
 62
     7
100
AcDbCircle
 10
525.0
 20
339.5000000000002
 30
0.0
 40
4.249999999999986
100
AcDbArc
 50
-83.24367296941216
 51
0.0
  0
ARC
  5
22A
330
89
100
AcDbEntity
  8
1
  6
Continuous
 62
     7
100
AcDbCircle
 10
525.0
 20
339.5000000000002
 30
0.0
 40
5.249999999999988
100
AcDbArc
 50
-95.46502379990589
 51
-84.53497620009411
  0
ENDBLK
  5
8B
330
89
100
AcDbEntity
  8
0
100
AcDbBlockEnd
  0
BLOCK
  5
8D
330
8C
100
AcDbEntity
  8
0
100
AcDbBlockBegin
  2
78-78__28
 70
     0
 71
     0
 10
519.1500000000001
 20
312.8000000000001
 30
0.0
  3
78-78__28
  1

  0
LINE
  5
22B
330
8C
100
AcDbEntity
  8
1
  6
Continuous
 62
     7
100
AcDbLine
 10
521.1109127034738
 20
335.6109127034741
 30
0.0
 11
521.3584000768892
 21
335.8584000768894
 31
0.0
  0
LINE
  5
22C
330
8C
100
AcDbEntity
  8
1
  6
Continuous
 62
     7
100
AcDbLine
 10
528.889087296526
 20
335.6109127034741
 30
0.0
 11
528.6415999231108
 21
335.8584000768894
 31
0.0
  0
ARC
  5
22D
330
8C
100
AcDbEntity
  8
1
  6
Continuous
 62
     7
100
AcDbCircle
 10
525.0
 20
339.5000000000002
 30
0.0
 40
5.150000000000138
100
AcDbArc
 50
-45.00000000000046
 51
0.0
  0
ARC
  5
22E
330
8C
100
AcDbEntity
  8
1
  6
Continuous
 62
     7
100
AcDbCircle
 10
525.0
 20
339.5000000000002
 30
0.0
 40
5.150000000000091
100
AcDbArc
 50
0.0
 51
-134.9999999999996
  0
ARC
  5
22F
330
8C
100
AcDbEntity
  8
1
  6
Continuous
 62
     7
100
AcDbCircle
 10
525.0
 20
339.5000000000002
 30
0.0
 40
5.849999999999897
100
AcDbArc
 50
-7.3658858289648
 51
7.3658858289648
  0
ARC
  5
230
330
8C
100
AcDbEntity
  8
1
  6
Continuous
 62
     7
100
AcDbCircle
 10
525.0
 20
339.5000000000002
 30
0.0
 40
5.849999999999897
100
AcDbArc
 50
172.6341141710352
 51
-172.6341141710352
  0
ENDBLK
  5
8E
330
8C
100
AcDbEntity
  8
0
100
AcDbBlockEnd
  0
BLOCK
  5
93
330
8F
100
AcDbEntity
  8
0
100
AcDbBlockBegin
  2
30-302X__29
 70
     0
 71
     0
 10
1260.0
 20
0.0
 30
0.0
  3
30-302X__29
  1

  0
INSERT
  5
90
330
8F
100
AcDbEntity
  8
1
100
AcDbBlockReference
  2
30-302-M11__26
 10
578.75
 20
311.7500000000002
 30
0.0
  0
INSERT
  5
91
330
8F
100
AcDbEntity
  8
1
100
AcDbBlockReference
  2
36-99__27
 10
519.75
 20
297.5000000000001
 30
0.0
  0
INSERT
  5
92
330
8F
100
AcDbEntity
  8
1
100
AcDbBlockReference
  2
78-78__28
 10
519.1500000000001
 20
312.8000000000001
 30
0.0
  0
ENDBLK
  5
94
330
8F
100
AcDbEntity
  8
0
100
AcDbBlockEnd
  0
BLOCK
  5
96
330
95
100
AcDbEntity
  8
0
100
AcDbBlockBegin
  2
76-105-C4__30
 70
     0
 71
     0
 10
308.5
 20
369.0000000000002
 30
0.0
  3
76-105-C4__30
  1

  0
LINE
  5
231
330
95
100
AcDbEntity
  8
1
  6
Continuous
 62
     7
100
AcDbLine
 10
265.0
 20
420.1476151587626
 30
0.0
 11
265.0
 21
314.0
 31
0.0
  0
LINE
  5
232
330
95
100
AcDbEntity
  8
1
  6
Continuous
 62
     7
100
AcDbLine
 10
132.5
 20
314.0
 30
0.0
 11
115.0
 21
314.0
 31
0.0
  0
LINE
  5
233
330
95
100
AcDbEntity
  8
1
  6
Continuous
 62
     7
100
AcDbLine
 10
115.5
 20
420.6476151587626
 30
0.0
 11
264.5
 21
420.6476151587626
 31
0.0
  0
LINE
  5
234
330
95
100
AcDbEntity
  8
1
  6
Continuous
 62
     7
100
AcDbLine
 10
265.0
 20
314.0
 30
0.0
 11
247.5
 21
314.0
 31
0.0
  0
LINE
  5
235
330
95
100
AcDbEntity
  8
1
  6
Continuous
 62
     7
100
AcDbLine
 10
115.0
 20
314.0
 30
0.0
 11
115.0
 21
420.1476151587626
 31
0.0
  0
LINE
  5
236
330
95
100
AcDbEntity
  8
1
  6
Continuous
 62
     7
100
AcDbLine
 10
115.0
 20
352.1006583046444
 30
0.0
 11
265.0
 21
352.1006583046444
 31
0.0
  0
LINE
  5
237
330
95
100
AcDbEntity
  8
1
  6
Continuous
 62
     7
100
AcDbLine
 10
117.0
 20
398.7282739314194
 30
0.0
 11
263.0
 21
398.7282739314194
 31
0.0
  0
LINE
  5
238
330
95
100
AcDbEntity
  8
1
  6
Continuous
 62
     7
100
AcDbLine
 10
263.0
 20
400.3517277026398
 30
0.0
 11
117.0
 21
400.3517277026398
 31
0.0
  0
LINE
  5
239
330
95
100
AcDbEntity
  8
1
  6
Continuous
 62
     7
100
AcDbLine
 10
117.0
 20
400.3517277026398
 30
0.0
 11
117.0
 21
352.1006583046444
 31
0.0
  0
LINE
  5
23A
330
95
100
AcDbEntity
  8
1
  6
Continuous
 62
     7
100
AcDbLine
 10
263.0
 20
400.3517277026398
 30
0.0
 11
263.0
 21
352.1006583046444
 31
0.0
  0
LINE
  5
23B
330
95
100
AcDbEntity
  8
1
  6
Continuous
 62
     7
100
AcDbLine
 10
115.0
 20
568.9453801971505
 30
0.0
 11
265.0
 21
568.9453801971505
 31
0.0
  0
LINE
  5
23C
330
95
100
AcDbEntity
  8
1
  6
Continuous
 62
     7
100
AcDbLine
 10
265.0
 20
568.9453801971505
 30
0.0
 11
265.0
 21
722.0
 31
0.0
  0
LINE
  5
23D
330
95
100
AcDbEntity
  8
1
  6
Continuous
 62
     7
100
AcDbLine
 10
265.0
 20
722.0
 30
0.0
 11
115.0
 21
722.0
 31
0.0
  0
LINE
  5
23E
330
95
100
AcDbEntity
  8
1
  6
Continuous
 62
     7
100
AcDbLine
 10
115.0
 20
722.0
 30
0.0
 11
115.0
 21
568.9453801971505
 31
0.0
  0
LINE
  5
23F
330
95
100
AcDbEntity
  8
1
  6
Continuous
 62
     7
100
AcDbLine
 10
117.0
 20
568.9453801971505
 30
0.0
 11
117.0
 21
611.817803001022
 31
0.0
  0
LINE
  5
240
330
95
100
AcDbEntity
  8
1
  6
Continuous
 62
     7
100
AcDbLine
 10
117.0
 20
611.817803001022
 30
0.0
 11
263.0
 21
611.817803001022
 31
0.0
  0
LINE
  5
241
330
95
100
AcDbEntity
  8
1
  6
Continuous
 62
     7
100
AcDbLine
 10
263.0
 20
611.817803001022
 30
0.0
 11
263.0
 21
568.9453801971505
 31
0.0
  0
LINE
  5
242
330
95
100
AcDbEntity
  8
8
  6
PHANTOM
 62
     5
100
AcDbLine
 10
446.817803001022
 20
400.3517277026398
 30
0.0
 11
449.7379890532172
 21
396.2930932745891
 31
0.0
  0
LINE
  5
243
330
95
100
AcDbEntity
  8
1
  6
Continuous
 62
     7
100
AcDbLine
 10
557.0
 20
314.0000000000004
 30
0.0
 11
557.0
 21
374.0000000000004
 31
0.0
  0
LINE
  5
244
330
95
100
AcDbEntity
  8
1
  6
Continuous
 62
     7
100
AcDbLine
 10
550.0
 20
314.0000000000004
 30
0.0
 11
557.0
 21
314.0000000000004
 31
0.0
  0
LINE
  5
245
330
95
100
AcDbEntity
  8
1
  6
PHANTOM
 62
     4
100
AcDbLine
 10
403.9453801971505
 20
353.1006583046444
 30
0.0
 11
403.9453801971505
 21
350.3013415468029
 31
0.0
  0
LINE
  5
246
330
95
100
AcDbEntity
  8
1
  6
PHANTOM
 62
     4
100
AcDbLine
 10
403.9453801971505
 20
350.3013415468029
 30
0.0
 11
405.5976155198645
 21
352.3426417587801
 31
0.0
  0
LINE
  5
247
330
95
100
AcDbEntity
  8
1
  6
Continuous
 62
     7
100
AcDbLine
 10
550.0
 20
314.0000000000004
 30
0.0
 11
550.0
 21
374.0000000000004
 31
0.0
  0
ARC
  5
248
330
95
100
AcDbEntity
  8
1
  6
PHANTOM
 62
     5
100
AcDbCircle
 10
592.8274058730619
 20
197.4195886246033
 30
0.0
 40
245.0005144027481
100
AcDbArc
 50
125.7350023791923
 51
130.0
  0
ARC
  5
249
330
95
100
AcDbEntity
  8
1
  6
Continuous
 62
     7
100
AcDbCircle
 10
592.8274058730619
 20
197.4195886246033
 30
0.0
 40
243.0005144027481
100
AcDbArc
 50
122.2001682892449
 51
130.0
  0
ARC
  5
24A
330
95
100
AcDbEntity
  8
1
  6
Continuous
 62
     7
100
AcDbCircle
 10
512.895317532533
 20
324.3487640517323
 30
0.0
 40
99.99999999999946
100
AcDbArc
 50
96.77128748117059
 51
120.0
  0
ARC
  5
24B
330
95
100
AcDbEntity
  8
1
  6
Continuous
 62
     7
100
AcDbCircle
 10
512.895317532533
 20
324.3487640517323
 30
0.0
 40
92.99999999999993
100
AcDbArc
 50
96.77128748117106
 51
120.0
  0
ARC
  5
24C
330
95
100
AcDbEntity
  8
1
  6
Continuous
 62
     7
100
AcDbCircle
 10
592.8274058730619
 20
197.4195886246033
 30
0.0
 40
243.0005144027481
100
AcDbArc
 50
130.0
 51
140.3544885906752
  0
ARC
  5
24D
330
95
100
AcDbEntity
  8
1
  6
Continuous
 62
     7
100
AcDbCircle
 10
433.7000330666513
 20
349.3363604478722
 30
0.0
 40
29.99999999999999
100
AcDbArc
 50
136.3279884166231
 51
172.5417697746351
  0
ARC
  5
24E
330
95
100
AcDbEntity
  8
1
  6
Continuous
 62
     7
100
AcDbCircle
 10
592.8274058730619
 20
197.4195886246033
 30
0.0
 40
250.0005144027481
100
AcDbArc
 50
122.2001682892448
 51
125.7350023801608
  0
ARC
  5
24F
330
95
100
AcDbEntity
  8
1
  6
PHANTOM
 62
     5
100
AcDbCircle
 10
592.8274058730619
 20
197.4195886246033
 30
0.0
 40
245.0005144027481
100
AcDbArc
 50
130.0
 51
140.3544885906752
  0
ARC
  5
250
330
95
100
AcDbEntity
  8
1
  6
Continuous
 62
     7
100
AcDbCircle
 10
592.8274058730619
 20
197.4195886246033
 30
0.0
 40
250.0005144027475
100
AcDbArc
 50
125.7350023801608
 51
136.3279884166232
  0
ARC
  5
251
330
95
100
AcDbEntity
  8
1
  6
Continuous
 62
     7
100
AcDbCircle
 10
512.895317532533
 20
324.3487640517323
 30
0.0
 40
100.0
100
AcDbArc
 50
120.0
 51
122.2001682892449
  0
ARC
  5
252
330
95
100
AcDbEntity
  8
1
  6
Continuous
 62
     7
100
AcDbCircle
 10
507.0
 20
374.0000000000004
 30
0.0
 40
50.0
100
AcDbArc
 50
0.0
 51
90.0
  0
ARC
  5
253
330
95
100
AcDbEntity
  8
1
  6
Continuous
 62
     7
100
AcDbCircle
 10
512.895317532533
 20
324.3487640517323
 30
0.0
 40
93.00000000000016
100
AcDbArc
 50
120.0
 51
122.2001682892451
  0
ARC
  5
254
330
95
100
AcDbEntity
  8
1
  6
Continuous
 62
     7
100
AcDbCircle
 10
507.0
 20
374.0000000000004
 30
0.0
 40
43.0
100
AcDbArc
 50
0.0
 51
96.77128748117075
  0
ARC
  5
255
330
95
100
AcDbEntity
  8
1
  6
Continuous
 62
     7
100
AcDbCircle
 10
507.0
 20
374.0000000000004
 30
0.0
 40
50.0
100
AcDbArc
 50
90.0
 51
96.77128748116985
  0
ARC
  5
256
330
95
100
AcDbEntity
  8
1
  6
Continuous
 62
     7
100
AcDbCircle
 10
264.5
 20
420.1476151587626
 30
0.0
 40
0.5
100
AcDbArc
 50
0.0
 51
90.0
  0
ARC
  5
257
330
95
100
AcDbEntity
  8
1
  6
Continuous
 62
     7
100
AcDbCircle
 10
115.5
 20
420.1476151587626
 30
0.0
 40
0.5
100
AcDbArc
 50
90.0
 51
180.0
  0
ARC
  5
258
330
95
100
AcDbEntity
  8
1
  6
Continuous
 62
     7
100
AcDbCircle
 10
404.9453801971505
 20
353.1006583046444
 30
0.0
 40
1.000000000000045
100
AcDbArc
 50
172.5417697746343
 51
180.0
  0
ARC
  5
259
330
95
100
AcDbEntity
  8
1
  6
Continuous
 62
     7
100
AcDbCircle
 10
404.9453801971505
 20
353.1006583046444
 30
0.0
 40
1.0
100
AcDbArc
 50
180.0
 51
-90.0
  0
ARC
  5
25A
330
95
100
AcDbEntity
  8
1
  6
Continuous
 62
     7
100
AcDbCircle
 10
404.9453801971505
 20
353.1006583046444
 30
0.0
 40
1.000000000000027
100
AcDbArc
 50
140.3544885906807
 51
172.5417697746343
  0
ARC
  5
25B
330
95
100
AcDbEntity
  8
1
  6
Continuous
 62
     7
100
AcDbCircle
 10
404.9453801971505
 20
353.1006583046444
 30
0.0
 40
1.0
100
AcDbArc
 50
-90.0
 51
-39.64551140932596
  0
ENDBLK
  5
97
330
95
100
AcDbEntity
  8
0
100
AcDbBlockEnd
  0
BLOCK
  5
99
330
98
100
AcDbEntity
  8
0
100
AcDbBlockBegin
  2
98-198__31
 70
     0
 71
     0
 10
113.5
 20
311.0
 30
0.0
  3
98-198__31
  1

  0
LINE
  5
25C
330
98
100
AcDbEntity
  8
1
  6
Continuous
 62
     7
100
AcDbLine
 10
250.9999999999999
 20
314.0
 30
0.0
 11
129.0
 21
314.0
 31
0.0
  0
LINE
  5
25D
330
98
100
AcDbEntity
  8
1
  6
Continuous
 62
     7
100
AcDbLine
 10
129.0
 20
311.0000000000001
 30
0.0
 11
250.9999999999999
 21
311.0000000000001
 31
0.0
  0
LINE
  5
25E
330
98
100
AcDbEntity
  8
1
  6
Continuous
 62
     7
100
AcDbLine
 10
250.9999999999999
 20
311.0000000000001
 30
0.0
 11
250.9999999999999
 21
314.0
 31
0.0
  0
LINE
  5
25F
330
98
100
AcDbEntity
  8
1
  6
Continuous
 62
     7
100
AcDbLine
 10
129.0
 20
314.0
 30
0.0
 11
129.0
 21
311.0000000000001
 31
0.0
  0
ENDBLK
  5
9A
330
98
100
AcDbEntity
  8
0
100
AcDbBlockEnd
  0
BLOCK
  5
9C
330
9B
100
AcDbEntity
  8
0
100
AcDbBlockBegin
  2
____32
 70
     0
 71
     0
 10
-78.37577226989109
 20
301.0
 30
0.0
  3
____32
  1

  0
LINE
  5
260
102
{ACAD_REACTORS
330
26C
330
26C
102
}
330
9B
100
AcDbEntity
  8
1
  6
PHANTOM
 62
   250
100
AcDbLine
 10
108.5225000000009
 20
311.0
 30
0.0
 11
108.5225000000009
 21
301.0
 31
0.0
  0
LINE
  5
261
102
{ACAD_REACTORS
330
26C
330
26C
102
}
330
9B
100
AcDbEntity
  8
1
  6
PHANTOM
 62
     2
100
AcDbLine
 10
108.5225000000009
 20
301.0
 30
0.0
 11
136.0
 21
301.0
 31
0.0
  0
LINE
  5
262
102
{ACAD_REACTORS
330
26C
330
26C
102
}
330
9B
100
AcDbEntity
  8
1
  6
PHANTOM
 62
     2
100
AcDbLine
 10
136.0
 20
301.0
 30
0.0
 11
136.0
 21
311.0
 31
0.0
  0
LINE
  5
263
102
{ACAD_REACTORS
330
26C
330
26C
102
}
330
9B
100
AcDbEntity
  8
1
  6
PHANTOM
 62
     2
100
AcDbLine
 10
136.0
 20
311.0
 30
0.0
 11
108.5225000000009
 21
311.0
 31
0.0
  0
LINE
  5
264
102
{ACAD_REACTORS
330
26D
330
26D
102
}
330
9B
100
AcDbEntity
  8
1
  6
PHANTOM
 62
     2
100
AcDbLine
 10
159.0
 20
301.0
 30
0.0
 11
159.0
 21
311.0
 31
0.0
  0
LINE
  5
265
102
{ACAD_REACTORS
330
26D
330
26D
102
}
330
9B
100
AcDbEntity
  8
1
  6
PHANTOM
 62
     2
100
AcDbLine
 10
159.0
 20
311.0
 30
0.0
 11
221.0225000000009
 21
311.0
 31
0.0
  0
LINE
  5
266
102
{ACAD_REACTORS
330
26D
330
26D
102
}
330
9B
100
AcDbEntity
  8
1
  6
PHANTOM
 62
     2
100
AcDbLine
 10
221.0225000000009
 20
311.0
 30
0.0
 11
221.0225000000009
 21
301.0
 31
0.0
  0
LINE
  5
267
102
{ACAD_REACTORS
330
26D
330
26D
102
}
330
9B
100
AcDbEntity
  8
1
  6
PHANTOM
 62
     2
100
AcDbLine
 10
221.0225000000009
 20
301.0
 30
0.0
 11
159.0
 21
301.0
 31
0.0
  0
LINE
  5
268
102
{ACAD_REACTORS
330
26E
330
26E
102
}
330
9B
100
AcDbEntity
  8
1
  6
PHANTOM
 62
     2
100
AcDbLine
 10
243.9775000000011
 20
301.0
 30
0.0
 11
243.9775000000011
 21
311.0
 31
0.0
  0
LINE
  5
269
102
{ACAD_REACTORS
330
26E
330
26E
102
}
330
9B
100
AcDbEntity
  8
1
  6
PHANTOM
 62
     2
100
AcDbLine
 10
243.9775000000011
 20
311.0
 30
0.0
 11
271.4775000000011
 21
311.0
 31
0.0
  0
LINE
  5
26A
102
{ACAD_REACTORS
330
26E
330
26E
102
}
330
9B
100
AcDbEntity
  8
1
  6
PHANTOM
 62
   250
100
AcDbLine
 10
271.4775000000011
 20
311.0
 30
0.0
 11
271.4775000000011
 21
301.0
 31
0.0
  0
LINE
  5
26B
102
{ACAD_REACTORS
330
26E
330
26E
102
}
330
9B
100
AcDbEntity
  8
1
  6
PHANTOM
 62
     2
100
AcDbLine
 10
271.4775000000011
 20
301.0
 30
0.0
 11
243.9775000000011
 21
301.0
 31
0.0
  0
HATCH
  5
26C
330
9B
100
AcDbEntity
  8
1
  6
Continuous
 62
     4
100
AcDbHatch
 10
0.0
 20
0.0
 30
0.0
210
0.0
220
0.0
230
1.0
  2
CUSTOM3
 70
     0
 71
     1
 91
        1
 92
        1
 93
        4
 72
     1
 10
136.0
 20
311.0
 11
108.5225000000009
 21
311.0
 72
     1
 10
108.5225000000009
 20
311.0
 11
108.5225000000009
 21
301.0
 72
     1
 10
108.5225000000009
 20
301.0
 11
136.0
 21
301.0
 72
     1
 10
136.0
 20
301.0
 11
136.0
 21
311.0
 97
        4
330
263
330
260
330
261
330
262
 75
     1
 76
     2
 52
45.0
 41
4.5
 77
     0
 78
     2
 53
45.0
 43
0.0
 44
0.0
 45
-19.09188309203679
 46
0.000000000000002
 79
     0
 53
45.0
 43
3.181980515339464
 44
-3.181980515339464
 45
-19.09188309203679
 46
0.000000000000002
 79
     0
 98
        1
 10
0.0
 20
0.0
  0
HATCH
  5
26D
330
9B
100
AcDbEntity
  8
1
  6
Continuous
 62
     4
100
AcDbHatch
 10
0.0
 20
0.0
 30
0.0
210
0.0
220
0.0
230
1.0
  2
CUSTOM4
 70
     0
 71
     1
 91
        1
 92
        1
 93
        4
 72
     1
 10
221.0225000000009
 20
301.0
 11
159.0
 21
301.0
 72
     1
 10
159.0
 20
301.0
 11
159.0
 21
311.0
 72
     1
 10
159.0
 20
311.0
 11
221.0225000000009
 21
311.0
 72
     1
 10
221.0225000000009
 20
311.0
 11
221.0225000000009
 21
301.0
 97
        4
330
265
330
264
330
267
330
266
 75
     1
 76
     2
 52
45.0
 41
4.5
 77
     0
 78
     2
 53
45.0
 43
0.0
 44
0.0
 45
-19.09188309203679
 46
0.000000000000002
 79
     0
 53
45.0
 43
3.181980515339464
 44
-3.181980515339464
 45
-19.09188309203679
 46
0.000000000000002
 79
     0
 98
        1
 10
0.0
 20
0.0
  0
HATCH
  5
26E
330
9B
100
AcDbEntity
  8
1
  6
Continuous
 62
     4
100
AcDbHatch
 10
0.0
 20
0.0
 30
0.0
210
0.0
220
0.0
230
1.0
  2
CUSTOM5
 70
     0
 71
     1
 91
        1
 92
        1
 93
        4
 72
     1
 10
271.4775000000011
 20
301.0
 11
243.9775000000011
 21
301.0
 72
     1
 10
243.9775000000011
 20
301.0
 11
243.9775000000011
 21
311.0
 72
     1
 10
243.9775000000011
 20
311.0
 11
271.4775000000011
 21
311.0
 72
     1
 10
271.4775000000011
 20
311.0
 11
271.4775000000011
 21
301.0
 97
        4
330
269
330
268
330
26B
330
26A
 75
     1
 76
     2
 52
45.0
 41
4.5
 77
     0
 78
     2
 53
45.0
 43
0.0
 44
0.0
 45
-19.09188309203679
 46
0.000000000000002
 79
     0
 53
45.0
 43
3.181980515339464
 44
-3.181980515339464
 45
-19.09188309203679
 46
0.000000000000002
 79
     0
 98
        1
 10
0.0
 20
0.0
  0
ENDBLK
  5
9D
330
9B
100
AcDbEntity
  8
0
100
AcDbBlockEnd
  0
BLOCK
  5
9F
330
9E
100
AcDbEntity
  8
0
100
AcDbBlockBegin
  2
K7590-0-M1__33
 70
     0
 71
     0
 10
-324.3680853867004
 20
-455.3970661835571
 30
0.0
  3
K7590-0-M1__33
  1

  0
LINE
  5
26F
330
9E
100
AcDbEntity
  8
1
  6
Continuous
 62
     7
100
AcDbLine
 10
252.5000000000002
 20
352.1006583046444
 30
0.0
 11
252.4999999999997
 21
314.0000000000001
 31
0.0
  0
LINE
  5
270
330
9E
100
AcDbEntity
  8
1
  6
Continuous
 62
     7
100
AcDbLine
 10
127.5000000000001
 20
314.0000000000001
 30
0.0
 11
127.4999999999999
 21
352.1006583046444
 31
0.0
  0
LINE
  5
271
330
9E
100
AcDbEntity
  8
1
  6
Continuous
 62
     7
100
AcDbLine
 10
252.4999999999997
 20
314.0000000000001
 30
0.0
 11
127.5000000000001
 21
314.0000000000001
 31
0.0
  0
ENDBLK
  5
A0
330
9E
100
AcDbEntity
  8
0
100
AcDbBlockEnd
  0
BLOCK
  5
A2
330
A1
100
AcDbEntity
  8
0
100
AcDbBlockBegin
  2
98-201__34
 70
     0
 71
     0
 10
113.5
 20
314.0
 30
0.0
  3
98-201__34
  1

  0
LINE
  5
272
330
A1
100
AcDbEntity
  8
1
  6
Continuous
 62
     7
100
AcDbLine
 10
129.0
 20
314.0
 30
0.0
 11
116.0
 21
314.0
 31
0.0
  0
LINE
  5
273
330
A1
100
AcDbEntity
  8
1
  6
Continuous
 62
     7
100
AcDbLine
 10
116.0
 20
311.0
 30
0.0
 11
129.0
 21
311.0
 31
0.0
  0
LINE
  5
274
330
A1
100
AcDbEntity
  8
1
  6
Continuous
 62
     7
100
AcDbLine
 10
116.0
 20
314.0
 30
0.0
 11
116.0
 21
311.0
 31
0.0
  0
LINE
  5
275
330
A1
100
AcDbEntity
  8
1
  6
Continuous
 62
     7
100
AcDbLine
 10
264.0
 20
311.0
 30
0.0
 11
264.0
 21
314.0
 31
0.0
  0
LINE
  5
276
330
A1
100
AcDbEntity
  8
1
  6
Continuous
 62
     7
100
AcDbLine
 10
250.9999999999999
 20
311.0
 30
0.0
 11
264.0
 21
311.0
 31
0.0
  0
LINE
  5
277
330
A1
100
AcDbEntity
  8
1
  6
Continuous
 62
     7
100
AcDbLine
 10
264.0
 20
314.0
 30
0.0
 11
250.9999999999999
 21
314.0
 31
0.0
  0
ENDBLK
  5
A3
330
A1
100
AcDbEntity
  8
0
100
AcDbBlockEnd
  0
BLOCK
  5
A5
330
A4
100
AcDbEntity
  8
0
100
AcDbBlockBegin
  2
32-25__35
 70
     0
 71
     0
 10
266.4485900044969
 20
299.8720289807661
 30
0.0
  3
32-25__35
  1

  0
LINE
  5
278
330
A4
100
AcDbEntity
  8
1
  6
Continuous
 62
     7
100
AcDbLine
 10
525.0
 20
297.0000000000004
 30
0.0
 11
513.0
 21
297.0000000000004
 31
0.0
  0
LINE
  5
279
330
A4
100
AcDbEntity
  8
1
  6
Continuous
 62
     7
100
AcDbLine
 10
537.0
 20
297.0000000000004
 30
0.0
 11
525.0
 21
297.0000000000004
 31
0.0
  0
LINE
  5
27A
330
A4
100
AcDbEntity
  8
1
  6
Continuous
 62
     7
100
AcDbLine
 10
537.0
 20
291.0000000000004
 30
0.0
 11
525.0
 21
291.0000000000004
 31
0.0
  0
LINE
  5
27B
330
A4
100
AcDbEntity
  8
1
  6
Continuous
 62
     7
100
AcDbLine
 10
525.0
 20
292.0680954280756
 30
0.0
 11
525.0
 21
297.0000000000004
 31
0.0
  0
LINE
  5
27C
330
A4
100
AcDbEntity
  8
1
  6
Continuous
 62
     7
100
AcDbLine
 10
537.0
 20
297.0000000000004
 30
0.0
 11
537.0
 21
291.0000000000004
 31
0.0
  0
LINE
  5
27D
330
A4
100
AcDbEntity
  8
1
  6
Continuous
 62
     7
100
AcDbLine
 10
513.0
 20
297.0000000000004
 30
0.0
 11
513.0000000000013
 21
291.0000000000004
 31
0.0
  0
LINE
  5
27E
330
A4
100
AcDbEntity
  8
1
  6
Continuous
 62
     7
100
AcDbLine
 10
525.0
 20
291.0000000000004
 30
0.0
 11
513.0000000000013
 21
291.0000000000004
 31
0.0
  0
ARC
  5
27F
330
A4
100
AcDbEntity
  8
1
  6
Continuous
 62
     7
100
AcDbCircle
 10
519.0
 20
308.3864744980756
 30
0.0
 40
17.38647449807504
100
AcDbArc
 50
-110.1876462290956
 51
-69.81235377090444
  0
ARC
  5
280
330
A4
100
AcDbEntity
  8
1
  6
Continuous
 62
     7
100
AcDbCircle
 10
531.0000000000011
 20
308.3864744980756
 30
0.0
 40
17.38647449807543
100
AcDbArc
 50
-110.1876462290991
 51
-69.81235377090444
  0
ENDBLK
  5
A6
330
A4
100
AcDbEntity
  8
0
100
AcDbBlockEnd
  0
BLOCK
  5
A8
330
A7
100
AcDbEntity
  8
0
100
AcDbBlockBegin
  2
73-1-21_5-MS11__36
 70
     0
 71
     0
 10
279.0
 20
319.598838355263
 30
0.0
  3
73-1-21_5-MS11__36
  1

  0
LINE
  5
281
330
A7
100
AcDbEntity
  8
1
  6
Continuous
 62
     7
100
AcDbLine
 10
537.369168231291
 20
298.5000000000009
 30
0.0
 11
543.2631670068511
 21
298.5000000000009
 31
0.0
  0
LINE
  5
282
330
A7
100
AcDbEntity
  8
1
  6
Continuous
 62
     7
100
AcDbLine
 10
529.8809831869291
 20
298.5000000000009
 30
0.0
 11
536.6620614501051
 21
298.5000000000009
 31
0.0
  0
LINE
  5
283
330
A7
100
AcDbEntity
  8
1
  6
Continuous
 62
     7
100
AcDbLine
 10
521.08494263936
 20
298.5000000000009
 30
0.0
 11
528.9150573606401
 21
298.5000000000009
 31
0.0
  0
LINE
  5
284
330
A7
100
AcDbEntity
  8
1
  6
Continuous
 62
     7
100
AcDbLine
 10
513.3379385498949
 20
298.5000000000009
 30
0.0
 11
520.1190168130711
 21
298.5000000000009
 31
0.0
  0
LINE
  5
285
330
A7
100
AcDbEntity
  8
1
  6
Continuous
 62
     7
100
AcDbLine
 10
506.7368329931491
 20
298.5000000000009
 30
0.0
 11
512.630831768709
 21
298.5000000000009
 31
0.0
  0
LINE
  5
286
330
A7
100
AcDbEntity
  8
1
  6
Continuous
 62
     7
100
AcDbLine
 10
546.5000000000011
 20
298.5000000000009
 30
0.0
 11
546.5000000000011
 21
299.5000000000009
 31
0.0
  0
LINE
  5
287
330
A7
100
AcDbEntity
  8
1
  6
Continuous
 62
     7
100
AcDbLine
 10
543.2631670068511
 20
298.5000000000009
 30
0.0
 11
546.5000000000011
 21
298.5000000000009
 31
0.0
  0
LINE
  5
288
330
A7
100
AcDbEntity
  8
1
  6
Continuous
 62
     7
100
AcDbLine
 10
546.5000000000011
 20
299.5000000000009
 30
0.0
 11
525.0
 21
299.5000000000009
 31
0.0
  0
LINE
  5
289
330
A7
100
AcDbEntity
  8
1
  6
Continuous
 62
     7
100
AcDbLine
 10
525.0
 20
299.5000000000009
 30
0.0
 11
503.5
 21
299.5000000000009
 31
0.0
  0
LINE
  5
28A
330
A7
100
AcDbEntity
  8
1
  6
Continuous
 62
     7
100
AcDbLine
 10
503.5
 20
298.5000000000009
 30
0.0
 11
506.7368329931491
 21
298.5000000000009
 31
0.0
  0
LINE
  5
28B
330
A7
100
AcDbEntity
  8
1
  6
Continuous
 62
     7
100
AcDbLine
 10
503.5
 20
299.5000000000009
 30
0.0
 11
503.5
 21
298.5000000000009
 31
0.0
  0
ARC
  5
28C
330
A7
100
AcDbEntity
  8
1
  6
Continuous
 62
     7
100
AcDbCircle
 10
536.72481859154
 20
307.0000000000004
 30
0.0
 40
10.0
100
AcDbArc
 50
-90.0
 51
-64.15806723683039
  0
ARC
  5
28D
330
A7
100
AcDbEntity
  8
1
  6
Continuous
 62
     7
100
AcDbCircle
 10
513.27518140846
 20
307.0000000000004
 30
0.0
 40
9.999999999999616
100
AcDbArc
 50
-115.8419327631693
 51
-90.0
  0
SPLINE
  5
28E
330
A7
100
AcDbEntity
  8
1
  6
Continuous
 62
     7
100
AcDbSpline
210
0.0
220
0.0
230
1.0
 70
     8
 71
     3
 72
    31
 73
    27
 74
    25
 42
0.0000000001
 43
0.0000000001
 44
0.00000001
 40
0.0
 40
0.0
 40
0.0
 40
0.0
 40
0.2709659710333588
 40
0.5252266839304439
 40
1.065749190585257
 40
1.674599336097921
 40
2.320394600531398
 40
2.934363290975863
 40
3.290221352612902
 40
3.64648079537236
 40
4.682658409191673
 40
5.750236620427025
 40
6.775822655106005
 40
7.20880282195257
 40
7.646130370973522
 40
8.816358620109448
 40
10.01163910179127
 40
11.17461240778405
 40
11.65874765657552
 40
12.14501675690572
 40
13.08086599414718
 40
14.04099014689877
 40
14.98716393936243
 40
15.89608035137134
 40
16.14448975988015
 40
16.39628796123892
 40
16.39628796123892
 40
16.39628796123892
 40
16.39628796123892
 10
510.0339373472391
 20
297.5398553427767
 30
0.0
 10
510.1173339016345
 20
297.5055560598069
 30
0.0
 10
510.2789855494386
 20
297.4390720707407
 30
0.0
 10
510.6257046788876
 20
297.3419057756246
 30
0.0
 10
511.1058490739616
 20
297.4736876830046
 30
0.0
 10
511.5799867377327
 20
297.8407261784312
 30
0.0
 10
512.0584590793435
 20
298.2356739295755
 30
0.0
 10
512.5389786601573
 20
298.5078522746863
 30
0.0
 10
512.9848522593965
 20
298.5561118212718
 30
0.0
 10
513.5674338766421
 20
298.4827580824305
 30
0.0
 10
514.308177911252
 20
298.0749594573608
 30
0.0
 10
515.1050964649817
 20
297.4189960494281
 30
0.0
 10
515.8677121859319
 20
297.0006449125721
 30
0.0
 10
516.5032930690129
 20
296.9429880147891
 30
0.0
 10
517.1841164077816
 20
297.0113318000134
 30
0.0
 10
518.0510865725677
 20
297.4165414009736
 30
0.0
 10
519.0116614080738
 20
298.0793647615755
 30
0.0
 10
519.8883336538094
 20
298.4952172180942
 30
0.0
 10
520.6016931513017
 20
298.5617332627458
 30
0.0
 10
521.2385403282581
 20
298.501953050991
 30
0.0
 10
521.9856862697559
 20
298.1972631891317
 30
0.0
 10
522.7882277188953
 20
297.6958107235711
 30
0.0
 10
523.5938695883056
 20
297.2142697827387
 30
0.0
 10
524.2790015706715
 20
296.9986763191507
 30
0.0
 10
524.7495445782882
 20
296.990501581968
 30
0.0
 10
524.9161386471139
 20
296.9968195929606
 30
0.0
 10
525.0
 20
297.0000000000009
 30
0.0
 11
510.0339373472391
 21
297.5398553427767
 31
0.0
 11
510.2865809215683
 21
297.4419074902826
 31
0.0
 11
510.5339373472391
 21
297.3830576066607
 31
0.0
 11
511.0626606454133
 21
297.4953797067487
 31
0.0
 11
511.5678469772315
 21
297.835210944034
 31
0.0
 11
512.0803020994209
 21
298.2282011109677
 31
0.0
 11
512.630831768709
 21
298.5000000000009
 31
0.0
 11
512.9841830466007
 21
298.5421643741138
 31
0.0
 11
513.3379385498949
 21
298.5000000000009
 31
0.0
 11
514.2750149609412
 21
298.0577875541778
 31
0.0
 11
515.1415063301083
 21
297.4341562975337
 31
0.0
 11
516.0706645641251
 21
297.0000000000009
 31
0.0
 11
516.5014928264881
 21
296.9568858117124
 31
0.0
 11
516.9366899679089
 21
297.0000000000009
 31
0.0
 11
518.0218687023719
 21
297.4379740509961
 31
0.0
 11
519.0423834870524
 21
298.0602641795841
 31
0.0
 11
520.1190168130711
 21
298.5000000000009
 31
0.0
 11
520.6009078536363
 21
298.5465614018846
 31
0.0
 11
521.08494263936
 21
298.5000000000009
 31
0.0
 11
521.9636329317742
 21
298.1779485058849
 31
0.0
 11
522.7940058064785
 21
297.6959534046107
 31
0.0
 11
523.6236114377836
 21
297.2409816010317
 31
0.0
 11
524.5
 21
297.0000000000009
 31
0.0
 11
524.7483049000282
 21
296.9927950810082
 31
0.0
 11
525.0
 21
297.0000000000009
 31
0.0
  0
SPLINE
  5
28F
330
A7
100
AcDbEntity
  8
1
  6
Continuous
 62
     7
100
AcDbSpline
210
0.0
220
0.0
230
1.0
 70
     8
 71
     3
 72
    31
 73
    27
 74
    25
 42
0.0000000001
 43
0.0000000001
 44
0.00000001
 40
0.0
 40
0.0
 40
0.0
 40
0.0
 40
0.2709659710334648
 40
0.5252266839304394
 40
1.065749190585474
 40
1.674599336098421
 40
2.320394600532204
 40
2.934363290976847
 40
3.290221352613886
 40
3.646480795373345
 40
4.682658409192198
 40
5.75023662042724
 40
6.775822655105984
 40
7.208802821953131
 40
7.646130370974666
 40
8.816358620110529
 40
10.01163910179222
 40
11.17461240778499
 40
11.65874765657669
 40
12.1450167569069
 40
13.08086599414812
 40
14.04099014689949
 40
14.98716393936287
 40
15.89608035137146
 40
16.14448975988073
 40
16.39628796124019
 40
16.39628796124019
 40
16.39628796124019
 40
16.39628796124019
 10
539.9660626527621
 20
297.5398553427767
 30
0.0
 10
539.8826660983665
 20
297.5055560598068
 30
0.0
 10
539.7210144505625
 20
297.4390720707408
 30
0.0
 10
539.3742953211134
 20
297.3419057756245
 30
0.0
 10
538.8941509260395
 20
297.4736876830048
 30
0.0
 10
538.4200132622677
 20
297.8407261784312
 30
0.0
 10
537.9415409206567
 20
298.2356739295755
 30
0.0
 10
537.4610213398426
 20
298.5078522746862
 30
0.0
 10
537.0151477406037
 20
298.5561118212718
 30
0.0
 10
536.432566123358
 20
298.4827580824303
 30
0.0
 10
535.6918220887484
 20
298.0749594573609
 30
0.0
 10
534.8949035350192
 20
297.4189960494282
 30
0.0
 10
534.1322878140691
 20
297.0006449125721
 30
0.0
 10
533.4967069309876
 20
296.9429880147889
 30
0.0
 10
532.8158835922186
 20
297.0113318000135
 30
0.0
 10
531.9489134274327
 20
297.4165414009736
 30
0.0
 10
530.9883385919263
 20
298.0793647615757
 30
0.0
 10
530.1116663461908
 20
298.4952172180943
 30
0.0
 10
529.3983068486984
 20
298.5617332627459
 30
0.0
 10
528.7614596717421
 20
298.5019530509911
 30
0.0
 10
528.0143137302446
 20
298.1972631891317
 30
0.0
 10
527.211772281105
 20
297.6958107235713
 30
0.0
 10
526.4061304116956
 20
297.2142697827387
 30
0.0
 10
525.720998429329
 20
296.9986763191506
 30
0.0
 10
525.2504554217126
 20
296.990501581968
 30
0.0
 10
525.0838613528863
 20
296.9968195929604
 30
0.0
 10
525.0
 20
297.0000000000009
 30
0.0
 11
539.9660626527621
 21
297.5398553427767
 31
0.0
 11
539.7134190784327
 21
297.4419074902826
 31
0.0
 11
539.4660626527621
 21
297.3830576066607
 31
0.0
 11
538.9373393545876
 21
297.4953797067487
 31
0.0
 11
538.4321530227691
 21
297.835210944034
 31
0.0
 11
537.9196979005793
 21
298.2282011109678
 31
0.0
 11
537.369168231291
 21
298.5000000000009
 31
0.0
 11
537.0158169533993
 21
298.5421643741138
 31
0.0
 11
536.6620614501051
 21
298.5000000000009
 31
0.0
 11
535.7249850390592
 21
298.0577875541779
 31
0.0
 11
534.8584936698925
 21
297.4341562975339
 31
0.0
 11
533.9293354358761
 21
297.0000000000009
 31
0.0
 11
533.4985071735125
 21
296.9568858117123
 31
0.0
 11
533.0633100320911
 21
297.0000000000009
 31
0.0
 11
531.9781312976282
 21
297.4379740509962
 31
0.0
 11
530.9576165129479
 21
298.0602641795842
 31
0.0
 11
529.8809831869291
 21
298.5000000000009
 31
0.0
 11
529.3990921463637
 21
298.5465614018847
 31
0.0
 11
528.9150573606401
 21
298.5000000000009
 31
0.0
 11
528.036367068226
 21
298.177948505885
 31
0.0
 11
527.205994193522
 21
297.6959534046108
 31
0.0
 11
526.3763885622172
 21
297.2409816010317
 31
0.0
 11
525.5000000000011
 21
297.0000000000009
 31
0.0
 11
525.2516950999725
 21
296.9927950810082
 31
0.0
 11
525.0
 21
297.0000000000009
 31
0.0
  0
ARC
  5
290
330
A7
100
AcDbEntity
  8
1
  6
Continuous
 62
     7
100
AcDbCircle
 10
543.2631670068511
 20
293.5000000000009
 30
0.0
 40
5.0
100
AcDbArc
 50
90.0
 51
115.8419327631648
  0
ARC
  5
291
330
A7
100
AcDbEntity
  8
1
  6
Continuous
 62
     7
100
AcDbCircle
 10
506.7368329931491
 20
293.5000000000009
 30
0.0
 40
4.999999999999853
100
AcDbArc
 50
64.15806723683636
 51
90.0
  0
ENDBLK
  5
A9
330
A7
100
AcDbEntity
  8
0
100
AcDbBlockEnd
  0
BLOCK
  5
AB
330
AA
100
AcDbEntity
  8
0
100
AcDbBlockBegin
  2
92-53__37
 70
     0
 71
     0
 10
163.574689978551
 20
221.7052211851083
 30
0.0
  3
92-53__37
  1

  0
LINE
  5
292
330
AA
100
AcDbEntity
  8
1
  6
Continuous
 62
     7
100
AcDbLine
 10
506.750342327925
 20
301.0000000000004
 30
0.0
 11
506.750342327925
 21
299.5000000000004
 31
0.0
  0
LINE
  5
293
330
AA
100
AcDbEntity
  8
1
  6
Continuous
 62
     7
100
AcDbLine
 10
506.750342327925
 20
301.0000000000004
 30
0.0
 11
543.750342327925
 21
301.0000000000004
 31
0.0
  0
LINE
  5
294
330
AA
100
AcDbEntity
  8
1
  6
Continuous
 62
     7
100
AcDbLine
 10
543.750342327925
 20
299.5000000000004
 30
0.0
 11
543.750342327925
 21
301.0000000000004
 31
0.0
  0
ENDBLK
  5
AC
330
AA
100
AcDbEntity
  8
0
100
AcDbBlockEnd
  0
BLOCK
  5
AE
330
AD
100
AcDbEntity
  8
0
100
AcDbBlockBegin
  2
98-198__38
 70
     0
 71
     0
 10
118.5
 20
311.0
 30
0.0
  3
98-198__38
  1

  0
LINE
  5
295
330
AD
100
AcDbEntity
  8
1
  6
Continuous
 62
     7
100
AcDbLine
 10
506.5
 20
313.9999999999992
 30
0.0
 11
549.0
 21
314.0000000000004
 31
0.0
  0
LINE
  5
296
330
AD
100
AcDbEntity
  8
1
  6
Continuous
 62
     7
100
AcDbLine
 10
549.0
 20
314.0000000000004
 30
0.0
 11
549.0
 21
311.0000000000004
 31
0.0
  0
LINE
  5
297
330
AD
100
AcDbEntity
  8
1
  6
Continuous
 62
     7
100
AcDbLine
 10
506.5
 20
311.0000000000004
 30
0.0
 11
506.5
 21
313.9999999999992
 31
0.0
  0
LINE
  5
298
330
AD
100
AcDbEntity
  8
1
  6
Continuous
 62
     7
100
AcDbLine
 10
549.0
 20
311.0000000000004
 30
0.0
 11
506.5
 21
311.0000000000004
 31
0.0
  0
ENDBLK
  5
AF
330
AD
100
AcDbEntity
  8
0
100
AcDbBlockEnd
  0
BLOCK
  5
B1
330
B0
100
AcDbEntity
  8
0
100
AcDbBlockBegin
  2
____39
 70
     0
 71
     0
 10
561.2500000000011
 20
301.0000000000004
 30
0.0
  3
____39
  1

  0
LINE
  5
299
330
B0
100
AcDbEntity
  8
1
  6
PHANTOM
 62
     2
100
AcDbLine
 10
536.5
 20
301.0000000000004
 30
0.0
 11
536.5
 21
311.0000000000004
 31
0.0
  0
LINE
  5
29A
330
B0
100
AcDbEntity
  8
1
  6
PHANTOM
 62
     2
100
AcDbLine
 10
513.5
 20
301.0000000000004
 30
0.0
 11
513.5
 21
311.0000000000004
 31
0.0
  0
LINE
  5
29B
330
B0
100
AcDbEntity
  8
1
  6
PHANTOM
 62
     2
100
AcDbLine
 10
490.7500000000013
 20
301.0000000000004
 30
0.0
 11
513.5
 21
301.0000000000004
 31
0.0
  0
LINE
  5
29C
330
B0
100
AcDbEntity
  8
1
  6
PHANTOM
 62
   250
100
AcDbLine
 10
490.7500000000013
 20
311.0000000000004
 30
0.0
 11
490.7500000000013
 21
301.0000000000004
 31
0.0
  0
LINE
  5
29D
330
B0
100
AcDbEntity
  8
1
  6
PHANTOM
 62
     2
100
AcDbLine
 10
513.5
 20
311.0000000000004
 30
0.0
 11
490.7500000000013
 21
311.0000000000004
 31
0.0
  0
LINE
  5
29E
330
B0
100
AcDbEntity
  8
1
  6
PHANTOM
 62
     2
100
AcDbLine
 10
561.25
 20
311.0000000000004
 30
0.0
 11
536.5
 21
311.0000000000004
 31
0.0
  0
LINE
  5
29F
330
B0
100
AcDbEntity
  8
1
  6
PHANTOM
 62
   250
100
AcDbLine
 10
561.2500000000011
 20
301.0000000000004
 30
0.0
 11
561.25
 21
311.0000000000004
 31
0.0
  0
LINE
  5
2A0
330
B0
100
AcDbEntity
  8
1
  6
PHANTOM
 62
     2
100
AcDbLine
 10
536.5
 20
301.0000000000004
 30
0.0
 11
561.2500000000011
 21
301.0000000000004
 31
0.0
  0
HATCH
  5
2A4
330
B0
100
AcDbEntity
  8
1
  6
Continuous
 62
     4
100
AcDbHatch
 10
0.0
 20
0.0
 30
0.0
210
0.0
220
0.0
230
1.0
  2
CUSTOM6
 70
     0
 71
     0
 91
        1
 92
        1
 93
        4
 72
     1
 10
490.7500000000013
 20
311.0000000000004
 11
513.5
 21
311.0000000000004
 72
     1
 10
513.5
 20
311.0000000000004
 11
513.5
 21
301.0000000000004
 72
     1
 10
513.5
 20
301.0000000000004
 11
490.7500000000013
 21
301.0000000000004
 72
     1
 10
490.7500000000013
 20
301.0000000000004
 11
490.7500000000013
 21
311.0000000000004
 97
        0
 75
     1
 76
     2
 52
45.0
 41
15.0
 77
     0
 78
     2
 53
45.0
 43
0.0
 44
0.0
 45
-21.21320343559642
 46
0.0000000000000017
 79
     0
 53
45.0
 43
3.535533905932737
 44
-3.535533905932738
 45
-21.21320343559642
 46
0.0000000000000017
 79
     0
 98
        1
 10
0.0
 20
0.0
  0
HATCH
  5
2A5
330
B0
100
AcDbEntity
  8
1
  6
Continuous
 62
     4
100
AcDbHatch
 10
0.0
 20
0.0
 30
0.0
210
0.0
220
0.0
230
1.0
  2
CUSTOM7
 70
     0
 71
     0
 91
        1
 92
        1
 93
        4
 72
     1
 10
536.5
 20
311.0000000000004
 11
536.5
 21
301.0000000000004
 72
     1
 10
536.5
 20
301.0000000000004
 11
561.2500000000011
 21
301.0000000000004
 72
     1
 10
561.2500000000011
 20
301.0000000000004
 11
561.25
 21
311.0000000000004
 72
     1
 10
561.25
 20
311.0000000000004
 11
536.5
 21
311.0000000000004
 97
        0
 75
     1
 76
     2
 52
45.0
 41
15.0
 77
     0
 78
     2
 53
45.0
 43
0.0
 44
0.0
 45
-21.21320343559642
 46
0.0000000000000017
 79
     0
 53
45.0
 43
3.535533905932737
 44
-3.535533905932738
 45
-21.21320343559642
 46
0.0000000000000017
 79
     0
 98
        1
 10
0.0
 20
0.0
  0
ENDBLK
  5
B2
330
B0
100
AcDbEntity
  8
0
100
AcDbBlockEnd
  0
BLOCK
  5
B4
330
B3
100
AcDbEntity
  8
0
100
AcDbBlockBegin
  2
32-16__40
 70
     0
 71
     0
 10
279.5
 20
255.0
 30
0.0
  3
32-16__40
  1

  0
LINE
  5
2A6
330
B3
100
AcDbEntity
  8
1
  6
Continuous
 62
     7
100
AcDbLine
 10
525.0
 20
252.0680954280756
 30
0.0
 11
525.0
 21
263.9319045719248
 31
0.0
  0
LINE
  5
2A7
330
B3
100
AcDbEntity
  8
1
  6
Continuous
 62
     7
100
AcDbLine
 10
513.0
 20
251.0000000000004
 30
0.0
 11
513.0
 21
265.0000000000004
 31
0.0
  0
LINE
  5
2A8
330
B3
100
AcDbEntity
  8
1
  6
Continuous
 62
     7
100
AcDbLine
 10
537.0
 20
251.0000000000004
 30
0.0
 11
537.0
 21
265.0000000000004
 31
0.0
  0
LINE
  5
2A9
330
B3
100
AcDbEntity
  8
1
  6
Continuous
 62
     7
100
AcDbLine
 10
525.0
 20
265.0000000000004
 30
0.0
 11
531.75
 21
265.0000000000004
 31
0.0
  0
LINE
  5
2AA
330
B3
100
AcDbEntity
  8
1
  6
Continuous
 62
     7
100
AcDbLine
 10
531.75
 20
265.0000000000004
 30
0.0
 11
537.0000044512422
 21
265.0000000000004
 31
0.0
  0
LINE
  5
2AB
330
B3
100
AcDbEntity
  8
1
  6
Continuous
 62
     7
100
AcDbLine
 10
525.0
 20
251.0000000000004
 30
0.0
 11
537.0000044512422
 21
251.0000000000004
 31
0.0
  0
LINE
  5
2AC
330
B3
100
AcDbEntity
  8
1
  6
Continuous
 62
     7
100
AcDbLine
 10
512.999995548759
 20
251.0000000000004
 30
0.0
 11
525.0
 21
251.0000000000004
 31
0.0
  0
LINE
  5
2AD
330
B3
100
AcDbEntity
  8
1
  6
Continuous
 62
     7
100
AcDbLine
 10
512.999995548759
 20
265.0000000000004
 30
0.0
 11
518.2500000000011
 21
265.0000000000004
 31
0.0
  0
LINE
  5
2AE
330
B3
100
AcDbEntity
  8
1
  6
Continuous
 62
     7
100
AcDbLine
 10
518.2500000000011
 20
265.0000000000004
 30
0.0
 11
525.0
 21
265.0000000000004
 31
0.0
  0
ARC
  5
2AF
330
B3
100
AcDbEntity
  8
1
  6
Continuous
 62
     7
100
AcDbCircle
 10
531.0
 20
247.6135255019339
 30
0.0
 40
17.38647449806651
100
AcDbArc
 50
69.81235377089409
 51
110.1876462291059
  0
ARC
  5
2B0
330
B3
100
AcDbEntity
  8
1
  6
Continuous
 62
     7
100
AcDbCircle
 10
519.0000000000011
 20
247.6135255019339
 30
0.0
 40
17.38647449806611
100
AcDbArc
 50
69.8123537708976
 51
110.1876462291056
  0
ARC
  5
2B1
330
B3
100
AcDbEntity
  8
1
  6
Continuous
 62
     7
100
AcDbCircle
 10
519.0
 20
268.3864744980728
 30
0.0
 40
17.38647449807243
100
AcDbArc
 50
-110.1876462290988
 51
-69.81235377090127
  0
ARC
  5
2B2
330
B3
100
AcDbEntity
  8
1
  6
Continuous
 62
     7
100
AcDbCircle
 10
531.0000000000011
 20
268.3864744980728
 30
0.0
 40
17.38647449807282
100
AcDbArc
 50
-110.1876462291023
 51
-69.81235377090127
  0
ENDBLK
  5
B5
330
B3
100
AcDbEntity
  8
0
100
AcDbBlockEnd
  0
BLOCK
  5
B7
330
B6
100
AcDbEntity
  8
0
100
AcDbBlockBegin
  2
35-276__41
 70
     0
 71
     0
 10
552.5574083019772
 20
334.245576420195
 30
0.0
  3
35-276__41
  1

  0
LINE
  5
2B3
330
B6
100
AcDbEntity
  8
1
  6
Continuous
 62
     7
100
AcDbLine
 10
514.5225000000002
 20
311.0000000000004
 30
0.0
 11
514.5225000000002
 21
301.0000000000004
 31
0.0
  0
LINE
  5
2B4
330
B6
100
AcDbEntity
  8
0
  6
Continuous
 62
     2
100
AcDbLine
 10
515.1071497308101
 20
311.0000000000004
 30
0.0
 11
515.6845
 21
310.0
 31
0.0
  0
LINE
  5
2B5
330
B6
100
AcDbEntity
  8
1
  6
Continuous
 62
     7
100
AcDbLine
 10
535.4775
 20
311.0000000000004
 30
0.0
 11
535.4775
 21
301.0000000000004
 31
0.0
  0
LINE
  5
2B6
330
B6
100
AcDbEntity
  8
1
  6
Continuous
 62
     2
100
AcDbLine
 10
515.6845
 20
265.0000000000004
 30
0.0
 11
515.6845
 21
291.3190506965111
 31
0.0
  0
LINE
  5
2B7
330
B6
100
AcDbEntity
  8
1
  6
Continuous
 62
     2
100
AcDbLine
 10
534.3154999999999
 20
265.0000000000004
 30
0.0
 11
534.3154999999999
 21
291.0000000000004
 31
0.0
  0
LINE
  5
2B8
330
B6
100
AcDbEntity
  8
1
  6
Continuous
 62
     7
100
AcDbLine
 10
514.5225000000002
 20
291.0000000000004
 30
0.0
 11
514.5225000000002
 21
265.0000000000004
 31
0.0
  0
LINE
  5
2B9
330
B6
100
AcDbEntity
  8
1
  6
Continuous
 62
     7
100
AcDbLine
 10
535.4775
 20
291.0000000000004
 30
0.0
 11
535.4775
 21
265.0000000000004
 31
0.0
  0
LINE
  5
2BA
330
B6
100
AcDbEntity
  8
1
  6
Continuous
 62
     7
100
AcDbLine
 10
515.6845
 20
309.9873569616052
 30
0.0
 11
534.3154999999999
 21
309.9873569616052
 31
0.0
  0
LINE
  5
2BB
330
B6
100
AcDbEntity
  8
0
  6
Continuous
 62
     7
100
AcDbLine
 10
534.3154999999999
 20
309.9873569616052
 30
0.0
 11
535.4775
 21
309.9873569616052
 31
0.0
  0
LINE
  5
2BC
330
B6
100
AcDbEntity
  8
0
  6
Continuous
 62
     7
100
AcDbLine
 10
515.6845
 20
310.0
 30
0.0
 11
514.5225000000002
 21
310.0
 31
0.0
  0
LINE
  5
2BD
330
B6
100
AcDbEntity
  8
0
  6
Continuous
 62
     2
100
AcDbLine
 10
534.3154999999999
 20
309.9873569616052
 30
0.0
 11
534.9001497308104
 21
311.0000000000004
 31
0.0
  0
LINE
  5
2BE
330
B6
100
AcDbEntity
  8
1
  6
Continuous
 62
     2
100
AcDbLine
 10
534.3154999999999
 20
301.0000000000004
 30
0.0
 11
534.3154999999999
 21
309.9873569616052
 31
0.0
  0
LINE
  5
2BF
330
B6
100
AcDbEntity
  8
1
  6
Continuous
 62
     2
100
AcDbLine
 10
515.6845
 20
301.0000000000004
 30
0.0
 11
515.6845
 21
310.0
 31
0.0
  0
ENDBLK
  5
B8
330
B6
100
AcDbEntity
  8
0
100
AcDbBlockEnd
  0
BLOCK
  5
BA
330
B9
100
AcDbEntity
  8
0
100
AcDbBlockBegin
  2
K7590-0-M1__42
 70
     0
 71
     0
 10
-319.3680853867004
 20
-455.3970661835571
 30
0.0
  3
K7590-0-M1__42
  1

  0
LINE
  5
2C0
330
B9
100
AcDbEntity
  8
1
  6
Continuous
 62
     7
100
AcDbLine
 10
550.0
 20
314.0000000000004
 30
0.0
 11
550.0
 21
372.0
 31
0.0
  0
LINE
  5
2C1
330
B9
100
AcDbEntity
  8
1
  6
Continuous
 62
     7
100
AcDbLine
 10
505.0
 20
314.0000000000004
 30
0.0
 11
550.0
 21
314.0000000000004
 31
0.0
  0
LINE
  5
2C2
330
B9
100
AcDbEntity
  8
1
  6
Continuous
 62
     7
100
AcDbLine
 10
505.0
 20
377.0
 30
0.0
 11
505.0
 21
314.0000000000004
 31
0.0
  0
ARC
  5
2C3
330
B9
100
AcDbEntity
  8
1
  6
Continuous
 62
     7
100
AcDbCircle
 10
525.0
 20
377.0
 30
0.0
 40
20.0
100
AcDbArc
 50
90.0
 51
180.0
  0
ARC
  5
2C4
330
B9
100
AcDbEntity
  8
1
  6
Continuous
 62
     7
100
AcDbCircle
 10
525.0
 20
372.0
 30
0.0
 40
25.0
100
AcDbArc
 50
0.0
 51
90.0
  0
CIRCLE
  5
2C5
330
B9
100
AcDbEntity
  8
1
  6
Continuous
 62
     7
100
AcDbCircle
 10
525.0
 20
339.5000000000002
 30
0.0
 40
10.25000000000046
  0
CIRCLE
  5
2C6
330
B9
100
AcDbEntity
  8
1
  6
Continuous
 62
     7
100
AcDbCircle
 10
525.0
 20
339.5000000000002
 30
0.0
 40
9.750000000000455
  0
ENDBLK
  5
BB
330
B9
100
AcDbEntity
  8
0
100
AcDbBlockEnd
  0
BLOCK
  5
BD
330
BC
100
AcDbEntity
  8
0
100
AcDbBlockBegin
  2
98-201__43
 70
     0
 71
     0
 10
118.5
 20
314.0
 30
0.0
  3
98-201__43
  1

  0
LINE
  5
2C7
330
BC
100
AcDbEntity
  8
1
  6
Continuous
 62
     7
100
AcDbLine
 10
551.0
 20
311.0000000000005
 30
0.0
 11
551.0
 21
314.0000000000001
 31
0.0
  0
LINE
  5
2C8
330
BC
100
AcDbEntity
  8
1
  6
Continuous
 62
     7
100
AcDbLine
 10
551.0
 20
314.0000000000001
 30
0.0
 11
556.0
 21
314.0000000000001
 31
0.0
  0
LINE
  5
2C9
330
BC
100
AcDbEntity
  8
1
  6
Continuous
 62
     7
100
AcDbLine
 10
556.0
 20
311.0000000000005
 30
0.0
 11
551.0
 21
311.0000000000005
 31
0.0
  0
LINE
  5
2CA
330
BC
100
AcDbEntity
  8
1
  6
Continuous
 62
     7
100
AcDbLine
 10
556.0
 20
311.0000000000005
 30
0.0
 11
556.0
 21
314.0000000000001
 31
0.0
  0
ENDBLK
  5
BE
330
BC
100
AcDbEntity
  8
0
100
AcDbBlockEnd
  0
BLOCK
  5
C0
330
BF
100
AcDbEntity
  8
0
100
AcDbBlockBegin
  2
_J__A4
 70
     0
 71
     0
 10
0.0
 20
0.0
 30
0.0
  3
_J__A4
  1

  0
POINT
  5
2CB
330
BF
100
AcDbEntity
  8
1
 62
     4
100
AcDbPoint
 10
93.75
 20
17.0
 30
0.0
  0
POINT
  5
2CC
330
BF
100
AcDbEntity
  8
1
 62
     4
100
AcDbPoint
 10
85.25
 20
17.0
 30
0.0
  0
POINT
  5
2CD
330
BF
100
AcDbEntity
  8
1
 62
     4
100
AcDbPoint
 10
106.5
 20
19.00000000000001
 30
0.0
  0
POINT
  5
2CE
330
BF
100
AcDbEntity
  8
1
 62
     4
100
AcDbPoint
 10
106.5
 20
12.5
 30
0.0
  0
POINT
  5
2CF
330
BF
100
AcDbEntity
  8
1
 62
     4
100
AcDbPoint
 10
112.25
 20
12.5
 30
0.0
  0
POINT
  5
2D0
330
BF
100
AcDbEntity
  8
1
 62
     4
100
AcDbPoint
 10
100.75
 20
12.5
 30
0.0
  0
POINT
  5
2D1
330
BF
100
AcDbEntity
  8
1
 62
     4
100
AcDbPoint
 10
123.5
 20
19.00000000000001
 30
0.0
  0
POINT
  5
2D2
330
BF
100
AcDbEntity
  8
1
 62
     4
100
AcDbPoint
 10
123.5
 20
12.5
 30
0.0
  0
POINT
  5
2D3
330
BF
100
AcDbEntity
  8
1
 62
     4
100
AcDbPoint
 10
129.25
 20
12.5
 30
0.0
  0
POINT
  5
2D4
330
BF
100
AcDbEntity
  8
1
 62
     4
100
AcDbPoint
 10
117.75
 20
12.5
 30
0.0
  0
POINT
  5
2D5
330
BF
100
AcDbEntity
  8
1
 62
     4
100
AcDbPoint
 10
140.5
 20
19.00000000000001
 30
0.0
  0
POINT
  5
2D6
330
BF
100
AcDbEntity
  8
1
 62
     4
100
AcDbPoint
 10
140.5
 20
12.5
 30
0.0
  0
POINT
  5
2D7
330
BF
100
AcDbEntity
  8
1
 62
     4
100
AcDbPoint
 10
146.25
 20
12.5
 30
0.0
  0
POINT
  5
2D8
330
BF
100
AcDbEntity
  8
1
 62
     4
100
AcDbPoint
 10
134.75
 20
12.5
 30
0.0
  0
POINT
  5
2D9
330
BF
100
AcDbEntity
  8
1
 62
     4
100
AcDbPoint
 10
151.75
 20
12.5
 30
0.0
  0
POINT
  5
2DA
330
BF
100
AcDbEntity
  8
1
 62
     4
100
AcDbPoint
 10
163.25
 20
12.5
 30
0.0
  0
POINT
  5
2DB
330
BF
100
AcDbEntity
  8
1
 62
     4
100
AcDbPoint
 10
157.5
 20
12.5
 30
0.0
  0
POINT
  5
2DC
330
BF
100
AcDbEntity
  8
1
 62
     4
100
AcDbPoint
 10
57.0
 20
14.25
 30
0.0
  0
POINT
  5
2DD
330
BF
100
AcDbEntity
  8
1
 62
     4
100
AcDbPoint
 10
57.0
 20
22.75000000000001
 30
0.0
  0
POINT
  5
2DE
330
BF
100
AcDbEntity
  8
1
 62
     4
100
AcDbPoint
 10
47.5
 20
282.0000000000003
 30
0.0
  0
POINT
  5
2DF
330
BF
100
AcDbEntity
  8
1
 62
     4
100
AcDbPoint
 10
157.5
 20
19.00000000000001
 30
0.0
  0
POINT
  5
2E0
330
BF
100
AcDbEntity
  8
1
 62
     4
100
AcDbPoint
 10
57.0
 20
16.25
 30
0.0
  0
POINT
  5
2E1
330
BF
100
AcDbEntity
  8
1
 62
     4
100
AcDbPoint
 10
57.0
 20
24.75000000000001
 30
0.0
  0
POINT
  5
2E2
330
BF
100
AcDbEntity
  8
1
 62
     4
100
AcDbPoint
 10
57.0
 20
20.75000000000001
 30
0.0
  0
POINT
  5
2E3
330
BF
100
AcDbEntity
  8
1
 62
     4
100
AcDbPoint
 10
57.0
 20
12.25
 30
0.0
  0
POINT
  5
2E4
330
BF
100
AcDbEntity
  8
1
 62
     4
100
AcDbPoint
 10
34.0
 20
34.00000000000001
 30
0.0
  0
LINE
  5
2E5
330
BF
100
AcDbEntity
  8
1
  6
Continuous
 62
     7
100
AcDbLine
 10
105.0
 20
10.0
 30
0.0
 11
200.0
 21
10.0
 31
0.0
  0
LINE
  5
2E6
330
BF
100
AcDbEntity
  8
1
  6
Continuous
 62
     2
100
AcDbLine
 10
105.0
 20
10.0
 30
0.0
 11
105.0
 21
5.0
 31
0.0
  0
LINE
  5
2E7
330
BF
100
AcDbEntity
  8
1
  6
Continuous
 62
     7
100
AcDbLine
 10
200.0
 20
148.5
 30
0.0
 11
200.0
 21
287.0000000000003
 31
0.0
  0
LINE
  5
2E8
330
BF
100
AcDbEntity
  8
1
  6
Continuous
 62
     2
100
AcDbLine
 10
200.0
 20
148.5
 30
0.0
 11
205.0
 21
148.5
 31
0.0
  0
LINE
  5
2E9
330
BF
100
AcDbEntity
  8
1
  6
Continuous
 62
     7
100
AcDbLine
 10
25.0
 20
148.5
 30
0.0
 11
25.0
 21
287.0000000000003
 31
0.0
  0
LINE
  5
2EA
330
BF
100
AcDbEntity
  8
1
  6
Continuous
 62
     2
100
AcDbLine
 10
25.0
 20
148.5
 30
0.0
 11
20.0
 21
148.5
 31
0.0
  0
LINE
  5
2EB
330
BF
100
AcDbEntity
  8
1
  6
Continuous
 62
     7
100
AcDbLine
 10
105.0
 20
287.0000000000003
 30
0.0
 11
25.0
 21
287.0000000000003
 31
0.0
  0
LINE
  5
2EC
330
BF
100
AcDbEntity
  8
1
  6
Continuous
 62
     2
100
AcDbLine
 10
105.0
 20
287.0000000000003
 30
0.0
 11
105.0
 21
292.0000000000003
 31
0.0
  0
LINE
  5
2ED
330
BF
100
AcDbEntity
  8
1
  6
Continuous
 62
     2
100
AcDbLine
 10
166.0
 20
20.00000000000001
 30
0.0
 11
200.0
 21
20.00000000000001
 31
0.0
  0
LINE
  5
2EE
330
BF
100
AcDbEntity
  8
1
  6
Continuous
 62
     2
100
AcDbLine
 10
98.0
 20
27.00000000000001
 30
0.0
 11
98.0
 21
9.99999999999999
 31
0.0
  0
LINE
  5
2EF
330
BF
100
AcDbEntity
  8
1
  6
Continuous
 62
     2
100
AcDbLine
 10
115.0
 20
27.00000000000001
 30
0.0
 11
115.0
 21
9.99999999999999
 31
0.0
  0
LINE
  5
2F0
330
BF
100
AcDbEntity
  8
1
  6
Continuous
 62
     2
100
AcDbLine
 10
149.0
 20
27.00000000000001
 30
0.0
 11
149.0
 21
10.0
 31
0.0
  0
LINE
  5
2F1
330
BF
100
AcDbEntity
  8
1
  6
Continuous
 62
     2
100
AcDbLine
 10
132.0
 20
27.00000000000001
 30
0.0
 11
132.0
 21
9.99999999999999
 31
0.0
  0
LINE
  5
2F2
330
BF
100
AcDbEntity
  8
1
  6
Continuous
 62
     2
100
AcDbLine
 10
166.0
 20
27.00000000000001
 30
0.0
 11
166.0
 21
10.0
 31
0.0
  0
LINE
  5
2F3
330
BF
100
AcDbEntity
  8
1
  6
Continuous
 62
     2
100
AcDbLine
 10
55.0
 20
277.0000000000003
 30
0.0
 11
25.0
 21
277.0000000000003
 31
0.0
  0
LINE
  5
2F4
330
BF
100
AcDbEntity
  8
1
  6
Continuous
 62
     7
100
AcDbLine
 10
25.0
 20
10.0
 30
0.0
 11
25.0
 21
148.5
 31
0.0
  0
LINE
  5
2F5
330
BF
100
AcDbEntity
  8
1
  6
Continuous
 62
     2
100
AcDbLine
 10
40.0
 20
287.0000000000003
 30
0.0
 11
40.0
 21
277.0000000000003
 31
0.0
  0
LINE
  5
2F6
330
BF
100
AcDbEntity
  8
1
  6
Continuous
 62
     2
100
AcDbLine
 10
55.0
 20
287.0000000000003
 30
0.0
 11
55.0
 21
277.0000000000003
 31
0.0
  0
LINE
  5
2F7
330
BF
100
AcDbEntity
  8
1
  6
Continuous
 62
     2
100
AcDbLine
 10
33.0
 20
41.00000000000001
 30
0.0
 11
33.0
 21
27.0
 31
0.0
  0
LINE
  5
2F8
330
BF
100
AcDbEntity
  8
1
  6
Continuous
 62
     7
100
AcDbLine
 10
200.0
 20
27.00000000000001
 30
0.0
 11
25.0
 21
27.00000000000001
 31
0.0
  0
LINE
  5
2F9
330
BF
100
AcDbEntity
  8
1
  6
Continuous
 62
     7
100
AcDbLine
 10
25.0
 20
41.0
 30
0.0
 11
200.0
 21
41.0
 31
0.0
  0
LINE
  5
2FA
330
BF
100
AcDbEntity
  8
1
  6
PHANTOM
 62
     4
100
AcDbLine
 10
0.0
 20
0.0
 30
0.0
 11
210.0
 21
0.0
 31
0.0
  0
LINE
  5
2FB
330
BF
100
AcDbEntity
  8
1
  6
PHANTOM
 62
     4
100
AcDbLine
 10
210.0
 20
0.0
 30
0.0
 11
210.0
 21
297.0
 31
0.0
  0
LINE
  5
2FC
330
BF
100
AcDbEntity
  8
1
  6
PHANTOM
 62
     4
100
AcDbLine
 10
210.0
 20
297.0
 30
0.0
 11
0.0
 21
297.0
 31
0.0
  0
LINE
  5
2FD
330
BF
100
AcDbEntity
  8
1
  6
PHANTOM
 62
     4
100
AcDbLine
 10
0.0
 20
297.0
 30
0.0
 11
0.0
 21
0.0
 31
0.0
  0
LINE
  5
2FE
330
BF
100
AcDbEntity
  8
1
  6
Continuous
 62
     7
100
AcDbLine
 10
25.0
 20
10.0
 30
0.0
 11
105.0
 21
10.0
 31
0.0
  0
LINE
  5
2FF
330
BF
100
AcDbEntity
  8
1
  6
Continuous
 62
     7
100
AcDbLine
 10
200.0
 20
10.0
 30
0.0
 11
200.0
 21
148.5
 31
0.0
  0
LINE
  5
300
330
BF
100
AcDbEntity
  8
1
  6
Continuous
 62
     7
100
AcDbLine
 10
200.0
 20
287.0000000000003
 30
0.0
 11
105.0
 21
287.0000000000003
 31
0.0
  0
LINE
  5
301
330
BF
100
AcDbEntity
  8
1
  6
Continuous
 62
     2
100
AcDbLine
 10
25.0
 20
18.50000000000001
 30
0.0
 11
81.0
 21
18.50000000000001
 31
0.0
  0
LINE
  5
302
330
BF
100
AcDbEntity
  8
1
  6
Continuous
 62
     2
100
AcDbLine
 10
33.0
 20
27.0
 30
0.0
 11
33.0
 21
10.0
 31
0.0
  0
LINE
  5
303
330
BF
100
AcDbEntity
  8
1
  6
Continuous
 62
     7
100
AcDbLine
 10
191.0
 20
24.70000000000001
 30
0.0
 11
191.0
 21
22.30000000000001
 31
0.0
  0
LINE
  5
304
330
BF
100
AcDbEntity
  8
1
  6
Continuous
 62
     7
100
AcDbLine
 10
191.0
 20
24.70000000000001
 30
0.0
 11
196.0
 21
25.50000000000001
 31
0.0
  0
LINE
  5
305
330
BF
100
AcDbEntity
  8
1
  6
Continuous
 62
     7
100
AcDbLine
 10
196.0
 20
25.50000000000001
 30
0.0
 11
196.0
 21
21.50000000000001
 31
0.0
  0
LINE
  5
306
330
BF
100
AcDbEntity
  8
1
  6
Continuous
 62
     7
100
AcDbLine
 10
196.0
 20
21.50000000000001
 30
0.0
 11
191.0
 21
22.30000000000001
 31
0.0
  0
LINE
  5
307
330
BF
100
AcDbEntity
  8
1
  6
DOT_CENTER
 62
     2
100
AcDbLine
 10
184.0
 20
23.50000000000001
 30
0.0
 11
197.0
 21
23.50000000000001
 31
0.0
  0
LINE
  5
308
330
BF
100
AcDbEntity
  8
1
  6
DOT_CENTER
 62
     2
100
AcDbLine
 10
187.0
 20
26.50000000000001
 30
0.0
 11
187.0
 21
20.50000000000001
 31
0.0
  0
LINE
  5
309
330
BF
100
AcDbEntity
  8
1
  6
Continuous
 62
     2
100
AcDbLine
 10
81.0
 20
27.00000000000001
 30
0.0
 11
81.0
 21
10.0
 31
0.0
  0
CIRCLE
  5
30A
330
BF
100
AcDbEntity
  8
1
  6
Continuous
 62
     7
100
AcDbCircle
 10
103.5
 20
12.5
 30
0.0
 40
0.2999999999999972
  0
CIRCLE
  5
30B
330
BF
100
AcDbEntity
  8
1
  6
Continuous
 62
     7
100
AcDbCircle
 10
109.5
 20
12.5
 30
0.0
 40
0.2999999999999972
  0
CIRCLE
  5
30C
330
BF
100
AcDbEntity
  8
1
  6
Continuous
 62
     7
100
AcDbCircle
 10
120.5
 20
12.5
 30
0.0
 40
0.2999999999999972
  0
CIRCLE
  5
30D
330
BF
100
AcDbEntity
  8
1
  6
Continuous
 62
     7
100
AcDbCircle
 10
126.5
 20
12.5
 30
0.0
 40
0.2999999999999972
  0
CIRCLE
  5
30E
330
BF
100
AcDbEntity
  8
1
  6
Continuous
 62
     7
100
AcDbCircle
 10
137.5
 20
12.5
 30
0.0
 40
0.3000000000000114
  0
CIRCLE
  5
30F
330
BF
100
AcDbEntity
  8
1
  6
Continuous
 62
     7
100
AcDbCircle
 10
143.5
 20
12.5
 30
0.0
 40
0.3000000000000114
  0
CIRCLE
  5
310
330
BF
100
AcDbEntity
  8
1
  6
Continuous
 62
     7
100
AcDbCircle
 10
160.5
 20
12.5
 30
0.0
 40
0.3000000000000114
  0
CIRCLE
  5
311
330
BF
100
AcDbEntity
  8
1
  6
Continuous
 62
     7
100
AcDbCircle
 10
154.5
 20
12.5
 30
0.0
 40
0.3000000000000114
  0
CIRCLE
  5
312
330
BF
100
AcDbEntity
  8
1
  6
Continuous
 62
     7
100
AcDbCircle
 10
187.0
 20
23.50000000000001
 30
0.0
 40
1.200000000000102
  0
CIRCLE
  5
313
330
BF
100
AcDbEntity
  8
1
  6
Continuous
 62
     7
100
AcDbCircle
 10
187.0
 20
23.50000000000001
 30
0.0
 40
2.0
  0
CIRCLE
  5
314
330
BF
100
AcDbEntity
  8
1
  6
DOT_CENTER
 62
     7
100
AcDbCircle
 10
89.5
 20
16.0
 30
0.0
 40
0.1000000000000227
  0
CIRCLE
  5
315
330
BF
100
AcDbEntity
  8
1
  6
DOT_CENTER
 62
     7
100
AcDbCircle
 10
89.5
 20
18.0
 30
0.0
 40
0.1000000000000227
  0
MTEXT
  5
316
330
BF
100
AcDbEntity
  8
1
 62
     7
100
AcDbMText
 10
188.5
 20
15.0
 30
0.0
 40
3.0
 41
0.0
 71
     5
 72
     1
  1
三栄水栓製作所
  7
CONVERTER_1
 73
     1
 44
1.32052821128451
  0
MTEXT
  5
317
330
BF
100
AcDbEntity
  8
1
 62
     7
100
AcDbMText
 10
171.5
 20
15.0
 30
0.0
 40
2.5
 41
0.0
 71
     5
 72
     1
  1
株式会社
  7
CONVERTER_1
 73
     1
 44
1.32052821128451
  0
MTEXT
  5
318
330
BF
100
AcDbEntity
  8
1
 62
     2
100
AcDbMText
 10
32.5
 20
282.0000000000003
 30
0.0
 40
5.0
 41
0.0
 71
     5
 72
     1
  1
図番
  7
CONVERTER_1
 73
     1
 44
0.60024009603842
  0
MTEXT
  5
319
330
BF
100
AcDbEntity
  8
1
 62
     2
100
AcDbMText
 10
29.0
 20
34.00000000000001
 30
0.0
 40
3.5
 41
0.0
 71
     5
 72
     1
  1
備考
  7
CONVERTER_1
 73
     1
 44
0.60024009603842
  0
MTEXT
  5
31A
330
BF
100
AcDbEntity
  8
1
 62
     2
100
AcDbMText
 10
29.0
 20
22.75
 30
0.0
 40
3.5
 41
0.0
 71
     5
 72
     1
  1
品名
  7
CONVERTER_1
 73
     1
 44
0.96038415366146
  0
MTEXT
  5
31B
330
BF
100
AcDbEntity
  8
1
 62
     2
100
AcDbMText
 10
29.0
 20
14.25
 30
0.0
 40
3.5
 41
0.0
 71
     5
 72
     1
  1
品番
  7
CONVERTER_1
 73
     1
 44
0.96038415366146
  0
MTEXT
  5
31C
330
BF
100
AcDbEntity
  8
1
 62
     2
100
AcDbMText
 10
101.5
 20
25.00000000000001
 30
0.0
 40
3.0
 41
0.0
 71
     5
 72
     1
  1
承認
  7
CONVERTER_1
 73
     1
 44
0.78031212484994
  0
MTEXT
  5
31D
330
BF
100
AcDbEntity
  8
1
 62
     2
100
AcDbMText
 10
175.0
 20
23.50000000000001
 30
0.0
 40
3.5
 41
0.0
 71
     5
 72
     1
  1
第三角法
  7
CONVERTER_1
 73
     1
 44
0.7202881152461
  0
MTEXT
  5
31E
330
BF
100
AcDbEntity
  8
1
 62
     2
100
AcDbMText
 10
118.5
 20
25.00000000000001
 30
0.0
 40
3.0
 41
0.0
 71
     5
 72
     1
  1
検図
  7
CONVERTER_1
 73
     1
 44
0.78031212484994
  0
MTEXT
  5
31F
330
BF
100
AcDbEntity
  8
1
 62
     2
100
AcDbMText
 10
152.5
 20
25.00000000000001
 30
0.0
 40
3.0
 41
0.0
 71
     5
 72
     1
  1
設計
  7
CONVERTER_1
 73
     1
 44
0.78031212484994
  0
MTEXT
  5
320
330
BF
100
AcDbEntity
  8
1
 62
     2
100
AcDbMText
 10
135.5
 20
25.00000000000001
 30
0.0
 40
3.0
 41
0.0
 71
     5
 72
     1
  1
製図
  7
CONVERTER_1
 73
     1
 44
0.78031212484994
  0
MTEXT
  5
321
330
BF
100
AcDbEntity
  8
1
 62
     2
100
AcDbMText
 10
89.5
 20
24.00000000000001
 30
0.0
 40
3.5
 41
0.0
 71
     5
 72
     1
  1
尺度
  7
CONVERTER_1
 73
     1
 44
0.7202881152461
  0
MTEXT
  5
322
330
BF
100
AcDbEntity
  8
1
 62
   250
100
AcDbMText
 10
25.0
 20
5.0
 30
0.0
 40
3.5
 41
0.0
 71
     4
 72
     1
  1
備考欄の文字列 原点位置=4
  7
CONVERTER_1
 73
     1
 44
0.7202881152461
  0
ENDBLK
  5
C1
330
BF
100
AcDbEntity
  8
0
100
AcDbBlockEnd
  0
BLOCK
  5
C3
330
C2
100
AcDbEntity
  8
0
100
AcDbBlockBegin
  2
88-554-R21__44
 70
     0
 71
     0
 10
632.7499999999991
 20
662.8000000000002
 30
0.0
  3
88-554-R21__44
  1

  0
LINE
  5
323
330
C2
100
AcDbEntity
  8
1
  6
Continuous
 62
     7
100
AcDbLine
 10
294.9999999999989
 20
397.0
 30
0.0
 11
293.9999999999989
 21
397.0
 31
0.0
  0
LINE
  5
324
330
C2
100
AcDbEntity
  8
1
  6
Continuous
 62
     7
100
AcDbLine
 10
293.9999999999989
 20
357.0
 30
0.0
 11
294.9999999999989
 21
357.0
 31
0.0
  0
LINE
  5
325
330
C2
100
AcDbEntity
  8
1
  6
Continuous
 62
     7
100
AcDbLine
 10
293.9999999999989
 20
397.0
 30
0.0
 11
293.9999999999989
 21
357.0
 31
0.0
  0
LINE
  5
326
330
C2
100
AcDbEntity
  8
1
  6
Continuous
 62
     7
100
AcDbLine
 10
294.9999999999989
 20
357.0
 30
0.0
 11
294.9999999999989
 21
397.0
 31
0.0
  0
LINE
  5
327
330
C2
100
AcDbEntity
  8
1
  6
Continuous
 62
     7
100
AcDbLine
 10
294.9999999999989
 20
710.0
 30
0.0
 11
293.9999999999989
 21
710.0
 31
0.0
  0
LINE
  5
328
330
C2
100
AcDbEntity
  8
1
  6
Continuous
 62
     7
100
AcDbLine
 10
293.9999999999989
 20
670.0
 30
0.0
 11
294.9999999999989
 21
670.0
 31
0.0
  0
LINE
  5
329
330
C2
100
AcDbEntity
  8
1
  6
Continuous
 62
     7
100
AcDbLine
 10
293.9999999999989
 20
710.0
 30
0.0
 11
293.9999999999989
 21
670.0
 31
0.0
  0
LINE
  5
32A
330
C2
100
AcDbEntity
  8
1
  6
Continuous
 62
     7
100
AcDbLine
 10
294.9999999999989
 20
670.0
 30
0.0
 11
294.9999999999989
 21
710.0
 31
0.0
  0
ENDBLK
  5
C4
330
C2
100
AcDbEntity
  8
0
100
AcDbBlockEnd
  0
BLOCK
  5
C6
330
C5
100
AcDbEntity
  8
0
100
AcDbBlockBegin
  2
84-364-M21__45
 70
     0
 71
     0
 10
425.4999999999992
 20
547.5
 30
0.0
  3
84-364-M21__45
  1

  0
LINE
  5
32B
330
C5
100
AcDbEntity
  8
1
  6
Continuous
 62
     7
100
AcDbLine
 10
294.9999999999989
 20
357.2000000000001
 30
0.0
 11
294.9999999999989
 21
396.8000000000002
 31
0.0
  0
LINE
  5
32C
330
C5
100
AcDbEntity
  8
1
  6
Continuous
 62
     7
100
AcDbLine
 10
297.8097617856022
 20
397.0
 30
0.0
 11
295.1999999999989
 21
397.0
 31
0.0
  0
LINE
  5
32D
330
C5
100
AcDbEntity
  8
1
  6
Continuous
 62
     7
100
AcDbLine
 10
295.1999999999989
 20
357.0
 30
0.0
 11
297.8097617856022
 21
357.0
 31
0.0
  0
LINE
  5
32E
330
C5
100
AcDbEntity
  8
1
  6
Continuous
 62
     7
100
AcDbLine
 10
294.9999999999989
 20
670.2000000000001
 30
0.0
 11
294.9999999999989
 21
709.8000000000002
 31
0.0
  0
LINE
  5
32F
330
C5
100
AcDbEntity
  8
1
  6
Continuous
 62
     7
100
AcDbLine
 10
297.8097617856022
 20
710.0
 30
0.0
 11
295.1999999999989
 21
710.0
 31
0.0
  0
LINE
  5
330
330
C5
100
AcDbEntity
  8
1
  6
Continuous
 62
     7
100
AcDbLine
 10
295.1999999999989
 20
670.0
 30
0.0
 11
297.8097617856022
 21
670.0
 31
0.0
  0
ARC
  5
331
330
C5
100
AcDbEntity
  8
1
  6
Continuous
 62
     7
100
AcDbCircle
 10
-701.5000000000009
 20
376.9999999999832
 30
0.0
 40
999.9999999999996
100
AcDbArc
 50
-1.11789753911714
 51
0.00000000000096
  0
ARC
  5
332
330
C5
100
AcDbEntity
  8
1
  6
Continuous
 62
     7
100
AcDbCircle
 10
-701.5000000000009
 20
376.9999999999832
 30
0.0
 40
999.9999999999996
100
AcDbArc
 50
0.00000000000096
 51
1.11789753911908
  0
ARC
  5
333
330
C5
100
AcDbEntity
  8
1
  6
Continuous
 62
     7
100
AcDbCircle
 10
-701.5000000000009
 20
689.9999999999832
 30
0.0
 40
999.9999999999996
100
AcDbArc
 50
-1.11789753911714
 51
0.00000000000096
  0
ARC
  5
334
330
C5
100
AcDbEntity
  8
1
  6
Continuous
 62
     7
100
AcDbCircle
 10
-701.5000000000009
 20
689.9999999999832
 30
0.0
 40
999.9999999999996
100
AcDbArc
 50
0.00000000000096
 51
1.11789753911908
  0
CIRCLE
  5
335
330
C5
100
AcDbEntity
  8
1
  6
Continuous
 62
     7
100
AcDbCircle
 10
525.0
 20
377.0
 30
0.0
 40
20.0
  0
ARC
  5
336
330
C5
100
AcDbEntity
  8
1
  6
Continuous
 62
     7
100
AcDbCircle
 10
295.1999999999989
 20
357.2000000000001
 30
0.0
 40
0.1999999999999886
100
AcDbArc
 50
180.0
 51
-90.0
  0
ARC
  5
337
330
C5
100
AcDbEntity
  8
1
  6
Continuous
 62
     7
100
AcDbCircle
 10
295.1999999999989
 20
396.8000000000002
 30
0.0
 40
0.1999999999998181
100
AcDbArc
 50
90.0
 51
180.0
  0
ARC
  5
338
330
C5
100
AcDbEntity
  8
1
  6
Continuous
 62
     7
100
AcDbCircle
 10
297.8097617856029
 20
357.5
 30
0.0
 40
0.5
100
AcDbArc
 50
-90.00000000008468
 51
-1.11789753910265
  0
ARC
  5
339
330
C5
100
AcDbEntity
  8
1
  6
Continuous
 62
     7
100
AcDbCircle
 10
297.8097617856022
 20
396.5
 30
0.0
 40
0.5000000000000739
100
AcDbArc
 50
1.1178975391282
 51
90.0
  0
ARC
  5
33A
330
C5
100
AcDbEntity
  8
1
  6
Continuous
 62
     7
100
AcDbCircle
 10
295.1999999999989
 20
670.2000000000001
 30
0.0
 40
0.1999999999999886
100
AcDbArc
 50
180.0
 51
-90.0
  0
ARC
  5
33B
330
C5
100
AcDbEntity
  8
1
  6
Continuous
 62
     7
100
AcDbCircle
 10
295.1999999999989
 20
709.8000000000002
 30
0.0
 40
0.1999999999998181
100
AcDbArc
 50
90.0
 51
180.0
  0
ARC
  5
33C
330
C5
100
AcDbEntity
  8
1
  6
Continuous
 62
     7
100
AcDbCircle
 10
297.8097617856029
 20
670.5
 30
0.0
 40
0.5
100
AcDbArc
 50
-90.00000000008468
 51
-1.11789753910265
  0
ARC
  5
33D
330
C5
100
AcDbEntity
  8
1
  6
Continuous
 62
     7
100
AcDbCircle
 10
297.8097617856022
 20
709.5
 30
0.0
 40
0.5000000000000739
100
AcDbArc
 50
1.1178975391282
 51
90.0
  0
ENDBLK
  5
C7
330
C5
100
AcDbEntity
  8
0
100
AcDbBlockEnd
  0
BLOCK
  5
C9
330
C8
100
AcDbEntity
  8
0
100
AcDbBlockBegin
  2
88-554-R21__46
 70
     0
 71
     0
 10
-252.7499999999991
 20
662.8000000000002
 30
0.0
  3
88-554-R21__46
  1

  0
LINE
  5
33E
330
C8
100
AcDbEntity
  8
1
  6
Continuous
 62
     7
100
AcDbLine
 10
85.00000000000109
 20
397.0
 30
0.0
 11
85.00000000000109
 21
357.0
 31
0.0
  0
LINE
  5
33F
330
C8
100
AcDbEntity
  8
1
  6
Continuous
 62
     7
100
AcDbLine
 10
86.00000000000109
 20
357.0
 30
0.0
 11
86.00000000000109
 21
397.0
 31
0.0
  0
LINE
  5
340
330
C8
100
AcDbEntity
  8
1
  6
Continuous
 62
     7
100
AcDbLine
 10
85.00000000000109
 20
357.0
 30
0.0
 11
86.00000000000109
 21
357.0
 31
0.0
  0
LINE
  5
341
330
C8
100
AcDbEntity
  8
1
  6
Continuous
 62
     7
100
AcDbLine
 10
86.00000000000109
 20
397.0
 30
0.0
 11
85.00000000000109
 21
397.0
 31
0.0
  0
LINE
  5
342
330
C8
100
AcDbEntity
  8
1
  6
Continuous
 62
     7
100
AcDbLine
 10
85.00000000000109
 20
710.0
 30
0.0
 11
85.00000000000109
 21
670.0
 31
0.0
  0
LINE
  5
343
330
C8
100
AcDbEntity
  8
1
  6
Continuous
 62
     7
100
AcDbLine
 10
86.00000000000109
 20
670.0
 30
0.0
 11
86.00000000000109
 21
710.0
 31
0.0
  0
LINE
  5
344
330
C8
100
AcDbEntity
  8
1
  6
Continuous
 62
     7
100
AcDbLine
 10
85.00000000000109
 20
670.0
 30
0.0
 11
86.00000000000109
 21
670.0
 31
0.0
  0
LINE
  5
345
330
C8
100
AcDbEntity
  8
1
  6
Continuous
 62
     7
100
AcDbLine
 10
86.00000000000109
 20
710.0
 30
0.0
 11
85.00000000000109
 21
710.0
 31
0.0
  0
ENDBLK
  5
CA
330
C8
100
AcDbEntity
  8
0
100
AcDbBlockEnd
  0
BLOCK
  5
CC
330
CB
100
AcDbEntity
  8
0
100
AcDbBlockBegin
  2
84-364-M21__47
 70
     0
 71
     0
 10
-45.49999999999913
 20
547.5
 30
0.0
  3
84-364-M21__47
  1

  0
LINE
  5
346
330
CB
100
AcDbEntity
  8
1
  6
Continuous
 62
     7
100
AcDbLine
 10
82.1902382143978
 20
357.0
 30
0.0
 11
84.80000000000109
 21
357.0
 31
0.0
  0
LINE
  5
347
330
CB
100
AcDbEntity
  8
1
  6
Continuous
 62
     7
100
AcDbLine
 10
84.80000000000109
 20
397.0
 30
0.0
 11
82.1902382143978
 21
397.0
 31
0.0
  0
LINE
  5
348
330
CB
100
AcDbEntity
  8
1
  6
Continuous
 62
     7
100
AcDbLine
 10
85.00000000000109
 20
396.8000000000002
 30
0.0
 11
85.00000000000109
 21
357.2000000000001
 31
0.0
  0
LINE
  5
349
330
CB
100
AcDbEntity
  8
1
  6
Continuous
 62
     7
100
AcDbLine
 10
82.1902382143978
 20
670.0
 30
0.0
 11
84.80000000000109
 21
670.0
 31
0.0
  0
LINE
  5
34A
330
CB
100
AcDbEntity
  8
1
  6
Continuous
 62
     7
100
AcDbLine
 10
84.80000000000109
 20
710.0
 30
0.0
 11
82.1902382143978
 21
710.0
 31
0.0
  0
LINE
  5
34B
330
CB
100
AcDbEntity
  8
1
  6
Continuous
 62
     7
100
AcDbLine
 10
85.00000000000109
 20
709.8000000000002
 30
0.0
 11
85.00000000000109
 21
670.2000000000001
 31
0.0
  0
ARC
  5
34C
330
CB
100
AcDbEntity
  8
1
  6
Continuous
 62
     7
100
AcDbCircle
 10
1081.500000000001
 20
376.9999999999832
 30
0.0
 40
999.9999999999998
100
AcDbArc
 50
178.8821024608809
 51
179.999999999999
  0
ARC
  5
34D
330
CB
100
AcDbEntity
  8
1
  6
Continuous
 62
     7
100
AcDbCircle
 10
1081.500000000001
 20
376.9999999999832
 30
0.0
 40
999.9999999999997
100
AcDbArc
 50
179.999999999999
 51
-178.8821024608829
  0
ARC
  5
34E
330
CB
100
AcDbEntity
  8
1
  6
Continuous
 62
     7
100
AcDbCircle
 10
1081.500000000001
 20
689.9999999999832
 30
0.0
 40
999.9999999999998
100
AcDbArc
 50
178.8821024608809
 51
179.999999999999
  0
ARC
  5
34F
330
CB
100
AcDbEntity
  8
1
  6
Continuous
 62
     7
100
AcDbCircle
 10
1081.500000000001
 20
689.9999999999832
 30
0.0
 40
999.9999999999997
100
AcDbArc
 50
179.999999999999
 51
-178.8821024608829
  0
ARC
  5
350
330
CB
100
AcDbEntity
  8
1
  6
Continuous
 62
     7
100
AcDbCircle
 10
82.1902382143978
 20
396.5
 30
0.0
 40
0.5
100
AcDbArc
 50
90.0
 51
178.8821024608718
  0
ARC
  5
351
330
CB
100
AcDbEntity
  8
1
  6
Continuous
 62
     7
100
AcDbCircle
 10
82.1902382143971
 20
357.5
 30
0.0
 40
0.4999999999998422
100
AcDbArc
 50
-178.8821024608973
 51
-89.99999999992021
  0
ARC
  5
352
330
CB
100
AcDbEntity
  8
1
  6
Continuous
 62
     7
100
AcDbCircle
 10
84.80000000000109
 20
396.8000000000002
 30
0.0
 40
0.2000000000000028
100
AcDbArc
 50
0.0
 51
90.0
  0
ARC
  5
353
330
CB
100
AcDbEntity
  8
1
  6
Continuous
 62
     7
100
AcDbCircle
 10
84.80000000000109
 20
357.2000000000001
 30
0.0
 40
0.2000000000001023
100
AcDbArc
 50
-90.0
 51
0.0
  0
ARC
  5
354
330
CB
100
AcDbEntity
  8
1
  6
Continuous
 62
     7
100
AcDbCircle
 10
82.1902382143978
 20
709.5
 30
0.0
 40
0.5
100
AcDbArc
 50
90.0
 51
178.8821024608718
  0
ARC
  5
355
330
CB
100
AcDbEntity
  8
1
  6
Continuous
 62
     7
100
AcDbCircle
 10
82.1902382143971
 20
670.5
 30
0.0
 40
0.4999999999998422
100
AcDbArc
 50
-178.8821024608973
 51
-89.99999999992021
  0
ARC
  5
356
330
CB
100
AcDbEntity
  8
1
  6
Continuous
 62
     7
100
AcDbCircle
 10
84.80000000000109
 20
709.8000000000002
 30
0.0
 40
0.2000000000000028
100
AcDbArc
 50
0.0
 51
90.0
  0
ARC
  5
357
330
CB
100
AcDbEntity
  8
1
  6
Continuous
 62
     7
100
AcDbCircle
 10
84.80000000000109
 20
670.2000000000001
 30
0.0
 40
0.2000000000000455
100
AcDbArc
 50
-90.0
 51
0.0
  0
ENDBLK
  5
CD
330
CB
100
AcDbEntity
  8
0
100
AcDbBlockEnd
  0
BLOCK
  5
CF
330
CE
100
AcDbEntity
  8
0
100
AcDbBlockBegin
  2
81-164-M21__48
 70
     0
 71
     0
 10
251.5000000000011
 20
547.5
 30
0.0
  3
81-164-M21__48
  1

  0
LINE
  5
358
330
CE
100
AcDbEntity
  8
2
  6
Continuous
 62
     7
100
AcDbLine
 10
98.71954446000109
 20
383.65481487
 30
0.0
 11
105.7804555400012
 21
383.65481487
 31
0.0
  0
LINE
  5
359
330
CE
100
AcDbEntity
  8
2
  6
Continuous
 62
     7
100
AcDbLine
 10
105.7804555400012
 20
395.86036688
 30
0.0
 11
98.71954446000109
 21
395.86036688
 31
0.0
  0
LINE
  5
35A
330
CE
100
AcDbEntity
  8
2
  6
Continuous
 62
     7
100
AcDbLine
 10
98.71954446000109
 20
395.86036688
 30
0.0
 11
98.16009392000115
 21
395.85532861
 31
0.0
  0
LINE
  5
35B
330
CE
100
AcDbEntity
  8
2
  6
Continuous
 62
     7
100
AcDbLine
 10
98.16009392000115
 20
358.14467139
 30
0.0
 11
98.71954446000109
 21
358.13963312
 31
0.0
  0
LINE
  5
35C
330
CE
100
AcDbEntity
  8
2
  6
Continuous
 62
     7
100
AcDbLine
 10
98.71954446000109
 20
358.13963312
 30
0.0
 11
105.7804555400012
 21
358.13963312
 31
0.0
  0
LINE
  5
35D
330
CE
100
AcDbEntity
  8
2
  6
Continuous
 62
     7
100
AcDbLine
 10
105.7804555400012
 20
370.34518513
 30
0.0
 11
98.71954446000109
 21
370.34518513
 31
0.0
  0
LINE
  5
35E
330
CE
100
AcDbEntity
  8
1
  6
Continuous
 62
     7
100
AcDbLine
 10
86.2000000000012
 20
357.0000000000005
 30
0.0
 11
115.0
 21
357.0000000000005
 31
0.0
  0
LINE
  5
35F
330
CE
100
AcDbEntity
  8
1
  6
Continuous
 62
     7
100
AcDbLine
 10
86.00000000000109
 20
396.7999999999993
 30
0.0
 11
86.00000000000109
 21
357.2000000000003
 31
0.0
  0
LINE
  5
360
330
CE
100
AcDbEntity
  8
1
  6
Continuous
 62
     7
100
AcDbLine
 10
115.0
 20
396.9999999999991
 30
0.0
 11
86.2000000000012
 21
396.9999999999991
 31
0.0
  0
LINE
  5
361
330
CE
100
AcDbEntity
  8
2
  6
Continuous
 62
     7
100
AcDbLine
 10
98.71954446000109
 20
696.65481487
 30
0.0
 11
105.7804555400012
 21
696.65481487
 31
0.0
  0
LINE
  5
362
330
CE
100
AcDbEntity
  8
2
  6
Continuous
 62
     7
100
AcDbLine
 10
105.7804555400012
 20
708.86036688
 30
0.0
 11
98.71954446000109
 21
708.86036688
 31
0.0
  0
LINE
  5
363
330
CE
100
AcDbEntity
  8
2
  6
Continuous
 62
     7
100
AcDbLine
 10
98.71954446000109
 20
708.86036688
 30
0.0
 11
98.16009392000115
 21
708.85532861
 31
0.0
  0
LINE
  5
364
330
CE
100
AcDbEntity
  8
2
  6
Continuous
 62
     7
100
AcDbLine
 10
98.16009392000115
 20
671.14467139
 30
0.0
 11
98.71954446000109
 21
671.13963312
 31
0.0
  0
LINE
  5
365
330
CE
100
AcDbEntity
  8
2
  6
Continuous
 62
     7
100
AcDbLine
 10
98.71954446000109
 20
671.13963312
 30
0.0
 11
105.7804555400012
 21
671.13963312
 31
0.0
  0
LINE
  5
366
330
CE
100
AcDbEntity
  8
2
  6
Continuous
 62
     7
100
AcDbLine
 10
105.7804555400012
 20
683.34518513
 30
0.0
 11
98.71954446000109
 21
683.34518513
 31
0.0
  0
LINE
  5
367
330
CE
100
AcDbEntity
  8
1
  6
Continuous
 62
     7
100
AcDbLine
 10
86.2000000000012
 20
670.0000000000005
 30
0.0
 11
115.0
 21
670.0000000000005
 31
0.0
  0
LINE
  5
368
330
CE
100
AcDbEntity
  8
1
  6
Continuous
 62
     7
100
AcDbLine
 10
86.00000000000109
 20
709.7999999999993
 30
0.0
 11
86.00000000000109
 21
670.2000000000003
 31
0.0
  0
LINE
  5
369
330
CE
100
AcDbEntity
  8
1
  6
Continuous
 62
     7
100
AcDbLine
 10
115.0
 20
709.9999999999991
 30
0.0
 11
86.2000000000012
 21
709.9999999999991
 31
0.0
  0
ARC
  5
36A
330
CE
100
AcDbEntity
  8
2
  6
Continuous
 62
     7
100
AcDbCircle
 10
105.8437082800011
 20
394.12003625
 30
0.0
 40
10.46541252999994
100
AcDbArc
 50
-90.34629659999921
 51
-46.95019959999991
  0
ARC
  5
36B
330
CE
100
AcDbEntity
  8
2
  6
Continuous
 62
     7
100
AcDbCircle
 10
107.9405377700011
 20
391.94559495
 30
0.0
 40
7.445204059999997
100
AcDbArc
 50
-47.31908138999967
 51
-18.52425965877865
  0
ARC
  5
36C
330
CE
100
AcDbEntity
  8
2
  6
Continuous
 62
     7
100
AcDbCircle
 10
108.9905632500012
 20
386.7510595900001
 30
0.0
 40
8.813392769999942
100
AcDbArc
 50
60.25793372000051
 51
78.65989681999967
  0
ARC
  5
36D
330
CE
100
AcDbEntity
  8
2
  6
Continuous
 62
     7
100
AcDbCircle
 10
106.0476731700012
 20
372.34256347
 30
0.0
 40
23.51932148000004
100
AcDbArc
 50
78.53258829000018
 51
90.65098696000025
  0
ARC
  5
36E
330
CE
100
AcDbEntity
  8
2
  6
Continuous
 62
     7
100
AcDbCircle
 10
98.21749951000118
 20
374.55960807
 30
0.0
 40
21.29579792000011
100
AcDbArc
 50
90.15444839999991
 51
103.16457146
  0
ARC
  5
36F
330
CE
100
AcDbEntity
  8
2
  6
Continuous
 62
     7
100
AcDbCircle
 10
95.06253699000115
 20
387.8844474800001
 30
0.0
 40
7.602689069999927
100
AcDbArc
 50
102.8832164899999
 51
123.2483436600007
  0
ARC
  5
370
330
CE
100
AcDbEntity
  8
2
  6
Continuous
 62
     7
100
AcDbCircle
 10
92.96994929000118
 20
391.11997089
 30
0.0
 40
3.749589460000129
100
AcDbArc
 50
123.6135827400002
 51
164.6907011199997
  0
ARC
  5
371
330
CE
100
AcDbEntity
  8
2
  6
Continuous
 62
     7
100
AcDbCircle
 10
93.66235710000115
 20
391.09605734
 30
0.0
 40
4.426624310000008
100
AcDbArc
 50
166.7588811800004
 51
-161.0949513600008
  0
ARC
  5
372
330
CE
100
AcDbEntity
  8
2
  6
Continuous
 62
     7
100
AcDbCircle
 10
96.84517100000119
 20
392.11759553
 30
0.0
 40
7.768996520000069
100
AcDbArc
 50
-161.5728597299999
 51
-132.1928299799997
  0
ARC
  5
373
330
CE
100
AcDbEntity
  8
2
  6
Continuous
 62
     7
100
AcDbCircle
 10
98.69473518000109
 20
394.23456556
 30
0.0
 40
10.57977977999999
100
AcDbArc
 50
-131.9139530099994
 51
-89.86564292999952
  0
ARC
  5
374
330
CE
100
AcDbEntity
  8
2
  6
Continuous
 62
     7
100
AcDbCircle
 10
111.4692634800011
 20
391.0743889300001
 30
0.0
 40
3.829919500000068
100
AcDbArc
 50
22.79710987781852
 51
60.36844811999915
  0
ARC
  5
375
330
CE
100
AcDbEntity
  8
2
  6
Continuous
 62
     7
100
AcDbCircle
 10
111.4692634800011
 20
362.92561107
 30
0.0
 40
3.829919499999991
100
AcDbArc
 50
-60.36844812
 51
-22.7971098778201
  0
ARC
  5
376
330
CE
100
AcDbEntity
  8
2
  6
Continuous
 62
     7
100
AcDbCircle
 10
98.69473518000109
 20
359.76543444
 30
0.0
 40
10.57977978000008
100
AcDbArc
 50
89.86564292999952
 51
131.9139530099994
  0
ARC
  5
377
330
CE
100
AcDbEntity
  8
2
  6
Continuous
 62
     7
100
AcDbCircle
 10
96.84517100000119
 20
361.88240447
 30
0.0
 40
7.768996520000068
100
AcDbArc
 50
132.1928299799997
 51
161.5728597299999
  0
ARC
  5
378
330
CE
100
AcDbEntity
  8
2
  6
Continuous
 62
     7
100
AcDbCircle
 10
93.66235710000115
 20
362.90394266
 30
0.0
 40
4.426624310000018
100
AcDbArc
 50
161.0949513600008
 51
-166.7588811800004
  0
ARC
  5
379
330
CE
100
AcDbEntity
  8
2
  6
Continuous
 62
     7
100
AcDbCircle
 10
92.96994929000118
 20
362.88002911
 30
0.0
 40
3.74958946000005
100
AcDbArc
 50
-164.6907011199997
 51
-123.6135827400012
  0
ARC
  5
37A
330
CE
100
AcDbEntity
  8
2
  6
Continuous
 62
     7
100
AcDbCircle
 10
95.06253699000115
 20
366.1155525199999
 30
0.0
 40
7.602689069999935
100
AcDbArc
 50
-123.2483436600007
 51
-102.8832164899999
  0
ARC
  5
37B
330
CE
100
AcDbEntity
  8
2
  6
Continuous
 62
     7
100
AcDbCircle
 10
98.21749951000118
 20
379.44039193
 30
0.0
 40
21.29579792
100
AcDbArc
 50
-103.16457146
 51
-90.15444839999991
  0
ARC
  5
37C
330
CE
100
AcDbEntity
  8
2
  6
Continuous
 62
     7
100
AcDbCircle
 10
106.0476731700012
 20
381.65743653
 30
0.0
 40
23.51932148000001
100
AcDbArc
 50
-90.65098696000025
 51
-78.53258829000018
  0
ARC
  5
37D
330
CE
100
AcDbEntity
  8
2
  6
Continuous
 62
     7
100
AcDbCircle
 10
108.9905632500012
 20
367.2489404099999
 30
0.0
 40
8.81339276999989
100
AcDbArc
 50
-78.65989681999967
 51
-60.25793372000051
  0
ARC
  5
37E
330
CE
100
AcDbEntity
  8
2
  6
Continuous
 62
     7
100
AcDbCircle
 10
107.9405377700011
 20
362.05440505
 30
0.0
 40
7.445204060000084
100
AcDbArc
 50
18.52425965877865
 51
47.31908138999967
  0
ARC
  5
37F
330
CE
100
AcDbEntity
  8
2
  6
Continuous
 62
     7
100
AcDbCircle
 10
105.8437082800011
 20
359.87996375
 30
0.0
 40
10.46541253000004
100
AcDbArc
 50
46.95019959999991
 51
90.34629659999921
  0
ARC
  5
380
330
CE
100
AcDbEntity
  8
2
  6
Continuous
 62
     7
100
AcDbCircle
 10
105.8437082800011
 20
707.12003625
 30
0.0
 40
10.46541253
100
AcDbArc
 50
-90.34629659999921
 51
-46.95019959999991
  0
ARC
  5
381
330
CE
100
AcDbEntity
  8
2
  6
Continuous
 62
     7
100
AcDbCircle
 10
107.9405377700011
 20
704.94559495
 30
0.0
 40
7.44520406000004
100
AcDbArc
 50
-47.31908138999997
 51
-18.52425965877782
  0
ARC
  5
382
330
CE
100
AcDbEntity
  8
2
  6
Continuous
 62
     7
100
AcDbCircle
 10
108.9905632500012
 20
699.7510595900001
 30
0.0
 40
8.813392769999942
100
AcDbArc
 50
60.25793372000051
 51
78.6598968199998
  0
ARC
  5
383
330
CE
100
AcDbEntity
  8
2
  6
Continuous
 62
     7
100
AcDbCircle
 10
106.0476731700012
 20
685.34256347
 30
0.0
 40
23.51932148000009
100
AcDbArc
 50
78.53258829000021
 51
90.65098696000025
  0
ARC
  5
384
330
CE
100
AcDbEntity
  8
2
  6
Continuous
 62
     7
100
AcDbCircle
 10
98.21749951000118
 20
687.55960807
 30
0.0
 40
21.29579792000011
100
AcDbArc
 50
90.15444839999991
 51
103.16457146
  0
ARC
  5
385
330
CE
100
AcDbEntity
  8
2
  6
Continuous
 62
     7
100
AcDbCircle
 10
95.06253699000115
 20
700.8844474800001
 30
0.0
 40
7.602689069999983
100
AcDbArc
 50
102.8832164899998
 51
123.2483436600005
  0
ARC
  5
386
330
CE
100
AcDbEntity
  8
2
  6
Continuous
 62
     7
100
AcDbCircle
 10
92.96994929000118
 20
704.11997089
 30
0.0
 40
3.749589460000082
100
AcDbArc
 50
123.6135827400007
 51
164.6907011199997
  0
ARC
  5
387
330
CE
100
AcDbEntity
  8
2
  6
Continuous
 62
     7
100
AcDbCircle
 10
93.66235710000115
 20
704.09605734
 30
0.0
 40
4.426624310000008
100
AcDbArc
 50
166.7588811800004
 51
-161.0949513600008
  0
ARC
  5
388
330
CE
100
AcDbEntity
  8
2
  6
Continuous
 62
     7
100
AcDbCircle
 10
96.84517100000119
 20
705.11759553
 30
0.0
 40
7.768996520000087
100
AcDbArc
 50
-161.5728597299995
 51
-132.1928299799997
  0
ARC
  5
389
330
CE
100
AcDbEntity
  8
2
  6
Continuous
 62
     7
100
AcDbCircle
 10
98.69473518000109
 20
707.23456556
 30
0.0
 40
10.57977977999995
100
AcDbArc
 50
-131.9139530099996
 51
-89.86564292999952
  0
ARC
  5
38A
330
CE
100
AcDbEntity
  8
2
  6
Continuous
 62
     7
100
AcDbCircle
 10
111.4692634800011
 20
704.0743889300001
 30
0.0
 40
3.829919500000112
100
AcDbArc
 50
22.7971098778201
 51
60.36844812
  0
ARC
  5
38B
330
CE
100
AcDbEntity
  8
2
  6
Continuous
 62
     7
100
AcDbCircle
 10
111.4692634800011
 20
675.92561107
 30
0.0
 40
3.829919499999991
100
AcDbArc
 50
-60.36844812
 51
-22.7971098778201
  0
ARC
  5
38C
330
CE
100
AcDbEntity
  8
2
  6
Continuous
 62
     7
100
AcDbCircle
 10
98.69473518000109
 20
672.76543444
 30
0.0
 40
10.57977978000002
100
AcDbArc
 50
89.86564292999952
 51
131.9139530099996
  0
ARC
  5
38D
330
CE
100
AcDbEntity
  8
2
  6
Continuous
 62
     7
100
AcDbCircle
 10
96.84517100000119
 20
674.88240447
 30
0.0
 40
7.768996520000068
100
AcDbArc
 50
132.1928299799997
 51
161.5728597299995
  0
ARC
  5
38E
330
CE
100
AcDbEntity
  8
2
  6
Continuous
 62
     7
100
AcDbCircle
 10
93.66235710000115
 20
675.90394266
 30
0.0
 40
4.426624310000018
100
AcDbArc
 50
161.0949513600008
 51
-166.7588811800004
  0
ARC
  5
38F
330
CE
100
AcDbEntity
  8
2
  6
Continuous
 62
     7
100
AcDbCircle
 10
92.96994929000118
 20
675.88002911
 30
0.0
 40
3.74958946000005
100
AcDbArc
 50
-164.6907011199997
 51
-123.6135827400007
  0
ARC
  5
390
330
CE
100
AcDbEntity
  8
2
  6
Continuous
 62
     7
100
AcDbCircle
 10
95.06253699000115
 20
679.1155525199999
 30
0.0
 40
7.602689069999983
100
AcDbArc
 50
-123.2483436600005
 51
-102.8832164899998
  0
ARC
  5
391
330
CE
100
AcDbEntity
  8
2
  6
Continuous
 62
     7
100
AcDbCircle
 10
98.21749951000118
 20
692.44039193
 30
0.0
 40
21.29579792000005
100
AcDbArc
 50
-103.16457146
 51
-90.15444839999991
  0
ARC
  5
392
330
CE
100
AcDbEntity
  8
2
  6
Continuous
 62
     7
100
AcDbCircle
 10
106.0476731700012
 20
694.65743653
 30
0.0
 40
23.51932148000007
100
AcDbArc
 50
-90.65098696000025
 51
-78.53258829000021
  0
ARC
  5
393
330
CE
100
AcDbEntity
  8
2
  6
Continuous
 62
     7
100
AcDbCircle
 10
108.9905632500012
 20
680.2489404099999
 30
0.0
 40
8.813392770000002
100
AcDbArc
 50
-78.6598968199998
 51
-60.25793372000051
  0
ARC
  5
394
330
CE
100
AcDbEntity
  8
2
  6
Continuous
 62
     7
100
AcDbCircle
 10
107.9405377700011
 20
675.05440505
 30
0.0
 40
7.445204060000049
100
AcDbArc
 50
18.52425965877782
 51
47.31908138999997
  0
ARC
  5
395
330
CE
100
AcDbEntity
  8
2
  6
Continuous
 62
     7
100
AcDbCircle
 10
105.8437082800011
 20
672.87996375
 30
0.0
 40
10.46541253000004
100
AcDbArc
 50
46.95019959999991
 51
90.34629659999921
  0
ARC
  5
396
330
CE
100
AcDbEntity
  8
1
  6
Continuous
 62
     7
100
AcDbCircle
 10
86.2000000000012
 20
357.2000000000003
 30
0.0
 40
0.2000000000001023
100
AcDbArc
 50
180.0
 51
-90.0
  0
ARC
  5
397
330
CE
100
AcDbEntity
  8
1
  6
Continuous
 62
     7
100
AcDbCircle
 10
86.2000000000012
 20
396.7999999999993
 30
0.0
 40
0.1999999999998181
100
AcDbArc
 50
90.0
 51
180.0
  0
ARC
  5
398
330
CE
100
AcDbEntity
  8
1
  6
Continuous
 62
     7
100
AcDbCircle
 10
86.2000000000012
 20
670.2000000000003
 30
0.0
 40
0.2000000000001023
100
AcDbArc
 50
180.0
 51
-90.0
  0
ARC
  5
399
330
CE
100
AcDbEntity
  8
1
  6
Continuous
 62
     7
100
AcDbCircle
 10
86.2000000000012
 20
709.7999999999993
 30
0.0
 40
0.1999999999998181
100
AcDbArc
 50
90.0
 51
180.0
  0
ENDBLK
  5
D0
330
CE
100
AcDbEntity
  8
0
100
AcDbBlockEnd
  0
BLOCK
  5
D2
330
D1
100
AcDbEntity
  8
0
100
AcDbBlockBegin
  2
81-164-M21__49
 70
     0
 71
     0
 10
128.4999999999989
 20
547.5
 30
0.0
  3
81-164-M21__49
  1

  0
LINE
  5
39A
330
D1
100
AcDbEntity
  8
1
  6
Continuous
 62
     7
100
AcDbLine
 10
293.7999999999988
 20
396.9999999999991
 30
0.0
 11
265.0
 21
396.9999999999991
 31
0.0
  0
LINE
  5
39B
330
D1
100
AcDbEntity
  8
1
  6
Continuous
 62
     7
100
AcDbLine
 10
293.9999999999989
 20
357.2000000000003
 30
0.0
 11
293.9999999999989
 21
396.7999999999993
 31
0.0
  0
LINE
  5
39C
330
D1
100
AcDbEntity
  8
1
  6
Continuous
 62
     7
100
AcDbLine
 10
265.0
 20
357.0000000000005
 30
0.0
 11
293.7999999999988
 21
357.0000000000005
 31
0.0
  0
LINE
  5
39D
330
D1
100
AcDbEntity
  8
2
  6
Continuous
 62
     7
100
AcDbLine
 10
281.2804555399989
 20
370.34518513
 30
0.0
 11
274.2195444599988
 21
370.34518513
 31
0.0
  0
LINE
  5
39E
330
D1
100
AcDbEntity
  8
2
  6
Continuous
 62
     7
100
AcDbLine
 10
274.2195444599988
 20
358.13963312
 30
0.0
 11
281.2804555399989
 21
358.13963312
 31
0.0
  0
LINE
  5
39F
330
D1
100
AcDbEntity
  8
2
  6
Continuous
 62
     7
100
AcDbLine
 10
281.2804555399989
 20
358.13963312
 30
0.0
 11
281.8399060799989
 21
358.14467139
 31
0.0
  0
LINE
  5
3A0
330
D1
100
AcDbEntity
  8
2
  6
Continuous
 62
     7
100
AcDbLine
 10
281.8399060799989
 20
395.85532861
 30
0.0
 11
281.2804555399989
 21
395.86036688
 31
0.0
  0
LINE
  5
3A1
330
D1
100
AcDbEntity
  8
2
  6
Continuous
 62
     7
100
AcDbLine
 10
281.2804555399989
 20
395.86036688
 30
0.0
 11
274.2195444599988
 21
395.86036688
 31
0.0
  0
LINE
  5
3A2
330
D1
100
AcDbEntity
  8
2
  6
Continuous
 62
     7
100
AcDbLine
 10
274.2195444599988
 20
383.65481487
 30
0.0
 11
281.2804555399989
 21
383.65481487
 31
0.0
  0
LINE
  5
3A3
330
D1
100
AcDbEntity
  8
1
  6
Continuous
 62
     7
100
AcDbLine
 10
293.7999999999988
 20
709.9999999999991
 30
0.0
 11
265.0
 21
709.9999999999991
 31
0.0
  0
LINE
  5
3A4
330
D1
100
AcDbEntity
  8
1
  6
Continuous
 62
     7
100
AcDbLine
 10
293.9999999999989
 20
670.2000000000003
 30
0.0
 11
293.9999999999989
 21
709.7999999999993
 31
0.0
  0
LINE
  5
3A5
330
D1
100
AcDbEntity
  8
1
  6
Continuous
 62
     7
100
AcDbLine
 10
265.0
 20
670.0000000000005
 30
0.0
 11
293.7999999999988
 21
670.0000000000005
 31
0.0
  0
LINE
  5
3A6
330
D1
100
AcDbEntity
  8
2
  6
Continuous
 62
     7
100
AcDbLine
 10
281.2804555399989
 20
683.34518513
 30
0.0
 11
274.2195444599988
 21
683.34518513
 31
0.0
  0
LINE
  5
3A7
330
D1
100
AcDbEntity
  8
2
  6
Continuous
 62
     7
100
AcDbLine
 10
274.2195444599988
 20
671.13963312
 30
0.0
 11
281.2804555399989
 21
671.13963312
 31
0.0
  0
LINE
  5
3A8
330
D1
100
AcDbEntity
  8
2
  6
Continuous
 62
     7
100
AcDbLine
 10
281.2804555399989
 20
671.13963312
 30
0.0
 11
281.8399060799989
 21
671.14467139
 31
0.0
  0
LINE
  5
3A9
330
D1
100
AcDbEntity
  8
2
  6
Continuous
 62
     7
100
AcDbLine
 10
281.8399060799989
 20
708.85532861
 30
0.0
 11
281.2804555399989
 21
708.86036688
 31
0.0
  0
LINE
  5
3AA
330
D1
100
AcDbEntity
  8
2
  6
Continuous
 62
     7
100
AcDbLine
 10
281.2804555399989
 20
708.86036688
 30
0.0
 11
274.2195444599988
 21
708.86036688
 31
0.0
  0
LINE
  5
3AB
330
D1
100
AcDbEntity
  8
2
  6
Continuous
 62
     7
100
AcDbLine
 10
274.2195444599988
 20
696.65481487
 30
0.0
 11
281.2804555399989
 21
696.65481487
 31
0.0
  0
ARC
  5
3AC
330
D1
100
AcDbEntity
  8
2
  6
Continuous
 62
     7
100
AcDbCircle
 10
274.1562917199989
 20
359.87996375
 30
0.0
 40
10.46541252999994
100
AcDbArc
 50
89.65370340000079
 51
133.0498003999999
  0
ARC
  5
3AD
330
D1
100
AcDbEntity
  8
2
  6
Continuous
 62
     7
100
AcDbCircle
 10
272.0594622299989
 20
362.05440505
 30
0.0
 40
7.445204060000027
100
AcDbArc
 50
132.6809186100006
 51
161.4757403412214
  0
ARC
  5
3AE
330
D1
100
AcDbEntity
  8
2
  6
Continuous
 62
     7
100
AcDbCircle
 10
271.0094367499988
 20
367.2489404099999
 30
0.0
 40
8.813392769999956
100
AcDbArc
 50
-119.7420662799997
 51
-101.3401031800006
  0
ARC
  5
3AF
330
D1
100
AcDbEntity
  8
2
  6
Continuous
 62
     7
100
AcDbCircle
 10
273.9523268299988
 20
381.65743653
 30
0.0
 40
23.51932148000004
100
AcDbArc
 50
-101.4674117099998
 51
-89.34901303999972
  0
ARC
  5
3B0
330
D1
100
AcDbEntity
  8
2
  6
Continuous
 62
     7
100
AcDbCircle
 10
281.7825004899988
 20
379.44039193
 30
0.0
 40
21.29579792000011
100
AcDbArc
 50
-89.84555160000024
 51
-76.83542853999997
  0
ARC
  5
3B1
330
D1
100
AcDbEntity
  8
2
  6
Continuous
 62
     7
100
AcDbCircle
 10
284.9374630099989
 20
366.1155525199999
 30
0.0
 40
7.602689069999914
100
AcDbArc
 50
-77.11678351000049
 51
-56.75165633999927
  0
ARC
  5
3B2
330
D1
100
AcDbEntity
  8
2
  6
Continuous
 62
     7
100
AcDbCircle
 10
287.0300507099988
 20
362.88002911
 30
0.0
 40
3.749589460000035
100
AcDbArc
 50
-56.3864172599988
 51
-15.30929888000025
  0
ARC
  5
3B3
330
D1
100
AcDbEntity
  8
2
  6
Continuous
 62
     7
100
AcDbCircle
 10
286.3376428999989
 20
362.90394266
 30
0.0
 40
4.426624310000008
100
AcDbArc
 50
-13.2411188199996
 51
18.90504863999917
  0
ARC
  5
3B4
330
D1
100
AcDbEntity
  8
2
  6
Continuous
 62
     7
100
AcDbCircle
 10
283.1548289999988
 20
361.88240447
 30
0.0
 40
7.768996520000015
100
AcDbArc
 50
18.42714027000027
 51
47.80717002000031
  0
ARC
  5
3B5
330
D1
100
AcDbEntity
  8
2
  6
Continuous
 62
     7
100
AcDbCircle
 10
281.3052648199989
 20
359.76543444
 30
0.0
 40
10.57977977999999
100
AcDbArc
 50
48.08604699000063
 51
90.13435707000048
  0
ARC
  5
3B6
330
D1
100
AcDbEntity
  8
2
  6
Continuous
 62
     7
100
AcDbCircle
 10
268.5307365199989
 20
362.92561107
 30
0.0
 40
3.829919500000138
100
AcDbArc
 50
-157.2028901221801
 51
-119.6315518800006
  0
ARC
  5
3B7
330
D1
100
AcDbEntity
  8
2
  6
Continuous
 62
     7
100
AcDbCircle
 10
268.5307365199989
 20
391.0743889300001
 30
0.0
 40
3.829919499999913
100
AcDbArc
 50
119.6315518800014
 51
157.2028901221816
  0
ARC
  5
3B8
330
D1
100
AcDbEntity
  8
2
  6
Continuous
 62
     7
100
AcDbCircle
 10
281.3052648199989
 20
394.23456556
 30
0.0
 40
10.57977978000008
100
AcDbArc
 50
-90.13435707000048
 51
-48.08604699000063
  0
ARC
  5
3B9
330
D1
100
AcDbEntity
  8
2
  6
Continuous
 62
     7
100
AcDbCircle
 10
283.1548289999988
 20
392.11759553
 30
0.0
 40
7.768996520000068
100
AcDbArc
 50
-47.80717002000031
 51
-18.42714027000027
  0
ARC
  5
3BA
330
D1
100
AcDbEntity
  8
2
  6
Continuous
 62
     7
100
AcDbCircle
 10
286.3376428999989
 20
391.09605734
 30
0.0
 40
4.426624310000018
100
AcDbArc
 50
-18.90504863999917
 51
13.2411188199996
  0
ARC
  5
3BB
330
D1
100
AcDbEntity
  8
2
  6
Continuous
 62
     7
100
AcDbCircle
 10
287.0300507099988
 20
391.11997089
 30
0.0
 40
3.74958946000005
100
AcDbArc
 50
15.30929888000025
 51
56.38641725999976
  0
ARC
  5
3BC
330
D1
100
AcDbEntity
  8
2
  6
Continuous
 62
     7
100
AcDbCircle
 10
284.9374630099989
 20
387.8844474800001
 30
0.0
 40
7.602689069999935
100
AcDbArc
 50
56.75165633999927
 51
77.11678351000049
  0
ARC
  5
3BD
330
D1
100
AcDbEntity
  8
2
  6
Continuous
 62
     7
100
AcDbCircle
 10
281.7825004899988
 20
374.55960807
 30
0.0
 40
21.29579792
100
AcDbArc
 50
76.83542853999997
 51
89.84555160000024
  0
ARC
  5
3BE
330
D1
100
AcDbEntity
  8
2
  6
Continuous
 62
     7
100
AcDbCircle
 10
273.9523268299988
 20
372.34256347
 30
0.0
 40
23.51932148000001
100
AcDbArc
 50
89.34901303999972
 51
101.4674117099998
  0
ARC
  5
3BF
330
D1
100
AcDbEntity
  8
2
  6
Continuous
 62
     7
100
AcDbCircle
 10
271.0094367499988
 20
386.7510595900001
 30
0.0
 40
8.813392769999899
100
AcDbArc
 50
101.3401031800006
 51
119.7420662799997
  0
ARC
  5
3C0
330
D1
100
AcDbEntity
  8
2
  6
Continuous
 62
     7
100
AcDbCircle
 10
272.0594622299989
 20
391.94559495
 30
0.0
 40
7.445204060000111
100
AcDbArc
 50
-161.4757403412214
 51
-132.6809186100006
  0
ARC
  5
3C1
330
D1
100
AcDbEntity
  8
2
  6
Continuous
 62
     7
100
AcDbCircle
 10
274.1562917199989
 20
394.12003625
 30
0.0
 40
10.46541253
100
AcDbArc
 50
-133.0498003999999
 51
-89.65370340000079
  0
ARC
  5
3C2
330
D1
100
AcDbEntity
  8
2
  6
Continuous
 62
     7
100
AcDbCircle
 10
274.1562917199989
 20
672.87996375
 30
0.0
 40
10.46541253
100
AcDbArc
 50
89.65370340000079
 51
133.0498003999999
  0
ARC
  5
3C3
330
D1
100
AcDbEntity
  8
2
  6
Continuous
 62
     7
100
AcDbCircle
 10
272.0594622299989
 20
675.05440505
 30
0.0
 40
7.445204060000068
100
AcDbArc
 50
132.6809186100003
 51
161.4757403412223
  0
ARC
  5
3C4
330
D1
100
AcDbEntity
  8
2
  6
Continuous
 62
     7
100
AcDbCircle
 10
271.0094367499988
 20
680.2489404099999
 30
0.0
 40
8.813392769999956
100
AcDbArc
 50
-119.7420662799997
 51
-101.3401031800005
  0
ARC
  5
3C5
330
D1
100
AcDbEntity
  8
2
  6
Continuous
 62
     7
100
AcDbCircle
 10
273.9523268299988
 20
694.65743653
 30
0.0
 40
23.51932148000009
100
AcDbArc
 50
-101.4674117099998
 51
-89.34901303999972
  0
ARC
  5
3C6
330
D1
100
AcDbEntity
  8
2
  6
Continuous
 62
     7
100
AcDbCircle
 10
281.7825004899988
 20
692.44039193
 30
0.0
 40
21.29579792000011
100
AcDbArc
 50
-89.84555160000024
 51
-76.83542854000001
  0
ARC
  5
3C7
330
D1
100
AcDbEntity
  8
2
  6
Continuous
 62
     7
100
AcDbCircle
 10
284.9374630099989
 20
679.1155525199999
 30
0.0
 40
7.60268906999997
100
AcDbArc
 50
-77.1167835100006
 51
-56.75165633999951
  0
ARC
  5
3C8
330
D1
100
AcDbEntity
  8
2
  6
Continuous
 62
     7
100
AcDbCircle
 10
287.0300507099988
 20
675.88002911
 30
0.0
 40
3.749589460000082
100
AcDbArc
 50
-56.38641725999928
 51
-15.30929888000025
  0
ARC
  5
3C9
330
D1
100
AcDbEntity
  8
2
  6
Continuous
 62
     7
100
AcDbCircle
 10
286.3376428999989
 20
675.90394266
 30
0.0
 40
4.426624310000008
100
AcDbArc
 50
-13.2411188199996
 51
18.90504863999917
  0
ARC
  5
3CA
330
D1
100
AcDbEntity
  8
2
  6
Continuous
 62
     7
100
AcDbCircle
 10
283.1548289999988
 20
674.88240447
 30
0.0
 40
7.768996520000033
100
AcDbArc
 50
18.42714027000067
 51
47.80717002000031
  0
ARC
  5
3CB
330
D1
100
AcDbEntity
  8
2
  6
Continuous
 62
     7
100
AcDbCircle
 10
281.3052648199989
 20
672.76543444
 30
0.0
 40
10.57977977999995
100
AcDbArc
 50
48.08604699000043
 51
90.13435707000048
  0
ARC
  5
3CC
330
D1
100
AcDbEntity
  8
2
  6
Continuous
 62
     7
100
AcDbCircle
 10
268.5307365199989
 20
675.92561107
 30
0.0
 40
3.829919500000138
100
AcDbArc
 50
-157.2028901221801
 51
-119.6315518800006
  0
ARC
  5
3CD
330
D1
100
AcDbEntity
  8
2
  6
Continuous
 62
     7
100
AcDbCircle
 10
268.5307365199989
 20
704.0743889300001
 30
0.0
 40
3.829919500000012
100
AcDbArc
 50
119.6315518800006
 51
157.2028901221801
  0
ARC
  5
3CE
330
D1
100
AcDbEntity
  8
2
  6
Continuous
 62
     7
100
AcDbCircle
 10
281.3052648199989
 20
707.23456556
 30
0.0
 40
10.57977978000002
100
AcDbArc
 50
-90.13435707000048
 51
-48.08604699000043
  0
ARC
  5
3CF
330
D1
100
AcDbEntity
  8
2
  6
Continuous
 62
     7
100
AcDbCircle
 10
283.1548289999988
 20
705.11759553
 30
0.0
 40
7.768996520000068
100
AcDbArc
 50
-47.80717002000031
 51
-18.42714027000067
  0
ARC
  5
3D0
330
D1
100
AcDbEntity
  8
2
  6
Continuous
 62
     7
100
AcDbCircle
 10
286.3376428999989
 20
704.09605734
 30
0.0
 40
4.426624310000018
100
AcDbArc
 50
-18.90504863999917
 51
13.2411188199996
  0
ARC
  5
3D1
330
D1
100
AcDbEntity
  8
2
  6
Continuous
 62
     7
100
AcDbCircle
 10
287.0300507099988
 20
704.11997089
 30
0.0
 40
3.74958946000005
100
AcDbArc
 50
15.30929888000025
 51
56.38641725999928
  0
ARC
  5
3D2
330
D1
100
AcDbEntity
  8
2
  6
Continuous
 62
     7
100
AcDbCircle
 10
284.9374630099989
 20
700.8844474800001
 30
0.0
 40
7.602689069999983
100
AcDbArc
 50
56.75165633999951
 51
77.1167835100006
  0
ARC
  5
3D3
330
D1
100
AcDbEntity
  8
2
  6
Continuous
 62
     7
100
AcDbCircle
 10
281.7825004899988
 20
687.55960807
 30
0.0
 40
21.29579792000005
100
AcDbArc
 50
76.83542854000001
 51
89.84555160000024
  0
ARC
  5
3D4
330
D1
100
AcDbEntity
  8
2
  6
Continuous
 62
     7
100
AcDbCircle
 10
273.9523268299988
 20
685.34256347
 30
0.0
 40
23.51932148000007
100
AcDbArc
 50
89.34901303999972
 51
101.4674117099998
  0
ARC
  5
3D5
330
D1
100
AcDbEntity
  8
2
  6
Continuous
 62
     7
100
AcDbCircle
 10
271.0094367499988
 20
699.7510595900001
 30
0.0
 40
8.813392770000009
100
AcDbArc
 50
101.3401031800005
 51
119.7420662799997
  0
ARC
  5
3D6
330
D1
100
AcDbEntity
  8
2
  6
Continuous
 62
     7
100
AcDbCircle
 10
272.0594622299989
 20
704.94559495
 30
0.0
 40
7.445204060000076
100
AcDbArc
 50
-161.4757403412223
 51
-132.6809186100003
  0
ARC
  5
3D7
330
D1
100
AcDbEntity
  8
2
  6
Continuous
 62
     7
100
AcDbCircle
 10
274.1562917199989
 20
707.12003625
 30
0.0
 40
10.46541253
100
AcDbArc
 50
-133.0498003999999
 51
-89.65370340000079
  0
ARC
  5
3D8
330
D1
100
AcDbEntity
  8
1
  6
Continuous
 62
     7
100
AcDbCircle
 10
293.7999999999988
 20
396.7999999999993
 30
0.0
 40
0.2000000000001023
100
AcDbArc
 50
0.0
 51
90.0
  0
ARC
  5
3D9
330
D1
100
AcDbEntity
  8
1
  6
Continuous
 62
     7
100
AcDbCircle
 10
293.7999999999988
 20
357.2000000000003
 30
0.0
 40
0.1999999999997613
100
AcDbArc
 50
-90.0
 51
0.0
  0
ARC
  5
3DA
330
D1
100
AcDbEntity
  8
1
  6
Continuous
 62
     7
100
AcDbCircle
 10
293.7999999999988
 20
709.7999999999993
 30
0.0
 40
0.2000000000001023
100
AcDbArc
 50
0.0
 51
90.0
  0
ARC
  5
3DB
330
D1
100
AcDbEntity
  8
1
  6
Continuous
 62
     7
100
AcDbCircle
 10
293.7999999999988
 20
670.2000000000003
 30
0.0
 40
0.1999999999998181
100
AcDbArc
 50
-90.0
 51
0.0
  0
ENDBLK
  5
D3
330
D1
100
AcDbEntity
  8
0
100
AcDbBlockEnd
  0
BLOCK
  5
41B
330
412
100
AcDbEntity
  8
0
100
AcDbBlockBegin
  2
*D051
 70
     1
 71
     0
 10
0.0
 20
0.0
 30
0.0
  3
*D051
  1

  0
LINE
  5
413
330
412
100
AcDbEntity
  8
1
  6
Continuous
 62
     2
100
AcDbLine
 10
403.9453801971505
 20
829.0000000000005
 30
0.0
 11
312.25768918798
 21
829.0000000000005
 31
0.0
  0
LINE
  5
414
330
412
100
AcDbEntity
  8
1
  6
Continuous
 62
     2
100
AcDbLine
 10
423.9400661641445
 20
829.0000000000005
 30
0.0
 11
403.9453801971505
 21
829.0000000000005
 31
0.0
  0
LINE
  5
415
330
412
100
AcDbEntity
  8
1
  6
Continuous
 62
     2
100
AcDbLine
 10
423.9400661641445
 20
706.0000000000002
 30
0.0
 11
423.9400661641445
 21
832.0000000000005
 31
0.0
  0
LINE
  5
416
330
412
100
AcDbEntity
  8
1
  6
Continuous
 62
     2
100
AcDbLine
 10
403.9453801971505
 20
725.3013415468029
 30
0.0
 11
403.9453801971505
 21
832.0000000000005
 31
0.0
  0
CIRCLE
  5
417
102
{ACAD_REACTORS
330
418
102
}
330
412
100
AcDbEntity
  8
1
 62
     2
100
AcDbCircle
 10
423.9400661641445
 20
829.0000000000005
 30
0.0
 40
2.625
  0
HATCH
  5
418
330
412
100
AcDbEntity
  8
1
 62
     2
100
AcDbHatch
 10
0.0
 20
0.0
 30
0.0
210
0.0
220
0.0
230
1.0
  2
SOLID
 70
     1
 71
     1
 91
        1
 92
        1
 93
        1
 72
     2
 10
423.9400661641445
 20
829.0000000000005
 40
2.625
 50
0.0
 51
360.0
 73
     1
 97
        1
330
417
 75
     0
 76
     1
 98
        0
  0
SOLID
  5
419
330
412
100
AcDbEntity
  8
1
 62
     2
100
AcDbTrace
 10
394.9453801971505
 20
827.8151275217139
 30
0.0
 11
394.9453801971505
 21
830.1848724782871
 31
0.0
 12
403.9453801971505
 22
829.0000000000005
 32
0.0
 13
403.9453801971505
 23
829.0000000000005
 33
0.0
  0
MTEXT
  5
41A
330
412
100
AcDbEntity
  8
1
 62
     7
100
AcDbMText
 10
312.25768918798
 20
832.0000000000005
 30
0.0
 40
10.5
 41
0.0
 71
     7
 72
     1
  1
最小15～最大50
  7
CONVERTER_1
 11
0.9999999999970621
 21
2.424068405545307E-6
 31
0.0
 73
     1
 44
0.60024009603842
  0
ENDBLK
  5
41C
330
412
100
AcDbEntity
  8
0
100
AcDbBlockEnd
  0
BLOCK
  5
41E
330
41D
100
AcDbEntity
  8
0
100
AcDbBlockBegin
  2
_Dot
 70
     0
 71
     0
 10
0.0
 20
0.0
 30
0.0
  3
_Dot
  1

  0
LWPOLYLINE
  5
420
330
41D
100
AcDbEntity
  8
0
  6
ByBlock
 62
     0
100
AcDbPolyline
 90
        2
 70
     1
 43
0.5
 10
-0.25
 20
0.0
 42
1.0
 10
0.25
 20
0.0
 42
1.0
  0
LINE
  5
421
330
41D
100
AcDbEntity
  8
0
  6
ByBlock
 62
     0
370
    -2
100
AcDbLine
 10
-0.5
 20
0.0
 30
0.0
 11
-1.0
 21
0.0
 31
0.0
  0
ENDBLK
  5
41F
330
41D
100
AcDbEntity
  8
0
100
AcDbBlockEnd
  0
BLOCK
  5
42D
330
424
100
AcDbEntity
  8
0
100
AcDbBlockBegin
  2
*D153
 70
     1
 71
     0
 10
0.0
 20
0.0
 30
0.0
  3
*D153
  1

  0
LINE
  5
425
330
424
100
AcDbEntity
  8
1
  6
Continuous
 62
     2
100
AcDbLine
 10
493.9400661641445
 20
829.0000000000005
 30
0.0
 11
514.9400661641445
 21
829.0000000000005
 31
0.0
  0
LINE
  5
426
330
424
100
AcDbEntity
  8
1
  6
Continuous
 62
     2
100
AcDbLine
 10
423.9400661641444
 20
829.0000000000005
 30
0.0
 11
493.9400661641445
 21
829.0000000000005
 31
0.0
  0
LINE
  5
427
330
424
100
AcDbEntity
  8
1
  6
Continuous
 62
     2
100
AcDbLine
 10
423.9400661641444
 20
706.0000000000002
 30
0.0
 11
423.9400661641444
 21
832.0000000000005
 31
0.0
  0
LINE
  5
428
330
424
100
AcDbEntity
  8
1
  6
Continuous
 62
     2
100
AcDbLine
 10
493.9400661641445
 20
688.0000000000003
 30
0.0
 11
493.9400661641445
 21
832.0000000000005
 31
0.0
  0
CIRCLE
  5
429
102
{ACAD_REACTORS
330
42A
102
}
330
424
100
AcDbEntity
  8
1
 62
     2
100
AcDbCircle
 10
423.9400661641444
 20
829.0000000000005
 30
0.0
 40
2.625
  0
HATCH
  5
42A
330
424
100
AcDbEntity
  8
1
 62
     2
100
AcDbHatch
 10
0.0
 20
0.0
 30
0.0
210
0.0
220
0.0
230
1.0
  2
SOLID
 70
     1
 71
     1
 91
        1
 92
        1
 93
        1
 72
     2
 10
423.9400661641444
 20
829.0000000000005
 40
2.625
 50
0.0
 51
360.0
 73
     1
 97
        1
330
429
 75
     0
 76
     1
 98
        0
  0
SOLID
  5
42B
330
424
100
AcDbEntity
  8
1
 62
     2
100
AcDbTrace
 10
504.4400661641445
 20
830.3823512246681
 30
0.0
 11
504.4400661641445
 21
827.6176487753328
 31
0.0
 12
493.9400661641445
 22
829.0000000000005
 32
0.0
 13
493.9400661641445
 23
829.0000000000005
 33
0.0
  0
MTEXT
  5
42C
330
424
100
AcDbEntity
  8
1
 62
     7
100
AcDbMText
 10
432.6214156601207
 20
832.0000000000005
 30
0.0
 40
10.5
 41
0.0
 71
     7
 72
     1
  1
浴槽リム幅
  7
CONVERTER_1
 11
0.9999999999970621
 21
2.424068405545307E-6
 31
0.0
 73
     1
 44
0.60024009603842
  0
ENDBLK
  5
42E
330
424
100
AcDbEntity
  8
0
100
AcDbBlockEnd
  0
BLOCK
  5
438
330
431
100
AcDbEntity
  8
0
100
AcDbBlockBegin
  2
*D254
 70
     1
 71
     0
 10
0.0
 20
0.0
 30
0.0
  3
*D254
  1

  0
LINE
  5
432
330
431
100
AcDbEntity
  8
1
  6
Continuous
 62
     2
100
AcDbLine
 10
525.0
 20
596.0000000000005
 30
0.0
 11
493.9400661641445
 21
596.0000000000005
 31
0.0
  0
LINE
  5
433
330
431
100
AcDbEntity
  8
1
  6
Continuous
 62
     2
100
AcDbLine
 10
525.0
 20
623.0000000000005
 30
0.0
 11
525.0
 21
593.0000000000005
 31
0.0
  0
LINE
  5
434
330
431
100
AcDbEntity
  8
1
  6
Continuous
 62
     2
100
AcDbLine
 10
493.9400661641445
 20
686.0000000000005
 30
0.0
 11
493.9400661641445
 21
593.0000000000005
 31
0.0
  0
SOLID
  5
435
330
431
100
AcDbEntity
  8
1
 62
     2
100
AcDbTrace
 10
514.5
 20
594.6176487753328
 30
0.0
 11
514.5
 21
597.3823512246681
 31
0.0
 12
525.0
 22
596.0000000000005
 32
0.0
 13
525.0
 23
596.0000000000005
 33
0.0
  0
SOLID
  5
436
330
431
100
AcDbEntity
  8
1
 62
     2
100
AcDbTrace
 10
504.4400661641445
 20
597.3823512246681
 30
0.0
 11
504.4400661641445
 21
594.6176487753328
 31
0.0
 12
493.9400661641445
 22
596.0000000000005
 32
0.0
 13
493.9400661641445
 23
596.0000000000005
 33
0.0
  0
MTEXT
  5
437
330
431
100
AcDbEntity
  8
1
 62
     7
100
AcDbMText
 10
505.817472180641
 20
599.0000000000005
 30
0.0
 40
10.5
 41
0.0
 71
     7
 72
     1
  1
A
  7
CONVERTER_2
 11
0.9999999999970621
 21
2.424068405545307E-6
 31
0.0
 73
     1
 44
0.60024009603842
  0
ENDBLK
  5
439
330
431
100
AcDbEntity
  8
0
100
AcDbBlockEnd
  0
BLOCK
  5
443
330
43C
100
AcDbEntity
  8
0
100
AcDbBlockBegin
  2
*D355
 70
     1
 71
     0
 10
0.0
 20
0.0
 30
0.0
  3
*D355
  1

  0
LINE
  5
43D
330
43C
100
AcDbEntity
  8
1
  6
Continuous
 62
     2
100
AcDbLine
 10
525.0
 20
829.0000000000005
 30
0.0
 11
585.0
 21
829.0000000000005
 31
0.0
  0
LINE
  5
43E
330
43C
100
AcDbEntity
  8
1
  6
Continuous
 62
     2
100
AcDbLine
 10
525.0
 20
775.0
 30
0.0
 11
525.0
 21
832.0000000000005
 31
0.0
  0
LINE
  5
43F
330
43C
100
AcDbEntity
  8
1
  6
Continuous
 62
     2
100
AcDbLine
 10
585.0
 20
839.0000000000005
 30
0.0
 11
585.0
 21
826.0000000000005
 31
0.0
  0
SOLID
  5
440
330
43C
100
AcDbEntity
  8
1
 62
     2
100
AcDbTrace
 10
535.5
 20
830.3823512246681
 30
0.0
 11
535.5
 21
827.6176487753328
 31
0.0
 12
525.0
 22
829.0000000000005
 32
0.0
 13
525.0
 23
829.0000000000005
 33
0.0
  0
SOLID
  5
441
330
43C
100
AcDbEntity
  8
1
 62
     2
100
AcDbTrace
 10
574.5
 20
827.6176487753328
 30
0.0
 11
574.5
 21
830.3823512246681
 31
0.0
 12
585.0
 22
829.0000000000005
 32
0.0
 13
585.0
 23
829.0000000000005
 33
0.0
  0
MTEXT
  5
442
330
43C
100
AcDbEntity
  8
1
 62
     7
100
AcDbMText
 10
536.1371247441124
 20
832.0000000000005
 30
0.0
 40
10.5
 41
0.0
 71
     7
 72
     1
  1
\C7;60\C7;以上
  7
CONVERTER_1
 11
0.9999999999970621
 21
2.424068405545307E-6
 31
0.0
 73
     1
 44
0.60024009603842
  0
ENDBLK
  5
444
330
43C
100
AcDbEntity
  8
0
100
AcDbBlockEnd
  0
BLOCK
  5
44E
330
447
100
AcDbEntity
  8
0
100
AcDbBlockBegin
  2
*D456
 70
     1
 71
     0
 10
0.0
 20
0.0
 30
0.0
  3
*D456
  1

  0
LINE
  5
448
330
447
100
AcDbEntity
  8
1
  6
Continuous
 62
     2
100
AcDbLine
 10
525.0
 20
478.0000000000003
 30
0.0
 11
557.0
 21
478.0000000000003
 31
0.0
  0
LINE
  5
449
330
447
100
AcDbEntity
  8
1
  6
Continuous
 62
     2
100
AcDbLine
 10
557.0
 20
374.0000000000004
 30
0.0
 11
557.0
 21
481.0000000000003
 31
0.0
  0
LINE
  5
44A
330
447
100
AcDbEntity
  8
1
  6
Continuous
 62
     2
100
AcDbLine
 10
525.0
 20
400.0
 30
0.0
 11
525.0
 21
481.0000000000003
 31
0.0
  0
SOLID
  5
44B
330
447
100
AcDbEntity
  8
1
 62
     2
100
AcDbTrace
 10
535.5
 20
479.382351224668
 30
0.0
 11
535.5
 21
476.6176487753326
 31
0.0
 12
525.0
 22
478.0000000000003
 32
0.0
 13
525.0
 23
478.0000000000003
 33
0.0
  0
SOLID
  5
44C
330
447
100
AcDbEntity
  8
1
 62
     2
100
AcDbTrace
 10
546.5
 20
476.6176487753326
 30
0.0
 11
546.5
 21
479.382351224668
 31
0.0
 12
557.0
 22
478.0000000000003
 32
0.0
 13
557.0
 23
478.0000000000003
 33
0.0
  0
MTEXT
  5
44D
330
447
100
AcDbEntity
  8
1
 62
     7
100
AcDbMText
 10
531.4407024701679
 20
481.0000000000003
 30
0.0
 40
10.5
 41
0.0
 71
     7
 72
     1
  1
32
  7
CONVERTER_2
 11
0.9999999999970621
 21
2.424068405545307E-6
 31
0.0
 73
     1
 44
0.60024009603842
  0
ENDBLK
  5
44F
330
447
100
AcDbEntity
  8
0
100
AcDbBlockEnd
  0
BLOCK
  5
45C
330
452
100
AcDbEntity
  8
0
100
AcDbBlockBegin
  2
*D557
 70
     1
 71
     0
 10
0.0
 20
0.0
 30
0.0
  3
*D557
  1

  0
LINE
  5
453
330
452
100
AcDbEntity
  8
1
  6
Continuous
 62
     2
100
AcDbLine
 10
546.0
 20
454.0000000000003
 30
0.0
 11
525.0
 21
454.0000000000003
 31
0.0
  0
LINE
  5
454
330
452
100
AcDbEntity
  8
1
  6
Continuous
 62
     2
100
AcDbLine
 10
525.0
 20
454.0000000000003
 30
0.0
 11
505.0
 21
454.0000000000003
 31
0.0
  0
LINE
  5
455
330
452
100
AcDbEntity
  8
1
  6
Continuous
 62
     2
100
AcDbLine
 10
505.0
 20
454.0000000000003
 30
0.0
 11
484.0
 21
454.0000000000003
 31
0.0
  0
LINE
  5
456
330
452
100
AcDbEntity
  8
1
  6
Continuous
 62
     2
100
AcDbLine
 10
505.0
 20
415.618832169274
 30
0.0
 11
505.0
 21
457.0000000000003
 31
0.0
  0
LINE
  5
457
330
452
100
AcDbEntity
  8
1
  6
Continuous
 62
     2
100
AcDbLine
 10
505.0
 20
377.0
 30
0.0
 11
505.0
 21
400.7302463188769
 31
0.0
  0
LINE
  5
458
330
452
100
AcDbEntity
  8
1
  6
Continuous
 62
     2
100
AcDbLine
 10
525.0
 20
400.0
 30
0.0
 11
525.0
 21
457.0000000000003
 31
0.0
  0
SOLID
  5
459
330
452
100
AcDbEntity
  8
1
 62
     2
100
AcDbTrace
 10
535.5
 20
455.382351224668
 30
0.0
 11
535.5
 21
452.6176487753326
 31
0.0
 12
525.0
 22
454.0000000000003
 32
0.0
 13
525.0
 23
454.0000000000003
 33
0.0
  0
SOLID
  5
45A
330
452
100
AcDbEntity
  8
1
 62
     2
100
AcDbTrace
 10
494.5
 20
452.6176487753326
 30
0.0
 11
494.5
 21
455.382351224668
 31
0.0
 12
505.0
 22
454.0000000000003
 32
0.0
 13
505.0
 23
454.0000000000003
 33
0.0
  0
MTEXT
  5
45B
330
452
100
AcDbEntity
  8
1
 62
     7
100
AcDbMText
 10
505.189073986552
 20
457.0000000000003
 30
0.0
 40
10.5
 41
0.0
 71
     7
 72
     1
  1
20
  7
CONVERTER_2
 11
0.9999999999970621
 21
2.424068405545307E-6
 31
0.0
 73
     1
 44
0.60024009603842
  0
ENDBLK
  5
45D
330
452
100
AcDbEntity
  8
0
100
AcDbBlockEnd
  0
BLOCK
  5
467
330
460
100
AcDbEntity
  8
0
100
AcDbBlockBegin
  2
*D658
 70
     1
 71
     0
 10
0.0
 20
0.0
 30
0.0
  3
*D658
  1

  0
LINE
  5
461
330
460
100
AcDbEntity
  8
1
  6
Continuous
 62
     2
100
AcDbLine
 10
525.0
 20
478.0000000000003
 30
0.0
 11
403.9453801971505
 21
478.0000000000003
 31
0.0
  0
LINE
  5
462
330
460
100
AcDbEntity
  8
1
  6
Continuous
 62
     2
100
AcDbLine
 10
403.9453801971505
 20
350.3013415468029
 30
0.0
 11
403.9453801971505
 21
481.0000000000003
 31
0.0
  0
LINE
  5
463
330
460
100
AcDbEntity
  8
1
  6
Continuous
 62
     2
100
AcDbLine
 10
525.0
 20
400.0
 30
0.0
 11
525.0
 21
481.0000000000003
 31
0.0
  0
SOLID
  5
464
330
460
100
AcDbEntity
  8
1
 62
     2
100
AcDbTrace
 10
514.5
 20
476.6176487753326
 30
0.0
 11
514.5
 21
479.382351224668
 31
0.0
 12
525.0
 22
478.0000000000003
 32
0.0
 13
525.0
 23
478.0000000000003
 33
0.0
  0
SOLID
  5
465
330
460
100
AcDbEntity
  8
1
 62
     2
100
AcDbTrace
 10
414.4453801971505
 20
479.382351224668
 30
0.0
 11
414.4453801971505
 21
476.6176487753326
 31
0.0
 12
403.9453801971505
 22
478.0000000000003
 32
0.0
 13
403.9453801971505
 23
478.0000000000003
 33
0.0
  0
MTEXT
  5
466
330
460
100
AcDbEntity
  8
1
 62
     7
100
AcDbMText
 10
459.1652939404289
 20
481.0000000000003
 30
0.0
 40
10.5
 41
0.0
 71
     7
 72
     1
  1
121
  7
CONVERTER_2
 11
0.9999999999970621
 21
2.424068405545307E-6
 31
0.0
 73
     1
 44
0.60024009603842
  0
ENDBLK
  5
468
330
460
100
AcDbEntity
  8
0
100
AcDbBlockEnd
  0
BLOCK
  5
472
330
46B
100
AcDbEntity
  8
0
100
AcDbBlockBegin
  2
*D759
 70
     1
 71
     0
 10
0.0
 20
0.0
 30
0.0
  3
*D759
  1

  0
LINE
  5
46C
330
46B
100
AcDbEntity
  8
1
  6
Continuous
 62
     2
100
AcDbLine
 10
403.9453801971505
 20
502.0000000000003
 30
0.0
 11
557.0
 21
502.0000000000003
 31
0.0
  0
LINE
  5
46D
330
46B
100
AcDbEntity
  8
1
  6
Continuous
 62
     2
100
AcDbLine
 10
557.0
 20
374.0000000000004
 30
0.0
 11
557.0
 21
505.0000000000003
 31
0.0
  0
LINE
  5
46E
330
46B
100
AcDbEntity
  8
1
  6
Continuous
 62
     2
100
AcDbLine
 10
403.9453801971505
 20
350.3013415468029
 30
0.0
 11
403.9453801971505
 21
505.0000000000003
 31
0.0
  0
SOLID
  5
46F
330
46B
100
AcDbEntity
  8
1
 62
     2
100
AcDbTrace
 10
414.4453801971505
 20
503.382351224668
 30
0.0
 11
414.4453801971505
 21
500.6176487753326
 31
0.0
 12
403.9453801971505
 22
502.0000000000003
 32
0.0
 13
403.9453801971505
 23
502.0000000000003
 33
0.0
  0
SOLID
  5
470
330
46B
100
AcDbEntity
  8
1
 62
     2
100
AcDbTrace
 10
546.5
 20
500.6176487753326
 30
0.0
 11
546.5
 21
503.382351224668
 31
0.0
 12
557.0
 22
502.0000000000003
 32
0.0
 13
557.0
 23
502.0000000000003
 33
0.0
  0
MTEXT
  5
471
330
46B
100
AcDbEntity
  8
1
 62
     7
100
AcDbMText
 10
470.4177942221961
 20
505.0000000000003
 30
0.0
 40
10.5
 41
0.0
 71
     7
 72
     1
  1
153
  7
CONVERTER_2
 11
0.9999999999970621
 21
2.424068405545307E-6
 31
0.0
 73
     1
 44
0.60024009603842
  0
ENDBLK
  5
473
330
46B
100
AcDbEntity
  8
0
100
AcDbBlockEnd
  0
BLOCK
  5
47F
330
476
100
AcDbEntity
  8
0
100
AcDbBlockBegin
  2
*D860
 70
     1
 71
     0
 10
0.0
 20
0.0
 30
0.0
  3
*D860
  1

  0
LINE
  5
477
330
476
100
AcDbEntity
  8
1
  6
Continuous
 62
     2
100
AcDbLine
 10
529.0
 20
327.881812189853
 30
0.0
 11
550.0
 21
327.881812189853
 31
0.0
  0
LINE
  5
478
330
476
100
AcDbEntity
  8
1
  6
Continuous
 62
     2
100
AcDbLine
 10
550.0
 20
327.881812189853
 30
0.0
 11
557.0
 21
327.881812189853
 31
0.0
  0
LINE
  5
479
330
476
100
AcDbEntity
  8
1
  6
Continuous
 62
     2
100
AcDbLine
 10
557.0
 20
327.881812189853
 30
0.0
 11
578.0
 21
327.881812189853
 31
0.0
  0
LINE
  5
47A
330
476
100
AcDbEntity
  8
1
  6
Continuous
 62
     2
100
AcDbLine
 10
557.0
 20
314.0000000000004
 30
0.0
 11
557.0
 21
330.881812189853
 31
0.0
  0
LINE
  5
47B
330
476
100
AcDbEntity
  8
1
  6
Continuous
 62
     2
100
AcDbLine
 10
550.0
 20
314.0000000000004
 30
0.0
 11
550.0
 21
330.881812189853
 31
0.0
  0
SOLID
  5
47C
330
476
100
AcDbEntity
  8
1
 62
     2
100
AcDbTrace
 10
539.5
 20
326.4994609651853
 30
0.0
 11
539.5
 21
329.2641634145207
 31
0.0
 12
550.0
 22
327.881812189853
 32
0.0
 13
550.0
 23
327.881812189853
 33
0.0
  0
SOLID
  5
47D
330
476
100
AcDbEntity
  8
1
 62
     2
100
AcDbTrace
 10
567.5
 20
329.2641634145207
 30
0.0
 11
567.5
 21
326.4994609651853
 31
0.0
 12
557.0
 22
327.881812189853
 32
0.0
 13
557.0
 23
327.881812189853
 33
0.0
  0
MTEXT
  5
47E
330
476
100
AcDbEntity
  8
1
 62
     7
100
AcDbMText
 10
569.250770147627
 20
330.881812189853
 30
0.0
 40
10.5
 41
0.0
 71
     7
 72
     1
  1
7
  7
CONVERTER_2
 11
0.9999999999970621
 21
2.424068405545307E-6
 31
0.0
 73
     1
 44
0.60024009603842
  0
ENDBLK
  5
480
330
476
100
AcDbEntity
  8
0
100
AcDbBlockEnd
  0
BLOCK
  5
48C
330
483
100
AcDbEntity
  8
0
100
AcDbBlockBegin
  2
*D961
 70
     1
 71
     0
 10
0.0
 20
0.0
 30
0.0
  3
*D961
  1

  0
LINE
  5
484
330
483
100
AcDbEntity
  8
1
  6
Continuous
 62
     2
100
AcDbLine
 10
585.2500000000068
 20
311.0000000000005
 30
0.0
 11
585.2500000000068
 21
332.0000000000005
 31
0.0
  0
LINE
  5
485
330
483
100
AcDbEntity
  8
1
  6
Continuous
 62
     2
100
AcDbLine
 10
585.2500000000068
 20
301.0000000000005
 30
0.0
 11
585.2500000000068
 21
311.0000000000005
 31
0.0
  0
LINE
  5
486
330
483
100
AcDbEntity
  8
1
  6
Continuous
 62
     2
100
AcDbLine
 10
585.2500000000068
 20
213.047961103057
 30
0.0
 11
585.2500000000068
 21
301.0000000000005
 31
0.0
  0
LINE
  5
487
330
483
100
AcDbEntity
  8
1
  6
Continuous
 62
     2
100
AcDbLine
 10
561.2500000000011
 20
301.0000000000005
 30
0.0
 11
588.2500000000068
 21
301.0000000000005
 31
0.0
  0
LINE
  5
488
330
483
100
AcDbEntity
  8
1
  6
Continuous
 62
     2
100
AcDbLine
 10
561.25
 20
311.0000000000005
 30
0.0
 11
588.2500000000068
 21
311.0000000000005
 31
0.0
  0
SOLID
  5
489
330
483
100
AcDbEntity
  8
1
 62
     2
100
AcDbTrace
 10
586.6323512246745
 20
290.5000000000005
 30
0.0
 11
583.8676487753392
 21
290.5000000000005
 31
0.0
 12
585.2500000000068
 22
301.0000000000005
 32
0.0
 13
585.2500000000068
 23
301.0000000000005
 33
0.0
  0
SOLID
  5
48A
330
483
100
AcDbEntity
  8
1
 62
     2
100
AcDbTrace
 10
583.8676487753392
 20
321.5000000000005
 30
0.0
 11
586.6323512246745
 21
321.5000000000005
 31
0.0
 12
585.2500000000068
 22
311.0000000000005
 32
0.0
 13
585.2500000000068
 23
311.0000000000005
 33
0.0
  0
MTEXT
  5
48B
330
483
100
AcDbEntity
  8
1
 62
     7
100
AcDbMText
 10
582.2500000000068
 20
213.047961103057
 30
0.0
 40
10.5
 41
0.0
 71
     7
 72
     1
  1
最大35 最小5
  7
CONVERTER_1
 11
0.0
 21
1.0
 31
0.0
 73
     1
 44
0.60024009603842
  0
ENDBLK
  5
48D
330
483
100
AcDbEntity
  8
0
100
AcDbBlockEnd
  0
BLOCK
  5
499
330
490
100
AcDbEntity
  8
0
100
AcDbBlockBegin
  2
*D1062
 70
     1
 71
     0
 10
0.0
 20
0.0
 30
0.0
  3
*D1062
  1

  0
LINE
  5
491
330
490
100
AcDbEntity
  8
1
  6
Continuous
 62
     2
100
AcDbLine
 10
485.0
 20
293.0000000000004
 30
0.0
 11
485.0
 21
314.0000000000004
 31
0.0
  0
LINE
  5
492
330
490
100
AcDbEntity
  8
1
  6
Continuous
 62
     2
100
AcDbLine
 10
485.0
 20
314.0000000000004
 30
0.0
 11
485.0
 21
339.5000000000002
 31
0.0
  0
LINE
  5
493
330
490
100
AcDbEntity
  8
1
  6
Continuous
 62
     2
100
AcDbLine
 10
485.0
 20
339.5000000000002
 30
0.0
 11
485.0
 21
360.5000000000002
 31
0.0
  0
LINE
  5
494
330
490
100
AcDbEntity
  8
1
  6
Continuous
 62
     2
100
AcDbLine
 10
501.9999999999991
 20
339.5000000000002
 30
0.0
 11
482.0
 21
339.5000000000002
 31
0.0
  0
LINE
  5
495
330
490
100
AcDbEntity
  8
1
  6
Continuous
 62
     2
100
AcDbLine
 10
505.0
 20
314.0000000000004
 30
0.0
 11
482.0
 21
314.0000000000004
 31
0.0
  0
SOLID
  5
496
330
490
100
AcDbEntity
  8
1
 62
     2
100
AcDbTrace
 10
486.3823512246677
 20
303.5000000000004
 30
0.0
 11
483.6176487753323
 21
303.5000000000004
 31
0.0
 12
485.0
 22
314.0000000000004
 32
0.0
 13
485.0
 23
314.0000000000004
 33
0.0
  0
SOLID
  5
497
330
490
100
AcDbEntity
  8
1
 62
     2
100
AcDbTrace
 10
483.6176487753323
 20
350.0000000000002
 30
0.0
 11
486.3823512246677
 21
350.0000000000002
 31
0.0
 12
485.0
 22
339.5000000000002
 32
0.0
 13
485.0
 23
339.5000000000002
 33
0.0
  0
MTEXT
  5
498
330
490
100
AcDbEntity
  8
1
 62
     7
100
AcDbMText
 10
482.0
 20
319.023818382947
 30
0.0
 40
10.5
 41
0.0
 71
     7
 72
     1
  1
26
  7
CONVERTER_2
 11
0.0
 21
1.0
 31
0.0
 73
     1
 44
0.60024009603842
  0
ENDBLK
  5
49A
330
490
100
AcDbEntity
  8
0
100
AcDbBlockEnd
  0
BLOCK
  5
4A4
330
49D
100
AcDbEntity
  8
0
100
AcDbBlockBegin
  2
*D1163
 70
     1
 71
     0
 10
0.0
 20
0.0
 30
0.0
  3
*D1163
  1

  0
LINE
  5
49E
330
49D
100
AcDbEntity
  8
1
  6
Continuous
 62
     2
100
AcDbLine
 10
465.0
 20
314.0000000000004
 30
0.0
 11
465.0
 21
397.0
 31
0.0
  0
LINE
  5
49F
330
49D
100
AcDbEntity
  8
1
  6
Continuous
 62
     2
100
AcDbLine
 10
525.0
 20
397.0
 30
0.0
 11
462.0
 21
397.0
 31
0.0
  0
LINE
  5
4A0
330
49D
100
AcDbEntity
  8
1
  6
Continuous
 62
     2
100
AcDbLine
 10
505.0
 20
314.0000000000004
 30
0.0
 11
462.0
 21
314.0000000000004
 31
0.0
  0
SOLID
  5
4A1
330
49D
100
AcDbEntity
  8
1
 62
     2
100
AcDbTrace
 10
463.6176487753323
 20
324.5000000000004
 30
0.0
 11
466.3823512246677
 21
324.5000000000004
 31
0.0
 12
465.0
 22
314.0000000000004
 32
0.0
 13
465.0
 23
314.0000000000004
 33
0.0
  0
SOLID
  5
4A2
330
49D
100
AcDbEntity
  8
1
 62
     2
100
AcDbTrace
 10
466.3823512246677
 20
386.5
 30
0.0
 11
463.6176487753323
 21
386.5
 31
0.0
 12
465.0
 22
397.0
 32
0.0
 13
465.0
 23
397.0
 33
0.0
  0
MTEXT
  5
4A3
330
49D
100
AcDbEntity
  8
1
 62
     7
100
AcDbMText
 10
462.0
 20
349.324300792813
 30
0.0
 40
10.5
 41
0.0
 71
     7
 72
     1
  1
83
  7
CONVERTER_2
 11
0.0
 21
1.0
 31
0.0
 73
     1
 44
0.60024009603842
  0
ENDBLK
  5
4A5
330
49D
100
AcDbEntity
  8
0
100
AcDbBlockEnd
  0
BLOCK
  5
4AF
330
4A8
100
AcDbEntity
  8
0
100
AcDbBlockBegin
  2
*D1264
 70
     1
 71
     0
 10
0.0
 20
0.0
 30
0.0
  3
*D1264
  1

  0
LINE
  5
4A9
330
4A8
100
AcDbEntity
  8
1
  6
Continuous
 62
     2
100
AcDbLine
 10
438.9453801971504
 20
352.1006583046444
 30
0.0
 11
438.9453801971504
 21
314.0000000000004
 31
0.0
  0
LINE
  5
4AA
330
4A8
100
AcDbEntity
  8
1
  6
Continuous
 62
     2
100
AcDbLine
 10
505.0
 20
314.0000000000004
 30
0.0
 11
435.9453801971504
 21
314.0000000000004
 31
0.0
  0
LINE
  5
4AB
330
4A8
100
AcDbEntity
  8
1
  6
Continuous
 62
     2
100
AcDbLine
 10
404.9453801971505
 20
352.1006583046444
 30
0.0
 11
441.9453801971504
 21
352.1006583046444
 31
0.0
  0
SOLID
  5
4AC
330
4A8
100
AcDbEntity
  8
1
 62
     2
100
AcDbTrace
 10
440.3277314218181
 20
341.6006583046444
 30
0.0
 11
437.5630289724828
 21
341.6006583046444
 31
0.0
 12
438.9453801971504
 22
352.1006583046444
 32
0.0
 13
438.9453801971504
 23
352.1006583046444
 33
0.0
  0
SOLID
  5
4AD
330
4A8
100
AcDbEntity
  8
1
 62
     2
100
AcDbTrace
 10
437.5630289724828
 20
324.5000000000004
 30
0.0
 11
440.3277314218181
 21
324.5000000000004
 31
0.0
 12
438.9453801971504
 22
314.0000000000004
 32
0.0
 13
438.9453801971504
 23
314.0000000000004
 33
0.0
  0
MTEXT
  5
4AE
330
4A8
100
AcDbEntity
  8
1
 62
     7
100
AcDbMText
 10
435.9453801971504
 20
325.23618984552
 30
0.0
 40
10.5
 41
0.0
 71
     7
 72
     1
  1
38
  7
CONVERTER_2
 11
0.0
 21
1.0
 31
0.0
 73
     1
 44
0.60024009603842
  0
ENDBLK
  5
4B0
330
4A8
100
AcDbEntity
  8
0
100
AcDbBlockEnd
  0
BLOCK
  5
4BA
330
4B3
100
AcDbEntity
  8
0
100
AcDbBlockBegin
  2
*D1365
 70
     1
 71
     0
 10
0.0
 20
0.0
 30
0.0
  3
*D1365
  1

  0
LINE
  5
4B4
330
4B3
100
AcDbEntity
  8
1
  6
Continuous
 62
     2
100
AcDbLine
 10
379.9453801971505
 20
424.0000000000004
 30
0.0
 11
379.9453801971505
 21
314.0000000000004
 31
0.0
  0
LINE
  5
4B5
330
4B3
100
AcDbEntity
  8
1
  6
Continuous
 62
     2
100
AcDbLine
 10
505.0
 20
314.0000000000004
 30
0.0
 11
376.9453801971505
 21
314.0000000000004
 31
0.0
  0
LINE
  5
4B6
330
4B3
100
AcDbEntity
  8
1
  6
Continuous
 62
     2
100
AcDbLine
 10
507.0
 20
424.0000000000004
 30
0.0
 11
376.9453801971505
 21
424.0000000000004
 31
0.0
  0
SOLID
  5
4B7
330
4B3
100
AcDbEntity
  8
1
 62
     2
100
AcDbTrace
 10
381.3277314218182
 20
413.5000000000004
 30
0.0
 11
378.5630289724828
 21
413.5000000000004
 31
0.0
 12
379.9453801971505
 22
424.0000000000004
 32
0.0
 13
379.9453801971505
 23
424.0000000000004
 33
0.0
  0
SOLID
  5
4B8
330
4B3
100
AcDbEntity
  8
1
 62
     2
100
AcDbTrace
 10
378.5630289724828
 20
324.5000000000004
 30
0.0
 11
381.3277314218182
 21
324.5000000000004
 31
0.0
 12
379.9453801971505
 22
314.0000000000004
 32
0.0
 13
379.9453801971505
 23
314.0000000000004
 33
0.0
  0
MTEXT
  5
4B9
330
4B3
100
AcDbEntity
  8
1
 62
     7
100
AcDbMText
 10
376.9453801971505
 20
362.480537096173
 30
0.0
 40
10.5
 41
0.0
 71
     7
 72
     1
  1
110
  7
CONVERTER_2
 11
0.0
 21
1.0
 31
0.0
 73
     1
 44
0.60024009603842
  0
ENDBLK
  5
4BB
330
4B3
100
AcDbEntity
  8
0
100
AcDbBlockEnd
  0
BLOCK
  5
4C7
330
4BE
100
AcDbEntity
  8
0
100
AcDbBlockBegin
  2
*D1466
 70
     1
 71
     0
 10
0.0
 20
0.0
 30
0.0
  3
*D1466
  1

  0
LINE
  5
4BF
330
4BE
100
AcDbEntity
  8
1
  6
Continuous
 62
     2
100
AcDbLine
 10
473.8751808791736
 20
391.9336232536306
 30
0.0
 11
466.3953175325327
 21
404.8891266036852
 31
0.0
  0
LINE
  5
4C0
330
4BE
100
AcDbEntity
  8
1
  6
Continuous
 62
     2
100
AcDbLine
 10
466.3953175325327
 20
404.8891266036852
 30
0.0
 11
462.8953175325328
 21
410.9513044301762
 31
0.0
  0
LINE
  5
4C1
330
4BE
100
AcDbEntity
  8
1
  6
Continuous
 62
     2
100
AcDbLine
 10
462.8953175325328
 20
410.9513044301762
 30
0.0
 11
450.6525438075698
 21
432.1564105473818
 31
0.0
  0
LINE
  5
4C2
330
4BE
100
AcDbEntity
  8
1
  6
Continuous
 62
     2
100
AcDbLine
 10
462.895317532533
 20
410.9513044301763
 30
0.0
 11
460.2972413211795
 21
409.4513044301762
 31
0.0
  0
LINE
  5
4C3
330
4BE
100
AcDbEntity
  8
1
  6
Continuous
 62
     2
100
AcDbLine
 10
466.3953175325329
 20
404.8891266036853
 30
0.0
 11
463.7972413211793
 21
403.3891266036852
 31
0.0
  0
SOLID
  5
4C4
330
4BE
100
AcDbEntity
  8
1
 62
     2
100
AcDbTrace
 10
472.8424688100475
 20
396.4870354762824
 30
0.0
 11
470.448166255018
 21
395.1046842516147
 31
0.0
 12
466.3953175325327
 22
404.8891266036852
 32
0.0
 13
466.3953175325327
 23
404.8891266036852
 33
0.0
  0
SOLID
  5
4C5
330
4BE
100
AcDbEntity
  8
1
 62
     2
100
AcDbTrace
 10
456.448166255018
 20
419.3533955575789
 30
0.0
 11
458.8424688100474
 21
420.7357467822466
 31
0.0
 12
462.8953175325328
 22
410.9513044301762
 32
0.0
 13
462.8953175325328
 23
410.9513044301762
 33
0.0
  0
MTEXT
  5
4C6
330
4BE
100
AcDbEntity
  8
1
 62
     7
100
AcDbMText
 10
453.2506200189231
 20
433.6564105473818
 30
0.0
 40
10.5
 41
0.0
 71
     7
 72
     1
  1
7
  7
CONVERTER_2
 11
0.4999999999999916
 21
-0.8660254037844435
 31
0.0
 73
     1
 44
0.60024009603842
  0
ENDBLK
  5
4C8
330
4BE
100
AcDbEntity
  8
0
100
AcDbBlockEnd
  0
BLOCK
  5
4D4
330
4CB
100
AcDbEntity
  8
0
100
AcDbBlockBegin
  2
*D1567
 70
     1
 71
     0
 10
0.0
 20
0.0
 30
0.0
  3
*D1567
  1

  0
LINE
  5
4CC
330
4CB
100
AcDbEntity
  8
1
  6
Continuous
 62
     2
100
AcDbLine
 10
450.1282258709381
 20
367.4818490523838
 30
0.0
 11
436.6296860675205
 21
383.5687823578821
 31
0.0
  0
LINE
  5
4CD
330
4CB
100
AcDbEntity
  8
1
  6
Continuous
 62
     2
100
AcDbLine
 10
436.6296860675205
 20
383.5687823578821
 30
0.0
 11
435.3441108481474
 21
385.10087124412
 31
0.0
  0
LINE
  5
4CE
330
4CB
100
AcDbEntity
  8
1
  6
Continuous
 62
     2
100
AcDbLine
 10
435.3441108481474
 20
385.10087124412
 30
0.0
 11
411.8769266567089
 21
413.0679723123358
 31
0.0
  0
LINE
  5
4CF
330
4CB
100
AcDbEntity
  8
1
  6
Continuous
 62
     2
100
AcDbLine
 10
435.344110848147
 20
385.1008712441196
 30
0.0
 11
433.0459775187905
 21
383.1725084150604
 31
0.0
  0
LINE
  5
4D0
330
4CB
100
AcDbEntity
  8
1
  6
Continuous
 62
     2
100
AcDbLine
 10
436.62968606752
 20
383.5687823578817
 30
0.0
 11
434.3315527381636
 21
381.6404195288225
 31
0.0
  0
SOLID
  5
4D1
330
4CB
100
AcDbEntity
  8
1
 62
     2
100
AcDbTrace
 10
444.4378984433245
 20
376.4138739445842
 30
0.0
 11
442.3200134951338
 21
374.6367574656815
 31
0.0
 12
436.6296860675205
 22
383.5687823578821
 32
0.0
 13
436.6296860675205
 23
383.5687823578821
 33
0.0
  0
SOLID
  5
4D2
330
4CB
100
AcDbEntity
  8
1
 62
     2
100
AcDbTrace
 10
427.5358984723434
 20
392.2557796574179
 30
0.0
 11
429.6537834205341
 21
394.0328961363207
 31
0.0
 12
435.3441108481474
 22
385.10087124412
 32
0.0
 13
435.3441108481474
 23
385.10087124412
 33
0.0
  0
MTEXT
  5
4D3
330
4CB
100
AcDbEntity
  8
1
 62
     7
100
AcDbMText
 10
413.567625694912
 20
415.7202471401429
 30
0.0
 40
10.5
 41
0.0
 71
     7
 72
     1
  1
\C7;t=\C7;2
  7
CONVERTER_2
 11
0.642787609686554
 21
-0.7660444431189658
 31
0.0
 73
     1
 44
0.60024009603842
  0
ENDBLK
  5
4D5
330
4CB
100
AcDbEntity
  8
0
100
AcDbBlockEnd
  0
BLOCK
  5
4E1
330
4D8
100
AcDbEntity
  8
0
100
AcDbBlockBegin
  2
*D1668
 70
     1
 71
     0
 10
0.0
 20
0.0
 30
0.0
  3
*D1668
  1

  0
LINE
  5
4D9
330
4D8
100
AcDbEntity
  8
1
  6
Continuous
 62
     2
100
AcDbLine
 10
384.0275688437059
 20
271.0000000000003
 30
0.0
 11
501.4529946162087
 21
271.0000000000003
 31
0.0
  0
LINE
  5
4DA
330
4D8
100
AcDbEntity
  8
1
  6
Continuous
 62
     2
100
AcDbLine
 10
501.4529946162087
 20
271.0000000000003
 30
0.0
 11
525.4529946162074
 21
271.0000000000003
 31
0.0
  0
LINE
  5
4DB
330
4D8
100
AcDbEntity
  8
1
  6
Continuous
 62
     2
100
AcDbLine
 10
525.4529946162074
 20
271.0000000000003
 30
0.0
 11
546.4529946162076
 21
271.0000000000003
 31
0.0
  0
LINE
  5
4DC
330
4D8
100
AcDbEntity
  8
1
  6
Continuous
 62
     2
100
AcDbLine
 10
537.0
 20
291.0000000000003
 30
0.0
 11
523.9529946162074
 21
268.401923788647
 31
0.0
  0
LINE
  5
4DD
330
4D8
100
AcDbEntity
  8
1
  6
Continuous
 62
     2
100
AcDbLine
 10
513.0000000000014
 20
291.0000000000003
 30
0.0
 11
499.9529946162087
 21
268.401923788647
 31
0.0
  0
SOLID
  5
4DE
330
4D8
100
AcDbEntity
  8
1
 62
     2
100
AcDbTrace
 10
490.9529946162087
 20
269.6176487753326
 30
0.0
 11
490.9529946162087
 21
272.382351224668
 31
0.0
 12
501.4529946162087
 22
271.0000000000003
 32
0.0
 13
501.4529946162087
 23
271.0000000000003
 33
0.0
  0
SOLID
  5
4DF
330
4D8
100
AcDbEntity
  8
1
 62
     2
100
AcDbTrace
 10
535.9529946162074
 20
272.382351224668
 30
0.0
 11
535.9529946162074
 21
269.6176487753326
 31
0.0
 12
525.4529946162074
 22
271.0000000000003
 32
0.0
 13
525.4529946162074
 23
271.0000000000003
 33
0.0
  0
MTEXT
  5
4E0
330
4D8
100
AcDbEntity
  8
1
 62
     7
100
AcDbMText
 10
333.7675688441107
 20
273.9996660603367
 30
0.0
 40
10.5
 41
0.0
 71
     7
 72
     1
  1
\C7;ロックナット対辺\C7;24
  7
CONVERTER_1
 11
0.9999999999970621
 21
2.424068405545307E-6
 31
0.0
 73
     1
 44
0.60024009603842
  0
ENDBLK
  5
4E2
330
4D8
100
AcDbEntity
  8
0
100
AcDbBlockEnd
  0
BLOCK
  5
4EC
330
4E5
100
AcDbEntity
  8
0
100
AcDbBlockBegin
  2
*D1769
 70
     1
 71
     0
 10
0.0
 20
0.0
 30
0.0
  3
*D1769
  1

  0
LINE
  5
4E6
330
4E5
100
AcDbEntity
  8
1
  6
Continuous
 62
     2
100
AcDbLine
 10
328.4999999999987
 20
357.0
 30
0.0
 11
328.4999999999987
 21
397.0
 31
0.0
  0
LINE
  5
4E7
330
4E5
100
AcDbEntity
  8
1
  6
Continuous
 62
     2
100
AcDbLine
 10
297.8097617856022
 20
397.0
 30
0.0
 11
331.4999999999987
 21
397.0
 31
0.0
  0
LINE
  5
4E8
330
4E5
100
AcDbEntity
  8
1
  6
Continuous
 62
     2
100
AcDbLine
 10
297.8097617856022
 20
357.0
 30
0.0
 11
331.4999999999987
 21
357.0
 31
0.0
  0
SOLID
  5
4E9
330
4E5
100
AcDbEntity
  8
1
 62
     2
100
AcDbTrace
 10
327.117648775331
 20
367.5
 30
0.0
 11
329.8823512246664
 21
367.5
 31
0.0
 12
328.4999999999987
 22
357.0
 32
0.0
 13
328.4999999999987
 23
357.0
 33
0.0
  0
SOLID
  5
4EA
330
4E5
100
AcDbEntity
  8
1
 62
     2
100
AcDbTrace
 10
329.8823512246664
 20
386.5
 30
0.0
 11
327.117648775331
 21
386.5
 31
0.0
 12
328.4999999999987
 22
397.0
 32
0.0
 13
328.4999999999987
 23
397.0
 33
0.0
  0
MTEXT
  5
4EB
330
4E5
100
AcDbEntity
  8
1
 62
     7
100
AcDbMText
 10
325.4999999999987
 20
358.205
 30
0.0
 40
10.5
 41
0.0
 71
     7
 72
     1
  1
\C7;{\Fgdt;n}\C7;40
  7
CONVERTER_2
 11
0.0
 21
1.0
 31
0.0
 73
     1
 44
0.60024009603842
  0
ENDBLK
  5
4ED
330
4E5
100
AcDbEntity
  8
0
100
AcDbBlockEnd
  0
BLOCK
  5
4F8
330
4F0
100
AcDbEntity
  8
0
100
AcDbBlockBegin
  2
*D1870
 70
     1
 71
     0
 10
0.0
 20
0.0
 30
0.0
  3
*D1870
  1

  0
LINE
  5
4F1
330
4F0
100
AcDbEntity
  8
1
  6
Continuous
 62
     2
100
AcDbLine
 10
352.4999999999987
 20
376.9999999999999
 30
0.0
 11
352.4999999999987
 21
313.9999999999999
 31
0.0
  0
LINE
  5
4F2
330
4F0
100
AcDbEntity
  8
1
  6
Continuous
 62
     2
100
AcDbLine
 10
265.0
 20
313.9999999999999
 30
0.0
 11
355.4999999999987
 21
313.9999999999999
 31
0.0
  0
LINE
  5
4F3
330
4F0
100
AcDbEntity
  8
1
  6
Continuous
 62
     2
100
AcDbLine
 10
331.805655913936
 20
376.9999999999999
 30
0.0
 11
355.4999999999987
 21
376.9999999999999
 31
0.0
  0
LINE
  5
4F4
330
4F0
100
AcDbEntity
  8
1
  6
Continuous
 62
     2
100
AcDbLine
 10
301.5
 20
376.9999999999999
 30
0.0
 11
312.778534552003
 21
376.9999999999999
 31
0.0
  0
SOLID
  5
4F5
330
4F0
100
AcDbEntity
  8
1
 62
     2
100
AcDbTrace
 10
353.8823512246664
 20
366.4999999999999
 30
0.0
 11
351.117648775331
 21
366.4999999999999
 31
0.0
 12
352.4999999999987
 22
376.9999999999999
 32
0.0
 13
352.4999999999987
 23
376.9999999999999
 33
0.0
  0
SOLID
  5
4F6
330
4F0
100
AcDbEntity
  8
1
 62
     2
100
AcDbTrace
 10
351.117648775331
 20
324.4999999999999
 30
0.0
 11
353.8823512246664
 21
324.4999999999999
 31
0.0
 12
352.4999999999987
 22
313.9999999999999
 32
0.0
 13
352.4999999999987
 23
313.9999999999999
 33
0.0
  0
MTEXT
  5
4F7
330
4F0
100
AcDbEntity
  8
1
 62
     7
100
AcDbMText
 10
349.4999999999987
 20
337.5571566013069
 30
0.0
 40
10.5
 41
0.0
 71
     7
 72
     1
  1
63
  7
CONVERTER_2
 11
0.0
 21
1.0
 31
0.0
 73
     1
 44
0.60024009603842
  0
ENDBLK
  5
4F9
330
4F0
100
AcDbEntity
  8
0
100
AcDbBlockEnd
  0
BLOCK
  5
503
330
4FC
100
AcDbEntity
  8
0
100
AcDbBlockBegin
  2
*D1971
 70
     1
 71
     0
 10
0.0
 20
0.0
 30
0.0
  3
*D1971
  1

  0
LINE
  5
4FD
330
4FC
100
AcDbEntity
  8
1
  6
Continuous
 62
     2
100
AcDbLine
 10
352.4999999999987
 20
258.0
 30
0.0
 11
352.4999999999987
 21
314.0
 31
0.0
  0
LINE
  5
4FE
330
4FC
100
AcDbEntity
  8
1
  6
Continuous
 62
     2
100
AcDbLine
 10
265.0
 20
314.0
 30
0.0
 11
355.4999999999987
 21
314.0
 31
0.0
  0
LINE
  5
4FF
330
4FC
100
AcDbEntity
  8
1
  6
Continuous
 62
     2
100
AcDbLine
 10
239.4282032302755
 20
258.0
 30
0.0
 11
355.4999999999987
 21
258.0
 31
0.0
  0
SOLID
  5
500
330
4FC
100
AcDbEntity
  8
1
 62
     2
100
AcDbTrace
 10
351.117648775331
 20
268.5
 30
0.0
 11
353.8823512246664
 21
268.5
 31
0.0
 12
352.4999999999987
 22
258.0
 32
0.0
 13
352.4999999999987
 23
258.0
 33
0.0
  0
SOLID
  5
501
330
4FC
100
AcDbEntity
  8
1
 62
     2
100
AcDbTrace
 10
353.8823512246664
 20
303.5
 30
0.0
 11
351.117648775331
 21
303.5
 31
0.0
 12
352.4999999999987
 22
314.0
 32
0.0
 13
352.4999999999987
 23
314.0
 33
0.0
  0
MTEXT
  5
502
330
4FC
100
AcDbEntity
  8
1
 62
     7
100
AcDbMText
 10
349.4999999999987
 20
281.010895338144
 30
0.0
 40
10.5
 41
0.0
 71
     7
 72
     1
  1
56
  7
CONVERTER_2
 11
0.0
 21
1.0
 31
0.0
 73
     1
 44
0.60024009603842
  0
ENDBLK
  5
504
330
4FC
100
AcDbEntity
  8
0
100
AcDbBlockEnd
  0
BLOCK
  5
50E
330
507
100
AcDbEntity
  8
0
100
AcDbBlockBegin
  2
*D2072
 70
     1
 71
     0
 10
0.0
 20
0.0
 30
0.0
  3
*D2072
  1

  0
LINE
  5
508
330
507
100
AcDbEntity
  8
1
  6
Continuous
 62
     2
100
AcDbLine
 10
147.5
 20
221.0000000000001
 30
0.0
 11
232.5
 21
221.0000000000001
 31
0.0
  0
LINE
  5
509
330
507
100
AcDbEntity
  8
1
  6
Continuous
 62
     2
100
AcDbLine
 10
232.5
 20
248.0
 30
0.0
 11
232.5
 21
218.0000000000001
 31
0.0
  0
LINE
  5
50A
330
507
100
AcDbEntity
  8
1
  6
Continuous
 62
     2
100
AcDbLine
 10
147.5
 20
248.0
 30
0.0
 11
147.5
 21
218.0000000000001
 31
0.0
  0
SOLID
  5
50B
330
507
100
AcDbEntity
  8
1
 62
     2
100
AcDbTrace
 10
158.0
 20
222.3823512246678
 30
0.0
 11
158.0
 21
219.6176487753325
 31
0.0
 12
147.5
 22
221.0000000000001
 32
0.0
 13
147.5
 23
221.0000000000001
 33
0.0
  0
SOLID
  5
50C
330
507
100
AcDbEntity
  8
1
 62
     2
100
AcDbTrace
 10
222.0
 20
219.6176487753325
 30
0.0
 11
222.0
 21
222.3823512246678
 31
0.0
 12
232.5
 22
221.0000000000001
 32
0.0
 13
232.5
 23
221.0000000000001
 33
0.0
  0
MTEXT
  5
50D
330
507
100
AcDbEntity
  8
1
 62
     7
100
AcDbMText
 10
182.125
 20
224.0000000000001
 30
0.0
 40
10.5
 41
0.0
 71
     7
 72
     1
  1
85
  7
CONVERTER_2
 11
0.9999999999970621
 21
2.424068405545307E-6
 31
0.0
 73
     1
 44
0.60024009603842
  0
ENDBLK
  5
50F
330
507
100
AcDbEntity
  8
0
100
AcDbBlockEnd
  0
BLOCK
  5
519
330
512
100
AcDbEntity
  8
0
100
AcDbBlockBegin
  2
*D2173
 70
     1
 71
     0
 10
0.0
 20
0.0
 30
0.0
  3
*D2173
  1

  0
LINE
  5
513
330
512
100
AcDbEntity
  8
1
  6
Continuous
 62
     2
100
AcDbLine
 10
115.0
 20
173.0000000000001
 30
0.0
 11
265.0
 21
173.0000000000001
 31
0.0
  0
LINE
  5
514
330
512
100
AcDbEntity
  8
1
  6
Continuous
 62
     2
100
AcDbLine
 10
265.0
 20
314.0
 30
0.0
 11
265.0
 21
170.0000000000001
 31
0.0
  0
LINE
  5
515
330
512
100
AcDbEntity
  8
1
  6
Continuous
 62
     2
100
AcDbLine
 10
115.0
 20
314.0
 30
0.0
 11
115.0
 21
170.0000000000001
 31
0.0
  0
SOLID
  5
516
330
512
100
AcDbEntity
  8
1
 62
     2
100
AcDbTrace
 10
125.5
 20
174.3823512246678
 30
0.0
 11
125.5
 21
171.6176487753325
 31
0.0
 12
115.0
 22
173.0000000000001
 32
0.0
 13
115.0
 23
173.0000000000001
 33
0.0
  0
SOLID
  5
517
330
512
100
AcDbEntity
  8
1
 62
     2
100
AcDbTrace
 10
254.5
 20
171.6176487753325
 30
0.0
 11
254.5
 21
174.3823512246678
 31
0.0
 12
265.0
 22
173.0000000000001
 32
0.0
 13
265.0
 23
173.0000000000001
 33
0.0
  0
MTEXT
  5
518
330
512
100
AcDbEntity
  8
1
 62
     7
100
AcDbMText
 10
178.975
 20
176.0000000000001
 30
0.0
 40
10.5
 41
0.0
 71
     7
 72
     1
  1
150
  7
CONVERTER_2
 11
0.9999999999970621
 21
2.424068405545307E-6
 31
0.0
 73
     1
 44
0.60024009603842
  0
ENDBLK
  5
51A
330
512
100
AcDbEntity
  8
0
100
AcDbBlockEnd
  0
BLOCK
  5
524
330
51D
100
AcDbEntity
  8
0
100
AcDbBlockBegin
  2
*D2274
 70
     1
 71
     0
 10
0.0
 20
0.0
 30
0.0
  3
*D2274
  1

  0
LINE
  5
51E
330
51D
100
AcDbEntity
  8
1
  6
Continuous
 62
     2
100
AcDbLine
 10
127.5000000000001
 20
197.0000000000001
 30
0.0
 11
252.4999999999997
 21
197.0000000000001
 31
0.0
  0
LINE
  5
51F
330
51D
100
AcDbEntity
  8
1
  6
Continuous
 62
     2
100
AcDbLine
 10
252.4999999999997
 20
314.0000000000001
 30
0.0
 11
252.4999999999997
 21
194.0000000000001
 31
0.0
  0
LINE
  5
520
330
51D
100
AcDbEntity
  8
1
  6
Continuous
 62
     2
100
AcDbLine
 10
127.5000000000001
 20
314.0000000000001
 30
0.0
 11
127.5000000000001
 21
194.0000000000001
 31
0.0
  0
SOLID
  5
521
330
51D
100
AcDbEntity
  8
1
 62
     2
100
AcDbTrace
 10
138.0000000000001
 20
198.3823512246678
 30
0.0
 11
138.0000000000001
 21
195.6176487753325
 31
0.0
 12
127.5000000000001
 22
197.0000000000001
 32
0.0
 13
127.5000000000001
 23
197.0000000000001
 33
0.0
  0
SOLID
  5
522
330
51D
100
AcDbEntity
  8
1
 62
     2
100
AcDbTrace
 10
241.9999999999997
 20
195.6176487753325
 30
0.0
 11
241.9999999999997
 21
198.3823512246678
 31
0.0
 12
252.4999999999997
 22
197.0000000000001
 32
0.0
 13
252.4999999999997
 23
197.0000000000001
 33
0.0
  0
MTEXT
  5
523
330
51D
100
AcDbEntity
  8
1
 62
     7
100
AcDbMText
 10
178.975
 20
200.0000000000001
 30
0.0
 40
10.5
 41
0.0
 71
     7
 72
     1
  1
125
  7
CONVERTER_2
 11
0.9999999999970621
 21
2.424068405545307E-6
 31
0.0
 73
     1
 44
0.60024009603842
  0
ENDBLK
  5
525
330
51D
100
AcDbEntity
  8
0
100
AcDbBlockEnd
  0
BLOCK
  5
52F
330
528
100
AcDbEntity
  8
0
100
AcDbBlockBegin
  2
*D2375
 70
     1
 71
     0
 10
0.0
 20
0.0
 30
0.0
  3
*D2375
  1

  0
LINE
  5
529
330
528
100
AcDbEntity
  8
1
  6
Continuous
 62
     2
100
AcDbLine
 10
115.0
 20
450.6476151587626
 30
0.0
 11
265.0
 21
450.6476151587626
 31
0.0
  0
LINE
  5
52A
330
528
100
AcDbEntity
  8
1
  6
Continuous
 62
     2
100
AcDbLine
 10
265.0
 20
420.1476151587626
 30
0.0
 11
265.0
 21
453.6476151587626
 31
0.0
  0
LINE
  5
52B
330
528
100
AcDbEntity
  8
1
  6
Continuous
 62
     2
100
AcDbLine
 10
115.0
 20
420.1476151587626
 30
0.0
 11
115.0
 21
453.6476151587626
 31
0.0
  0
SOLID
  5
52C
330
528
100
AcDbEntity
  8
1
 62
     2
100
AcDbTrace
 10
125.5
 20
452.0299663834303
 30
0.0
 11
125.5
 21
449.265263934095
 31
0.0
 12
115.0
 22
450.6476151587626
 32
0.0
 13
115.0
 23
450.6476151587626
 33
0.0
  0
SOLID
  5
52D
330
528
100
AcDbEntity
  8
1
 62
     2
100
AcDbTrace
 10
254.5
 20
449.265263934095
 30
0.0
 11
254.5
 21
452.0299663834303
 31
0.0
 12
265.0
 22
450.6476151587626
 32
0.0
 13
265.0
 23
450.6476151587626
 33
0.0
  0
MTEXT
  5
52E
330
528
100
AcDbEntity
  8
1
 62
     7
100
AcDbMText
 10
178.975
 20
453.6476151587626
 30
0.0
 40
10.5
 41
0.0
 71
     7
 72
     1
  1
150
  7
CONVERTER_2
 11
0.9999999999970621
 21
2.424068405545307E-6
 31
0.0
 73
     1
 44
0.60024009603842
  0
ENDBLK
  5
530
330
528
100
AcDbEntity
  8
0
100
AcDbBlockEnd
  0
BLOCK
  5
53A
330
533
100
AcDbEntity
  8
0
100
AcDbBlockBegin
  2
*D2476
 70
     1
 71
     0
 10
0.0
 20
0.0
 30
0.0
  3
*D2476
  1

  0
LINE
  5
534
330
533
100
AcDbEntity
  8
1
  6
Continuous
 62
     2
100
AcDbLine
 10
81.50000000000129
 20
474.6476151587626
 30
0.0
 11
298.4999999999987
 21
474.6476151587626
 31
0.0
  0
LINE
  5
535
330
533
100
AcDbEntity
  8
1
  6
Continuous
 62
     2
100
AcDbLine
 10
298.4999999999987
 20
377.0
 30
0.0
 11
298.4999999999987
 21
477.6476151587626
 31
0.0
  0
LINE
  5
536
330
533
100
AcDbEntity
  8
1
  6
Continuous
 62
     2
100
AcDbLine
 10
81.50000000000129
 20
377.0
 30
0.0
 11
81.50000000000129
 21
477.6476151587626
 31
0.0
  0
SOLID
  5
537
330
533
100
AcDbEntity
  8
1
 62
     2
100
AcDbTrace
 10
92.00000000000129
 20
476.0299663834303
 30
0.0
 11
92.00000000000129
 21
473.265263934095
 31
0.0
 12
81.50000000000129
 22
474.6476151587626
 32
0.0
 13
81.50000000000129
 23
474.6476151587626
 33
0.0
  0
SOLID
  5
538
330
533
100
AcDbEntity
  8
1
 62
     2
100
AcDbTrace
 10
287.9999999999987
 20
473.265263934095
 30
0.0
 11
287.9999999999987
 21
476.0299663834303
 31
0.0
 12
298.4999999999987
 22
474.6476151587626
 32
0.0
 13
298.4999999999987
 23
474.6476151587626
 33
0.0
  0
MTEXT
  5
539
330
533
100
AcDbEntity
  8
1
 62
     7
100
AcDbMText
 10
178.975
 20
477.6476151587626
 30
0.0
 40
10.5
 41
0.0
 71
     7
 72
     1
  1
217
  7
CONVERTER_2
 11
0.9999999999970621
 21
2.424068405545307E-6
 31
0.0
 73
     1
 44
0.60024009603842
  0
ENDBLK
  5
53B
330
533
100
AcDbEntity
  8
0
100
AcDbBlockEnd
  0
BLOCK
  5
548
330
53E
100
AcDbEntity
  8
0
100
AcDbBlockBegin
  2
*D2577
 70
     1
 71
     0
 10
0.0
 20
0.0
 30
0.0
  3
*D2577
  1

  0
LINE
  5
53F
330
53E
100
AcDbEntity
  8
1
  6
Continuous
 62
     2
100
AcDbLine
 10
386.9129135239647
 20
329.2581055425296
 30
0.0
 11
385.0254884710019
 21
326.9262336186349
 31
0.0
  0
LINE
  5
540
330
53E
100
AcDbEntity
  8
1
  6
Continuous
 62
     2
100
AcDbLine
 10
403.9453801971505
 20
323.228796367143
 30
0.0
 11
403.9453801971505
 21
320.228796367143
 31
0.0
  0
LINE
  5
541
330
53E
100
AcDbEntity
  8
1
  6
Continuous
 62
     2
100
AcDbLine
 10
403.9453801971505
 20
350.3013415468029
 30
0.0
 11
386.9129135239647
 21
329.2581055425296
 31
0.0
  0
LINE
  5
542
330
53E
100
AcDbEntity
  8
1
  6
Continuous
 62
     2
100
AcDbLine
 10
403.9453801971505
 20
324.990045175064
 30
0.0
 11
403.9453801971505
 21
323.228796367143
 31
0.0
  0
LINE
  5
543
330
53E
100
AcDbEntity
  8
1
  6
Continuous
 62
     2
100
AcDbLine
 10
403.9453801971505
 20
350.3013415468029
 30
0.0
 11
403.9453801971505
 21
338.585136713005
 31
0.0
  0
ARC
  5
544
330
53E
100
AcDbEntity
  8
1
  6
Continuous
 62
     2
100
AcDbCircle
 10
403.9453801971505
 20
350.3013415468029
 30
0.0
 40
27.07254517965993
100
AcDbArc
 50
-162.3198029696605
 51
-56.66702294363363
  0
SOLID
  5
545
330
53E
100
AcDbEntity
  8
1
 62
     2
100
AcDbTrace
 10
379.1169277446562
 20
336.4263340989556
 30
0.0
 11
381.2378435883991
 21
338.1998322289577
 31
0.0
 12
386.9129135239647
 22
329.2581055425296
 32
0.0
 13
386.9129135239647
 23
329.2581055425296
 33
0.0
  0
SOLID
  5
546
330
53E
100
AcDbEntity
  8
1
 62
     2
100
AcDbTrace
 10
413.9821719350153
 20
326.6086937796495
 30
0.0
 11
414.5149583706883
 21
323.8958137146035
 31
0.0
 12
403.9453801971505
 22
323.228796367143
 32
0.0
 13
403.9453801971505
 23
323.228796367143
 33
0.0
  0
MTEXT
  5
547
330
53E
100
AcDbEntity
  8
1
 62
     7
100
AcDbMText
 10
392.3953801971505
 20
326.228796367143
 30
0.0
 40
10.5
 41
0.0
 71
     7
 72
     1
  1
40{\Fgdt;~}
  7
CONVERTER_2
 11
0.9426798611666194
 21
-0.3336984856886275
 31
0.0
 73
     1
 44
0.60024009603842
  0
ENDBLK
  5
549
330
53E
100
AcDbEntity
  8
0
100
AcDbBlockEnd
  0
ENDSEC
  0
SECTION
  2
ENTITIES
  0
INSERT
  5
D4
330
1F
100
AcDbEntity
  8
1
100
AcDbBlockReference
  2
76-105-C4__1
 10
308.5
 20
744.0000000000002
 30
0.0
  0
INSERT
  5
D5
330
1F
100
AcDbEntity
  8
1
100
AcDbBlockReference
  2
30-302X__5
 10
1260.0
 20
375.0
 30
0.0
  0
INSERT
  5
D6
330
1F
100
AcDbEntity
  8
0
100
AcDbBlockReference
  2
32-25__6
 10
266.4485900044969
 20
674.8720289807661
 30
0.0
  0
INSERT
  5
D7
330
1F
100
AcDbEntity
  8
0
100
AcDbBlockReference
  2
73-1-21_5-MS11__7
 10
279.0
 20
694.5988383552631
 30
0.0
  0
INSERT
  5
D8
330
1F
100
AcDbEntity
  8
0
100
AcDbBlockReference
  2
92-53__8
 10
163.574689978551
 20
596.7052211851083
 30
0.0
  0
INSERT
  5
D9
330
1F
100
AcDbEntity
  8
1
100
AcDbBlockReference
  2
98-198__9
 10
118.5
 20
686.0
 30
0.0
  0
INSERT
  5
DA
330
1F
100
AcDbEntity
  8
1
100
AcDbBlockReference
  2
____10
 10
561.2500000000011
 20
676.0000000000005
 30
0.0
  0
INSERT
  5
DB
330
1F
100
AcDbEntity
  8
0
100
AcDbBlockReference
  2
32-16__11
 10
279.5
 20
630.0
 30
0.0
  0
INSERT
  5
DC
330
1F
100
AcDbEntity
  8
1
100
AcDbBlockReference
  2
35-276__12
 10
552.5574083019772
 20
709.245576420195
 30
0.0
  0
INSERT
  5
DD
330
1F
100
AcDbEntity
  8
0
100
AcDbBlockReference
  2
K7590-0-M1__13
 10
-319.3680853867004
 20
-80.39706618355712
 30
0.0
  0
INSERT
  5
DE
330
1F
100
AcDbEntity
  8
1
100
AcDbBlockReference
  2
84-364-M21__14
 10
430.4999999999991
 20
609.5
 30
0.0
  0
INSERT
  5
DF
330
1F
100
AcDbEntity
  8
1
100
AcDbBlockReference
  2
98-201__15
 10
118.5
 20
689.0
 30
0.0
  0
INSERT
  5
E0
330
1F
100
AcDbEntity
  8
0
100
AcDbBlockReference
  2
92-53__16
 10
49.2015869268243
 20
115.8160032925198
 30
0.0
  0
INSERT
  5
E1
330
1F
100
AcDbEntity
  8
0
100
AcDbBlockReference
  2
73-1-21_5-MS11__17
 10
149.742953337535
 20
316.3871285355417
 30
0.0
  0
INSERT
  5
E2
330
1F
100
AcDbEntity
  8
0
100
AcDbBlockReference
  2
32-16__18
 10
187.9711363123499
 20
208.8045996301831
 30
0.0
  0
INSERT
  5
E3
330
1F
100
AcDbEntity
  8
1
100
AcDbBlockReference
  2
35-276__19
 10
-90.0366722578101
 20
601.4821630225835
 30
0.0
  0
INSERT
  5
E4
330
1F
100
AcDbEntity
  8
0
100
AcDbBlockReference
  2
32-16__20
 10
272.9711363123502
 20
208.8045996301831
 30
0.0
  0
INSERT
  5
E5
330
1F
100
AcDbEntity
  8
1
100
AcDbBlockReference
  2
35-276__21
 10
-5.03667225780987
 20
601.4821630225835
 30
0.0
  0
INSERT
  5
E6
330
1F
100
AcDbEntity
  8
0
100
AcDbBlockReference
  2
32-25__22
 10
342.3350780510845
 20
264.0774234108632
 30
0.0
  0
INSERT
  5
E7
330
1F
100
AcDbEntity
  8
0
100
AcDbBlockReference
  2
73-1-21_5-MS11__23
 10
234.7429533375353
 20
316.3871285355417
 30
0.0
  0
INSERT
  5
E8
330
1F
100
AcDbEntity
  8
0
100
AcDbBlockReference
  2
92-53__24
 10
134.2015869268242
 20
115.8160032925198
 30
0.0
  0
INSERT
  5
E9
330
1F
100
AcDbEntity
  8
0
100
AcDbBlockReference
  2
32-25__25
 10
257.3350780510843
 20
264.0774234108632
 30
0.0
  0
INSERT
  5
EA
330
1F
100
AcDbEntity
  8
1
100
AcDbBlockReference
  2
30-302X__29
 10
1260.0
 20
0.0
 30
0.0
  0
INSERT
  5
EB
330
1F
100
AcDbEntity
  8
1
100
AcDbBlockReference
  2
76-105-C4__30
 10
308.5
 20
369.0000000000002
 30
0.0
  0
INSERT
  5
EC
330
1F
100
AcDbEntity
  8
1
100
AcDbBlockReference
  2
98-198__31
 10
113.5
 20
311.0
 30
0.0
  0
INSERT
  5
ED
330
1F
100
AcDbEntity
  8
1
100
AcDbBlockReference
  2
____32
 10
-78.37577226989109
 20
301.0
 30
0.0
  0
INSERT
  5
EE
330
1F
100
AcDbEntity
  8
0
100
AcDbBlockReference
  2
K7590-0-M1__33
 10
-324.3680853867004
 20
-455.3970661835571
 30
0.0
  0
INSERT
  5
EF
330
1F
100
AcDbEntity
  8
1
100
AcDbBlockReference
  2
98-201__34
 10
113.5
 20
314.0
 30
0.0
  0
INSERT
  5
F0
330
1F
100
AcDbEntity
  8
0
100
AcDbBlockReference
  2
32-25__35
 10
266.4485900044969
 20
299.8720289807661
 30
0.0
  0
INSERT
  5
F1
330
1F
100
AcDbEntity
  8
0
100
AcDbBlockReference
  2
73-1-21_5-MS11__36
 10
279.0
 20
319.598838355263
 30
0.0
  0
INSERT
  5
F2
330
1F
100
AcDbEntity
  8
0
100
AcDbBlockReference
  2
92-53__37
 10
163.574689978551
 20
221.7052211851083
 30
0.0
  0
INSERT
  5
F3
330
1F
100
AcDbEntity
  8
1
100
AcDbBlockReference
  2
98-198__38
 10
118.5
 20
311.0
 30
0.0
  0
INSERT
  5
F4
330
1F
100
AcDbEntity
  8
1
100
AcDbBlockReference
  2
____39
 10
561.2500000000011
 20
301.0000000000004
 30
0.0
  0
INSERT
  5
F5
330
1F
100
AcDbEntity
  8
0
100
AcDbBlockReference
  2
32-16__40
 10
279.5
 20
255.0
 30
0.0
  0
INSERT
  5
F6
330
1F
100
AcDbEntity
  8
1
100
AcDbBlockReference
  2
35-276__41
 10
552.5574083019772
 20
334.245576420195
 30
0.0
  0
INSERT
  5
F7
330
1F
100
AcDbEntity
  8
0
100
AcDbBlockReference
  2
K7590-0-M1__42
 10
-319.3680853867004
 20
-455.3970661835571
 30
0.0
  0
INSERT
  5
F8
330
1F
100
AcDbEntity
  8
1
100
AcDbBlockReference
  2
98-201__43
 10
118.5
 20
314.0
 30
0.0
  0
INSERT
  5
F9
330
1F
100
AcDbEntity
  8
1
100
AcDbBlockReference
  2
_J__A4
 10
0.0
 20
0.0
 30
0.0
 41
3.0
 42
3.0
 43
3.0
  0
INSERT
  5
FA
330
1F
100
AcDbEntity
  8
1
100
AcDbBlockReference
  2
88-554-R21__44
 10
632.7499999999991
 20
662.8000000000002
 30
0.0
  0
INSERT
  5
FB
330
1F
100
AcDbEntity
  8
1
100
AcDbBlockReference
  2
84-364-M21__45
 10
425.4999999999992
 20
547.5
 30
0.0
  0
INSERT
  5
FC
330
1F
100
AcDbEntity
  8
1
100
AcDbBlockReference
  2
88-554-R21__46
 10
-252.7499999999991
 20
662.8000000000002
 30
0.0
  0
INSERT
  5
FD
330
1F
100
AcDbEntity
  8
1
100
AcDbBlockReference
  2
84-364-M21__47
 10
-45.49999999999913
 20
547.5
 30
0.0
  0
INSERT
  5
FE
330
1F
100
AcDbEntity
  8
1
100
AcDbBlockReference
  2
81-164-M21__48
 10
251.5000000000011
 20
547.5
 30
0.0
  0
INSERT
  5
FF
330
1F
100
AcDbEntity
  8
1
100
AcDbBlockReference
  2
81-164-M21__49
 10
128.4999999999989
 20
547.5
 30
0.0
  0
LINE
  5
3DC
330
1F
100
AcDbEntity
  8
1
  6
Continuous
 62
     2
100
AcDbLine
 10
365.0
 20
559.0
 30
0.0
 11
365.0
 21
534.0
 31
0.0
  0
LINE
  5
3DD
330
1F
100
AcDbEntity
  8
1
  6
Continuous
 62
     2
100
AcDbLine
 10
306.0
 20
559.0
 30
0.0
 11
365.0
 21
559.0
 31
0.0
  0
LINE
  5
3DE
330
1F
100
AcDbEntity
  8
1
  6
Continuous
 62
     2
100
AcDbLine
 10
306.0
 20
534.0
 30
0.0
 11
600.0
 21
534.0
 31
0.0
  0
LINE
  5
3DF
330
1F
100
AcDbEntity
  8
1
  6
Continuous
 62
     2
100
AcDbLine
 10
306.0
 20
861.0000000000009
 30
0.0
 11
306.0
 21
534.0
 31
0.0
  0
LINE
  5
3E0
330
1F
100
AcDbEntity
  8
1
  6
DASH_CENTER
 62
     2
100
AcDbLine
 10
502.0
 20
752.0
 30
0.0
 11
548.0
 21
752.0
 31
0.0
  0
LINE
  5
3E1
330
1F
100
AcDbEntity
  8
1
  6
DASH_CENTER
 62
     2
100
AcDbLine
 10
525.0
 20
775.0
 30
0.0
 11
525.0
 21
623.0000000000005
 31
0.0
  0
LINE
  5
3E2
330
1F
100
AcDbEntity
  8
1
  6
DASH_CENTER
 62
     2
100
AcDbLine
 10
552.9999999999991
 20
714.5000000000002
 30
0.0
 11
501.9999999999991
 21
714.5000000000002
 31
0.0
  0
LINE
  5
3E3
330
1F
100
AcDbEntity
  8
1
  6
DASH_CENTER
 62
     2
100
AcDbLine
 10
190.0
 20
311.0
 30
0.0
 11
190.0
 21
423.6476151587624
 31
0.0
  0
LINE
  5
3E4
330
1F
100
AcDbEntity
  8
1
  6
DASH_CENTER
 62
     2
100
AcDbLine
 10
190.0
 20
377.0
 30
0.0
 11
301.5
 21
377.0
 31
0.0
  0
LINE
  5
3E5
330
1F
100
AcDbEntity
  8
1
  6
DASH_CENTER
 62
     2
100
AcDbLine
 10
78.5
 20
377.0
 30
0.0
 11
190.0
 21
377.0
 31
0.0
  0
LINE
  5
3E6
330
1F
100
AcDbEntity
  8
1
  6
DASH_CENTER
 62
     2
100
AcDbLine
 10
147.5
 20
248.0
 30
0.0
 11
147.5
 21
317.0
 31
0.0
  0
LINE
  5
3E7
330
1F
100
AcDbEntity
  8
1
  6
DASH_CENTER
 62
     2
100
AcDbLine
 10
232.5
 20
317.0
 30
0.0
 11
232.5
 21
248.0
 31
0.0
  0
LINE
  5
3E8
330
1F
100
AcDbEntity
  8
1
  6
DASH_CENTER
 62
     2
100
AcDbLine
 10
552.9999999999991
 20
339.5000000000002
 30
0.0
 11
501.9999999999991
 21
339.5000000000002
 31
0.0
  0
LINE
  5
3E9
330
1F
100
AcDbEntity
  8
1
  6
DASH_CENTER
 62
     2
100
AcDbLine
 10
525.0
 20
400.0
 30
0.0
 11
525.0
 21
248.0000000000004
 31
0.0
  0
LINE
  5
3EA
330
1F
100
AcDbEntity
  8
1
  6
DASH_CENTER
 62
     2
100
AcDbLine
 10
502.0
 20
377.0
 30
0.0
 11
548.0
 21
377.0
 31
0.0
  0
LINE
  5
3EB
330
1F
100
AcDbEntity
  8
1
  6
Continuous
 62
     2
100
AcDbLine
 10
272.1035412526716
 20
334.5000000000005
 30
0.0
 11
294.1035412526716
 21
334.5000000000005
 31
0.0
  0
LINE
  5
3EC
330
1F
100
AcDbEntity
  8
1
  6
Continuous
 62
     2
100
AcDbLine
 10
491.238636580303
 20
377.0
 30
0.0
 11
469.238636580303
 21
377.0
 31
0.0
  0
LINE
  5
3ED
330
1F
100
AcDbEntity
  8
1
  6
Continuous
 62
     2
100
AcDbLine
 10
509.3656261788231
 20
401.0795298028035
 30
0.0
 11
487.3656261788231
 21
401.0795298028035
 31
0.0
  0
LINE
  5
3EE
330
1F
100
AcDbEntity
  8
1
  6
Continuous
 62
     2
100
AcDbLine
 10
87.89645874732838
 20
334.5000000000005
 30
0.0
 11
109.8964587473284
 21
334.5000000000005
 31
0.0
  0
LINE
  5
3EF
330
1F
100
AcDbEntity
  8
1
  6
DASH_CENTER
 62
     2
100
AcDbLine
 10
190.0
 20
690.0
 30
0.0
 11
301.5
 21
690.0
 31
0.0
  0
LINE
  5
3F0
330
1F
100
AcDbEntity
  8
1
  6
DASH_CENTER
 62
     2
100
AcDbLine
 10
78.5
 20
690.0
 30
0.0
 11
190.0
 21
690.0
 31
0.0
  0
LINE
  5
3F1
330
1F
100
AcDbEntity
  8
1
  6
DASH_CENTER
 62
     2
100
AcDbLine
 10
190.0
 20
559.9453801971505
 30
0.0
 11
190.0
 21
731.0
 31
0.0
  0
ARC
  5
3F2
330
1F
100
AcDbEntity
  8
1
  6
Continuous
 62
     2
100
AcDbCircle
 10
525.0
 20
377.0
 30
0.0
 40
30.00000000000005
100
AcDbArc
 50
150.0000000000001
 51
180.0
  0
ARC
  5
3F3
330
1F
100
AcDbEntity
  8
1
  6
Continuous
 62
     2
100
AcDbCircle
 10
525.0
 20
377.0
 30
0.0
 40
30.0
100
AcDbArc
 50
90.0
 51
119.9999999999999
  0
SOLID
  5
3F4
330
1F
100
AcDbEntity
  8
1
 62
     2
100
AcDbTrace
 10
405.911742394526
 20
648.7219981230792
 30
0.0
 11
408.3060449495554
 21
650.1043493477469
 31
0.0
 12
412.3588936720408
 22
640.3199069956764
 32
0.0
 13
412.3588936720408
 23
640.3199069956764
 33
0.0
  0
LEADER
  5
3F5
330
1F
100
AcDbEntity
  8
1
  6
Continuous
 62
     2
100
AcDbLeader
  3
Standard
 71
     0
 76
     3
 10
412.3588936720408
 20
640.3199069956764
 30
0.0
 10
391.7589823712835
 20
676.0000000000005
 30
0.0
 10
367.586824085294
 20
676.0000000000005
 30
0.0
  0
SOLID
  5
3F6
330
1F
100
AcDbEntity
  8
1
 62
     2
100
AcDbTrace
 10
249.424651277515
 20
270.5633444975009
 30
0.0
 11
247.0303487224856
 21
269.1809932728332
 31
0.0
 12
242.9775
 22
278.9654356249035
 32
0.0
 13
242.9775
 23
278.9654356249035
 33
0.0
  0
LEADER
  5
3F7
330
1F
100
AcDbEntity
  8
1
  6
Continuous
 62
     2
100
AcDbLeader
  3
Standard
 71
     0
 76
     3
 10
242.9775
 20
278.9654356249035
 30
0.0
 10
276.4438598617335
 20
221.0000000000001
 30
0.0
 10
319.3601908156476
 20
221.0000000000001
 30
0.0
  0
SOLID
  5
3F8
330
1F
100
AcDbEntity
  8
1
 62
     2
100
AcDbTrace
 10
503.5686894404752
 20
285.0832492007715
 30
0.0
 11
501.1743868854458
 21
286.4656004254392
 31
0.0
 12
507.6215381629606
 22
294.8676915528419
 32
0.0
 13
507.6215381629606
 23
294.8676915528419
 33
0.0
  0
LEADER
  5
3F9
330
1F
100
AcDbEntity
  8
1
  6
Continuous
 62
     2
100
AcDbLeader
  3
Standard
 71
     0
 76
     3
 10
507.6215381629606
 20
294.8676915528419
 30
0.0
 10
479.9851135594404
 20
247.0000000000003
 30
0.0
 10
407.7927361271212
 20
247.0000000000003
 30
0.0
  0
SOLID
  5
3FA
330
1F
100
AcDbEntity
  8
1
 62
     2
100
AcDbTrace
 10
514.899561364431
 20
403.8153439310589
 30
0.0
 11
514.4194758223126
 21
406.5380443379361
 31
0.0
 12
525.0
 22
407.0
 32
0.0
 13
525.0
 23
407.0
 33
0.0
  0
LEADER
  5
3FB
330
1F
100
AcDbEntity
  8
1
  6
Continuous
 62
     2
100
AcDbLeader
  3
Standard
 71
     0
 76
     2
 10
525.0
 20
407.0
 30
0.0
 10
514.7393957002299
 20
405.1907786235772
 30
0.0
  0
SOLID
  5
3FC
330
1F
100
AcDbEntity
  8
1
 62
     2
100
AcDbTrace
 10
495.4619556620639
 20
387.5805241776874
 30
0.0
 11
498.1846560689411
 21
387.1004386355691
 31
0.0
 12
495.0
 22
377.0
 32
0.0
 13
495.0
 23
377.0
 33
0.0
  0
LEADER
  5
3FD
330
1F
100
AcDbEntity
  8
1
  6
Continuous
 62
     2
100
AcDbLeader
  3
Standard
 71
     0
 76
     2
 10
495.0
 20
377.0
 30
0.0
 10
496.8092213764227
 20
387.2606042997701
 30
0.0
  0
MTEXT
  5
3FE
330
1F
100
AcDbEntity
  8
1
 62
     7
100
AcDbMText
 10
352.48
 20
571.5
 30
0.0
 40
10.5
 41
0.0
 71
     4
 72
     1
  1
※リム幅+A寸法は100以下\P　設置可能な浴槽のリム幅は最大80
  7
CONVERTER_1
 73
     1
 44
0.7202881152461
  0
MTEXT
  5
3FF
330
1F
100
AcDbEntity
  8
1
 62
     7
100
AcDbMText
 10
378.9959243834149
 20
685.0000000000005
 30
0.0
 40
10.5
 41
0.0
 71
     5
 72
     1
  1
浴槽
  7
CONVERTER_1
 73
     1
 44
0.7202881152461
  0
MTEXT
  5
400
330
1F
100
AcDbEntity
  8
1
 62
     7
100
AcDbMText
 10
456.4563510599829
 20
821.5000000000005
 30
0.0
 40
10.5
 41
0.0
 71
     5
 72
     1
  1
(最大80)
  7
CONVERTER_1
 73
     1
 44
0.7202881152461
  0
MTEXT
  5
401
330
1F
100
AcDbEntity
  8
1
 62
     7
100
AcDbMText
 10
481.0
 20
546.5
 30
0.0
 40
10.5
 41
0.0
 71
     5
 72
     1
  1
※浴槽の背もたれ側には本水栓を施工禁止とする
  7
CONVERTER_1
 73
     1
 44
0.7202881152461
  0
MTEXT
  5
402
330
1F
100
AcDbEntity
  8
1
 62
     7
100
AcDbMText
 10
335.5
 20
546.5
 30
0.0
 40
10.5
 41
0.0
 71
     5
 72
     1
  1
施工条件
  7
CONVERTER_1
 73
     1
 44
0.7202881152461
  0
MTEXT
  5
403
330
1F
100
AcDbEntity
  8
1
 62
     7
100
AcDbMText
 10
222.0
 20
112.5
 30
0.0
 40
10.5
 41
0.0
 71
     4
 72
     1
  1
≪禁止事項≫浴槽の背もたれ側には本水栓を施工しないで下さい。
  7
CONVERTER_1
 73
     1
 44
0.7202881152461
  0
MTEXT
  5
405
330
1F
100
AcDbEntity
  8
1
 62
     7
100
AcDbMText
 10
281.25
 20
51.0
 30
0.0
 40
10.5
 41
0.0
 71
     5
 72
     1
  1
3
  7
CONVERTER_2
 73
     1
 44
0.7202881152461
  0
MTEXT
  5
406
330
1F
100
AcDbEntity
  8
1
 62
     7
100
AcDbMText
 10
255.75
 20
51.0
 30
0.0
 40
10.5
 41
0.0
 71
     5
 72
     1
  1
1
  7
CONVERTER_2
 73
     1
 44
0.7202881152461
  0
MTEXT
  5
407
330
1F
100
AcDbEntity
  8
1
 62
     7
100
AcDbMText
 10
171.0
 20
42.75
 30
0.0
 40
10.5
 41
0.0
 71
     5
 72
     1
  1
K7590-13
  7
CONVERTER_2
 73
     1
 44
0.90036014405762
  0
MTEXT
  5
408
330
1F
100
AcDbEntity
  8
1
 62
     7
100
AcDbMText
 10
171.0
 20
68.25
 30
0.0
 40
10.5
 41
0.0
 71
     5
 72
     1
  1
ツーバルブデッキ混合栓
  7
CONVERTER_1
 73
     1
 44
0.90036014405762
  0
MTEXT
  5
409
330
1F
100
AcDbEntity
  8
1
 62
     7
100
AcDbMText
 10
102.0
 20
112.5
 30
0.0
 40
10.5
 41
0.0
 71
     4
 72
     1
  1
JIS
  7
CONVERTER_2
 73
     1
 44
0.7202881152461
  0
MTEXT
  5
40A
330
1F
100
AcDbEntity
  8
1
 62
     7
100
AcDbMText
 10
102.0
 20
91.50000000000003
 30
0.0
 40
10.5
 41
0.0
 71
     4
 72
     1
  1
吐水口は固定式
  7
CONVERTER_1
 73
     1
 44
0.7202881152461
  0
MTEXT
  5
40B
330
1F
100
AcDbEntity
  8
1
 62
     7
100
AcDbMText
 10
281.7499999999993
 20
343.5000000000005
 30
0.0
 40
10.5
 41
0.0
 71
     5
 72
     1
  1
水側
  7
CONVERTER_1
 73
     1
 44
1.32052821128451
  0
MTEXT
  5
40C
330
1F
100
AcDbEntity
  8
1
 62
     7
100
AcDbMText
 10
298.4999999999987
 20
230.0000000000001
 30
0.0
 40
10.5
 41
0.0
 71
     5
 72
     1
  1
PJ1/2
  7
CONVERTER_2
 73
     1
 44
1.32052821128451
  0
MTEXT
  5
40D
330
1F
100
AcDbEntity
  8
1
 62
     7
100
AcDbMText
 10
446.7927361271212
 20
256.0000000000003
 30
0.0
 40
10.5
 41
0.0
 71
     5
 72
     1
  1
取付穴径
  7
CONVERTER_1
 73
     1
 44
0.7202881152461
  0
MTEXT
  5
40E
330
1F
100
AcDbEntity
  8
0
 62
     7
100
AcDbMText
 10
443.1393120698371
 20
238.0000000000003
 30
0.0
 40
10.5
 41
0.0
 71
     5
 72
     1
  1
{\Fgdt;n}23～{\Fgdt;n}27
  7
CONVERTER_1
 73
     1
 44
0.7202881152461
  0
MTEXT
  5
40F
330
1F
100
AcDbEntity
  8
1
 62
     7
100
AcDbMText
 10
480.056983984232
 20
386.0
 30
0.0
 40
10.5
 41
0.0
 71
     5
 72
     1
  1
吐水
  7
CONVERTER_1
 73
     1
 44
0.7202881152461
  0
MTEXT
  5
410
330
1F
100
AcDbEntity
  8
1
 62
     7
100
AcDbMText
 10
498.1839735827521
 20
409.0795298028035
 30
0.0
 40
10.5
 41
0.0
 71
     5
 72
     1
  1
止水
  7
CONVERTER_1
 73
     1
 44
0.7202881152461
  0
MTEXT
  5
411
330
1F
100
AcDbEntity
  8
1
 62
     7
100
AcDbMText
 10
98.25000000000043
 20
343.5000000000005
 30
0.0
 40
10.5
 41
0.0
 71
     5
 72
     1
  1
湯側
  7
CONVERTER_1
 73
     1
 44
1.32052821128451
  0
DIMENSION
  5
423
330
1F
100
AcDbEntity
  8
1
100
AcDbDimension
  2
*D051
 10
423.9400661641445
 20
829.0000000000005
 30
0.0
 11
354.25768918798
 21
837.2500000000005
 31
0.0
  1
最小15～最大50
 71
     5
 42
0.0
 53
0.00013888888889
  3
ME10_DIM_0
100
AcDbAlignedDimension
 13
403.9453801971505
 23
725.3013415468029
 33
0.0
 14
423.9400661641444
 24
706.0000000000002
 34
0.0
100
AcDbRotatedDimension
  0
DIMENSION
  5
430
330
1F
100
AcDbEntity
  8
1
100
AcDbDimension
  2
*D153
 10
423.9400661641444
 20
829.0000000000005
 30
0.0
 11
458.142248993454
 21
837.2500000000005
 31
0.0
  1
浴槽リム幅
 71
     5
 42
0.0
 53
0.00013888888889
  3
ME10_DIM_1
100
AcDbAlignedDimension
 13
493.9400661641445
 23
688.0000000000002
 33
0.0
 14
423.9400661641444
 24
706.0000000000002
 34
0.0
100
AcDbRotatedDimension
  0
DIMENSION
  5
43B
330
1F
100
AcDbEntity
  8
1
100
AcDbDimension
  2
*D254
 10
525.0
 20
596.0000000000005
 30
0.0
 11
510.017472180641
 21
604.2500000000005
 31
0.0
  1
A
 71
     5
 42
0.0
 53
0.00013888888889
  3
ME10_DIM_2
100
AcDbAlignedDimension
 13
493.9400661641445
 23
686.0000000000005
 33
0.0
 14
525.0
 24
623.0000000000005
 34
0.0
100
AcDbRotatedDimension
  0
DIMENSION
  5
446
330
1F
100
AcDbEntity
  8
1
100
AcDbDimension
  2
*D355
 10
525.0
 20
829.0000000000005
 30
0.0
 11
556.553791410779
 21
837.2500000000005
 31
0.0
  1
<>
 71
     5
 42
0.0
 53
0.00013888888889
  3
ME10_DIM_3
100
AcDbAlignedDimension
 13
585.0
 23
839.0000000000005
 33
0.0
 14
525.0
 24
775.0
 34
0.0
100
AcDbRotatedDimension
  0
DIMENSION
  5
451
330
1F
100
AcDbEntity
  8
1
100
AcDbDimension
  2
*D456
 10
525.0
 20
478.0000000000003
 30
0.0
 11
539.3157024701679
 21
486.2500000000003
 31
0.0
  1
<>
 71
     5
 42
0.0
 53
0.00013888888889
  3
ME10_DIM_4
100
AcDbAlignedDimension
 13
557.0
 23
374.0000000000004
 33
0.0
 14
525.0
 24
400.0
 34
0.0
100
AcDbRotatedDimension
  0
DIMENSION
  5
45F
330
1F
100
AcDbEntity
  8
1
100
AcDbDimension
  2
*D557
 10
525.0
 20
454.0000000000003
 30
0.0
 11
513.064073986552
 21
462.2500000000003
 31
0.0
  1
<>
 71
     5
 42
0.0
 53
0.00013888888889
  3
ME10_DIM_5
100
AcDbAlignedDimension
 13
504.9999999999999
 23
377.0
 33
0.0
 14
525.0
 24
400.0
 34
0.0
100
AcDbRotatedDimension
  0
DIMENSION
  5
46A
330
1F
100
AcDbEntity
  8
1
100
AcDbDimension
  2
*D658
 10
525.0
 20
478.0000000000003
 30
0.0
 11
468.6152939404289
 21
486.2500000000003
 31
0.0
  1
121
 71
     5
 42
0.0
 53
0.00013888888889
  3
ME10_DIM_6
100
AcDbAlignedDimension
 13
403.9453801971505
 23
350.3013415468029
 33
0.0
 14
525.0
 24
400.0
 34
0.0
100
AcDbRotatedDimension
  0
DIMENSION
  5
475
330
1F
100
AcDbEntity
  8
1
100
AcDbDimension
  2
*D759
 10
403.9453801971505
 20
502.0000000000003
 30
0.0
 11
481.442794222196
 21
510.2500000000003
 31
0.0
  1
153
 71
     5
 42
0.0
 53
0.00013888888889
  3
ME10_DIM_7
100
AcDbAlignedDimension
 13
557.0
 23
374.0000000000004
 33
0.0
 14
403.9453801971505
 24
350.3013415468029
 34
0.0
100
AcDbRotatedDimension
  0
DIMENSION
  5
482
330
1F
100
AcDbEntity
  8
1
100
AcDbDimension
  2
*D860
 10
550.0
 20
327.881812189853
 30
0.0
 11
572.400770147627
 21
336.131812189853
 31
0.0
  1
<>
 71
     5
 42
0.0
 53
0.00013888888889
  3
ME10_DIM_8
100
AcDbAlignedDimension
 13
557.0
 23
314.0000000000004
 33
0.0
 14
550.0
 24
314.0000000000004
 34
0.0
100
AcDbRotatedDimension
  0
DIMENSION
  5
48F
330
1F
100
AcDbEntity
  8
1
100
AcDbDimension
  2
*D961
 10
585.2500000000068
 20
301.0000000000005
 30
0.0
 11
577.0000000000068
 21
250.847961103057
 31
0.0
  1
最大35 最小5
 71
     5
 42
0.0
 53
90.0
  3
ME10_DIM_9
100
AcDbAlignedDimension
 13
561.25
 23
311.0000000000004
 33
0.0
 14
561.2500000000011
 24
301.0000000000003
 34
0.0
 50
90.0
100
AcDbRotatedDimension
  0
DIMENSION
  5
49C
330
1F
100
AcDbEntity
  8
1
100
AcDbDimension
  2
*D1062
 10
485.0
 20
314.0000000000004
 30
0.0
 11
476.75
 21
326.898818382947
 31
0.0
  1
26
 71
     5
 42
0.0
 53
90.0
  3
ME10_DIM_10
100
AcDbAlignedDimension
 13
501.9999999999991
 23
339.5000000000002
 33
0.0
 14
504.9999999999999
 24
314.0000000000004
 34
0.0
 50
90.0
100
AcDbRotatedDimension
  0
DIMENSION
  5
4A7
330
1F
100
AcDbEntity
  8
1
100
AcDbDimension
  2
*D1163
 10
465.0
 20
314.0000000000004
 30
0.0
 11
456.75
 21
357.199300792813
 31
0.0
  1
<>
 71
     5
 42
0.0
 53
90.0
  3
ME10_DIM_11
100
AcDbAlignedDimension
 13
525.0
 23
396.9999999999999
 33
0.0
 14
504.9999999999999
 24
314.0000000000004
 34
0.0
 50
90.0
100
AcDbRotatedDimension
  0
DIMENSION
  5
4B2
330
1F
100
AcDbEntity
  8
1
100
AcDbDimension
  2
*D1264
 10
438.9453801971504
 20
352.1006583046444
 30
0.0
 11
430.6953801971504
 21
333.11118984552
 31
0.0
  1
38
 71
     5
 42
0.0
 53
90.0
  3
ME10_DIM_12
100
AcDbAlignedDimension
 13
504.9999999999999
 23
314.0000000000004
 33
0.0
 14
404.9453801971505
 24
352.1006583046444
 34
0.0
 50
90.0
100
AcDbRotatedDimension
  0
DIMENSION
  5
4BD
330
1F
100
AcDbEntity
  8
1
100
AcDbDimension
  2
*D1365
 10
379.9453801971505
 20
424.0000000000004
 30
0.0
 11
371.6953801971505
 21
371.930537096173
 31
0.0
  1
<>
 71
     5
 42
0.0
 53
90.0
  3
ME10_DIM_13
100
AcDbAlignedDimension
 13
504.9999999999999
 23
314.0000000000004
 33
0.0
 14
507.0
 24
424.0000000000003
 34
0.0
 50
90.0
100
AcDbRotatedDimension
  0
DIMENSION
  5
4CA
330
1F
100
AcDbEntity
  8
1
100
AcDbDimension
  2
*D1466
 10
466.3953175325327
 20
404.8891266036852
 30
0.0
 11
459.3722533887914
 21
433.5534305254607
 31
0.0
 70
     1
  1
<>
 71
     5
 42
0.0
 53
-60.00000000000049
  3
ME10_DIM_14
100
AcDbAlignedDimension
 13
462.895317532533
 23
410.9513044301762
 33
0.0
 14
466.3953175325329
 24
404.8891266036852
 34
0.0
  0
DIMENSION
  5
4D7
330
1F
100
AcDbEntity
  8
1
100
AcDbDimension
  2
*D1567
 10
436.6296860675205
 20
383.5687823578821
 30
0.0
 11
425.4522584567773
 21
409.7242434405445
 31
0.0
 70
     1
  1
<>
 71
     5
 42
0.0
 53
-49.99999999999884
  3
ME10_DIM_15
100
AcDbAlignedDimension
 13
435.3441108481469
 23
385.1008712441196
 33
0.0
 14
436.62968606752
 24
383.5687823578817
 34
0.0
  0
DIMENSION
  5
4E4
330
1F
100
AcDbEntity
  8
1
100
AcDbDimension
  2
*D1668
 10
501.4529946162087
 20
271.0000000000003
 30
0.0
 11
435.6525688437059
 21
279.2500000000003
 31
0.0
 70
     1
  1
<>
 71
     5
 42
0.0
 52
60.00000000000001
 53
0.00013888888889
  3
ME10_DIM_16
100
AcDbAlignedDimension
 13
537.0
 23
291.0000000000004
 33
0.0
 14
513.0000000000011
 24
291.0000000000004
 34
0.0
  0
DIMENSION
  5
4EF
330
1F
100
AcDbEntity
  8
1
100
AcDbDimension
  2
*D1769
 10
328.4999999999987
 20
357.0
 30
0.0
 11
320.2499999999987
 21
377.0
 31
0.0
  1
<>
 71
     5
 42
0.0
 53
90.0
  3
ME10_DIM_17
100
AcDbAlignedDimension
 13
297.8097617856022
 23
396.9999999999999
 33
0.0
 14
297.8097617856022
 24
357.0
 34
0.0
 50
90.0
100
AcDbRotatedDimension
  0
DIMENSION
  5
4FB
330
1F
100
AcDbEntity
  8
1
100
AcDbDimension
  2
*D1870
 10
352.4999999999987
 20
376.9999999999999
 30
0.0
 11
344.2499999999987
 21
345.4321566013069
 31
0.0
  1
<>
 71
     5
 42
0.0
 53
90.0
  3
ME10_DIM_18
100
AcDbAlignedDimension
 13
265.0
 23
314.0
 33
0.0
 14
301.5
 24
377.0
 34
0.0
 50
90.0
100
AcDbRotatedDimension
  0
DIMENSION
  5
506
330
1F
100
AcDbEntity
  8
1
100
AcDbDimension
  2
*D1971
 10
352.4999999999987
 20
258.0
 30
0.0
 11
344.2499999999987
 21
288.885895338144
 31
0.0
  1
<>
 71
     5
 42
0.0
 53
90.0
  3
ME10_DIM_19
100
AcDbAlignedDimension
 13
265.0
 23
314.0
 33
0.0
 14
239.4282032302755
 24
258.0
 34
0.0
 50
90.0
100
AcDbRotatedDimension
  0
DIMENSION
  5
511
330
1F
100
AcDbEntity
  8
1
100
AcDbDimension
  2
*D2072
 10
147.5
 20
221.0000000000001
 30
0.0
 11
190.0
 21
229.2500000000001
 31
0.0
  1
<>
 71
     5
 42
0.0
 53
0.00013888888889
  3
ME10_DIM_20
100
AcDbAlignedDimension
 13
232.5
 23
248.0
 33
0.0
 14
147.5
 24
248.0
 34
0.0
100
AcDbRotatedDimension
  0
DIMENSION
  5
51C
330
1F
100
AcDbEntity
  8
1
100
AcDbDimension
  2
*D2173
 10
115.0
 20
173.0000000000001
 30
0.0
 11
190.0
 21
181.2500000000001
 31
0.0
  1
<>
 71
     5
 42
0.0
 53
0.00013888888889
  3
ME10_DIM_21
100
AcDbAlignedDimension
 13
265.0
 23
314.0
 33
0.0
 14
115.0
 24
314.0
 34
0.0
100
AcDbRotatedDimension
  0
DIMENSION
  5
527
330
1F
100
AcDbEntity
  8
1
100
AcDbDimension
  2
*D2274
 10
127.5000000000001
 20
197.0000000000001
 30
0.0
 11
190.0
 21
205.2500000000001
 31
0.0
  1
<>
 71
     5
 42
0.0
 53
0.00013888888889
  3
ME10_DIM_22
100
AcDbAlignedDimension
 13
252.4999999999997
 23
314.0000000000001
 33
0.0
 14
127.5000000000001
 24
314.0000000000001
 34
0.0
100
AcDbRotatedDimension
  0
DIMENSION
  5
532
330
1F
100
AcDbEntity
  8
1
100
AcDbDimension
  2
*D2375
 10
115.0
 20
450.6476151587626
 30
0.0
 11
190.0
 21
458.8976151587626
 31
0.0
  1
<>
 71
     5
 42
0.0
 53
0.00013888888889
  3
ME10_DIM_23
100
AcDbAlignedDimension
 13
265.0
 23
420.1476151587626
 33
0.0
 14
115.0
 24
420.1476151587626
 34
0.0
100
AcDbRotatedDimension
  0
DIMENSION
  5
53D
330
1F
100
AcDbEntity
  8
1
100
AcDbDimension
  2
*D2476
 10
81.50000000000129
 20
474.6476151587626
 30
0.0
 11
190.0
 21
482.8976151587626
 31
0.0
  1
<>
 71
     5
 42
0.0
 53
0.00013888888889
  3
ME10_DIM_24
100
AcDbAlignedDimension
 13
298.4999999999987
 23
377.0
 33
0.0
 14
81.50000000000129
 24
377.0
 34
0.0
100
AcDbRotatedDimension
  0
DIMENSION
  5
54B
330
1F
100
AcDbEntity
  8
1
100
AcDbDimension
  2
*D2577
 10
394.9113128669611
 20
324.780598415414
 30
0.0
 11
403.9453801971505
 21
331.478796367143
 31
0.0
 70
     5
  1
40^N0^O
 71
     5
 42
0.0
  3
ME10_DIM_25
100
AcDb3PointAngularDimension
 13
402.2421335298319
 23
348.1970179463756
 33
0.0
 14
403.9453801971505
 24
347.594087028837
 34
0.0
 15
403.9453801971505
 25
350.3013415468029
 35
0.0
  0
ENDSEC
  0
SECTION
  2
OBJECTS
  0
DICTIONARY
  5
C
330
0
100
AcDbDictionary
281
     1
  3
ACAD_GROUP
350
D
  3
ACAD_LAYOUT
350
1A
  3
ACAD_MLINESTYLE
350
17
  3
ACAD_PLOTSETTINGS
350
19
  3
ACAD_PLOTSTYLENAME
350
E
  3
ACAD_TABLESTYLE
350
2A
  3
AcDbVariableDictionary
350
2C
  0
DICTIONARY
  5
D
102
{ACAD_REACTORS
330
C
102
}
330
C
100
AcDbDictionary
281
     1
  0
DICTIONARY
  5
1A
102
{ACAD_REACTORS
330
C
102
}
330
C
100
AcDbDictionary
281
     1
  3
Layout1
350
1E
  3
Layout2
350
26
  3
Model
350
22
  0
DICTIONARY
  5
17
102
{ACAD_REACTORS
330
C
102
}
330
C
100
AcDbDictionary
281
     1
  3
Standard
350
18
  0
DICTIONARY
  5
19
102
{ACAD_REACTORS
330
C
102
}
330
C
100
AcDbDictionary
281
     1
  0
ACDBDICTIONARYWDFLT
  5
E
102
{ACAD_REACTORS
330
C
102
}
330
C
100
AcDbDictionary
281
     1
  3
Normal
350
F
100
AcDbDictionaryWithDefault
340
F
  0
DICTIONARY
  5
2A
102
{ACAD_REACTORS
330
C
102
}
330
C
100
AcDbDictionary
281
     1
  3
Standard
350
2B
  0
DICTIONARY
  5
2C
102
{ACAD_REACTORS
330
C
102
}
330
C
100
AcDbDictionary
281
     1
  3
CTABLESTYLE
350
2D
  0
LAYOUT
  5
1E
102
{ACAD_REACTORS
330
1A
102
}
330
1A
100
AcDbPlotSettings
  1

  2

  4

  6

 40
0.0
 41
0.0
 42
0.0
 43
0.0
 44
0.0
 45
0.0
 46
0.0
 47
0.0
 48
0.0
 49
0.0
140
0.0
141
0.0
142
1.0
143
1.0
 70
   688
 72
     0
 73
     0
 74
     5
  7

 75
    16
147
1.0
148
0.0
149
0.0
100
AcDbLayout
  1
Layout1
 70
     1
 71
     1
 10
0.0
 20
0.0
 11
12.0
 21
9.0
 12
0.0
 22
0.0
 32
0.0
 14
1.00000000000000E+20
 24
1.00000000000000E+20
 34
1.00000000000000E+20
 15
-1.00000000000000E+20
 25
-1.00000000000000E+20
 35
-1.00000000000000E+20
146
0.0
 13
0.0
 23
0.0
 33
0.0
 16
1.0
 26
0.0
 36
0.0
 17
0.0
 27
1.0
 37
0.0
 76
     0
330
1B
  0
LAYOUT
  5
26
102
{ACAD_REACTORS
330
1A
102
}
330
1A
100
AcDbPlotSettings
  1

  2

  4

  6

 40
0.0
 41
0.0
 42
0.0
 43
0.0
 44
0.0
 45
0.0
 46
0.0
 47
0.0
 48
0.0
 49
0.0
140
0.0
141
0.0
142
1.0
143
1.0
 70
   688
 72
     0
 73
     0
 74
     5
  7

 75
    16
147
1.0
148
0.0
149
0.0
100
AcDbLayout
  1
Layout2
 70
     1
 71
     2
 10
0.0
 20
0.0
 11
0.0
 21
0.0
 12
0.0
 22
0.0
 32
0.0
 14
0.0
 24
0.0
 34
0.0
 15
0.0
 25
0.0
 35
0.0
146
0.0
 13
0.0
 23
0.0
 33
0.0
 16
1.0
 26
0.0
 36
0.0
 17
0.0
 27
1.0
 37
0.0
 76
     0
330
23
  0
LAYOUT
  5
22
102
{ACAD_REACTORS
330
1A
102
}
330
1A
100
AcDbPlotSettings
  1

  2

  4

  6

 40
0.0
 41
0.0
 42
0.0
 43
0.0
 44
0.0
 45
0.0
 46
0.0
 47
0.0
 48
0.0
 49
0.0
140
0.0
141
0.0
142
1.0
143
1.0
 70
  1712
 72
     0
 73
     0
 74
     0
  7

 75
     0
147
1.0
148
0.0
149
0.0
100
AcDbLayout
  1
Model
 70
     1
 71
     0
 10
0.0
 20
0.0
 11
0.0
 21
0.0
 12
0.0
 22
0.0
 32
0.0
 14
0.0
 24
0.0
 34
0.0
 15
630.0
 25
891.0
 35
0.0
146
0.0
 13
0.0
 23
0.0
 33
0.0
 16
1.0
 26
0.0
 36
0.0
 17
0.0
 27
1.0
 37
0.0
 76
     0
330
1F
  0
MLINESTYLE
  5
18
102
{ACAD_REACTORS
330
17
102
}
330
17
100
AcDbMlineStyle
  2
Standard
 70
     0
  3

 62
   256
 51
90.0
 52
90.0
 71
     2
 49
0.5
 62
   256
  6
BYLAYER
 49
-0.5
 62
   256
  6
BYLAYER
  0
ACDBPLACEHOLDER
  5
F
102
{ACAD_REACTORS
330
E
102
}
330
E
  0
TABLESTYLE
  5
2B
102
{ACAD_REACTORS
330
2A
102
}
330
2A
100
AcDbTableStyle
  3
Standard
 70
     0
 71
     0
 40
0.06
 41
0.06
280
     0
281
     0
  7
Standard
140
0.18
170
     2
 62
     0
 63
     7
283
     0
274
    -2
284
     1
 64
     0
275
    -2
285
     1
 65
     0
276
    -2
286
     1
 66
     0
277
    -2
287
     1
 67
     0
278
    -2
288
     1
 68
     0
279
    -2
289
     1
 69
     0
  7
Standard
140
0.25
170
     5
 62
     0
 63
     7
283
     0
274
    -2
284
     1
 64
     0
275
    -2
285
     1
 65
     0
276
    -2
286
     1
 66
     0
277
    -2
287
     1
 67
     0
278
    -2
288
     1
 68
     0
279
    -2
289
     1
 69
     0
  7
Standard
140
0.18
170
     5
 62
     0
 63
     7
283
     0
274
    -2
284
     1
 64
     0
275
    -2
285
     1
 65
     0
276
    -2
286
     1
 66
     0
277
    -2
287
     1
 67
     0
278
    -2
288
     1
 68
     0
279
    -2
289
     1
 69
     0
  0
DICTIONARYVAR
  5
2D
102
{ACAD_REACTORS
330
2C
102
}
330
2C
100
DictionaryVariables
280
     0
  1
Standard
  0
ENDSEC
  0
EOF
