  0
SECTION
  2
HEADER
  9
$ACADVER
  1
AC1015
  9
$ACADMAINTVER
 70
     6
  9
$DWGCODEPAGE
  3
ANSI_932
  9
$INSBASE
 10
0.0
 20
0.0
 30
0.0
  9
$EXTMIN
 10
0.0
 20
0.0
 30
0.0
  9
$EXTMAX
 10
1050.0
 20
1485.0
 30
0.0
  9
$LIMMIN
 10
0.0
 20
0.0
  9
$LIMMAX
 10
12.0
 20
9.0
  9
$ORTHOMODE
 70
     0
  9
$REGENMODE
 70
     1
  9
$FILLMODE
 70
     1
  9
$QTEXTMODE
 70
     0
  9
$MIRRTEXT
 70
     1
  9
$LTSCALE
 40
1.0
  9
$ATTMODE
 70
     1
  9
$TEXTSIZE
 40
0.2
  9
$TRACEWID
 40
0.05
  9
$TEXTSTYLE
  7
Standard
  9
$CLAYER
  8
0
  9
$CELTYPE
  6
ByLayer
  9
$CECOLOR
 62
   256
  9
$CELTSCALE
 40
1.0
  9
$DISPSILH
 70
     0
  9
$DIMSCALE
 40
1.0
  9
$DIMASZ
 40
0.18
  9
$DIMEXO
 40
0.0625
  9
$DIMDLI
 40
0.38
  9
$DIMRND
 40
0.0
  9
$DIMDLE
 40
0.0
  9
$DIMEXE
 40
0.18
  9
$DIMTP
 40
0.0
  9
$DIMTM
 40
0.0
  9
$DIMTXT
 40
0.18
  9
$DIMCEN
 40
0.09
  9
$DIMTSZ
 40
0.0
  9
$DIMTOL
 70
     0
  9
$DIMLIM
 70
     0
  9
$DIMTIH
 70
     1
  9
$DIMTOH
 70
     1
  9
$DIMSE1
 70
     0
  9
$DIMSE2
 70
     0
  9
$DIMTAD
 70
     0
  9
$DIMZIN
 70
     0
  9
$DIMBLK
  1

  9
$DIMASO
 70
     1
  9
$DIMSHO
 70
     1
  9
$DIMPOST
  1

  9
$DIMAPOST
  1

  9
$DIMALT
 70
     0
  9
$DIMALTD
 70
     2
  9
$DIMALTF
 40
25.4
  9
$DIMLFAC
 40
1.0
  9
$DIMTOFL
 70
     0
  9
$DIMTVP
 40
0.0
  9
$DIMTIX
 70
     0
  9
$DIMSOXD
 70
     0
  9
$DIMSAH
 70
     0
  9
$DIMBLK1
  1

  9
$DIMBLK2
  1

  9
$DIMSTYLE
  2
Standard
  9
$DIMCLRD
 70
     0
  9
$DIMCLRE
 70
     0
  9
$DIMCLRT
 70
     0
  9
$DIMTFAC
 40
1.0
  9
$DIMGAP
 40
0.09
  9
$DIMJUST
 70
     0
  9
$DIMSD1
 70
     0
  9
$DIMSD2
 70
     0
  9
$DIMTOLJ
 70
     1
  9
$DIMTZIN
 70
     0
  9
$DIMALTZ
 70
     0
  9
$DIMALTTZ
 70
     0
  9
$DIMUPT
 70
     0
  9
$DIMDEC
 70
     4
  9
$DIMTDEC
 70
     4
  9
$DIMALTU
 70
     2
  9
$DIMALTTD
 70
     2
  9
$DIMTXSTY
  7
Standard
  9
$DIMAUNIT
 70
     0
  9
$DIMADEC
 70
     0
  9
$DIMALTRND
 40
0.0
  9
$DIMAZIN
 70
     0
  9
$DIMDSEP
 70
    46
  9
$DIMATFIT
 70
     3
  9
$DIMFRAC
 70
     0
  9
$DIMLDRBLK
  1

  9
$DIMLUNIT
 70
     2
  9
$DIMLWD
 70
    -2
  9
$DIMLWE
 70
    -2
  9
$DIMTMOVE
 70
     0
  9
$LUNITS
 70
     2
  9
$LUPREC
 70
     4
  9
$SKETCHINC
 40
0.1
  9
$FILLETRAD
 40
0.5
  9
$AUNITS
 70
     0
  9
$AUPREC
 70
     0
  9
$MENU
  1
.
  9
$ELEVATION
 40
0.0
  9
$PELEVATION
 40
0.0
  9
$THICKNESS
 40
0.0
  9
$LIMCHECK
 70
     0
  9
$CHAMFERA
 40
0.5
  9
$CHAMFERB
 40
0.5
  9
$CHAMFERC
 40
1.0
  9
$CHAMFERD
 40
0.0
  9
$SKPOLY
 70
     0
  9
$TDCREATE
 40
2456573.61431434
  9
$TDUCREATE
 40
2456573.23931434
  9
$TDUPDATE
 40
2456573.614315602
  9
$TDUUPDATE
 40
2456573.239315602
  9
$TDINDWG
 40
0.0000000116
  9
$TDUSRTIMER
 40
0.0000000116
  9
$USRTIMER
 70
     1
  9
$ANGBASE
 50
0.0
  9
$ANGDIR
 70
     0
  9
$PDMODE
 70
     0
  9
$PDSIZE
 40
0.0
  9
$PLINEWID
 40
0.0
  9
$SPLFRAME
 70
     0
  9
$SPLINETYPE
 70
     6
  9
$SPLINESEGS
 70
     8
  9
$HANDSEED
  5
47B
  9
$SURFTAB1
 70
     6
  9
$SURFTAB2
 70
     6
  9
$SURFTYPE
 70
     6
  9
$SURFU
 70
     6
  9
$SURFV
 70
     6
  9
$UCSBASE
  2

  9
$UCSNAME
  2

  9
$UCSORG
 10
0.0
 20
0.0
 30
0.0
  9
$UCSXDIR
 10
1.0
 20
0.0
 30
0.0
  9
$UCSYDIR
 10
0.0
 20
1.0
 30
0.0
  9
$UCSORTHOREF
  2

  9
$UCSORTHOVIEW
 70
     0
  9
$UCSORGTOP
 10
0.0
 20
0.0
 30
0.0
  9
$UCSORGBOTTOM
 10
0.0
 20
0.0
 30
0.0
  9
$UCSORGLEFT
 10
0.0
 20
0.0
 30
0.0
  9
$UCSORGRIGHT
 10
0.0
 20
0.0
 30
0.0
  9
$UCSORGFRONT
 10
0.0
 20
0.0
 30
0.0
  9
$UCSORGBACK
 10
0.0
 20
0.0
 30
0.0
  9
$PUCSBASE
  2

  9
$PUCSNAME
  2

  9
$PUCSORG
 10
0.0
 20
0.0
 30
0.0
  9
$PUCSXDIR
 10
1.0
 20
0.0
 30
0.0
  9
$PUCSYDIR
 10
0.0
 20
1.0
 30
0.0
  9
$PUCSORTHOREF
  2

  9
$PUCSORTHOVIEW
 70
     0
  9
$PUCSORGTOP
 10
0.0
 20
0.0
 30
0.0
  9
$PUCSORGBOTTOM
 10
0.0
 20
0.0
 30
0.0
  9
$PUCSORGLEFT
 10
0.0
 20
0.0
 30
0.0
  9
$PUCSORGRIGHT
 10
0.0
 20
0.0
 30
0.0
  9
$PUCSORGFRONT
 10
0.0
 20
0.0
 30
0.0
  9
$PUCSORGBACK
 10
0.0
 20
0.0
 30
0.0
  9
$USERI1
 70
     0
  9
$USERI2
 70
     0
  9
$USERI3
 70
     0
  9
$USERI4
 70
     0
  9
$USERI5
 70
     0
  9
$USERR1
 40
18.1
  9
$USERR2
 40
0.0
  9
$USERR3
 40
0.0
  9
$USERR4
 40
0.0
  9
$USERR5
 40
0.0
  9
$WORLDVIEW
 70
     1
  9
$SHADEDGE
 70
     3
  9
$SHADEDIF
 70
    70
  9
$TILEMODE
 70
     1
  9
$MAXACTVP
 70
    64
  9
$PINSBASE
 10
0.0
 20
0.0
 30
0.0
  9
$PLIMCHECK
 70
     0
  9
$PEXTMIN
 10
1.00000000000000E+20
 20
1.00000000000000E+20
 30
1.00000000000000E+20
  9
$PEXTMAX
 10
-1.00000000000000E+20
 20
-1.00000000000000E+20
 30
-1.00000000000000E+20
  9
$PLIMMIN
 10
0.0
 20
0.0
  9
$PLIMMAX
 10
12.0
 20
9.0
  9
$UNITMODE
 70
     0
  9
$VISRETAIN
 70
     1
  9
$PLINEGEN
 70
     0
  9
$PSLTSCALE
 70
     1
  9
$TREEDEPTH
 70
  3020
  9
$CMLSTYLE
  2
Standard
  9
$CMLJUST
 70
     0
  9
$CMLSCALE
 40
1.0
  9
$PROXYGRAPHICS
 70
     1
  9
$MEASUREMENT
 70
     1
  9
$CELWEIGHT
370
    -1
  9
$ENDCAPS
280
     0
  9
$JOINSTYLE
280
     0
  9
$LWDISPLAY
290
     0
  9
$INSUNITS
 70
     4
  9
$HYPERLINKBASE
  1

  9
$STYLESHEET
  1

  9
$XEDIT
290
     1
  9
$CEPSNTYPE
380
     0
  9
$PSTYLEMODE
290
     1
  9
$FINGERPRINTGUID
  2
{E951C5C9-015E-44A8-93FD-44B6A58D199D}
  9
$VERSIONGUID
  2
{FAEB1C32-E019-11D5-929B-00C0DF256EC4}
  9
$EXTNAMES
290
     1
  9
$PSVPSCALE
 40
0.0
  9
$OLESTARTUP
290
     0
  0
ENDSEC
  0
SECTION
  2
CLASSES
  0
CLASS
  1
ACDBDICTIONARYWDFLT
  2
AcDbDictionaryWithDefault
  3
ObjectDBX Classes
 90
        0
280
     0
281
     0
  0
CLASS
  1
VISUALSTYLE
  2
AcDbVisualStyle
  3
ObjectDBX Classes
 90
     4095
280
     0
281
     0
  0
CLASS
  1
MATERIAL
  2
AcDbMaterial
  3
ObjectDBX Classes
 90
     1153
280
     0
281
     0
  0
CLASS
  1
DICTIONARYVAR
  2
AcDbDictionaryVar
  3
ObjectDBX Classes
 90
        0
280
     0
281
     0
  0
CLASS
  1
ACDBPLACEHOLDER
  2
AcDbPlaceHolder
  3
ObjectDBX Classes
 90
        0
280
     0
281
     0
  0
CLASS
  1
LAYOUT
  2
AcDbLayout
  3
ObjectDBX Classes
 90
        0
280
     0
281
     0
  0
ENDSEC
  0
SECTION
  2
TABLES
  0
TABLE
  2
VPORT
  5
8
330
0
100
AcDbSymbolTable
 70
     1
  0
VPORT
  5
29
330
8
100
AcDbSymbolTableRecord
100
AcDbViewportTableRecord
  2
*Active
 70
     0
 10
0.0
 20
0.0
 11
1.0
 21
1.0
 12
525.0
 22
742.5
 13
0.0
 23
0.0
 14
0.5
 24
0.5
 15
0.5
 25
0.5
 16
0.0
 26
0.0
 36
1.0
 17
0.0
 27
0.0
 37
0.0
 40
1633.5
 41
1.60267857142857
 42
50.0
 43
0.0
 44
0.0
 50
0.0
 51
0.0
 71
     0
 72
   100
 73
     1
 74
     3
 75
     0
 76
     0
 77
     0
 78
     0
281
     0
 65
     1
110
0.0
120
0.0
130
0.0
111
1.0
121
0.0
131
0.0
112
0.0
122
1.0
132
0.0
 79
     0
146
0.0
  0
ENDTAB
  0
TABLE
  2
LTYPE
  5
5
330
0
100
AcDbSymbolTable
 70
     8
  0
LTYPE
  5
14
330
5
100
AcDbSymbolTableRecord
100
AcDbLinetypeTableRecord
  2
ByBlock
 70
     0
  3

 72
    65
 73
     0
 40
0.0
  0
LTYPE
  5
15
330
5
100
AcDbSymbolTableRecord
100
AcDbLinetypeTableRecord
  2
ByLayer
 70
     0
  3

 72
    65
 73
     0
 40
0.0
  0
LTYPE
  5
16
330
5
100
AcDbSymbolTableRecord
100
AcDbLinetypeTableRecord
  2
Continuous
 70
     0
  3
Solid line
 72
    65
 73
     0
 40
0.0
  0
LTYPE
  5
3F
330
5
100
AcDbSymbolTableRecord
100
AcDbLinetypeTableRecord
  2
DASHED
 70
     0
  3
Dashed
 72
    65
 73
     2
 40
15.0
 49
7.0
 74
     0
 49
-8.0
 74
     0
  0
LTYPE
  5
40
330
5
100
AcDbSymbolTableRecord
100
AcDbLinetypeTableRecord
  2
DOTTED
 70
     0
  3
Dotted
 72
    65
 73
     2
 40
1.0
 49
0.0
 74
     0
 49
-1.0
 74
     0
  0
LTYPE
  5
41
330
5
100
AcDbSymbolTableRecord
100
AcDbLinetypeTableRecord
  2
DOT_CENTER
 70
     0
  3
Dot_Center
 72
    65
 73
     4
 40
14.0
 49
12.0
 74
     0
 49
-1.0
 74
     0
 49
0.0
 74
     0
 49
-1.0
 74
     0
  0
LTYPE
  5
42
330
5
100
AcDbSymbolTableRecord
100
AcDbLinetypeTableRecord
  2
LONG_DASHED
 70
     0
  3
Long_Dashed
 72
    65
 73
     2
 40
15.0
 49
10.0
 74
     0
 49
-5.0
 74
     0
  0
LTYPE
  5
43
330
5
100
AcDbSymbolTableRecord
100
AcDbLinetypeTableRecord
  2
DASH_CENTER
 70
     0
  3
Dash_Center
 72
    65
 73
     4
 40
14.0
 49
11.0
 74
     0
 49
-1.0
 74
     0
 49
1.0
 74
     0
 49
-1.0
 74
     0
  0
LTYPE
  5
44
330
5
100
AcDbSymbolTableRecord
100
AcDbLinetypeTableRecord
  2
PHANTOM
 70
     0
  3
Phantom
 72
    65
 73
     6
 40
13.0
 49
10.0
 74
     0
 49
-1.0
 74
     0
 49
0.0
 74
     0
 49
-1.0
 74
     0
 49
0.0
 74
     0
 49
-1.0
 74
     0
  0
LTYPE
  5
45
330
5
100
AcDbSymbolTableRecord
100
AcDbLinetypeTableRecord
  2
CENTER_DASH_DASH
 70
     0
  3
Center_Dash_Dash
 72
    65
 73
     6
 40
14.0
 49
9.0
 74
     0
 49
-1.0
 74
     0
 49
1.0
 74
     0
 49
-1.0
 74
     0
 49
1.0
 74
     0
 49
-1.0
 74
     0
  0
ENDTAB
  0
TABLE
  2
LAYER
  5
2
330
0
100
AcDbSymbolTable
 70
     2
  0
LAYER
  5
10
330
2
100
AcDbSymbolTableRecord
100
AcDbLayerTableRecord
  2
0
 70
     0
 62
     7
  6
Continuous
370
    -3
390
F
  0
LAYER
  5
46
330
2
100
AcDbSymbolTableRecord
100
AcDbLayerTableRecord
  2
1
 70
     0
 62
     7
  6
Continuous
370
    -3
390
F
  0
ENDTAB
  0
TABLE
  2
STYLE
  5
3
330
0
100
AcDbSymbolTable
 70
     3
  0
STYLE
  5
11
330
3
100
AcDbSymbolTableRecord
100
AcDbTextStyleTableRecord
  2
Standard
 70
     0
 40
0.0
 41
1.0
 50
0.0
 71
     0
 42
0.2
  3
txt
  4

  0
STYLE
  5
188
330
3
100
AcDbSymbolTableRecord
100
AcDbTextStyleTableRecord
  2
CONVERTER_11
 70
     0
 40
0.0
 41
0.89
 50
0.0
 71
     0
 42
0.2
  3
MS Mincho.ttf
  4

1001
ACAD
1000
MS Mincho
1071
    32785
  0
STYLE
  5
399
330
3
100
AcDbSymbolTableRecord
100
AcDbTextStyleTableRecord
  2
CONVERTER_12
 70
     0
 40
0.0
 41
0.9
 50
0.0
 71
     0
 42
0.2
  3
txt.shx
  4

  0
ENDTAB
  0
TABLE
  2
VIEW
  5
6
330
0
100
AcDbSymbolTable
 70
     0
  0
ENDTAB
  0
TABLE
  2
UCS
  5
7
330
0
100
AcDbSymbolTable
 70
     0
  0
ENDTAB
  0
TABLE
  2
APPID
  5
9
330
0
100
AcDbSymbolTable
 70
     1
  0
APPID
  5
12
330
9
100
AcDbSymbolTableRecord
100
AcDbRegAppTableRecord
  2
ACAD
 70
     0
  0
ENDTAB
  0
TABLE
  2
DIMSTYLE
  5
A
330
0
100
AcDbSymbolTable
 70
    15
100
AcDbDimStyleTable
  0
DIMSTYLE
105
27
330
A
100
AcDbSymbolTableRecord
100
AcDbDimStyleTableRecord
  2
Standard
 70
     0
178
     0
340
11
  0
DIMSTYLE
105
3B2
102
{ACAD_REACTORS
330
3B3
102
}
330
A
100
AcDbSymbolTableRecord
100
AcDbDimStyleTableRecord
  2
ME10_DIM_10
 70
     0
  3
最大<>
 41
17.5
 42
0.0
 44
5.0
 73
     0
 74
     0
 77
     1
 78
     8
140
17.5
147
5.0
172
     1
173
     1
174
     1
175
     1
176
     2
177
     2
271
     2
178
     7
271
     2
340
188
  0
DIMSTYLE
105
3BD
102
{ACAD_REACTORS
330
3BE
102
}
330
A
100
AcDbSymbolTableRecord
100
AcDbDimStyleTableRecord
  2
ME10_DIM_11
 70
     0
  3
最小<>
 41
17.5
 42
0.0
 44
5.0
 73
     0
 74
     0
 77
     1
 78
     8
140
17.5
147
5.0
172
     1
173
     1
174
     1
175
     1
176
     2
177
     2
271
     2
178
     7
271
     2
340
188
  0
DIMSTYLE
105
3C8
102
{ACAD_REACTORS
330
3C9
102
}
330
A
100
AcDbSymbolTableRecord
100
AcDbDimStyleTableRecord
  2
ME10_DIM_12
 70
     0
 41
17.5
 42
0.0
 44
5.0
 73
     0
 74
     0
 77
     1
 78
     8
140
17.5
147
5.0
172
     1
173
     1
174
     1
175
     1
176
     2
177
     2
271
     2
178
     7
271
     2
340
399
  0
DIMSTYLE
105
3D3
102
{ACAD_REACTORS
330
3D4
102
}
330
A
100
AcDbSymbolTableRecord
100
AcDbDimStyleTableRecord
  2
ME10_DIM_13
 70
     0
 41
17.5
 42
0.0
 44
5.0
 73
     0
 74
     0
 77
     1
 78
     8
140
17.5
147
5.0
172
     1
173
     1
174
     1
175
     1
176
     2
177
     2
271
     2
178
     7
271
     2
340
399
  0
DIMSTYLE
105
3E0
102
{ACAD_REACTORS
330
3E1
102
}
330
A
100
AcDbSymbolTableRecord
100
AcDbDimStyleTableRecord
  2
ME10_DIM_14
 70
     0
 41
17.5
 42
0.0
 44
5.0
 73
     0
 74
     0
 77
     1
 78
     8
140
17.5
147
5.0
172
     1
173
     1
174
     1
175
     1
176
     2
177
     2
271
     2
178
     7
271
     2
340
188
  0
DIMSTYLE
105
3EB
102
{ACAD_REACTORS
330
3EC
102
}
330
A
100
AcDbSymbolTableRecord
100
AcDbDimStyleTableRecord
  2
ME10_DIM_15
 70
     0
 41
17.5
 42
0.0
 44
5.0
 73
     0
 74
     0
 77
     1
 78
     8
140
17.5
147
5.0
172
     1
173
     1
174
     1
175
     1
176
     2
177
     2
271
     2
178
     7
271
     2
340
399
  0
DIMSTYLE
105
3F6
102
{ACAD_REACTORS
330
3F7
102
}
330
A
100
AcDbSymbolTableRecord
100
AcDbDimStyleTableRecord
  2
ME10_DIM_16
 70
     0
 41
17.5
 42
0.0
 44
5.0
 73
     0
 74
     0
 77
     1
 78
     8
140
17.5
147
5.0
172
     1
173
     1
174
     1
175
     1
176
     2
177
     2
271
     2
178
     7
271
     2
340
399
  0
DIMSTYLE
105
401
102
{ACAD_REACTORS
330
402
102
}
330
A
100
AcDbSymbolTableRecord
100
AcDbDimStyleTableRecord
  2
ME10_DIM_17
 70
     0
 41
17.5
 42
0.0
 44
5.0
 73
     0
 74
     0
 77
     1
 78
     8
140
17.5
147
5.0
172
     1
173
     1
174
     1
175
     1
176
     2
177
     2
271
     2
178
     7
271
     2
340
399
  0
DIMSTYLE
105
40C
102
{ACAD_REACTORS
330
40D
102
}
330
A
100
AcDbSymbolTableRecord
100
AcDbDimStyleTableRecord
  2
ME10_DIM_18
 70
     0
 41
17.5
 42
0.0
 44
5.0
 73
     0
 74
     0
 77
     1
 78
     8
140
17.5
147
5.0
172
     1
173
     1
174
     1
175
     1
176
     2
177
     2
271
     2
178
     7
271
     2
340
399
  0
DIMSTYLE
105
419
102
{ACAD_REACTORS
330
41A
102
}
330
A
100
AcDbSymbolTableRecord
100
AcDbDimStyleTableRecord
  2
ME10_DIM_19
 70
     0
  3
最大<>
 41
17.5
 42
0.0
 44
5.0
 73
     0
 74
     0
 77
     1
 78
     8
140
17.5
147
5.0
172
     1
173
     1
174
     1
175
     1
176
     2
177
     2
271
     2
178
     7
271
     2
340
188
  0
DIMSTYLE
105
424
102
{ACAD_REACTORS
330
425
102
}
330
A
100
AcDbSymbolTableRecord
100
AcDbDimStyleTableRecord
  2
ME10_DIM_20
 70
     0
 41
17.5
 42
0.0
 44
5.0
 73
     0
 74
     0
 77
     1
 78
     8
140
17.5
147
5.0
172
     1
173
     1
174
     1
175
     1
176
     2
177
     2
271
     2
178
     7
271
     2
340
399
  0
DIMSTYLE
105
42F
102
{ACAD_REACTORS
330
430
102
}
330
A
100
AcDbSymbolTableRecord
100
AcDbDimStyleTableRecord
  2
ME10_DIM_21
 70
     0
 41
17.5
 42
0.0
 44
5.0
 73
     0
 74
     0
 77
     1
 78
     8
140
17.5
147
5.0
172
     1
173
     1
174
     1
175
     1
176
     2
177
     2
271
     2
178
     7
271
     2
340
399
  0
DIMSTYLE
105
43C
102
{ACAD_REACTORS
330
43D
102
}
330
A
100
AcDbSymbolTableRecord
100
AcDbDimStyleTableRecord
  2
ME10_DIM_22
 70
     0
 41
17.5
 42
0.0
 44
5.0
 73
     0
 74
     0
 77
     1
 78
     8
140
17.5
147
5.0
172
     1
173
     1
174
     1
175
     1
176
     2
177
     2
271
     2
178
     7
271
     2
340
399
  0
DIMSTYLE
105
449
102
{ACAD_REACTORS
330
44A
102
}
330
A
100
AcDbSymbolTableRecord
100
AcDbDimStyleTableRecord
  2
ME10_DIM_23
 70
     0
 41
17.5
 42
0.0
 44
5.0
 73
     0
 74
     0
 77
     1
 78
     8
140
17.5
147
5.0
172
     1
173
     1
174
     1
175
     1
176
     2
177
     2
271
     2
178
     7
271
     2
340
399
  0
ENDTAB
  0
TABLE
  2
BLOCK_RECORD
  5
1
330
0
100
AcDbSymbolTable
 70
    38
  0
BLOCK_RECORD
  5
1F
330
1
100
AcDbSymbolTableRecord
100
AcDbBlockTableRecord
  2
*Model_Space
340
22
  0
BLOCK_RECORD
  5
1B
330
1
100
AcDbSymbolTableRecord
100
AcDbBlockTableRecord
  2
*Paper_Space
340
1E
  0
BLOCK_RECORD
  5
23
330
1
100
AcDbSymbolTableRecord
100
AcDbBlockTableRecord
  2
*Paper_Space0
340
26
  0
BLOCK_RECORD
  5
47
330
1
100
AcDbSymbolTableRecord
100
AcDbBlockTableRecord
  2
88-546A-M21
340
0
102
{BLKREFS
331
8F
102
}
  0
BLOCK_RECORD
  5
4A
330
1
100
AcDbSymbolTableRecord
100
AcDbBlockTableRecord
  2
84-360A-_色_
340
0
102
{BLKREFS
331
51
102
}
  0
BLOCK_RECORD
  5
4D
330
1
100
AcDbSymbolTableRecord
100
AcDbBlockTableRecord
  2
87-163-_色_
340
0
102
{BLKREFS
331
52
102
}
  0
BLOCK_RECORD
  5
50
330
1
100
AcDbSymbolTableRecord
100
AcDbBlockTableRecord
  2
87-163-M21
340
0
102
{BLKREFS
331
90
102
}
  0
BLOCK_RECORD
  5
55
330
1
100
AcDbSymbolTableRecord
100
AcDbBlockTableRecord
  2
開示A4
340
0
102
{BLKREFS
331
91
102
}
  0
BLOCK_RECORD
  5
58
330
1
100
AcDbSymbolTableRecord
100
AcDbBlockTableRecord
  2
01-110
340
0
102
{BLKREFS
331
92
102
}
  0
BLOCK_RECORD
  5
5B
330
1
100
AcDbSymbolTableRecord
100
AcDbBlockTableRecord
  2
32-16__1
340
0
102
{BLKREFS
331
93
102
}
  0
BLOCK_RECORD
  5
5E
330
1
100
AcDbSymbolTableRecord
100
AcDbBlockTableRecord
  2
32-25__2
340
0
102
{BLKREFS
331
94
102
}
  0
BLOCK_RECORD
  5
61
330
1
100
AcDbSymbolTableRecord
100
AcDbBlockTableRecord
  2
73-1-21_5
340
0
102
{BLKREFS
331
95
102
}
  0
BLOCK_RECORD
  5
64
330
1
100
AcDbSymbolTableRecord
100
AcDbBlockTableRecord
  2
92-53A__3
340
0
102
{BLKREFS
331
96
102
}
  0
BLOCK_RECORD
  5
67
330
1
100
AcDbSymbolTableRecord
100
AcDbBlockTableRecord
  2
70-16
340
0
102
{BLKREFS
331
97
102
}
  0
BLOCK_RECORD
  5
6A
330
1
100
AcDbSymbolTableRecord
100
AcDbBlockTableRecord
  2
98-107A
340
0
102
{BLKREFS
331
98
102
}
  0
BLOCK_RECORD
  5
6D
330
1
100
AcDbSymbolTableRecord
100
AcDbBlockTableRecord
  2
50-11
340
0
102
{BLKREFS
331
99
102
}
  0
BLOCK_RECORD
  5
70
330
1
100
AcDbSymbolTableRecord
100
AcDbBlockTableRecord
  2
61-91__4
340
0
102
{BLKREFS
331
9A
102
}
  0
BLOCK_RECORD
  5
73
330
1
100
AcDbSymbolTableRecord
100
AcDbBlockTableRecord
  2
31-28
340
0
102
{BLKREFS
331
9B
102
}
  0
BLOCK_RECORD
  5
76
330
1
100
AcDbSymbolTableRecord
100
AcDbBlockTableRecord
  2
35-151
340
0
102
{BLKREFS
331
7A
102
}
  0
BLOCK_RECORD
  5
79
330
1
100
AcDbSymbolTableRecord
100
AcDbBlockTableRecord
  2
61-91__5
340
0
102
{BLKREFS
331
9C
102
}
  0
BLOCK_RECORD
  5
7D
330
1
100
AcDbSymbolTableRecord
100
AcDbBlockTableRecord
  2
82-20-M21
340
0
102
{BLKREFS
331
9D
102
}
  0
BLOCK_RECORD
  5
80
330
1
100
AcDbSymbolTableRecord
100
AcDbBlockTableRecord
  2
32-16__6
340
0
102
{BLKREFS
331
9E
102
}
  0
BLOCK_RECORD
  5
83
330
1
100
AcDbSymbolTableRecord
100
AcDbBlockTableRecord
  2
92-53A__7
340
0
102
{BLKREFS
331
9F
102
}
  0
BLOCK_RECORD
  5
86
330
1
100
AcDbSymbolTableRecord
100
AcDbBlockTableRecord
  2
32-25__8
340
0
102
{BLKREFS
331
A0
102
}
  0
BLOCK_RECORD
  5
89
330
1
100
AcDbSymbolTableRecord
100
AcDbBlockTableRecord
  2
35-276__9
340
0
102
{BLKREFS
331
A1
102
}
  0
BLOCK_RECORD
  5
8C
330
1
100
AcDbSymbolTableRecord
100
AcDbBlockTableRecord
  2
35-276__10
340
0
102
{BLKREFS
331
A2
102
}
  0
BLOCK_RECORD
  5
3A9
330
1
100
AcDbSymbolTableRecord
100
AcDbBlockTableRecord
  2
*D24
340
0
  0
BLOCK_RECORD
  5
3B4
330
1
100
AcDbSymbolTableRecord
100
AcDbBlockTableRecord
  2
*D25
340
0
  0
BLOCK_RECORD
  5
3BF
330
1
100
AcDbSymbolTableRecord
100
AcDbBlockTableRecord
  2
*D26
340
0
  0
BLOCK_RECORD
  5
3CA
330
1
100
AcDbSymbolTableRecord
100
AcDbBlockTableRecord
  2
*D27
340
0
  0
BLOCK_RECORD
  5
3D5
330
1
100
AcDbSymbolTableRecord
100
AcDbBlockTableRecord
  2
*D28
340
0
  0
BLOCK_RECORD
  5
3E2
330
1
100
AcDbSymbolTableRecord
100
AcDbBlockTableRecord
  2
*D29
340
0
  0
BLOCK_RECORD
  5
3ED
330
1
100
AcDbSymbolTableRecord
100
AcDbBlockTableRecord
  2
*D30
340
0
  0
BLOCK_RECORD
  5
3F8
330
1
100
AcDbSymbolTableRecord
100
AcDbBlockTableRecord
  2
*D31
340
0
  0
BLOCK_RECORD
  5
403
330
1
100
AcDbSymbolTableRecord
100
AcDbBlockTableRecord
  2
*D32
340
0
  0
BLOCK_RECORD
  5
40E
330
1
100
AcDbSymbolTableRecord
100
AcDbBlockTableRecord
  2
*D33
340
0
  0
BLOCK_RECORD
  5
41B
330
1
100
AcDbSymbolTableRecord
100
AcDbBlockTableRecord
  2
*D34
340
0
  0
BLOCK_RECORD
  5
426
330
1
100
AcDbSymbolTableRecord
100
AcDbBlockTableRecord
  2
*D35
340
0
  0
BLOCK_RECORD
  5
431
330
1
100
AcDbSymbolTableRecord
100
AcDbBlockTableRecord
  2
*D36
340
0
  0
BLOCK_RECORD
  5
43E
330
1
100
AcDbSymbolTableRecord
100
AcDbBlockTableRecord
  2
*D37
340
0
  0
ENDTAB
  0
ENDSEC
  0
SECTION
  2
BLOCKS
  0
BLOCK
  5
20
330
1F
100
AcDbEntity
  8
0
100
AcDbBlockBegin
  2
*Model_Space
 70
     0
 10
0.0
 20
0.0
 30
0.0
  3
*Model_Space
  1

  0
ENDBLK
  5
21
330
1F
100
AcDbEntity
  8
0
100
AcDbBlockEnd
  0
BLOCK
  5
1C
330
1B
100
AcDbEntity
 67
     1
  8
0
100
AcDbBlockBegin
  2
*Paper_Space
 70
     0
 10
0.0
 20
0.0
 30
0.0
  3
*Paper_Space
  1

  0
ENDBLK
  5
1D
330
1B
100
AcDbEntity
 67
     1
  8
0
100
AcDbBlockEnd
  0
BLOCK
  5
24
330
23
100
AcDbEntity
  8
0
100
AcDbBlockBegin
  2
*Paper_Space0
 70
     0
 10
0.0
 20
0.0
 30
0.0
  3
*Paper_Space0
  1

  0
ENDBLK
  5
25
330
23
100
AcDbEntity
  8
0
100
AcDbBlockEnd
  0
BLOCK
  5
48
330
47
100
AcDbEntity
  8
0
100
AcDbBlockBegin
  2
88-546A-M21
 70
     0
 10
2408.350680209258
 20
806.4099997564997
 30
0.0
  3
88-546A-M21
  1

  0
LINE
  5
A3
330
47
100
AcDbEntity
  8
1
  6
Continuous
 62
     7
100
AcDbLine
 10
367.8639504761243
 20
562.9783321950304
 30
0.0
 11
367.8639504761243
 21
592.9783321950304
 31
0.0
  0
LINE
  5
A4
330
47
100
AcDbEntity
  8
1
  6
Continuous
 62
     7
100
AcDbLine
 10
319.8639504761252
 20
592.9783321950304
 30
0.0
 11
319.8639504761252
 21
562.9783321950304
 31
0.0
  0
LINE
  5
A5
330
47
100
AcDbEntity
  8
1
  6
Continuous
 62
     7
100
AcDbLine
 10
367.8639504761243
 20
562.9783321950304
 30
0.0
 11
358.8627446544066
 21
562.9783321950304
 31
0.0
  0
LINE
  5
A6
330
47
100
AcDbEntity
  8
1
  6
Continuous
 62
     7
100
AcDbLine
 10
805.1863479900646
 20
562.9783321950304
 30
0.0
 11
757.1863479900655
 21
562.9783321950304
 31
0.0
  0
LINE
  5
A7
330
47
100
AcDbEntity
  8
1
  6
Continuous
 62
     7
100
AcDbLine
 10
757.1863479900655
 20
592.9783321950304
 30
0.0
 11
757.1863479900655
 21
562.9783321950304
 31
0.0
  0
LINE
  5
A8
330
47
100
AcDbEntity
  8
1
  6
Continuous
 62
     7
100
AcDbLine
 10
805.1863479900646
 20
562.9783321950304
 30
0.0
 11
805.1863479900646
 21
592.9783321950304
 31
0.0
  0
LINE
  5
A9
330
47
100
AcDbEntity
  8
1
  6
Continuous
 62
     7
100
AcDbLine
 10
328.8627324298647
 20
562.9783321950304
 30
0.0
 11
319.8639504761252
 21
562.9783321950304
 31
0.0
  0
ARC
  5
AA
330
47
100
AcDbEntity
  8
1
  6
Continuous
 62
     7
100
AcDbCircle
 10
745.8594249131413
 20
592.9783321950304
 30
0.0
 40
59.32692307692332
100
AcDbArc
 50
0.0
 51
21.558784228284
  0
ARC
  5
AB
330
47
100
AcDbEntity
  8
1
  6
Continuous
 62
     7
100
AcDbCircle
 10
308.537027399201
 20
592.9783321950304
 30
0.0
 40
59.32692307692326
100
AcDbArc
 50
0.0
 51
17.96646499934051
  0
ARC
  5
AC
330
47
100
AcDbEntity
  8
1
  6
Continuous
 62
     7
100
AcDbCircle
 10
379.1908735530485
 20
592.9783321950304
 30
0.0
 40
59.32692307692341
100
AcDbArc
 50
162.0335350006594
 51
180.0
  0
ARC
  5
AD
330
47
100
AcDbEntity
  8
1
  6
Continuous
 62
     7
100
AcDbCircle
 10
816.5132710669889
 20
592.9783321950304
 30
0.0
 40
59.32692307692337
100
AcDbArc
 50
162.0335350006595
 51
180.0
  0
ENDBLK
  5
49
330
47
100
AcDbEntity
  8
0
100
AcDbBlockEnd
  0
BLOCK
  5
4B
330
4A
100
AcDbEntity
  8
0
100
AcDbBlockBegin
  2
84-360A-_色_
 70
     0
 10
611.1863479900651
 20
501.2783321950305
 30
0.0
  3
84-360A-_色_
  1

  0
LINE
  5
AE
330
4A
100
AcDbEntity
  8
1
  6
Continuous
 62
     7
100
AcDbLine
 10
806.1863479900651
 20
625.2783321950305
 30
0.0
 11
803.2067823862155
 21
625.2783321950305
 31
0.0
  0
LINE
  5
AF
330
4A
100
AcDbEntity
  8
1
  6
Continuous
 62
     7
100
AcDbLine
 10
806.1863479900651
 20
626.2783321950305
 30
0.0
 11
806.1863479900651
 21
625.2783321950305
 31
0.0
  0
LINE
  5
B0
330
4A
100
AcDbEntity
  8
1
  6
PHANTOM
 62
     4
100
AcDbLine
 10
781.1863479900651
 20
650.3240937750811
 30
0.0
 11
781.1863479900651
 21
608.2783321950305
 31
0.0
  0
LINE
  5
B1
102
{ACAD_REACTORS
330
DE
102
}
330
4A
100
AcDbEntity
  8
1
  6
Continuous
 62
     7
100
AcDbLine
 10
777.1863479900651
 20
647.1630528611631
 30
0.0
 11
775.1863479900651
 21
647.6783321950306
 31
0.0
  0
LINE
  5
B2
102
{ACAD_REACTORS
330
DE
102
}
330
4A
100
AcDbEntity
  8
1
  6
Continuous
 62
     7
100
AcDbLine
 10
748.1863479900651
 20
659.0827322989467
 30
0.0
 11
746.6863479900651
 21
660.0685405846134
 31
0.0
  0
LINE
  5
B3
330
4A
100
AcDbEntity
  8
1
  6
Continuous
 62
     7
100
AcDbLine
 10
742.9490351219804
 20
663.0695227770352
 30
0.0
 11
740.9484034850509
 21
661.9144575629052
 31
0.0
  0
LINE
  5
B4
330
4A
100
AcDbEntity
  8
1
  6
Continuous
 62
     7
100
AcDbLine
 10
748.1863479900651
 20
659.0827322989467
 30
0.0
 11
746.6863479900651
 21
660.0685405846134
 31
0.0
  0
LINE
  5
B5
330
4A
100
AcDbEntity
  8
1
  6
Continuous
 62
     7
100
AcDbLine
 10
777.1863479900651
 20
647.1630528611631
 30
0.0
 11
775.1863479900651
 21
647.6783321950306
 31
0.0
  0
LINE
  5
B6
330
4A
100
AcDbEntity
  8
1
  6
Continuous
 62
     7
100
AcDbLine
 10
742.9490351219804
 20
663.0695227770352
 30
0.0
 11
745.4533786687923
 21
660.4798623358988
 31
0.0
  0
LINE
  5
B7
330
4A
100
AcDbEntity
  8
1
  6
PHANTOM
 62
     5
100
AcDbLine
 10
812.1273605960992
 20
613.8765082774303
 30
0.0
 11
811.7047423343586
 21
612.9702004903938
 31
0.0
  0
LINE
  5
B8
330
4A
100
AcDbEntity
  8
1
  6
PHANTOM
 62
     5
100
AcDbLine
 10
770.363520523621
 20
673.9458940377149
 30
0.0
 11
768.0621808390872
 21
673.7445529043962
 31
0.0
  0
LINE
  5
B9
330
4A
100
AcDbEntity
  8
1
  6
Continuous
 62
     7
100
AcDbLine
 10
359.2812556802645
 20
1246.460654012071
 30
0.0
 11
359.7841319595922
 21
1246.060214487785
 31
0.0
  0
LINE
  5
BA
102
{ACAD_REACTORS
330
DF
102
}
330
4A
100
AcDbEntity
  8
1
  6
Continuous
 62
     7
100
AcDbLine
 10
361.2888641468446
 20
1217.46065401207
 30
0.0
 11
359.2360283105246
 21
1216.260864077585
 31
0.0
  0
LINE
  5
BB
102
{ACAD_REACTORS
330
DF
102
}
330
4A
100
AcDbEntity
  8
1
  6
Continuous
 62
     7
100
AcDbLine
 10
359.7841319595922
 20
1246.060214487785
 30
0.0
 11
361.792877280177
 21
1244.46065401207
 31
0.0
  0
LINE
  5
BC
330
4A
100
AcDbEntity
  8
1
  6
Continuous
 62
     7
100
AcDbLine
 10
359.2360283105246
 20
1216.260864077585
 30
0.0
 11
358.7223700748633
 21
1215.960654012071
 31
0.0
  0
LINE
  5
BD
330
4A
100
AcDbEntity
  8
1
  6
Continuous
 62
     7
100
AcDbLine
 10
328.4466452719813
 20
1246.460654012071
 30
0.0
 11
327.9437689926539
 21
1246.060214487785
 31
0.0
  0
LINE
  5
BE
102
{ACAD_REACTORS
330
E0
102
}
330
4A
100
AcDbEntity
  8
1
  6
Continuous
 62
     7
100
AcDbLine
 10
326.4390368054013
 20
1217.460654012071
 30
0.0
 11
328.4918726417218
 21
1216.260864077585
 31
0.0
  0
LINE
  5
BF
102
{ACAD_REACTORS
330
E0
102
}
330
4A
100
AcDbEntity
  8
1
  6
Continuous
 62
     7
100
AcDbLine
 10
327.9437689926539
 20
1246.060214487785
 30
0.0
 11
325.9350236720692
 21
1244.46065401207
 31
0.0
  0
LINE
  5
C0
330
4A
100
AcDbEntity
  8
1
  6
Continuous
 62
     7
100
AcDbLine
 10
328.4918726417218
 20
1216.260864077585
 30
0.0
 11
329.0055308773825
 21
1215.960654012071
 31
0.0
  0
ARC
  5
C1
330
4A
100
AcDbEntity
  8
1
  6
Continuous
 62
     7
100
AcDbCircle
 10
796.1863479900651
 20
626.2783321950305
 30
0.0
 40
10.0
100
AcDbArc
 50
0.0
 51
54.69975156014022
  0
ARC
  5
C2
330
4A
100
AcDbEntity
  8
1
  6
Continuous
 62
     7
100
AcDbCircle
 10
803.2067823862155
 20
627.7783321950305
 30
0.0
 40
2.5
100
AcDbArc
 50
180.0
 51
270.0
  0
ARC
  5
C3
330
4A
100
AcDbEntity
  8
1
  6
Continuous
 62
     7
100
AcDbCircle
 10
790.7067823862155
 20
627.7783321950305
 30
0.0
 40
10.0
100
AcDbArc
 50
0.0
 51
57.03802307375501
  0
ARC
  5
C4
102
{ACAD_REACTORS
330
DE
102
}
330
4A
100
AcDbEntity
  8
1
  6
Continuous
 62
     7
100
AcDbCircle
 10
676.4494888866782
 20
451.5816498137765
 30
0.0
 40
219.5515342386305
100
AcDbArc
 50
63.27423731996622
 51
70.9288111281871
  0
ARC
  5
C5
330
4A
100
AcDbEntity
  8
1
  6
Continuous
 62
     7
100
AcDbCircle
 10
676.4494888866782
 20
451.5816498137765
 30
0.0
 40
219.9999999999998
100
AcDbArc
 50
57.03802307375563
 51
62.748653084312
  0
ARC
  5
C6
102
{ACAD_REACTORS
330
DE
102
}
330
4A
100
AcDbEntity
  8
1
  6
Continuous
 62
     7
100
AcDbCircle
 10
676.4494888866782
 20
451.5816498137765
 30
0.0
 40
219.9999999999998
100
AcDbArc
 50
62.748653084312
 51
71.38191495189238
  0
ARC
  5
C7
330
4A
100
AcDbEntity
  8
1
  6
Continuous
 62
     7
100
AcDbCircle
 10
676.4494888866782
 20
451.5816498137765
 30
0.0
 40
219.5515342386305
100
AcDbArc
 50
63.27423731996622
 51
70.9288111281871
  0
ARC
  5
C8
330
4A
100
AcDbEntity
  8
1
  6
Continuous
 62
     7
100
AcDbCircle
 10
686.1863479900651
 20
470.9211893378879
 30
0.0
 40
200.3571428571429
100
AcDbArc
 50
54.69975156013975
 51
73.54229199835179
  0
ARC
  5
C9
330
4A
100
AcDbEntity
  8
1
  6
Continuous
 62
     7
100
AcDbCircle
 10
676.4494888866782
 20
451.5816498137765
 30
0.0
 40
219.9999999999998
100
AcDbArc
 50
71.38191495189238
 51
71.7204212010843
  0
ARC
  5
CA
330
4A
100
AcDbEntity
  8
1
  6
PHANTOM
 62
     5
100
AcDbCircle
 10
637.7136604884106
 20
523.7893113431269
 30
0.0
 40
200.3571428571431
100
AcDbArc
 50
29.69975156013763
 51
48.54229199834968
  0
ARC
  5
CB
330
4A
100
AcDbEntity
  8
1
  6
PHANTOM
 62
     5
100
AcDbCircle
 10
803.0642827257329
 20
618.1026908948375
 30
0.0
 40
10.00000000000023
100
AcDbArc
 50
0.0
 51
29.69975156013895
  0
ARC
  5
CC
330
4A
100
AcDbEntity
  8
1
  6
PHANTOM
 62
     5
100
AcDbCircle
 10
803.0642827257329
 20
618.1026908948375
 30
0.0
 40
9.999999999999819
100
AcDbArc
 50
334.9999999999984
 51
29.69975156013895
  0
ARC
  5
CD
330
4A
100
AcDbEntity
  8
1
  6
PHANTOM
 62
     5
100
AcDbCircle
 10
803.0642827257329
 20
618.1026908948375
 30
0.0
 40
9.999999999999819
100
AcDbArc
 50
334.9999999999984
 51
29.69975156013895
  0
ARC
  5
CE
330
4A
100
AcDbEntity
  8
1
  6
PHANTOM
 62
     5
100
AcDbCircle
 10
803.0642827257329
 20
618.1026908948375
 30
0.0
 40
9.999999999999819
100
AcDbArc
 50
334.9999999999984
 51
0.0
  0
ARC
  5
CF
330
4A
100
AcDbEntity
  8
1
  6
Continuous
 62
     7
100
AcDbCircle
 10
-231.6174872422398
 20
1242.033231884501
 30
0.0
 40
590.9153293443077
100
AcDbArc
 50
356.1868068539001
 51
357.3514819526911
  0
ARC
  5
D0
330
4A
100
AcDbEntity
  8
1
  6
Continuous
 62
     7
100
AcDbCircle
 10
-231.6174872422398
 20
1242.033231884501
 30
0.0
 40
590.9153293443076
100
AcDbArc
 50
0.42929158021493
 51
2.77606266145281
  0
ARC
  5
D1
102
{ACAD_REACTORS
330
DF
102
}
330
4A
100
AcDbEntity
  8
1
  6
Continuous
 62
     7
100
AcDbCircle
 10
-231.6174872422398
 20
1242.033231884501
 30
0.0
 40
593.4153293443077
100
AcDbArc
 50
357.6267757220828
 51
0.2343745164726
  0
ARC
  5
D2
330
4A
100
AcDbEntity
  8
1
  6
Continuous
 62
     7
100
AcDbCircle
 10
-231.6174872422398
 20
1242.033231884501
 30
0.0
 40
590.9153293443077
100
AcDbArc
 50
357.4711541167296
 51
0.42929158021493
  0
ARC
  5
D3
330
4A
100
AcDbEntity
  8
1
  6
Continuous
 62
     7
100
AcDbCircle
 10
-231.6174872422398
 20
1242.033231884501
 30
0.0
 40
590.9153293443072
100
AcDbArc
 50
357.3514819526911
 51
357.4711541167296
  0
ARC
  5
D4
102
{ACAD_REACTORS
330
DF
102
}
330
4A
100
AcDbEntity
  8
1
  6
Continuous
 62
     7
100
AcDbCircle
 10
-231.6174872422398
 20
1242.033231884501
 30
0.0
 40
591.4153293443076
100
AcDbArc
 50
357.502405522131
 51
0.39013342878285
  0
ARC
  5
D5
330
4A
100
AcDbEntity
  8
1
  6
Continuous
 62
     7
100
AcDbCircle
 10
343.8639504761228
 20
1257.223341143986
 30
0.0
 40
44.99999999999997
100
AcDbArc
 50
250.7950441663099
 51
289.2049558336901
  0
ARC
  5
D6
330
4A
100
AcDbEntity
  8
1
  6
Continuous
 62
     7
100
AcDbCircle
 10
919.3453881944853
 20
1242.033231884501
 30
0.0
 40
590.9153293443071
100
AcDbArc
 50
182.6485180473088
 51
183.8131931460998
  0
ARC
  5
D7
330
4A
100
AcDbEntity
  8
1
  6
Continuous
 62
     7
100
AcDbCircle
 10
343.863950476123
 20
1250.460654012071
 30
0.0
 40
24.99999999999922
100
AcDbArc
 50
53.87015686343469
 51
126.1298431365649
  0
ARC
  5
D8
330
4A
100
AcDbEntity
  8
1
  6
Continuous
 62
     7
100
AcDbCircle
 10
919.3453881944853
 20
1242.033231884501
 30
0.0
 40
590.9153293443073
100
AcDbArc
 50
182.5288458832704
 51
182.6485180473088
  0
ARC
  5
D9
102
{ACAD_REACTORS
330
E0
102
}
330
4A
100
AcDbEntity
  8
1
  6
Continuous
 62
     7
100
AcDbCircle
 10
919.3453881944853
 20
1242.033231884501
 30
0.0
 40
593.4153293443069
100
AcDbArc
 50
179.7656254835274
 51
182.3732242779171
  0
ARC
  5
DA
330
4A
100
AcDbEntity
  8
1
  6
Continuous
 62
     7
100
AcDbCircle
 10
919.3453881944853
 20
1242.033231884501
 30
0.0
 40
590.915329344307
100
AcDbArc
 50
177.2239373385471
 51
179.5707084197851
  0
ARC
  5
DB
330
4A
100
AcDbEntity
  8
1
  6
Continuous
 62
     7
100
AcDbCircle
 10
919.3453881944853
 20
1242.033231884501
 30
0.0
 40
590.9153293443073
100
AcDbArc
 50
179.5707084197851
 51
182.5288458832704
  0
ARC
  5
DC
330
4A
100
AcDbEntity
  8
1
  6
Continuous
 62
     7
100
AcDbCircle
 10
343.8639504761228
 20
1245.460654012071
 30
0.0
 40
45.00000000000019
100
AcDbArc
 50
251.7052947919976
 51
288.2947052080023
  0
ARC
  5
DD
102
{ACAD_REACTORS
330
E0
102
}
330
4A
100
AcDbEntity
  8
1
  6
Continuous
 62
     7
100
AcDbCircle
 10
919.3453881944853
 20
1242.033231884501
 30
0.0
 40
591.415329344307
100
AcDbArc
 50
179.6098665712171
 51
182.497594477869
  0
HATCH
  5
DE
330
4A
100
AcDbEntity
  8
1
  6
Continuous
 62
     2
100
AcDbHatch
 10
0.0
 20
0.0
 30
0.0
210
0.0
220
0.0
230
1.0
  2
CUSTOM0
 70
     0
 71
     1
 91
        1
 92
        1
 93
        4
 72
     2
 10
676.4494888866782
 20
451.5816498137765
 40
219.9999999999998
 50
62.748653084312
 51
71.38191495189238
 73
     1
 72
     1
 10
746.6863479900651
 20
660.0685405846134
 11
748.1863479900651
 21
659.0827322989467
 72
     2
 10
676.4494888866782
 20
451.5816498137765
 40
219.5515342386305
 50
289.0711888718129
 51
296.7257626800338
 73
     0
 72
     1
 10
775.1863479900651
 20
647.6783321950306
 11
777.1863479900651
 21
647.1630528611631
 97
        4
330
C6
330
B2
330
C4
330
B1
 75
     1
 76
     2
 52
45.0
 41
0.5
 77
     0
 78
     1
 53
45.0
 43
0.0
 44
0.0
 45
-1.414213562373095
 46
0.0000000000000001
 79
     0
 98
        1
 10
0.0
 20
0.0
  0
HATCH
  5
DF
330
4A
100
AcDbEntity
  8
1
  6
Continuous
 62
     2
100
AcDbHatch
 10
0.0
 20
0.0
 30
0.0
210
0.0
220
0.0
230
1.0
  2
CUSTOM1
 70
     0
 71
     1
 91
        1
 92
        1
 93
        4
 72
     1
 10
359.7841319595922
 20
1246.060214487785
 11
361.792877280177
 21
1244.46065401207
 72
     2
 10
-231.6174872422398
 20
1242.033231884501
 40
593.4153293443077
 50
359.7656254835274
 51
362.3732242779172
 73
     0
 72
     1
 10
361.2888641468446
 20
1217.46065401207
 11
359.2360283105246
 21
1216.260864077585
 72
     2
 10
-231.6174872422398
 20
1242.033231884501
 40
591.4153293443076
 50
357.502405522131
 51
360.3901334287828
 73
     1
 97
        4
330
BB
330
D1
330
BA
330
D4
 75
     1
 76
     2
 52
45.0
 41
0.5
 77
     0
 78
     1
 53
45.0
 43
0.0
 44
0.0
 45
-1.414213562373095
 46
0.0000000000000001
 79
     0
 98
        1
 10
0.0
 20
0.0
  0
HATCH
  5
E0
330
4A
100
AcDbEntity
  8
1
  6
Continuous
 62
     2
100
AcDbHatch
 10
0.0
 20
0.0
 30
0.0
210
0.0
220
0.0
230
1.0
  2
CUSTOM2
 70
     0
 71
     1
 91
        1
 92
        1
 93
        4
 72
     1
 10
326.4390368054013
 20
1217.460654012071
 11
328.4918726417218
 21
1216.260864077585
 72
     2
 10
919.3453881944853
 20
1242.033231884501
 40
591.415329344307
 50
177.502405522131
 51
180.3901334287829
 73
     0
 72
     1
 10
327.9437689926539
 20
1246.060214487785
 11
325.9350236720692
 21
1244.46065401207
 72
     2
 10
919.3453881944853
 20
1242.033231884501
 40
593.4153293443069
 50
179.7656254835274
 51
182.3732242779171
 73
     1
 97
        4
330
BF
330
DD
330
BE
330
D9
 75
     1
 76
     2
 52
45.0
 41
0.5
 77
     0
 78
     1
 53
45.0
 43
0.0
 44
0.0
 45
-1.414213562373095
 46
0.0000000000000001
 79
     0
 98
        1
 10
0.0
 20
0.0
  0
ENDBLK
  5
4C
330
4A
100
AcDbEntity
  8
0
100
AcDbBlockEnd
  0
BLOCK
  5
4E
330
4D
100
AcDbEntity
  8
0
100
AcDbBlockBegin
  2
87-163-_色_
 70
     0
 10
1862.643504998961
 20
1166.45108097441
 30
0.0
  3
87-163-_色_
  1

  0
LINE
  5
E1
330
4D
100
AcDbEntity
  8
1
  6
Continuous
 62
     7
100
AcDbLine
 10
748.1863479900651
 20
659.0827322989467
 30
0.0
 11
746.6863479900651
 21
660.0685405846134
 31
0.0
  0
LINE
  5
E2
330
4D
100
AcDbEntity
  8
1
  6
Continuous
 62
     7
100
AcDbLine
 10
777.1863479900651
 20
647.1630528611631
 30
0.0
 11
775.1863479900651
 21
647.6783321950306
 31
0.0
  0
LINE
  5
E3
330
4D
100
AcDbEntity
  8
1
  6
Continuous
 62
     7
100
AcDbLine
 10
781.1863479900651
 20
611.2783321950305
 30
0.0
 11
778.5616880842874
 21
611.2783321950305
 31
0.0
  0
LINE
  5
E4
330
4D
100
AcDbEntity
  8
1
  6
Continuous
 62
     7
100
AcDbLine
 10
805.7731720788986
 20
615.6136526518249
 30
0.0
 11
783.7711334142953
 21
611.7340996046646
 31
0.0
  0
LINE
  5
E5
330
4D
100
AcDbEntity
  8
1
  6
Continuous
 62
     7
100
AcDbLine
 10
806.1863479900651
 20
625.2783321950305
 30
0.0
 11
806.1863479900651
 21
616.106056528331
 31
0.0
  0
LINE
  5
E6
330
4D
100
AcDbEntity
  8
1
  6
Continuous
 62
     7
100
AcDbLine
 10
778.5616880842874
 20
611.2783321950305
 30
0.0
 11
756.6863479900651
 21
611.2783321950305
 31
0.0
  0
LINE
  5
E7
330
4D
100
AcDbEntity
  8
1
  6
Continuous
 62
     7
100
AcDbLine
 10
756.1863479900651
 20
611.7783321950305
 30
0.0
 11
756.1863479900651
 21
634.2783321950305
 31
0.0
  0
LINE
  5
E8
330
4D
100
AcDbEntity
  8
1
  6
PHANTOM
 62
     4
100
AcDbLine
 10
781.1863479900651
 20
650.3240937750811
 30
0.0
 11
781.1863479900651
 21
608.2783321950305
 31
0.0
  0
LINE
  5
E9
330
4D
100
AcDbEntity
  8
1
  6
Continuous
 62
     7
100
AcDbLine
 10
681.1863479900651
 20
666.2783321950305
 30
0.0
 11
681.1863479900651
 21
665.1418398995847
 31
0.0
  0
LINE
  5
EA
330
4D
100
AcDbEntity
  8
1
  6
Continuous
 62
     7
100
AcDbLine
 10
806.1863479900651
 20
625.2783321950305
 30
0.0
 11
803.2067823862155
 21
625.2783321950305
 31
0.0
  0
LINE
  5
EB
330
4D
100
AcDbEntity
  8
1
  6
PHANTOM
 62
     5
100
AcDbLine
 10
806.1863479900651
 20
626.2783321950305
 30
0.0
 11
806.1863479900651
 21
625.2783321950305
 31
0.0
  0
LINE
  5
EC
330
4D
100
AcDbEntity
  8
1
  6
PHANTOM
 62
     5
100
AcDbLine
 10
715.7436176861495
 20
702.9561024764871
 30
0.0
 11
715.2633152877663
 21
701.9260906592172
 31
0.0
  0
LINE
  5
ED
330
4D
100
AcDbEntity
  8
1
  6
PHANTOM
 62
     5
100
AcDbLine
 10
807.2458077198216
 20
604.385641846543
 30
0.0
 11
803.8962693397576
 21
605.2831479504982
 31
0.0
  0
LINE
  5
EE
330
4D
100
AcDbEntity
  8
1
  6
PHANTOM
 62
     5
100
AcDbLine
 10
811.7047423343586
 20
612.9702004903934
 30
0.0
 11
807.8283711358911
 21
604.6572956288169
 31
0.0
  0
ARC
  5
EF
330
4D
100
AcDbEntity
  8
1
  6
Continuous
 62
     7
100
AcDbCircle
 10
676.4494888866782
 20
451.5816498137765
 30
0.0
 40
220.0000000000003
100
AcDbArc
 50
57.03802307375565
 51
62.748653084312
  0
ARC
  5
F0
330
4D
100
AcDbEntity
  8
1
  6
Continuous
 62
     7
100
AcDbCircle
 10
676.4494888866782
 20
451.5816498137765
 30
0.0
 40
219.5515342386305
100
AcDbArc
 50
63.27423731996622
 51
70.9288111281871
  0
ARC
  5
F1
330
4D
100
AcDbEntity
  8
1
  6
Continuous
 62
     7
100
AcDbCircle
 10
790.7067823862155
 20
627.7783321950305
 30
0.0
 40
10.0
100
AcDbArc
 50
0.0
 51
57.03802307375533
  0
ARC
  5
F2
330
4D
100
AcDbEntity
  8
1
  6
Continuous
 62
     7
100
AcDbCircle
 10
803.2067823862155
 20
627.7783321950305
 30
0.0
 40
2.5
100
AcDbArc
 50
180.0
 51
270.0
  0
ARC
  5
F3
330
4D
100
AcDbEntity
  8
1
  6
Continuous
 62
     7
100
AcDbCircle
 10
676.4494888866782
 20
451.5816498137765
 30
0.0
 40
219.9999999999998
100
AcDbArc
 50
71.38191495189238
 51
86.94185502722127
  0
ARC
  5
F4
330
4D
100
AcDbEntity
  8
1
  6
Continuous
 62
     7
100
AcDbCircle
 10
667.9997972013377
 20
463.7135184670183
 30
0.0
 40
200.0
100
AcDbArc
 50
66.49354248247298
 51
85.68838098644866
  0
ARC
  5
F5
330
4D
100
AcDbEntity
  8
1
  6
Continuous
 62
     7
100
AcDbCircle
 10
686.1863479900651
 20
666.2783321950305
 30
0.0
 40
5.0
100
AcDbArc
 50
90.0
 51
180.0
  0
ARC
  5
F6
330
4D
100
AcDbEntity
  8
1
  6
Continuous
 62
     7
100
AcDbCircle
 10
686.1863479900651
 20
470.9211893378879
 30
0.0
 40
200.3571428571429
100
AcDbArc
 50
89.42805402126429
 51
90.0
  0
ARC
  5
F7
330
4D
100
AcDbEntity
  8
1
  6
Continuous
 62
     7
100
AcDbCircle
 10
742.1863479900651
 20
634.2783321950305
 30
0.0
 40
14.0
100
AcDbArc
 50
0.0
 51
66.49354248247339
  0
ARC
  5
F8
330
4D
100
AcDbEntity
  8
1
  6
PHANTOM
 62
     5
100
AcDbCircle
 10
620.7158266851864
 20
510.3767105438096
 30
0.0
 40
220.0000000000005
100
AcDbArc
 50
47.95175246216937
 51
61.94185502721909
  0
ARC
  5
F9
330
4D
100
AcDbEntity
  8
1
  6
PHANTOM
 62
     5
100
AcDbCircle
 10
720.2751566213326
 20
700.843011167784
 30
0.0
 40
5.0
100
AcDbArc
 50
90.0
 51
155.0000000000031
  0
ARC
  5
FA
330
4D
100
AcDbEntity
  8
1
  6
PHANTOM
 62
     5
100
AcDbCircle
 10
637.7136604884106
 20
523.7893113431269
 30
0.0
 40
200.3571428571428
100
AcDbArc
 50
64.4280540212621
 51
64.99999999999785
  0
ARC
  5
FB
330
4D
100
AcDbEntity
  8
1
  6
PHANTOM
 62
     5
100
AcDbCircle
 10
618.1849545546036
 20
524.942911587852
 30
0.0
 40
200.0000000000004
100
AcDbArc
 50
41.49354248247089
 51
60.68838098644655
  0
ARC
  5
FC
330
4D
100
AcDbEntity
  8
1
  6
PHANTOM
 62
     5
100
AcDbCircle
 10
757.5046083196805
 20
648.1745393251304
 30
0.0
 40
14.00000000000035
100
AcDbArc
 50
20.27842980764776
 51
41.49354248247101
  0
ARC
  5
FD
330
4D
100
AcDbEntity
  8
1
  6
PHANTOM
 62
     5
100
AcDbCircle
 10
720.2751566213326
 20
700.843011167784
 30
0.0
 40
4.999999999999909
100
AcDbArc
 50
64.99999999999837
 51
90.0
  0
ARC
  5
FE
330
4D
100
AcDbEntity
  8
1
  6
Continuous
 62
     7
100
AcDbCircle
 10
756.6863479900651
 20
611.7783321950305
 30
0.0
 40
0.5
100
AcDbArc
 50
180.0
 51
270.0
  0
ARC
  5
FF
330
4D
100
AcDbEntity
  8
1
  6
Continuous
 62
     7
100
AcDbCircle
 10
805.6863479900651
 20
616.106056528331
 30
0.0
 40
0.5000000000000624
100
AcDbArc
 50
280.0000000000039
 51
0.0
  0
ARC
  5
100
330
4D
100
AcDbEntity
  8
1
  6
Continuous
 62
     7
100
AcDbCircle
 10
778.5616880842874
 20
641.2783321950305
 30
0.0
 40
30.0
100
AcDbArc
 50
270.0
 51
280.0
  0
ARC
  5
101
330
4D
100
AcDbEntity
  8
1
  6
Continuous
 62
     7
100
AcDbCircle
 10
683.1863479900651
 20
665.1418398995847
 30
0.0
 40
2.0
100
AcDbArc
 50
180.0
 51
265.688380986446
  0
ARC
  5
102
330
4D
100
AcDbEntity
  8
1
  6
PHANTOM
 62
     5
100
AcDbCircle
 10
717.0759308618397
 20
701.080854135736
 30
0.0
 40
1.999999999999931
100
AcDbArc
 50
155.0000000000066
 51
240.6883809864366
  0
ARC
  5
103
330
4D
100
AcDbEntity
  8
1
  6
PHANTOM
 62
     5
100
AcDbCircle
 10
807.3752172423729
 20
604.8686047596875
 30
0.0
 40
0.5000000000000006
100
AcDbArc
 50
255.0000000000056
 51
334.9999999999656
  0
ENDBLK
  5
4F
330
4D
100
AcDbEntity
  8
0
100
AcDbBlockEnd
  0
BLOCK
  5
53
330
50
100
AcDbEntity
  8
0
100
AcDbBlockBegin
  2
87-163-M21
 70
     0
 10
3239.914153234306
 20
775.4099997565004
 30
0.0
  3
87-163-M21
  1

  0
INSERT
  5
51
330
50
100
AcDbEntity
  8
1
100
AcDbBlockReference
  2
84-360A-_色_
 10
611.186347990065
 20
501.2783321950304
 30
0.0
 41
1.0
 42
1.0
 43
1.0
  0
INSERT
  5
52
330
50
100
AcDbEntity
  8
1
100
AcDbBlockReference
  2
87-163-_色_
 10
1862.643504998961
 20
1166.45108097441
 30
0.0
 41
1.0
 42
1.0
 43
1.0
  0
LINE
  5
104
330
50
100
AcDbEntity
  8
1
  6
Continuous
 62
     7
100
AcDbLine
 10
328.8627324298647
 20
611.2783321950305
 30
0.0
 11
319.3639504761227
 21
611.2783321950305
 31
0.0
  0
LINE
  5
105
330
50
100
AcDbEntity
  8
1
  6
Continuous
 62
     7
100
AcDbLine
 10
368.3639504761227
 20
611.2783321950305
 30
0.0
 11
358.8627446544066
 21
611.2783321950305
 31
0.0
  0
LINE
  5
106
330
50
100
AcDbEntity
  8
1
  6
Continuous
 62
     7
100
AcDbLine
 10
368.8639504761227
 20
611.7783321950305
 30
0.0
 11
368.8639504761227
 21
633.2783321950305
 31
0.0
  0
LINE
  5
107
330
50
100
AcDbEntity
  8
1
  6
Continuous
 62
     7
100
AcDbLine
 10
318.8639504761227
 20
633.2783321950305
 30
0.0
 11
318.8639504761227
 21
611.7783321950305
 31
0.0
  0
LINE
  5
108
330
50
100
AcDbEntity
  8
1
  6
Continuous
 62
     7
100
AcDbLine
 10
328.1966382574941
 20
1246.460654012071
 30
0.0
 11
325.6850215813016
 21
1244.460654012071
 31
0.0
  0
LINE
  5
109
330
50
100
AcDbEntity
  8
1
  6
Continuous
 62
     7
100
AcDbLine
 10
326.1888222844485
 20
1217.460654012071
 30
0.0
 11
328.7552872768951
 21
1215.960654012071
 31
0.0
  0
LINE
  5
10A
330
50
100
AcDbEntity
  8
1
  6
Continuous
 62
     7
100
AcDbLine
 10
361.5390786677975
 20
1217.460654012071
 30
0.0
 11
358.972613675351
 21
1215.960654012071
 31
0.0
  0
LINE
  5
10B
330
50
100
AcDbEntity
  8
1
  6
Continuous
 62
     7
100
AcDbLine
 10
362.0428793709442
 20
1244.460654012071
 30
0.0
 11
359.5312626947519
 21
1246.460654012071
 31
0.0
  0
ARC
  5
10C
330
50
100
AcDbEntity
  8
1
  6
Continuous
 62
     7
100
AcDbCircle
 10
278.8639504761227
 20
633.2783321950305
 30
0.0
 40
90.0
100
AcDbArc
 50
0.0
 51
19.81251447871875
  0
ARC
  5
10D
330
50
100
AcDbEntity
  8
1
  6
Continuous
 62
     7
100
AcDbCircle
 10
343.8639504761227
 20
601.2783321950305
 30
0.0
 40
69.99999999999987
100
AcDbArc
 50
80.14963277389217
 51
99.85036722610766
  0
ARC
  5
10E
330
50
100
AcDbEntity
  8
1
  6
Continuous
 62
     7
100
AcDbCircle
 10
408.8639504761227
 20
633.2783321950305
 30
0.0
 40
89.99999999999955
100
AcDbArc
 50
160.1874855212812
 51
180.0
  0
ARC
  5
10F
330
50
100
AcDbEntity
  8
1
  6
Continuous
 62
     7
100
AcDbCircle
 10
-231.6174872422397
 20
1242.033231884502
 30
0.0
 40
593.6653293443075
100
AcDbArc
 50
357.6277756885002
 51
0.23427581784084
  0
ARC
  5
110
330
50
100
AcDbEntity
  8
1
  6
Continuous
 62
     7
100
AcDbCircle
 10
-231.6174872422397
 20
1242.033231884502
 30
0.0
 40
591.1653293443076
100
AcDbArc
 50
352.7145265157914
 51
352.9451402673781
  0
ARC
  5
111
330
50
100
AcDbEntity
  8
1
  6
Continuous
 62
     7
100
AcDbCircle
 10
-231.6174872422397
 20
1242.033231884502
 30
0.0
 40
591.1653293443076
100
AcDbArc
 50
352.9451402673781
 51
356.1967340206557
  0
ARC
  5
112
330
50
100
AcDbEntity
  8
1
  6
Continuous
 62
     7
100
AcDbCircle
 10
-231.6174872422397
 20
1242.033231884502
 30
0.0
 40
591.1653293443075
100
AcDbArc
 50
356.1967340206557
 51
357.4722242438573
  0
ARC
  5
113
330
50
100
AcDbEntity
  8
1
  6
Continuous
 62
     7
100
AcDbCircle
 10
919.345388194485
 20
1242.033231884502
 30
0.0
 40
591.1653293443072
100
AcDbArc
 50
183.8032659793443
 51
187.0548597326219
  0
ARC
  5
114
330
50
100
AcDbEntity
  8
1
  6
Continuous
 62
     7
100
AcDbCircle
 10
919.345388194485
 20
1242.033231884502
 30
0.0
 40
591.1653293443071
100
AcDbArc
 50
182.5277757561426
 51
183.8032659793443
  0
ARC
  5
115
330
50
100
AcDbEntity
  8
1
  6
Continuous
 62
     7
100
AcDbCircle
 10
343.863950476123
 20
1250.460654012071
 30
0.0
 40
25.00000000000046
100
AcDbArc
 50
126.1298431365657
 51
126.8698976458435
  0
ARC
  5
116
330
50
100
AcDbEntity
  8
1
  6
Continuous
 62
     7
100
AcDbCircle
 10
343.863950476123
 20
1250.460654012071
 30
0.0
 40
25.00000000000042
100
AcDbArc
 50
357.4999067616176
 51
53.13010235415796
  0
ARC
  5
117
330
50
100
AcDbEntity
  8
1
  6
Continuous
 62
     7
100
AcDbCircle
 10
919.345388194485
 20
1242.033231884502
 30
0.0
 40
591.1653293443075
100
AcDbArc
 50
177.2437495849904
 51
179.5708899678172
  0
ARC
  5
118
330
50
100
AcDbEntity
  8
1
  6
Continuous
 62
     7
100
AcDbCircle
 10
-630.2079963568971
 20
1292.991141816954
 30
0.0
 40
999.9999999999958
100
AcDbArc
 50
352.7145265157912
 51
357.4999067616166
  0
ARC
  5
119
330
50
100
AcDbEntity
  8
1
  6
Continuous
 62
     7
100
AcDbCircle
 10
1317.935897309148
 20
1292.991141816954
 30
0.0
 40
1000.000000000001
100
AcDbArc
 50
182.5000932383834
 51
187.2854734842087
  0
ARC
  5
11A
330
50
100
AcDbEntity
  8
1
  6
Continuous
 62
     7
100
AcDbCircle
 10
343.863950476123
 20
1174.960654012073
 30
0.0
 40
12.49999999999994
100
AcDbArc
 50
206.2782275840445
 51
333.7217724159545
  0
ARC
  5
11B
330
50
100
AcDbEntity
  8
1
  6
Continuous
 62
     7
100
AcDbCircle
 10
343.863950476123
 20
1168.460654012071
 30
0.0
 40
18.00000000000033
100
AcDbArc
 50
187.2854734842082
 51
352.7145265157916
  0
ARC
  5
11C
330
50
100
AcDbEntity
  8
1
  6
Continuous
 62
     7
100
AcDbCircle
 10
343.863950476123
 20
1245.460654012071
 30
0.0
 40
45.00000000000006
100
AcDbArc
 50
251.3613151914885
 51
288.638684808511
  0
ARC
  5
11D
330
50
100
AcDbEntity
  8
1
  6
Continuous
 62
     7
100
AcDbCircle
 10
343.863950476123
 20
1250.460654012071
 30
0.0
 40
25.00000000000097
100
AcDbArc
 50
126.8698976458435
 51
182.5000932383824
  0
ARC
  5
11E
330
50
100
AcDbEntity
  8
1
  6
Continuous
 62
     7
100
AcDbCircle
 10
343.863950476123
 20
1168.460654012071
 30
0.0
 40
11.00000000000037
100
AcDbArc
 50
187.2854734842079
 51
352.714526515792
  0
ARC
  5
11F
330
50
100
AcDbEntity
  8
1
  6
Continuous
 62
     7
100
AcDbCircle
 10
919.345388194485
 20
1242.033231884502
 30
0.0
 40
591.1653293443073
100
AcDbArc
 50
187.0548597326219
 51
187.2854734842086
  0
ARC
  5
120
330
50
100
AcDbEntity
  8
1
  6
Continuous
 62
     7
100
AcDbCircle
 10
-231.6174872422397
 20
1242.033231884502
 30
0.0
 40
591.1653293443075
100
AcDbArc
 50
0.42911003218283
 51
2.75625041500966
  0
ARC
  5
121
330
50
100
AcDbEntity
  8
1
  6
Continuous
 62
     7
100
AcDbCircle
 10
919.345388194485
 20
1242.033231884502
 30
0.0
 40
593.6653293443072
100
AcDbArc
 50
179.7657241821592
 51
182.3722243114998
  0
ARC
  5
122
330
50
100
AcDbEntity
  8
1
  6
Continuous
 62
     7
100
AcDbCircle
 10
343.863950476123
 20
1250.460654012071
 30
0.0
 40
25.00000000000049
100
AcDbArc
 50
53.13010235415796
 51
53.87015686343572
  0
ARC
  5
123
330
50
100
AcDbEntity
  8
1
  6
PHANTOM
 62
     5
100
AcDbCircle
 10
1002.563233111332
 20
1969.30712931529
 30
0.0
 40
1000.000000000001
100
AcDbArc
 50
230.6215837427297
 51
232.2854734842087
  0
ARC
  5
124
330
50
100
AcDbEntity
  8
1
  6
PHANTOM
 62
     5
100
AcDbCircle
 10
-374.9825248270923
 20
591.7613713768648
 30
0.0
 40
999.9999999999959
100
AcDbArc
 50
37.7145265157913
 51
41.65942048977714
  0
ARC
  5
125
330
50
100
AcDbEntity
  8
1
  6
PHANTOM
 62
     5
100
AcDbCircle
 10
756.7498648680863
 20
1651.428393735383
 30
0.0
 40
591.1653293443076
100
AcDbArc
 50
232.0548597326219
 51
232.2854734842087
  0
ARC
  5
126
330
50
100
AcDbEntity
  8
1
  6
PHANTOM
 62
     5
100
AcDbCircle
 10
401.8467065334197
 20
1192.477897954774
 30
0.0
 40
11.00000000000042
100
AcDbArc
 50
232.2854734842086
 51
37.71452651579158
  0
ARC
  5
127
330
50
100
AcDbEntity
  8
1
  6
PHANTOM
 62
     5
100
AcDbCircle
 10
401.8467065334197
 20
1192.477897954774
 30
0.0
 40
18.00000000000011
100
AcDbArc
 50
0.0
 51
37.71452651579174
  0
ARC
  5
128
330
50
100
AcDbEntity
  8
1
  6
PHANTOM
 62
     5
100
AcDbCircle
 10
397.2505124557059
 20
1197.074092032488
 30
0.0
 40
12.4999999999998
100
AcDbArc
 50
251.2782275840436
 51
18.72177241595368
  0
ARC
  5
129
330
50
100
AcDbEntity
  8
1
  6
PHANTOM
 62
     5
100
AcDbCircle
 10
-57.1037892471894
 20
837.5747396201074
 30
0.0
 40
591.1653293443076
100
AcDbArc
 50
37.71452651579133
 51
37.94514026737804
  0
ARC
  5
12A
330
50
100
AcDbEntity
  8
1
  6
PHANTOM
 62
     5
100
AcDbCircle
 10
-57.1037892471894
 20
837.5747396201074
 30
0.0
 40
591.1653293443072
100
AcDbArc
 50
37.94514026737804
 51
41.1967340206557
  0
ARC
  5
12B
330
50
100
AcDbEntity
  8
1
  6
PHANTOM
 62
     5
100
AcDbCircle
 10
756.7498648680863
 20
1651.428393735383
 30
0.0
 40
591.1653293443072
100
AcDbArc
 50
229.0045526367789
 51
232.0548597326219
  0
ARC
  5
12C
330
50
100
AcDbEntity
  8
1
  6
PHANTOM
 62
     5
100
AcDbCircle
 10
347.3994843820559
 20
1246.925120106138
 30
0.0
 40
45.00000000000033
100
AcDbArc
 50
298.8957749554339
 51
333.6386848085121
  0
ARC
  5
12D
330
50
100
AcDbEntity
  8
1
  6
PHANTOM
 62
     5
100
AcDbCircle
 10
-314.8353321590831
 20
1969.307129315287
 30
0.0
 40
999.9999999999964
100
AcDbArc
 50
307.7145265157912
 51
309.3784162572703
  0
ARC
  5
12E
330
50
100
AcDbEntity
  8
1
  6
PHANTOM
 62
     5
100
AcDbCircle
 10
340.3284165701899
 20
1246.925120106138
 30
0.0
 40
45.00000000000012
100
AcDbArc
 50
206.3613151914892
 51
241.1042250445664
  0
ARC
  5
12F
330
50
100
AcDbEntity
  8
1
  6
PHANTOM
 62
     5
100
AcDbCircle
 10
744.8316901994348
 20
837.5747396201074
 30
0.0
 40
591.1653293443068
100
AcDbArc
 50
138.8032659793443
 51
142.0548597326218
  0
ARC
  5
130
330
50
100
AcDbEntity
  8
1
  6
PHANTOM
 62
     5
100
AcDbCircle
 10
1062.710425779342
 20
591.761371376862
 30
0.0
 40
1000.000000000001
100
AcDbArc
 50
138.3405795102229
 51
142.2854734842087
  0
ARC
  5
131
330
50
100
AcDbEntity
  8
1
  6
PHANTOM
 62
     5
100
AcDbCircle
 10
-69.02196391584094
 20
1651.428393735383
 30
0.0
 40
591.1653293443077
100
AcDbArc
 50
307.7145265157914
 51
307.9451402673781
  0
ARC
  5
132
330
50
100
AcDbEntity
  8
1
  6
PHANTOM
 62
     5
100
AcDbCircle
 10
290.4773884965399
 20
1197.074092032488
 30
0.0
 40
12.49999999999967
100
AcDbArc
 50
161.2782275840412
 51
288.7217724159547
  0
ARC
  5
133
330
50
100
AcDbEntity
  8
1
  6
PHANTOM
 62
     5
100
AcDbCircle
 10
285.8811944188259
 20
1192.477897954774
 30
0.0
 40
17.99999999999989
100
AcDbArc
 50
180.0
 51
307.7145265157921
  0
ARC
  5
134
330
50
100
AcDbEntity
  8
1
  6
PHANTOM
 62
     5
100
AcDbCircle
 10
285.8811944188259
 20
1192.477897954774
 30
0.0
 40
11.00000000000006
100
AcDbArc
 50
142.2854734842072
 51
307.7145265157923
  0
ARC
  5
135
330
50
100
AcDbEntity
  8
1
  6
PHANTOM
 62
     5
100
AcDbCircle
 10
744.8316901994348
 20
837.5747396201074
 30
0.0
 40
591.1653293443075
100
AcDbArc
 50
142.0548597326218
 51
142.2854734842087
  0
ARC
  5
136
330
50
100
AcDbEntity
  8
1
  6
PHANTOM
 62
     5
100
AcDbCircle
 10
-69.02196391584094
 20
1651.428393735383
 30
0.0
 40
591.1653293443076
100
AcDbArc
 50
307.9451402673781
 51
310.9954473632212
  0
ARC
  5
137
330
50
100
AcDbEntity
  8
1
  6
PHANTOM
 62
     5
100
AcDbCircle
 10
401.8467065334197
 20
1192.477897954774
 30
0.0
 40
17.99999999999988
100
AcDbArc
 50
232.2854734842081
 51
0.0
  0
ARC
  5
138
330
50
100
AcDbEntity
  8
1
  6
PHANTOM
 62
     5
100
AcDbCircle
 10
285.8811944188259
 20
1192.477897954774
 30
0.0
 40
18.00000000000005
100
AcDbArc
 50
142.2854734842083
 51
180.0
  0
ARC
  5
139
330
50
100
AcDbEntity
  8
1
  6
Continuous
 62
     7
100
AcDbCircle
 10
354.1284912570804
 20
660.3938056563507
 30
0.0
 40
10.00000000000007
100
AcDbArc
 50
19.81251447871799
 51
80.14963277389194
  0
ARC
  5
13A
330
50
100
AcDbEntity
  8
1
  6
Continuous
 62
     7
100
AcDbCircle
 10
333.5994096951654
 20
660.3938056563507
 30
0.0
 40
10.00000000000002
100
AcDbArc
 50
99.85036722610904
 51
160.1874855212817
  0
ARC
  5
13B
330
50
100
AcDbEntity
  8
1
  6
Continuous
 62
     7
100
AcDbCircle
 10
368.3639504761227
 20
611.7783321950305
 30
0.0
 40
0.5
100
AcDbArc
 50
270.0
 51
0.0
  0
ARC
  5
13C
330
50
100
AcDbEntity
  8
1
  6
Continuous
 62
     7
100
AcDbCircle
 10
319.3639504761227
 20
611.7783321950305
 30
0.0
 40
0.5
100
AcDbArc
 50
180.0
 51
270.0
  0
ENDBLK
  5
54
330
50
100
AcDbEntity
  8
0
100
AcDbBlockEnd
  0
BLOCK
  5
56
330
55
100
AcDbEntity
  8
0
100
AcDbBlockBegin
  2
開示A4
 70
     0
 10
0.0
 20
0.0
 30
0.0
  3
開示A4
  1

  0
POINT
  5
13D
330
55
100
AcDbEntity
  8
1
 62
     4
100
AcDbPoint
 10
34.0
 20
34.00000000000001
 30
0.0
  0
POINT
  5
13E
330
55
100
AcDbEntity
  8
1
 62
     4
100
AcDbPoint
 10
57.0
 20
12.25
 30
0.0
  0
POINT
  5
13F
330
55
100
AcDbEntity
  8
1
 62
     4
100
AcDbPoint
 10
57.0
 20
20.75000000000001
 30
0.0
  0
POINT
  5
140
330
55
100
AcDbEntity
  8
1
 62
     4
100
AcDbPoint
 10
57.0
 20
24.75000000000001
 30
0.0
  0
POINT
  5
141
330
55
100
AcDbEntity
  8
1
 62
     4
100
AcDbPoint
 10
57.0
 20
16.25
 30
0.0
  0
POINT
  5
142
330
55
100
AcDbEntity
  8
1
 62
     4
100
AcDbPoint
 10
157.5
 20
19.00000000000001
 30
0.0
  0
POINT
  5
143
330
55
100
AcDbEntity
  8
1
 62
     4
100
AcDbPoint
 10
47.5
 20
282.0000000000003
 30
0.0
  0
POINT
  5
144
330
55
100
AcDbEntity
  8
1
 62
     4
100
AcDbPoint
 10
57.0
 20
22.75000000000001
 30
0.0
  0
POINT
  5
145
330
55
100
AcDbEntity
  8
1
 62
     4
100
AcDbPoint
 10
57.0
 20
14.25
 30
0.0
  0
POINT
  5
146
330
55
100
AcDbEntity
  8
1
 62
     4
100
AcDbPoint
 10
157.5
 20
12.5
 30
0.0
  0
POINT
  5
147
330
55
100
AcDbEntity
  8
1
 62
     4
100
AcDbPoint
 10
163.25
 20
12.5
 30
0.0
  0
POINT
  5
148
330
55
100
AcDbEntity
  8
1
 62
     4
100
AcDbPoint
 10
151.75
 20
12.5
 30
0.0
  0
POINT
  5
149
330
55
100
AcDbEntity
  8
1
 62
     4
100
AcDbPoint
 10
134.75
 20
12.5
 30
0.0
  0
POINT
  5
14A
330
55
100
AcDbEntity
  8
1
 62
     4
100
AcDbPoint
 10
146.25
 20
12.5
 30
0.0
  0
POINT
  5
14B
330
55
100
AcDbEntity
  8
1
 62
     4
100
AcDbPoint
 10
140.5
 20
12.5
 30
0.0
  0
POINT
  5
14C
330
55
100
AcDbEntity
  8
1
 62
     4
100
AcDbPoint
 10
140.5
 20
19.00000000000001
 30
0.0
  0
POINT
  5
14D
330
55
100
AcDbEntity
  8
1
 62
     4
100
AcDbPoint
 10
117.75
 20
12.5
 30
0.0
  0
POINT
  5
14E
330
55
100
AcDbEntity
  8
1
 62
     4
100
AcDbPoint
 10
129.25
 20
12.5
 30
0.0
  0
POINT
  5
14F
330
55
100
AcDbEntity
  8
1
 62
     4
100
AcDbPoint
 10
123.5
 20
12.5
 30
0.0
  0
POINT
  5
150
330
55
100
AcDbEntity
  8
1
 62
     4
100
AcDbPoint
 10
123.5
 20
19.00000000000001
 30
0.0
  0
POINT
  5
151
330
55
100
AcDbEntity
  8
1
 62
     4
100
AcDbPoint
 10
100.75
 20
12.5
 30
0.0
  0
POINT
  5
152
330
55
100
AcDbEntity
  8
1
 62
     4
100
AcDbPoint
 10
112.25
 20
12.5
 30
0.0
  0
POINT
  5
153
330
55
100
AcDbEntity
  8
1
 62
     4
100
AcDbPoint
 10
106.5
 20
12.5
 30
0.0
  0
POINT
  5
154
330
55
100
AcDbEntity
  8
1
 62
     4
100
AcDbPoint
 10
106.5
 20
19.00000000000001
 30
0.0
  0
POINT
  5
155
330
55
100
AcDbEntity
  8
1
 62
     4
100
AcDbPoint
 10
85.25
 20
17.0
 30
0.0
  0
POINT
  5
156
330
55
100
AcDbEntity
  8
1
 62
     4
100
AcDbPoint
 10
93.75
 20
17.0
 30
0.0
  0
LINE
  5
157
330
55
100
AcDbEntity
  8
1
  6
Continuous
 62
     2
100
AcDbLine
 10
81.0
 20
27.00000000000001
 30
0.0
 11
81.0
 21
10.0
 31
0.0
  0
LINE
  5
158
330
55
100
AcDbEntity
  8
1
  6
DOT_CENTER
 62
     2
100
AcDbLine
 10
187.0
 20
26.50000000000001
 30
0.0
 11
187.0
 21
20.50000000000001
 31
0.0
  0
LINE
  5
159
330
55
100
AcDbEntity
  8
1
  6
DOT_CENTER
 62
     2
100
AcDbLine
 10
184.0
 20
23.50000000000001
 30
0.0
 11
197.0
 21
23.50000000000001
 31
0.0
  0
LINE
  5
15A
330
55
100
AcDbEntity
  8
1
  6
Continuous
 62
     7
100
AcDbLine
 10
196.0
 20
21.50000000000001
 30
0.0
 11
191.0
 21
22.30000000000001
 31
0.0
  0
LINE
  5
15B
330
55
100
AcDbEntity
  8
1
  6
Continuous
 62
     7
100
AcDbLine
 10
196.0
 20
25.50000000000001
 30
0.0
 11
196.0
 21
21.50000000000001
 31
0.0
  0
LINE
  5
15C
330
55
100
AcDbEntity
  8
1
  6
Continuous
 62
     7
100
AcDbLine
 10
191.0
 20
24.70000000000001
 30
0.0
 11
196.0
 21
25.50000000000001
 31
0.0
  0
LINE
  5
15D
330
55
100
AcDbEntity
  8
1
  6
Continuous
 62
     7
100
AcDbLine
 10
191.0
 20
24.70000000000001
 30
0.0
 11
191.0
 21
22.30000000000001
 31
0.0
  0
LINE
  5
15E
330
55
100
AcDbEntity
  8
1
  6
Continuous
 62
     2
100
AcDbLine
 10
33.0
 20
27.0
 30
0.0
 11
33.0
 21
10.0
 31
0.0
  0
LINE
  5
15F
330
55
100
AcDbEntity
  8
1
  6
Continuous
 62
     2
100
AcDbLine
 10
25.0
 20
18.50000000000001
 30
0.0
 11
81.0
 21
18.50000000000001
 31
0.0
  0
LINE
  5
160
330
55
100
AcDbEntity
  8
1
  6
Continuous
 62
     7
100
AcDbLine
 10
200.0
 20
287.0000000000003
 30
0.0
 11
105.0
 21
287.0000000000003
 31
0.0
  0
LINE
  5
161
330
55
100
AcDbEntity
  8
1
  6
Continuous
 62
     7
100
AcDbLine
 10
200.0
 20
10.0
 30
0.0
 11
200.0
 21
148.5
 31
0.0
  0
LINE
  5
162
330
55
100
AcDbEntity
  8
1
  6
Continuous
 62
     7
100
AcDbLine
 10
25.0
 20
10.0
 30
0.0
 11
105.0
 21
10.0
 31
0.0
  0
LINE
  5
163
330
55
100
AcDbEntity
  8
1
  6
PHANTOM
 62
     4
100
AcDbLine
 10
0.0
 20
297.0
 30
0.0
 11
0.0
 21
0.0
 31
0.0
  0
LINE
  5
164
330
55
100
AcDbEntity
  8
1
  6
PHANTOM
 62
     4
100
AcDbLine
 10
210.0
 20
297.0
 30
0.0
 11
0.0
 21
297.0
 31
0.0
  0
LINE
  5
165
330
55
100
AcDbEntity
  8
1
  6
PHANTOM
 62
     4
100
AcDbLine
 10
210.0
 20
0.0
 30
0.0
 11
210.0
 21
297.0
 31
0.0
  0
LINE
  5
166
330
55
100
AcDbEntity
  8
1
  6
PHANTOM
 62
     4
100
AcDbLine
 10
0.0
 20
0.0
 30
0.0
 11
210.0
 21
0.0
 31
0.0
  0
LINE
  5
167
330
55
100
AcDbEntity
  8
1
  6
Continuous
 62
     7
100
AcDbLine
 10
25.0
 20
41.0
 30
0.0
 11
200.0
 21
41.0
 31
0.0
  0
LINE
  5
168
330
55
100
AcDbEntity
  8
1
  6
Continuous
 62
     7
100
AcDbLine
 10
200.0
 20
27.00000000000001
 30
0.0
 11
25.0
 21
27.00000000000001
 31
0.0
  0
LINE
  5
169
330
55
100
AcDbEntity
  8
1
  6
Continuous
 62
     2
100
AcDbLine
 10
33.0
 20
41.00000000000001
 30
0.0
 11
33.0
 21
27.0
 31
0.0
  0
LINE
  5
16A
330
55
100
AcDbEntity
  8
1
  6
Continuous
 62
     2
100
AcDbLine
 10
55.0
 20
287.0000000000003
 30
0.0
 11
55.0
 21
277.0000000000003
 31
0.0
  0
LINE
  5
16B
330
55
100
AcDbEntity
  8
1
  6
Continuous
 62
     2
100
AcDbLine
 10
40.0
 20
287.0000000000003
 30
0.0
 11
40.0
 21
277.0000000000003
 31
0.0
  0
LINE
  5
16C
330
55
100
AcDbEntity
  8
1
  6
Continuous
 62
     7
100
AcDbLine
 10
25.0
 20
10.0
 30
0.0
 11
25.0
 21
148.5
 31
0.0
  0
LINE
  5
16D
330
55
100
AcDbEntity
  8
1
  6
Continuous
 62
     2
100
AcDbLine
 10
55.0
 20
277.0000000000003
 30
0.0
 11
25.0
 21
277.0000000000003
 31
0.0
  0
LINE
  5
16E
330
55
100
AcDbEntity
  8
1
  6
Continuous
 62
     2
100
AcDbLine
 10
166.0
 20
27.00000000000001
 30
0.0
 11
166.0
 21
10.0
 31
0.0
  0
LINE
  5
16F
330
55
100
AcDbEntity
  8
1
  6
Continuous
 62
     2
100
AcDbLine
 10
132.0
 20
27.00000000000001
 30
0.0
 11
132.0
 21
9.99999999999999
 31
0.0
  0
LINE
  5
170
330
55
100
AcDbEntity
  8
1
  6
Continuous
 62
     2
100
AcDbLine
 10
149.0
 20
27.00000000000001
 30
0.0
 11
149.0
 21
10.0
 31
0.0
  0
LINE
  5
171
330
55
100
AcDbEntity
  8
1
  6
Continuous
 62
     2
100
AcDbLine
 10
115.0
 20
27.00000000000001
 30
0.0
 11
115.0
 21
9.99999999999999
 31
0.0
  0
LINE
  5
172
330
55
100
AcDbEntity
  8
1
  6
Continuous
 62
     2
100
AcDbLine
 10
98.0
 20
27.00000000000001
 30
0.0
 11
98.0
 21
9.99999999999999
 31
0.0
  0
LINE
  5
173
330
55
100
AcDbEntity
  8
1
  6
Continuous
 62
     2
100
AcDbLine
 10
166.0
 20
20.00000000000001
 30
0.0
 11
200.0
 21
20.00000000000001
 31
0.0
  0
LINE
  5
174
330
55
100
AcDbEntity
  8
1
  6
Continuous
 62
     2
100
AcDbLine
 10
105.0
 20
287.0000000000003
 30
0.0
 11
105.0
 21
292.0000000000003
 31
0.0
  0
LINE
  5
175
330
55
100
AcDbEntity
  8
1
  6
Continuous
 62
     7
100
AcDbLine
 10
105.0
 20
287.0000000000003
 30
0.0
 11
25.0
 21
287.0000000000003
 31
0.0
  0
LINE
  5
176
330
55
100
AcDbEntity
  8
1
  6
Continuous
 62
     2
100
AcDbLine
 10
25.0
 20
148.5
 30
0.0
 11
20.0
 21
148.5
 31
0.0
  0
LINE
  5
177
330
55
100
AcDbEntity
  8
1
  6
Continuous
 62
     7
100
AcDbLine
 10
25.0
 20
148.5
 30
0.0
 11
25.0
 21
287.0000000000003
 31
0.0
  0
LINE
  5
178
330
55
100
AcDbEntity
  8
1
  6
Continuous
 62
     2
100
AcDbLine
 10
200.0
 20
148.5
 30
0.0
 11
205.0
 21
148.5
 31
0.0
  0
LINE
  5
179
330
55
100
AcDbEntity
  8
1
  6
Continuous
 62
     7
100
AcDbLine
 10
200.0
 20
148.5
 30
0.0
 11
200.0
 21
287.0000000000003
 31
0.0
  0
LINE
  5
17A
330
55
100
AcDbEntity
  8
1
  6
Continuous
 62
     2
100
AcDbLine
 10
105.0
 20
10.0
 30
0.0
 11
105.0
 21
5.0
 31
0.0
  0
LINE
  5
17B
330
55
100
AcDbEntity
  8
1
  6
Continuous
 62
     7
100
AcDbLine
 10
105.0
 20
10.0
 30
0.0
 11
200.0
 21
10.0
 31
0.0
  0
CIRCLE
  5
17C
330
55
100
AcDbEntity
  8
1
  6
DOT_CENTER
 62
     7
100
AcDbCircle
 10
89.5
 20
18.0
 30
0.0
 40
0.1000000000000227
  0
CIRCLE
  5
17D
330
55
100
AcDbEntity
  8
1
  6
DOT_CENTER
 62
     7
100
AcDbCircle
 10
89.5
 20
16.0
 30
0.0
 40
0.1000000000000227
  0
CIRCLE
  5
17E
330
55
100
AcDbEntity
  8
1
  6
Continuous
 62
     7
100
AcDbCircle
 10
187.0
 20
23.50000000000001
 30
0.0
 40
2.0
  0
CIRCLE
  5
17F
330
55
100
AcDbEntity
  8
1
  6
Continuous
 62
     7
100
AcDbCircle
 10
187.0
 20
23.50000000000001
 30
0.0
 40
1.200000000000102
  0
CIRCLE
  5
180
330
55
100
AcDbEntity
  8
1
  6
Continuous
 62
     7
100
AcDbCircle
 10
154.5
 20
12.5
 30
0.0
 40
0.3000000000000114
  0
CIRCLE
  5
181
330
55
100
AcDbEntity
  8
1
  6
Continuous
 62
     7
100
AcDbCircle
 10
160.5
 20
12.5
 30
0.0
 40
0.3000000000000114
  0
CIRCLE
  5
182
330
55
100
AcDbEntity
  8
1
  6
Continuous
 62
     7
100
AcDbCircle
 10
143.5
 20
12.5
 30
0.0
 40
0.3000000000000114
  0
CIRCLE
  5
183
330
55
100
AcDbEntity
  8
1
  6
Continuous
 62
     7
100
AcDbCircle
 10
137.5
 20
12.5
 30
0.0
 40
0.3000000000000114
  0
CIRCLE
  5
184
330
55
100
AcDbEntity
  8
1
  6
Continuous
 62
     7
100
AcDbCircle
 10
126.5
 20
12.5
 30
0.0
 40
0.2999999999999972
  0
CIRCLE
  5
185
330
55
100
AcDbEntity
  8
1
  6
Continuous
 62
     7
100
AcDbCircle
 10
120.5
 20
12.5
 30
0.0
 40
0.2999999999999972
  0
CIRCLE
  5
186
330
55
100
AcDbEntity
  8
1
  6
Continuous
 62
     7
100
AcDbCircle
 10
109.5
 20
12.5
 30
0.0
 40
0.2999999999999972
  0
CIRCLE
  5
187
330
55
100
AcDbEntity
  8
1
  6
Continuous
 62
     7
100
AcDbCircle
 10
103.5
 20
12.5
 30
0.0
 40
0.2999999999999972
  0
MTEXT
  5
189
330
55
100
AcDbEntity
  8
1
 62
   250
100
AcDbMText
 10
25.0
 20
5.0
 30
0.0
 40
3.5
 41
0.0
 71
     4
 72
     1
  1
備考欄の文字列 原点位置=4
  7
CONVERTER_11
 73
     1
 44
0.54545454545455
  0
MTEXT
  5
18A
330
55
100
AcDbEntity
  8
1
 62
     2
100
AcDbMText
 10
89.5
 20
24.00000000000001
 30
0.0
 40
3.5
 41
0.0
 71
     5
 72
     1
  1
尺度
  7
CONVERTER_11
 73
     1
 44
0.54545454545455
  0
MTEXT
  5
18B
330
55
100
AcDbEntity
  8
1
 62
     2
100
AcDbMText
 10
135.5
 20
25.00000000000001
 30
0.0
 40
3.0
 41
0.0
 71
     5
 72
     1
  1
製図
  7
CONVERTER_11
 73
     1
 44
0.59090909090909
  0
MTEXT
  5
18C
330
55
100
AcDbEntity
  8
1
 62
     2
100
AcDbMText
 10
152.5
 20
25.00000000000001
 30
0.0
 40
3.0
 41
0.0
 71
     5
 72
     1
  1
設計
  7
CONVERTER_11
 73
     1
 44
0.59090909090909
  0
MTEXT
  5
18D
330
55
100
AcDbEntity
  8
1
 62
     2
100
AcDbMText
 10
118.5
 20
25.00000000000001
 30
0.0
 40
3.0
 41
0.0
 71
     5
 72
     1
  1
検図
  7
CONVERTER_11
 73
     1
 44
0.59090909090909
  0
MTEXT
  5
18E
330
55
100
AcDbEntity
  8
1
 62
     2
100
AcDbMText
 10
175.0
 20
23.50000000000001
 30
0.0
 40
3.5
 41
0.0
 71
     5
 72
     1
  1
第三角法
  7
CONVERTER_11
 73
     1
 44
0.54545454545455
  0
MTEXT
  5
18F
330
55
100
AcDbEntity
  8
1
 62
     2
100
AcDbMText
 10
101.5
 20
25.00000000000001
 30
0.0
 40
3.0
 41
0.0
 71
     5
 72
     1
  1
承認
  7
CONVERTER_11
 73
     1
 44
0.59090909090909
  0
MTEXT
  5
190
330
55
100
AcDbEntity
  8
1
 62
     2
100
AcDbMText
 10
29.0
 20
14.25
 30
0.0
 40
3.5
 41
0.0
 71
     5
 72
     1
  1
品番
  7
CONVERTER_11
 73
     1
 44
0.72727272727273
  0
MTEXT
  5
191
330
55
100
AcDbEntity
  8
1
 62
     2
100
AcDbMText
 10
29.0
 20
22.75
 30
0.0
 40
3.5
 41
0.0
 71
     5
 72
     1
  1
品名
  7
CONVERTER_11
 73
     1
 44
0.72727272727273
  0
MTEXT
  5
192
330
55
100
AcDbEntity
  8
1
 62
     2
100
AcDbMText
 10
29.0
 20
34.00000000000001
 30
0.0
 40
3.5
 41
0.0
 71
     5
 72
     1
  1
備考
  7
CONVERTER_11
 73
     1
 44
0.45454545454545
  0
MTEXT
  5
193
330
55
100
AcDbEntity
  8
1
 62
     2
100
AcDbMText
 10
32.5
 20
282.0000000000003
 30
0.0
 40
5.0
 41
0.0
 71
     5
 72
     1
  1
図番
  7
CONVERTER_11
 73
     1
 44
0.45454545454545
  0
MTEXT
  5
194
330
55
100
AcDbEntity
  8
1
 62
     7
100
AcDbMText
 10
171.5
 20
15.0
 30
0.0
 40
2.5
 41
0.0
 71
     5
 72
     1
  1
株式会社
  7
CONVERTER_11
 73
     1
 44
1.0
  0
MTEXT
  5
195
330
55
100
AcDbEntity
  8
1
 62
     7
100
AcDbMText
 10
188.5
 20
15.0
 30
0.0
 40
3.0
 41
0.0
 71
     5
 72
     1
  1
三栄水栓製作所
  7
CONVERTER_11
 73
     1
 44
1.0
  0
ENDBLK
  5
57
330
55
100
AcDbEntity
  8
0
100
AcDbBlockEnd
  0
BLOCK
  5
59
330
58
100
AcDbEntity
  8
0
100
AcDbBlockBegin
  2
01-110
 70
     0
 10
827.0255463491021
 20
439.137747271616
 30
0.0
  3
01-110
  1

  0
LINE
  5
196
330
58
100
AcDbEntity
  8
1
  6
Continuous
 62
     7
100
AcDbLine
 10
770.9363479900651
 20
494.2783321950305
 30
0.0
 11
770.9363479900651
 21
492.7783321950305
 31
0.0
  0
LINE
  5
197
330
58
100
AcDbEntity
  8
1
  6
Continuous
 62
     7
100
AcDbLine
 10
290.3790006336363
 20
492.7783321950305
 30
0.0
 11
303.1139504761231
 21
492.7783321950305
 31
0.0
  0
LINE
  5
198
330
58
100
AcDbEntity
  8
1
  6
Continuous
 62
     7
100
AcDbLine
 10
770.9363479900651
 20
492.7783321950305
 30
0.0
 11
791.4363479900651
 21
492.7783321950305
 31
0.0
  0
LINE
  5
199
330
58
100
AcDbEntity
  8
1
  6
Continuous
 62
     7
100
AcDbLine
 10
791.4363479900651
 20
492.7783321950305
 30
0.0
 11
791.4363479900651
 21
494.2783321950305
 31
0.0
  0
LINE
  5
19A
330
58
100
AcDbEntity
  8
1
  6
Continuous
 62
     7
100
AcDbLine
 10
282.613950476123
 20
492.7783321950305
 30
0.0
 11
282.613950476123
 21
494.2783321950305
 31
0.0
  0
LINE
  5
19B
330
58
100
AcDbEntity
  8
1
  6
Continuous
 62
     7
100
AcDbLine
 10
282.613950476123
 20
492.7783321950305
 30
0.0
 11
290.3790006336363
 21
492.7783321950305
 31
0.0
  0
LINE
  5
19C
330
58
100
AcDbEntity
  8
1
  6
Continuous
 62
     7
100
AcDbLine
 10
303.113950476123
 20
494.2783321950305
 30
0.0
 11
303.1139504761231
 21
492.7783321950305
 31
0.0
  0
LINE
  5
19D
330
58
100
AcDbEntity
  8
1
  6
Continuous
 62
     7
100
AcDbLine
 10
384.6139504761229
 20
492.7783321950305
 30
0.0
 11
397.3489003186097
 21
492.7783321950305
 31
0.0
  0
LINE
  5
19E
330
58
100
AcDbEntity
  8
1
  6
Continuous
 62
     7
100
AcDbLine
 10
405.113950476123
 20
494.2783321950305
 30
0.0
 11
405.113950476123
 21
492.7783321950305
 31
0.0
  0
LINE
  5
19F
330
58
100
AcDbEntity
  8
1
  6
Continuous
 62
     7
100
AcDbLine
 10
397.3489003186097
 20
492.7783321950305
 30
0.0
 11
405.113950476123
 21
492.7783321950305
 31
0.0
  0
LINE
  5
1A0
330
58
100
AcDbEntity
  8
1
  6
Continuous
 62
     7
100
AcDbLine
 10
384.6139504761229
 20
492.7783321950305
 30
0.0
 11
384.613950476123
 21
494.2783321950305
 31
0.0
  0
ENDBLK
  5
5A
330
58
100
AcDbEntity
  8
0
100
AcDbBlockEnd
  0
BLOCK
  5
5C
330
5B
100
AcDbEntity
  8
0
100
AcDbBlockBegin
  2
32-16__1
 70
     0
 10
135.8169520424775
 20
389.5829318252139
 30
0.0
  3
32-16__1
  1

  0
LINE
  5
1A1
330
5B
100
AcDbEntity
  8
1
  6
Continuous
 62
     7
100
AcDbLine
 10
791.6638479900649
 20
443.7783321950303
 30
0.0
 11
791.4870512203407
 21
443.7783321950303
 31
0.0
  0
LINE
  5
1A2
330
5B
100
AcDbEntity
  8
1
  6
Continuous
 62
     7
100
AcDbLine
 10
770.7088479900647
 20
443.7783321950303
 30
0.0
 11
769.1863435388237
 21
443.7783321950303
 31
0.0
  0
LINE
  5
1A3
330
5B
100
AcDbEntity
  8
1
  6
Continuous
 62
     7
100
AcDbLine
 10
770.8856447597897
 20
443.7783321950303
 30
0.0
 11
770.7088479900647
 21
443.7783321950303
 31
0.0
  0
LINE
  5
1A4
330
5B
100
AcDbEntity
  8
1
  6
Continuous
 62
     7
100
AcDbLine
 10
770.8856447597897
 20
443.7783321950303
 30
0.0
 11
791.4870512203407
 21
443.7783321950303
 31
0.0
  0
LINE
  5
1A5
330
5B
100
AcDbEntity
  8
1
  6
Continuous
 62
     7
100
AcDbLine
 10
793.1863524413064
 20
443.7783321950303
 30
0.0
 11
791.6638479900649
 21
443.7783321950303
 31
0.0
  0
LINE
  5
1A6
330
5B
100
AcDbEntity
  8
1
  6
Continuous
 62
     7
100
AcDbLine
 10
769.1863435388237
 20
429.7783321950303
 30
0.0
 11
793.1863524413064
 21
429.7783321950303
 31
0.0
  0
LINE
  5
1A7
330
5B
100
AcDbEntity
  8
1
  6
Continuous
 62
     7
100
AcDbLine
 10
793.1863524413064
 20
443.7783321950303
 30
0.0
 11
793.1863524413064
 21
429.7783321950303
 31
0.0
  0
LINE
  5
1A8
330
5B
100
AcDbEntity
  8
1
  6
Continuous
 62
     7
100
AcDbLine
 10
769.1863435388237
 20
443.7783321950303
 30
0.0
 11
769.1863435388237
 21
442.7102367669547
 31
0.0
  0
LINE
  5
1A9
330
5B
100
AcDbEntity
  8
1
  6
Continuous
 62
     7
100
AcDbLine
 10
769.1863435388237
 20
430.8464276231052
 30
0.0
 11
769.1863435388237
 21
429.7783321950303
 31
0.0
  0
LINE
  5
1AA
330
5B
100
AcDbEntity
  8
1
  6
Continuous
 62
     7
100
AcDbLine
 10
769.1863435388237
 20
442.7102367669547
 30
0.0
 11
769.1863435388237
 21
430.8464276231052
 31
0.0
  0
LINE
  5
1AB
330
5B
100
AcDbEntity
  8
1
  6
Continuous
 62
     7
100
AcDbLine
 10
781.1863479900651
 20
442.7102367669547
 30
0.0
 11
781.1863479900651
 21
430.8464276231052
 31
0.0
  0
LINE
  5
1AC
330
5B
100
AcDbEntity
  8
1
  6
Continuous
 62
     7
100
AcDbLine
 10
408.7139504761228
 20
442.7102367669547
 30
0.0
 11
408.7139504761228
 21
436.7783321950302
 31
0.0
  0
LINE
  5
1AD
330
5B
100
AcDbEntity
  8
1
  6
Continuous
 62
     7
100
AcDbLine
 10
401.7921537063982
 20
442.7102367669547
 30
0.0
 11
401.7921537063982
 21
430.8464276231052
 31
0.0
  0
LINE
  5
1AE
330
5B
100
AcDbEntity
  8
1
  6
Continuous
 62
     7
100
AcDbLine
 10
387.9357472458473
 20
430.8464276231052
 30
0.0
 11
387.9357472458473
 21
442.7102367669547
 31
0.0
  0
LINE
  5
1AF
330
5B
100
AcDbEntity
  8
1
  6
Continuous
 62
     7
100
AcDbLine
 10
394.8639504761227
 20
443.7783321950303
 30
0.0
 11
384.5632472458473
 21
443.7783321950303
 31
0.0
  0
LINE
  5
1B0
330
5B
100
AcDbEntity
  8
1
  6
Continuous
 62
     7
100
AcDbLine
 10
384.5632472458473
 20
443.7783321950303
 30
0.0
 11
384.3864504761228
 21
443.7783321950303
 31
0.0
  0
LINE
  5
1B1
330
5B
100
AcDbEntity
  8
1
  6
Continuous
 62
     7
100
AcDbLine
 10
406.8639549273643
 20
443.7783321950303
 30
0.0
 11
405.3414504761228
 21
443.7783321950303
 31
0.0
  0
LINE
  5
1B2
330
5B
100
AcDbEntity
  8
1
  6
Continuous
 62
     7
100
AcDbLine
 10
405.3414504761228
 20
443.7783321950303
 30
0.0
 11
405.1646537063983
 21
443.7783321950303
 31
0.0
  0
LINE
  5
1B3
330
5B
100
AcDbEntity
  8
1
  6
Continuous
 62
     7
100
AcDbLine
 10
405.1646537063983
 20
443.7783321950303
 30
0.0
 11
394.8639504761227
 21
443.7783321950303
 31
0.0
  0
LINE
  5
1B4
330
5B
100
AcDbEntity
  8
1
  6
Continuous
 62
     7
100
AcDbLine
 10
382.8639460248813
 20
429.7783321950303
 30
0.0
 11
384.4748488609851
 21
429.7783321950303
 31
0.0
  0
LINE
  5
1B5
330
5B
100
AcDbEntity
  8
1
  6
Continuous
 62
     7
100
AcDbLine
 10
384.4748488609851
 20
429.7783321950303
 30
0.0
 11
394.8639504761227
 21
429.7783321950303
 31
0.0
  0
LINE
  5
1B6
330
5B
100
AcDbEntity
  8
1
  6
Continuous
 62
     7
100
AcDbLine
 10
394.8639504761227
 20
429.7783321950303
 30
0.0
 11
405.2530520912605
 21
429.7783321950303
 31
0.0
  0
LINE
  5
1B7
330
5B
100
AcDbEntity
  8
1
  6
Continuous
 62
     7
100
AcDbLine
 10
408.7139504761228
 20
430.8464276231052
 30
0.0
 11
407.9159877075682
 21
430.3857236038771
 31
0.0
  0
LINE
  5
1B8
330
5B
100
AcDbEntity
  8
1
  6
Continuous
 62
     7
100
AcDbLine
 10
406.8639549273643
 20
443.7783321950303
 30
0.0
 11
407.912819750846
 21
443.1727698068495
 31
0.0
  0
LINE
  5
1B9
330
5B
100
AcDbEntity
  8
1
  6
Continuous
 62
     7
100
AcDbLine
 10
381.0139504761228
 20
442.7102367669547
 30
0.0
 11
381.8150812013994
 21
443.1727698068493
 31
0.0
  0
LINE
  5
1BA
330
5B
100
AcDbEntity
  8
1
  6
Continuous
 62
     7
100
AcDbLine
 10
382.8639460248813
 20
429.7783321950303
 30
0.0
 11
381.8119132446773
 21
430.3857236038771
 31
0.0
  0
LINE
  5
1BB
330
5B
100
AcDbEntity
  8
1
  6
Continuous
 62
     7
100
AcDbLine
 10
384.3864504761228
 20
443.7783321950303
 30
0.0
 11
382.8639460248813
 21
443.7783321950303
 31
0.0
  0
LINE
  5
1BC
330
5B
100
AcDbEntity
  8
1
  6
Continuous
 62
     7
100
AcDbLine
 10
405.2530520912605
 20
429.7783321950303
 30
0.0
 11
406.8639549273643
 21
429.7783321950303
 31
0.0
  0
LINE
  5
1BD
330
5B
100
AcDbEntity
  8
1
  6
Continuous
 62
     7
100
AcDbLine
 10
407.9159877075682
 20
430.3857236038771
 30
0.0
 11
406.8639549273643
 21
429.7783321950303
 31
0.0
  0
LINE
  5
1BE
330
5B
100
AcDbEntity
  8
1
  6
Continuous
 62
     7
100
AcDbLine
 10
407.912819750846
 20
443.1727698068495
 30
0.0
 11
408.7139504761228
 21
442.7102367669547
 31
0.0
  0
LINE
  5
1BF
330
5B
100
AcDbEntity
  8
1
  6
Continuous
 62
     7
100
AcDbLine
 10
408.7139504761228
 20
436.7783321950302
 30
0.0
 11
408.7139504761228
 21
430.8464276231052
 31
0.0
  0
LINE
  5
1C0
330
5B
100
AcDbEntity
  8
1
  6
Continuous
 62
     7
100
AcDbLine
 10
381.0139504761228
 20
430.8464276231052
 30
0.0
 11
381.0139504761228
 21
442.7102367669547
 31
0.0
  0
LINE
  5
1C1
330
5B
100
AcDbEntity
  8
1
  6
Continuous
 62
     7
100
AcDbLine
 10
381.8150812013994
 20
443.1727698068493
 30
0.0
 11
382.8639460248813
 21
443.7783321950303
 31
0.0
  0
LINE
  5
1C2
330
5B
100
AcDbEntity
  8
1
  6
Continuous
 62
     7
100
AcDbLine
 10
381.8119132446773
 20
430.3857236038771
 30
0.0
 11
381.0139504761228
 21
430.8464276231052
 31
0.0
  0
ARC
  5
1C3
330
5B
100
AcDbEntity
  8
1
  6
Continuous
 62
     7
100
AcDbCircle
 10
791.5754496052028
 20
437.6408510043294
 30
0.0
 40
6.138117760409417
100
AcDbArc
 50
89.17482367374313
 51
90.82517632625688
  0
ARC
  5
1C4
330
5B
100
AcDbEntity
  8
1
  6
Continuous
 62
     7
100
AcDbCircle
 10
770.7972463749275
 20
437.6408510043294
 30
0.0
 40
6.138117760409418
100
AcDbArc
 50
89.17482367374207
 51
90.82517632626323
  0
ARC
  5
1C5
330
5B
100
AcDbEntity
  8
1
  6
Continuous
 62
     7
100
AcDbCircle
 10
787.1863479900651
 20
426.3918576969613
 30
0.0
 40
17.38647449806885
100
AcDbArc
 50
69.81235377089692
 51
110.1876462291031
  0
ARC
  5
1C6
330
5B
100
AcDbEntity
  8
1
  6
Continuous
 62
     7
100
AcDbCircle
 10
787.1863479900651
 20
447.1648066930986
 30
0.0
 40
17.38647449806885
100
AcDbArc
 50
249.8123537708969
 51
290.1876462291031
  0
ARC
  5
1C7
330
5B
100
AcDbEntity
  8
1
  6
Continuous
 62
     7
100
AcDbCircle
 10
775.1863457644444
 20
447.1648191954732
 30
0.0
 40
17.38648700044329
100
AcDbArc
 50
249.8123611052578
 51
290.1876388947426
  0
ARC
  5
1C8
330
5B
100
AcDbEntity
  8
1
  6
Continuous
 62
     7
100
AcDbCircle
 10
775.1863457644444
 20
426.3918451945867
 30
0.0
 40
17.38648700044332
100
AcDbArc
 50
69.81236110525738
 51
110.1876388947423
  0
ARC
  5
1C9
330
5B
100
AcDbEntity
  8
1
  6
Continuous
 62
     7
100
AcDbCircle
 10
384.4748488609851
 20
437.6408510043294
 30
0.0
 40
6.138117760409418
100
AcDbArc
 50
89.17482367374207
 51
90.825176326259
  0
ARC
  5
1CA
330
5B
100
AcDbEntity
  8
1
  6
Continuous
 62
     7
100
AcDbCircle
 10
384.4748488609851
 20
437.6408510043294
 30
0.0
 40
6.13811776040942
100
AcDbArc
 50
90.825176326259
 51
115.6784251284486
  0
ARC
  5
1CB
330
5B
100
AcDbEntity
  8
1
  6
Continuous
 62
     7
100
AcDbCircle
 10
405.2530520912605
 20
437.6408510043294
 30
0.0
 40
6.13811776040942
100
AcDbArc
 50
89.174823673741
 51
90.82517632625742
  0
ARC
  5
1CC
330
5B
100
AcDbEntity
  8
1
  6
Continuous
 62
     7
100
AcDbCircle
 10
405.2530520912605
 20
437.6408510043294
 30
0.0
 40
6.138117760409418
100
AcDbArc
 50
90.82517632625742
 51
124.3215748715531
  0
ARC
  5
1CD
330
5B
100
AcDbEntity
  8
1
  6
Continuous
 62
     7
100
AcDbCircle
 10
394.8639504761227
 20
420.7743821022817
 30
0.0
 40
23.0039500927486
100
AcDbArc
 50
90.0
 51
107.5281601363352
  0
ARC
  5
1CE
330
5B
100
AcDbEntity
  8
1
  6
Continuous
 62
     7
100
AcDbCircle
 10
384.4748488609851
 20
435.9194714270632
 30
0.0
 40
6.141139232032856
100
AcDbArc
 50
270.0
 51
304.3023317316591
  0
ARC
  5
1CF
330
5B
100
AcDbEntity
  8
1
  6
Continuous
 62
     7
100
AcDbCircle
 10
394.8639504761227
 20
452.7822822877786
 30
0.0
 40
23.00395009274831
100
AcDbArc
 50
270.0
 51
287.5281601363353
  0
ARC
  5
1D0
330
5B
100
AcDbEntity
  8
1
  6
Continuous
 62
     7
100
AcDbCircle
 10
405.2530520912605
 20
435.9194714270632
 30
0.0
 40
6.141139232032856
100
AcDbArc
 50
270.0
 51
295.6976682683415
  0
ARC
  5
1D1
330
5B
100
AcDbEntity
  8
1
  6
Continuous
 62
     7
100
AcDbCircle
 10
405.2530520912605
 20
437.6408510043294
 30
0.0
 40
6.138117760409291
100
AcDbArc
 50
64.32157487155398
 51
89.174823673741
  0
ARC
  5
1D2
330
5B
100
AcDbEntity
  8
1
  6
Continuous
 62
     7
100
AcDbCircle
 10
384.4748488609851
 20
435.9194714270632
 30
0.0
 40
6.141139232033157
100
AcDbArc
 50
244.302331731658
 51
270.0
  0
ARC
  5
1D3
330
5B
100
AcDbEntity
  8
1
  6
Continuous
 62
     7
100
AcDbCircle
 10
384.4748488609851
 20
437.6408510043294
 30
0.0
 40
6.138117760409133
100
AcDbArc
 50
55.67842512844731
 51
89.17482367374207
  0
ARC
  5
1D4
330
5B
100
AcDbEntity
  8
1
  6
Continuous
 62
     7
100
AcDbCircle
 10
394.8639504761227
 20
452.7822822877786
 30
0.0
 40
23.00395009274867
100
AcDbArc
 50
252.4718398636651
 51
270.0
  0
ARC
  5
1D5
330
5B
100
AcDbEntity
  8
1
  6
Continuous
 62
     7
100
AcDbCircle
 10
405.2530520912605
 20
435.9194714270632
 30
0.0
 40
6.141139232033288
100
AcDbArc
 50
235.6976682683404
 51
270.0
  0
ARC
  5
1D6
330
5B
100
AcDbEntity
  8
1
  6
Continuous
 62
     7
100
AcDbCircle
 10
394.8639504761227
 20
420.7743821022817
 30
0.0
 40
23.00395009274834
100
AcDbArc
 50
72.47183986366443
 51
90.0
  0
ENDBLK
  5
5D
330
5B
100
AcDbEntity
  8
0
100
AcDbBlockEnd
  0
BLOCK
  5
5F
330
5E
100
AcDbEntity
  8
0
100
AcDbBlockBegin
  2
32-25__2
 70
     0
 10
205.180893781212
 20
442.3557556058935
 30
0.0
  3
32-25__2
  1

  0
LINE
  5
1D7
330
5E
100
AcDbEntity
  8
1
  6
Continuous
 62
     7
100
AcDbLine
 10
769.1863479900651
 20
469.2783321950303
 30
0.0
 11
791.487046769099
 21
469.2783321950303
 31
0.0
  0
LINE
  5
1D8
330
5E
100
AcDbEntity
  8
1
  6
Continuous
 62
     7
100
AcDbLine
 10
791.6638479900649
 20
469.2783321950303
 30
0.0
 11
791.487046769099
 21
469.2783321950303
 31
0.0
  0
LINE
  5
1D9
330
5E
100
AcDbEntity
  8
1
  6
Continuous
 62
     7
100
AcDbLine
 10
770.6863479900651
 20
475.2783321950303
 30
0.0
 11
769.1863479900651
 21
475.2783321950303
 31
0.0
  0
LINE
  5
1DA
330
5E
100
AcDbEntity
  8
1
  6
Continuous
 62
     7
100
AcDbLine
 10
793.1863479900651
 20
469.2783321950303
 30
0.0
 11
791.6863479900651
 21
469.2783321950303
 31
0.0
  0
LINE
  5
1DB
330
5E
100
AcDbEntity
  8
1
  6
Continuous
 62
     7
100
AcDbLine
 10
793.1863479900651
 20
469.2783321950303
 30
0.0
 11
793.1863479900651
 21
470.3464276231057
 31
0.0
  0
LINE
  5
1DC
330
5E
100
AcDbEntity
  8
1
  6
Continuous
 62
     7
100
AcDbLine
 10
793.1863479900651
 20
475.2783321950303
 30
0.0
 11
791.6863479900651
 21
475.2783321950303
 31
0.0
  0
LINE
  5
1DD
330
5E
100
AcDbEntity
  8
1
  6
Continuous
 62
     7
100
AcDbLine
 10
769.1863479900651
 20
469.2783321950303
 30
0.0
 11
769.1863479900651
 21
470.3464276231057
 31
0.0
  0
LINE
  5
1DE
330
5E
100
AcDbEntity
  8
1
  6
Continuous
 62
     7
100
AcDbLine
 10
793.1863479900651
 20
470.3464276231057
 30
0.0
 11
793.1863479900651
 21
475.2783321950303
 31
0.0
  0
LINE
  5
1DF
330
5E
100
AcDbEntity
  8
1
  6
Continuous
 62
     7
100
AcDbLine
 10
769.1863479900651
 20
470.3464276231057
 30
0.0
 11
769.1863479900651
 21
475.2783321950303
 31
0.0
  0
LINE
  5
1E0
330
5E
100
AcDbEntity
  8
1
  6
Continuous
 62
     7
100
AcDbLine
 10
781.1863479900651
 20
470.3464276231057
 30
0.0
 11
781.1863479900651
 21
475.2783321950303
 31
0.0
  0
LINE
  5
1E1
330
5E
100
AcDbEntity
  8
1
  6
Continuous
 62
     7
100
AcDbLine
 10
401.7921537063988
 20
475.2783321950303
 30
0.0
 11
401.7921537063988
 21
470.3464276231057
 31
0.0
  0
LINE
  5
1E2
330
5E
100
AcDbEntity
  8
1
  6
Continuous
 62
     7
100
AcDbLine
 10
387.9357472458477
 20
475.2783321950303
 30
0.0
 11
387.9357472458477
 21
470.3464276231057
 31
0.0
  0
LINE
  5
1E3
330
5E
100
AcDbEntity
  8
1
  6
Continuous
 62
     7
100
AcDbLine
 10
406.8639504761233
 20
469.2783321950303
 30
0.0
 11
405.2530498656402
 21
469.2783321950303
 31
0.0
  0
LINE
  5
1E4
330
5E
100
AcDbEntity
  8
1
  6
Continuous
 62
     7
100
AcDbLine
 10
394.8639504761233
 20
469.2783321950303
 30
0.0
 11
384.5632516970892
 21
469.2783321950303
 31
0.0
  0
LINE
  5
1E5
330
5E
100
AcDbEntity
  8
1
  6
Continuous
 62
     7
100
AcDbLine
 10
405.2530498656402
 20
469.2783321950303
 30
0.0
 11
394.8639504761233
 21
469.2783321950303
 31
0.0
  0
LINE
  5
1E6
330
5E
100
AcDbEntity
  8
1
  6
Continuous
 62
     7
100
AcDbLine
 10
408.7139460248818
 20
470.3464276231057
 30
0.0
 11
407.9159803493556
 21
469.8857219255366
 31
0.0
  0
LINE
  5
1E7
330
5E
100
AcDbEntity
  8
1
  6
Continuous
 62
     7
100
AcDbLine
 10
382.8639504761233
 20
469.2783321950303
 30
0.0
 11
381.8150887191353
 21
469.8838928127701
 31
0.0
  0
LINE
  5
1E8
330
5E
100
AcDbEntity
  8
1
  6
Continuous
 62
     7
100
AcDbLine
 10
384.5632516970892
 20
469.2783321950303
 30
0.0
 11
384.3864504761232
 21
469.2783321950303
 31
0.0
  0
LINE
  5
1E9
330
5E
100
AcDbEntity
  8
1
  6
Continuous
 62
     7
100
AcDbLine
 10
408.7139460248818
 20
475.2783321950303
 30
0.0
 11
408.7139460248818
 21
470.3464276231057
 31
0.0
  0
LINE
  5
1EA
330
5E
100
AcDbEntity
  8
1
  6
Continuous
 62
     7
100
AcDbLine
 10
407.9159803493556
 20
469.8857219255366
 30
0.0
 11
406.8639504761233
 21
469.2783321950303
 31
0.0
  0
LINE
  5
1EB
330
5E
100
AcDbEntity
  8
1
  6
Continuous
 62
     7
100
AcDbLine
 10
408.7139460248818
 20
475.2783321950303
 30
0.0
 11
405.3639504761233
 21
475.2783321950303
 31
0.0
  0
LINE
  5
1EC
330
5E
100
AcDbEntity
  8
1
  6
Continuous
 62
     7
100
AcDbLine
 10
381.8150887191353
 20
469.8838928127701
 30
0.0
 11
381.0139549273648
 21
470.3464276231057
 31
0.0
  0
LINE
  5
1ED
330
5E
100
AcDbEntity
  8
1
  6
Continuous
 62
     7
100
AcDbLine
 10
381.0139549273648
 20
470.3464276231057
 30
0.0
 11
381.0139549273648
 21
475.2783321950303
 31
0.0
  0
LINE
  5
1EE
330
5E
100
AcDbEntity
  8
1
  6
Continuous
 62
     7
100
AcDbLine
 10
384.3639504761233
 20
475.2783321950303
 30
0.0
 11
381.0139549273648
 21
475.2783321950303
 31
0.0
  0
LINE
  5
1EF
330
5E
100
AcDbEntity
  8
1
  6
Continuous
 62
     7
100
AcDbLine
 10
384.3639504761233
 20
469.2783321950303
 30
0.0
 11
382.8639504761233
 21
469.2783321950303
 31
0.0
  0
ARC
  5
1F0
330
5E
100
AcDbEntity
  8
1
  6
Continuous
 62
     7
100
AcDbCircle
 10
791.575447379582
 20
475.4158059899605
 30
0.0
 40
6.138110397458544
100
AcDbArc
 50
269.1748019067738
 51
270.8251980932262
  0
ARC
  5
1F1
330
5E
100
AcDbEntity
  8
1
  6
Continuous
 62
     7
100
AcDbCircle
 10
787.1863479900651
 20
486.6648066931015
 30
0.0
 40
17.38647449807115
100
AcDbArc
 50
249.8123537708997
 51
290.1876462291003
  0
ARC
  5
1F2
330
5E
100
AcDbEntity
  8
1
  6
Continuous
 62
     7
100
AcDbCircle
 10
775.1863479900651
 20
486.6648066931012
 30
0.0
 40
17.38647449807083
100
AcDbArc
 50
249.8123537708993
 51
290.1876462291007
  0
ARC
  5
1F3
330
5E
100
AcDbEntity
  8
1
  6
Continuous
 62
     7
100
AcDbCircle
 10
405.2530498656402
 20
475.4194642154939
 30
0.0
 40
6.141132020463601
100
AcDbArc
 50
270.0
 51
295.6976475036668
  0
ARC
  5
1F4
330
5E
100
AcDbEntity
  8
1
  6
Continuous
 62
     7
100
AcDbCircle
 10
384.4748510866064
 20
475.4158059899605
 30
0.0
 40
6.138110397458548
100
AcDbArc
 50
269.1748019067712
 51
270.8251980932246
  0
ARC
  5
1F5
330
5E
100
AcDbEntity
  8
1
  6
Continuous
 62
     7
100
AcDbCircle
 10
384.4748510866064
 20
475.4158059899605
 30
0.0
 40
6.138110397458542
100
AcDbArc
 50
270.8251980932246
 51
304.3215966385203
  0
ARC
  5
1F6
330
5E
100
AcDbEntity
  8
1
  6
Continuous
 62
     7
100
AcDbCircle
 10
394.8639504761233
 20
492.2822822877791
 30
0.0
 40
23.00395009274877
100
AcDbArc
 50
270.0
 51
287.5281601363351
  0
ARC
  5
1F7
330
5E
100
AcDbEntity
  8
1
  6
Continuous
 62
     7
100
AcDbCircle
 10
384.4748510866064
 20
475.4158059899605
 30
0.0
 40
6.138110397458514
100
AcDbArc
 50
244.3215966385186
 51
269.1748019067712
  0
ARC
  5
1F8
330
5E
100
AcDbEntity
  8
1
  6
Continuous
 62
     7
100
AcDbCircle
 10
405.2530498656402
 20
475.4194642154939
 30
0.0
 40
6.141132020463499
100
AcDbArc
 50
235.6976475036685
 51
270.0
  0
ARC
  5
1F9
330
5E
100
AcDbEntity
  8
1
  6
Continuous
 62
     7
100
AcDbCircle
 10
394.8639504761233
 20
492.2822822877791
 30
0.0
 40
23.00395009274874
100
AcDbArc
 50
252.4718398636646
 51
270.0
  0
ENDBLK
  5
60
330
5E
100
AcDbEntity
  8
0
100
AcDbBlockEnd
  0
BLOCK
  5
62
330
61
100
AcDbEntity
  8
0
100
AcDbBlockBegin
  2
73-1-21_5
 70
     0
 10
97.58876906766272
 20
493.6654607305719
 30
0.0
  3
73-1-21_5
  1

  0
LINE
  5
1FA
330
61
100
AcDbEntity
  8
1
  6
Continuous
 62
     7
100
AcDbLine
 10
271.3639504761234
 20
477.7783321950303
 30
0.0
 11
271.3639504761234
 21
476.7783321950303
 31
0.0
  0
LINE
  5
1FB
330
61
100
AcDbEntity
  8
1
  6
Continuous
 62
     7
100
AcDbLine
 10
271.3639504761234
 20
476.7783321950303
 30
0.0
 11
274.6007834692722
 21
476.7783321950303
 31
0.0
  0
LINE
  5
1FC
330
61
100
AcDbEntity
  8
1
  6
Continuous
 62
     7
100
AcDbLine
 10
281.1391318845832
 20
475.2783321950303
 30
0.0
 11
283.9346150402479
 21
475.2783321950303
 31
0.0
  0
LINE
  5
1FD
330
61
100
AcDbEntity
  8
1
  6
Continuous
 62
     7
100
AcDbLine
 10
284.8006404440322
 20
475.2783321950303
 30
0.0
 11
292.3639504678037
 21
475.2783321950303
 31
0.0
  0
LINE
  5
1FE
330
61
100
AcDbEntity
  8
1
  6
Continuous
 62
     7
100
AcDbLine
 10
292.8639504761233
 20
477.7783321950303
 30
0.0
 11
271.3639504761234
 21
477.7783321950303
 31
0.0
  0
LINE
  5
1FF
330
61
100
AcDbEntity
  8
1
  6
Continuous
 62
     7
100
AcDbLine
 10
314.3639504761234
 20
477.7783321950303
 30
0.0
 11
292.8639504761233
 21
477.7783321950303
 31
0.0
  0
LINE
  5
200
330
61
100
AcDbEntity
  8
1
  6
Continuous
 62
     7
100
AcDbLine
 10
293.363950484443
 20
475.2783321950303
 30
0.0
 11
300.9272605082143
 21
475.2783321950303
 31
0.0
  0
LINE
  5
201
330
61
100
AcDbEntity
  8
1
  6
Continuous
 62
     7
100
AcDbLine
 10
301.7932859119989
 20
475.2783321950303
 30
0.0
 11
304.5887690676635
 21
475.2783321950303
 31
0.0
  0
LINE
  5
202
330
61
100
AcDbEntity
  8
1
  6
Continuous
 62
     7
100
AcDbLine
 10
311.1271174829746
 20
476.7783321950303
 30
0.0
 11
314.3639504761234
 21
476.7783321950303
 31
0.0
  0
LINE
  5
203
330
61
100
AcDbEntity
  8
1
  6
Continuous
 62
     7
100
AcDbLine
 10
314.3639504761234
 20
476.7783321950303
 30
0.0
 11
314.3639504761234
 21
477.7783321950303
 31
0.0
  0
LINE
  5
204
330
61
100
AcDbEntity
  8
1
  6
Continuous
 62
     7
100
AcDbLine
 10
274.6007834692722
 20
476.7783321950303
 30
0.0
 11
280.4947822448321
 21
476.7783321950303
 31
0.0
  0
LINE
  5
205
330
61
100
AcDbEntity
  8
1
  6
Continuous
 62
     7
100
AcDbLine
 10
281.2018890260188
 20
476.7783321950303
 30
0.0
 11
287.9829672891941
 21
476.7783321950303
 31
0.0
  0
LINE
  5
206
330
61
100
AcDbEntity
  8
1
  6
Continuous
 62
     7
100
AcDbLine
 10
288.948893115483
 20
476.7783321950303
 30
0.0
 11
296.7790078367635
 21
476.7783321950303
 31
0.0
  0
LINE
  5
207
330
61
100
AcDbEntity
  8
1
  6
Continuous
 62
     7
100
AcDbLine
 10
297.7449336630526
 20
476.7783321950303
 30
0.0
 11
304.5260119262281
 21
476.7783321950303
 31
0.0
  0
LINE
  5
208
330
61
100
AcDbEntity
  8
1
  6
Continuous
 62
     7
100
AcDbLine
 10
305.2331187074145
 20
476.7783321950303
 30
0.0
 11
311.1271174829746
 21
476.7783321950303
 31
0.0
  0
LINE
  5
209
330
61
100
AcDbEntity
  8
1
  6
Continuous
 62
     7
100
AcDbLine
 10
759.6863479900651
 20
477.7783321950303
 30
0.0
 11
759.6863479900651
 21
476.7783321950303
 31
0.0
  0
LINE
  5
20A
330
61
100
AcDbEntity
  8
1
  6
Continuous
 62
     7
100
AcDbLine
 10
759.6863479900651
 20
476.7783321950303
 30
0.0
 11
762.923180983214
 21
476.7783321950303
 31
0.0
  0
LINE
  5
20B
330
61
100
AcDbEntity
  8
1
  6
Continuous
 62
     7
100
AcDbLine
 10
769.461529398525
 20
475.2783321950303
 30
0.0
 11
772.2570125541895
 21
475.2783321950303
 31
0.0
  0
LINE
  5
20C
330
61
100
AcDbEntity
  8
1
  6
Continuous
 62
     7
100
AcDbLine
 10
773.123037957974
 20
475.2783321950303
 30
0.0
 11
780.6863479817454
 21
475.2783321950303
 31
0.0
  0
LINE
  5
20D
330
61
100
AcDbEntity
  8
1
  6
Continuous
 62
     7
100
AcDbLine
 10
781.1863479900651
 20
477.7783321950303
 30
0.0
 11
759.6863479900651
 21
477.7783321950303
 31
0.0
  0
LINE
  5
20E
330
61
100
AcDbEntity
  8
1
  6
Continuous
 62
     7
100
AcDbLine
 10
802.6863479900651
 20
477.7783321950303
 30
0.0
 11
781.1863479900651
 21
477.7783321950303
 31
0.0
  0
LINE
  5
20F
330
61
100
AcDbEntity
  8
1
  6
Continuous
 62
     7
100
AcDbLine
 10
781.6863479983847
 20
475.2783321950303
 30
0.0
 11
789.2496580221564
 21
475.2783321950303
 31
0.0
  0
LINE
  5
210
330
61
100
AcDbEntity
  8
1
  6
Continuous
 62
     7
100
AcDbLine
 10
790.1156834259407
 20
475.2783321950303
 30
0.0
 11
792.9111665816052
 21
475.2783321950303
 31
0.0
  0
LINE
  5
211
330
61
100
AcDbEntity
  8
1
  6
Continuous
 62
     7
100
AcDbLine
 10
799.4495149969164
 20
476.7783321950303
 30
0.0
 11
802.6863479900651
 21
476.7783321950303
 31
0.0
  0
LINE
  5
212
330
61
100
AcDbEntity
  8
1
  6
Continuous
 62
     7
100
AcDbLine
 10
802.6863479900651
 20
476.7783321950303
 30
0.0
 11
802.6863479900651
 21
477.7783321950303
 31
0.0
  0
LINE
  5
213
330
61
100
AcDbEntity
  8
1
  6
Continuous
 62
     7
100
AcDbLine
 10
762.923180983214
 20
476.7783321950303
 30
0.0
 11
768.817179758774
 21
476.7783321950303
 31
0.0
  0
LINE
  5
214
330
61
100
AcDbEntity
  8
1
  6
Continuous
 62
     7
100
AcDbLine
 10
769.5242865399604
 20
476.7783321950303
 30
0.0
 11
776.305364803136
 21
476.7783321950303
 31
0.0
  0
LINE
  5
215
330
61
100
AcDbEntity
  8
1
  6
Continuous
 62
     7
100
AcDbLine
 10
777.2712906294248
 20
476.7783321950303
 30
0.0
 11
785.1014053507056
 21
476.7783321950303
 31
0.0
  0
LINE
  5
216
330
61
100
AcDbEntity
  8
1
  6
Continuous
 62
     7
100
AcDbLine
 10
786.0673311769946
 20
476.7783321950303
 30
0.0
 11
792.8484094401699
 21
476.7783321950303
 31
0.0
  0
LINE
  5
217
330
61
100
AcDbEntity
  8
1
  6
Continuous
 62
     7
100
AcDbLine
 10
793.5555162213566
 20
476.7783321950303
 30
0.0
 11
799.4495149969164
 21
476.7783321950303
 31
0.0
  0
LINE
  5
218
330
61
100
AcDbEntity
  8
1
  6
Continuous
 62
     7
100
AcDbLine
 10
416.3639504761227
 20
476.7783321950303
 30
0.0
 11
416.3639504761227
 21
477.7783321950303
 31
0.0
  0
LINE
  5
219
330
61
100
AcDbEntity
  8
1
  6
Continuous
 62
     7
100
AcDbLine
 10
413.1271174829739
 20
476.7783321950303
 30
0.0
 11
416.3639504761227
 21
476.7783321950303
 31
0.0
  0
LINE
  5
21A
330
61
100
AcDbEntity
  8
1
  6
Continuous
 62
     7
100
AcDbLine
 10
403.7932859119981
 20
475.2783321950303
 30
0.0
 11
406.588769067663
 21
475.2783321950303
 31
0.0
  0
LINE
  5
21B
330
61
100
AcDbEntity
  8
1
  6
Continuous
 62
     7
100
AcDbLine
 10
395.3639504844423
 20
475.2783321950303
 30
0.0
 11
402.9272605082138
 21
475.2783321950303
 31
0.0
  0
LINE
  5
21C
330
61
100
AcDbEntity
  8
1
  6
Continuous
 62
     7
100
AcDbLine
 10
416.3639504761227
 20
477.7783321950303
 30
0.0
 11
394.8639504761227
 21
477.7783321950303
 31
0.0
  0
LINE
  5
21D
330
61
100
AcDbEntity
  8
1
  6
Continuous
 62
     7
100
AcDbLine
 10
394.8639504761227
 20
477.7783321950303
 30
0.0
 11
373.3639504761226
 21
477.7783321950303
 31
0.0
  0
LINE
  5
21E
330
61
100
AcDbEntity
  8
1
  6
Continuous
 62
     7
100
AcDbLine
 10
386.8006404440317
 20
475.2783321950303
 30
0.0
 11
394.363950467803
 21
475.2783321950303
 31
0.0
  0
LINE
  5
21F
330
61
100
AcDbEntity
  8
1
  6
Continuous
 62
     7
100
AcDbLine
 10
383.1391318845825
 20
475.2783321950303
 30
0.0
 11
385.9346150402471
 21
475.2783321950303
 31
0.0
  0
LINE
  5
220
330
61
100
AcDbEntity
  8
1
  6
Continuous
 62
     7
100
AcDbLine
 10
373.3639504761226
 20
476.7783321950303
 30
0.0
 11
376.6007834692715
 21
476.7783321950303
 31
0.0
  0
LINE
  5
221
330
61
100
AcDbEntity
  8
1
  6
Continuous
 62
     7
100
AcDbLine
 10
373.3639504761226
 20
477.7783321950303
 30
0.0
 11
373.3639504761226
 21
476.7783321950303
 31
0.0
  0
LINE
  5
222
330
61
100
AcDbEntity
  8
1
  6
Continuous
 62
     7
100
AcDbLine
 10
407.233118707414
 20
476.7783321950303
 30
0.0
 11
413.1271174829739
 21
476.7783321950303
 31
0.0
  0
LINE
  5
223
330
61
100
AcDbEntity
  8
1
  6
Continuous
 62
     7
100
AcDbLine
 10
399.7449336630521
 20
476.7783321950303
 30
0.0
 11
406.5260119262273
 21
476.7783321950303
 31
0.0
  0
LINE
  5
224
330
61
100
AcDbEntity
  8
1
  6
Continuous
 62
     7
100
AcDbLine
 10
390.9488931154825
 20
476.7783321950303
 30
0.0
 11
398.779007836763
 21
476.7783321950303
 31
0.0
  0
LINE
  5
225
330
61
100
AcDbEntity
  8
1
  6
Continuous
 62
     7
100
AcDbLine
 10
383.2018890260179
 20
476.7783321950303
 30
0.0
 11
389.9829672891934
 21
476.7783321950303
 31
0.0
  0
LINE
  5
226
330
61
100
AcDbEntity
  8
1
  6
Continuous
 62
     7
100
AcDbLine
 10
376.6007834692715
 20
476.7783321950303
 30
0.0
 11
382.4947822448315
 21
476.7783321950303
 31
0.0
  0
ARC
  5
227
330
61
100
AcDbEntity
  8
1
  6
Continuous
 62
     7
100
AcDbCircle
 10
281.1391318845832
 20
485.2783321950303
 30
0.0
 40
10.0
100
AcDbArc
 50
244.1580672368328
 51
270.0
  0
ARC
  5
228
330
61
100
AcDbEntity
  8
1
  6
Continuous
 62
     7
100
AcDbCircle
 10
304.5887690676635
 20
485.2783321950303
 30
0.0
 40
10.0
100
AcDbArc
 50
270.0
 51
295.8419327631672
  0
ARC
  5
229
330
61
100
AcDbEntity
  8
1
  6
Continuous
 62
     7
100
AcDbCircle
 10
769.461529398525
 20
485.2783321950303
 30
0.0
 40
10.0
100
AcDbArc
 50
244.1580672368328
 51
270.0
  0
ARC
  5
22A
330
61
100
AcDbEntity
  8
1
  6
Continuous
 62
     7
100
AcDbCircle
 10
792.9111665816052
 20
485.2783321950303
 30
0.0
 40
10.0
100
AcDbArc
 50
270.0
 51
295.8419327631683
  0
ARC
  5
22B
330
61
100
AcDbEntity
  8
1
  6
Continuous
 62
     7
100
AcDbCircle
 10
406.588769067663
 20
485.2783321950303
 30
0.0
 40
10.0
100
AcDbArc
 50
270.0
 51
295.8419327631663
  0
ARC
  5
22C
330
61
100
AcDbEntity
  8
1
  6
Continuous
 62
     7
100
AcDbCircle
 10
383.1391318845825
 20
485.2783321950303
 30
0.0
 40
9.999999999999979
100
AcDbArc
 50
244.1580672368331
 51
270.0
  0
SPLINE
  5
22D
330
61
100
AcDbEntity
  8
1
  6
Continuous
 62
     7
100
AcDbSpline
210
0.0
220
0.0
230
1.0
 70
     8
 71
     3
 72
    31
 73
    27
 74
    25
 42
0.000000001
 43
0.0000000001
 44
0.00000001
 40
0.0
 40
0.0
 40
0.0
 40
0.0
 40
0.2709659657162202
 40
0.5252266825988496
 40
1.065749191989553
 40
1.674599338716264
 40
2.320394603574456
 40
2.934363293921567
 40
3.290221355350087
 40
3.646480797917734
 40
4.682658411629304
 40
5.750236623408963
 40
6.775822658068903
 40
7.208802824113915
 40
7.646130372373303
 40
8.816358621488058
 40
10.01163910374898
 40
11.17461240969558
 40
11.65874765828539
 40
12.14501675838397
 40
13.08086599532722
 40
14.040990148184
 40
14.98716394131835
 40
15.89608035491232
 40
16.14448976460338
 40
16.3962879637102
 40
16.3962879637102
 40
16.3962879637102
 40
16.3962879637102
 10
379.8978878233612
 20
475.8181875378069
 30
0.0
 10
379.9812843761201
 20
475.78388825551
 30
0.0
 10
380.1429360193954
 20
475.7174042562086
 30
0.0
 10
380.4896551503242
 20
475.6202379621364
 30
0.0
 10
380.9697995479174
 20
475.7520198671307
 30
0.0
 10
381.4439372137648
 20
476.1190583633293
 30
0.0
 10
381.9224095558064
 20
476.5140061144331
 30
0.0
 10
382.4029291366104
 20
476.7861844597059
 30
0.0
 10
382.8488027356817
 20
476.8344440063045
 30
0.0
 10
383.4313843527607
 20
476.7610902674281
 30
0.0
 10
384.1721283873101
 20
476.3532916421477
 30
0.0
 10
384.969046941558
 20
475.6973282346719
 30
0.0
 10
385.7316626623081
 20
475.2789770977999
 30
0.0
 10
386.367243544847
 20
475.2213201997746
 30
0.0
 10
387.0480668830641
 20
475.2896639853225
 30
0.0
 10
387.9150370476926
 20
475.6948735862455
 30
0.0
 10
388.8756118837052
 20
476.357696946394
 30
0.0
 10
389.7522841294398
 20
476.7735494031041
 30
0.0
 10
390.4656436267733
 20
476.8400654477937
 30
0.0
 10
391.1024908034882
 20
476.7802852360732
 30
0.0
 10
391.8496367448156
 20
476.4755953740064
 30
0.0
 10
392.6521781940668
 20
475.9741429090216
 30
0.0
 10
393.457820064407
 20
475.4926019657205
 30
0.0
 10
394.1429520478587
 20
475.2770085085933
 30
0.0
 10
394.6134950559185
 20
475.2688337631469
 30
0.0
 10
394.7800891239867
 20
475.2751517880184
 30
0.0
 10
394.8639504761227
 20
475.2783321950303
 30
0.0
 11
379.8978878233612
 21
475.8181875378069
 31
0.0
 11
380.1505313976905
 21
475.7202396853125
 31
0.0
 11
380.3978878233612
 21
475.6613898016905
 31
0.0
 11
380.9266111215355
 21
475.7737119017783
 31
0.0
 11
381.4317974533538
 21
476.1135431390635
 31
0.0
 11
381.9442525755434
 21
476.5065333059971
 31
0.0
 11
382.4947822448315
 21
476.7783321950303
 31
0.0
 11
382.8481335227235
 21
476.8204965691433
 31
0.0
 11
383.2018890260179
 21
476.7783321950303
 31
0.0
 11
384.1389654370638
 21
476.3361197492072
 31
0.0
 11
385.0054568062306
 21
475.7124884925632
 31
0.0
 11
385.9346150402471
 21
475.2783321950303
 31
0.0
 11
386.3654433026104
 21
475.2352180067418
 31
0.0
 11
386.8006404440317
 21
475.2783321950303
 31
0.0
 11
387.8858191784944
 21
475.7163062460256
 31
0.0
 11
388.9063339631747
 21
476.3385963746136
 31
0.0
 11
389.9829672891934
 21
476.7783321950303
 31
0.0
 11
390.4648583297588
 21
476.8248935969141
 31
0.0
 11
390.9488931154825
 21
476.7783321950303
 31
0.0
 11
391.8275834078968
 21
476.4562807009143
 31
0.0
 11
392.6579562826012
 21
475.9742855996401
 31
0.0
 11
393.4875619139061
 21
475.5193137960609
 31
0.0
 11
394.3639504761225
 21
475.2783321950303
 31
0.0
 11
394.6122553761508
 21
475.2711272760376
 31
0.0
 11
394.8639504761227
 21
475.2783321950303
 31
0.0
  0
SPLINE
  5
22E
330
61
100
AcDbEntity
  8
1
  6
Continuous
 62
     7
100
AcDbSpline
210
0.0
220
0.0
230
1.0
 70
     8
 71
     3
 72
    31
 73
    27
 74
    25
 42
0.000000001
 43
0.0000000001
 44
0.00000001
 40
0.0
 40
0.0
 40
0.0
 40
0.0
 40
0.2709659657161673
 40
0.5252266825988521
 40
1.0657491919895
 40
1.6745993387161
 40
2.320394603574406
 40
2.934363293921467
 40
3.290221355350043
 40
3.646480797917973
 40
4.682658411629594
 40
5.750236623409273
 40
6.775822658069165
 40
7.208802824114008
 40
7.646130372373225
 40
8.816358621487938
 40
10.01163910374891
 40
11.1746124096955
 40
11.65874765828536
 40
12.14501675838388
 40
13.08086599532719
 40
14.04099014818402
 40
14.98716394131852
 40
15.89608035491254
 40
16.14448976460349
 40
16.39628796371025
 40
16.39628796371025
 40
16.39628796371025
 40
16.39628796371025
 10
409.8300131288842
 20
475.8181875378069
 30
0.0
 10
409.7466165761253
 20
475.7838882555101
 30
0.0
 10
409.5849649328502
 20
475.7174042562085
 30
0.0
 10
409.2382458019212
 20
475.6202379621363
 30
0.0
 10
408.7581014043282
 20
475.7520198671306
 30
0.0
 10
408.2839637384806
 20
476.1190583633291
 30
0.0
 10
407.8054913964392
 20
476.5140061144331
 30
0.0
 10
407.3249718156351
 20
476.7861844597059
 30
0.0
 10
406.8790982165636
 20
476.8344440063046
 30
0.0
 10
406.2965165994846
 20
476.761090267428
 30
0.0
 10
405.5557725649349
 20
476.3532916421481
 30
0.0
 10
404.7588540106874
 20
475.6973282346714
 30
0.0
 10
403.996238289937
 20
475.2789770978001
 30
0.0
 10
403.3606574073984
 20
475.2213201997746
 30
0.0
 10
402.6798340691813
 20
475.2896639853225
 30
0.0
 10
401.8128639045531
 20
475.6948735862455
 30
0.0
 10
400.8522890685402
 20
476.3576969463937
 30
0.0
 10
399.9756168228058
 20
476.7735494031039
 30
0.0
 10
399.2622573254723
 20
476.8400654477937
 30
0.0
 10
398.6254101487573
 20
476.7802852360733
 30
0.0
 10
397.8782642074299
 20
476.4755953740065
 30
0.0
 10
397.0757227581785
 20
475.9741429090216
 30
0.0
 10
396.2700808878386
 20
475.4926019657205
 30
0.0
 10
395.5849489043863
 20
475.2770085085933
 30
0.0
 10
395.114405896327
 20
475.2688337631469
 30
0.0
 10
394.9478118282588
 20
475.2751517880185
 30
0.0
 10
394.8639504761227
 20
475.2783321950303
 30
0.0
 11
409.8300131288842
 21
475.8181875378069
 31
0.0
 11
409.5773695545549
 21
475.7202396853125
 31
0.0
 11
409.3300131288842
 21
475.6613898016905
 31
0.0
 11
408.80128983071
 21
475.7737119017783
 31
0.0
 11
408.2961034988917
 21
476.1135431390634
 31
0.0
 11
407.7836483767021
 21
476.5065333059971
 31
0.0
 11
407.233118707414
 21
476.7783321950303
 31
0.0
 11
406.879767429522
 21
476.8204965691433
 31
0.0
 11
406.5260119262273
 21
476.7783321950303
 31
0.0
 11
405.5889355151813
 21
476.3361197492072
 31
0.0
 11
404.7224441460146
 21
475.7124884925631
 31
0.0
 11
403.7932859119981
 21
475.2783321950303
 31
0.0
 11
403.362457649635
 21
475.2352180067418
 31
0.0
 11
402.9272605082138
 21
475.2783321950303
 31
0.0
 11
401.8420817737511
 21
475.7163062460255
 31
0.0
 11
400.8215669890707
 21
476.3385963746135
 31
0.0
 11
399.7449336630521
 21
476.7783321950303
 31
0.0
 11
399.2630426224867
 21
476.8248935969141
 31
0.0
 11
398.779007836763
 21
476.7783321950303
 31
0.0
 11
397.9003175443486
 21
476.4562807009143
 31
0.0
 11
397.0699446696443
 21
475.9742855996401
 31
0.0
 11
396.2403390383391
 21
475.5193137960609
 31
0.0
 11
395.3639504761227
 21
475.2783321950303
 31
0.0
 11
395.1156455760945
 21
475.2711272760376
 31
0.0
 11
394.8639504761227
 21
475.2783321950303
 31
0.0
  0
SPLINE
  5
22F
330
61
100
AcDbEntity
  8
1
  6
Continuous
 62
     7
100
AcDbSpline
210
0.0
220
0.0
230
1.0
 70
     8
 71
     3
 72
    31
 73
    27
 74
    25
 42
0.000000001
 43
0.0000000001
 44
0.00000001
 40
0.0
 40
0.0
 40
0.0
 40
0.0
 40
0.2709659657161673
 40
0.5252266825988521
 40
1.065749191989333
 40
1.674599338715886
 40
2.320394603574282
 40
2.934363293921344
 40
3.290221355350033
 40
3.64648079791785
 40
4.682658411629419
 40
5.750236623409124
 40
6.775822658069065
 40
7.208802824113738
 40
7.646130372373012
 40
8.816358621487778
 40
10.01163910374895
 40
11.17461240969545
 40
11.6587476582852
 40
12.14501675838366
 40
13.08086599532712
 40
14.04099014818391
 40
14.98716394131856
 40
15.89608035491258
 40
16.14448976460359
 40
16.39628796371024
 40
16.39628796371024
 40
16.39628796371024
 40
16.39628796371024
 10
796.1524106428267
 20
475.8181875378069
 30
0.0
 10
796.0690140900679
 20
475.7838882555101
 30
0.0
 10
795.9073624467928
 20
475.7174042562086
 30
0.0
 10
795.5606433158634
 20
475.6202379621364
 30
0.0
 10
795.0804989182707
 20
475.7520198671305
 30
0.0
 10
794.6063612524238
 20
476.1190583633294
 30
0.0
 10
794.1278889103817
 20
476.5140061144328
 30
0.0
 10
793.6473693295777
 20
476.7861844597061
 30
0.0
 10
793.2014957305062
 20
476.8344440063046
 30
0.0
 10
792.618914113427
 20
476.7610902674279
 30
0.0
 10
791.8781700788777
 20
476.353291642148
 30
0.0
 10
791.08125152463
 20
475.6973282346718
 30
0.0
 10
790.3186358038796
 20
475.2789770978
 30
0.0
 10
789.6830549213411
 20
475.2213201997746
 30
0.0
 10
789.0022315831241
 20
475.2896639853226
 30
0.0
 10
788.1352614184954
 20
475.6948735862453
 30
0.0
 10
787.1746865824829
 20
476.357696946394
 30
0.0
 10
786.2980143367482
 20
476.7735494031038
 30
0.0
 10
785.584654839415
 20
476.8400654477937
 30
0.0
 10
784.9478076626996
 20
476.7802852360731
 30
0.0
 10
784.2006617213723
 20
476.4755953740065
 30
0.0
 10
783.3981202721211
 20
475.9741429090216
 30
0.0
 10
782.5924784017807
 20
475.4926019657205
 30
0.0
 10
781.9073464183286
 20
475.2770085085934
 30
0.0
 10
781.4368034102692
 20
475.2688337631467
 30
0.0
 10
781.2702093422013
 20
475.2751517880185
 30
0.0
 10
781.1863479900651
 20
475.2783321950303
 30
0.0
 11
796.1524106428267
 21
475.8181875378069
 31
0.0
 11
795.8997670684975
 21
475.7202396853125
 31
0.0
 11
795.6524106428267
 21
475.6613898016905
 31
0.0
 11
795.1236873446526
 21
475.7737119017783
 31
0.0
 11
794.6185010128344
 21
476.1135431390634
 31
0.0
 11
794.1060458906447
 21
476.5065333059971
 31
0.0
 11
793.5555162213566
 21
476.7783321950303
 31
0.0
 11
793.2021649434645
 21
476.8204965691433
 31
0.0
 11
792.8484094401699
 21
476.7783321950303
 31
0.0
 11
791.911333029124
 21
476.3361197492072
 31
0.0
 11
791.0448416599571
 21
475.7124884925632
 31
0.0
 11
790.1156834259407
 21
475.2783321950303
 31
0.0
 11
789.6848551635776
 21
475.2352180067418
 31
0.0
 11
789.2496580221564
 21
475.2783321950303
 31
0.0
 11
788.1644792876937
 21
475.7163062460255
 31
0.0
 11
787.1439645030132
 21
476.3385963746136
 31
0.0
 11
786.0673311769946
 21
476.7783321950303
 31
0.0
 11
785.5854401364293
 21
476.8248935969141
 31
0.0
 11
785.1014053507056
 21
476.7783321950303
 31
0.0
 11
784.2227150582911
 21
476.4562807009143
 31
0.0
 11
783.3923421835867
 21
475.9742855996401
 31
0.0
 11
782.5627365522815
 21
475.5193137960609
 31
0.0
 11
781.6863479900651
 21
475.2783321950303
 31
0.0
 11
781.4380430900368
 21
475.2711272760376
 31
0.0
 11
781.1863479900651
 21
475.2783321950303
 31
0.0
  0
SPLINE
  5
230
330
61
100
AcDbEntity
  8
1
  6
Continuous
 62
     7
100
AcDbSpline
210
0.0
220
0.0
230
1.0
 70
     8
 71
     3
 72
    31
 73
    27
 74
    25
 42
0.000000001
 43
0.0000000001
 44
0.00000001
 40
0.0
 40
0.0
 40
0.0
 40
0.0
 40
0.2709659657162732
 40
0.5252266825988474
 40
1.065749191989551
 40
1.674599338716167
 40
2.320394603574494
 40
2.934363293921555
 40
3.290221355350018
 40
3.646480797917722
 40
4.682658411629291
 40
5.750236623408904
 40
6.775822658068845
 40
7.208802824113744
 40
7.646130372373018
 40
8.816358621487932
 40
10.01163910374905
 40
11.17461240969554
 40
11.65874765828528
 40
12.14501675838362
 40
13.08086599532698
 40
14.04099014818367
 40
14.98716394131822
 40
15.89608035491235
 40
16.14448976460324
 40
16.39628796371
 40
16.39628796371
 40
16.39628796371
 40
16.39628796371
 10
766.2202853373037
 20
475.8181875378069
 30
0.0
 10
766.3036818900626
 20
475.78388825551
 30
0.0
 10
766.4653335333379
 20
475.7174042562086
 30
0.0
 10
766.8120526642666
 20
475.6202379621364
 30
0.0
 10
767.29219706186
 20
475.7520198671307
 30
0.0
 10
767.7663347277071
 20
476.1190583633294
 30
0.0
 10
768.244807069749
 20
476.5140061144329
 30
0.0
 10
768.7253266505529
 20
476.786184459706
 30
0.0
 10
769.1712002496242
 20
476.8344440063046
 30
0.0
 10
769.7537818667032
 20
476.7610902674279
 30
0.0
 10
770.4945259012528
 20
476.3532916421482
 30
0.0
 10
771.2914444555001
 20
475.6973282346715
 30
0.0
 10
772.0540601762507
 20
475.2789770978
 30
0.0
 10
772.6896410587893
 20
475.2213201997746
 30
0.0
 10
773.3704643970065
 20
475.2896639853225
 30
0.0
 10
774.237434561635
 20
475.6948735862456
 30
0.0
 10
775.1980093976476
 20
476.3576969463937
 30
0.0
 10
776.0746816433823
 20
476.7735494031041
 30
0.0
 10
776.7880411407157
 20
476.8400654477934
 30
0.0
 10
777.4248883174308
 20
476.7802852360734
 30
0.0
 10
778.1720342587578
 20
476.4755953740063
 30
0.0
 10
778.9745757080091
 20
475.9741429090217
 30
0.0
 10
779.7802175783495
 20
475.4926019657205
 30
0.0
 10
780.4653495618011
 20
475.2770085085933
 30
0.0
 10
780.9358925698609
 20
475.2688337631468
 30
0.0
 10
781.102486637929
 20
475.2751517880184
 30
0.0
 10
781.1863479900651
 20
475.2783321950303
 30
0.0
 11
766.2202853373037
 21
475.8181875378069
 31
0.0
 11
766.4729289116331
 21
475.7202396853125
 31
0.0
 11
766.7202853373037
 21
475.6613898016905
 31
0.0
 11
767.249008635478
 21
475.7737119017783
 31
0.0
 11
767.7541949672963
 21
476.1135431390635
 31
0.0
 11
768.2666500894859
 21
476.5065333059971
 31
0.0
 11
768.817179758774
 21
476.7783321950303
 31
0.0
 11
769.1705310366659
 21
476.8204965691433
 31
0.0
 11
769.5242865399604
 21
476.7783321950303
 31
0.0
 11
770.4613629510063
 21
476.3361197492072
 31
0.0
 11
771.3278543201731
 21
475.7124884925632
 31
0.0
 11
772.2570125541895
 21
475.2783321950303
 31
0.0
 11
772.6878408165528
 21
475.2352180067418
 31
0.0
 11
773.123037957974
 21
475.2783321950303
 31
0.0
 11
774.2082166924368
 21
475.7163062460256
 31
0.0
 11
775.2287314771173
 21
476.3385963746136
 31
0.0
 11
776.305364803136
 21
476.7783321950303
 31
0.0
 11
776.7872558437012
 21
476.824893596914
 31
0.0
 11
777.2712906294248
 21
476.7783321950303
 31
0.0
 11
778.1499809218392
 21
476.4562807009143
 31
0.0
 11
778.9803537965435
 21
475.9742855996401
 31
0.0
 11
779.8099594278485
 21
475.5193137960609
 31
0.0
 11
780.6863479900651
 21
475.2783321950303
 31
0.0
 11
780.9346528900933
 21
475.2711272760376
 31
0.0
 11
781.1863479900651
 21
475.2783321950303
 31
0.0
  0
SPLINE
  5
231
330
61
100
AcDbEntity
  8
1
  6
Continuous
 62
     7
100
AcDbSpline
210
0.0
220
0.0
230
1.0
 70
     8
 71
     3
 72
    31
 73
    27
 74
    25
 42
0.000000001
 43
0.0000000001
 44
0.00000001
 40
0.0
 40
0.0
 40
0.0
 40
0.0
 40
0.2709659657162202
 40
0.5252266825988496
 40
1.065749191989498
 40
1.674599338716208
 40
2.320394603574445
 40
2.934363293921608
 40
3.290221355350128
 40
3.646480797917832
 40
4.682658411629401
 40
5.750236623409107
 40
6.775822658068996
 40
7.208802824113952
 40
7.646130372373339
 40
8.816358621488094
 40
10.01163910374902
 40
11.17461240969561
 40
11.65874765828542
 40
12.145016758384
 40
13.0808659953272
 40
14.04099014818403
 40
14.98716394131843
 40
15.89608035491246
 40
16.14448976460352
 40
16.39628796371028
 40
16.39628796371028
 40
16.39628796371028
 40
16.39628796371028
 10
307.8300131288849
 20
475.8181875378069
 30
0.0
 10
307.746616576126
 20
475.78388825551
 30
0.0
 10
307.5849649328508
 20
475.7174042562086
 30
0.0
 10
307.2382458019218
 20
475.6202379621362
 30
0.0
 10
306.7581014043288
 20
475.7520198671308
 30
0.0
 10
306.2839637384814
 20
476.1190583633292
 30
0.0
 10
305.8054913964397
 20
476.5140061144331
 30
0.0
 10
305.3249718156356
 20
476.7861844597059
 30
0.0
 10
304.8790982165643
 20
476.8344440063047
 30
0.0
 10
304.2965165994853
 20
476.7610902674278
 30
0.0
 10
303.5557725649358
 20
476.3532916421481
 30
0.0
 10
302.7588540106882
 20
475.6973282346717
 30
0.0
 10
301.9962382899378
 20
475.2789770977998
 30
0.0
 10
301.3606574073991
 20
475.2213201997747
 30
0.0
 10
300.6798340691819
 20
475.2896639853225
 30
0.0
 10
299.8128639045535
 20
475.6948735862454
 30
0.0
 10
298.8522890685408
 20
476.357696946394
 30
0.0
 10
297.9756168228065
 20
476.7735494031041
 30
0.0
 10
297.2622573254728
 20
476.8400654477937
 30
0.0
 10
296.6254101487577
 20
476.7802852360732
 30
0.0
 10
295.8782642074306
 20
476.4755953740064
 30
0.0
 10
295.0757227581792
 20
475.9741429090217
 30
0.0
 10
294.2700808878391
 20
475.4926019657203
 30
0.0
 10
293.5849489043873
 20
475.2770085085936
 30
0.0
 10
293.1144058963274
 20
475.2688337631468
 30
0.0
 10
292.9478118282593
 20
475.2751517880184
 30
0.0
 10
292.8639504761233
 20
475.2783321950303
 30
0.0
 11
307.8300131288849
 21
475.8181875378069
 31
0.0
 11
307.5773695545556
 21
475.7202396853125
 31
0.0
 11
307.3300131288849
 21
475.6613898016905
 31
0.0
 11
306.8012898307107
 21
475.7737119017783
 31
0.0
 11
306.2961034988924
 21
476.1135431390635
 31
0.0
 11
305.7836483767027
 21
476.5065333059971
 31
0.0
 11
305.2331187074145
 21
476.7783321950303
 31
0.0
 11
304.8797674295225
 21
476.8204965691433
 31
0.0
 11
304.5260119262281
 21
476.7783321950303
 31
0.0
 11
303.5889355151822
 21
476.3361197492072
 31
0.0
 11
302.7224441460153
 21
475.7124884925632
 31
0.0
 11
301.7932859119989
 21
475.2783321950303
 31
0.0
 11
301.3624576496356
 21
475.2352180067418
 31
0.0
 11
300.9272605082143
 21
475.2783321950303
 31
0.0
 11
299.8420817737516
 21
475.7163062460256
 31
0.0
 11
298.8215669890713
 21
476.3385963746136
 31
0.0
 11
297.7449336630526
 21
476.7783321950303
 31
0.0
 11
297.2630426224873
 21
476.8248935969141
 31
0.0
 11
296.7790078367635
 21
476.7783321950303
 31
0.0
 11
295.9003175443493
 21
476.4562807009143
 31
0.0
 11
295.0699446696449
 21
475.9742855996401
 31
0.0
 11
294.2403390383399
 21
475.5193137960609
 31
0.0
 11
293.3639504761234
 21
475.2783321950303
 31
0.0
 11
293.1156455760951
 21
475.2711272760376
 31
0.0
 11
292.8639504761233
 21
475.2783321950303
 31
0.0
  0
SPLINE
  5
232
330
61
100
AcDbEntity
  8
1
  6
Continuous
 62
     7
100
AcDbSpline
210
0.0
220
0.0
230
1.0
 70
     8
 71
     3
 72
    31
 73
    27
 74
    25
 42
0.000000001
 43
0.0000000001
 44
0.00000001
 40
0.0
 40
0.0
 40
0.0
 40
0.0
 40
0.2709659657161673
 40
0.5252266825988521
 40
1.0657491919895
 40
1.6745993387161
 40
2.320394603574361
 40
2.934363293921473
 40
3.290221355350162
 40
3.646480797917979
 40
4.682658411629548
 40
5.750236623409227
 40
6.775822658069068
 40
7.208802824113855
 40
7.646130372373129
 40
8.816358621487947
 40
10.01163910374897
 40
11.17461240969563
 40
11.65874765828531
 40
12.14501675838377
 40
13.08086599532707
 40
14.0409901481839
 40
14.9871639413184
 40
15.89608035491243
 40
16.14448976460337
 40
16.39628796371013
 40
16.39628796371013
 40
16.39628796371013
 40
16.39628796371013
 10
277.8978878233619
 20
475.8181875378069
 30
0.0
 10
277.9812843761208
 20
475.7838882555101
 30
0.0
 10
278.1429360193961
 20
475.7174042562085
 30
0.0
 10
278.4896551503247
 20
475.6202379621363
 30
0.0
 10
278.969799547918
 20
475.7520198671307
 30
0.0
 10
279.4439372137654
 20
476.1190583633291
 30
0.0
 10
279.9224095558069
 20
476.514006114433
 30
0.0
 10
280.4029291366111
 20
476.786184459706
 30
0.0
 10
280.8488027356825
 20
476.8344440063048
 30
0.0
 10
281.4313843527616
 20
476.7610902674279
 30
0.0
 10
282.1721283873112
 20
476.353291642148
 30
0.0
 10
282.9690469415585
 20
475.6973282346715
 30
0.0
 10
283.731662662309
 20
475.2789770978
 30
0.0
 10
284.3672435448475
 20
475.2213201997746
 30
0.0
 10
285.0480668830646
 20
475.2896639853225
 30
0.0
 10
285.9150370476931
 20
475.6948735862453
 30
0.0
 10
286.8756118837057
 20
476.3576969463938
 30
0.0
 10
287.7522841294403
 20
476.7735494031041
 30
0.0
 10
288.4656436267738
 20
476.8400654477933
 30
0.0
 10
289.1024908034889
 20
476.7802852360735
 30
0.0
 10
289.8496367448161
 20
476.4755953740064
 30
0.0
 10
290.6521781940674
 20
475.9741429090216
 30
0.0
 10
291.4578200644077
 20
475.4926019657205
 30
0.0
 10
292.1429520478594
 20
475.2770085085933
 30
0.0
 10
292.6134950559193
 20
475.2688337631469
 30
0.0
 10
292.7800891239874
 20
475.2751517880185
 30
0.0
 10
292.8639504761233
 20
475.2783321950303
 30
0.0
 11
277.8978878233619
 21
475.8181875378069
 31
0.0
 11
278.1505313976912
 21
475.7202396853125
 31
0.0
 11
278.3978878233619
 21
475.6613898016905
 31
0.0
 11
278.9266111215361
 21
475.7737119017783
 31
0.0
 11
279.4317974533544
 21
476.1135431390634
 31
0.0
 11
279.9442525755439
 21
476.5065333059971
 31
0.0
 11
280.4947822448321
 21
476.7783321950303
 31
0.0
 11
280.8481335227243
 21
476.8204965691433
 31
0.0
 11
281.2018890260188
 21
476.7783321950303
 31
0.0
 11
282.1389654370647
 21
476.3361197492072
 31
0.0
 11
283.0054568062315
 21
475.7124884925631
 31
0.0
 11
283.9346150402479
 21
475.2783321950303
 31
0.0
 11
284.365443302611
 21
475.2352180067418
 31
0.0
 11
284.8006404440322
 21
475.2783321950303
 31
0.0
 11
285.885819178495
 21
475.7163062460255
 31
0.0
 11
286.9063339631754
 21
476.3385963746136
 31
0.0
 11
287.9829672891941
 21
476.7783321950303
 31
0.0
 11
288.4648583297594
 21
476.824893596914
 31
0.0
 11
288.948893115483
 21
476.7783321950303
 31
0.0
 11
289.8275834078974
 21
476.4562807009143
 31
0.0
 11
290.6579562826017
 21
475.9742855996401
 31
0.0
 11
291.4875619139069
 21
475.5193137960609
 31
0.0
 11
292.3639504761233
 21
475.2783321950303
 31
0.0
 11
292.6122553761515
 21
475.2711272760376
 31
0.0
 11
292.8639504761233
 21
475.2783321950303
 31
0.0
  0
ARC
  5
233
330
61
100
AcDbEntity
  8
1
  6
Continuous
 62
     7
100
AcDbCircle
 10
274.6007834692722
 20
471.7783321950303
 30
0.0
 40
5.000000000000002
100
AcDbArc
 50
64.15806723683284
 51
90.0
  0
ARC
  5
234
330
61
100
AcDbEntity
  8
1
  6
Continuous
 62
     7
100
AcDbCircle
 10
311.1271174829746
 20
471.7783321950303
 30
0.0
 40
5.0
100
AcDbArc
 50
90.0
 51
115.8419327631678
  0
ARC
  5
235
330
61
100
AcDbEntity
  8
1
  6
Continuous
 62
     7
100
AcDbCircle
 10
762.923180983214
 20
471.7783321950303
 30
0.0
 40
5.000000000000002
100
AcDbArc
 50
64.15806723683284
 51
90.0
  0
ARC
  5
236
330
61
100
AcDbEntity
  8
1
  6
Continuous
 62
     7
100
AcDbCircle
 10
799.4495149969164
 20
471.7783321950303
 30
0.0
 40
5.0
100
AcDbArc
 50
90.0
 51
115.841932763166
  0
ARC
  5
237
330
61
100
AcDbEntity
  8
1
  6
Continuous
 62
     7
100
AcDbCircle
 10
413.1271174829739
 20
471.7783321950303
 30
0.0
 40
5.0
100
AcDbArc
 50
90.0
 51
115.8419327631678
  0
ARC
  5
238
330
61
100
AcDbEntity
  8
1
  6
Continuous
 62
     7
100
AcDbCircle
 10
376.6007834692715
 20
471.7783321950303
 30
0.0
 40
5.000000000000027
100
AcDbArc
 50
64.15806723683225
 51
90.0
  0
ENDBLK
  5
63
330
61
100
AcDbEntity
  8
0
100
AcDbBlockEnd
  0
BLOCK
  5
65
330
64
100
AcDbEntity
  8
0
100
AcDbBlockBegin
  2
92-53A__3
 70
     0
 10
-2.9525973430483
 20
294.5943354875502
 30
0.0
  3
92-53A__3
  1

  0
LINE
  5
239
330
64
100
AcDbEntity
  8
1
  6
Continuous
 62
     7
100
AcDbLine
 10
762.6863479900651
 20
479.7783321950303
 30
0.0
 11
799.6863479900651
 21
479.7783321950303
 31
0.0
  0
LINE
  5
23A
330
64
100
AcDbEntity
  8
1
  6
Continuous
 62
     7
100
AcDbLine
 10
799.6863479900651
 20
477.7783321950303
 30
0.0
 11
799.6863479900651
 21
479.7783321950303
 31
0.0
  0
LINE
  5
23B
330
64
100
AcDbEntity
  8
1
  6
Continuous
 62
     7
100
AcDbLine
 10
762.6863479900651
 20
479.7783321950303
 30
0.0
 11
762.6863479900651
 21
477.7783321950303
 31
0.0
  0
LINE
  5
23C
330
64
100
AcDbEntity
  8
1
  6
Continuous
 62
     7
100
AcDbLine
 10
376.3639504761233
 20
479.7783321950303
 30
0.0
 11
413.3639504761233
 21
479.7783321950303
 31
0.0
  0
LINE
  5
23D
330
64
100
AcDbEntity
  8
1
  6
Continuous
 62
     7
100
AcDbLine
 10
376.3639504761233
 20
479.7783321950303
 30
0.0
 11
376.3639504761233
 21
477.7783321950303
 31
0.0
  0
LINE
  5
23E
330
64
100
AcDbEntity
  8
1
  6
Continuous
 62
     7
100
AcDbLine
 10
413.3639504761233
 20
477.7783321950303
 30
0.0
 11
413.3639504761233
 21
479.7783321950303
 31
0.0
  0
ENDBLK
  5
66
330
64
100
AcDbEntity
  8
0
100
AcDbBlockEnd
  0
BLOCK
  5
68
330
67
100
AcDbEntity
  8
0
100
AcDbBlockBegin
  2
70-16
 70
     0
 10
538.4438953415281
 20
455.1399986061269
 30
0.0
  3
70-16
  1

  0
LINE
  5
23F
330
67
100
AcDbEntity
  8
1
  6
Continuous
 62
     7
100
AcDbLine
 10
755.194179643515
 20
497.2783321950307
 30
0.0
 11
755.1941796435149
 21
497.7783321950309
 31
0.0
  0
LINE
  5
240
330
67
100
AcDbEntity
  8
0
  6
Continuous
 62
     7
100
AcDbLine
 10
302.8639504761233
 20
497.2783321950305
 30
0.0
 11
414.3639504761227
 21
497.2783321950305
 31
0.0
  0
LINE
  5
241
330
67
100
AcDbEntity
  8
1
  6
Continuous
 62
     7
100
AcDbLine
 10
302.8639504761233
 20
497.2783321950305
 30
0.0
 11
273.3639504761234
 21
497.2783321950305
 31
0.0
  0
LINE
  5
242
330
67
100
AcDbEntity
  8
1
  6
Continuous
 62
     7
100
AcDbLine
 10
273.3639504761234
 20
497.2783321950305
 30
0.0
 11
273.3639504761234
 21
498.2783321950307
 31
0.0
  0
LINE
  5
243
330
67
100
AcDbEntity
  8
1
  6
Continuous
 62
     7
100
AcDbLine
 10
414.3639504761227
 20
498.2783321950307
 30
0.0
 11
414.3639504761227
 21
497.2783321950305
 31
0.0
  0
LINE
  5
244
330
67
100
AcDbEntity
  8
1
  6
Continuous
 62
     7
100
AcDbLine
 10
806.186347990064
 20
497.2783321950337
 30
0.0
 11
755.194179643515
 21
497.2783321950307
 31
0.0
  0
LINE
  5
245
330
67
100
AcDbEntity
  8
1
  6
Continuous
 62
     7
100
AcDbLine
 10
807.1785163366153
 20
497.7783321950309
 30
0.0
 11
807.1785163366152
 21
497.2783321950307
 31
0.0
  0
LINE
  5
246
330
67
100
AcDbEntity
  8
1
  6
Continuous
 62
     7
100
AcDbLine
 10
807.1785163366152
 20
497.2783321950307
 30
0.0
 11
806.1863479900651
 21
497.2783321950305
 31
0.0
  0
ARC
  5
247
330
67
100
AcDbEntity
  8
1
  6
Continuous
 62
     7
100
AcDbCircle
 10
756.1941796435149
 20
497.7783321950309
 30
0.0
 40
0.9999999999998831
100
AcDbArc
 50
150.0000000000225
 51
180.0
  0
ARC
  5
248
330
67
100
AcDbEntity
  8
1
  6
Continuous
 62
     7
100
AcDbCircle
 10
806.1785163366153
 20
497.7783321950309
 30
0.0
 40
1.0
100
AcDbArc
 50
0.0
 51
29.99999999997429
  0
ENDBLK
  5
69
330
67
100
AcDbEntity
  8
0
100
AcDbBlockEnd
  0
BLOCK
  5
6B
330
6A
100
AcDbEntity
  8
0
100
AcDbBlockBegin
  2
98-107A
 70
     0
 10
428.0525687572541
 20
532.7453224235927
 30
0.0
  3
98-107A
  1

  0
LINE
  5
249
330
6A
100
AcDbEntity
  8
0
  6
Continuous
 62
     7
100
AcDbLine
 10
274.363950476123
 20
496.2783321950305
 30
0.0
 11
274.363950476123
 21
497.2783321950305
 31
0.0
  0
LINE
  5
24A
330
6A
100
AcDbEntity
  8
0
  6
Continuous
 62
     7
100
AcDbLine
 10
791.6863479900651
 20
497.2783321950305
 30
0.0
 11
770.6863479900651
 21
497.2783321950305
 31
0.0
  0
LINE
  5
24B
330
6A
100
AcDbEntity
  8
1
  6
Continuous
 62
     7
100
AcDbLine
 10
806.1863479900651
 20
497.2783321950305
 30
0.0
 11
806.1863479900651
 21
494.2783321950305
 31
0.0
  0
LINE
  5
24C
330
6A
100
AcDbEntity
  8
1
  6
Continuous
 62
     7
100
AcDbLine
 10
756.1863479900651
 20
494.2783321950305
 30
0.0
 11
756.1863479900651
 21
497.2783321950305
 31
0.0
  0
LINE
  5
24D
330
6A
100
AcDbEntity
  8
1
  6
Continuous
 62
     7
100
AcDbLine
 10
756.1863479900651
 20
497.2783321950305
 30
0.0
 11
770.6863479900651
 21
497.2783321950305
 31
0.0
  0
LINE
  5
24E
330
6A
100
AcDbEntity
  8
1
  6
Continuous
 62
     7
100
AcDbLine
 10
806.1863479900651
 20
497.2783321950305
 30
0.0
 11
791.6863479900651
 21
497.2783321950305
 31
0.0
  0
LINE
  5
24F
330
6A
100
AcDbEntity
  8
1
  6
Continuous
 62
     7
100
AcDbLine
 10
413.3639504761229
 20
494.2783321950305
 30
0.0
 11
413.363950476123
 21
497.2783321950305
 31
0.0
  0
LINE
  5
250
330
6A
100
AcDbEntity
  8
1
  6
Continuous
 62
     7
100
AcDbLine
 10
274.363950476123
 20
496.2783321950305
 30
0.0
 11
274.363950476123
 21
494.2783321950305
 31
0.0
  0
LINE
  5
251
330
6A
100
AcDbEntity
  8
1
  6
Continuous
 62
     7
100
AcDbLine
 10
330.4820433200827
 20
494.2783321950305
 30
0.0
 11
331.0125509325445
 21
494.2783321950305
 31
0.0
  0
LINE
  5
252
330
6A
100
AcDbEntity
  8
1
  6
Continuous
 62
     7
100
AcDbLine
 10
274.363950476123
 20
494.2783321950305
 30
0.0
 11
413.3639504761229
 21
494.2783321950305
 31
0.0
  0
LINE
  5
253
330
6A
100
AcDbEntity
  8
1
  6
Continuous
 62
     7
100
AcDbLine
 10
756.1863479900651
 20
494.2783321950305
 30
0.0
 11
806.1863479900651
 21
494.2783321950305
 31
0.0
  0
ENDBLK
  5
6C
330
6A
100
AcDbEntity
  8
0
100
AcDbBlockEnd
  0
BLOCK
  5
6E
330
6D
100
AcDbEntity
  8
0
100
AcDbBlockBegin
  2
50-11
 70
     0
 10
547.1716960595231
 20
725.0465998838686
 30
0.0
  3
50-11
  1

  0
LINE
  5
254
330
6D
100
AcDbEntity
  8
1
  6
Continuous
 62
     7
100
AcDbLine
 10
271.863950476123
 20
498.2783321950307
 30
0.0
 11
271.863950476123
 21
510.2774890241108
 31
0.0
  0
LINE
  5
255
330
6D
100
AcDbEntity
  8
1
  6
Continuous
 62
     7
100
AcDbLine
 10
415.863950476123
 20
498.2783321950307
 30
0.0
 11
271.863950476123
 21
498.2783321950307
 31
0.0
  0
LINE
  5
256
330
6D
100
AcDbEntity
  8
1
  6
Continuous
 62
     7
100
AcDbLine
 10
319.863950476123
 20
517.2783321950308
 30
0.0
 11
319.863950476123
 21
517.7783321950308
 31
0.0
  0
LINE
  5
257
330
6D
100
AcDbEntity
  8
1
  6
Continuous
 62
     7
100
AcDbLine
 10
320.363950476123
 20
518.2783321950308
 30
0.0
 11
367.363950476123
 21
518.2783321950308
 31
0.0
  0
LINE
  5
258
330
6D
100
AcDbEntity
  8
1
  6
Continuous
 62
     7
100
AcDbLine
 10
808.6863479900651
 20
498.2783321950305
 30
0.0
 11
781.1863479900651
 21
498.2783321950305
 31
0.0
  0
LINE
  5
259
330
6D
100
AcDbEntity
  8
1
  6
Continuous
 62
     7
100
AcDbLine
 10
808.6863479900651
 20
513.7753984074303
 30
0.0
 11
808.6863479900651
 21
498.2783321950305
 31
0.0
  0
LINE
  5
25A
330
6D
100
AcDbEntity
  8
1
  6
Continuous
 62
     7
100
AcDbLine
 10
805.1863479900651
 20
517.2783321950305
 30
0.0
 11
805.1863479900651
 21
517.7783321950305
 31
0.0
  0
LINE
  5
25B
330
6D
100
AcDbEntity
  8
1
  6
Continuous
 62
     7
100
AcDbLine
 10
781.1863479900651
 20
498.2783321950305
 30
0.0
 11
753.6863479900651
 21
498.2783321950305
 31
0.0
  0
LINE
  5
25C
330
6D
100
AcDbEntity
  8
1
  6
Continuous
 62
     7
100
AcDbLine
 10
753.6863479900651
 20
498.2783321950305
 30
0.0
 11
753.6863479900651
 21
513.7753984074303
 31
0.0
  0
LINE
  5
25D
330
6D
100
AcDbEntity
  8
1
  6
Continuous
 62
     7
100
AcDbLine
 10
757.1863479900651
 20
517.7783321950305
 30
0.0
 11
757.1863479900651
 21
517.2783321950305
 31
0.0
  0
LINE
  5
25E
330
6D
100
AcDbEntity
  8
1
  6
Continuous
 62
     7
100
AcDbLine
 10
804.6863479900651
 20
518.2783321950305
 30
0.0
 11
757.6863479900651
 21
518.2783321950305
 31
0.0
  0
LINE
  5
25F
330
6D
100
AcDbEntity
  8
1
  6
Continuous
 62
     7
100
AcDbLine
 10
415.863950476123
 20
510.2774890241108
 30
0.0
 11
415.863950476123
 21
498.2783321950307
 31
0.0
  0
LINE
  5
260
330
6D
100
AcDbEntity
  8
1
  6
Continuous
 62
     7
100
AcDbLine
 10
367.863950476123
 20
517.7783321950308
 30
0.0
 11
367.863950476123
 21
517.2783321950308
 31
0.0
  0
LINE
  5
261
330
6D
100
AcDbEntity
  8
1
  6
Continuous
 62
     7
100
AcDbLine
 10
271.8639504761229
 20
1250.460654012071
 30
0.0
 11
271.8639504761229
 21
1262.89141914586
 31
0.0
  0
LINE
  5
262
330
6D
100
AcDbEntity
  8
1
  6
Continuous
 62
     7
100
AcDbLine
 10
271.8639504761229
 20
1238.029888878282
 30
0.0
 11
271.8639504761229
 21
1250.460654012071
 31
0.0
  0
LINE
  5
263
330
6D
100
AcDbEntity
  8
1
  6
Continuous
 62
     7
100
AcDbLine
 10
415.863950476123
 20
1262.89141914586
 30
0.0
 11
415.863950476123
 21
1250.460654012071
 31
0.0
  0
LINE
  5
264
330
6D
100
AcDbEntity
  8
1
  6
Continuous
 62
     7
100
AcDbLine
 10
415.863950476123
 20
1250.460654012071
 30
0.0
 11
415.863950476123
 21
1238.029888878282
 31
0.0
  0
ARC
  5
265
330
6D
100
AcDbEntity
  8
1
  6
Continuous
 62
     7
100
AcDbCircle
 10
343.863950476123
 20
-82.7216678049695
 30
0.0
 40
600.0000000000001
100
AcDbArc
 50
92.33827865581483
 51
96.63695793933634
  0
LINE
  5
266
330
6D
100
AcDbEntity
  8
1
  6
Continuous
 62
     7
100
AcDbLine
 10
805.8094635679545
 20
516.7728711019649
 30
0.0
 11
805.6659483231209
 21
516.7787485147642
 31
0.0
  0
ARC
  5
267
330
6D
100
AcDbEntity
  8
1
  6
Continuous
 62
     7
100
AcDbCircle
 10
781.1863479900651
 20
-87.0573327974083
 30
0.0
 40
599.9999999999999
100
AcDbArc
 50
87.66172134418517
 51
90.0
  0
LINE
  5
268
330
6D
100
AcDbEntity
  8
1
  6
Continuous
 62
     7
100
AcDbLine
 10
756.7067476570094
 20
516.7787485147642
 30
0.0
 11
756.5632324121757
 21
516.7728711019649
 31
0.0
  0
ARC
  5
269
330
6D
100
AcDbEntity
  8
1
  6
Continuous
 62
     7
100
AcDbCircle
 10
781.1863479900651
 20
-82.7216678049695
 30
0.0
 40
600.0000000000001
100
AcDbArc
 50
87.66172134418517
 51
92.33827865581483
  0
ARC
  5
26A
330
6D
100
AcDbEntity
  8
1
  6
Continuous
 62
     7
100
AcDbCircle
 10
781.1863479900651
 20
-87.0573327974083
 30
0.0
 40
599.9999999999999
100
AcDbArc
 50
90.0
 51
92.33827865581483
  0
ARC
  5
26B
330
6D
100
AcDbEntity
  8
1
  6
Continuous
 62
     7
100
AcDbCircle
 10
343.863950476123
 20
-82.7216678049695
 30
0.0
 40
600.0
100
AcDbArc
 50
83.36304206066364
 51
87.66172134418515
  0
ARC
  5
26C
330
6D
100
AcDbEntity
  8
1
  6
Continuous
 62
     7
100
AcDbCircle
 10
343.863950476123
 20
-82.7216678049695
 30
0.0
 40
600.0000000000002
100
AcDbArc
 50
87.66172134418515
 51
92.33827865581483
  0
ARC
  5
26D
330
6D
100
AcDbEntity
  8
1
  6
Continuous
 62
     7
100
AcDbCircle
 10
343.863950476123
 20
-82.7216678049695
 30
0.0
 40
599.3694603497913
100
AcDbArc
 50
83.37982033905685
 51
96.62017966094315
  0
ARC
  5
26E
330
6D
100
AcDbEntity
  8
1
  6
Continuous
 62
     7
100
AcDbCircle
 10
343.863950476123
 20
1822.96065401207
 30
0.0
 40
599.9999999999991
100
AcDbArc
 50
264.1432980900817
 51
267.7683263338627
  0
ARC
  5
26F
330
6D
100
AcDbEntity
  8
1
  6
Continuous
 62
     7
100
AcDbCircle
 10
343.863950476123
 20
677.9606540120708
 30
0.0
 40
600.0000000000003
100
AcDbArc
 50
84.14329809008171
 51
95.85670190991829
  0
ARC
  5
270
330
6D
100
AcDbEntity
  8
1
  6
Continuous
 62
     7
100
AcDbCircle
 10
343.863950476123
 20
1822.96065401207
 30
0.0
 40
599.9999999999989
100
AcDbArc
 50
272.2316737599402
 51
275.8567019099183
  0
SPLINE
  5
271
330
6D
100
AcDbEntity
  8
1
  6
Continuous
 62
     7
100
AcDbSpline
210
0.0
220
0.0
230
1.0
 70
     8
 71
     3
 72
    11
 73
     7
 74
     5
 42
0.000000001
 43
0.0000000001
 44
0.00000001
 40
0.0
 40
0.0
 40
0.0
 40
0.0
 40
0.7308403477041827
 40
1.427223715192486
 40
2.179504259565237
 40
2.972071898821405
 40
2.972071898821405
 40
2.972071898821405
 40
2.972071898821405
 10
412.9634639008172
 20
512.6513306123845
 30
0.0
 10
413.1793698338578
 20
512.5390838157682
 30
0.0
 10
413.601002360832
 20
512.3198823175178
 30
0.0
 10
414.188678708843
 20
511.8708490560639
 30
0.0
 10
414.5592621431792
 20
511.2043808906652
 30
0.0
 10
414.7210289763209
 20
510.7161650099248
 30
0.0
 10
414.8040216921714
 20
510.4656911340341
 30
0.0
 11
412.9634639008172
 21
512.6513306123845
 31
0.0
 11
413.6015322908839
 21
512.294965144884
 31
0.0
 11
414.138695137489
 21
511.8517881229558
 31
0.0
 11
414.5303884924736
 21
511.2095246758017
 31
0.0
 11
414.8040216921714
 21
510.4656911340341
 31
0.0
  0
SPLINE
  5
272
330
6D
100
AcDbEntity
  8
1
  6
Continuous
 62
     7
100
AcDbSpline
210
0.0
220
0.0
230
1.0
 70
     8
 71
     3
 72
    11
 73
     7
 74
     5
 42
0.000000001
 43
0.0000000001
 44
0.00000001
 40
0.0
 40
0.0
 40
0.0
 40
0.0
 40
0.7308403477041332
 40
1.427223715192437
 40
2.179504259565246
 40
2.972071898821434
 40
2.972071898821434
 40
2.972071898821434
 40
2.972071898821434
 10
274.7644370514289
 20
512.6513306123845
 30
0.0
 10
274.5485311183882
 20
512.5390838157684
 30
0.0
 10
274.1268985914141
 20
512.3198823175178
 30
0.0
 10
273.5392222434032
 20
511.8708490560638
 30
0.0
 10
273.1686388090667
 20
511.2043808906654
 30
0.0
 10
273.0068719759251
 20
510.7161650099246
 30
0.0
 10
272.9238792600746
 20
510.4656911340341
 30
0.0
 11
274.7644370514289
 21
512.6513306123845
 31
0.0
 11
274.1263686613622
 21
512.294965144884
 31
0.0
 11
273.5892058147572
 21
511.8517881229558
 31
0.0
 11
273.1975124597724
 21
511.2095246758017
 31
0.0
 11
272.9238792600746
 21
510.4656911340341
 31
0.0
  0
ARC
  5
273
330
6D
100
AcDbEntity
  8
1
  6
Continuous
 62
     7
100
AcDbCircle
 10
274.863950476123
 20
510.2774890241108
 30
0.0
 40
2.999999999999924
100
AcDbArc
 50
96.63695793933634
 51
180.0
  0
ARC
  5
274
330
6D
100
AcDbEntity
  8
1
  6
Continuous
 62
     7
100
AcDbCircle
 10
320.363950476123
 20
517.7783321950308
 30
0.0
 40
0.5
100
AcDbArc
 50
90.0
 51
180.0
  0
ARC
  5
275
330
6D
100
AcDbEntity
  8
1
  6
Continuous
 62
     7
100
AcDbCircle
 10
319.363950476123
 20
517.2783321950308
 30
0.0
 40
0.5000000000000409
100
AcDbArc
 50
272.3382786558229
 51
0.0
  0
ARC
  5
276
330
6D
100
AcDbEntity
  8
1
  6
Continuous
 62
     7
100
AcDbCircle
 10
805.6863479900651
 20
513.7753984074303
 30
0.0
 40
3.0
100
AcDbArc
 50
0.0
 51
87.64800516006103
  0
ARC
  5
277
330
6D
100
AcDbEntity
  8
1
  6
Continuous
 62
     7
100
AcDbCircle
 10
804.6863479900651
 20
517.7783321950305
 30
0.0
 40
0.5
100
AcDbArc
 50
0.0
 51
90.0
  0
ARC
  5
278
330
6D
100
AcDbEntity
  8
1
  6
Continuous
 62
     7
100
AcDbCircle
 10
805.6863479900651
 20
517.2783321950305
 30
0.0
 40
0.5
100
AcDbArc
 50
180.0
 51
267.6617213441895
  0
ARC
  5
279
330
6D
100
AcDbEntity
  8
1
  6
Continuous
 62
     7
100
AcDbCircle
 10
805.6863479900651
 20
509.4397334149913
 30
0.0
 40
3.000000000000206
100
AcDbArc
 50
46.18451680604358
 51
87.64800516006117
  0
ARC
  5
27A
330
6D
100
AcDbEntity
  8
1
  6
Continuous
 62
     7
100
AcDbCircle
 10
756.6863479900651
 20
513.7753984074303
 30
0.0
 40
2.999999999999948
100
AcDbArc
 50
92.35199483993898
 51
180.0
  0
ARC
  5
27B
330
6D
100
AcDbEntity
  8
1
  6
Continuous
 62
     7
100
AcDbCircle
 10
757.6863479900651
 20
517.7783321950305
 30
0.0
 40
0.5
100
AcDbArc
 50
90.0
 51
180.0
  0
ARC
  5
27C
330
6D
100
AcDbEntity
  8
1
  6
Continuous
 62
     7
100
AcDbCircle
 10
756.6863479900651
 20
517.2783321950305
 30
0.0
 40
0.4999999999999273
100
AcDbArc
 50
272.3382786558235
 51
0.0
  0
ARC
  5
27D
330
6D
100
AcDbEntity
  8
1
  6
Continuous
 62
     7
100
AcDbCircle
 10
756.6863479900651
 20
509.4397334149913
 30
0.0
 40
3.000000000000118
100
AcDbArc
 50
92.35199483993884
 51
133.8154831939549
  0
ARC
  5
27E
330
6D
100
AcDbEntity
  8
1
  6
Continuous
 62
     7
100
AcDbCircle
 10
412.863950476123
 20
510.2774890241108
 30
0.0
 40
3.0
100
AcDbArc
 50
0.0
 51
83.36304206066367
  0
ARC
  5
27F
330
6D
100
AcDbEntity
  8
1
  6
Continuous
 62
     7
100
AcDbCircle
 10
367.363950476123
 20
517.7783321950308
 30
0.0
 40
0.5
100
AcDbArc
 50
0.0
 51
90.0
  0
ARC
  5
280
330
6D
100
AcDbEntity
  8
1
  6
Continuous
 62
     7
100
AcDbCircle
 10
368.363950476123
 20
517.2783321950308
 30
0.0
 40
0.5
100
AcDbArc
 50
180.0
 51
267.6617213441965
  0
ARC
  5
281
330
6D
100
AcDbEntity
  8
1
  6
Continuous
 62
     7
100
AcDbCircle
 10
283.863950476123
 20
1262.89141914586
 30
0.0
 40
12.00000000000017
100
AcDbArc
 50
95.85670190991796
 51
180.0
  0
ARC
  5
282
330
6D
100
AcDbEntity
  8
1
  6
Continuous
 62
     7
100
AcDbCircle
 10
283.863950476123
 20
1238.029888878282
 30
0.0
 40
12.00000000000011
100
AcDbArc
 50
180.0
 51
264.143298090082
  0
ARC
  5
283
330
6D
100
AcDbEntity
  8
1
  6
Continuous
 62
     7
100
AcDbCircle
 10
403.863950476123
 20
1262.89141914586
 30
0.0
 40
12.0
100
AcDbArc
 50
0.0
 51
84.14329809008123
  0
ARC
  5
284
330
6D
100
AcDbEntity
  8
1
  6
Continuous
 62
     7
100
AcDbCircle
 10
403.863950476123
 20
1238.029888878282
 30
0.0
 40
12.00000000000019
100
AcDbArc
 50
275.8567019099188
 51
0.0
  0
ARC
  5
285
330
6D
100
AcDbEntity
  8
1
  6
Continuous
 62
     7
100
AcDbCircle
 10
283.863950476123
 20
1238.029888878282
 30
0.0
 40
11.99999999999999
100
AcDbArc
 50
192.3629020750043
 51
264.143298090082
  0
ARC
  5
286
330
6D
100
AcDbEntity
  8
1
  6
Continuous
 62
     7
100
AcDbCircle
 10
283.863950476123
 20
1262.89141914586
 30
0.0
 40
12.00000000000017
100
AcDbArc
 50
95.85670190991796
 51
167.6370979249957
  0
ENDBLK
  5
6F
330
6D
100
AcDbEntity
  8
0
100
AcDbBlockEnd
  0
BLOCK
  5
71
330
70
100
AcDbEntity
  8
0
100
AcDbBlockBegin
  2
61-91__4
 70
     0
 10
-33.17965621211886
 20
986.5190270388442
 30
0.0
  3
61-91__4
  1

  0
LINE
  5
287
330
70
100
AcDbEntity
  8
1
  6
Continuous
 62
     7
100
AcDbLine
 10
328.8627324298647
 20
542.2283487542506
 30
0.0
 11
328.8627324298647
 21
659.0705964576562
 31
0.0
  0
LINE
  5
288
330
70
100
AcDbEntity
  8
1
  6
Continuous
 62
     7
100
AcDbLine
 10
358.8627446544066
 20
659.0705964576562
 30
0.0
 11
358.8627446544066
 21
542.2283487542506
 31
0.0
  0
LINE
  5
289
330
70
100
AcDbEntity
  8
1
  6
Continuous
 62
     7
100
AcDbLine
 10
338.8627324298647
 20
669.0705964576562
 30
0.0
 11
348.8627446544066
 21
669.0705964576562
 31
0.0
  0
LINE
  5
28A
330
70
100
AcDbEntity
  8
1
  6
Continuous
 62
     7
100
AcDbLine
 10
343.8627446544066
 20
527.2283487542506
 30
0.0
 11
343.8627324298647
 21
527.2283487542506
 31
0.0
  0
LINE
  5
28B
330
70
100
AcDbEntity
  8
1
  6
Continuous
 62
     7
100
AcDbLine
 10
358.8627446544066
 20
561.578332195031
 30
0.0
 11
367.363950476123
 21
561.578332195031
 31
0.0
  0
LINE
  5
28C
330
70
100
AcDbEntity
  8
1
  6
Continuous
 62
     7
100
AcDbLine
 10
759.0363479900652
 20
562.965136531722
 30
0.0
 11
759.0363479900652
 21
561.578332195031
 31
0.0
  0
LINE
  5
28D
330
70
100
AcDbEntity
  8
1
  6
Continuous
 62
     7
100
AcDbLine
 10
367.363950476123
 20
518.578332195031
 30
0.0
 11
320.363950476123
 21
518.578332195031
 31
0.0
  0
LINE
  5
28E
330
70
100
AcDbEntity
  8
1
  6
Continuous
 62
     7
100
AcDbLine
 10
319.863950476123
 20
519.078332195031
 30
0.0
 11
319.863950476123
 21
561.078332195031
 31
0.0
  0
LINE
  5
28F
330
70
100
AcDbEntity
  8
1
  6
Continuous
 62
     7
100
AcDbLine
 10
320.363950476123
 20
561.578332195031
 30
0.0
 11
328.8627324298647
 21
561.578332195031
 31
0.0
  0
LINE
  5
290
330
70
100
AcDbEntity
  8
1
  6
Continuous
 62
     7
100
AcDbLine
 10
590.3381980674957
 20
652.4682474095272
 30
0.0
 11
619.8619591404616
 21
640.1253331626215
 31
0.0
  0
LINE
  5
291
330
70
100
AcDbEntity
  8
1
  6
Continuous
 62
     7
100
AcDbLine
 10
619.8619591404637
 20
640.1253331626264
 30
0.0
 11
620.0548171755727
 21
640.5866419293936
 31
0.0
  0
LINE
  5
292
330
70
100
AcDbEntity
  8
1
  6
Continuous
 62
     7
100
AcDbLine
 10
646.0809661495257
 20
630.247900730119
 30
0.0
 11
590.723914137713
 21
653.3908649430613
 31
0.0
  0
LINE
  5
293
330
70
100
AcDbEntity
  8
1
  6
Continuous
 62
     7
100
AcDbLine
 10
804.6863479900653
 20
518.578332195031
 30
0.0
 11
757.6863479900653
 21
518.578332195031
 31
0.0
  0
LINE
  5
294
330
70
100
AcDbEntity
  8
1
  6
Continuous
 62
     7
100
AcDbLine
 10
804.6863479900653
 20
561.578332195031
 30
0.0
 11
757.6863479900653
 21
561.578332195031
 31
0.0
  0
LINE
  5
295
330
70
100
AcDbEntity
  8
1
  6
Continuous
 62
     7
100
AcDbLine
 10
367.863950476123
 20
561.078332195031
 30
0.0
 11
367.863950476123
 21
519.078332195031
 31
0.0
  0
LINE
  5
296
330
70
100
AcDbEntity
  8
1
  6
Continuous
 62
     7
100
AcDbLine
 10
757.1863479900649
 20
560.9320126011002
 30
0.0
 11
757.1863479900653
 21
561.078332195031
 31
0.0
  0
LINE
  5
297
330
70
100
AcDbEntity
  8
1
  6
Continuous
 62
     7
100
AcDbLine
 10
366.0139504761229
 20
561.578332195031
 30
0.0
 11
366.0139504761226
 21
562.9783321950335
 31
0.0
  0
LINE
  5
298
330
70
100
AcDbEntity
  8
1
  6
Continuous
 62
     7
100
AcDbLine
 10
759.0363479900652
 20
561.578332195031
 30
0.0
 11
759.036347990065
 21
562.8783321950309
 31
0.0
  0
LINE
  5
299
330
70
100
AcDbEntity
  8
1
  6
Continuous
 62
     7
100
AcDbLine
 10
654.0883223171395
 20
647.4938704499106
 30
0.0
 11
603.5882246729907
 21
668.606301658838
 31
0.0
  0
LINE
  5
29A
330
70
100
AcDbEntity
  8
1
  6
Continuous
 62
     7
100
AcDbLine
 10
590.3381980674957
 20
652.4682474095272
 30
0.0
 11
590.723914137713
 21
653.3908649430613
 31
0.0
  0
LINE
  5
29B
330
70
100
AcDbEntity
  8
1
  6
Continuous
 62
     7
100
AcDbLine
 10
757.1863479900649
 20
560.9320126011002
 30
0.0
 11
757.1863479900653
 21
519.078332195031
 31
0.0
  0
LINE
  5
29C
330
70
100
AcDbEntity
  8
1
  6
Continuous
 62
     7
100
AcDbLine
 10
805.1863479900653
 20
561.078332195031
 30
0.0
 11
805.1863479900653
 21
519.078332195031
 31
0.0
  0
LINE
  5
29D
330
70
100
AcDbEntity
  8
1
  6
Continuous
 62
     7
100
AcDbLine
 10
366.0139504761229
 20
561.578332195031
 30
0.0
 11
366.0139504761229
 21
562.9783321950308
 31
0.0
  0
LINE
  5
29E
330
70
100
AcDbEntity
  8
1
  6
Continuous
 62
     7
100
AcDbLine
 10
590.723914137713
 20
653.3908649430613
 30
0.0
 11
595.7382230505158
 21
665.3848928789505
 31
0.0
  0
LINE
  5
29F
330
70
100
AcDbEntity
  8
1
  6
Continuous
 62
     7
100
AcDbLine
 10
803.336347990065
 20
561.578332195031
 30
0.0
 11
803.336347990065
 21
562.965136531722
 31
0.0
  0
LINE
  5
2A0
330
70
100
AcDbEntity
  8
1
  6
Continuous
 62
     7
100
AcDbLine
 10
803.3363479900652
 20
562.8783321950309
 30
0.0
 11
803.336347990065
 21
561.578332195031
 31
0.0
  0
LINE
  5
2A1
330
70
100
AcDbEntity
  8
1
  6
Continuous
 62
     7
100
AcDbLine
 10
321.7139504761231
 20
562.9783321950335
 30
0.0
 11
321.7139504761229
 21
561.578332195031
 31
0.0
  0
LINE
  5
2A2
330
70
100
AcDbEntity
  8
1
  6
Continuous
 62
     7
100
AcDbLine
 10
321.7139504761228
 20
562.9783321950308
 30
0.0
 11
321.7139504761229
 21
561.578332195031
 31
0.0
  0
LINE
  5
2A3
330
70
100
AcDbEntity
  8
1
  6
Continuous
 62
     7
100
AcDbLine
 10
358.8631804246056
 20
1158.509618842174
 30
0.0
 11
358.8625635107779
 21
1075.369309322427
 31
0.0
  0
LINE
  5
2A4
330
70
100
AcDbEntity
  8
1
  6
Continuous
 62
     7
100
AcDbLine
 10
328.8625635117188
 20
1075.369546963953
 30
0.0
 11
328.8631797695356
 21
1158.427041272358
 31
0.0
  0
ARC
  5
2A5
330
70
100
AcDbEntity
  8
1
  6
Continuous
 62
     7
100
AcDbCircle
 10
517.6506489141786
 20
380.3146023986877
 30
0.0
 40
281.0000000000003
100
AcDbArc
 50
31.52191958636535
 51
37.37225795075847
  0
ARC
  5
2A6
330
70
100
AcDbEntity
  8
1
  6
Continuous
 62
     7
100
AcDbCircle
 10
517.6506489141786
 20
380.3146023986877
 30
0.0
 40
300.0000000000001
100
AcDbArc
 50
37.01743610584899
 51
62.94843231620557
  0
ARC
  5
2A7
330
70
100
AcDbEntity
  8
1
  6
Continuous
 62
     7
100
AcDbCircle
 10
517.6506489141786
 20
380.3146023986877
 30
0.0
 40
281.0000000000004
100
AcDbArc
 50
37.37225795075847
 51
62.80325537779838
  0
ARC
  5
2A8
330
70
100
AcDbEntity
  8
1
  6
Continuous
 62
     7
100
AcDbCircle
 10
343.863950476123
 20
1250.460654012071
 30
0.0
 40
24.00000000000011
100
AcDbArc
 50
141.3178125465108
 51
180.0
  0
ARC
  5
2A9
330
70
100
AcDbEntity
  8
1
  6
Continuous
 62
     7
100
AcDbCircle
 10
343.863950476123
 20
1250.460654012071
 30
0.0
 40
24.00000000000006
100
AcDbArc
 50
0.0
 51
141.3178125465108
  0
SPLINE
  5
2AA
330
70
100
AcDbEntity
  8
1
  6
Continuous
 62
     7
100
AcDbSpline
210
0.0
220
0.0
230
1.0
 70
     8
 71
     3
 72
    35
 73
    31
 74
    29
 42
0.000000001
 43
0.0000000001
 44
0.00000001
 40
0.0
 40
0.0
 40
0.0
 40
0.0
 40
1.36403533561287
 40
2.724508496129234
 40
4.076559928967486
 40
5.431390356196617
 40
6.773950050513264
 40
8.115276736395089
 40
9.445786196357915
 40
10.77671875750667
 40
12.09749143910376
 40
13.41810433808332
 40
14.73130395566939
 40
16.04453942986447
 40
17.3537695715406
 40
18.66297909034748
 40
19.97218860915424
 40
21.28141875083029
 40
22.5946542250254
 40
23.90785384261164
 40
25.22846674159122
 40
26.54923942318763
 40
27.88017198433659
 40
29.21068144429943
 40
30.55200813018121
 40
31.89456782449799
 40
33.24939825172664
 40
34.60144968456527
 40
35.96192284508149
 40
37.32595818069453
 40
37.32595818069453
 40
37.32595818069453
 40
37.32595818069453
 10
357.9579362680306
 20
1073.279458907883
 30
0.0
 10
357.7884973606983
 20
1072.857538231225
 30
0.0
 10
357.4500620225916
 20
1072.01479872803
 30
0.0
 10
356.8758171930456
 20
1070.781326676357
 30
0.0
 10
356.1733846950535
 20
1069.618650447132
 30
0.0
 10
355.3698851386281
 20
1068.532108497317
 30
0.0
 10
354.4837963479425
 20
1067.516623166677
 30
0.0
 10
353.5202288791592
 20
1066.585598680031
 30
0.0
 10
352.4802487098153
 20
1065.746896310616
 30
0.0
 10
351.3756135069755
 20
1065.0076695199
 30
0.0
 10
350.2123937955375
 20
1064.371408753701
 30
0.0
 10
349.0022217259463
 20
1063.844262749942
 30
0.0
 10
347.7515656495883
 20
1063.429971630829
 30
0.0
 10
346.472156549331
 20
1063.131706164532
 30
0.0
 10
345.1721322335732
 20
1062.951998136513
 30
0.0
 10
343.8624646705686
 20
1062.891725124407
 30
0.0
 10
342.5527980626197
 20
1062.952018885265
 30
0.0
 10
341.252776594098
 20
1063.131747509246
 30
0.0
 10
339.9733722193519
 20
1063.430033244887
 30
0.0
 10
338.7227227066691
 20
1063.844344177805
 30
0.0
 10
337.5125589886824
 20
1064.371509353973
 30
0.0
 10
336.3493493575212
 20
1065.00778854871
 30
0.0
 10
335.2447258662194
 20
1065.747032839815
 30
0.0
 10
334.2047589843739
 20
1066.585751685289
 30
0.0
 10
333.2412062657164
 20
1067.516791437395
 30
0.0
 10
332.3551335632413
 20
1068.532290806008
 30
0.0
 10
331.5516512207486
 20
1069.618845485342
 30
0.0
 10
330.8492371428556
 20
1070.781532842898
 30
0.0
 10
330.2750118549936
 20
1072.015013992044
 30
0.0
 10
329.9365898682562
 20
1072.857758856886
 30
0.0
 10
329.7671576453369
 20
1073.279682217872
 30
0.0
 11
357.9579362680306
 21
1073.279458907883
 31
0.0
 11
357.4382516991029
 21
1072.01830056918
 31
0.0
 11
356.852908294503
 21
1070.790188065499
 31
0.0
 11
356.1564935883701
 21
1069.631287881248
 31
0.0
 11
355.3531760622755
 21
1068.54030371945
 31
0.0
 11
354.4696713548398
 21
1067.529419964208
 31
0.0
 11
353.5043081763236
 21
1066.598167467092
 31
0.0
 11
352.4686673361499
 21
1065.762881004493
 31
0.0
 11
351.3624815517889
 21
1065.022790135685
 31
0.0
 11
350.2036386336702
 21
1064.389131261542
 31
0.0
 11
348.9927745068419
 21
1063.862038768265
 31
0.0
 11
347.7461784041305
 21
1063.449132733615
 31
0.0
 11
346.4671893909136
 21
1063.151182207763
 31
0.0
 11
345.1702963070514
 21
1062.971872715576
 31
0.0
 11
343.8624648297436
 21
1062.911819471058
 31
0.0
 11
342.5546343040096
 21
1062.97189343524
 31
0.0
 11
341.2577440610691
 21
1063.151223473781
 31
0.0
 11
339.9787597683739
 21
1063.449194262323
 31
0.0
 11
338.7321702073936
 21
1063.862120046455
 31
0.0
 11
337.5213144313217
 21
1064.389231723106
 31
0.0
 11
336.3624815522591
 21
1065.022908956448
 31
0.0
 11
335.2563074931252
 21
1065.763017350208
 31
0.0
 11
334.2206798863317
 21
1066.598320220121
 31
0.0
 11
333.2553314615543
 21
1067.529588011145
 31
0.0
 11
332.3718427694265
 21
1068.540485763421
 31
0.0
 11
331.5685425276422
 21
1069.631482651855
 31
0.0
 11
330.8721461817841
 21
1070.790393869098
 31
0.0
 11
330.2868222339597
 21
1072.018515646085
 31
0.0
 11
329.7671576453369
 21
1073.279682217872
 31
0.0
  0
SPLINE
  5
2AB
330
70
100
AcDbEntity
  8
1
  6
Continuous
 62
     7
100
AcDbSpline
210
0.0
220
0.0
230
1.0
 70
     8
 71
     3
 72
    43
 73
    39
 74
    37
 42
0.000000001
 43
0.0000000001
 44
0.00000001
 40
0.0
 40
0.0
 40
0.0
 40
0.0
 40
1.375031497453516
 40
2.746591129772444
 40
4.115636816947251
 40
5.487428997179548
 40
6.850952294817132
 40
8.2132623114906
 40
9.566265893632817
 40
10.9196896896447
 40
12.26176627783778
 40
13.60368263574
 40
14.9343760170571
 40
16.26509662391888
 40
17.58580613186824
 40
18.90648784728982
 40
20.21970770172029
 40
21.53292133627963
 40
22.84214369567788
 40
24.15136119050135
 40
25.46057868532506
 40
26.76980104472326
 40
28.08301467928248
 40
29.39623453371276
 40
30.71691624913444
 40
32.03762575708385
 40
33.36834636394579
 40
34.69903974526299
 40
36.04095610316562
 40
37.3830326913583
 40
38.73645648736954
 40
40.0894600695115
 40
41.45177008618539
 40
42.81529338382335
 40
44.1870855640557
 40
45.55613125123038
 40
46.92769088354884
 40
48.30272238100231
 40
48.30272238100231
 40
48.30272238100231
 40
48.30272238100231
 10
358.8625635107779
 20
1075.369309322427
 30
0.0
 10
358.8406008904879
 20
1074.911498358258
 30
0.0
 10
358.7967310915317
 20
1073.997032373557
 30
0.0
 10
358.6587023841828
 20
1072.630421224909
 30
0.0
 10
358.3772340121043
 20
1071.286235425163
 30
0.0
 10
357.9756652324868
 20
1069.976826793619
 30
0.0
 10
357.4738226649313
 20
1068.704960004658
 30
0.0
 10
356.8715798287081
 20
1067.484155409514
 30
0.0
 10
356.1677028910581
 20
1066.322885893001
 30
0.0
 10
355.3706539922907
 20
1065.231841647505
 30
0.0
 10
354.4850649945806
 20
1064.216255895446
 30
0.0
 10
353.5200908044084
 20
1063.286580194796
 30
0.0
 10
352.4799441671619
 20
1062.447864716903
 30
0.0
 10
351.3755857562299
 20
1061.70826695037
 30
0.0
 10
350.2124245450299
 20
1061.072019044498
 30
0.0
 10
349.0022039927218
 20
1060.54496688971
 30
0.0
 10
347.7515281342232
 20
1060.130672328336
 30
0.0
 10
346.4721266246399
 20
1059.832386209772
 30
0.0
 10
345.1721088287024
 20
1059.652679844128
 30
0.0
 10
343.8624385354345
 20
1059.592411086299
 30
0.0
 10
342.5527691971547
 20
1059.652700592924
 30
0.0
 10
341.2527542484267
 20
1059.832427554426
 30
0.0
 10
339.9733574646823
 20
1060.130733942215
 30
0.0
 10
338.7226881699131
 20
1060.545048317704
 30
0.0
 10
337.5124759677227
 20
1061.07211964567
 30
0.0
 10
336.3493248365962
 20
1061.708385979156
 30
0.0
 10
335.244978143079
 20
1062.448001241691
 30
0.0
 10
334.2048447935379
 20
1063.286733198282
 30
0.0
 10
333.2398853321246
 20
1064.216424186678
 30
0.0
 10
332.3543124242149
 20
1065.23202396879
 30
0.0
 10
331.5572808107089
 20
1066.32308084161
 30
0.0
 10
330.8534222708711
 20
1067.484361509335
 30
0.0
 10
330.2511987756483
 20
1068.705175645521
 30
0.0
 10
329.7493763580468
 20
1069.977050384898
 30
0.0
 10
329.3478283231377
 20
1071.286465378239
 30
0.0
 10
329.0663812467188
 20
1072.630655637054
 30
0.0
 10
328.9283741902912
 20
1073.997268972288
 30
0.0
 10
328.8845188790129
 20
1074.911735651892
 30
0.0
 10
328.8625635117188
 20
1075.369546963953
 30
0.0
 11
358.8625635107779
 21
1075.369309322427
 31
0.0
 11
358.7845840442757
 21
1073.996490748663
 31
0.0
 11
358.6346581317847
 21
1072.633149981062
 31
0.0
 11
358.3573201551413
 21
1071.292489791678
 31
0.0
 11
357.9579101327867
 21
1069.98013106703
 31
0.0
 11
357.4565003094028
 21
1068.712146850309
 31
0.0
 11
356.8528821592829
 21
1067.490863217541
 31
0.0
 11
356.1516242389065
 21
1066.333773755345
 31
0.0
 11
355.3531499270769
 21
1065.240981576571
 31
0.0
 11
354.4709267436866
 21
1064.229620204846
 31
0.0
 11
353.5042820411432
 21
1063.298847659286
 31
0.0
 11
352.4683020170199
 21
1062.463688832725
 31
0.0
 11
351.3624554166239
 21
1061.723472221998
 31
0.0
 11
350.2037024299819
 21
1061.089780561016
 31
0.0
 11
348.9927483716882
 21
1060.562722250187
 31
0.0
 11
347.7461278918911
 21
1060.149825451607
 31
0.0
 11
346.4671632557665
 21
1059.851866544381
 31
0.0
 11
345.1702782396476
 21
1059.672555523602
 31
0.0
 11
343.862438694599
 21
1059.612504095489
 31
0.0
 11
342.5546001010952
 21
1059.672576243394
 31
0.0
 11
341.257717925922
 21
1059.851907810399
 31
0.0
 11
339.9787580104521
 21
1060.149886979929
 31
0.0
 11
338.7321440722398
 21
1060.562803528376
 31
0.0
 11
337.5211983641607
 21
1061.089881024004
 31
0.0
 11
336.3624554170943
 21
1061.723591042761
 31
0.0
 11
335.2566205439173
 21
1062.463825173067
 31
0.0
 11
334.220653751152
 21
1063.299000412315
 31
0.0
 11
333.254023794744
 21
1064.229788272087
 31
0.0
 11
332.3718166342283
 21
1065.241163620542
 31
0.0
 11
331.5733596353524
 21
1066.333968449222
 31
0.0
 11
330.8721200465645
 21
1067.491069021139
 31
0.0
 11
330.268521245034
 21
1068.712362216738
 31
0.0
 11
329.7671315100935
 21
1069.980354377019
 31
0.0
 11
329.3677422791846
 21
1071.292719429263
 31
0.0
 11
329.0904255423449
 21
1072.63338401228
 31
0.0
 11
328.9405212289647
 21
1073.996727154951
 31
0.0
 11
328.8625635117188
 21
1075.369546963953
 31
0.0
  0
SPLINE
  5
2AC
330
70
100
AcDbEntity
  8
1
  6
Continuous
 62
     7
100
AcDbSpline
210
0.0
220
0.0
230
1.0
 70
     8
 71
     3
 72
    11
 73
     7
 74
     5
 42
0.000000001
 43
0.0000000001
 44
0.00000001
 40
0.0
 40
0.0
 40
0.0
 40
0.0
 40
0.3378020020335462
 40
0.6765369452923642
 40
0.6889181616343951
 40
0.7012974874464558
 40
0.7012974874464558
 40
0.7012974874464558
 40
0.7012974874464558
 10
357.9160655175384
 20
648.4252056425732
 30
0.0
 10
357.8396490697054
 20
648.5079593121579
 30
0.0
 10
357.6866051040668
 20
648.6736951757598
 30
0.0
 10
357.5167689070968
 20
648.8287078283493
 30
0.0
 10
357.4249792459321
 20
648.9077980525165
 30
0.0
 10
357.4187179337954
 20
648.913175492143
 30
0.0
 10
357.4155875120983
 20
648.9158640012404
 30
0.0
 11
357.9160655175384
 21
648.4252056425732
 31
0.0
 11
357.6833906404174
 21
648.6700986681434
 31
0.0
 11
357.4343556505149
 21
648.8997134241921
 31
0.0
 11
357.4249765761896
 21
648.9077959661735
 31
0.0
 11
357.4155875120983
 21
648.9158640012404
 31
0.0
  0
SPLINE
  5
2AD
330
70
100
AcDbEntity
  8
1
  6
Continuous
 62
     7
100
AcDbSpline
210
0.0
220
0.0
230
1.0
 70
     8
 71
     3
 72
    35
 73
    31
 74
    29
 42
0.000000001
 43
0.0000000001
 44
0.00000001
 40
0.0
 40
0.0
 40
0.0
 40
0.0
 40
0.7945376507740918
 40
1.58803006026379
 40
2.525013123196047
 40
3.461367355108435
 40
4.519812054474968
 40
5.577919007406213
 40
6.739196790060737
 40
7.900287560604683
 40
9.139174728673659
 40
10.37796136487834
 40
11.66500199368354
 40
12.95199836966234
 40
14.25533669054243
 40
15.55867501141727
 40
16.84567138737961
 40
18.13271201615893
 40
19.37149865233047
 40
20.61038582036132
 40
21.77147659086742
 40
22.93275437348866
 40
23.99086132640142
 40
25.04930602578585
 40
25.98566025779659
 40
26.92264332124039
 40
27.72843261545525
 40
28.5354075593197
 40
28.60768642286557
 40
28.67987044034899
 40
28.67987044034899
 40
28.67987044034899
 40
28.67987044034899
 10
357.4155875120983
 20
648.9158640012404
 30
0.0
 10
357.2100852522126
 20
649.0832814132739
 30
0.0
 10
356.7993510678792
 20
649.4178959806145
 30
0.0
 10
356.0858139337759
 20
649.8674665974586
 30
0.0
 10
355.3006912984127
 20
650.2855063023103
 30
0.0
 10
354.4076647717189
 20
650.6842272158794
 30
0.0
 10
353.4540873527479
 20
651.0412017064597
 30
0.0
 10
352.4115602005645
 20
651.3697026003192
 30
0.0
 10
351.3207893098257
 20
651.6542335188245
 30
0.0
 10
350.1596789293948
 20
651.9028696692101
 30
0.0
 10
348.9635300275814
 20
652.1060156901809
 30
0.0
 10
347.7187778704025
 20
652.2676713869458
 30
0.0
 10
346.4527519685428
 20
652.3827546338812
 30
0.0
 10
345.161918881921
 20
652.4529262394144
 30
0.0
 10
343.8639504758192
 20
652.4759563381732
 30
0.0
 10
342.5659820659694
 20
652.4529262417897
 30
0.0
 10
341.2751489904932
 20
652.382754623928
 30
0.0
 10
340.0091230484949
 20
652.2676714226775
 30
0.0
 10
338.7643710357046
 20
652.1060155609125
 30
0.0
 10
337.5682216107939
 20
651.9028701376576
 30
0.0
 10
336.4071130657753
 20
651.6542318899146
 30
0.0
 10
335.3163356194436
 20
651.3697084625326
 30
0.0
 10
334.2738308669291
 20
651.0411819723187
 30
0.0
 10
333.3201746571012
 20
650.6842975167262
 30
0.0
 10
332.4274100761888
 20
650.2852772748201
 30
0.0
 10
331.6377595899667
 20
649.8663471039126
 30
0.0
 10
330.9203875272952
 20
649.4086266637735
 30
0.0
 10
330.4780453528813
 20
649.0607588037938
 30
0.0
 10
330.2390292591964
 20
648.8523010036075
 30
0.0
 10
330.2033414363897
 20
648.81996921173
 30
0.0
 10
330.1855092354923
 20
648.8038139347091
 30
0.0
 11
357.4155875120983
 21
648.9158640012404
 31
0.0
 11
356.7895624017842
 21
649.4051314421055
 31
0.0
 11
356.1220635492966
 21
649.8341716447511
 31
0.0
 11
355.2957264314762
 21
650.2758776871311
 31
0.0
 11
354.4414479957746
 21
650.659241223745
 31
0.0
 11
353.4509630182276
 21
651.0323962717508
 31
0.0
 11
352.4420466442813
 21
651.3512662659398
 31
0.0
 11
351.3187710614768
 21
651.6459152984132
 31
0.0
 11
350.1835357859907
 21
651.8895803257193
 31
0.0
 11
348.9623121613396
 21
652.0980372096467
 31
0.0
 11
347.7338771768241
 21
652.2578490287874
 31
0.0
 11
346.4521774259449
 21
652.3749785613082
 31
0.0
 11
345.1670785899291
 21
652.4448402251181
 31
0.0
 11
343.863950476123
 21
652.4682474095272
 31
0.0
 11
342.5608223623167
 21
652.4448402251181
 31
0.0
 11
341.275723526301
 21
652.3749785613082
 31
0.0
 11
339.9940237754219
 21
652.2578490287874
 31
0.0
 11
338.7655887909063
 21
652.0980372096468
 31
0.0
 11
337.5443651662554
 21
651.8895803257193
 31
0.0
 11
336.4091298907692
 21
651.6459152984132
 31
0.0
 11
335.2858543079647
 21
651.3512662659398
 31
0.0
 11
334.2769379340182
 21
651.0323962717508
 31
0.0
 11
333.2864529564712
 21
650.6592412237449
 31
0.0
 11
332.4321745207696
 21
650.275877687131
 31
0.0
 11
331.6058374029492
 21
649.834171644751
 31
0.0
 11
330.9283058148852
 21
649.3979981323329
 31
0.0
 11
330.2935453017309
 21
648.899713424192
 31
0.0
 11
330.2391565169696
 21
648.8521099144423
 31
0.0
 11
330.1855092354923
 21
648.8038139347091
 31
0.0
  0
ARC
  5
2AE
330
70
100
AcDbEntity
  8
1
  6
Continuous
 62
     7
100
AcDbCircle
 10
348.8627446544066
 20
659.0705964576562
 30
0.0
 40
10.0
100
AcDbArc
 50
0.0
 51
90.0
  0
ARC
  5
2AF
330
70
100
AcDbEntity
  8
1
  6
Continuous
 62
     7
100
AcDbCircle
 10
338.8627324298647
 20
659.0705964576562
 30
0.0
 40
10.0
100
AcDbArc
 50
90.0
 51
180.0
  0
ARC
  5
2B0
330
70
100
AcDbEntity
  8
1
  6
Continuous
 62
     7
100
AcDbCircle
 10
343.8627446544066
 20
542.2283487542506
 30
0.0
 40
15.0
100
AcDbArc
 50
270.0
 51
0.0
  0
ARC
  5
2B1
330
70
100
AcDbEntity
  8
1
  6
Continuous
 62
     7
100
AcDbCircle
 10
343.8627324298647
 20
542.2283487542506
 30
0.0
 40
15.0
100
AcDbArc
 50
180.0
 51
270.0
  0
ARC
  5
2B2
330
70
100
AcDbEntity
  8
1
  6
Continuous
 62
     7
100
AcDbCircle
 10
757.6863479900653
 20
519.078332195031
 30
0.0
 40
0.5
100
AcDbArc
 50
180.0
 51
270.0
  0
ARC
  5
2B3
330
70
100
AcDbEntity
  8
1
  6
Continuous
 62
     7
100
AcDbCircle
 10
757.6863479900653
 20
561.078332195031
 30
0.0
 40
0.5
100
AcDbArc
 50
90.0
 51
180.0
  0
ARC
  5
2B4
330
70
100
AcDbEntity
  8
1
  6
Continuous
 62
     7
100
AcDbCircle
 10
620.5161259423378
 20
640.3937838942857
 30
0.0
 40
0.4999999999998306
100
AcDbArc
 50
67.31179802937325
 51
157.311798029243
  0
ARC
  5
2B5
330
70
100
AcDbEntity
  8
1
  6
Continuous
 62
     7
100
AcDbCircle
 10
804.6863479900653
 20
519.078332195031
 30
0.0
 40
0.5
100
AcDbArc
 50
270.0
 51
0.0
  0
ARC
  5
2B6
330
70
100
AcDbEntity
  8
1
  6
Continuous
 62
     7
100
AcDbCircle
 10
757.6863479900653
 20
519.078332195031
 30
0.0
 40
0.5
100
AcDbArc
 50
180.0
 51
270.0
  0
ARC
  5
2B7
330
70
100
AcDbEntity
  8
1
  6
Continuous
 62
     7
100
AcDbCircle
 10
757.6863479900653
 20
561.078332195031
 30
0.0
 40
0.5
100
AcDbArc
 50
90.0
 51
180.0
  0
ARC
  5
2B8
330
70
100
AcDbEntity
  8
1
  6
Continuous
 62
     7
100
AcDbCircle
 10
367.363950476123
 20
561.078332195031
 30
0.0
 40
0.5
100
AcDbArc
 50
0.0
 51
90.0
  0
ARC
  5
2B9
330
70
100
AcDbEntity
  8
1
  6
Continuous
 62
     7
100
AcDbCircle
 10
601.2739282516966
 20
663.0705964576566
 30
0.0
 40
6.000000000000099
100
AcDbArc
 50
67.31179802925703
 51
157.3117980292569
  0
ARC
  5
2BA
330
70
100
AcDbEntity
  8
1
  6
Continuous
 62
     7
100
AcDbCircle
 10
804.6863479900653
 20
519.078332195031
 30
0.0
 40
0.5
100
AcDbArc
 50
270.0
 51
0.0
  0
ARC
  5
2BB
330
70
100
AcDbEntity
  8
1
  6
Continuous
 62
     7
100
AcDbCircle
 10
367.363950476123
 20
561.078332195031
 30
0.0
 40
0.5
100
AcDbArc
 50
0.0
 51
90.0
  0
ARC
  5
2BC
330
70
100
AcDbEntity
  8
1
  6
Continuous
 62
     7
100
AcDbCircle
 10
320.3639504761227
 20
561.078332195031
 30
0.0
 40
0.5
100
AcDbArc
 50
89.99999999996092
 51
180.0
  0
ARC
  5
2BD
330
70
100
AcDbEntity
  8
1
  6
Continuous
 62
     7
100
AcDbCircle
 10
320.3639504761227
 20
561.078332195031
 30
0.0
 40
0.5
100
AcDbArc
 50
89.99999999996092
 51
180.0
  0
ENDBLK
  5
72
330
70
100
AcDbEntity
  8
0
100
AcDbBlockEnd
  0
BLOCK
  5
74
330
73
100
AcDbEntity
  8
0
100
AcDbBlockBegin
  2
31-28
 70
     0
 10
1185.707085219171
 20
715.1665469505049
 30
0.0
  3
31-28
  1

  0
LINE
  5
2BE
330
73
100
AcDbEntity
  8
1
  6
Continuous
 62
     7
100
AcDbLine
 10
725.0942224623883
 20
550.0416689888191
 30
0.0
 11
729.0942224623883
 21
550.0416689888191
 31
0.0
  0
LINE
  5
2BF
330
73
100
AcDbEntity
  8
1
  6
Continuous
 62
     7
100
AcDbLine
 10
729.5942224623883
 20
546.5416689888191
 30
0.0
 11
730.5589095070101
 21
546.5416689888191
 31
0.0
  0
LINE
  5
2C0
330
73
100
AcDbEntity
  8
1
  6
Continuous
 62
     7
100
AcDbLine
 10
725.0942224623883
 20
550.0416689888191
 30
0.0
 11
724.5942224623883
 21
549.5416689888191
 31
0.0
  0
LINE
  5
2C1
330
73
100
AcDbEntity
  8
1
  6
Continuous
 62
     7
100
AcDbLine
 10
729.5942224623883
 20
549.5416689888191
 30
0.0
 11
729.0942224623883
 21
550.0416689888191
 31
0.0
  0
LINE
  5
2C2
330
73
100
AcDbEntity
  8
1
  6
Continuous
 62
     7
100
AcDbLine
 10
724.5942224623883
 20
542.5416689888191
 30
0.0
 11
724.5942224623883
 21
549.5416689888191
 31
0.0
  0
LINE
  5
2C3
330
73
100
AcDbEntity
  8
1
  6
Continuous
 62
     7
100
AcDbLine
 10
729.0942224623883
 20
535.0416689888191
 30
0.0
 11
725.0942224623883
 21
535.0416689888191
 31
0.0
  0
LINE
  5
2C4
330
73
100
AcDbEntity
  8
1
  6
Continuous
 62
     7
100
AcDbLine
 10
729.5942224623883
 20
535.5416689888191
 30
0.0
 11
729.5942224623883
 21
549.5416689888191
 31
0.0
  0
LINE
  5
2C5
330
73
100
AcDbEntity
  8
1
  6
Continuous
 62
     7
100
AcDbLine
 10
724.5942224623883
 20
535.5416689888191
 30
0.0
 11
725.0942224623883
 21
535.0416689888191
 31
0.0
  0
LINE
  5
2C6
330
73
100
AcDbEntity
  8
1
  6
Continuous
 62
     7
100
AcDbLine
 10
729.0942224623883
 20
535.0416689888191
 30
0.0
 11
729.5942224623883
 21
535.5416689888191
 31
0.0
  0
LINE
  5
2C7
330
73
100
AcDbEntity
  8
1
  6
Continuous
 62
     7
100
AcDbLine
 10
724.5942224623883
 20
535.5416689888191
 30
0.0
 11
724.5942224623883
 21
542.5416689888191
 31
0.0
  0
LINE
  5
2C8
330
73
100
AcDbEntity
  8
1
  6
Continuous
 62
     7
100
AcDbLine
 10
729.0942224623883
 20
550.0416689888191
 30
0.0
 11
729.0942224623883
 21
535.0416689888191
 31
0.0
  0
LINE
  5
2C9
330
73
100
AcDbEntity
  8
1
  6
Continuous
 62
     7
100
AcDbLine
 10
725.0942224623883
 20
550.0416689888191
 30
0.0
 11
725.0942224623883
 21
535.0416689888191
 31
0.0
  0
LINE
  5
2CA
330
73
100
AcDbEntity
  8
1
  6
Continuous
 62
     7
100
AcDbLine
 10
730.5589095070101
 20
538.5416689888191
 30
0.0
 11
729.5942224623883
 21
538.5416689888191
 31
0.0
  0
LINE
  5
2CB
330
73
100
AcDbEntity
  8
1
  6
Continuous
 62
     7
100
AcDbLine
 10
725.0942224623883
 20
536.0416689888191
 30
0.0
 11
729.0942224623883
 21
536.0416689888191
 31
0.0
  0
LINE
  5
2CC
330
73
100
AcDbEntity
  8
1
  6
Continuous
 62
     7
100
AcDbLine
 10
725.5942224623883
 20
537.0416689888191
 30
0.0
 11
728.5942224623883
 21
537.0416689888191
 31
0.0
  0
LINE
  5
2CD
330
73
100
AcDbEntity
  8
1
  6
Continuous
 62
     7
100
AcDbLine
 10
726.0942224623883
 20
538.0416689888191
 30
0.0
 11
728.0942224623883
 21
538.0416689888191
 31
0.0
  0
LINE
  5
2CE
330
73
100
AcDbEntity
  8
1
  6
Continuous
 62
     7
100
AcDbLine
 10
726.5942224623883
 20
539.0416689888191
 30
0.0
 11
727.5942224623883
 21
539.0416689888191
 31
0.0
  0
CIRCLE
  5
2CF
330
73
100
AcDbEntity
  8
1
  6
Continuous
 62
     7
100
AcDbCircle
 10
343.8639504761229
 20
542.5416689888185
 30
0.0
 40
7.500000000000568
  0
CIRCLE
  5
2D0
330
73
100
AcDbEntity
  8
1
  6
Continuous
 62
     7
100
AcDbCircle
 10
343.8639504761229
 20
542.5416689888185
 30
0.0
 40
7.003573981034482
  0
CIRCLE
  5
2D1
330
73
100
AcDbEntity
  8
1
  6
Continuous
 62
     7
100
AcDbCircle
 10
343.8639504761229
 20
542.5416689888185
 30
0.0
 40
2.500000000000398
  0
ENDBLK
  5
75
330
73
100
AcDbEntity
  8
0
100
AcDbBlockEnd
  0
BLOCK
  5
77
330
76
100
AcDbEntity
  8
0
100
AcDbBlockBegin
  2
35-151
 70
     0
 10
-2033.524412630977
 20
-992.323852913991
 30
0.0
  3
35-151
  1

  0
LINE
  5
2D2
330
76
100
AcDbEntity
  8
1
  6
Continuous
 62
     7
100
AcDbLine
 10
741.9705096076942
 20
549.5416689888184
 30
0.0
 11
740.5648374126205
 21
549.5416689888184
 31
0.0
  0
LINE
  5
2D3
330
76
100
AcDbEntity
  8
0
  6
Continuous
 62
     7
100
AcDbLine
 10
751.8846297918973
 20
535.5416689888185
 30
0.0
 11
750.8846297918973
 21
535.5416689888185
 31
0.0
  0
LINE
  5
2D4
330
76
100
AcDbEntity
  8
1
  6
Continuous
 62
     7
100
AcDbLine
 10
731.0589095070101
 20
535.5416689888185
 30
0.0
 11
750.8846297918973
 21
535.5416689888185
 31
0.0
  0
LINE
  5
2D5
330
76
100
AcDbEntity
  8
1
  6
Continuous
 62
     7
100
AcDbLine
 10
731.0589095070101
 20
535.5416689888185
 30
0.0
 11
730.5589095070101
 21
536.0416689888185
 31
0.0
  0
LINE
  5
2D6
330
76
100
AcDbEntity
  8
1
  6
Continuous
 62
     7
100
AcDbLine
 10
731.0589095070101
 20
549.5416689888184
 30
0.0
 11
730.5589095070101
 21
549.0416689888184
 31
0.0
  0
LINE
  5
2D7
330
76
100
AcDbEntity
  8
1
  6
Continuous
 62
     7
100
AcDbLine
 10
740.5648374126205
 20
549.5416689888184
 30
0.0
 11
731.0589095070101
 21
549.5416689888184
 31
0.0
  0
LINE
  5
2D8
330
76
100
AcDbEntity
  8
1
  6
Continuous
 62
     7
100
AcDbLine
 10
730.5589095070101
 20
549.0416689888184
 30
0.0
 11
730.5589095070101
 21
536.0416689888185
 31
0.0
  0
LINE
  5
2D9
330
76
100
AcDbEntity
  8
1
  6
Continuous
 62
     7
100
AcDbLine
 10
731.0589095070101
 20
549.5416689888184
 30
0.0
 11
731.0589095070101
 21
535.5416689888185
 31
0.0
  0
ENDBLK
  5
78
330
76
100
AcDbEntity
  8
0
100
AcDbBlockEnd
  0
BLOCK
  5
7B
330
79
100
AcDbEntity
  8
0
100
AcDbBlockBegin
  2
61-91__5
 70
     0
 10
-3184.483478640503
 20
-1306.815912774517
 30
0.0
  3
61-91__5
  1

  0
INSERT
  5
7A
330
79
100
AcDbEntity
  8
0
100
AcDbBlockReference
  2
35-151
 10
-2033.524412630977
 20
-992.3238529139909
 30
0.0
 41
1.0
 42
1.0
 43
1.0
  0
ENDBLK
  5
7C
330
79
100
AcDbEntity
  8
0
100
AcDbBlockEnd
  0
BLOCK
  5
7E
330
7D
100
AcDbEntity
  8
0
100
AcDbBlockBegin
  2
82-20-M21
 70
     0
 10
443.5180746425182
 20
631.6901394943508
 30
0.0
  3
82-20-M21
  1

  0
LINE
  5
2DA
330
7D
100
AcDbEntity
  8
1
  6
PHANTOM
 62
     4
100
AcDbLine
 10
330.2970885298377
 20
633.7953227067412
 30
0.0
 11
357.2970885298377
 21
633.7953227067412
 31
0.0
  0
LINE
  5
2DB
330
7D
100
AcDbEntity
  8
1
  6
Continuous
 62
     7
100
AcDbLine
 10
331.363950476123
 20
637.1959784069813
 30
0.0
 11
331.3639504761229
 21
646.2506594094011
 31
0.0
  0
LINE
  5
2DC
330
7D
100
AcDbEntity
  8
1
  6
Continuous
 62
     7
100
AcDbLine
 10
356.3639504761229
 20
646.2506594094011
 30
0.0
 11
356.3639504761229
 21
637.1959784069813
 31
0.0
  0
LINE
  5
2DD
330
7D
100
AcDbEntity
  8
1
  6
Continuous
 62
     7
100
AcDbLine
 10
331.3639504761229
 20
637.0244840740972
 30
0.0
 11
332.3855210483643
 21
633.5297679764515
 31
0.0
  0
LINE
  5
2DE
330
7D
100
AcDbEntity
  8
1
  6
Continuous
 62
     7
100
AcDbLine
 10
356.3639504761229
 20
637.0244840740972
 30
0.0
 11
355.3453156671233
 21
633.5484996755888
 31
0.0
  0
LINE
  5
2DF
330
7D
100
AcDbEntity
  8
1
  6
Continuous
 62
     7
100
AcDbLine
 10
589.6909129291861
 20
641.84593495179
 30
0.0
 11
612.756351267444
 21
632.2030331964045
 31
0.0
  0
LINE
  5
2E0
330
7D
100
AcDbEntity
  8
1
  6
Continuous
 62
     7
100
AcDbLine
 10
594.7078762874019
 20
650.5872349119095
 30
0.0
 11
616.4289884628928
 21
641.5063517457523
 31
0.0
  0
LINE
  5
2E1
330
7D
100
AcDbEntity
  8
1
  6
Continuous
 62
     7
100
AcDbLine
 10
589.9594559259361
 20
637.9401113375329
 30
0.0
 11
599.873625852561
 21
633.7953227067412
 31
0.0
  0
LINE
  5
2E2
330
7D
100
AcDbEntity
  8
1
  6
Continuous
 62
     7
100
AcDbLine
 10
599.873625852561
 20
633.7953227067412
 30
0.0
 11
609.7877957791858
 21
629.6505340759493
 31
0.0
  0
LINE
  5
2E3
330
7D
100
AcDbEntity
  8
1
  6
Continuous
 62
     7
100
AcDbLine
 10
593.7325971380463
 20
650.9949670730501
 30
0.0
 11
594.7078762874019
 21
650.5872349119095
 31
0.0
  0
LINE
  5
2E4
330
7D
100
AcDbEntity
  8
1
  6
Continuous
 62
     7
100
AcDbLine
 10
593.4709304172972
 20
650.8875867803872
 30
0.0
 11
589.6909129291861
 21
641.84593495179
 31
0.0
  0
LINE
  5
2E5
330
7D
100
AcDbEntity
  8
1
  6
Continuous
 62
     7
100
AcDbLine
 10
589.6909129291861
 20
641.84593495179
 30
0.0
 11
589.3520887892912
 21
638.980141580136
 31
0.0
  0
LINE
  5
2E6
330
7D
100
AcDbEntity
  8
1
  6
Continuous
 62
     7
100
AcDbLine
 10
612.756351267444
 20
632.2030331964045
 30
0.0
 11
610.9546663485463
 21
629.9488138415484
 31
0.0
  0
LINE
  5
2E7
330
7D
100
AcDbEntity
  8
1
  6
Continuous
 62
     7
100
AcDbLine
 10
616.5363687555551
 20
641.2446850250017
 30
0.0
 11
612.756351267444
 21
632.2030331964045
 31
0.0
  0
SPLINE
  5
2E8
330
7D
100
AcDbEntity
  8
1
  6
Continuous
 62
     7
100
AcDbSpline
210
0.0
220
0.0
230
1.0
 70
     8
 71
     3
 72
     9
 73
     5
 74
     3
 42
0.000000001
 43
0.0000000001
 44
0.00000001
 40
0.0
 40
0.0
 40
0.0
 40
0.0
 40
0.2140978847214409
 40
0.4312601803736115
 40
0.4312601803736115
 40
0.4312601803736115
 40
0.4312601803736115
 10
356.363950476123
 20
646.250659409367
 30
0.0
 10
356.3617480994092
 20
646.3221461815374
 30
0.0
 10
356.3573118032152
 20
646.4661429235887
 30
0.0
 10
356.3275339547449
 20
646.6071023685245
 30
0.0
 10
356.3125392241619
 20
646.6780828981643
 30
0.0
 11
356.363950476123
 21
646.250659409367
 31
0.0
 11
356.3510976631348
 21
646.4643711537657
 31
0.0
 11
356.3125392241619
 21
646.6780828981643
 31
0.0
  0
SPLINE
  5
2E9
330
7D
100
AcDbEntity
  8
1
  6
Continuous
 62
     7
100
AcDbSpline
210
0.0
220
0.0
230
1.0
 70
     8
 71
     3
 72
    43
 73
    39
 74
    37
 42
0.000000001
 43
0.0000000001
 44
0.00000001
 40
0.0
 40
0.0
 40
0.0
 40
0.0
 40
0.4649034163723699
 40
0.9273627578031307
 40
1.476021015067516
 40
2.02252480638695
 40
2.679342174927986
 40
3.335198848413137
 40
4.105516937179229
 40
4.875336395076335
 40
5.750838093047555
 40
6.626081719826103
 40
7.590203835083029
 40
8.554184885013411
 40
9.584990716175016
 40
10.61572156131214
 40
11.68783272342792
 40
12.7599110379793
 40
13.84599287722878
 40
14.93207471640854
 40
16.00415303076129
 40
17.07626419257049
 40
18.1069950373377
 40
19.13780086808491
 40
20.10178191761065
 40
21.06590403246484
 40
21.94114765888995
 40
22.81664935652627
 40
23.58646881414746
 40
24.35678690265737
 40
25.01264357594205
 40
25.66946094430099
 40
26.21596473548932
 40
26.76462299264218
 40
27.22708233288356
 40
27.69198575198247
 40
27.90914805195515
 40
28.1232459315688
 40
28.1232459315688
 40
28.1232459315688
 40
28.1232459315688
 10
356.3125392241619
 20
646.6780828981643
 30
0.0
 10
356.2682288604884
 20
646.8272305180527
 30
0.0
 10
356.1798410934963
 20
647.1247416684462
 30
0.0
 10
355.9191705482067
 20
647.5473054280594
 30
0.0
 10
355.5840340389652
 20
647.9452985796686
 30
0.0
 10
355.1501884767308
 20
648.3385711741412
 30
0.0
 10
354.6465090799494
 20
648.7014374232917
 30
0.0
 10
354.0493090012804
 20
649.0569966022596
 30
0.0
 10
353.3919622983066
 20
649.3806392951326
 30
0.0
 10
352.648071614868
 20
649.6899767258352
 30
0.0
 10
351.8540901152888
 20
649.9661816261095
 30
0.0
 10
350.985378994986
 20
650.2208431775048
 30
0.0
 10
350.0769437941918
 20
650.4412043843035
 30
0.0
 10
349.1094018380996
 20
650.6339482402384
 30
0.0
 10
348.1129914882242
 20
650.7913405371455
 30
0.0
 10
347.0757686460382
 20
650.9166599371176
 30
0.0
 10
346.0210049386353
 20
651.0058394966156
 30
0.0
 10
344.9454205078571
 20
651.0602416315584
 30
0.0
 10
343.8639504734685
 20
651.078083135205
 30
0.0
 10
342.7824804390988
 20
651.0602416309775
 30
0.0
 10
341.70689600871
 20
651.0058394954534
 30
0.0
 10
340.6521323010286
 20
650.9166599356349
 30
0.0
 10
339.6149094614462
 20
650.7913405347955
 30
0.0
 10
338.6184991040749
 20
650.6339482394566
 30
0.0
 10
337.6509571762272
 20
650.4412043769589
 30
0.0
 10
336.7425218767405
 20
650.2208431928613
 30
0.0
 10
335.8738110943197
 20
649.9661815637952
 30
0.0
 10
335.0798284111959
 20
649.6899769358104
 30
0.0
 10
334.3359416417361
 20
649.3806386049371
 30
0.0
 10
333.6785814389285
 20
649.0569990171965
 30
0.0
 10
333.0814246964141
 20
648.7014298706315
 30
0.0
 10
332.5775978533759
 20
648.3385975352984
 30
0.0
 10
332.1442162247138
 20
647.9452182325097
 30
0.0
 10
331.8075003258551
 20
647.5475883531251
 30
0.0
 10
331.5518649605295
 20
647.1238664624495
 30
0.0
 10
331.4278409716126
 20
646.7601224831219
 30
0.0
 10
331.371359911136
 20
646.4659656357198
 30
0.0
 10
331.3664085638298
 20
646.3220873644005
 30
0.0
 10
331.3639504761229
 20
646.2506594094309
 30
0.0
 11
356.3125392241619
 21
646.6780828981643
 31
0.0
 11
356.1606617169907
 21
647.117478404308
 31
0.0
 11
355.9262384023592
 21
647.516119032049
 31
0.0
 11
355.5746448011056
 21
647.9373171111373
 31
0.0
 11
355.1717266041499
 21
648.3065369909842
 31
0.0
 11
354.6410601378295
 21
648.6935798259642
 31
0.0
 11
354.0783142848932
 21
649.0304256070436
 31
0.0
 11
353.3884962162865
 21
649.3732681203014
 31
0.0
 11
352.678075582483
 21
649.6697888103961
 31
0.0
 11
351.8518278566177
 21
649.9593020521368
 31
0.0
 11
351.0121231453903
 21
650.2061773296092
 31
0.0
 11
350.0754811968876
 21
650.4347234114456
 31
0.0
 11
349.1301617347678
 21
650.6234840461052
 31
0.0
 11
348.1121112642342
 21
650.7851438701236
 31
0.0
 11
347.0888479359638
 21
650.9089914934608
 31
0.0
 11
346.0205904091927
 21
650.9998110834617
 31
0.0
 11
344.9498807347786
 21
651.0539655219868
 31
0.0
 11
343.863950476123
 21
651.0721102870933
 31
0.0
 11
342.7780202174673
 21
651.053965521987
 31
0.0
 11
341.7073105430532
 21
650.999811083462
 31
0.0
 11
340.6390530162821
 21
650.9089914934609
 31
0.0
 11
339.6157896880117
 21
650.7851438701235
 31
0.0
 11
338.5977392174782
 21
650.6234840461052
 31
0.0
 11
337.6524197553583
 21
650.4347234114455
 31
0.0
 11
336.7157778068554
 21
650.2061773296093
 31
0.0
 11
335.8760730956279
 21
649.9593020521368
 31
0.0
 11
335.0498253697627
 21
649.6697888103961
 31
0.0
 11
334.3394047359594
 21
649.3732681203014
 31
0.0
 11
333.6495866673525
 21
649.0304256070438
 31
0.0
 11
333.0868408144162
 21
648.6935798259642
 31
0.0
 11
332.556174348096
 21
648.3065369909843
 31
0.0
 11
332.1532561511403
 21
647.9373171111373
 31
0.0
 11
331.8016625498867
 21
647.5161190320491
 31
0.0
 11
331.5672392352552
 21
647.1174784043083
 31
0.0
 11
331.415361728084
 21
646.6780828981643
 31
0.0
 11
331.3768032891151
 21
646.4643711537979
 31
0.0
 11
331.3639504761229
 21
646.2506594094309
 31
0.0
  0
SPLINE
  5
2EA
330
7D
100
AcDbEntity
  8
1
  6
Continuous
 62
     7
100
AcDbSpline
210
0.0
220
0.0
230
1.0
 70
     8
 71
     3
 72
    45
 73
    41
 74
    39
 42
0.000000001
 43
0.0000000001
 44
0.00000001
 40
0.0
 40
0.0
 40
0.0
 40
0.0
 40
0.0648859075778392
 40
0.1302642160647788
 40
0.5579753616564753
 40
0.9834379548705398
 40
1.488203551585788
 40
1.990987039597901
 40
2.595259018625514
 40
3.19864715818231
 40
3.907339799772526
 40
4.615573700950827
 40
5.421035262975562
 40
6.226259399498008
 40
7.113251745411392
 40
8.000114311236862
 40
8.94845567581586
 40
9.896728053296279
 40
10.88307032245628
 40
11.86938237192737
 40
12.86857766419282
 40
13.86777295645565
 40
14.85408500591915
 40
15.84042727506774
 40
16.78869965253458
 40
17.73704101709866
 40
18.62390358290995
 40
19.51089592880943
 40
20.3161200653198
 40
21.12158162733337
 40
21.82981552850226
 40
22.53850817008403
 40
23.14189630963414
 40
23.74616828865555
 40
24.24895177666268
 40
24.75371737337274
 40
25.17917996657416
 40
25.60689111217607
 40
25.68181635432072
 40
25.75611187126708
 40
25.75611187126708
 40
25.75611187126708
 40
25.75611187126708
 10
332.385521048367
 20
633.5297679764351
 30
0.0
 10
332.3892204099806
 20
633.5084539102519
 30
0.0
 10
332.3966471946661
 20
633.4656640292702
 30
0.0
 10
332.4374238515027
 20
633.2841859630303
 30
0.0
 10
332.5367786149966
 20
632.9918539607123
 30
0.0
 10
332.7720335308015
 20
632.6021863058668
 30
0.0
 10
333.0817900818521
 20
632.2363177320582
 30
0.0
 10
333.4805076650069
 20
631.874423191678
 30
0.0
 10
333.9440262997795
 20
631.5406128607367
 30
0.0
 10
334.493411108756
 20
631.2134905926426
 30
0.0
 10
335.0981823067829
 20
630.9157417523016
 30
0.0
 10
335.7825581895539
 20
630.6311506094654
 30
0.0
 10
336.5130222416636
 20
630.377042314868
 30
0.0
 10
337.3122361664213
 20
630.142753626563
 30
0.0
 10
338.1479966408026
 20
629.9400213340774
 30
0.0
 10
339.0381352150815
 20
629.7626969814323
 30
0.0
 10
339.9548327440429
 20
629.6178960695004
 30
0.0
 10
340.9090777567956
 20
629.5026022208747
 30
0.0
 10
341.879460368152
 20
629.4205570259601
 30
0.0
 10
342.8689980443869
 20
629.3705070614857
 30
0.0
 10
343.8639504762135
 20
629.354092877858
 30
0.0
 10
344.8589029080374
 20
629.3705070615065
 30
0.0
 10
345.8484405842638
 20
629.4205570260011
 30
0.0
 10
346.8188231956088
 20
629.5026022209297
 30
0.0
 10
347.7730682083438
 20
629.6178960695723
 30
0.0
 10
348.6897657372996
 20
629.7626969814969
 30
0.0
 10
349.5799043115271
 20
629.9400213342001
 30
0.0
 10
350.4156647860218
 20
630.1427536265003
 30
0.0
 10
351.21487871033
 20
630.3770423154467
 30
0.0
 10
351.94534276396
 20
630.6311506077968
 30
0.0
 10
352.6297186416566
 20
630.9157417580622
 30
0.0
 10
353.2344898571429
 20
631.2134905727744
 30
0.0
 10
353.7838746100376
 20
631.5406129231353
 30
0.0
 10
354.2473934355877
 20
631.8744229741721
 30
0.0
 10
354.6461104184393
 20
632.2363183952583
 30
0.0
 10
354.9558690130926
 20
632.6021839708402
 30
0.0
 10
355.1911174137441
 20
632.9918611841881
 30
0.0
 10
355.2915218538878
 20
633.2872065321692
 30
0.0
 10
355.333273065137
 20
633.474955881535
 30
0.0
 10
355.3413127719386
 20
633.5240541446321
 30
0.0
 10
355.3453156671236
 20
633.5484996755899
 30
0.0
 11
332.385521048367
 21
633.5297679764351
 31
0.0
 11
332.3971384030702
 21
633.4659305367569
 31
0.0
 11
332.4112488279271
 21
633.4020930970788
 31
0.0
 11
332.5509761345246
 21
632.9978492314266
 31
0.0
 11
332.7666455839857
 21
632.6310998539049
 31
0.0
 11
333.090111697139
 21
632.2435976211436
 31
0.0
 11
333.4607964383383
 21
631.9039153316844
 31
0.0
 11
333.9490095873529
 21
631.5478359235028
 31
0.0
 11
334.4667357720542
 21
631.2379378049096
 31
0.0
 11
335.1013683951724
 21
630.9225226927125
 31
0.0
 11
335.7549553782717
 21
630.6497236578253
 31
0.0
 11
336.5151032860678
 21
630.3833714754239
 31
0.0
 11
337.287631620397
 21
630.1562462201491
 31
0.0
 11
338.1493422130196
 21
629.9459838248598
 31
0.0
 11
339.0190361181697
 21
629.7723240409729
 31
0.0
 11
339.9556425510606
 21
629.6235970028761
 31
0.0
 11
340.8970448130694
 21
629.5096571894059
 31
0.0
 11
341.8798417376988
 21
629.4261031666048
 31
0.0
 11
342.8648946381599
 21
629.3762810831618
 31
0.0
 11
343.8639504761229
 21
629.3595878992636
 31
0.0
 11
344.863006314086
 21
629.3762810831616
 31
0.0
 11
345.848059214547
 21
629.4261031666049
 31
0.0
 11
346.8308561391765
 21
629.5096571894057
 31
0.0
 11
347.7722584011854
 21
629.623597002876
 31
0.0
 11
348.7088648340762
 21
629.7723240409728
 31
0.0
 11
349.5785587392264
 21
629.9459838248597
 31
0.0
 11
350.4402693318489
 21
630.1562462201491
 31
0.0
 11
351.2127976661781
 21
630.3833714754239
 31
0.0
 11
351.9729455739742
 21
630.6497236578253
 31
0.0
 11
352.6265325570735
 21
630.9225226927124
 31
0.0
 11
353.2611651801917
 21
631.2379378049095
 31
0.0
 11
353.7788913648931
 21
631.5478359235028
 31
0.0
 11
354.2671045139077
 21
631.9039153316844
 31
0.0
 11
354.6377892551068
 21
632.2435976211436
 31
0.0
 11
354.96125536826
 21
632.6310998539047
 31
0.0
 11
355.1769248177209
 21
632.9978492314265
 31
0.0
 11
355.3166521243185
 21
633.4020930970789
 31
0.0
 11
355.3326230309118
 21
633.4752963863343
 31
0.0
 11
355.3453156671236
 21
633.5484996755899
 31
0.0
  0
SPLINE
  5
2EB
330
7D
100
AcDbEntity
  8
1
  6
Continuous
 62
     7
100
AcDbSpline
210
0.0
220
0.0
230
1.0
 70
     8
 71
     3
 72
     9
 73
     5
 74
     3
 42
0.000000001
 43
0.0000000001
 44
0.00000001
 40
0.0
 40
0.0
 40
0.0
 40
0.0
 40
0.3204772972585796
 40
0.6437443837151627
 40
0.6437443837151627
 40
0.6437443837151627
 40
0.6437443837151627
 10
355.3453156671236
 20
633.5484996755899
 30
0.0
 10
355.3561468111026
 20
633.6554042697809
 30
0.0
 10
355.3779033654935
 20
633.8701440742027
 30
0.0
 10
355.3371281137681
 20
634.0821100379595
 30
0.0
 10
355.3166521243188
 20
634.1885523164035
 30
0.0
 11
355.3453156671236
 21
633.5484996755899
 31
0.0
 11
355.3623113409321
 21
633.8685259959968
 31
0.0
 11
355.3166521243188
 21
634.1885523164035
 31
0.0
  0
SPLINE
  5
2EC
330
7D
100
AcDbEntity
  8
1
  6
Continuous
 62
     7
100
AcDbSpline
210
0.0
220
0.0
230
1.0
 70
     8
 71
     3
 72
     9
 73
     5
 74
     3
 42
0.000000001
 43
0.0000000001
 44
0.00000001
 40
0.0
 40
0.0
 40
0.0
 40
0.0
 40
0.214097884687759
 40
0.4312601803056488
 40
0.4312601803056488
 40
0.4312601803056488
 40
0.4312601803056488
 10
356.363950476123
 20
637.0244840741312
 30
0.0
 10
356.361748099407
 20
637.0959708462902
 30
0.0
 10
356.3573118032091
 20
637.2399675883187
 30
0.0
 10
356.3275339547427
 20
637.3809270332321
 30
0.0
 10
356.3125392241618
 20
637.4519075628605
 30
0.0
 11
356.363950476123
 21
637.0244840741312
 31
0.0
 11
356.3510976631306
 21
637.2381958184959
 31
0.0
 11
356.3125392241618
 21
637.4519075628605
 31
0.0
  0
SPLINE
  5
2ED
330
7D
100
AcDbEntity
  8
1
  6
Continuous
 62
     7
100
AcDbSpline
210
0.0
220
0.0
230
1.0
 70
     8
 71
     3
 72
    43
 73
    39
 74
    37
 42
0.000000001
 43
0.0000000001
 44
0.00000001
 40
0.0
 40
0.0
 40
0.0
 40
0.0
 40
0.4649034163724773
 40
0.9273627578032093
 40
1.476021015067595
 40
2.022524806386987
 40
2.679342174927977
 40
3.335198848413195
 40
4.105516937179237
 40
4.875336395076343
 40
5.750838093047724
 40
6.626081719826336
 40
7.590203835083235
 40
8.55418488501364
 40
9.584990716175172
 40
10.61572156131238
 40
11.68783272342816
 40
12.75991103797966
 40
13.84599287722903
 40
14.93207471640874
 40
16.0041530307616
 40
17.0762641925708
 40
18.10699503733799
 40
19.13780086808513
 40
20.10178191761076
 40
21.06590403246483
 40
21.94114765889
 40
22.81664935652652
 40
23.58646881414777
 40
24.35678690265773
 40
25.0126435759423
 40
25.66946094430138
 40
26.21596473548972
 40
26.76462299264251
 40
27.22708233288411
 40
27.69198575198282
 40
27.90914805197916
 40
28.12324593161579
 40
28.12324593161579
 40
28.12324593161579
 40
28.12324593161579
 10
356.3125392241618
 20
637.4519075628605
 30
0.0
 10
356.2682288604884
 20
637.601055182749
 30
0.0
 10
356.1798410934961
 20
637.8985663331423
 30
0.0
 10
355.9191705482067
 20
638.3211300927558
 30
0.0
 10
355.5840340389651
 20
638.7191232443647
 30
0.0
 10
355.1501884767308
 20
639.1123958388375
 30
0.0
 10
354.6465090799495
 20
639.4752620879879
 30
0.0
 10
354.0493090012806
 20
639.830821266956
 30
0.0
 10
353.3919622983066
 20
640.1544639598292
 30
0.0
 10
352.648071614868
 20
640.4638013905314
 30
0.0
 10
351.8540901152888
 20
640.7400062908057
 30
0.0
 10
350.985378994986
 20
640.9946678422016
 30
0.0
 10
350.0769437941917
 20
641.2150290489998
 30
0.0
 10
349.1094018380995
 20
641.4077729049351
 30
0.0
 10
348.1129914882242
 20
641.565165201842
 30
0.0
 10
347.0757686460381
 20
641.6904846018144
 30
0.0
 10
346.0210049386351
 20
641.7796641613121
 30
0.0
 10
344.9454205078572
 20
641.8340662962555
 30
0.0
 10
343.8639504734684
 20
641.8519077999017
 30
0.0
 10
342.7824804390987
 20
641.834066295674
 30
0.0
 10
341.7068960087098
 20
641.7796641601499
 30
0.0
 10
340.6521323010287
 20
641.6904846003313
 30
0.0
 10
339.6149094614461
 20
641.5651651994923
 30
0.0
 10
338.6184991040751
 20
641.4077729041531
 30
0.0
 10
337.6509571762272
 20
641.2150290416553
 30
0.0
 10
336.7425218767407
 20
640.9946678575579
 30
0.0
 10
335.8738110943198
 20
640.7400062284918
 30
0.0
 10
335.079828411196
 20
640.4638016005068
 30
0.0
 10
334.3359416417359
 20
640.1544632696337
 30
0.0
 10
333.6785814389283
 20
639.8308236818925
 30
0.0
 10
333.0814246964141
 20
639.4752545353281
 30
0.0
 10
332.5775978533761
 20
639.1124221999946
 30
0.0
 10
332.1442162247135
 20
638.7190428972059
 30
0.0
 10
331.807500325855
 20
638.3214130178212
 30
0.0
 10
331.5518649605295
 20
637.8976911271455
 30
0.0
 10
331.4278409716101
 20
637.533947147811
 30
0.0
 10
331.3713599111317
 20
637.2397903003927
 30
0.0
 10
331.3664085638284
 20
637.0959120290579
 30
0.0
 10
331.3639504761229
 20
637.0244840740804
 30
0.0
 11
356.3125392241618
 21
637.4519075628605
 31
0.0
 11
356.1606617169906
 21
637.8913030690043
 31
0.0
 11
355.9262384023591
 21
638.2899436967452
 31
0.0
 11
355.5746448011056
 21
638.7111417758335
 31
0.0
 11
355.1717266041499
 21
639.0803616556805
 31
0.0
 11
354.6410601378296
 21
639.4674044906604
 31
0.0
 11
354.0783142848933
 21
639.8042502717401
 31
0.0
 11
353.3884962162866
 21
640.1470927849978
 31
0.0
 11
352.6780755824831
 21
640.4436134750924
 31
0.0
 11
351.8518278566176
 21
640.7331267168331
 31
0.0
 11
351.0121231453903
 21
640.9800019943058
 31
0.0
 11
350.0754811968875
 21
641.208548076142
 31
0.0
 11
349.1301617347677
 21
641.3973087108018
 31
0.0
 11
348.1121112642342
 21
641.5589685348201
 31
0.0
 11
347.0888479359637
 21
641.6828161581575
 31
0.0
 11
346.0205904091926
 21
641.7736357481584
 31
0.0
 11
344.9498807347784
 21
641.8277901866836
 31
0.0
 11
343.8639504761229
 21
641.8459349517901
 31
0.0
 11
342.7780202174673
 21
641.8277901866836
 31
0.0
 11
341.707310543053
 21
641.7736357481585
 31
0.0
 11
340.639053016282
 21
641.6828161581575
 31
0.0
 11
339.6157896880116
 21
641.5589685348202
 31
0.0
 11
338.5977392174782
 21
641.3973087108017
 31
0.0
 11
337.6524197553584
 21
641.2085480761419
 31
0.0
 11
336.7157778068556
 21
640.9800019943058
 31
0.0
 11
335.8760730956281
 21
640.7331267168332
 31
0.0
 11
335.0498253697627
 21
640.4436134750924
 31
0.0
 11
334.3394047359592
 21
640.1470927849979
 31
0.0
 11
333.6495866673525
 21
639.80425027174
 31
0.0
 11
333.0868408144162
 21
639.4674044906606
 31
0.0
 11
332.556174348096
 21
639.0803616556805
 31
0.0
 11
332.1532561511402
 21
638.7111417758335
 31
0.0
 11
331.8016625498867
 21
638.2899436967454
 31
0.0
 11
331.5672392352552
 21
637.8913030690043
 31
0.0
 11
331.4153617280839
 21
637.4519075628606
 31
0.0
 11
331.3768032891121
 21
637.2381958184706
 31
0.0
 11
331.3639504761229
 21
637.0244840740804
 31
0.0
  0
SPLINE
  5
2EE
330
7D
100
AcDbEntity
  8
1
  6
Continuous
 62
     7
100
AcDbSpline
210
0.0
220
0.0
230
1.0
 70
     8
 71
     3
 72
    43
 73
    39
 74
    37
 42
0.000000001
 43
0.0000000001
 44
0.00000001
 40
0.0
 40
0.0
 40
0.0
 40
0.0
 40
0.427711142759344
 40
0.8531737372759766
 40
1.357939334058862
 40
1.860722822164636
 40
2.464994801329203
 40
3.068382941042552
 40
3.777075582838057
 40
4.485309484242142
 40
5.290771046545402
 40
6.09599518336421
 40
6.982987529613256
 40
7.869850095767541
 40
8.818191460664439
 40
9.766463838400142
 40
10.75280610773124
 40
11.73911815726032
 40
12.73831344946739
 40
13.73750874156801
 40
14.72382079079352
 40
15.71016305965441
 40
16.6584354368213
 40
17.6067768010812
 40
18.49363936661499
 40
19.38063171225008
 40
20.18585584853438
 40
20.99131741033555
 40
21.69955131132926
 40
22.40824395274496
 40
23.01163209216127
 40
23.615904071054
 40
24.11868755895998
 40
24.62345315556863
 40
25.0489157486254
 40
25.47662689432292
 40
25.80922270653919
 40
26.13924128744109
 40
26.13924128744109
 40
26.13924128744109
 40
26.13924128744109
 10
355.3166521243188
 20
634.1885523164035
 30
0.0
 10
355.2758865897682
 20
634.3257681266036
 30
0.0
 10
355.1945698451203
 20
634.5994783853297
 30
0.0
 10
354.954752943148
 20
634.9882370441795
 30
0.0
 10
354.6464273546263
 20
635.3543907438448
 30
0.0
 10
354.2472894372839
 20
635.7162015308365
 30
0.0
 10
353.7839043921844
 20
636.0500384801351
 30
0.0
 10
353.2344803197199
 20
636.3771529248646
 30
0.0
 10
352.6297213528819
 20
636.6749042023837
 30
0.0
 10
351.9453419239902
 20
636.9594946387043
 30
0.0
 10
351.2148789442264
 20
637.2136031470213
 30
0.0
 10
350.4156647133663
 20
637.447891774356
 30
0.0
 10
349.5799043284307
 20
637.6506240846363
 30
0.0
 10
348.6897657285996
 20
637.8279484320872
 30
0.0
 10
347.7730682064839
 20
637.9727493451888
 30
0.0
 10
346.8188231914513
 20
638.0880431930631
 30
0.0
 10
345.8484405804492
 20
638.1700883876615
 30
0.0
 10
344.8589029039832
 20
638.2201383516409
 30
0.0
 10
343.8639504722446
 20
638.2365525348177
 30
0.0
 10
342.8689980405689
 20
638.2201383507577
 30
0.0
 10
341.8794603645975
 20
638.1700883859128
 30
0.0
 10
340.9090777535331
 20
638.088043190769
 30
0.0
 10
339.9548327411835
 20
637.9727493417986
 30
0.0
 10
339.0381352123142
 20
637.8279484302973
 30
0.0
 10
338.1479966391908
 20
637.6506240756491
 30
0.0
 10
337.3122361621041
 20
637.4478917900245
 30
0.0
 10
336.5130222477927
 20
637.2136030782267
 30
0.0
 10
335.7825581601815
 20
636.9594948659968
 30
0.0
 10
335.0981823957384
 20
636.6749034508621
 30
0.0
 10
334.4934107904568
 20
636.3771555498
 30
0.0
 10
333.9440272895738
 20
636.0500302665437
 30
0.0
 10
333.4805042049325
 20
635.7162301943341
 30
0.0
 10
333.0818006238272
 20
635.3543033752055
 30
0.0
 10
332.7719964058248
 20
634.9885446892787
 30
0.0
 10
332.5368934557648
 20
634.5985267058018
 30
0.0
 10
332.408127520252
 20
634.2223223528694
 30
0.0
 10
332.3506756596596
 20
633.8601165757432
 30
0.0
 10
332.373936078981
 20
633.6395982753234
 30
0.0
 10
332.385521048367
 20
633.5297679764351
 30
0.0
 11
355.3166521243188
 21
634.1885523164035
 31
0.0
 11
355.1769248177212
 21
634.5927961820557
 31
0.0
 11
354.9612553682601
 21
634.9595455595775
 31
0.0
 11
354.6377892551068
 21
635.3470477923387
 31
0.0
 11
354.2671045139076
 21
635.686730081798
 31
0.0
 11
353.778891364893
 21
636.0428094899795
 31
0.0
 11
353.2611651801916
 21
636.3527076085727
 31
0.0
 11
352.6265325570734
 21
636.6681227207698
 31
0.0
 11
351.9729455739742
 21
636.940921755657
 31
0.0
 11
351.2127976661781
 21
637.2072739380584
 31
0.0
 11
350.4402693318489
 21
637.4343991933331
 31
0.0
 11
349.5785587392264
 21
637.6446615886226
 31
0.0
 11
348.7088648340762
 21
637.8183213725094
 31
0.0
 11
347.7722584011854
 21
637.9670484106064
 31
0.0
 11
346.8308561391766
 21
638.0809882240766
 31
0.0
 11
345.8480592145472
 21
638.1645422468775
 31
0.0
 11
344.8630063140861
 21
638.2143643303207
 31
0.0
 11
343.8639504761229
 21
638.2310575142187
 31
0.0
 11
342.8648946381597
 21
638.2143643303207
 31
0.0
 11
341.8798417376987
 21
638.1645422468775
 31
0.0
 11
340.8970448130693
 21
638.0809882240767
 31
0.0
 11
339.9556425510607
 21
637.9670484106064
 31
0.0
 11
339.0190361181698
 21
637.8183213725094
 31
0.0
 11
338.1493422130196
 21
637.6446615886226
 31
0.0
 11
337.287631620397
 21
637.4343991933331
 31
0.0
 11
336.5151032860678
 21
637.2072739380583
 31
0.0
 11
335.7549553782716
 21
636.940921755657
 31
0.0
 11
335.1013683951724
 21
636.6681227207699
 31
0.0
 11
334.4667357720542
 21
636.3527076085727
 31
0.0
 11
333.9490095873529
 21
636.0428094899794
 31
0.0
 11
333.4607964383382
 21
635.6867300817978
 31
0.0
 11
333.0901116971389
 21
635.3470477923388
 31
0.0
 11
332.7666455839857
 21
634.9595455595775
 31
0.0
 11
332.5509761345245
 21
634.5927961820557
 31
0.0
 11
332.411248827927
 21
634.1885523164035
 31
0.0
 11
332.3651970111997
 21
633.8591601464193
 31
0.0
 11
332.385521048367
 21
633.5297679764351
 31
0.0
  0
ARC
  5
2EF
330
7D
100
AcDbEntity
  8
1
  6
Continuous
 62
     7
100
AcDbCircle
 10
610.1735118494012
 20
630.5731516094797
 30
0.0
 40
1.000000000000109
100
AcDbArc
 50
247.3117980292781
 51
321.3664021283565
  0
ARC
  5
2F0
330
7D
100
AcDbEntity
  8
1
  6
Continuous
 62
     7
100
AcDbCircle
 10
590.3451719961516
 20
638.8627288710632
 30
0.0
 40
1.000000000000011
100
AcDbArc
 50
173.2571939301882
 51
247.311798029267
  0
ARC
  5
2F1
330
7D
100
AcDbEntity
  8
1
  6
Continuous
 62
     7
100
AcDbCircle
 10
616.3518452488491
 20
641.3218282390447
 30
0.0
 40
0.1999999999999379
100
AcDbArc
 50
337.311798029268
 51
67.31179802931065
  0
ARC
  5
2F2
330
7D
100
AcDbEntity
  8
1
  6
Continuous
 62
     7
100
AcDbCircle
 10
593.6554539240032
 20
650.810443566344
 30
0.0
 40
0.2000000000000867
100
AcDbArc
 50
67.31179802925055
 51
157.311798029238
  0
ENDBLK
  5
7F
330
7D
100
AcDbEntity
  8
0
100
AcDbBlockEnd
  0
BLOCK
  5
81
330
80
100
AcDbEntity
  8
0
100
AcDbBlockBegin
  2
32-16__6
 70
     0
 10
279.0139504761232
 20
383.7783321950303
 30
0.0
  3
32-16__6
  1

  0
LINE
  5
2F3
330
80
100
AcDbEntity
  8
1
  6
Continuous
 62
     7
100
AcDbLine
 10
279.0139504761232
 20
436.7783321950302
 30
0.0
 11
279.0139504761232
 21
442.7102367669547
 31
0.0
  0
LINE
  5
2F4
330
80
100
AcDbEntity
  8
1
  6
Continuous
 62
     7
100
AcDbLine
 10
285.9357472458478
 20
430.8464276231052
 30
0.0
 11
285.9357472458478
 21
442.710236766955
 31
0.0
  0
LINE
  5
2F5
330
80
100
AcDbEntity
  8
1
  6
Continuous
 62
     7
100
AcDbLine
 10
299.7921537063987
 20
442.7102367669547
 30
0.0
 11
299.7921537063987
 21
430.8464276231052
 31
0.0
  0
LINE
  5
2F6
330
80
100
AcDbEntity
  8
1
  6
Continuous
 62
     7
100
AcDbLine
 10
303.1646537063987
 20
443.7783321950303
 30
0.0
 11
292.8639504761234
 21
443.7783321950303
 31
0.0
  0
LINE
  5
2F7
330
80
100
AcDbEntity
  8
1
  6
Continuous
 62
     7
100
AcDbLine
 10
303.3414504761232
 20
443.7783321950303
 30
0.0
 11
303.1646537063987
 21
443.7783321950303
 31
0.0
  0
LINE
  5
2F8
330
80
100
AcDbEntity
  8
1
  6
Continuous
 62
     7
100
AcDbLine
 10
282.3864504761232
 20
443.7783321950303
 30
0.0
 11
280.8639460248818
 21
443.7783321950303
 31
0.0
  0
LINE
  5
2F9
330
80
100
AcDbEntity
  8
1
  6
Continuous
 62
     7
100
AcDbLine
 10
282.5632472458477
 20
443.7783321950303
 30
0.0
 11
282.3864504761232
 21
443.7783321950303
 31
0.0
  0
LINE
  5
2FA
330
80
100
AcDbEntity
  8
1
  6
Continuous
 62
     7
100
AcDbLine
 10
292.8639504761234
 20
443.7783321950303
 30
0.0
 11
282.5632472458477
 21
443.7783321950303
 31
0.0
  0
LINE
  5
2FB
330
80
100
AcDbEntity
  8
1
  6
Continuous
 62
     7
100
AcDbLine
 10
303.253052091261
 20
429.7783321950303
 30
0.0
 11
304.8639549273647
 21
429.7783321950303
 31
0.0
  0
LINE
  5
2FC
330
80
100
AcDbEntity
  8
1
  6
Continuous
 62
     7
100
AcDbLine
 10
292.8639504761234
 20
429.7783321950303
 30
0.0
 11
303.253052091261
 21
429.7783321950303
 31
0.0
  0
LINE
  5
2FD
330
80
100
AcDbEntity
  8
1
  6
Continuous
 62
     7
100
AcDbLine
 10
282.4748488609855
 20
429.7783321950303
 30
0.0
 11
292.8639504761234
 21
429.7783321950303
 31
0.0
  0
LINE
  5
2FE
330
80
100
AcDbEntity
  8
1
  6
Continuous
 62
     7
100
AcDbLine
 10
279.811913244678
 20
430.3857236038771
 30
0.0
 11
279.0139504761232
 21
430.8464276231052
 31
0.0
  0
LINE
  5
2FF
330
80
100
AcDbEntity
  8
1
  6
Continuous
 62
     7
100
AcDbLine
 10
279.8150812014001
 20
443.1727698068495
 30
0.0
 11
280.8639460248818
 21
443.7783321950303
 31
0.0
  0
LINE
  5
300
330
80
100
AcDbEntity
  8
1
  6
Continuous
 62
     7
100
AcDbLine
 10
305.9128197508467
 20
443.1727698068493
 30
0.0
 11
306.7139504761233
 21
442.7102367669547
 31
0.0
  0
LINE
  5
301
330
80
100
AcDbEntity
  8
1
  6
Continuous
 62
     7
100
AcDbLine
 10
305.9159877075688
 20
430.3857236038774
 30
0.0
 11
304.8639549273647
 21
429.7783321950303
 31
0.0
  0
LINE
  5
302
330
80
100
AcDbEntity
  8
1
  6
Continuous
 62
     7
100
AcDbLine
 10
304.8639549273647
 20
443.7783321950303
 30
0.0
 11
303.3414504761232
 21
443.7783321950303
 31
0.0
  0
LINE
  5
303
330
80
100
AcDbEntity
  8
1
  6
Continuous
 62
     7
100
AcDbLine
 10
280.8639460248818
 20
429.7783321950303
 30
0.0
 11
282.4748488609855
 21
429.7783321950303
 31
0.0
  0
LINE
  5
304
330
80
100
AcDbEntity
  8
1
  6
Continuous
 62
     7
100
AcDbLine
 10
280.8639460248818
 20
429.7783321950303
 30
0.0
 11
279.811913244678
 21
430.3857236038771
 31
0.0
  0
LINE
  5
305
330
80
100
AcDbEntity
  8
1
  6
Continuous
 62
     7
100
AcDbLine
 10
279.0139504761232
 20
442.7102367669547
 30
0.0
 11
279.8150812014001
 21
443.1727698068495
 31
0.0
  0
LINE
  5
306
330
80
100
AcDbEntity
  8
1
  6
Continuous
 62
     7
100
AcDbLine
 10
279.0139504761232
 20
430.8464276231052
 30
0.0
 11
279.0139504761232
 21
436.7783321950302
 31
0.0
  0
LINE
  5
307
330
80
100
AcDbEntity
  8
1
  6
Continuous
 62
     7
100
AcDbLine
 10
306.7139504761233
 20
442.7102367669547
 30
0.0
 11
306.7139504761233
 21
430.8464276231052
 31
0.0
  0
LINE
  5
308
330
80
100
AcDbEntity
  8
1
  6
Continuous
 62
     7
100
AcDbLine
 10
304.8639549273647
 20
443.7783321950303
 30
0.0
 11
305.9128197508467
 21
443.1727698068493
 31
0.0
  0
LINE
  5
309
330
80
100
AcDbEntity
  8
1
  6
Continuous
 62
     7
100
AcDbLine
 10
306.7139504761233
 20
430.8464276231052
 30
0.0
 11
305.9159877075688
 21
430.3857236038774
 31
0.0
  0
ARC
  5
30A
330
80
100
AcDbEntity
  8
1
  6
Continuous
 62
     7
100
AcDbCircle
 10
303.253052091261
 20
437.6408510043294
 30
0.0
 40
6.138117760409418
100
AcDbArc
 50
89.17482367374207
 51
90.82517632625846
  0
ARC
  5
30B
330
80
100
AcDbEntity
  8
1
  6
Continuous
 62
     7
100
AcDbCircle
 10
303.253052091261
 20
437.6408510043294
 30
0.0
 40
6.138117760409236
100
AcDbArc
 50
64.32157487155136
 51
89.17482367374207
  0
ARC
  5
30C
330
80
100
AcDbEntity
  8
1
  6
Continuous
 62
     7
100
AcDbCircle
 10
282.4748488609855
 20
437.6408510043294
 30
0.0
 40
6.138117760409418
100
AcDbArc
 50
89.17482367374207
 51
90.825176326259
  0
ARC
  5
30D
330
80
100
AcDbEntity
  8
1
  6
Continuous
 62
     7
100
AcDbCircle
 10
282.4748488609855
 20
437.6408510043294
 30
0.0
 40
6.1381177604094
100
AcDbArc
 50
55.67842512844837
 51
89.17482367374207
  0
ARC
  5
30E
330
80
100
AcDbEntity
  8
1
  6
Continuous
 62
     7
100
AcDbCircle
 10
292.8639504761234
 20
420.7743821022819
 30
0.0
 40
23.00395009274811
100
AcDbArc
 50
72.47183986366483
 51
90.0
  0
ARC
  5
30F
330
80
100
AcDbEntity
  8
1
  6
Continuous
 62
     7
100
AcDbCircle
 10
303.253052091261
 20
435.9194714270632
 30
0.0
 40
6.141139232033288
100
AcDbArc
 50
235.6976682683404
 51
270.0
  0
ARC
  5
310
330
80
100
AcDbEntity
  8
1
  6
Continuous
 62
     7
100
AcDbCircle
 10
292.8639504761234
 20
452.7822822877786
 30
0.0
 40
23.00395009274876
100
AcDbArc
 50
252.4718398636645
 51
270.0
  0
ARC
  5
311
330
80
100
AcDbEntity
  8
1
  6
Continuous
 62
     7
100
AcDbCircle
 10
282.4748488609855
 20
435.9194714270632
 30
0.0
 40
6.141139232033034
100
AcDbArc
 50
244.3023317316604
 51
270.0
  0
ARC
  5
312
330
80
100
AcDbEntity
  8
1
  6
Continuous
 62
     7
100
AcDbCircle
 10
282.4748488609855
 20
437.6408510043294
 30
0.0
 40
6.13811776040942
100
AcDbArc
 50
90.825176326259
 51
115.6784251284451
  0
ARC
  5
313
330
80
100
AcDbEntity
  8
1
  6
Continuous
 62
     7
100
AcDbCircle
 10
303.253052091261
 20
435.9194714270632
 30
0.0
 40
6.141139232032856
100
AcDbArc
 50
270.0
 51
295.6976682683431
  0
ARC
  5
314
330
80
100
AcDbEntity
  8
1
  6
Continuous
 62
     7
100
AcDbCircle
 10
303.253052091261
 20
437.6408510043294
 30
0.0
 40
6.138117760409419
100
AcDbArc
 50
90.82517632625846
 51
124.3215748715531
  0
ARC
  5
315
330
80
100
AcDbEntity
  8
1
  6
Continuous
 62
     7
100
AcDbCircle
 10
292.8639504761234
 20
452.7822822877786
 30
0.0
 40
23.00395009274831
100
AcDbArc
 50
270.0
 51
287.5281601363347
  0
ARC
  5
316
330
80
100
AcDbEntity
  8
1
  6
Continuous
 62
     7
100
AcDbCircle
 10
282.4748488609855
 20
435.9194714270632
 30
0.0
 40
6.141139232032856
100
AcDbArc
 50
270.0
 51
304.3023317316595
  0
ARC
  5
317
330
80
100
AcDbEntity
  8
1
  6
Continuous
 62
     7
100
AcDbCircle
 10
292.8639504761234
 20
420.7743821022819
 30
0.0
 40
23.00395009274843
100
AcDbArc
 50
90.0
 51
107.5281601363358
  0
ENDBLK
  5
82
330
80
100
AcDbEntity
  8
0
100
AcDbBlockEnd
  0
BLOCK
  5
84
330
83
100
AcDbEntity
  8
0
100
AcDbBlockBegin
  2
92-53A__7
 70
     0
 10
274.3639504761228
 20
477.7783321950303
 30
0.0
  3
92-53A__7
  1

  0
LINE
  5
318
330
83
100
AcDbEntity
  8
1
  6
Continuous
 62
     7
100
AcDbLine
 10
274.3639504761228
 20
479.7783321950303
 30
0.0
 11
311.3639504761229
 21
479.7783321950303
 31
0.0
  0
LINE
  5
319
330
83
100
AcDbEntity
  8
1
  6
Continuous
 62
     7
100
AcDbLine
 10
311.3639504761229
 20
477.7783321950303
 30
0.0
 11
311.3639504761229
 21
479.7783321950303
 31
0.0
  0
LINE
  5
31A
330
83
100
AcDbEntity
  8
1
  6
Continuous
 62
     7
100
AcDbLine
 10
274.3639504761228
 20
479.7783321950303
 30
0.0
 11
274.3639504761228
 21
477.7783321950303
 31
0.0
  0
ENDBLK
  5
85
330
83
100
AcDbEntity
  8
0
100
AcDbBlockEnd
  0
BLOCK
  5
87
330
86
100
AcDbEntity
  8
0
100
AcDbBlockBegin
  2
32-25__8
 70
     0
 10
279.0139549273645
 20
469.277695592502
 30
0.0
  3
32-25__8
  1

  0
LINE
  5
31B
330
86
100
AcDbEntity
  8
1
  6
Continuous
 62
     7
100
AcDbLine
 10
285.9357472458472
 20
470.3464276231057
 30
0.0
 11
285.9357472458472
 21
475.2783321950303
 31
0.0
  0
LINE
  5
31C
330
86
100
AcDbEntity
  8
1
  6
Continuous
 62
     7
100
AcDbLine
 10
299.7921537063983
 20
470.3464276231057
 30
0.0
 11
299.7921537063983
 21
475.2783321950303
 31
0.0
  0
LINE
  5
31D
330
86
100
AcDbEntity
  8
1
  6
Continuous
 62
     7
100
AcDbLine
 10
282.4748510866058
 20
469.2783321950303
 30
0.0
 11
280.8639504761228
 21
469.2783321950303
 31
0.0
  0
LINE
  5
31E
330
86
100
AcDbEntity
  8
1
  6
Continuous
 62
     7
100
AcDbLine
 10
303.1646492551568
 20
469.2783321950303
 30
0.0
 11
292.8639504761229
 21
469.2783321950303
 31
0.0
  0
LINE
  5
31F
330
86
100
AcDbEntity
  8
1
  6
Continuous
 62
     7
100
AcDbLine
 10
292.8639504761229
 20
469.2783321950303
 30
0.0
 11
282.4748510866058
 21
469.2783321950303
 31
0.0
  0
LINE
  5
320
330
86
100
AcDbEntity
  8
1
  6
Continuous
 62
     7
100
AcDbLine
 10
279.8119206028904
 20
469.8857219255366
 30
0.0
 11
279.0139549273645
 21
470.3464276231057
 31
0.0
  0
LINE
  5
321
330
86
100
AcDbEntity
  8
1
  6
Continuous
 62
     7
100
AcDbLine
 10
305.9128122331107
 20
469.8838928127701
 30
0.0
 11
304.8639504761229
 21
469.2783321950303
 31
0.0
  0
LINE
  5
322
330
86
100
AcDbEntity
  8
1
  6
Continuous
 62
     7
100
AcDbLine
 10
303.3414504761229
 20
469.2783321950303
 30
0.0
 11
303.1646492551568
 21
469.2783321950303
 31
0.0
  0
LINE
  5
323
330
86
100
AcDbEntity
  8
1
  6
Continuous
 62
     7
100
AcDbLine
 10
279.0139549273645
 20
470.3464276231057
 30
0.0
 11
279.0139549273645
 21
475.2783321950303
 31
0.0
  0
LINE
  5
324
330
86
100
AcDbEntity
  8
1
  6
Continuous
 62
     7
100
AcDbLine
 10
280.8639504761228
 20
469.2783321950303
 30
0.0
 11
279.8119206028904
 21
469.8857219255366
 31
0.0
  0
LINE
  5
325
330
86
100
AcDbEntity
  8
1
  6
Continuous
 62
     7
100
AcDbLine
 10
282.3639504761228
 20
475.2783321950303
 30
0.0
 11
279.0139549273645
 21
475.2783321950303
 31
0.0
  0
LINE
  5
326
330
86
100
AcDbEntity
  8
1
  6
Continuous
 62
     7
100
AcDbLine
 10
306.7139460248814
 20
470.3464276231057
 30
0.0
 11
305.9128122331107
 21
469.8838928127701
 31
0.0
  0
LINE
  5
327
330
86
100
AcDbEntity
  8
1
  6
Continuous
 62
     7
100
AcDbLine
 10
306.7139460248814
 20
475.2783321950303
 30
0.0
 11
306.7139460248814
 21
470.3464276231057
 31
0.0
  0
LINE
  5
328
330
86
100
AcDbEntity
  8
1
  6
Continuous
 62
     7
100
AcDbLine
 10
306.7139460248814
 20
475.2783321950303
 30
0.0
 11
303.3639504761229
 21
475.2783321950303
 31
0.0
  0
LINE
  5
329
330
86
100
AcDbEntity
  8
1
  6
Continuous
 62
     7
100
AcDbLine
 10
304.8639504761229
 20
469.2783321950303
 30
0.0
 11
303.3639504761229
 21
469.2783321950303
 31
0.0
  0
ARC
  5
32A
330
86
100
AcDbEntity
  8
1
  6
Continuous
 62
     7
100
AcDbCircle
 10
282.4748510866058
 20
475.4194642154939
 30
0.0
 40
6.141132020463568
100
AcDbArc
 50
244.3023524963332
 51
270.0
  0
ARC
  5
32B
330
86
100
AcDbEntity
  8
1
  6
Continuous
 62
     7
100
AcDbCircle
 10
303.2530498656398
 20
475.4158059899605
 30
0.0
 40
6.138110397458544
100
AcDbArc
 50
269.1748019067733
 51
270.8251980932272
  0
ARC
  5
32C
330
86
100
AcDbEntity
  8
1
  6
Continuous
 62
     7
100
AcDbCircle
 10
303.2530498656398
 20
475.4158059899605
 30
0.0
 40
6.13811039745851
100
AcDbArc
 50
235.6784033614784
 51
269.1748019067733
  0
ARC
  5
32D
330
86
100
AcDbEntity
  8
1
  6
Continuous
 62
     7
100
AcDbCircle
 10
292.8639504761229
 20
492.2822822877791
 30
0.0
 40
23.00395009274877
100
AcDbArc
 50
252.4718398636643
 51
270.0
  0
ARC
  5
32E
330
86
100
AcDbEntity
  8
1
  6
Continuous
 62
     7
100
AcDbCircle
 10
303.2530498656398
 20
475.4158059899605
 30
0.0
 40
6.138110397458546
100
AcDbArc
 50
270.8251980932272
 51
295.6784033614795
  0
ARC
  5
32F
330
86
100
AcDbEntity
  8
1
  6
Continuous
 62
     7
100
AcDbCircle
 10
282.4748510866058
 20
475.4194642154939
 30
0.0
 40
6.141132020463601
100
AcDbArc
 50
270.0
 51
304.3023524963315
  0
ARC
  5
330
330
86
100
AcDbEntity
  8
1
  6
Continuous
 62
     7
100
AcDbCircle
 10
292.8639504761229
 20
492.2822822877791
 30
0.0
 40
23.00395009274877
100
AcDbArc
 50
270.0
 51
287.528160136335
  0
ENDBLK
  5
88
330
86
100
AcDbEntity
  8
0
100
AcDbBlockEnd
  0
BLOCK
  5
8A
330
89
100
AcDbEntity
  8
0
100
AcDbBlockBegin
  2
35-276__9
 70
     0
 10
0.0
 20
3165.0
 30
0.0
  3
35-276__9
  1

  0
LINE
  5
331
330
89
100
AcDbEntity
  8
0
  6
Continuous
 62
     7
100
AcDbLine
 10
771.8708479900652
 20
488.7783321950305
 30
0.0
 11
770.7088479900651
 21
488.7783321950303
 31
0.0
  0
LINE
  5
332
330
89
100
AcDbEntity
  8
0
  6
Continuous
 62
     2
100
AcDbLine
 10
770.7088479900651
 20
490.7909752334253
 30
0.0
 11
771.8708479900652
 21
488.7783321950305
 31
0.0
  0
LINE
  5
333
330
89
100
AcDbEntity
  8
0
  6
Continuous
 62
     7
100
AcDbLine
 10
771.8708479900652
 20
488.7783321950305
 30
0.0
 11
791.6638479900652
 21
488.7783321950303
 31
0.0
  0
LINE
  5
334
330
89
100
AcDbEntity
  8
0
  6
Continuous
 62
     2
100
AcDbLine
 10
790.5018479900651
 20
488.7783321950303
 30
0.0
 11
791.6638479900652
 21
490.7783321950303
 31
0.0
  0
LINE
  5
335
330
89
100
AcDbEntity
  8
1
  6
Continuous
 62
     7
100
AcDbLine
 10
770.7088479900651
 20
492.7783321950303
 30
0.0
 11
772.6863479900652
 21
492.7783321950303
 31
0.0
  0
LINE
  5
336
330
89
100
AcDbEntity
  8
1
  6
Continuous
 62
     7
100
AcDbLine
 10
791.6638479900652
 20
492.7783321950303
 30
0.0
 11
772.6863479900652
 21
492.7783321950303
 31
0.0
  0
LINE
  5
337
330
89
100
AcDbEntity
  8
1
  6
Continuous
 62
     7
100
AcDbLine
 10
791.6638479900652
 20
492.7783321950303
 30
0.0
 11
791.6638479900652
 21
490.7783321950303
 31
0.0
  0
LINE
  5
338
330
89
100
AcDbEntity
  8
1
  6
Continuous
 62
     7
100
AcDbLine
 10
770.7088479900651
 20
492.7783321950303
 30
0.0
 11
770.7088479900651
 21
490.7909752334253
 31
0.0
  0
LINE
  5
339
330
89
100
AcDbEntity
  8
1
  6
Continuous
 62
     7
100
AcDbLine
 10
770.7088479900651
 20
490.7909752334253
 30
0.0
 11
770.7088479900651
 21
479.7783321950303
 31
0.0
  0
LINE
  5
33A
330
89
100
AcDbEntity
  8
1
  6
Continuous
 62
     7
100
AcDbLine
 10
791.6638479900652
 20
490.7783321950303
 30
0.0
 11
791.6638479900652
 21
479.7783321950303
 31
0.0
  0
LINE
  5
33B
330
89
100
AcDbEntity
  8
1
  6
Continuous
 62
     2
100
AcDbLine
 10
771.8708479900652
 20
479.7783321950305
 30
0.0
 11
771.8708479900652
 21
488.7783321950305
 31
0.0
  0
LINE
  5
33C
330
89
100
AcDbEntity
  8
1
  6
Continuous
 62
     7
100
AcDbLine
 10
770.708847990065
 20
469.2783321950301
 30
0.0
 11
770.7088479900649
 21
443.7783321950305
 31
0.0
  0
LINE
  5
33D
330
89
100
AcDbEntity
  8
1
  6
Continuous
 62
     2
100
AcDbLine
 10
790.5018479900651
 20
479.7783321950305
 30
0.0
 11
790.5018479900651
 21
488.7656891566355
 31
0.0
  0
LINE
  5
33E
330
89
100
AcDbEntity
  8
1
  6
Continuous
 62
     7
100
AcDbLine
 10
791.6638479900687
 20
469.2783321950301
 30
0.0
 11
791.6638479900652
 21
443.7783321950305
 31
0.0
  0
LINE
  5
33F
330
89
100
AcDbEntity
  8
1
  6
Continuous
 62
     2
100
AcDbLine
 10
771.8708479900652
 20
443.7783321950305
 30
0.0
 11
771.8708479900652
 21
469.2783321950301
 31
0.0
  0
LINE
  5
340
330
89
100
AcDbEntity
  8
1
  6
Continuous
 62
     2
100
AcDbLine
 10
790.5018479900651
 20
443.7783321950305
 30
0.0
 11
790.5018479900651
 21
469.2783321950301
 31
0.0
  0
LINE
  5
341
330
89
100
AcDbEntity
  8
1
  6
Continuous
 62
     2
100
AcDbLine
 10
404.1794504761229
 20
443.7783321950305
 30
0.0
 11
404.1794504761229
 21
469.2783321950301
 31
0.0
  0
LINE
  5
342
330
89
100
AcDbEntity
  8
1
  6
Continuous
 62
     2
100
AcDbLine
 10
385.5484504761229
 20
443.7783321950305
 30
0.0
 11
385.5484504761229
 21
469.2783321950301
 31
0.0
  0
LINE
  5
343
330
89
100
AcDbEntity
  8
1
  6
Continuous
 62
     7
100
AcDbLine
 10
405.3414504761265
 20
469.2783321950301
 30
0.0
 11
405.3414504761229
 21
443.7783321950305
 31
0.0
  0
LINE
  5
344
330
89
100
AcDbEntity
  8
1
  6
Continuous
 62
     2
100
AcDbLine
 10
404.1794504761229
 20
479.7783321950305
 30
0.0
 11
404.1794504761229
 21
488.7656891566355
 31
0.0
  0
LINE
  5
345
330
89
100
AcDbEntity
  8
1
  6
Continuous
 62
     7
100
AcDbLine
 10
384.3864504761228
 20
469.2783321950301
 30
0.0
 11
384.3864504761227
 21
443.7783321950305
 31
0.0
  0
LINE
  5
346
330
89
100
AcDbEntity
  8
1
  6
Continuous
 62
     2
100
AcDbLine
 10
385.5484504761229
 20
479.7783321950305
 30
0.0
 11
385.5484504761229
 21
488.7783321950305
 31
0.0
  0
LINE
  5
347
330
89
100
AcDbEntity
  8
1
  6
Continuous
 62
     7
100
AcDbLine
 10
405.3414504761229
 20
490.7783321950303
 30
0.0
 11
405.3414504761229
 21
479.7783321950303
 31
0.0
  0
LINE
  5
348
330
89
100
AcDbEntity
  8
1
  6
Continuous
 62
     7
100
AcDbLine
 10
384.3864504761229
 20
490.7909752334253
 30
0.0
 11
384.3864504761229
 21
479.7783321950303
 31
0.0
  0
LINE
  5
349
330
89
100
AcDbEntity
  8
1
  6
Continuous
 62
     7
100
AcDbLine
 10
384.3864504761229
 20
492.7783321950303
 30
0.0
 11
384.3864504761229
 21
490.7909752334253
 31
0.0
  0
LINE
  5
34A
330
89
100
AcDbEntity
  8
1
  6
Continuous
 62
     7
100
AcDbLine
 10
405.3414504761229
 20
492.7783321950303
 30
0.0
 11
405.3414504761229
 21
490.7783321950303
 31
0.0
  0
LINE
  5
34B
330
89
100
AcDbEntity
  8
1
  6
Continuous
 62
     7
100
AcDbLine
 10
405.3414504761229
 20
492.7783321950303
 30
0.0
 11
386.363950476123
 21
492.7783321950303
 31
0.0
  0
LINE
  5
34C
330
89
100
AcDbEntity
  8
1
  6
Continuous
 62
     7
100
AcDbLine
 10
384.3864504761229
 20
492.7783321950303
 30
0.0
 11
386.363950476123
 21
492.7783321950303
 31
0.0
  0
LINE
  5
34D
330
89
100
AcDbEntity
  8
0
  6
Continuous
 62
     2
100
AcDbLine
 10
404.1794504761229
 20
488.7783321950303
 30
0.0
 11
405.3414504761229
 21
490.7783321950303
 31
0.0
  0
LINE
  5
34E
330
89
100
AcDbEntity
  8
0
  6
Continuous
 62
     7
100
AcDbLine
 10
385.5484504761229
 20
488.7783321950305
 30
0.0
 11
405.3414504761229
 21
488.7783321950303
 31
0.0
  0
LINE
  5
34F
330
89
100
AcDbEntity
  8
0
  6
Continuous
 62
     2
100
AcDbLine
 10
384.3864504761229
 20
490.7909752334253
 30
0.0
 11
385.5484504761229
 21
488.7783321950305
 31
0.0
  0
LINE
  5
350
330
89
100
AcDbEntity
  8
0
  6
Continuous
 62
     7
100
AcDbLine
 10
385.5484504761229
 20
488.7783321950305
 30
0.0
 11
384.3864504761229
 21
488.7783321950303
 31
0.0
  0
ENDBLK
  5
8B
330
89
100
AcDbEntity
  8
0
100
AcDbBlockEnd
  0
BLOCK
  5
8D
330
8C
100
AcDbEntity
  8
0
100
AcDbBlockBegin
  2
35-276__10
 70
     0
 10
282.386450476123
 20
443.7783321950305
 30
0.0
  3
35-276__10
  1

  0
LINE
  5
351
330
8C
100
AcDbEntity
  8
1
  6
Continuous
 62
     2
100
AcDbLine
 10
302.1794504761233
 20
443.7783321950305
 30
0.0
 11
302.1794504761233
 21
469.2783321950301
 31
0.0
  0
LINE
  5
352
330
8C
100
AcDbEntity
  8
1
  6
Continuous
 62
     2
100
AcDbLine
 10
283.5484504761233
 20
443.7783321950305
 30
0.0
 11
283.5484504761233
 21
469.2783321950301
 31
0.0
  0
LINE
  5
353
330
8C
100
AcDbEntity
  8
1
  6
Continuous
 62
     7
100
AcDbLine
 10
303.3414504761267
 20
469.2783321950301
 30
0.0
 11
303.3414504761233
 21
443.7783321950305
 31
0.0
  0
LINE
  5
354
330
8C
100
AcDbEntity
  8
1
  6
Continuous
 62
     2
100
AcDbLine
 10
302.1794504761233
 20
479.7783321950305
 30
0.0
 11
302.1794504761233
 21
488.7656891566355
 31
0.0
  0
LINE
  5
355
330
8C
100
AcDbEntity
  8
1
  6
Continuous
 62
     7
100
AcDbLine
 10
282.3864504761232
 20
469.2783321950301
 30
0.0
 11
282.386450476123
 21
443.7783321950305
 31
0.0
  0
LINE
  5
356
330
8C
100
AcDbEntity
  8
1
  6
Continuous
 62
     2
100
AcDbLine
 10
283.5484504761233
 20
479.7783321950305
 30
0.0
 11
283.5484504761233
 21
488.7783321950305
 31
0.0
  0
LINE
  5
357
330
8C
100
AcDbEntity
  8
1
  6
Continuous
 62
     7
100
AcDbLine
 10
303.3414504761233
 20
490.7783321950303
 30
0.0
 11
303.3414504761233
 21
479.7783321950303
 31
0.0
  0
LINE
  5
358
330
8C
100
AcDbEntity
  8
1
  6
Continuous
 62
     7
100
AcDbLine
 10
282.3864504761234
 20
490.7909752334253
 30
0.0
 11
282.3864504761234
 21
479.7783321950303
 31
0.0
  0
LINE
  5
359
330
8C
100
AcDbEntity
  8
1
  6
Continuous
 62
     7
100
AcDbLine
 10
282.3864504761234
 20
492.7783321950303
 30
0.0
 11
282.3864504761234
 21
490.7909752334253
 31
0.0
  0
LINE
  5
35A
330
8C
100
AcDbEntity
  8
1
  6
Continuous
 62
     7
100
AcDbLine
 10
303.3414504761233
 20
492.7783321950303
 30
0.0
 11
303.3414504761233
 21
490.7783321950303
 31
0.0
  0
LINE
  5
35B
330
8C
100
AcDbEntity
  8
1
  6
Continuous
 62
     7
100
AcDbLine
 10
303.3414504761233
 20
492.7783321950303
 30
0.0
 11
284.3639504761234
 21
492.7783321950303
 31
0.0
  0
LINE
  5
35C
330
8C
100
AcDbEntity
  8
1
  6
Continuous
 62
     7
100
AcDbLine
 10
282.3864504761234
 20
492.7783321950303
 30
0.0
 11
284.3639504761234
 21
492.7783321950303
 31
0.0
  0
LINE
  5
35D
330
8C
100
AcDbEntity
  8
0
  6
Continuous
 62
     2
100
AcDbLine
 10
302.1794504761233
 20
488.7783321950303
 30
0.0
 11
303.3414504761233
 21
490.7783321950303
 31
0.0
  0
LINE
  5
35E
330
8C
100
AcDbEntity
  8
0
  6
Continuous
 62
     7
100
AcDbLine
 10
283.5484504761233
 20
488.7783321950305
 30
0.0
 11
303.3414504761233
 21
488.7783321950303
 31
0.0
  0
LINE
  5
35F
330
8C
100
AcDbEntity
  8
0
  6
Continuous
 62
     2
100
AcDbLine
 10
282.3864504761234
 20
490.7909752334253
 30
0.0
 11
283.5484504761233
 21
488.7783321950305
 31
0.0
  0
LINE
  5
360
330
8C
100
AcDbEntity
  8
0
  6
Continuous
 62
     7
100
AcDbLine
 10
283.5484504761233
 20
488.7783321950305
 30
0.0
 11
282.3864504761234
 21
488.7783321950303
 31
0.0
  0
ENDBLK
  5
8E
330
8C
100
AcDbEntity
  8
0
100
AcDbBlockEnd
  0
BLOCK
  5
3B0
330
3A9
100
AcDbEntity
  8
0
100
AcDbBlockBegin
  2
*D24
 70
     1
 10
0.0
 20
0.0
 30
0.0
  3
*D24
  1

  0
LINE
  5
3AA
330
3A9
100
AcDbEntity
  8
1
  6
Continuous
 62
     2
100
AcDbLine
 10
903.0642827257333
 20
705.843011167784
 30
0.0
 11
903.0642827257333
 21
497.2783321950308
 31
0.0
  0
LINE
  5
3AB
330
3A9
100
AcDbEntity
  8
1
  6
Continuous
 62
     2
100
AcDbLine
 10
807.1785163366152
 20
497.2783321950308
 30
0.0
 11
908.0642827257333
 21
497.2783321950308
 31
0.0
  0
LINE
  5
3AC
330
3A9
100
AcDbEntity
  8
1
  6
Continuous
 62
     2
100
AcDbLine
 10
720.2751566213326
 20
705.843011167784
 30
0.0
 11
908.0642827257333
 21
705.843011167784
 31
0.0
  0
SOLID
  5
3AD
330
3A9
100
AcDbEntity
  8
1
 62
     2
100
AcDbTrace
 10
905.3682014335127
 20
688.343011167784
 30
0.0
 11
900.7603640179539
 21
688.343011167784
 31
0.0
 12
903.0642827257333
 22
705.843011167784
 32
0.0
 13
903.0642827257333
 23
705.843011167784
 33
0.0
  0
SOLID
  5
3AE
330
3A9
100
AcDbEntity
  8
1
 62
     2
100
AcDbTrace
 10
900.7603640179539
 20
514.7783321950308
 30
0.0
 11
905.3682014335127
 21
514.7783321950308
 31
0.0
 12
903.0642827257333
 22
497.2783321950308
 32
0.0
 13
903.0642827257333
 23
497.2783321950308
 33
0.0
  0
MTEXT
  5
3AF
330
3A9
100
AcDbEntity
  8
1
 62
     7
100
AcDbMText
 10
898.0642827257333
 20
589.0745658948374
 30
0.0
 40
17.5
 41
0.0
 71
     7
 72
     1
  1
\C7;最大\C7;209
  7
CONVERTER_11
 11
0.0
 21
1.0
 31
0.0
 73
     1
 44
0.45454545454545
  0
ENDBLK
  5
3B1
330
3A9
100
AcDbEntity
  8
0
100
AcDbBlockEnd
  0
BLOCK
  5
3BB
330
3B4
100
AcDbEntity
  8
0
100
AcDbBlockBegin
  2
*D25
 70
     1
 10
0.0
 20
0.0
 30
0.0
  3
*D25
  1

  0
LINE
  5
3B5
330
3B4
100
AcDbEntity
  8
1
  6
Continuous
 62
     2
100
AcDbLine
 10
863.0642827257333
 20
671.2783321950305
 30
0.0
 11
863.0642827257333
 21
497.2783321950307
 31
0.0
  0
LINE
  5
3B6
330
3B4
100
AcDbEntity
  8
1
  6
Continuous
 62
     2
100
AcDbLine
 10
807.1785163366152
 20
497.2783321950307
 30
0.0
 11
868.0642827257333
 21
497.2783321950307
 31
0.0
  0
LINE
  5
3B7
330
3B4
100
AcDbEntity
  8
1
  6
Continuous
 62
     2
100
AcDbLine
 10
686.1863479900651
 20
671.2783321950305
 30
0.0
 11
868.0642827257333
 21
671.2783321950305
 31
0.0
  0
SOLID
  5
3B8
330
3B4
100
AcDbEntity
  8
1
 62
     2
100
AcDbTrace
 10
865.3682014335127
 20
653.7783321950305
 30
0.0
 11
860.7603640179539
 21
653.7783321950305
 31
0.0
 12
863.0642827257333
 22
671.2783321950305
 32
0.0
 13
863.0642827257333
 23
671.2783321950305
 33
0.0
  0
SOLID
  5
3B9
330
3B4
100
AcDbEntity
  8
1
 62
     2
100
AcDbTrace
 10
860.7603640179539
 20
514.7783321950308
 30
0.0
 11
865.3682014335127
 21
514.7783321950308
 31
0.0
 12
863.0642827257333
 22
497.2783321950307
 32
0.0
 13
863.0642827257333
 23
497.2783321950307
 33
0.0
  0
MTEXT
  5
3BA
330
3B4
100
AcDbEntity
  8
1
 62
     7
100
AcDbMText
 10
858.0642827257333
 20
557.8752071950307
 30
0.0
 40
17.5
 41
0.0
 71
     7
 72
     1
  1
\C7;最小\C7;174
  7
CONVERTER_11
 11
0.0
 21
1.0
 31
0.0
 73
     1
 44
0.45454545454545
  0
ENDBLK
  5
3BC
330
3B4
100
AcDbEntity
  8
0
100
AcDbBlockEnd
  0
BLOCK
  5
3C6
330
3BF
100
AcDbEntity
  8
0
100
AcDbBlockBegin
  2
*D26
 70
     1
 10
0.0
 20
0.0
 30
0.0
  3
*D26
  1

  0
LINE
  5
3C0
330
3BF
100
AcDbEntity
  8
1
  6
Continuous
 62
     2
100
AcDbLine
 10
781.1863479900651
 20
755.3745501029671
 30
0.0
 11
599.873625852561
 21
755.3745501029671
 31
0.0
  0
LINE
  5
3C1
330
3BF
100
AcDbEntity
  8
1
  6
Continuous
 62
     2
100
AcDbLine
 10
781.1863479900651
 20
657.4109316817471
 30
0.0
 11
781.1863479900651
 21
760.3745501029671
 31
0.0
  0
LINE
  5
3C2
330
3BF
100
AcDbEntity
  8
1
  6
Continuous
 62
     2
100
AcDbLine
 10
599.873625852561
 20
633.7953227067412
 30
0.0
 11
599.873625852561
 21
760.3745501029671
 31
0.0
  0
SOLID
  5
3C3
330
3BF
100
AcDbEntity
  8
1
 62
     2
100
AcDbTrace
 10
763.6863479900651
 20
753.0706313951877
 30
0.0
 11
763.6863479900651
 21
757.6784688107465
 31
0.0
 12
781.1863479900651
 22
755.3745501029671
 32
0.0
 13
781.1863479900651
 23
755.3745501029671
 33
0.0
  0
SOLID
  5
3C4
330
3BF
100
AcDbEntity
  8
1
 62
     2
100
AcDbTrace
 10
617.373625852561
 20
757.6784688107465
 30
0.0
 11
617.373625852561
 21
753.0706313951877
 31
0.0
 12
599.873625852561
 22
755.3745501029671
 32
0.0
 13
599.873625852561
 23
755.3745501029671
 33
0.0
  0
MTEXT
  5
3C5
330
3BF
100
AcDbEntity
  8
1
 62
     7
100
AcDbMText
 10
674.7799869213131
 20
760.3745501029671
 30
0.0
 40
17.5
 41
0.0
 71
     7
 72
     1
  1
181
  7
CONVERTER_12
 11
0.9999999999970619
 21
2.424068405545306E-6
 31
0.0
 73
     1
 44
0.60024009603842
  0
ENDBLK
  5
3C7
330
3BF
100
AcDbEntity
  8
0
100
AcDbBlockEnd
  0
BLOCK
  5
3D1
330
3CA
100
AcDbEntity
  8
0
100
AcDbBlockBegin
  2
*D27
 70
     1
 10
0.0
 20
0.0
 30
0.0
  3
*D27
  1

  0
LINE
  5
3CB
330
3CA
100
AcDbEntity
  8
1
  6
Continuous
 62
     2
100
AcDbLine
 10
539.6909129291861
 20
497.2783321950307
 30
0.0
 11
539.6909129291861
 21
633.7953227067412
 31
0.0
  0
LINE
  5
3CC
330
3CA
100
AcDbEntity
  8
1
  6
Continuous
 62
     2
100
AcDbLine
 10
599.873625852561
 20
633.7953227067412
 30
0.0
 11
534.6909129291861
 21
633.7953227067412
 31
0.0
  0
LINE
  5
3CD
330
3CA
100
AcDbEntity
  8
1
  6
Continuous
 62
     2
100
AcDbLine
 10
755.194179643515
 20
497.2783321950307
 30
0.0
 11
534.6909129291861
 21
497.2783321950307
 31
0.0
  0
SOLID
  5
3CE
330
3CA
100
AcDbEntity
  8
1
 62
     2
100
AcDbTrace
 10
537.3869942214067
 20
514.7783321950308
 30
0.0
 11
541.9948316369655
 21
514.7783321950308
 31
0.0
 12
539.6909129291861
 22
497.2783321950307
 32
0.0
 13
539.6909129291861
 23
497.2783321950307
 33
0.0
  0
SOLID
  5
3CF
330
3CA
100
AcDbEntity
  8
1
 62
     2
100
AcDbTrace
 10
541.9948316369655
 20
616.2953227067412
 30
0.0
 11
537.3869942214067
 21
616.2953227067412
 31
0.0
 12
539.6909129291861
 22
633.7953227067412
 32
0.0
 13
539.6909129291861
 23
633.7953227067412
 33
0.0
  0
MTEXT
  5
3D0
330
3CA
100
AcDbEntity
  8
1
 62
     7
100
AcDbMText
 10
534.6909129291861
 20
547.161827450886
 30
0.0
 40
17.5
 41
0.0
 71
     7
 72
     1
  1
137
  7
CONVERTER_12
 11
0.0
 21
1.0
 31
0.0
 73
     1
 44
0.60024009603842
  0
ENDBLK
  5
3D2
330
3CA
100
AcDbEntity
  8
0
100
AcDbBlockEnd
  0
BLOCK
  5
3DE
330
3D5
100
AcDbEntity
  8
0
100
AcDbBlockBegin
  2
*D28
 70
     1
 10
0.0
 20
0.0
 30
0.0
  3
*D28
  1

  0
LINE
  5
3D6
330
3D5
100
AcDbEntity
  8
1
  6
Continuous
 62
     2
100
AcDbLine
 10
797.2281558476566
 20
462.2777156312508
 30
0.0
 11
982.4035205624127
 21
462.2777156312508
 31
0.0
  0
LINE
  5
3D7
330
3D5
100
AcDbEntity
  8
1
  6
Continuous
 62
     2
100
AcDbLine
 10
773.2281558476566
 20
462.2777156312508
 30
0.0
 11
797.2281558476566
 21
462.2777156312508
 31
0.0
  0
LINE
  5
3D8
330
3D5
100
AcDbEntity
  8
1
  6
Continuous
 62
     2
100
AcDbLine
 10
738.2281558476566
 20
462.2777156312508
 30
0.0
 11
773.2281558476566
 21
462.2777156312508
 31
0.0
  0
LINE
  5
3D9
330
3D5
100
AcDbEntity
  8
1
  6
Continuous
 62
     2
100
AcDbLine
 10
769.1863479900651
 20
469.2783321950303
 30
0.0
 11
775.7281558476566
 21
457.9475886123287
 31
0.0
  0
LINE
  5
3DA
330
3D5
100
AcDbEntity
  8
1
  6
Continuous
 62
     2
100
AcDbLine
 10
793.1863479900651
 20
469.2783321950303
 30
0.0
 11
799.7281558476566
 21
457.9475886123287
 31
0.0
  0
SOLID
  5
3DB
330
3D5
100
AcDbEntity
  8
1
 62
     2
100
AcDbTrace
 10
755.7281558476566
 20
459.9737969234714
 30
0.0
 11
755.7281558476566
 21
464.5816343390302
 31
0.0
 12
773.2281558476566
 22
462.2777156312508
 32
0.0
 13
773.2281558476566
 23
462.2777156312508
 33
0.0
  0
SOLID
  5
3DC
330
3D5
100
AcDbEntity
  8
1
 62
     2
100
AcDbTrace
 10
814.7281558476566
 20
464.5816343390302
 30
0.0
 11
814.7281558476566
 21
459.9737969234714
 31
0.0
 12
797.2281558476566
 22
462.2777156312508
 32
0.0
 13
797.2281558476566
 23
462.2777156312508
 33
0.0
  0
MTEXT
  5
3DD
330
3D5
100
AcDbEntity
  8
1
 62
     7
100
AcDbMText
 10
816.1535205624127
 20
467.2777156312508
 30
0.0
 40
17.5
 41
0.0
 71
     7
 72
     1
  1
ロックナット対辺24
  7
CONVERTER_11
 11
0.9999999999970619
 21
2.424068405545306E-6
 31
0.0
 73
     1
 44
0.45454545454545
  0
ENDBLK
  5
3DF
330
3D5
100
AcDbEntity
  8
0
100
AcDbBlockEnd
  0
BLOCK
  5
3E9
330
3E2
100
AcDbEntity
  8
0
100
AcDbBlockBegin
  2
*D29
 70
     1
 10
0.0
 20
0.0
 30
0.0
  3
*D29
  1

  0
LINE
  5
3E3
330
3E2
100
AcDbEntity
  8
1
  6
Continuous
 62
     2
100
AcDbLine
 10
226.4887881183946
 20
497.2783321950306
 30
0.0
 11
226.4887881183946
 21
436.7783321950302
 31
0.0
  0
LINE
  5
3E4
330
3E2
100
AcDbEntity
  8
1
  6
Continuous
 62
     2
100
AcDbLine
 10
273.3639504761234
 20
497.2783321950306
 30
0.0
 11
221.4887881183946
 21
497.2783321950306
 31
0.0
  0
LINE
  5
3E5
330
3E2
100
AcDbEntity
  8
1
  6
Continuous
 62
     2
100
AcDbLine
 10
278.6416731878746
 20
436.7783321950302
 30
0.0
 11
221.4887881183946
 21
436.7783321950302
 31
0.0
  0
SOLID
  5
3E6
330
3E2
100
AcDbEntity
  8
1
 62
     2
100
AcDbTrace
 10
228.792706826174
 20
479.7783321950306
 30
0.0
 11
224.1848694106152
 21
479.7783321950306
 31
0.0
 12
226.4887881183946
 22
497.2783321950306
 32
0.0
 13
226.4887881183946
 23
497.2783321950306
 33
0.0
  0
SOLID
  5
3E7
330
3E2
100
AcDbEntity
  8
1
 62
     2
100
AcDbTrace
 10
224.1848694106152
 20
454.2783321950302
 30
0.0
 11
228.792706826174
 21
454.2783321950302
 31
0.0
 12
226.4887881183946
 22
436.7783321950302
 32
0.0
 13
226.4887881183946
 23
436.7783321950302
 33
0.0
  0
MTEXT
  5
3E8
330
3E2
100
AcDbEntity
  8
1
 62
     7
100
AcDbMText
 10
221.4887881183946
 20
455.8012503894622
 30
0.0
 40
17.5
 41
0.0
 71
     7
 72
     1
  1
61
  7
CONVERTER_12
 11
0.0
 21
1.0
 31
0.0
 73
     1
 44
0.60024009603842
  0
ENDBLK
  5
3EA
330
3E2
100
AcDbEntity
  8
0
100
AcDbBlockEnd
  0
BLOCK
  5
3F4
330
3ED
100
AcDbEntity
  8
0
100
AcDbBlockBegin
  2
*D30
 70
     1
 10
0.0
 20
0.0
 30
0.0
  3
*D30
  1

  0
LINE
  5
3EE
330
3ED
100
AcDbEntity
  8
1
  6
Continuous
 62
     2
100
AcDbLine
 10
271.863950476123
 20
337.27833219503
 30
0.0
 11
415.863950476123
 21
337.27833219503
 31
0.0
  0
LINE
  5
3EF
330
3ED
100
AcDbEntity
  8
1
  6
Continuous
 62
     2
100
AcDbLine
 10
271.863950476123
 20
498.2783321950307
 30
0.0
 11
271.863950476123
 21
332.27833219503
 31
0.0
  0
LINE
  5
3F0
330
3ED
100
AcDbEntity
  8
1
  6
Continuous
 62
     2
100
AcDbLine
 10
415.863950476123
 20
498.2783321950307
 30
0.0
 11
415.863950476123
 21
332.27833219503
 31
0.0
  0
SOLID
  5
3F1
330
3ED
100
AcDbEntity
  8
1
 62
     2
100
AcDbTrace
 10
289.363950476123
 20
339.5822509028094
 30
0.0
 11
289.363950476123
 21
334.9744134872506
 31
0.0
 12
271.863950476123
 22
337.27833219503
 32
0.0
 13
271.863950476123
 23
337.27833219503
 33
0.0
  0
SOLID
  5
3F2
330
3ED
100
AcDbEntity
  8
1
 62
     2
100
AcDbTrace
 10
398.363950476123
 20
334.9744134872506
 30
0.0
 11
398.363950476123
 21
339.5822509028094
 31
0.0
 12
415.863950476123
 22
337.27833219503
 32
0.0
 13
415.863950476123
 23
337.27833219503
 33
0.0
  0
MTEXT
  5
3F3
330
3ED
100
AcDbEntity
  8
1
 62
     7
100
AcDbMText
 10
325.488950476123
 20
342.27833219503
 30
0.0
 40
17.5
 41
0.0
 71
     7
 72
     1
  1
144
  7
CONVERTER_12
 11
0.9999999999970619
 21
2.424068405545306E-6
 31
0.0
 73
     1
 44
0.60024009603842
  0
ENDBLK
  5
3F5
330
3ED
100
AcDbEntity
  8
0
100
AcDbBlockEnd
  0
BLOCK
  5
3FF
330
3F8
100
AcDbEntity
  8
0
100
AcDbBlockBegin
  2
*D31
 70
     1
 10
0.0
 20
0.0
 30
0.0
  3
*D31
  1

  0
LINE
  5
3F9
330
3F8
100
AcDbEntity
  8
1
  6
Continuous
 62
     2
100
AcDbLine
 10
394.8639504761227
 20
377.27833219503
 30
0.0
 11
292.8639504761235
 21
377.27833219503
 31
0.0
  0
LINE
  5
3FA
330
3F8
100
AcDbEntity
  8
1
  6
Continuous
 62
     2
100
AcDbLine
 10
394.8639504761227
 20
412.2783321950299
 30
0.0
 11
394.8639504761227
 21
372.27833219503
 31
0.0
  0
LINE
  5
3FB
330
3F8
100
AcDbEntity
  8
1
  6
Continuous
 62
     2
100
AcDbLine
 10
292.8639504761235
 20
412.27833219503
 30
0.0
 11
292.8639504761235
 21
372.27833219503
 31
0.0
  0
SOLID
  5
3FC
330
3F8
100
AcDbEntity
  8
1
 62
     2
100
AcDbTrace
 10
377.3639504761227
 20
374.9744134872506
 30
0.0
 11
377.3639504761227
 21
379.5822509028094
 31
0.0
 12
394.8639504761227
 22
377.27833219503
 32
0.0
 13
394.8639504761227
 23
377.27833219503
 33
0.0
  0
SOLID
  5
3FD
330
3F8
100
AcDbEntity
  8
1
 62
     2
100
AcDbTrace
 10
310.3639504761235
 20
379.5822509028094
 30
0.0
 11
310.3639504761235
 21
374.9744134872506
 31
0.0
 12
292.8639504761235
 22
377.27833219503
 32
0.0
 13
292.8639504761235
 23
377.27833219503
 33
0.0
  0
MTEXT
  5
3FE
330
3F8
100
AcDbEntity
  8
1
 62
     7
100
AcDbMText
 10
325.488950476123
 20
382.27833219503
 30
0.0
 40
17.5
 41
0.0
 71
     7
 72
     1
  1
102
  7
CONVERTER_12
 11
0.9999999999970619
 21
2.424068405545306E-6
 31
0.0
 73
     1
 44
0.60024009603842
  0
ENDBLK
  5
400
330
3F8
100
AcDbEntity
  8
0
100
AcDbBlockEnd
  0
BLOCK
  5
40A
330
403
100
AcDbEntity
  8
0
100
AcDbBlockBegin
  2
*D32
 70
     1
 10
0.0
 20
0.0
 30
0.0
  3
*D32
  1

  0
LINE
  5
404
330
403
100
AcDbEntity
  8
1
  6
Continuous
 62
     2
100
AcDbLine
 10
753.6863479900651
 20
377.27833219503
 30
0.0
 11
808.6863479900651
 21
377.27833219503
 31
0.0
  0
LINE
  5
405
330
403
100
AcDbEntity
  8
1
  6
Continuous
 62
     2
100
AcDbLine
 10
753.6863479900651
 20
498.2783321950305
 30
0.0
 11
753.6863479900651
 21
372.27833219503
 31
0.0
  0
LINE
  5
406
330
403
100
AcDbEntity
  8
1
  6
Continuous
 62
     2
100
AcDbLine
 10
808.6863479900651
 20
498.2783321950305
 30
0.0
 11
808.6863479900651
 21
372.27833219503
 31
0.0
  0
SOLID
  5
407
330
403
100
AcDbEntity
  8
1
 62
     2
100
AcDbTrace
 10
771.1863479900651
 20
379.5822509028094
 30
0.0
 11
771.1863479900651
 21
374.9744134872506
 31
0.0
 12
753.6863479900651
 22
377.27833219503
 32
0.0
 13
753.6863479900651
 23
377.27833219503
 33
0.0
  0
SOLID
  5
408
330
403
100
AcDbEntity
  8
1
 62
     2
100
AcDbTrace
 10
791.1863479900651
 20
374.9744134872506
 30
0.0
 11
791.1863479900651
 21
379.5822509028094
 31
0.0
 12
808.6863479900651
 22
377.27833219503
 32
0.0
 13
808.6863479900651
 23
377.27833219503
 33
0.0
  0
MTEXT
  5
409
330
403
100
AcDbEntity
  8
1
 62
     7
100
AcDbMText
 10
768.0613479900651
 20
382.27833219503
 30
0.0
 40
17.5
 41
0.0
 71
     7
 72
     1
  1
55
  7
CONVERTER_12
 11
0.9999999999970619
 21
2.424068405545306E-6
 31
0.0
 73
     1
 44
0.60024009603842
  0
ENDBLK
  5
40B
330
403
100
AcDbEntity
  8
0
100
AcDbBlockEnd
  0
BLOCK
  5
417
330
40E
100
AcDbEntity
  8
0
100
AcDbBlockBegin
  2
*D33
 70
     1
 10
0.0
 20
0.0
 30
0.0
  3
*D33
  1

  0
LINE
  5
40F
330
40E
100
AcDbEntity
  8
1
  6
Continuous
 62
     2
100
AcDbLine
 10
470.492633974074
 20
479.7783321950304
 30
0.0
 11
470.492633974074
 21
338.7014015826931
 31
0.0
  0
LINE
  5
410
330
40E
100
AcDbEntity
  8
1
  6
Continuous
 62
     2
100
AcDbLine
 10
470.492633974074
 20
494.2783321950305
 30
0.0
 11
470.492633974074
 21
479.7783321950304
 31
0.0
  0
LINE
  5
411
330
40E
100
AcDbEntity
  8
1
  6
Continuous
 62
     2
100
AcDbLine
 10
470.492633974074
 20
529.2783321950305
 30
0.0
 11
470.492633974074
 21
494.2783321950305
 31
0.0
  0
LINE
  5
412
330
40E
100
AcDbEntity
  8
1
  6
Continuous
 62
     2
100
AcDbLine
 10
420.4926339740739
 20
479.7783321950304
 30
0.0
 11
475.492633974074
 21
479.7783321950304
 31
0.0
  0
LINE
  5
413
330
40E
100
AcDbEntity
  8
1
  6
Continuous
 62
     2
100
AcDbLine
 10
420.4926339740739
 20
494.2783321950305
 30
0.0
 11
475.492633974074
 21
494.2783321950305
 31
0.0
  0
SOLID
  5
414
330
40E
100
AcDbEntity
  8
1
 62
     2
100
AcDbTrace
 10
468.1887152662946
 20
511.7783321950305
 30
0.0
 11
472.7965526818534
 21
511.7783321950305
 31
0.0
 12
470.492633974074
 22
494.2783321950305
 32
0.0
 13
470.492633974074
 23
494.2783321950305
 33
0.0
  0
SOLID
  5
415
330
40E
100
AcDbEntity
  8
1
 62
     2
100
AcDbTrace
 10
472.7965526818534
 20
462.2783321950304
 30
0.0
 11
468.1887152662946
 21
462.2783321950304
 31
0.0
 12
470.492633974074
 22
479.7783321950304
 32
0.0
 13
470.492633974074
 23
479.7783321950304
 33
0.0
  0
MTEXT
  5
416
330
40E
100
AcDbEntity
  8
1
 62
     7
100
AcDbMText
 10
465.492633974074
 20
351.3451515826931
 30
0.0
 40
17.5
 41
0.0
 71
     7
 72
     1
  1
\C7;最大\C7;37最小5
  7
CONVERTER_11
 11
0.0
 21
1.0
 31
0.0
 73
     1
 44
0.45454545454545
  0
ENDBLK
  5
418
330
40E
100
AcDbEntity
  8
0
100
AcDbBlockEnd
  0
BLOCK
  5
422
330
41B
100
AcDbEntity
  8
0
100
AcDbBlockBegin
  2
*D34
 70
     1
 10
0.0
 20
0.0
 30
0.0
  3
*D34
  1

  0
LINE
  5
41C
330
41B
100
AcDbEntity
  8
1
  6
Continuous
 62
     2
100
AcDbLine
 10
267.881194418826
 20
1009.612504163831
 30
0.0
 11
343.863950476123
 21
1009.612504163831
 31
0.0
  0
LINE
  5
41D
330
41B
100
AcDbEntity
  8
1
  6
Continuous
 62
     2
100
AcDbLine
 10
343.863950476123
 20
1044.612504163831
 30
0.0
 11
343.863950476123
 21
1004.612504163831
 31
0.0
  0
LINE
  5
41E
330
41B
100
AcDbEntity
  8
1
  6
Continuous
 62
     2
100
AcDbLine
 10
267.881194418826
 20
1192.477897954774
 30
0.0
 11
267.881194418826
 21
1004.612504163831
 31
0.0
  0
SOLID
  5
41F
330
41B
100
AcDbEntity
  8
1
 62
     2
100
AcDbTrace
 10
285.381194418826
 20
1011.91642287161
 30
0.0
 11
285.381194418826
 21
1007.308585456052
 31
0.0
 12
267.881194418826
 22
1009.612504163831
 32
0.0
 13
267.881194418826
 23
1009.612504163831
 33
0.0
  0
SOLID
  5
420
330
41B
100
AcDbEntity
  8
1
 62
     2
100
AcDbTrace
 10
326.363950476123
 20
1007.308585456052
 30
0.0
 11
326.363950476123
 21
1011.91642287161
 31
0.0
 12
343.863950476123
 22
1009.612504163831
 32
0.0
 13
343.863950476123
 23
1009.612504163831
 33
0.0
  0
MTEXT
  5
421
330
41B
100
AcDbEntity
  8
1
 62
     7
100
AcDbMText
 10
292.7475724474745
 20
1014.612504163831
 30
0.0
 40
17.5
 41
0.0
 71
     7
 72
     1
  1
76
  7
CONVERTER_12
 11
0.9999999999970619
 21
2.424068405545306E-6
 31
0.0
 73
     1
 44
0.60024009603842
  0
ENDBLK
  5
423
330
41B
100
AcDbEntity
  8
0
100
AcDbBlockEnd
  0
BLOCK
  5
42D
330
426
100
AcDbEntity
  8
0
100
AcDbBlockBegin
  2
*D35
 70
     1
 10
0.0
 20
0.0
 30
0.0
  3
*D35
  1

  0
LINE
  5
427
330
426
100
AcDbEntity
  8
1
  6
Continuous
 62
     2
100
AcDbLine
 10
343.863950476123
 20
1009.612504163831
 30
0.0
 11
419.8467065334198
 21
1009.612504163831
 31
0.0
  0
LINE
  5
428
330
426
100
AcDbEntity
  8
1
  6
Continuous
 62
     2
100
AcDbLine
 10
419.8467065334198
 20
1192.477897954774
 30
0.0
 11
419.8467065334198
 21
1004.612504163831
 31
0.0
  0
LINE
  5
429
330
426
100
AcDbEntity
  8
1
  6
Continuous
 62
     2
100
AcDbLine
 10
343.863950476123
 20
1044.612504163831
 30
0.0
 11
343.863950476123
 21
1004.612504163831
 31
0.0
  0
SOLID
  5
42A
330
426
100
AcDbEntity
  8
1
 62
     2
100
AcDbTrace
 10
361.363950476123
 20
1011.91642287161
 30
0.0
 11
361.363950476123
 21
1007.308585456052
 31
0.0
 12
343.863950476123
 22
1009.612504163831
 32
0.0
 13
343.863950476123
 23
1009.612504163831
 33
0.0
  0
SOLID
  5
42B
330
426
100
AcDbEntity
  8
1
 62
     2
100
AcDbTrace
 10
402.3467065334198
 20
1007.308585456052
 30
0.0
 11
402.3467065334198
 21
1011.91642287161
 31
0.0
 12
419.8467065334198
 22
1009.612504163831
 32
0.0
 13
419.8467065334198
 23
1009.612504163831
 33
0.0
  0
MTEXT
  5
42C
330
426
100
AcDbEntity
  8
1
 62
     7
100
AcDbMText
 10
368.7303285047715
 20
1014.612504163831
 30
0.0
 40
17.5
 41
0.0
 71
     7
 72
     1
  1
76
  7
CONVERTER_12
 11
0.9999999999970619
 21
2.424068405545306E-6
 31
0.0
 73
     1
 44
0.60024009603842
  0
ENDBLK
  5
42E
330
426
100
AcDbEntity
  8
0
100
AcDbBlockEnd
  0
BLOCK
  5
43A
330
431
100
AcDbEntity
  8
0
100
AcDbBlockBegin
  2
*D36
 70
     1
 10
0.0
 20
0.0
 30
0.0
  3
*D36
  1

  0
LINE
  5
432
330
431
100
AcDbEntity
  8
1
  6
Continuous
 62
     2
100
AcDbLine
 10
746.1863479900651
 20
755.3745501029671
 30
0.0
 11
781.1863479900651
 21
755.3745501029671
 31
0.0
  0
LINE
  5
433
330
431
100
AcDbEntity
  8
1
  6
Continuous
 62
     2
100
AcDbLine
 10
781.1863479900651
 20
755.3745501029671
 30
0.0
 11
813.0642827257332
 21
755.3745501029671
 31
0.0
  0
LINE
  5
434
330
431
100
AcDbEntity
  8
1
  6
Continuous
 62
     2
100
AcDbLine
 10
813.0642827257332
 20
755.3745501029671
 30
0.0
 11
848.0642827257332
 21
755.3745501029671
 31
0.0
  0
LINE
  5
435
330
431
100
AcDbEntity
  8
1
  6
Continuous
 62
     2
100
AcDbLine
 10
813.0642827257332
 20
618.1026908948375
 30
0.0
 11
813.0642827257332
 21
760.3745501029671
 31
0.0
  0
LINE
  5
436
330
431
100
AcDbEntity
  8
1
  6
Continuous
 62
     2
100
AcDbLine
 10
781.1863479900651
 20
650.3240937750811
 30
0.0
 11
781.1863479900651
 21
760.3745501029671
 31
0.0
  0
SOLID
  5
437
330
431
100
AcDbEntity
  8
1
 62
     2
100
AcDbTrace
 10
763.6863479900651
 20
753.0706313951877
 30
0.0
 11
763.6863479900651
 21
757.6784688107465
 31
0.0
 12
781.1863479900651
 22
755.3745501029671
 32
0.0
 13
781.1863479900651
 23
755.3745501029671
 33
0.0
  0
SOLID
  5
438
330
431
100
AcDbEntity
  8
1
 62
     2
100
AcDbTrace
 10
830.5642827257332
 20
757.6784688107465
 30
0.0
 11
830.5642827257332
 21
753.0706313951877
 31
0.0
 12
813.0642827257332
 22
755.3745501029671
 32
0.0
 13
813.0642827257332
 23
755.3745501029671
 33
0.0
  0
MTEXT
  5
439
330
431
100
AcDbEntity
  8
1
 62
     7
100
AcDbMText
 10
783.9912745714621
 20
760.3745501029671
 30
0.0
 40
17.5
 41
0.0
 71
     7
 72
     1
  1
32
  7
CONVERTER_12
 11
0.9999999999970619
 21
2.424068405545306E-6
 31
0.0
 73
     1
 44
0.60024009603842
  0
ENDBLK
  5
43B
330
431
100
AcDbEntity
  8
0
100
AcDbBlockEnd
  0
BLOCK
  5
447
330
43E
100
AcDbEntity
  8
0
100
AcDbBlockBegin
  2
*D37
 70
     1
 10
0.0
 20
0.0
 30
0.0
  3
*D37
  1

  0
LINE
  5
43F
330
43E
100
AcDbEntity
  8
1
  6
Continuous
 62
     2
100
AcDbLine
 10
599.8736258525612
 20
632.7953227067412
 30
0.0
 11
599.8736258525612
 21
569.837608394974
 31
0.0
  0
LINE
  5
440
330
43E
100
AcDbEntity
  8
1
  6
Continuous
 62
     2
100
AcDbLine
 10
599.4821359717424
 20
632.8588944473706
 30
0.0
 11
575.2041076282658
 21
574.7868140781817
 31
0.0
  0
LINE
  5
441
330
43E
100
AcDbEntity
  8
1
  6
Continuous
 62
     2
100
AcDbLine
 10
599.8736258525612
 20
569.837608394974
 30
0.0
 11
599.8736258525612
 21
564.837608394974
 31
0.0
  0
LINE
  5
442
330
43E
100
AcDbEntity
  8
1
  6
Continuous
 62
     2
100
AcDbLine
 10
575.2041076282658
 20
574.7868140781817
 30
0.0
 11
573.2755272771886
 21
570.1737264105301
 31
0.0
  0
ARC
  5
443
330
43E
100
AcDbEntity
  8
1
  6
Continuous
 62
     2
100
AcDbCircle
 10
599.8736258525612
 20
633.7953227067412
 30
0.0
 40
63.95771431176724
100
AcDbArc
 50
223.7960387748542
 51
330.0866639149787
  0
SOLID
  5
444
330
43E
100
AcDbEntity
  8
1
 62
     2
100
AcDbTrace
 10
558.9594965343408
 20
581.6912077386843
 30
0.0
 11
561.300006808845
 21
585.6603609611191
 31
0.0
 12
575.2041076282658
 22
574.7868140781817
 32
0.0
 13
575.2041076282658
 23
574.7868140781817
 33
0.0
  0
SOLID
  5
445
330
43E
100
AcDbEntity
  8
1
 62
     2
100
AcDbTrace
 10
616.895894829522
 20
574.5066982728894
 30
0.0
 11
617.5243244631467
 21
569.9419154912221
 31
0.0
 12
599.8736258525612
 22
569.837608394974
 32
0.0
 13
599.8736258525612
 23
569.837608394974
 33
0.0
  0
MTEXT
  5
446
330
43E
100
AcDbEntity
  8
1
 62
     7
100
AcDbMText
 10
618.1078991887056
 20
574.5155972285414
 30
0.0
 40
17.5
 41
0.0
 71
     7
 72
     1
  1
23{\Fgdt;~}
  7
CONVERTER_12
 11
0.8173473033409575
 21
0.5761452817833922
 31
0.0
 73
     1
 44
0.60024009603842
  0
ENDBLK
  5
448
330
43E
100
AcDbEntity
  8
0
100
AcDbBlockEnd
  0
ENDSEC
  0
SECTION
  2
ENTITIES
  0
INSERT
  5
8F
330
1F
100
AcDbEntity
  8
1
100
AcDbBlockReference
  2
88-546A-M21
 10
2408.350680209257
 20
806.4099997564996
 30
0.0
 41
1.0
 42
1.0
 43
1.0
  0
INSERT
  5
90
330
1F
100
AcDbEntity
  8
1
100
AcDbBlockReference
  2
87-163-M21
 10
3239.914153234306
 20
775.4099997565003
 30
0.0
 41
1.0
 42
1.0
 43
1.0
  0
INSERT
  5
91
330
1F
100
AcDbEntity
  8
1
100
AcDbBlockReference
  2
開示A4
 10
0.0
 20
0.0
 30
0.0
 41
5.0
 42
5.0
 43
5.0
  0
INSERT
  5
92
330
1F
100
AcDbEntity
  8
0
100
AcDbBlockReference
  2
01-110
 10
827.025546349102
 20
439.1377472716159
 30
0.0
 41
1.0
 42
1.0
 43
1.0
  0
INSERT
  5
93
330
1F
100
AcDbEntity
  8
0
100
AcDbBlockReference
  2
32-16__1
 10
135.8169520424775
 20
389.5829318252138
 30
0.0
 41
1.0
 42
1.0
 43
1.0
  0
INSERT
  5
94
330
1F
100
AcDbEntity
  8
0
100
AcDbBlockReference
  2
32-25__2
 10
205.180893781212
 20
442.3557556058934
 30
0.0
 41
1.0
 42
1.0
 43
1.0
  0
INSERT
  5
95
330
1F
100
AcDbEntity
  8
0
100
AcDbBlockReference
  2
73-1-21_5
 10
97.58876906766271
 20
493.6654607305719
 30
0.0
 41
1.0
 42
1.0
 43
1.0
  0
INSERT
  5
96
330
1F
100
AcDbEntity
  8
0
100
AcDbBlockReference
  2
92-53A__3
 10
-2.9525973430483
 20
294.5943354875502
 30
0.0
 41
1.0
 42
1.0
 43
1.0
  0
INSERT
  5
97
330
1F
100
AcDbEntity
  8
0
100
AcDbBlockReference
  2
70-16
 10
538.443895341528
 20
455.1399986061268
 30
0.0
 41
1.0
 42
1.0
 43
1.0
  0
INSERT
  5
98
330
1F
100
AcDbEntity
  8
0
100
AcDbBlockReference
  2
98-107A
 10
428.0525687572541
 20
532.7453224235926
 30
0.0
 41
1.0
 42
1.0
 43
1.0
  0
INSERT
  5
99
330
1F
100
AcDbEntity
  8
0
100
AcDbBlockReference
  2
50-11
 10
547.171696059523
 20
725.0465998838685
 30
0.0
 41
1.0
 42
1.0
 43
1.0
  0
INSERT
  5
9A
330
1F
100
AcDbEntity
  8
0
100
AcDbBlockReference
  2
61-91__4
 10
-33.17965621211885
 20
986.5190270388441
 30
0.0
 41
1.0
 42
1.0
 43
1.0
  0
INSERT
  5
9B
330
1F
100
AcDbEntity
  8
0
100
AcDbBlockReference
  2
31-28
 10
1185.707085219171
 20
715.1665469505048
 30
0.0
 41
1.0
 42
1.0
 43
1.0
  0
INSERT
  5
9C
330
1F
100
AcDbEntity
  8
0
100
AcDbBlockReference
  2
61-91__5
 10
-3184.483478640503
 20
-1306.815912774517
 30
0.0
 41
1.0
 42
1.0
 43
1.0
  0
INSERT
  5
9D
330
1F
100
AcDbEntity
  8
0
100
AcDbBlockReference
  2
82-20-M21
 10
443.5180746425181
 20
631.6901394943507
 30
0.0
 41
1.0
 42
1.0
 43
1.0
  0
INSERT
  5
9E
330
1F
100
AcDbEntity
  8
1
100
AcDbBlockReference
  2
32-16__6
 10
279.0139504761232
 20
383.7783321950303
 30
0.0
 41
1.0
 42
1.0
 43
1.0
  0
INSERT
  5
9F
330
1F
100
AcDbEntity
  8
1
100
AcDbBlockReference
  2
92-53A__7
 10
274.3639504761227
 20
477.7783321950303
 30
0.0
 41
1.0
 42
1.0
 43
1.0
  0
INSERT
  5
A0
330
1F
100
AcDbEntity
  8
1
100
AcDbBlockReference
  2
32-25__8
 10
279.0139549273645
 20
469.277695592502
 30
0.0
 41
1.0
 42
1.0
 43
1.0
  0
INSERT
  5
A1
330
1F
100
AcDbEntity
  8
1
100
AcDbBlockReference
  2
35-276__9
 10
0.0
 20
3165.0
 30
0.0
 41
1.0
 42
1.0
 43
1.0
  0
INSERT
  5
A2
330
1F
100
AcDbEntity
  8
1
100
AcDbBlockReference
  2
35-276__10
 10
282.3864504761229
 20
443.7783321950304
 30
0.0
 41
1.0
 42
1.0
 43
1.0
  0
LINE
  5
361
330
1F
100
AcDbEntity
  8
1
  6
DASH_CENTER
 62
     2
100
AcDbLine
 10
781.1863479900651
 20
412.27833219503
 30
0.0
 11
781.1863479900651
 21
595.1065424861154
 31
0.0
  0
LINE
  5
362
330
1F
100
AcDbEntity
  8
1
  6
DASH_CENTER
 62
     2
100
AcDbLine
 10
713.3452843591181
 20
542.5416689888185
 30
0.0
 11
758.3410367721989
 21
542.5416689888185
 31
0.0
  0
LINE
  5
363
330
1F
100
AcDbEntity
  8
1
  6
DASH_CENTER
 62
     2
100
AcDbLine
 10
328.8639504761218
 20
542.5416689888185
 30
0.0
 11
358.8639504761241
 21
542.5416689888185
 31
0.0
  0
LINE
  5
364
330
1F
100
AcDbEntity
  8
1
  6
DASH_CENTER
 62
     2
100
AcDbLine
 10
320.8639504761228
 20
633.7953227067412
 30
0.0
 11
366.863950476123
 21
633.7953227067412
 31
0.0
  0
LINE
  5
365
330
1F
100
AcDbEntity
  8
1
  6
DASH_CENTER
 62
     2
100
AcDbLine
 10
343.863950476123
 20
686.2783321950303
 30
0.0
 11
343.863950476123
 21
479.2783321950305
 31
0.0
  0
LINE
  5
366
330
1F
100
AcDbEntity
  8
1
  6
DASH_CENTER
 62
     2
100
AcDbLine
 10
779.9184932048428
 20
603.9594088339206
 30
0.0
 11
793.0619211449788
 21
632.1455810107602
 31
0.0
  0
LINE
  5
367
330
1F
100
AcDbEntity
  8
1
  6
DASH_CENTER
 62
     2
100
AcDbLine
 10
333.257348758326
 20
1261.067255729869
 30
0.0
 11
425.1812303125756
 21
1169.143374175618
 31
0.0
  0
LINE
  5
368
330
1F
100
AcDbEntity
  8
1
  6
DASH_CENTER
 62
     2
100
AcDbLine
 10
354.4705521939197
 20
1261.067255729869
 30
0.0
 11
262.5466706396701
 21
1169.143374175618
 31
0.0
  0
LINE
  5
369
330
1F
100
AcDbEntity
  8
1
  6
DASH_CENTER
 62
     2
100
AcDbLine
 10
256.8639504761229
 20
1250.460654012071
 30
0.0
 11
430.8639504761231
 21
1250.460654012071
 31
0.0
  0
LINE
  5
36A
330
1F
100
AcDbEntity
  8
1
  6
DASH_CENTER
 62
     2
100
AcDbLine
 10
343.863950476123
 20
1044.612504163831
 30
0.0
 11
343.863950476123
 21
1292.960654012071
 31
0.0
  0
LINE
  5
36B
330
1F
100
AcDbEntity
  8
1
  6
DASH_CENTER
 62
     2
100
AcDbLine
 10
316.3032643689659
 20
1069.147931874568
 30
0.0
 11
371.4218534902657
 21
1069.147931874567
 31
0.0
  0
LINE
  5
36C
330
1F
100
AcDbEntity
  8
1
  6
DASH_CENTER
 62
     2
100
AcDbLine
 10
599.8736258525612
 20
633.7953227067412
 30
0.0
 11
599.8736258525612
 21
632.7953227067412
 31
0.0
  0
LINE
  5
36D
330
1F
100
AcDbEntity
  8
1
  6
PHANTOM
 62
     4
100
AcDbLine
 10
278.6416731878746
 20
436.7783321950302
 30
0.0
 11
279.6540920696107
 21
436.7783321950302
 31
0.0
  0
LINE
  5
36E
330
1F
100
AcDbEntity
  8
1
  6
DASH_CENTER
 62
     2
100
AcDbLine
 10
394.8639504761227
 20
412.2783321950299
 30
0.0
 11
394.8639504761229
 21
422.7101224289241
 31
0.0
  0
LINE
  5
36F
330
1F
100
AcDbEntity
  8
1
  6
DASH_CENTER
 62
     2
100
AcDbLine
 10
292.8639504761233
 20
422.7101224289241
 30
0.0
 11
292.8639504761235
 21
412.27833219503
 31
0.0
  0
LINE
  5
370
330
1F
100
AcDbEntity
  8
1
  6
Continuous
 62
     2
100
AcDbLine
 10
622.0
 20
671.3338862028759
 30
0.0
 11
659.0
 21
671.3338862028759
 31
0.0
  0
LINE
  5
371
330
1F
100
AcDbEntity
  8
1
  6
Continuous
 62
     2
100
AcDbLine
 10
723.0
 20
719.314847361534
 30
0.0
 11
762.0
 21
719.314847361534
 31
0.0
  0
LINE
  5
372
330
1F
100
AcDbEntity
  8
1
  6
DASH_CENTER
 62
     2
100
AcDbLine
 10
781.1863479900651
 20
595.1065424861154
 30
0.0
 11
781.1863479900651
 21
657.4109316817472
 31
0.0
  0
LINE
  5
373
330
1F
100
AcDbEntity
  8
0
  6
CENTER_DASH_DASH
 62
     2
100
AcDbLine
 10
811.0564457504452
 20
479.7783321950303
 30
0.0
 11
799.6863479900651
 21
479.7783321950303
 31
0.0
  0
LINE
  5
374
330
1F
100
AcDbEntity
  8
0
  6
CENTER_DASH_DASH
 62
     2
100
AcDbLine
 10
753.8639504761231
 20
494.2783321950305
 30
0.0
 11
756.1863479900651
 21
494.2783321950305
 31
0.0
  0
LINE
  5
375
330
1F
100
AcDbEntity
  8
1
  6
DASH_CENTER
 62
     2
100
AcDbLine
 10
292.8639504761233
 20
422.7101224289241
 30
0.0
 11
292.8639504761233
 21
501.8354133197236
 31
0.0
  0
LINE
  5
376
330
1F
100
AcDbEntity
  8
1
  6
DASH_CENTER
 62
     2
100
AcDbLine
 10
394.8639504761229
 20
422.7101224289241
 30
0.0
 11
394.8639504761229
 21
503.2783321950305
 31
0.0
  0
LINE
  5
377
330
1F
100
AcDbEntity
  8
1
  6
DASH_CENTER
 62
     2
100
AcDbLine
 10
591.0890149193899
 20
663.535019396146
 30
0.0
 11
650.0847423802328
 21
638.8710969754521
 31
0.0
  0
LINE
  5
378
330
1F
100
AcDbEntity
  8
1
  6
DASH_CENTER
 62
     2
100
AcDbLine
 10
606.574072734867
 20
649.8225257544423
 30
0.0
 11
599.8736258525612
 21
633.7953227067412
 31
0.0
  0
LINE
  5
379
330
1F
100
AcDbEntity
  8
1
  6
DASH_CENTER
 62
     2
100
AcDbLine
 10
599.8736258525612
 20
633.7953227067412
 30
0.0
 11
599.4821359717424
 21
632.8588944473706
 31
0.0
  0
LINE
  5
37A
330
1F
100
AcDbEntity
  8
0
  6
CENTER_DASH_DASH
 62
     2
100
AcDbLine
 10
762.6863479900651
 20
479.7783321950303
 30
0.0
 11
753.8639504761231
 21
479.7783321950303
 31
0.0
  0
LINE
  5
37B
330
1F
100
AcDbEntity
  8
0
  6
CENTER_DASH_DASH
 62
     2
100
AcDbLine
 10
806.1863479900651
 20
494.2783321950305
 30
0.0
 11
811.0564457504452
 21
494.2783321950305
 31
0.0
  0
LINE
  5
37C
330
1F
100
AcDbEntity
  8
0
  6
CENTER_DASH_DASH
 62
     2
100
AcDbLine
 10
413.3639504761229
 20
494.2783321950305
 30
0.0
 11
420.4926339740739
 21
494.2783321950305
 31
0.0
  0
LINE
  5
37D
330
1F
100
AcDbEntity
  8
0
  6
CENTER_DASH_DASH
 62
     2
100
AcDbLine
 10
413.3639504761233
 20
479.7783321950303
 30
0.0
 11
420.4926339740739
 21
479.7783321950303
 31
0.0
  0
LINE
  5
37E
330
1F
100
AcDbEntity
  8
0
  6
CENTER_DASH_DASH
 62
     2
100
AcDbLine
 10
311.3639504761229
 20
479.7783321950303
 30
0.0
 11
376.3639504761233
 21
479.7783321950303
 31
0.0
  0
LINE
  5
37F
330
1F
100
AcDbEntity
  8
0
  6
CENTER_DASH_DASH
 62
     2
100
AcDbLine
 10
274.363950476123
 20
494.2783321950305
 30
0.0
 11
260.6912507712171
 21
494.2783321950305
 31
0.0
  0
LINE
  5
380
330
1F
100
AcDbEntity
  8
0
  6
CENTER_DASH_DASH
 62
     2
100
AcDbLine
 10
274.3639504761228
 20
479.7783321950303
 30
0.0
 11
260.6912507712171
 21
479.7783321950303
 31
0.0
  0
LINE
  5
381
330
1F
100
AcDbEntity
  8
1
  6
Continuous
 62
     2
100
AcDbLine
 10
275.0864487383623
 20
1078.462910916579
 30
0.0
 11
316.0864487383623
 21
1078.462910916579
 31
0.0
  0
LINE
  5
382
330
1F
100
AcDbEntity
  8
1
  6
Continuous
 62
     2
100
AcDbLine
 10
375.0864487383623
 20
1078.462910916579
 30
0.0
 11
417.0864487383623
 21
1078.462910916579
 31
0.0
  0
ARC
  5
383
330
1F
100
AcDbEntity
  8
1
  6
Continuous
 62
     2
100
AcDbCircle
 10
718.2462784244447
 20
672.2900464839607
 30
0.0
 40
54.00000000000004
100
AcDbArc
 50
110.2958566546951
 51
145.3710818509287
  0
ARC
  5
384
330
1F
100
AcDbEntity
  8
1
  6
DASH_CENTER
 62
     2
100
AcDbCircle
 10
517.6506489141789
 20
380.3146023986877
 30
0.0
 40
290.5000000000002
100
AcDbArc
 50
33.71930529068715
 51
62.87821943117569
  0
ARC
  5
385
330
1F
100
AcDbEntity
  8
1
  6
Continuous
 62
     2
100
AcDbCircle
 10
317.8982130312176
 20
1279.344345736235
 30
0.0
 40
149.6262517834888
100
AcDbArc
 50
290.9234214330128
 51
306.013015799425
  0
ARC
  5
386
330
1F
100
AcDbEntity
  8
1
  6
Continuous
 62
     2
100
AcDbCircle
 10
369.8494143895154
 20
1279.344345736235
 30
0.0
 40
149.6262517834891
100
AcDbArc
 50
233.9869842005749
 51
249.0765785669871
  0
SOLID
  5
38C
330
1F
100
AcDbEntity
  8
1
 62
     2
100
AcDbTrace
 10
729.322445091573
 20
461.2986276692924
 30
0.0
 11
725.6208913691311
 21
464.0428335085292
 31
0.0
 12
737.8938246251253
 22
476.7287765442663
 32
0.0
 13
737.8938246251253
 23
476.7287765442663
 33
0.0
  0
LEADER
  5
38D
330
1F
100
AcDbEntity
  8
1
  6
Continuous
 62
     2
100
AcDbLeader
  3
Standard
 71
     0
 76
     3
 10
737.8938246251253
 20
476.7287765442663
 30
0.0
 10
705.6659778529422
 20
433.2578734216897
 30
0.0
 10
581.0354297043075
 20
433.2578734216897
 30
0.0
  0
SOLID
  5
38E
330
1F
100
AcDbEntity
  8
1
 62
     2
100
AcDbTrace
 10
765.9773688344219
 20
433.2677687303151
 30
0.0
 11
761.7373636810802
 21
435.0717980947821
 31
0.0
 12
770.7088479900647
 22
450.2728017032844
 32
0.0
 13
770.7088479900647
 23
450.2728017032844
 33
0.0
  0
LEADER
  5
38F
330
1F
100
AcDbEntity
  8
1
  6
Continuous
 62
     2
100
AcDbLeader
  3
Standard
 71
     0
 76
     3
 10
770.7088479900647
 20
450.2728017032844
 30
0.0
 10
736.2951279111146
 20
369.3903319639314
 30
0.0
 10
663.8887768814385
 20
369.3903319639314
 30
0.0
  0
SOLID
  5
390
330
1F
100
AcDbEntity
  8
1
 62
     2
100
AcDbTrace
 10
674.2524611204667
 20
707.1955426905247
 30
0.0
 11
677.8869331808277
 21
704.3630917217206
 31
0.0
 12
665.3123966029538
 22
691.976039156087
 32
0.0
 13
665.3123966029538
 23
691.976039156087
 33
0.0
  0
LEADER
  5
391
330
1F
100
AcDbEntity
  8
1
  6
Continuous
 62
     2
100
AcDbLeader
  3
Standard
 71
     0
 76
     2
 10
665.3123966029538
 20
691.976039156087
 30
0.0
 10
669.135590896821
 20
696.8817879211781
 30
0.0
  0
SOLID
  5
392
330
1F
100
AcDbEntity
  8
1
 62
     2
100
AcDbTrace
 10
700.696731568938
 20
722.3475839849292
 30
0.0
 11
698.7196380304893
 21
726.5097068553462
 31
0.0
 12
715.5154157550322
 22
731.9374036080952
 32
0.0
 13
715.5154157550322
 23
731.9374036080952
 33
0.0
  0
LEADER
  5
393
330
1F
100
AcDbEntity
  8
1
  6
Continuous
 62
     2
100
AcDbLeader
  3
Standard
 71
     0
 76
     2
 10
715.5154157550322
 20
731.9374036080952
 30
0.0
 10
706.8217551016972
 20
727.807736887936
 30
0.0
  0
SOLID
  5
394
330
1F
100
AcDbEntity
  8
1
 62
     2
100
AcDbTrace
 10
391.5910359949099
 20
1147.943019109218
 30
0.0
 11
389.3934643215194
 21
1151.993061626098
 31
0.0
 12
405.8738137103663
 22
1158.31414740574
 32
0.0
 13
405.8738137103663
 23
1158.31414740574
 33
0.0
  0
LEADER
  5
395
330
1F
100
AcDbEntity
  8
1
  6
Continuous
 62
     2
100
AcDbLeader
  3
Standard
 71
     0
 76
     2
 10
405.8738137103663
 20
1158.31414740574
 30
0.0
 10
401.364006311425
 20
1155.867105195429
 30
0.0
  0
SOLID
  5
396
330
1F
100
AcDbEntity
  8
1
 62
     2
100
AcDbTrace
 10
298.3541630992131
 20
1151.993061626098
 30
0.0
 11
296.1565914258227
 21
1147.943019109218
 31
0.0
 12
281.8738137103663
 22
1158.31414740574
 32
0.0
 13
281.8738137103663
 23
1158.31414740574
 33
0.0
  0
LEADER
  5
397
330
1F
100
AcDbEntity
  8
1
  6
Continuous
 62
     2
100
AcDbLeader
  3
Standard
 71
     0
 76
     2
 10
281.8738137103663
 20
1158.31414740574
 30
0.0
 10
286.3836211093077
 20
1155.867105195429
 30
0.0
  0
MTEXT
  5
398
330
1F
100
AcDbEntity
  8
1
 62
     7
100
AcDbMText
 10
170.0
 20
152.5000000000001
 30
0.0
 40
17.5
 41
0.0
 71
     4
 72
     1
  1
吐水口は回転式(120{\Fgdt;~})
  7
CONVERTER_11
 73
     1
 44
0.68181818181818
  0
MTEXT
  5
39A
330
1F
100
AcDbEntity
  8
1
 62
     7
100
AcDbMText
 10
170.0
 20
187.4999999999999
 30
0.0
 40
17.5
 41
0.0
 71
     4
 72
     1
  1
JIS
  7
CONVERTER_12
 73
     1
 44
0.90036014405762
  0
MTEXT
  5
39B
330
1F
100
AcDbEntity
  8
1
 62
     7
100
AcDbMText
 10
468.75
 20
85.0
 30
0.0
 40
17.5
 41
0.0
 71
     5
 72
     1
  1
5
  7
CONVERTER_12
 73
     1
 44
0.7202881152461
  0
MTEXT
  5
39C
330
1F
100
AcDbEntity
  8
1
 62
     7
100
AcDbMText
 10
426.25
 20
85.0
 30
0.0
 40
17.5
 41
0.0
 71
     5
 72
     1
  1
1
  7
CONVERTER_12
 73
     1
 44
0.7202881152461
  0
MTEXT
  5
39D
330
1F
100
AcDbEntity
  8
1
 62
     7
100
AcDbMText
 10
643.4460176670598
 20
448.2578734216898
 30
0.0
 40
17.5
 41
0.0
 71
     5
 72
     1
  1
取付穴径
  7
CONVERTER_11
 73
     1
 44
0.54545454545455
  0
MTEXT
  5
39E
330
1F
100
AcDbEntity
  8
1
 62
     7
100
AcDbMText
 10
643.4460176670598
 20
418.2578734216898
 30
0.0
 40
17.5
 41
0.0
 71
     5
 72
     1
  1
{\Fgdt;n}23～{\Fgdt;n}27
  7
CONVERTER_11
 73
     1
 44
0.54545454545455
  0
MTEXT
  5
39F
330
1F
100
AcDbEntity
  8
0
 62
     7
100
AcDbMText
 10
640.1038272432096
 20
686.3338862028759
 30
0.0
 40
17.5
 41
0.0
 71
     5
 72
     1
  1
止水
  7
CONVERTER_11
 73
     1
 44
1.0
  0
MTEXT
  5
3A0
330
1F
100
AcDbEntity
  8
0
 62
     7
100
AcDbMText
 10
742.0513853589678
 20
734.314847361534
 30
0.0
 40
17.5
 41
0.0
 71
     5
 72
     1
  1
吐水
  7
CONVERTER_11
 73
     1
 44
1.0
  0
MTEXT
  5
3A1
330
1F
100
AcDbEntity
  8
0
 62
     7
100
AcDbMText
 10
284.9999999999999
 20
71.25
 30
0.0
 40
17.5
 41
0.0
 71
     5
 72
     1
  1
K7761K-13
  7
CONVERTER_12
 73
     1
 44
1.32052821128451
  0
MTEXT
  5
3A2
330
1F
100
AcDbEntity
  8
0
 62
     7
100
AcDbMText
 10
285.0
 20
113.7500000000001
 30
0.0
 40
17.5
 41
0.0
 71
     5
 72
     1
  1
シングル台付混合栓
  7
CONVERTER_11
 73
     1
 44
1.0
  0
MTEXT
  5
3A3
330
1F
100
AcDbEntity
  8
0
 62
     7
100
AcDbMText
 10
698.4888404861124
 20
384.3903319639315
 30
0.0
 40
17.5
 41
0.0
 71
     5
 72
     1
  1
PJ1/2
  7
CONVERTER_12
 73
     1
 44
1.32052821128451
  0
MTEXT
  5
3A4
330
1F
100
AcDbEntity
  8
1
 62
     7
100
AcDbMText
 10
393.8738137103663
 20
1123.462910916579
 30
0.0
 40
17.5
 41
0.0
 71
     5
 72
     1
  1
45{\Fgdt;~}
  7
CONVERTER_12
 73
     1
 44
1.32052821128451
  0
MTEXT
  5
3A5
330
1F
100
AcDbEntity
  8
1
 62
     7
100
AcDbMText
 10
293.8540872418797
 20
1123.462910916579
 30
0.0
 40
17.5
 41
0.0
 71
     5
 72
     1
  1
45{\Fgdt;~}
  7
CONVERTER_12
 73
     1
 44
1.32052821128451
  0
MTEXT
  5
3A6
330
1F
100
AcDbEntity
  8
1
 62
     7
100
AcDbMText
 10
293.8540872418797
 20
1093.462910916579
 30
0.0
 40
17.5
 41
0.0
 71
     5
 72
     1
  1
湯側
  7
CONVERTER_11
 73
     1
 44
1.0
  0
MTEXT
  5
3A7
330
1F
100
AcDbEntity
  8
1
 62
     7
100
AcDbMText
 10
393.8738137103663
 20
1093.462910916579
 30
0.0
 40
17.5
 41
0.0
 71
     5
 72
     1
  1
水側
  7
CONVERTER_11
 73
     1
 44
1.0
  0
MTEXT
  5
3A8
330
1F
100
AcDbEntity
  8
1
 62
     7
100
AcDbMText
 10
670.437988912443
 20
727.131392299353
 30
0.0
 40
17.5
 41
0.0
 71
     5
 72
     1
  1
25{\Fgdt;~}
  7
CONVERTER_12
 73
     1
 44
0.7202881152461
  0
DIMENSION
  5
3B3
330
1F
100
AcDbEntity
  8
1
100
AcDbDimension
  2
*D24
 10
903.0642827257333
 20
705.843011167784
 30
0.0
 11
889.3142827257333
 21
618.1026908948375
 31
0.0
 70
    32
  1
最大209
 71
     5
 42
-1.0
 53
90.0
  3
ME10_DIM_10
100
AcDbAlignedDimension
 13
807.178516336615
 23
497.2783321950306
 33
0.0
 14
720.2751566213324
 24
705.8430111677837
 34
0.0
 50
90.0
100
AcDbRotatedDimension
  0
DIMENSION
  5
3BE
330
1F
100
AcDbEntity
  8
1
100
AcDbDimension
  2
*D25
 10
863.0642827257333
 20
671.2783321950305
 30
0.0
 11
849.3142827257333
 21
584.2783321950308
 31
0.0
 70
    32
  1
<>
 71
     5
 42
-1.0
 53
90.0
  3
ME10_DIM_11
100
AcDbAlignedDimension
 13
807.178516336615
 23
497.2783321950306
 33
0.0
 14
686.1863479900649
 24
671.2783321950303
 34
0.0
 50
90.0
100
AcDbRotatedDimension
  0
DIMENSION
  5
3C9
330
1F
100
AcDbEntity
  8
1
100
AcDbDimension
  2
*D26
 10
781.1863479900651
 20
755.3745501029671
 30
0.0
 11
690.5299869213131
 21
769.1245501029671
 31
0.0
 70
    32
  1
181
 71
     5
 42
-1.0
 53
0.00013888888889
  3
ME10_DIM_12
100
AcDbAlignedDimension
 13
599.8736258525608
 23
633.7953227067411
 33
0.0
 14
781.1863479900651
 24
657.4109316817472
 34
0.0
100
AcDbRotatedDimension
  0
DIMENSION
  5
3D4
330
1F
100
AcDbEntity
  8
1
100
AcDbDimension
  2
*D27
 10
539.6909129291861
 20
497.2783321950307
 30
0.0
 11
525.9409129291861
 21
565.536827450886
 31
0.0
 70
    32
  1
137
 71
     5
 42
-1.0
 53
90.0
  3
ME10_DIM_13
100
AcDbAlignedDimension
 13
599.8736258525608
 23
633.7953227067411
 33
0.0
 14
755.1941796435148
 24
497.2783321950306
 34
0.0
 50
90.0
100
AcDbRotatedDimension
  0
DIMENSION
  5
3E1
330
1F
100
AcDbEntity
  8
1
100
AcDbDimension
  2
*D28
 10
773.2281558476566
 20
462.2777156312508
 30
0.0
 11
899.2785205624127
 21
476.0277156312508
 31
0.0
 70
    33
  1
ロックナット対辺24
 71
     5
 42
-1.0
 52
120.0
 53
0.00013888888889
  3
ME10_DIM_14
100
AcDbAlignedDimension
 13
793.1863479900649
 23
469.2783321950302
 33
0.0
 14
769.1863479900649
 24
469.2783321950302
 34
0.0
  0
DIMENSION
  5
3EC
330
1F
100
AcDbEntity
  8
1
100
AcDbDimension
  2
*D29
 10
226.4887881183946
 20
497.2783321950306
 30
0.0
 11
212.7387881183946
 21
466.3012503894622
 31
0.0
 70
    32
  1
61
 71
     5
 42
-1.0
 53
90.0
  3
ME10_DIM_15
100
AcDbAlignedDimension
 13
278.6416731878746
 23
436.7783321950302
 33
0.0
 14
273.3639504761234
 24
497.2783321950304
 34
0.0
 50
90.0
100
AcDbRotatedDimension
  0
DIMENSION
  5
3F7
330
1F
100
AcDbEntity
  8
1
100
AcDbDimension
  2
*D30
 10
271.863950476123
 20
337.27833219503
 30
0.0
 11
343.863950476123
 21
351.02833219503
 31
0.0
 70
    32
  1
<>
 71
     5
 42
-1.0
 53
0.00013888888889
  3
ME10_DIM_16
100
AcDbAlignedDimension
 13
415.8639504761229
 23
498.2783321950306
 33
0.0
 14
271.863950476123
 24
498.2783321950306
 34
0.0
100
AcDbRotatedDimension
  0
DIMENSION
  5
402
330
1F
100
AcDbEntity
  8
1
100
AcDbDimension
  2
*D31
 10
394.8639504761227
 20
377.27833219503
 30
0.0
 11
343.863950476123
 21
391.02833219503
 31
0.0
 70
    32
  1
<>
 71
     5
 42
-1.0
 53
0.00013888888889
  3
ME10_DIM_17
100
AcDbAlignedDimension
 13
292.8639504761235
 23
412.27833219503
 33
0.0
 14
394.8639504761227
 24
412.2783321950299
 34
0.0
100
AcDbRotatedDimension
  0
DIMENSION
  5
40D
330
1F
100
AcDbEntity
  8
1
100
AcDbDimension
  2
*D32
 10
753.6863479900651
 20
377.27833219503
 30
0.0
 11
781.1863479900651
 21
391.02833219503
 31
0.0
 70
    32
  1
<>
 71
     5
 42
-1.0
 53
0.00013888888889
  3
ME10_DIM_18
100
AcDbAlignedDimension
 13
808.6863479900649
 23
498.2783321950303
 33
0.0
 14
753.6863479900649
 24
498.2783321950303
 34
0.0
100
AcDbRotatedDimension
  0
DIMENSION
  5
41A
330
1F
100
AcDbEntity
  8
1
100
AcDbDimension
  2
*D33
 10
470.492633974074
 20
494.2783321950305
 30
0.0
 11
456.742633974074
 21
397.8732765826931
 31
0.0
 70
    32
  1
最大37最小5
 71
     5
 42
-1.0
 53
90.0
  3
ME10_DIM_19
100
AcDbAlignedDimension
 13
420.4926339740739
 23
479.7783321950303
 33
0.0
 14
420.4926339740739
 24
494.2783321950305
 34
0.0
 50
90.0
100
AcDbRotatedDimension
  0
DIMENSION
  5
425
330
1F
100
AcDbEntity
  8
1
100
AcDbDimension
  2
*D34
 10
267.881194418826
 20
1009.612504163831
 30
0.0
 11
305.8725724474745
 21
1023.362504163831
 31
0.0
 70
    32
  1
76
 71
     5
 42
-1.0
 53
0.00013888888889
  3
ME10_DIM_20
100
AcDbAlignedDimension
 13
343.863950476123
 23
1044.612504163831
 33
0.0
 14
267.8811944188259
 24
1192.477897954774
 34
0.0
100
AcDbRotatedDimension
  0
DIMENSION
  5
430
330
1F
100
AcDbEntity
  8
1
100
AcDbDimension
  2
*D35
 10
343.863950476123
 20
1009.612504163831
 30
0.0
 11
381.8553285047715
 21
1023.362504163831
 31
0.0
 70
    32
  1
76
 71
     5
 42
-1.0
 53
0.00013888888889
  3
ME10_DIM_21
100
AcDbAlignedDimension
 13
419.8467065334197
 23
1192.477897954774
 33
0.0
 14
343.863950476123
 24
1044.612504163831
 34
0.0
100
AcDbRotatedDimension
  0
DIMENSION
  5
43D
330
1F
100
AcDbEntity
  8
1
100
AcDbDimension
  2
*D36
 10
781.1863479900651
 20
755.3745501029671
 30
0.0
 11
797.1162745714621
 21
769.1245501029671
 31
0.0
 70
    32
  1
32
 71
     5
 42
-1.0
 53
0.00013888888889
  3
ME10_DIM_22
100
AcDbAlignedDimension
 13
813.0642827257329
 23
618.1026908948373
 33
0.0
 14
781.1863479900649
 24
650.3240937750809
 34
0.0
100
AcDbRotatedDimension
  0
DIMENSION
  5
44A
330
1F
100
AcDbEntity
  8
1
100
AcDbDimension
  2
*D37
 10
587.2930876455374
 20
571.0871152821364
 30
0.0
 11
628.8005635624144
 21
592.7581828071051
 31
0.0
 70
    37
  1
23
 71
     5
 42
-1.0
  3
ME10_DIM_23
100
AcDb3PointAngularDimension
 13
599.4821359717424
 23
632.8588944473706
 33
0.0
 14
599.8736258525612
 24
632.7953227067412
 34
0.0
 15
599.8736258525612
 25
633.7953227067412
 35
0.0
  0
HATCH
  5
44B
330
1F
100
AcDbEntity
  8
1
  6
Continuous
 62
     4
100
AcDbHatch
 10
0.0
 20
0.0
 30
0.0
210
0.0
220
0.0
230
1.0
  2
CUSTOM3
 70
     0
 71
     0
 91
        1
 92
        1
 93
        5
 72
     1
 10
260.6912507712171
 20
494.2783321950305
 11
282.613950476123
 21
494.2783321950305
 72
     1
 10
282.613950476123
 20
494.2783321950305
 11
282.6139504761234
 21
492.7783321950305
 72
     1
 10
282.6139504761234
 20
492.7783321950305
 11
282.3864504761233
 21
479.7783321950303
 72
     1
 10
282.3864504761233
 20
479.7783321950303
 11
260.6912507712171
 21
479.7783321950303
 72
     1
 10
260.6912507712171
 20
479.7783321950303
 11
260.6912507712171
 21
494.2783321950305
 97
        0
 75
     1
 76
     2
 52
45.0
 41
15.0
 77
     0
 78
     2
 53
45.0
 43
0.0
 44
0.0
 45
-21.21320343559642
 46
0.0000000000000017
 79
     0
 53
45.0
 43
3.535533905932737
 44
-3.535533905932737
 45
-21.21320343559642
 46
0.0000000000000017
 79
     0
 98
        1
 10
0.0
 20
0.0
  0
HATCH
  5
44C
330
1F
100
AcDbEntity
  8
1
  6
Continuous
 62
     4
100
AcDbHatch
 10
0.0
 20
0.0
 30
0.0
210
0.0
220
0.0
230
1.0
  2
CUSTOM4
 70
     0
 71
     0
 91
        1
 92
        1
 93
        6
 72
     1
 10
303.113950476123
 20
494.2783321950305
 11
303.1139504761231
 21
492.7783321950305
 72
     1
 10
303.1139504761231
 20
492.7783321950305
 11
303.3414504761232
 21
479.7783321950303
 72
     1
 10
303.3414504761232
 20
479.7783321950303
 11
384.3864504761228
 21
479.7783321950303
 72
     1
 10
384.3864504761228
 20
479.7783321950303
 11
384.3864504761228
 21
492.7783321950305
 72
     1
 10
384.3864504761228
 20
492.7783321950305
 11
384.613950476123
 21
494.2783321950305
 72
     1
 10
384.613950476123
 20
494.2783321950305
 11
303.113950476123
 21
494.2783321950305
 97
        0
 75
     1
 76
     2
 52
45.0
 41
15.0
 77
     0
 78
     2
 53
45.0
 43
0.0
 44
0.0
 45
-21.21320343559642
 46
0.0000000000000017
 79
     0
 53
45.0
 43
3.535533905932737
 44
-3.535533905932737
 45
-21.21320343559642
 46
0.0000000000000017
 79
     0
 98
        1
 10
0.0
 20
0.0
  0
HATCH
  5
44D
330
1F
100
AcDbEntity
  8
1
  6
Continuous
 62
     4
100
AcDbHatch
 10
0.0
 20
0.0
 30
0.0
210
0.0
220
0.0
230
1.0
  2
CUSTOM5
 70
     0
 71
     0
 91
        1
 92
        1
 93
        5
 72
     1
 10
420.4926339740739
 20
494.2783321950305
 11
405.113950476123
 21
494.2783321950305
 72
     1
 10
405.113950476123
 20
494.2783321950305
 11
405.1139504761227
 21
492.7783321950305
 72
     1
 10
405.1139504761227
 20
492.7783321950305
 11
405.3414504761228
 21
479.7783321950303
 72
     1
 10
405.3414504761228
 20
479.7783321950303
 11
420.4926339740739
 21
479.7783321950303
 72
     1
 10
420.4926339740739
 20
479.7783321950303
 11
420.4926339740739
 21
494.2783321950305
 97
        0
 75
     1
 76
     2
 52
45.0
 41
15.0
 77
     0
 78
     2
 53
45.0
 43
0.0
 44
0.0
 45
-21.21320343559642
 46
0.0000000000000017
 79
     0
 53
45.0
 43
3.535533905932737
 44
-3.535533905932737
 45
-21.21320343559642
 46
0.0000000000000017
 79
     0
 98
        1
 10
0.0
 20
0.0
  0
HATCH
  5
44E
330
1F
100
AcDbEntity
  8
1
  6
Continuous
 62
     4
100
AcDbHatch
 10
0.0
 20
0.0
 30
0.0
210
0.0
220
0.0
230
1.0
  2
CUSTOM6
 70
     0
 71
     0
 91
        1
 92
        1
 93
        5
 72
     1
 10
753.8639504761231
 20
494.2783321950305
 11
753.8639504761231
 21
479.7783321950303
 72
     1
 10
753.8639504761231
 20
479.7783321950303
 11
770.7088479900647
 21
479.7783321950302
 72
     1
 10
770.7088479900647
 20
479.7783321950302
 11
770.7088479900652
 21
492.7783321950303
 72
     1
 10
770.7088479900652
 20
492.7783321950303
 11
770.9363479900651
 21
494.2783321950305
 72
     1
 10
770.9363479900651
 20
494.2783321950305
 11
753.8639504761231
 21
494.2783321950305
 97
        0
 75
     1
 76
     2
 52
45.0
 41
15.0
 77
     0
 78
     2
 53
45.0
 43
0.0
 44
0.0
 45
-21.21320343559642
 46
0.0000000000000017
 79
     0
 53
45.0
 43
3.535533905932737
 44
-3.535533905932737
 45
-21.21320343559642
 46
0.0000000000000017
 79
     0
 98
        1
 10
0.0
 20
0.0
  0
HATCH
  5
44F
330
1F
100
AcDbEntity
  8
1
  6
Continuous
 62
     4
100
AcDbHatch
 10
0.0
 20
0.0
 30
0.0
210
0.0
220
0.0
230
1.0
  2
CUSTOM7
 70
     0
 71
     0
 91
        1
 92
        1
 93
        5
 72
     1
 10
791.4363479900651
 20
494.2783321950305
 11
791.4363479900649
 21
492.7783321950302
 72
     1
 10
791.4363479900649
 20
492.7783321950302
 11
791.6638479900649
 21
479.7783321950302
 72
     1
 10
791.6638479900649
 20
479.7783321950302
 11
811.0564457504452
 21
479.7783321950303
 72
     1
 10
811.0564457504452
 20
479.7783321950303
 11
811.0564457504452
 21
494.2783321950305
 72
     1
 10
811.0564457504452
 20
494.2783321950305
 11
791.4363479900651
 21
494.2783321950305
 97
        0
 75
     1
 76
     2
 52
45.0
 41
15.0
 77
     0
 78
     2
 53
45.0
 43
0.0
 44
0.0
 45
-21.21320343559642
 46
0.0000000000000017
 79
     0
 53
45.0
 43
3.535533905932737
 44
-3.535533905932737
 45
-21.21320343559642
 46
0.0000000000000017
 79
     0
 98
        1
 10
0.0
 20
0.0
  0
ENDSEC
  0
SECTION
  2
OBJECTS
  0
DICTIONARY
  5
C
330
0
100
AcDbDictionary
281
     1
  3
ACAD_GROUP
350
D
  3
ACAD_LAYOUT
350
1A
  3
ACAD_MATERIAL
350
3B
  3
ACAD_MLEADERSTYLE
350
452
  3
ACAD_MLINESTYLE
350
17
  3
ACAD_PLOTSETTINGS
350
19
  3
ACAD_PLOTSTYLENAME
350
E
  3
ACAD_VISUALSTYLE
350
2A
  3
AcDbVariableDictionary
350
450
  0
DICTIONARY
  5
D
102
{ACAD_REACTORS
330
C
102
}
330
C
100
AcDbDictionary
281
     1
  0
DICTIONARY
  5
1A
102
{ACAD_REACTORS
330
C
102
}
330
C
100
AcDbDictionary
281
     1
  3
Layout1
350
1E
  3
Layout2
350
26
  3
Model
350
22
  0
DICTIONARY
  5
3B
102
{ACAD_REACTORS
330
C
102
}
330
C
100
AcDbDictionary
281
     1
  3
ByBlock
350
3D
  3
ByLayer
350
3C
  3
Global
350
3E
  0
DICTIONARY
  5
452
102
{ACAD_REACTORS
330
C
102
}
330
C
100
AcDbDictionary
281
     1
  0
DICTIONARY
  5
17
102
{ACAD_REACTORS
330
C
102
}
330
C
100
AcDbDictionary
281
     1
  3
Standard
350
18
  0
DICTIONARY
  5
19
102
{ACAD_REACTORS
330
C
102
}
330
C
100
AcDbDictionary
281
     1
  0
ACDBDICTIONARYWDFLT
  5
E
102
{ACAD_REACTORS
330
C
102
}
330
C
100
AcDbDictionary
281
     1
  3
Normal
350
F
100
AcDbDictionaryWithDefault
340
F
  0
DICTIONARY
  5
2A
102
{ACAD_REACTORS
330
C
102
}
330
C
100
AcDbDictionary
281
     1
  3
2dWireframe
350
2F
  3
3D Hidden
350
31
  3
3dWireframe
350
30
  3
Basic
350
32
  3
Brighten
350
36
  3
ColorChange
350
3A
  3
Conceptual
350
34
  3
Dim
350
35
  3
Facepattern
350
39
  3
Flat
350
2B
  3
FlatWithEdges
350
2C
  3
Gouraud
350
2D
  3
GouraudWithEdges
350
2E
  3
Linepattern
350
38
  3
Realistic
350
33
  3
Thicken
350
37
  0
DICTIONARY
  5
450
102
{ACAD_REACTORS
330
C
102
}
330
C
100
AcDbDictionary
281
     1
  3
DIMASSOC
350
453
  3
HIDETEXT
350
454
  0
LAYOUT
  5
1E
102
{ACAD_REACTORS
330
1A
102
}
330
1A
100
AcDbPlotSettings
  1

  2
none_device
  4

  6

 40
0.0
 41
0.0
 42
0.0
 43
0.0
 44
0.0
 45
0.0
 46
0.0
 47
0.0
 48
0.0
 49
0.0
140
0.0
141
0.0
142
1.0
143
1.0
 70
   688
 72
     0
 73
     0
 74
     5
  7

 75
    16
147
1.0
148
0.0
149
0.0
100
AcDbLayout
  1
Layout1
 70
     1
 71
     1
 10
0.0
 20
0.0
 11
12.0
 21
9.0
 12
0.0
 22
0.0
 32
0.0
 14
1.00000000000000E+20
 24
1.00000000000000E+20
 34
1.00000000000000E+20
 15
-1.00000000000000E+20
 25
-1.00000000000000E+20
 35
-1.00000000000000E+20
146
0.0
 13
0.0
 23
0.0
 33
0.0
 16
1.0
 26
0.0
 36
0.0
 17
0.0
 27
1.0
 37
0.0
 76
     0
330
1B
  0
LAYOUT
  5
26
102
{ACAD_REACTORS
330
1A
102
}
330
1A
100
AcDbPlotSettings
  1

  2
none_device
  4

  6

 40
0.0
 41
0.0
 42
0.0
 43
0.0
 44
0.0
 45
0.0
 46
0.0
 47
0.0
 48
0.0
 49
0.0
140
0.0
141
0.0
142
1.0
143
1.0
 70
   688
 72
     0
 73
     0
 74
     5
  7

 75
    16
147
1.0
148
0.0
149
0.0
100
AcDbLayout
  1
Layout2
 70
     1
 71
     2
 10
0.0
 20
0.0
 11
0.0
 21
0.0
 12
0.0
 22
0.0
 32
0.0
 14
0.0
 24
0.0
 34
0.0
 15
0.0
 25
0.0
 35
0.0
146
0.0
 13
0.0
 23
0.0
 33
0.0
 16
1.0
 26
0.0
 36
0.0
 17
0.0
 27
1.0
 37
0.0
 76
     0
330
23
  0
LAYOUT
  5
22
102
{ACAD_REACTORS
330
1A
102
}
330
1A
100
AcDbPlotSettings
  1

  2
none_device
  4

  6

 40
0.0
 41
0.0
 42
0.0
 43
0.0
 44
0.0
 45
0.0
 46
0.0
 47
0.0
 48
0.0
 49
0.0
140
0.0
141
0.0
142
1.0
143
1.0
 70
  1712
 72
     0
 73
     0
 74
     0
  7

 75
     0
147
1.0
148
0.0
149
0.0
100
AcDbLayout
  1
Model
 70
     1
 71
     0
 10
0.0
 20
0.0
 11
12.0
 21
9.0
 12
0.0
 22
0.0
 32
0.0
 14
0.0
 24
0.0
 34
0.0
 15
1050.0
 25
1485.0
 35
0.0
146
0.0
 13
0.0
 23
0.0
 33
0.0
 16
1.0
 26
0.0
 36
0.0
 17
0.0
 27
1.0
 37
0.0
 76
     0
330
1F
331
29
  0
MATERIAL
  5
3D
102
{ACAD_REACTORS
330
3B
102
}
102
{ACAD_XDICTIONARY
360
477
102
}
330
3B
100
AcDbMaterial
  1
ByBlock
  0
MATERIAL
  5
3C
102
{ACAD_REACTORS
330
3B
102
}
102
{ACAD_XDICTIONARY
360
475
102
}
330
3B
100
AcDbMaterial
  1
ByLayer
  0
MATERIAL
  5
3E
102
{ACAD_REACTORS
330
3B
102
}
102
{ACAD_XDICTIONARY
360
479
102
}
330
3B
100
AcDbMaterial
  1
Global
  0
MLINESTYLE
  5
18
102
{ACAD_REACTORS
330
17
102
}
330
17
100
AcDbMlineStyle
  2
Standard
 70
     0
  3

 62
   256
 51
90.0
 52
90.0
 71
     2
 49
0.5
 62
   256
  6
BYLAYER
 49
-0.5
 62
   256
  6
BYLAYER
  0
ACDBPLACEHOLDER
  5
F
102
{ACAD_REACTORS
330
E
102
}
330
E
  0
VISUALSTYLE
  5
2F
102
{ACAD_REACTORS
330
2A
102
}
102
{ACAD_XDICTIONARY
360
45D
102
}
330
2A
100
AcDbVisualStyle
  2
2dWireframe
 70
     4
 71
     0
 72
     2
 73
     0
 90
        0
 40
-0.6
 41
-30.0
 62
     5
 63
     7
 74
     1
 91
        4
 64
     7
 65
   257
 75
     1
175
     1
 42
1.0
 92
        0
 66
   257
 43
1.0
 76
     1
 77
     6
 78
     2
 67
     7
 79
     5
170
     0
171
     0
290
     0
174
     0
 93
        1
 44
0.0
173
     0
291
     0
 45
0.0
1001
ACAD
1000
AcDbSavedByObjectVersion
1070
     0
  0
VISUALSTYLE
  5
31
102
{ACAD_REACTORS
330
2A
102
}
102
{ACAD_XDICTIONARY
360
461
102
}
330
2A
100
AcDbVisualStyle
  2
3D Hidden
 70
     6
 71
     1
 72
     2
 73
     2
 90
        0
 40
-0.6
 41
-30.0
 62
     5
 63
     7
 74
     2
 91
        2
 64
     7
 65
   257
 75
     2
175
     1
 42
40.0
 92
        0
 66
   257
 43
1.0
 76
     1
 77
     6
 78
     2
 67
     7
 79
     3
170
     0
171
     0
290
     0
174
     0
 93
        1
 44
0.0
173
     0
291
     0
 45
0.0
1001
ACAD
1000
AcDbSavedByObjectVersion
1070
     0
  0
VISUALSTYLE
  5
30
102
{ACAD_REACTORS
330
2A
102
}
102
{ACAD_XDICTIONARY
360
45F
102
}
330
2A
100
AcDbVisualStyle
  2
3dWireframe
 70
     5
 71
     0
 72
     2
 73
     0
 90
        0
 40
-0.6
 41
-30.0
 62
     5
 63
     7
 74
     1
 91
        4
 64
     7
 65
   257
 75
     1
175
     1
 42
1.0
 92
        0
 66
   257
 43
1.0
 76
     1
 77
     6
 78
     2
 67
     7
 79
     5
170
     0
171
     0
290
     0
174
     0
 93
        1
 44
0.0
173
     0
291
     0
 45
0.0
1001
ACAD
1000
AcDbSavedByObjectVersion
1070
     0
  0
VISUALSTYLE
  5
32
102
{ACAD_REACTORS
330
2A
102
}
102
{ACAD_XDICTIONARY
360
463
102
}
330
2A
100
AcDbVisualStyle
  2
Basic
 70
     7
 71
     1
 72
     0
 73
     1
 90
        0
 40
-0.6
 41
-30.0
 62
     5
 63
     7
 74
     0
 91
        4
 64
     7
 65
   257
 75
     1
175
     1
 42
1.0
 92
        8
 66
     7
 43
1.0
 76
     1
 77
     6
 78
     2
 67
     7
 79
     5
170
     0
171
     0
290
     0
174
     0
 93
        1
 44
0.0
173
     0
291
     1
 45
0.0
1001
ACAD
1000
AcDbSavedByObjectVersion
1070
     0
  0
VISUALSTYLE
  5
36
102
{ACAD_REACTORS
330
2A
102
}
102
{ACAD_XDICTIONARY
360
46B
102
}
330
2A
100
AcDbVisualStyle
  2
Brighten
 70
    12
 71
     2
 72
     2
 73
     0
 90
        0
 40
-0.6
 41
-30.0
 62
     5
 63
     7
 74
     1
 91
        4
 64
     7
 65
   257
 75
     1
175
     1
 42
1.0
 92
        8
 66
     7
 43
1.0
 76
     1
 77
     6
 78
     2
 67
     7
 79
     5
170
     0
171
     0
290
     0
174
     0
 93
        1
 44
50.0
173
     0
291
     1
 45
0.0
1001
ACAD
1000
AcDbSavedByObjectVersion
1070
     0
  0
VISUALSTYLE
  5
3A
102
{ACAD_REACTORS
330
2A
102
}
102
{ACAD_XDICTIONARY
360
473
102
}
330
2A
100
AcDbVisualStyle
  2
ColorChange
 70
    16
 71
     2
 72
     2
 73
     3
 90
        0
 40
-0.6
 41
-30.0
 62
     5
 63
     8
 74
     1
 91
        4
 64
     7
 65
   257
 75
     1
175
     1
 42
1.0
 92
        8
 66
     8
 43
1.0
 76
     1
 77
     6
 78
     2
 67
     7
 79
     5
170
     0
171
     0
290
     0
174
     0
 93
        1
 44
0.0
173
     0
291
     1
 45
0.0
1001
ACAD
1000
AcDbSavedByObjectVersion
1070
     0
  0
VISUALSTYLE
  5
34
102
{ACAD_REACTORS
330
2A
102
}
102
{ACAD_XDICTIONARY
360
467
102
}
330
2A
100
AcDbVisualStyle
  2
Conceptual
 70
     9
 71
     3
 72
     2
 73
     0
 90
        0
 40
-0.6
 41
-30.0
 62
     5
 63
     7
 74
     2
 91
        2
 64
     7
 65
   257
 75
     1
175
     1
 42
40.0
 92
        8
 66
     7
 43
1.0
 76
     1
 77
     6
 78
     2
 67
     7
 79
     3
170
     0
171
     0
290
     0
174
     0
 93
        1
 44
0.0
173
     0
291
     0
 45
0.0
1001
ACAD
1000
AcDbSavedByObjectVersion
1070
     0
  0
VISUALSTYLE
  5
35
102
{ACAD_REACTORS
330
2A
102
}
102
{ACAD_XDICTIONARY
360
469
102
}
330
2A
100
AcDbVisualStyle
  2
Dim
 70
    11
 71
     2
 72
     2
 73
     0
 90
        0
 40
-0.6
 41
-30.0
 62
     5
 63
     7
 74
     1
 91
        4
 64
     7
 65
   257
 75
     1
175
     1
 42
1.0
 92
        8
 66
     7
 43
1.0
 76
     1
 77
     6
 78
     2
 67
     7
 79
     5
170
     0
171
     0
290
     0
174
     0
 93
        1
 44
-50.0
173
     0
291
     1
 45
0.0
1001
ACAD
1000
AcDbSavedByObjectVersion
1070
     0
  0
VISUALSTYLE
  5
39
102
{ACAD_REACTORS
330
2A
102
}
102
{ACAD_XDICTIONARY
360
471
102
}
330
2A
100
AcDbVisualStyle
  2
Facepattern
 70
    15
 71
     2
 72
     2
 73
     0
 90
        0
 40
-0.6
 41
-30.0
 62
     5
 63
     7
 74
     1
 91
        4
 64
     7
 65
   257
 75
     1
175
     1
 42
1.0
 92
        8
 66
     7
 43
1.0
 76
     1
 77
     6
 78
     2
 67
     7
 79
     5
170
     0
171
     0
290
     0
174
     0
 93
        1
 44
0.0
173
     0
291
     1
 45
0.0
1001
ACAD
1000
AcDbSavedByObjectVersion
1070
     0
  0
VISUALSTYLE
  5
2B
102
{ACAD_REACTORS
330
2A
102
}
102
{ACAD_XDICTIONARY
360
455
102
}
330
2A
100
AcDbVisualStyle
  2
Flat
 70
     0
 71
     2
 72
     1
 73
     1
 90
        2
 40
-0.6
 41
30.0
 62
     5
 63
     7
 74
     0
 91
        4
 64
     7
 65
   257
 75
     1
175
     1
 42
1.0
 92
        8
 66
     7
 43
1.0
 76
     1
 77
     6
 78
     2
 67
     7
 79
     5
170
     0
171
     0
290
     0
174
     0
 93
       13
 44
0.0
173
     0
291
     1
 45
0.0
1001
ACAD
1000
AcDbSavedByObjectVersion
1070
     0
  0
VISUALSTYLE
  5
2C
102
{ACAD_REACTORS
330
2A
102
}
102
{ACAD_XDICTIONARY
360
457
102
}
330
2A
100
AcDbVisualStyle
  2
FlatWithEdges
 70
     1
 71
     2
 72
     1
 73
     1
 90
        2
 40
-0.6
 41
30.0
 62
     5
 63
     7
 74
     1
 91
        4
 64
     7
 65
   257
 75
     1
175
     1
 42
1.0
 92
        0
 66
   257
 43
1.0
 76
     1
 77
     6
 78
     2
 67
     7
 79
     5
170
     0
171
     0
290
     0
174
     0
 93
       13
 44
0.0
173
     0
291
     1
 45
0.0
1001
ACAD
1000
AcDbSavedByObjectVersion
1070
     0
  0
VISUALSTYLE
  5
2D
102
{ACAD_REACTORS
330
2A
102
}
102
{ACAD_XDICTIONARY
360
459
102
}
330
2A
100
AcDbVisualStyle
  2
Gouraud
 70
     2
 71
     2
 72
     2
 73
     1
 90
        2
 40
-0.6
 41
30.0
 62
     5
 63
     7
 74
     0
 91
        4
 64
     7
 65
   257
 75
     1
175
     1
 42
1.0
 92
        0
 66
     7
 43
1.0
 76
     1
 77
     6
 78
     2
 67
     7
 79
     5
170
     0
171
     0
290
     0
174
     0
 93
       13
 44
0.0
173
     0
291
     1
 45
0.0
1001
ACAD
1000
AcDbSavedByObjectVersion
1070
     0
  0
VISUALSTYLE
  5
2E
102
{ACAD_REACTORS
330
2A
102
}
102
{ACAD_XDICTIONARY
360
45B
102
}
330
2A
100
AcDbVisualStyle
  2
GouraudWithEdges
 70
     3
 71
     2
 72
     2
 73
     1
 90
        2
 40
-0.6
 41
30.0
 62
     5
 63
     7
 74
     1
 91
        4
 64
     7
 65
   257
 75
     1
175
     1
 42
1.0
 92
        0
 66
   257
 43
1.0
 76
     1
 77
     6
 78
     2
 67
     7
 79
     5
170
     0
171
     0
290
     0
174
     0
 93
       13
 44
0.0
173
     0
291
     1
 45
0.0
1001
ACAD
1000
AcDbSavedByObjectVersion
1070
     0
  0
VISUALSTYLE
  5
38
102
{ACAD_REACTORS
330
2A
102
}
102
{ACAD_XDICTIONARY
360
46F
102
}
330
2A
100
AcDbVisualStyle
  2
Linepattern
 70
    14
 71
     2
 72
     2
 73
     0
 90
        0
 40
-0.6
 41
-30.0
 62
     5
 63
     7
 74
     1
 91
        4
 64
     7
 65
   257
 75
     7
175
     7
 42
1.0
 92
        8
 66
     7
 43
1.0
 76
     1
 77
     6
 78
     2
 67
     7
 79
     5
170
     0
171
     0
290
     0
174
     0
 93
        1
 44
0.0
173
     0
291
     1
 45
0.0
1001
ACAD
1000
AcDbSavedByObjectVersion
1070
     0
  0
VISUALSTYLE
  5
33
102
{ACAD_REACTORS
330
2A
102
}
102
{ACAD_XDICTIONARY
360
465
102
}
330
2A
100
AcDbVisualStyle
  2
Realistic
 70
     8
 71
     2
 72
     2
 73
     0
 90
        0
 40
-0.6
 41
-30.0
 62
     5
 63
     7
 74
     1
 91
        0
 64
     7
 65
   257
 75
     1
175
     1
 42
1.0
 92
        8
 66
     8
 43
1.0
 76
     1
 77
     6
 78
     2
 67
     7
 79
     5
170
     0
171
     0
290
     0
174
     0
 93
       13
 44
0.0
173
     0
291
     0
 45
0.0
1001
ACAD
1000
AcDbSavedByObjectVersion
1070
     0
  0
VISUALSTYLE
  5
37
102
{ACAD_REACTORS
330
2A
102
}
102
{ACAD_XDICTIONARY
360
46D
102
}
330
2A
100
AcDbVisualStyle
  2
Thicken
 70
    13
 71
     2
 72
     2
 73
     0
 90
        0
 40
-0.6
 41
-30.0
 62
     5
 63
     7
 74
     1
 91
        4
 64
     7
 65
   257
 75
     1
175
     1
 42
1.0
 92
       12
 66
     7
 43
1.0
 76
     1
 77
     6
 78
     2
 67
     7
 79
     5
170
     0
171
     0
290
     0
174
     0
 93
        1
 44
0.0
173
     0
291
     1
 45
0.0
1001
ACAD
1000
AcDbSavedByObjectVersion
1070
     0
  0
DICTIONARYVAR
  5
453
102
{ACAD_REACTORS
330
450
102
}
330
450
100
DictionaryVariables
280
     0
  1
2
  0
DICTIONARYVAR
  5
454
102
{ACAD_REACTORS
330
450
102
}
330
450
100
DictionaryVariables
280
     0
  1
1
  0
DICTIONARY
  5
477
330
3D
100
AcDbDictionary
280
     1
281
     1
  3
ACAD_XREC_ROUNDTRIP
360
478
  0
DICTIONARY
  5
475
330
3C
100
AcDbDictionary
280
     1
281
     1
  3
ACAD_XREC_ROUNDTRIP
360
476
  0
DICTIONARY
  5
479
330
3E
100
AcDbDictionary
280
     1
281
     1
  3
ACAD_XREC_ROUNDTRIP
360
47A
  0
DICTIONARY
  5
45D
330
2F
100
AcDbDictionary
280
     1
281
     1
  3
ACAD_XREC_ROUNDTRIP
360
45E
  0
DICTIONARY
  5
461
330
31
100
AcDbDictionary
280
     1
281
     1
  3
ACAD_XREC_ROUNDTRIP
360
462
  0
DICTIONARY
  5
45F
330
30
100
AcDbDictionary
280
     1
281
     1
  3
ACAD_XREC_ROUNDTRIP
360
460
  0
DICTIONARY
  5
463
330
32
100
AcDbDictionary
280
     1
281
     1
  3
ACAD_XREC_ROUNDTRIP
360
464
  0
DICTIONARY
  5
46B
330
36
100
AcDbDictionary
280
     1
281
     1
  3
ACAD_XREC_ROUNDTRIP
360
46C
  0
DICTIONARY
  5
473
330
3A
100
AcDbDictionary
280
     1
281
     1
  3
ACAD_XREC_ROUNDTRIP
360
474
  0
DICTIONARY
  5
467
330
34
100
AcDbDictionary
280
     1
281
     1
  3
ACAD_XREC_ROUNDTRIP
360
468
  0
DICTIONARY
  5
469
330
35
100
AcDbDictionary
280
     1
281
     1
  3
ACAD_XREC_ROUNDTRIP
360
46A
  0
DICTIONARY
  5
471
330
39
100
AcDbDictionary
280
     1
281
     1
  3
ACAD_XREC_ROUNDTRIP
360
472
  0
DICTIONARY
  5
455
330
2B
100
AcDbDictionary
280
     1
281
     1
  3
ACAD_XREC_ROUNDTRIP
360
456
  0
DICTIONARY
  5
457
330
2C
100
AcDbDictionary
280
     1
281
     1
  3
ACAD_XREC_ROUNDTRIP
360
458
  0
DICTIONARY
  5
459
330
2D
100
AcDbDictionary
280
     1
281
     1
  3
ACAD_XREC_ROUNDTRIP
360
45A
  0
DICTIONARY
  5
45B
330
2E
100
AcDbDictionary
280
     1
281
     1
  3
ACAD_XREC_ROUNDTRIP
360
45C
  0
DICTIONARY
  5
46F
330
38
100
AcDbDictionary
280
     1
281
     1
  3
ACAD_XREC_ROUNDTRIP
360
470
  0
DICTIONARY
  5
465
330
33
100
AcDbDictionary
280
     1
281
     1
  3
ACAD_XREC_ROUNDTRIP
360
466
  0
DICTIONARY
  5
46D
330
37
100
AcDbDictionary
280
     1
281
     1
  3
ACAD_XREC_ROUNDTRIP
360
46E
  0
XRECORD
  5
478
102
{ACAD_REACTORS
330
477
102
}
330
477
100
AcDbXrecord
280
     1
102
MATERIAL
148
0.0
149
0.0
149
0.0
 93
        0
 94
      127
282
     0
 72
     1
 77
     1
171
     1
175
     1
179
     1
273
     0
  0
XRECORD
  5
476
102
{ACAD_REACTORS
330
475
102
}
330
475
100
AcDbXrecord
280
     1
102
MATERIAL
148
0.0
149
0.0
149
0.0
 93
        0
 94
      127
282
     0
 72
     1
 77
     1
171
     1
175
     1
179
     1
273
     0
  0
XRECORD
  5
47A
102
{ACAD_REACTORS
330
479
102
}
330
479
100
AcDbXrecord
280
     1
102
MATERIAL
148
0.0
149
0.0
149
0.0
 93
        0
 94
      127
282
     0
 72
     1
 77
     1
171
     1
175
     1
179
     1
273
     0
  0
XRECORD
  5
45E
102
{ACAD_REACTORS
330
45D
102
}
330
45D
100
AcDbXrecord
280
     1
102
RTVSPropertyOp0
 70
     1
102
RTVSPropertyOp1
 70
     1
102
RTVSPropertyOp2
 70
     1
102
RTVSPropertyOp3
 70
     1
102
RTVSPropertyOp4
 70
     1
102
RTVSPropertyOp5
 70
     1
102
RTVSPropertyOp6
 70
     1
102
RTVSPropertyOp7
 70
     1
102
RTVSPropertyOp8
 70
     1
102
RTVSPropertyOp9
 70
     1
102
RTVSPropertyOp10
 70
     1
102
RTVSPropertyOp11
 70
     1
102
RTVSPropertyOp12
 70
     1
102
RTVSPropertyOp13
 70
     1
102
RTVSPropertyOp14
 70
     1
102
RTVSPropertyOp15
 70
     1
102
RTVSPropertyOp16
 70
     1
102
RTVSPropertyOp17
 70
     1
102
RTVSPropertyOp18
 70
     1
102
RTVSPropertyOp19
 70
     1
102
RTVSPropertyOp20
 70
     1
102
RTVSPropertyOp21
 70
     1
102
RTVSPropertyOp22
 70
     1
102
RTVSPropertyOp23
 70
     1
102
RTVSPropertyOp24
 70
     1
102
RTVSPropertyOp25
 70
     1
102
RTVSPropertyOp26
 70
     1
102
RTVSPropertyOp27
 70
     1
102
RTVSPropertyOp28
 70
     1
102
RTVSPropertyOp29
 70
     1
102
RTVSPropertyOp30
 70
     1
102
RTVSPropertyOp31
 70
     1
102
RTVSPropertyOp32
 70
     1
  0
XRECORD
  5
462
102
{ACAD_REACTORS
330
461
102
}
330
461
100
AcDbXrecord
280
     1
102
RTVSPropertyOp0
 70
     1
102
RTVSPropertyOp1
 70
     1
102
RTVSPropertyOp2
 70
     1
102
RTVSPropertyOp3
 70
     1
102
RTVSPropertyOp4
 70
     1
102
RTVSPropertyOp5
 70
     1
102
RTVSPropertyOp6
 70
     1
102
RTVSPropertyOp7
 70
     1
102
RTVSPropertyOp8
 70
     1
102
RTVSPropertyOp9
 70
     1
102
RTVSPropertyOp10
 70
     1
102
RTVSPropertyOp11
 70
     1
102
RTVSPropertyOp12
 70
     1
102
RTVSPropertyOp13
 70
     1
102
RTVSPropertyOp14
 70
     1
102
RTVSPropertyOp15
 70
     1
102
RTVSPropertyOp16
 70
     1
102
RTVSPropertyOp17
 70
     1
102
RTVSPropertyOp18
 70
     1
102
RTVSPropertyOp19
 70
     1
102
RTVSPropertyOp20
 70
     1
102
RTVSPropertyOp21
 70
     1
102
RTVSPropertyOp22
 70
     1
102
RTVSPropertyOp23
 70
     1
102
RTVSPropertyOp24
 70
     1
102
RTVSPropertyOp25
 70
     1
102
RTVSPropertyOp26
 70
     1
102
RTVSPropertyOp27
 70
     1
102
RTVSPropertyOp28
 70
     1
102
RTVSPropertyOp29
 70
     1
102
RTVSPropertyOp30
 70
     1
102
RTVSPropertyOp31
 70
     1
102
RTVSPropertyOp32
 70
     1
  0
XRECORD
  5
460
102
{ACAD_REACTORS
330
45F
102
}
330
45F
100
AcDbXrecord
280
     1
102
RTVSPropertyOp0
 70
     1
102
RTVSPropertyOp1
 70
     1
102
RTVSPropertyOp2
 70
     1
102
RTVSPropertyOp3
 70
     1
102
RTVSPropertyOp4
 70
     1
102
RTVSPropertyOp5
 70
     1
102
RTVSPropertyOp6
 70
     1
102
RTVSPropertyOp7
 70
     1
102
RTVSPropertyOp8
 70
     1
102
RTVSPropertyOp9
 70
     1
102
RTVSPropertyOp10
 70
     1
102
RTVSPropertyOp11
 70
     1
102
RTVSPropertyOp12
 70
     1
102
RTVSPropertyOp13
 70
     1
102
RTVSPropertyOp14
 70
     1
102
RTVSPropertyOp15
 70
     1
102
RTVSPropertyOp16
 70
     1
102
RTVSPropertyOp17
 70
     1
102
RTVSPropertyOp18
 70
     1
102
RTVSPropertyOp19
 70
     1
102
RTVSPropertyOp20
 70
     1
102
RTVSPropertyOp21
 70
     1
102
RTVSPropertyOp22
 70
     1
102
RTVSPropertyOp23
 70
     1
102
RTVSPropertyOp24
 70
     1
102
RTVSPropertyOp25
 70
     1
102
RTVSPropertyOp26
 70
     1
102
RTVSPropertyOp27
 70
     1
102
RTVSPropertyOp28
 70
     1
102
RTVSPropertyOp29
 70
     1
102
RTVSPropertyOp30
 70
     1
102
RTVSPropertyOp31
 70
     1
102
RTVSPropertyOp32
 70
     1
  0
XRECORD
  5
464
102
{ACAD_REACTORS
330
463
102
}
330
463
100
AcDbXrecord
280
     1
102
RTVSPropertyOp0
 70
     1
102
RTVSPropertyOp1
 70
     1
102
RTVSPropertyOp2
 70
     1
102
RTVSPropertyOp3
 70
     1
102
RTVSPropertyOp4
 70
     1
102
RTVSPropertyOp5
 70
     1
102
RTVSPropertyOp6
 70
     1
102
RTVSPropertyOp7
 70
     1
102
RTVSPropertyOp8
 70
     1
102
RTVSPropertyOp9
 70
     1
102
RTVSPropertyOp10
 70
     1
102
RTVSPropertyOp11
 70
     1
102
RTVSPropertyOp12
 70
     1
102
RTVSPropertyOp13
 70
     1
102
RTVSPropertyOp14
 70
     1
102
RTVSPropertyOp15
 70
     1
102
RTVSPropertyOp16
 70
     1
102
RTVSPropertyOp17
 70
     1
102
RTVSPropertyOp18
 70
     1
102
RTVSPropertyOp19
 70
     1
102
RTVSPropertyOp20
 70
     1
102
RTVSPropertyOp21
 70
     1
102
RTVSPropertyOp22
 70
     1
102
RTVSPropertyOp23
 70
     1
102
RTVSPropertyOp24
 70
     1
102
RTVSPropertyOp25
 70
     1
102
RTVSPropertyOp26
 70
     1
102
RTVSPropertyOp27
 70
     1
102
RTVSPropertyOp28
 70
     1
102
RTVSPropertyOp29
 70
     1
102
RTVSPropertyOp30
 70
     1
102
RTVSPropertyOp31
 70
     1
102
RTVSPropertyOp32
 70
     1
  0
XRECORD
  5
46C
102
{ACAD_REACTORS
330
46B
102
}
330
46B
100
AcDbXrecord
280
     1
102
RTVSPropertyOp0
 70
     1
102
RTVSPropertyOp1
 70
     1
102
RTVSPropertyOp2
 70
     1
102
RTVSPropertyOp3
 70
     1
102
RTVSPropertyOp4
 70
     1
102
RTVSPropertyOp5
 70
     1
102
RTVSPropertyOp6
 70
     1
102
RTVSPropertyOp7
 70
     1
102
RTVSPropertyOp8
 70
     1
102
RTVSPropertyOp9
 70
     1
102
RTVSPropertyOp10
 70
     1
102
RTVSPropertyOp11
 70
     1
102
RTVSPropertyOp12
 70
     1
102
RTVSPropertyOp13
 70
     1
102
RTVSPropertyOp14
 70
     1
102
RTVSPropertyOp15
 70
     1
102
RTVSPropertyOp16
 70
     1
102
RTVSPropertyOp17
 70
     1
102
RTVSPropertyOp18
 70
     1
102
RTVSPropertyOp19
 70
     1
102
RTVSPropertyOp20
 70
     1
102
RTVSPropertyOp21
 70
     1
102
RTVSPropertyOp22
 70
     1
102
RTVSPropertyOp23
 70
     1
102
RTVSPropertyOp24
 70
     1
102
RTVSPropertyOp25
 70
     1
102
RTVSPropertyOp26
 70
     1
102
RTVSPropertyOp27
 70
     1
102
RTVSPropertyOp28
 70
     1
102
RTVSPropertyOp29
 70
     1
102
RTVSPropertyOp30
 70
     1
102
RTVSPropertyOp31
 70
     1
102
RTVSPropertyOp32
 70
     1
  0
XRECORD
  5
474
102
{ACAD_REACTORS
330
473
102
}
330
473
100
AcDbXrecord
280
     1
102
RTVSPropertyOp0
 70
     1
102
RTVSPropertyOp1
 70
     1
102
RTVSPropertyOp2
 70
     1
102
RTVSPropertyOp3
 70
     1
102
RTVSPropertyOp4
 70
     1
102
RTVSPropertyOp5
 70
     1
102
RTVSPropertyOp6
 70
     1
102
RTVSPropertyOp7
 70
     1
102
RTVSPropertyOp8
 70
     1
102
RTVSPropertyOp9
 70
     1
102
RTVSPropertyOp10
 70
     1
102
RTVSPropertyOp11
 70
     1
102
RTVSPropertyOp12
 70
     1
102
RTVSPropertyOp13
 70
     1
102
RTVSPropertyOp14
 70
     1
102
RTVSPropertyOp15
 70
     1
102
RTVSPropertyOp16
 70
     1
102
RTVSPropertyOp17
 70
     1
102
RTVSPropertyOp18
 70
     1
102
RTVSPropertyOp19
 70
     1
102
RTVSPropertyOp20
 70
     1
102
RTVSPropertyOp21
 70
     1
102
RTVSPropertyOp22
 70
     1
102
RTVSPropertyOp23
 70
     1
102
RTVSPropertyOp24
 70
     1
102
RTVSPropertyOp25
 70
     1
102
RTVSPropertyOp26
 70
     1
102
RTVSPropertyOp27
 70
     1
102
RTVSPropertyOp28
 70
     1
102
RTVSPropertyOp29
 70
     1
102
RTVSPropertyOp30
 70
     1
102
RTVSPropertyOp31
 70
     1
102
RTVSPropertyOp32
 70
     1
  0
XRECORD
  5
468
102
{ACAD_REACTORS
330
467
102
}
330
467
100
AcDbXrecord
280
     1
102
RTVSPropertyOp0
 70
     1
102
RTVSPropertyOp1
 70
     1
102
RTVSPropertyOp2
 70
     1
102
RTVSPropertyOp3
 70
     1
102
RTVSPropertyOp4
 70
     1
102
RTVSPropertyOp5
 70
     1
102
RTVSPropertyOp6
 70
     1
102
RTVSPropertyOp7
 70
     1
102
RTVSPropertyOp8
 70
     1
102
RTVSPropertyOp9
 70
     1
102
RTVSPropertyOp10
 70
     1
102
RTVSPropertyOp11
 70
     1
102
RTVSPropertyOp12
 70
     1
102
RTVSPropertyOp13
 70
     1
102
RTVSPropertyOp14
 70
     1
102
RTVSPropertyOp15
 70
     1
102
RTVSPropertyOp16
 70
     1
102
RTVSPropertyOp17
 70
     1
102
RTVSPropertyOp18
 70
     1
102
RTVSPropertyOp19
 70
     1
102
RTVSPropertyOp20
 70
     1
102
RTVSPropertyOp21
 70
     1
102
RTVSPropertyOp22
 70
     1
102
RTVSPropertyOp23
 70
     1
102
RTVSPropertyOp24
 70
     1
102
RTVSPropertyOp25
 70
     1
102
RTVSPropertyOp26
 70
     1
102
RTVSPropertyOp27
 70
     1
102
RTVSPropertyOp28
 70
     1
102
RTVSPropertyOp29
 70
     1
102
RTVSPropertyOp30
 70
     1
102
RTVSPropertyOp31
 70
     1
102
RTVSPropertyOp32
 70
     1
  0
XRECORD
  5
46A
102
{ACAD_REACTORS
330
469
102
}
330
469
100
AcDbXrecord
280
     1
102
RTVSPropertyOp0
 70
     1
102
RTVSPropertyOp1
 70
     1
102
RTVSPropertyOp2
 70
     1
102
RTVSPropertyOp3
 70
     1
102
RTVSPropertyOp4
 70
     1
102
RTVSPropertyOp5
 70
     1
102
RTVSPropertyOp6
 70
     1
102
RTVSPropertyOp7
 70
     1
102
RTVSPropertyOp8
 70
     1
102
RTVSPropertyOp9
 70
     1
102
RTVSPropertyOp10
 70
     1
102
RTVSPropertyOp11
 70
     1
102
RTVSPropertyOp12
 70
     1
102
RTVSPropertyOp13
 70
     1
102
RTVSPropertyOp14
 70
     1
102
RTVSPropertyOp15
 70
     1
102
RTVSPropertyOp16
 70
     1
102
RTVSPropertyOp17
 70
     1
102
RTVSPropertyOp18
 70
     1
102
RTVSPropertyOp19
 70
     1
102
RTVSPropertyOp20
 70
     1
102
RTVSPropertyOp21
 70
     1
102
RTVSPropertyOp22
 70
     1
102
RTVSPropertyOp23
 70
     1
102
RTVSPropertyOp24
 70
     1
102
RTVSPropertyOp25
 70
     1
102
RTVSPropertyOp26
 70
     1
102
RTVSPropertyOp27
 70
     1
102
RTVSPropertyOp28
 70
     1
102
RTVSPropertyOp29
 70
     1
102
RTVSPropertyOp30
 70
     1
102
RTVSPropertyOp31
 70
     1
102
RTVSPropertyOp32
 70
     1
  0
XRECORD
  5
472
102
{ACAD_REACTORS
330
471
102
}
330
471
100
AcDbXrecord
280
     1
102
RTVSPropertyOp0
 70
     1
102
RTVSPropertyOp1
 70
     1
102
RTVSPropertyOp2
 70
     1
102
RTVSPropertyOp3
 70
     1
102
RTVSPropertyOp4
 70
     1
102
RTVSPropertyOp5
 70
     1
102
RTVSPropertyOp6
 70
     1
102
RTVSPropertyOp7
 70
     1
102
RTVSPropertyOp8
 70
     1
102
RTVSPropertyOp9
 70
     1
102
RTVSPropertyOp10
 70
     1
102
RTVSPropertyOp11
 70
     1
102
RTVSPropertyOp12
 70
     1
102
RTVSPropertyOp13
 70
     1
102
RTVSPropertyOp14
 70
     1
102
RTVSPropertyOp15
 70
     1
102
RTVSPropertyOp16
 70
     1
102
RTVSPropertyOp17
 70
     1
102
RTVSPropertyOp18
 70
     1
102
RTVSPropertyOp19
 70
     1
102
RTVSPropertyOp20
 70
     1
102
RTVSPropertyOp21
 70
     1
102
RTVSPropertyOp22
 70
     1
102
RTVSPropertyOp23
 70
     1
102
RTVSPropertyOp24
 70
     1
102
RTVSPropertyOp25
 70
     1
102
RTVSPropertyOp26
 70
     1
102
RTVSPropertyOp27
 70
     1
102
RTVSPropertyOp28
 70
     1
102
RTVSPropertyOp29
 70
     1
102
RTVSPropertyOp30
 70
     1
102
RTVSPropertyOp31
 70
     1
102
RTVSPropertyOp32
 70
     1
  0
XRECORD
  5
456
102
{ACAD_REACTORS
330
455
102
}
330
455
100
AcDbXrecord
280
     1
102
RTVSPropertyOp0
 70
     1
102
RTVSPropertyOp1
 70
     1
102
RTVSPropertyOp2
 70
     1
102
RTVSPropertyOp3
 70
     1
102
RTVSPropertyOp4
 70
     1
102
RTVSPropertyOp5
 70
     1
102
RTVSPropertyOp6
 70
     1
102
RTVSPropertyOp7
 70
     1
102
RTVSPropertyOp8
 70
     1
102
RTVSPropertyOp9
 70
     1
102
RTVSPropertyOp10
 70
     1
102
RTVSPropertyOp11
 70
     1
102
RTVSPropertyOp12
 70
     1
102
RTVSPropertyOp13
 70
     1
102
RTVSPropertyOp14
 70
     1
102
RTVSPropertyOp15
 70
     1
102
RTVSPropertyOp16
 70
     1
102
RTVSPropertyOp17
 70
     1
102
RTVSPropertyOp18
 70
     1
102
RTVSPropertyOp19
 70
     1
102
RTVSPropertyOp20
 70
     1
102
RTVSPropertyOp21
 70
     1
102
RTVSPropertyOp22
 70
     1
102
RTVSPropertyOp23
 70
     1
102
RTVSPropertyOp24
 70
     1
102
RTVSPropertyOp25
 70
     1
102
RTVSPropertyOp26
 70
     1
102
RTVSPropertyOp27
 70
     1
102
RTVSPropertyOp28
 70
     1
102
RTVSPropertyOp29
 70
     1
102
RTVSPropertyOp30
 70
     1
102
RTVSPropertyOp31
 70
     1
102
RTVSPropertyOp32
 70
     1
  0
XRECORD
  5
458
102
{ACAD_REACTORS
330
457
102
}
330
457
100
AcDbXrecord
280
     1
102
RTVSPropertyOp0
 70
     1
102
RTVSPropertyOp1
 70
     1
102
RTVSPropertyOp2
 70
     1
102
RTVSPropertyOp3
 70
     1
102
RTVSPropertyOp4
 70
     1
102
RTVSPropertyOp5
 70
     1
102
RTVSPropertyOp6
 70
     1
102
RTVSPropertyOp7
 70
     1
102
RTVSPropertyOp8
 70
     1
102
RTVSPropertyOp9
 70
     1
102
RTVSPropertyOp10
 70
     1
102
RTVSPropertyOp11
 70
     1
102
RTVSPropertyOp12
 70
     1
102
RTVSPropertyOp13
 70
     1
102
RTVSPropertyOp14
 70
     1
102
RTVSPropertyOp15
 70
     1
102
RTVSPropertyOp16
 70
     1
102
RTVSPropertyOp17
 70
     1
102
RTVSPropertyOp18
 70
     1
102
RTVSPropertyOp19
 70
     1
102
RTVSPropertyOp20
 70
     1
102
RTVSPropertyOp21
 70
     1
102
RTVSPropertyOp22
 70
     1
102
RTVSPropertyOp23
 70
     1
102
RTVSPropertyOp24
 70
     1
102
RTVSPropertyOp25
 70
     1
102
RTVSPropertyOp26
 70
     1
102
RTVSPropertyOp27
 70
     1
102
RTVSPropertyOp28
 70
     1
102
RTVSPropertyOp29
 70
     1
102
RTVSPropertyOp30
 70
     1
102
RTVSPropertyOp31
 70
     1
102
RTVSPropertyOp32
 70
     1
  0
XRECORD
  5
45A
102
{ACAD_REACTORS
330
459
102
}
330
459
100
AcDbXrecord
280
     1
102
RTVSPropertyOp0
 70
     1
102
RTVSPropertyOp1
 70
     1
102
RTVSPropertyOp2
 70
     1
102
RTVSPropertyOp3
 70
     1
102
RTVSPropertyOp4
 70
     1
102
RTVSPropertyOp5
 70
     1
102
RTVSPropertyOp6
 70
     1
102
RTVSPropertyOp7
 70
     1
102
RTVSPropertyOp8
 70
     1
102
RTVSPropertyOp9
 70
     1
102
RTVSPropertyOp10
 70
     1
102
RTVSPropertyOp11
 70
     1
102
RTVSPropertyOp12
 70
     1
102
RTVSPropertyOp13
 70
     1
102
RTVSPropertyOp14
 70
     1
102
RTVSPropertyOp15
 70
     1
102
RTVSPropertyOp16
 70
     1
102
RTVSPropertyOp17
 70
     1
102
RTVSPropertyOp18
 70
     1
102
RTVSPropertyOp19
 70
     1
102
RTVSPropertyOp20
 70
     1
102
RTVSPropertyOp21
 70
     1
102
RTVSPropertyOp22
 70
     1
102
RTVSPropertyOp23
 70
     1
102
RTVSPropertyOp24
 70
     1
102
RTVSPropertyOp25
 70
     1
102
RTVSPropertyOp26
 70
     1
102
RTVSPropertyOp27
 70
     1
102
RTVSPropertyOp28
 70
     1
102
RTVSPropertyOp29
 70
     1
102
RTVSPropertyOp30
 70
     1
102
RTVSPropertyOp31
 70
     1
102
RTVSPropertyOp32
 70
     1
  0
XRECORD
  5
45C
102
{ACAD_REACTORS
330
45B
102
}
330
45B
100
AcDbXrecord
280
     1
102
RTVSPropertyOp0
 70
     1
102
RTVSPropertyOp1
 70
     1
102
RTVSPropertyOp2
 70
     1
102
RTVSPropertyOp3
 70
     1
102
RTVSPropertyOp4
 70
     1
102
RTVSPropertyOp5
 70
     1
102
RTVSPropertyOp6
 70
     1
102
RTVSPropertyOp7
 70
     1
102
RTVSPropertyOp8
 70
     1
102
RTVSPropertyOp9
 70
     1
102
RTVSPropertyOp10
 70
     1
102
RTVSPropertyOp11
 70
     1
102
RTVSPropertyOp12
 70
     1
102
RTVSPropertyOp13
 70
     1
102
RTVSPropertyOp14
 70
     1
102
RTVSPropertyOp15
 70
     1
102
RTVSPropertyOp16
 70
     1
102
RTVSPropertyOp17
 70
     1
102
RTVSPropertyOp18
 70
     1
102
RTVSPropertyOp19
 70
     1
102
RTVSPropertyOp20
 70
     1
102
RTVSPropertyOp21
 70
     1
102
RTVSPropertyOp22
 70
     1
102
RTVSPropertyOp23
 70
     1
102
RTVSPropertyOp24
 70
     1
102
RTVSPropertyOp25
 70
     1
102
RTVSPropertyOp26
 70
     1
102
RTVSPropertyOp27
 70
     1
102
RTVSPropertyOp28
 70
     1
102
RTVSPropertyOp29
 70
     1
102
RTVSPropertyOp30
 70
     1
102
RTVSPropertyOp31
 70
     1
102
RTVSPropertyOp32
 70
     1
  0
XRECORD
  5
470
102
{ACAD_REACTORS
330
46F
102
}
330
46F
100
AcDbXrecord
280
     1
102
RTVSPropertyOp0
 70
     1
102
RTVSPropertyOp1
 70
     1
102
RTVSPropertyOp2
 70
     1
102
RTVSPropertyOp3
 70
     1
102
RTVSPropertyOp4
 70
     1
102
RTVSPropertyOp5
 70
     1
102
RTVSPropertyOp6
 70
     1
102
RTVSPropertyOp7
 70
     1
102
RTVSPropertyOp8
 70
     1
102
RTVSPropertyOp9
 70
     1
102
RTVSPropertyOp10
 70
     1
102
RTVSPropertyOp11
 70
     1
102
RTVSPropertyOp12
 70
     1
102
RTVSPropertyOp13
 70
     1
102
RTVSPropertyOp14
 70
     1
102
RTVSPropertyOp15
 70
     1
102
RTVSPropertyOp16
 70
     1
102
RTVSPropertyOp17
 70
     1
102
RTVSPropertyOp18
 70
     1
102
RTVSPropertyOp19
 70
     1
102
RTVSPropertyOp20
 70
     1
102
RTVSPropertyOp21
 70
     1
102
RTVSPropertyOp22
 70
     1
102
RTVSPropertyOp23
 70
     1
102
RTVSPropertyOp24
 70
     1
102
RTVSPropertyOp25
 70
     1
102
RTVSPropertyOp26
 70
     1
102
RTVSPropertyOp27
 70
     1
102
RTVSPropertyOp28
 70
     1
102
RTVSPropertyOp29
 70
     1
102
RTVSPropertyOp30
 70
     1
102
RTVSPropertyOp31
 70
     1
102
RTVSPropertyOp32
 70
     1
  0
XRECORD
  5
466
102
{ACAD_REACTORS
330
465
102
}
330
465
100
AcDbXrecord
280
     1
102
RTVSPropertyOp0
 70
     1
102
RTVSPropertyOp1
 70
     1
102
RTVSPropertyOp2
 70
     1
102
RTVSPropertyOp3
 70
     1
102
RTVSPropertyOp4
 70
     1
102
RTVSPropertyOp5
 70
     1
102
RTVSPropertyOp6
 70
     1
102
RTVSPropertyOp7
 70
     1
102
RTVSPropertyOp8
 70
     1
102
RTVSPropertyOp9
 70
     1
102
RTVSPropertyOp10
 70
     1
102
RTVSPropertyOp11
 70
     1
102
RTVSPropertyOp12
 70
     1
102
RTVSPropertyOp13
 70
     1
102
RTVSPropertyOp14
 70
     1
102
RTVSPropertyOp15
 70
     1
102
RTVSPropertyOp16
 70
     1
102
RTVSPropertyOp17
 70
     1
102
RTVSPropertyOp18
 70
     1
102
RTVSPropertyOp19
 70
     1
102
RTVSPropertyOp20
 70
     1
102
RTVSPropertyOp21
 70
     1
102
RTVSPropertyOp22
 70
     1
102
RTVSPropertyOp23
 70
     1
102
RTVSPropertyOp24
 70
     1
102
RTVSPropertyOp25
 70
     1
102
RTVSPropertyOp26
 70
     1
102
RTVSPropertyOp27
 70
     1
102
RTVSPropertyOp28
 70
     1
102
RTVSPropertyOp29
 70
     1
102
RTVSPropertyOp30
 70
     1
102
RTVSPropertyOp31
 70
     1
102
RTVSPropertyOp32
 70
     1
  0
XRECORD
  5
46E
102
{ACAD_REACTORS
330
46D
102
}
330
46D
100
AcDbXrecord
280
     1
102
RTVSPropertyOp0
 70
     1
102
RTVSPropertyOp1
 70
     1
102
RTVSPropertyOp2
 70
     1
102
RTVSPropertyOp3
 70
     1
102
RTVSPropertyOp4
 70
     1
102
RTVSPropertyOp5
 70
     1
102
RTVSPropertyOp6
 70
     1
102
RTVSPropertyOp7
 70
     1
102
RTVSPropertyOp8
 70
     1
102
RTVSPropertyOp9
 70
     1
102
RTVSPropertyOp10
 70
     1
102
RTVSPropertyOp11
 70
     1
102
RTVSPropertyOp12
 70
     1
102
RTVSPropertyOp13
 70
     1
102
RTVSPropertyOp14
 70
     1
102
RTVSPropertyOp15
 70
     1
102
RTVSPropertyOp16
 70
     1
102
RTVSPropertyOp17
 70
     1
102
RTVSPropertyOp18
 70
     1
102
RTVSPropertyOp19
 70
     1
102
RTVSPropertyOp20
 70
     1
102
RTVSPropertyOp21
 70
     1
102
RTVSPropertyOp22
 70
     1
102
RTVSPropertyOp23
 70
     1
102
RTVSPropertyOp24
 70
     1
102
RTVSPropertyOp25
 70
     1
102
RTVSPropertyOp26
 70
     1
102
RTVSPropertyOp27
 70
     1
102
RTVSPropertyOp28
 70
     1
102
RTVSPropertyOp29
 70
     1
102
RTVSPropertyOp30
 70
     1
102
RTVSPropertyOp31
 70
     1
102
RTVSPropertyOp32
 70
     1
  0
ENDSEC
  0
EOF
