  0
SECTION
  2
HEADER
  9
$ACADVER
  1
AC1015
  9
$ACADMAINTVER
 70
     6
  9
$DWGCODEPAGE
  3
ANSI_932
  9
$INSBASE
 10
0.0
 20
0.0
 30
0.0
  9
$EXTMIN
 10
0.0
 20
0.0
 30
0.0
  9
$EXTMAX
 10
1050.0
 20
1485.0
 30
0.0
  9
$LIMMIN
 10
0.0
 20
0.0
  9
$LIMMAX
 10
12.0
 20
9.0
  9
$ORTHOMODE
 70
     0
  9
$REGENMODE
 70
     1
  9
$FILLMODE
 70
     1
  9
$QTEXTMODE
 70
     0
  9
$MIRRTEXT
 70
     1
  9
$LTSCALE
 40
1.0
  9
$ATTMODE
 70
     1
  9
$TEXTSIZE
 40
0.2
  9
$TRACEWID
 40
0.05
  9
$TEXTSTYLE
  7
Standard
  9
$CLAYER
  8
0
  9
$CELTYPE
  6
ByLayer
  9
$CECOLOR
 62
   256
  9
$CELTSCALE
 40
1.0
  9
$DISPSILH
 70
     0
  9
$DIMSCALE
 40
1.0
  9
$DIMASZ
 40
0.18
  9
$DIMEXO
 40
0.0625
  9
$DIMDLI
 40
0.38
  9
$DIMRND
 40
0.0
  9
$DIMDLE
 40
0.0
  9
$DIMEXE
 40
0.18
  9
$DIMTP
 40
0.0
  9
$DIMTM
 40
0.0
  9
$DIMTXT
 40
0.18
  9
$DIMCEN
 40
0.09
  9
$DIMTSZ
 40
0.0
  9
$DIMTOL
 70
     0
  9
$DIMLIM
 70
     0
  9
$DIMTIH
 70
     1
  9
$DIMTOH
 70
     1
  9
$DIMSE1
 70
     0
  9
$DIMSE2
 70
     0
  9
$DIMTAD
 70
     0
  9
$DIMZIN
 70
     0
  9
$DIMBLK
  1

  9
$DIMASO
 70
     1
  9
$DIMSHO
 70
     1
  9
$DIMPOST
  1

  9
$DIMAPOST
  1

  9
$DIMALT
 70
     0
  9
$DIMALTD
 70
     2
  9
$DIMALTF
 40
25.4
  9
$DIMLFAC
 40
1.0
  9
$DIMTOFL
 70
     0
  9
$DIMTVP
 40
0.0
  9
$DIMTIX
 70
     0
  9
$DIMSOXD
 70
     0
  9
$DIMSAH
 70
     0
  9
$DIMBLK1
  1

  9
$DIMBLK2
  1

  9
$DIMSTYLE
  2
Standard
  9
$DIMCLRD
 70
     0
  9
$DIMCLRE
 70
     0
  9
$DIMCLRT
 70
     0
  9
$DIMTFAC
 40
1.0
  9
$DIMGAP
 40
0.09
  9
$DIMJUST
 70
     0
  9
$DIMSD1
 70
     0
  9
$DIMSD2
 70
     0
  9
$DIMTOLJ
 70
     1
  9
$DIMTZIN
 70
     0
  9
$DIMALTZ
 70
     0
  9
$DIMALTTZ
 70
     0
  9
$DIMUPT
 70
     0
  9
$DIMDEC
 70
     4
  9
$DIMTDEC
 70
     4
  9
$DIMALTU
 70
     2
  9
$DIMALTTD
 70
     2
  9
$DIMTXSTY
  7
Standard
  9
$DIMAUNIT
 70
     0
  9
$DIMADEC
 70
     0
  9
$DIMALTRND
 40
0.0
  9
$DIMAZIN
 70
     0
  9
$DIMDSEP
 70
    46
  9
$DIMATFIT
 70
     3
  9
$DIMFRAC
 70
     0
  9
$DIMLDRBLK
  1

  9
$DIMLUNIT
 70
     2
  9
$DIMLWD
 70
    -2
  9
$DIMLWE
 70
    -2
  9
$DIMTMOVE
 70
     0
  9
$LUNITS
 70
     2
  9
$LUPREC
 70
     4
  9
$SKETCHINC
 40
0.1
  9
$FILLETRAD
 40
0.5
  9
$AUNITS
 70
     0
  9
$AUPREC
 70
     0
  9
$MENU
  1
.
  9
$ELEVATION
 40
0.0
  9
$PELEVATION
 40
0.0
  9
$THICKNESS
 40
0.0
  9
$LIMCHECK
 70
     0
  9
$CHAMFERA
 40
0.5
  9
$CHAMFERB
 40
0.5
  9
$CHAMFERC
 40
1.0
  9
$CHAMFERD
 40
0.0
  9
$SKPOLY
 70
     0
  9
$TDCREATE
 40
2456891.549693935
  9
$TDUCREATE
 40
2456891.174693935
  9
$TDUPDATE
 40
2456891.549695556
  9
$TDUUPDATE
 40
2456891.174695556
  9
$TDINDWG
 40
0.0000000116
  9
$TDUSRTIMER
 40
0.0000000116
  9
$USRTIMER
 70
     1
  9
$ANGBASE
 50
0.0
  9
$ANGDIR
 70
     0
  9
$PDMODE
 70
     0
  9
$PDSIZE
 40
0.0
  9
$PLINEWID
 40
0.0
  9
$SPLFRAME
 70
     0
  9
$SPLINETYPE
 70
     6
  9
$SPLINESEGS
 70
     8
  9
$HANDSEED
  5
507
  9
$SURFTAB1
 70
     6
  9
$SURFTAB2
 70
     6
  9
$SURFTYPE
 70
     6
  9
$SURFU
 70
     6
  9
$SURFV
 70
     6
  9
$UCSBASE
  2

  9
$UCSNAME
  2

  9
$UCSORG
 10
0.0
 20
0.0
 30
0.0
  9
$UCSXDIR
 10
1.0
 20
0.0
 30
0.0
  9
$UCSYDIR
 10
0.0
 20
1.0
 30
0.0
  9
$UCSORTHOREF
  2

  9
$UCSORTHOVIEW
 70
     0
  9
$UCSORGTOP
 10
0.0
 20
0.0
 30
0.0
  9
$UCSORGBOTTOM
 10
0.0
 20
0.0
 30
0.0
  9
$UCSORGLEFT
 10
0.0
 20
0.0
 30
0.0
  9
$UCSORGRIGHT
 10
0.0
 20
0.0
 30
0.0
  9
$UCSORGFRONT
 10
0.0
 20
0.0
 30
0.0
  9
$UCSORGBACK
 10
0.0
 20
0.0
 30
0.0
  9
$PUCSBASE
  2

  9
$PUCSNAME
  2

  9
$PUCSORG
 10
0.0
 20
0.0
 30
0.0
  9
$PUCSXDIR
 10
1.0
 20
0.0
 30
0.0
  9
$PUCSYDIR
 10
0.0
 20
1.0
 30
0.0
  9
$PUCSORTHOREF
  2

  9
$PUCSORTHOVIEW
 70
     0
  9
$PUCSORGTOP
 10
0.0
 20
0.0
 30
0.0
  9
$PUCSORGBOTTOM
 10
0.0
 20
0.0
 30
0.0
  9
$PUCSORGLEFT
 10
0.0
 20
0.0
 30
0.0
  9
$PUCSORGRIGHT
 10
0.0
 20
0.0
 30
0.0
  9
$PUCSORGFRONT
 10
0.0
 20
0.0
 30
0.0
  9
$PUCSORGBACK
 10
0.0
 20
0.0
 30
0.0
  9
$USERI1
 70
     0
  9
$USERI2
 70
     0
  9
$USERI3
 70
     0
  9
$USERI4
 70
     0
  9
$USERI5
 70
     0
  9
$USERR1
 40
18.1
  9
$USERR2
 40
0.0
  9
$USERR3
 40
0.0
  9
$USERR4
 40
0.0
  9
$USERR5
 40
0.0
  9
$WORLDVIEW
 70
     1
  9
$SHADEDGE
 70
     3
  9
$SHADEDIF
 70
    70
  9
$TILEMODE
 70
     1
  9
$MAXACTVP
 70
    64
  9
$PINSBASE
 10
0.0
 20
0.0
 30
0.0
  9
$PLIMCHECK
 70
     0
  9
$PEXTMIN
 10
1.00000000000000E+20
 20
1.00000000000000E+20
 30
1.00000000000000E+20
  9
$PEXTMAX
 10
-1.00000000000000E+20
 20
-1.00000000000000E+20
 30
-1.00000000000000E+20
  9
$PLIMMIN
 10
0.0
 20
0.0
  9
$PLIMMAX
 10
12.0
 20
9.0
  9
$UNITMODE
 70
     0
  9
$VISRETAIN
 70
     1
  9
$PLINEGEN
 70
     0
  9
$PSLTSCALE
 70
     1
  9
$TREEDEPTH
 70
  3020
  9
$CMLSTYLE
  2
Standard
  9
$CMLJUST
 70
     0
  9
$CMLSCALE
 40
1.0
  9
$PROXYGRAPHICS
 70
     1
  9
$MEASUREMENT
 70
     1
  9
$CELWEIGHT
370
    -1
  9
$ENDCAPS
280
     0
  9
$JOINSTYLE
280
     0
  9
$LWDISPLAY
290
     0
  9
$INSUNITS
 70
     4
  9
$HYPERLINKBASE
  1

  9
$STYLESHEET
  1

  9
$XEDIT
290
     1
  9
$CEPSNTYPE
380
     0
  9
$PSTYLEMODE
290
     1
  9
$FINGERPRINTGUID
  2
{9EF07214-BAE2-4128-97A9-CCE8F037D1DE}
  9
$VERSIONGUID
  2
{FAEB1C32-E019-11D5-929B-00C0DF256EC4}
  9
$EXTNAMES
290
     1
  9
$PSVPSCALE
 40
0.0
  9
$OLESTARTUP
290
     0
  0
ENDSEC
  0
SECTION
  2
CLASSES
  0
CLASS
  1
ACDBDICTIONARYWDFLT
  2
AcDbDictionaryWithDefault
  3
ObjectDBX Classes
 90
        0
280
     0
281
     0
  0
CLASS
  1
VISUALSTYLE
  2
AcDbVisualStyle
  3
ObjectDBX Classes
 90
     4095
280
     0
281
     0
  0
CLASS
  1
MATERIAL
  2
AcDbMaterial
  3
ObjectDBX Classes
 90
     1153
280
     0
281
     0
  0
CLASS
  1
DICTIONARYVAR
  2
AcDbDictionaryVar
  3
ObjectDBX Classes
 90
        0
280
     0
281
     0
  0
CLASS
  1
ACDBPLACEHOLDER
  2
AcDbPlaceHolder
  3
ObjectDBX Classes
 90
        0
280
     0
281
     0
  0
CLASS
  1
LAYOUT
  2
AcDbLayout
  3
ObjectDBX Classes
 90
        0
280
     0
281
     0
  0
ENDSEC
  0
SECTION
  2
TABLES
  0
TABLE
  2
VPORT
  5
8
330
0
100
AcDbSymbolTable
 70
     1
  0
VPORT
  5
29
330
8
100
AcDbSymbolTableRecord
100
AcDbViewportTableRecord
  2
*Active
 70
     0
 10
0.0
 20
0.0
 11
1.0
 21
1.0
 12
525.0
 22
742.5
 13
0.0
 23
0.0
 14
0.5
 24
0.5
 15
0.5
 25
0.5
 16
0.0
 26
0.0
 36
1.0
 17
0.0
 27
0.0
 37
0.0
 40
1633.5
 41
1.60267857142857
 42
50.0
 43
0.0
 44
0.0
 50
0.0
 51
0.0
 71
     0
 72
   100
 73
     1
 74
     3
 75
     0
 76
     0
 77
     0
 78
     0
281
     0
 65
     1
110
0.0
120
0.0
130
0.0
111
1.0
121
0.0
131
0.0
112
0.0
122
1.0
132
0.0
 79
     0
146
0.0
  0
ENDTAB
  0
TABLE
  2
LTYPE
  5
5
330
0
100
AcDbSymbolTable
 70
     8
  0
LTYPE
  5
14
330
5
100
AcDbSymbolTableRecord
100
AcDbLinetypeTableRecord
  2
ByBlock
 70
     0
  3

 72
    65
 73
     0
 40
0.0
  0
LTYPE
  5
15
330
5
100
AcDbSymbolTableRecord
100
AcDbLinetypeTableRecord
  2
ByLayer
 70
     0
  3

 72
    65
 73
     0
 40
0.0
  0
LTYPE
  5
16
330
5
100
AcDbSymbolTableRecord
100
AcDbLinetypeTableRecord
  2
Continuous
 70
     0
  3
Solid line
 72
    65
 73
     0
 40
0.0
  0
LTYPE
  5
3F
330
5
100
AcDbSymbolTableRecord
100
AcDbLinetypeTableRecord
  2
DASHED
 70
     0
  3
Dashed
 72
    65
 73
     2
 40
15.0
 49
7.0
 74
     0
 49
-8.0
 74
     0
  0
LTYPE
  5
40
330
5
100
AcDbSymbolTableRecord
100
AcDbLinetypeTableRecord
  2
DOTTED
 70
     0
  3
Dotted
 72
    65
 73
     2
 40
1.0
 49
0.0
 74
     0
 49
-1.0
 74
     0
  0
LTYPE
  5
41
330
5
100
AcDbSymbolTableRecord
100
AcDbLinetypeTableRecord
  2
DOT_CENTER
 70
     0
  3
Dot_Center
 72
    65
 73
     4
 40
14.0
 49
12.0
 74
     0
 49
-1.0
 74
     0
 49
0.0
 74
     0
 49
-1.0
 74
     0
  0
LTYPE
  5
42
330
5
100
AcDbSymbolTableRecord
100
AcDbLinetypeTableRecord
  2
LONG_DASHED
 70
     0
  3
Long_Dashed
 72
    65
 73
     2
 40
15.0
 49
10.0
 74
     0
 49
-5.0
 74
     0
  0
LTYPE
  5
43
330
5
100
AcDbSymbolTableRecord
100
AcDbLinetypeTableRecord
  2
DASH_CENTER
 70
     0
  3
Dash_Center
 72
    65
 73
     4
 40
14.0
 49
11.0
 74
     0
 49
-1.0
 74
     0
 49
1.0
 74
     0
 49
-1.0
 74
     0
  0
LTYPE
  5
44
330
5
100
AcDbSymbolTableRecord
100
AcDbLinetypeTableRecord
  2
PHANTOM
 70
     0
  3
Phantom
 72
    65
 73
     6
 40
13.0
 49
10.0
 74
     0
 49
-1.0
 74
     0
 49
0.0
 74
     0
 49
-1.0
 74
     0
 49
0.0
 74
     0
 49
-1.0
 74
     0
  0
LTYPE
  5
45
330
5
100
AcDbSymbolTableRecord
100
AcDbLinetypeTableRecord
  2
CENTER_DASH_DASH
 70
     0
  3
Center_Dash_Dash
 72
    65
 73
     6
 40
14.0
 49
9.0
 74
     0
 49
-1.0
 74
     0
 49
1.0
 74
     0
 49
-1.0
 74
     0
 49
1.0
 74
     0
 49
-1.0
 74
     0
  0
ENDTAB
  0
TABLE
  2
LAYER
  5
2
330
0
100
AcDbSymbolTable
 70
     2
  0
LAYER
  5
10
330
2
100
AcDbSymbolTableRecord
100
AcDbLayerTableRecord
  2
0
 70
     0
 62
     7
  6
Continuous
370
    -3
390
F
  0
LAYER
  5
46
330
2
100
AcDbSymbolTableRecord
100
AcDbLayerTableRecord
  2
1
 70
     0
 62
     7
  6
Continuous
370
    -3
390
F
  0
ENDTAB
  0
TABLE
  2
STYLE
  5
3
330
0
100
AcDbSymbolTable
 70
     3
  0
STYLE
  5
11
330
3
100
AcDbSymbolTableRecord
100
AcDbTextStyleTableRecord
  2
Standard
 70
     0
 40
0.0
 41
1.0
 50
0.0
 71
     0
 42
0.2
  3
txt
  4

  0
STYLE
  5
219
330
3
100
AcDbSymbolTableRecord
100
AcDbTextStyleTableRecord
  2
CONVERTER_11
 70
     0
 40
0.0
 41
0.89
 50
0.0
 71
     0
 42
0.2
  3
MS Mincho.ttf
  4

1001
ACAD
1000
MS Mincho
1071
    32785
  0
STYLE
  5
40B
330
3
100
AcDbSymbolTableRecord
100
AcDbTextStyleTableRecord
  2
CONVERTER_12
 70
     0
 40
0.0
 41
0.9
 50
0.0
 71
     0
 42
0.2
  3
txt.shx
  4

  0
ENDTAB
  0
TABLE
  2
VIEW
  5
6
330
0
100
AcDbSymbolTable
 70
     0
  0
ENDTAB
  0
TABLE
  2
UCS
  5
7
330
0
100
AcDbSymbolTable
 70
     0
  0
ENDTAB
  0
TABLE
  2
APPID
  5
9
330
0
100
AcDbSymbolTable
 70
     1
  0
APPID
  5
12
330
9
100
AcDbSymbolTableRecord
100
AcDbRegAppTableRecord
  2
ACAD
 70
     0
  0
ENDTAB
  0
TABLE
  2
DIMSTYLE
  5
A
330
0
100
AcDbSymbolTable
 70
    17
100
AcDbDimStyleTable
  0
DIMSTYLE
105
27
330
A
100
AcDbSymbolTableRecord
100
AcDbDimStyleTableRecord
  2
Standard
 70
     0
178
     0
340
11
  0
DIMSTYLE
105
426
102
{ACAD_REACTORS
330
427
102
}
330
A
100
AcDbSymbolTableRecord
100
AcDbDimStyleTableRecord
  2
ME10_DIM_10
 70
     0
 41
17.5
 42
0.0
 44
5.0
 73
     0
 74
     0
 77
     1
 78
     8
140
17.5
147
5.0
172
     1
173
     1
174
     1
175
     1
176
     2
177
     2
271
     2
178
     7
271
     2
340
40B
  0
DIMSTYLE
105
431
102
{ACAD_REACTORS
330
432
102
}
330
A
100
AcDbSymbolTableRecord
100
AcDbDimStyleTableRecord
  2
ME10_DIM_11
 70
     0
  3
最大<>
 41
17.5
 42
0.0
 44
5.0
 73
     0
 74
     0
 77
     1
 78
     8
140
17.5
147
5.0
172
     1
173
     1
174
     1
175
     1
176
     2
177
     2
271
     2
178
     7
271
     2
340
219
  0
DIMSTYLE
105
43C
102
{ACAD_REACTORS
330
43D
102
}
330
A
100
AcDbSymbolTableRecord
100
AcDbDimStyleTableRecord
  2
ME10_DIM_12
 70
     0
  3
最小<>
 41
17.5
 42
0.0
 44
5.0
 73
     0
 74
     0
 77
     1
 78
     8
140
17.5
147
5.0
172
     1
173
     1
174
     1
175
     1
176
     2
177
     2
271
     2
178
     7
271
     2
340
219
  0
DIMSTYLE
105
447
102
{ACAD_REACTORS
330
448
102
}
330
A
100
AcDbSymbolTableRecord
100
AcDbDimStyleTableRecord
  2
ME10_DIM_13
 70
     0
 41
17.5
 42
0.0
 44
5.0
 73
     0
 74
     0
 77
     1
 78
     8
140
17.5
147
5.0
172
     1
173
     1
174
     1
175
     1
176
     2
177
     2
271
     2
178
     7
271
     2
340
40B
  0
DIMSTYLE
105
452
102
{ACAD_REACTORS
330
453
102
}
330
A
100
AcDbSymbolTableRecord
100
AcDbDimStyleTableRecord
  2
ME10_DIM_14
 70
     0
 41
17.5
 42
0.0
 44
5.0
 73
     0
 74
     0
 77
     1
 78
     8
140
17.5
147
5.0
172
     1
173
     1
174
     1
175
     1
176
     2
177
     2
271
     2
178
     7
271
     2
340
40B
  0
DIMSTYLE
105
45F
102
{ACAD_REACTORS
330
460
102
}
330
A
100
AcDbSymbolTableRecord
100
AcDbDimStyleTableRecord
  2
ME10_DIM_15
 70
     0
 41
17.5
 42
0.0
 44
5.0
 73
     0
 74
     0
 77
     1
 78
     8
140
17.5
147
5.0
172
     1
173
     1
174
     1
175
     1
176
     2
177
     2
271
     2
178
     7
271
     2
340
219
  0
DIMSTYLE
105
46A
102
{ACAD_REACTORS
330
46B
102
}
330
A
100
AcDbSymbolTableRecord
100
AcDbDimStyleTableRecord
  2
ME10_DIM_16
 70
     0
 41
17.5
 42
0.0
 44
5.0
 73
     0
 74
     0
 77
     1
 78
     8
140
17.5
147
5.0
172
     1
173
     1
174
     1
175
     1
176
     2
177
     2
271
     2
178
     7
271
     2
340
40B
  0
DIMSTYLE
105
475
102
{ACAD_REACTORS
330
476
102
}
330
A
100
AcDbSymbolTableRecord
100
AcDbDimStyleTableRecord
  2
ME10_DIM_17
 70
     0
 41
17.5
 42
0.0
 44
5.0
 73
     0
 74
     0
 77
     1
 78
     8
140
17.5
147
5.0
172
     1
173
     1
174
     1
175
     1
176
     2
177
     2
271
     2
178
     7
271
     2
340
40B
  0
DIMSTYLE
105
480
102
{ACAD_REACTORS
330
481
102
}
330
A
100
AcDbSymbolTableRecord
100
AcDbDimStyleTableRecord
  2
ME10_DIM_18
 70
     0
 41
17.5
 42
0.0
 44
5.0
 73
     0
 74
     0
 77
     1
 78
     8
140
17.5
147
5.0
172
     1
173
     1
174
     1
175
     1
176
     2
177
     2
271
     2
178
     7
271
     2
340
40B
  0
DIMSTYLE
105
48D
102
{ACAD_REACTORS
330
48E
102
}
330
A
100
AcDbSymbolTableRecord
100
AcDbDimStyleTableRecord
  2
ME10_DIM_19
 70
     0
  3
最大<>
 41
17.5
 42
0.0
 44
5.0
 73
     0
 74
     0
 77
     1
 78
     8
140
17.5
147
5.0
172
     1
173
     1
174
     1
175
     1
176
     2
177
     2
271
     2
178
     7
271
     2
340
219
  0
DIMSTYLE
105
498
102
{ACAD_REACTORS
330
499
102
}
330
A
100
AcDbSymbolTableRecord
100
AcDbDimStyleTableRecord
  2
ME10_DIM_20
 70
     0
 41
17.5
 42
0.0
 44
5.0
 73
     0
 74
     0
 77
     1
 78
     8
140
17.5
147
5.0
172
     1
173
     1
174
     1
175
     1
176
     2
177
     2
271
     2
178
     7
271
     2
340
40B
  0
DIMSTYLE
105
4A3
102
{ACAD_REACTORS
330
4A4
102
}
330
A
100
AcDbSymbolTableRecord
100
AcDbDimStyleTableRecord
  2
ME10_DIM_21
 70
     0
 41
17.5
 42
0.0
 44
5.0
 73
     0
 74
     0
 77
     1
 78
     8
140
17.5
147
5.0
172
     1
173
     1
174
     1
175
     1
176
     2
177
     2
271
     2
178
     7
271
     2
340
40B
  0
DIMSTYLE
105
4AE
102
{ACAD_REACTORS
330
4AF
102
}
330
A
100
AcDbSymbolTableRecord
100
AcDbDimStyleTableRecord
  2
ME10_DIM_22
 70
     0
 41
17.5
 42
0.0
 44
5.0
 73
     0
 74
     0
 77
     1
 78
     8
140
17.5
147
5.0
172
     1
173
     1
174
     1
175
     1
176
     2
177
     2
271
     2
178
     7
271
     2
340
40B
  0
DIMSTYLE
105
4BB
102
{ACAD_REACTORS
330
4BC
102
}
330
A
100
AcDbSymbolTableRecord
100
AcDbDimStyleTableRecord
  2
ME10_DIM_23
 70
     0
 41
17.5
 42
0.0
 44
5.0
 73
     0
 74
     0
 77
     1
 78
     8
140
17.5
147
5.0
172
     1
173
     1
174
     1
175
     1
176
     2
177
     2
271
     2
178
     7
271
     2
340
40B
  0
DIMSTYLE
105
4C8
102
{ACAD_REACTORS
330
4C9
102
}
330
A
100
AcDbSymbolTableRecord
100
AcDbDimStyleTableRecord
  2
ME10_DIM_24
 70
     0
 41
17.5
 42
0.0
 44
5.0
 73
     0
 74
     0
 77
     1
 78
     8
140
17.5
147
5.0
172
     1
173
     1
174
     1
175
     1
176
     2
177
     2
271
     2
178
     7
271
     2
340
40B
  0
DIMSTYLE
105
4D5
102
{ACAD_REACTORS
330
4D6
102
}
330
A
100
AcDbSymbolTableRecord
100
AcDbDimStyleTableRecord
  2
ME10_DIM_25
 70
     0
 41
17.5
 42
0.0
 44
5.0
 73
     0
 74
     0
 77
     1
 78
     8
140
17.5
147
5.0
172
     1
173
     1
174
     1
175
     1
176
     2
177
     2
271
     2
178
     7
271
     2
340
40B
  0
ENDTAB
  0
TABLE
  2
BLOCK_RECORD
  5
1
330
0
100
AcDbSymbolTable
 70
    38
  0
BLOCK_RECORD
  5
1F
330
1
100
AcDbSymbolTableRecord
100
AcDbBlockTableRecord
  2
*Model_Space
340
22
  0
BLOCK_RECORD
  5
1B
330
1
100
AcDbSymbolTableRecord
100
AcDbBlockTableRecord
  2
*Paper_Space
340
1E
  0
BLOCK_RECORD
  5
23
330
1
100
AcDbSymbolTableRecord
100
AcDbBlockTableRecord
  2
*Paper_Space0
340
26
  0
BLOCK_RECORD
  5
47
330
1
100
AcDbSymbolTableRecord
100
AcDbBlockTableRecord
  2
61-88
340
0
102
{BLKREFS
331
89
102
}
  0
BLOCK_RECORD
  5
4A
330
1
100
AcDbSymbolTableRecord
100
AcDbBlockTableRecord
  2
50-11
340
0
102
{BLKREFS
331
8A
102
}
  0
BLOCK_RECORD
  5
4D
330
1
100
AcDbSymbolTableRecord
100
AcDbBlockTableRecord
  2
98-107A
340
0
102
{BLKREFS
331
8B
102
}
  0
BLOCK_RECORD
  5
50
330
1
100
AcDbSymbolTableRecord
100
AcDbBlockTableRecord
  2
70-16
340
0
102
{BLKREFS
331
8C
102
}
  0
BLOCK_RECORD
  5
53
330
1
100
AcDbSymbolTableRecord
100
AcDbBlockTableRecord
  2
35-276__1
340
0
102
{BLKREFS
331
8D
102
}
  0
BLOCK_RECORD
  5
56
330
1
100
AcDbSymbolTableRecord
100
AcDbBlockTableRecord
  2
92-53A
340
0
102
{BLKREFS
331
8E
102
}
  0
BLOCK_RECORD
  5
59
330
1
100
AcDbSymbolTableRecord
100
AcDbBlockTableRecord
  2
73-1-21_5
340
0
102
{BLKREFS
331
8F
102
}
  0
BLOCK_RECORD
  5
5C
330
1
100
AcDbSymbolTableRecord
100
AcDbBlockTableRecord
  2
32-25
340
0
102
{BLKREFS
331
90
102
}
  0
BLOCK_RECORD
  5
5F
330
1
100
AcDbSymbolTableRecord
100
AcDbBlockTableRecord
  2
01-110
340
0
102
{BLKREFS
331
91
102
}
  0
BLOCK_RECORD
  5
62
330
1
100
AcDbSymbolTableRecord
100
AcDbBlockTableRecord
  2
開示A4
340
0
102
{BLKREFS
331
92
102
}
  0
BLOCK_RECORD
  5
65
330
1
100
AcDbSymbolTableRecord
100
AcDbBlockTableRecord
  2
82-20-M21
340
0
102
{BLKREFS
331
93
102
}
  0
BLOCK_RECORD
  5
68
330
1
100
AcDbSymbolTableRecord
100
AcDbBlockTableRecord
  2
88-546A-M21
340
0
102
{BLKREFS
331
94
102
}
  0
BLOCK_RECORD
  5
6B
330
1
100
AcDbSymbolTableRecord
100
AcDbBlockTableRecord
  2
84-360A-M22
340
0
102
{BLKREFS
331
6F
102
}
  0
BLOCK_RECORD
  5
6E
330
1
100
AcDbSymbolTableRecord
100
AcDbBlockTableRecord
  2
87-163A-M21
340
0
102
{BLKREFS
331
95
102
}
  0
BLOCK_RECORD
  5
72
330
1
100
AcDbSymbolTableRecord
100
AcDbBlockTableRecord
  2
30-252A-C2__2
340
0
102
{BLKREFS
331
76
102
}
  0
BLOCK_RECORD
  5
75
330
1
100
AcDbSymbolTableRecord
100
AcDbBlockTableRecord
  2
V872FE__3
340
0
102
{BLKREFS
331
96
102
}
  0
BLOCK_RECORD
  5
79
330
1
100
AcDbSymbolTableRecord
100
AcDbBlockTableRecord
  2
30-252A-C2__4
340
0
102
{BLKREFS
331
7D
102
}
  0
BLOCK_RECORD
  5
7C
330
1
100
AcDbSymbolTableRecord
100
AcDbBlockTableRecord
  2
V872FE__5
340
0
102
{BLKREFS
331
97
102
}
  0
BLOCK_RECORD
  5
80
330
1
100
AcDbSymbolTableRecord
100
AcDbBlockTableRecord
  2
32-16__6
340
0
102
{BLKREFS
331
98
102
}
  0
BLOCK_RECORD
  5
83
330
1
100
AcDbSymbolTableRecord
100
AcDbBlockTableRecord
  2
32-16__7
340
0
102
{BLKREFS
331
99
102
}
  0
BLOCK_RECORD
  5
86
330
1
100
AcDbSymbolTableRecord
100
AcDbBlockTableRecord
  2
35-276__8
340
0
102
{BLKREFS
331
9A
102
}
  0
BLOCK_RECORD
  5
41B
330
1
100
AcDbSymbolTableRecord
100
AcDbBlockTableRecord
  2
*D22
340
0
  0
BLOCK_RECORD
  5
428
330
1
100
AcDbSymbolTableRecord
100
AcDbBlockTableRecord
  2
*D23
340
0
  0
BLOCK_RECORD
  5
433
330
1
100
AcDbSymbolTableRecord
100
AcDbBlockTableRecord
  2
*D24
340
0
  0
BLOCK_RECORD
  5
43E
330
1
100
AcDbSymbolTableRecord
100
AcDbBlockTableRecord
  2
*D25
340
0
  0
BLOCK_RECORD
  5
449
330
1
100
AcDbSymbolTableRecord
100
AcDbBlockTableRecord
  2
*D26
340
0
  0
BLOCK_RECORD
  5
454
330
1
100
AcDbSymbolTableRecord
100
AcDbBlockTableRecord
  2
*D27
340
0
  0
BLOCK_RECORD
  5
461
330
1
100
AcDbSymbolTableRecord
100
AcDbBlockTableRecord
  2
*D28
340
0
  0
BLOCK_RECORD
  5
46C
330
1
100
AcDbSymbolTableRecord
100
AcDbBlockTableRecord
  2
*D29
340
0
  0
BLOCK_RECORD
  5
477
330
1
100
AcDbSymbolTableRecord
100
AcDbBlockTableRecord
  2
*D30
340
0
  0
BLOCK_RECORD
  5
482
330
1
100
AcDbSymbolTableRecord
100
AcDbBlockTableRecord
  2
*D31
340
0
  0
BLOCK_RECORD
  5
48F
330
1
100
AcDbSymbolTableRecord
100
AcDbBlockTableRecord
  2
*D32
340
0
  0
BLOCK_RECORD
  5
49A
330
1
100
AcDbSymbolTableRecord
100
AcDbBlockTableRecord
  2
*D33
340
0
  0
BLOCK_RECORD
  5
4A5
330
1
100
AcDbSymbolTableRecord
100
AcDbBlockTableRecord
  2
*D34
340
0
  0
BLOCK_RECORD
  5
4B0
330
1
100
AcDbSymbolTableRecord
100
AcDbBlockTableRecord
  2
*D35
340
0
  0
BLOCK_RECORD
  5
4BD
330
1
100
AcDbSymbolTableRecord
100
AcDbBlockTableRecord
  2
*D36
340
0
  0
BLOCK_RECORD
  5
4CA
330
1
100
AcDbSymbolTableRecord
100
AcDbBlockTableRecord
  2
*D37
340
0
  0
ENDTAB
  0
ENDSEC
  0
SECTION
  2
BLOCKS
  0
BLOCK
  5
20
330
1F
100
AcDbEntity
  8
0
100
AcDbBlockBegin
  2
*Model_Space
 70
     0
 10
0.0
 20
0.0
 30
0.0
  3
*Model_Space
  1

  0
ENDBLK
  5
21
330
1F
100
AcDbEntity
  8
0
100
AcDbBlockEnd
  0
BLOCK
  5
1C
330
1B
100
AcDbEntity
 67
     1
  8
0
100
AcDbBlockBegin
  2
*Paper_Space
 70
     0
 10
0.0
 20
0.0
 30
0.0
  3
*Paper_Space
  1

  0
ENDBLK
  5
1D
330
1B
100
AcDbEntity
 67
     1
  8
0
100
AcDbBlockEnd
  0
BLOCK
  5
24
330
23
100
AcDbEntity
  8
0
100
AcDbBlockBegin
  2
*Paper_Space0
 70
     0
 10
0.0
 20
0.0
 30
0.0
  3
*Paper_Space0
  1

  0
ENDBLK
  5
25
330
23
100
AcDbEntity
  8
0
100
AcDbBlockEnd
  0
BLOCK
  5
48
330
47
100
AcDbEntity
  8
0
100
AcDbBlockBegin
  2
61-88
 70
     0
 10
-31.17965621211883
 20
1031.019027038844
 30
0.0
  3
61-88
  1

  0
LINE
  5
9B
330
47
100
AcDbEntity
  8
1
  6
Continuous
 62
     7
100
AcDbLine
 10
330.8627324298648
 20
586.7283487542508
 30
0.0
 11
330.8627324298648
 21
703.5705964576562
 31
0.0
  0
LINE
  5
9C
330
47
100
AcDbEntity
  8
1
  6
Continuous
 62
     7
100
AcDbLine
 10
360.8627446544066
 20
703.5705964576562
 30
0.0
 11
360.8627446544066
 21
586.7283487542508
 31
0.0
  0
LINE
  5
9D
330
47
100
AcDbEntity
  8
1
  6
Continuous
 62
     7
100
AcDbLine
 10
340.8627324298648
 20
713.5705964576562
 30
0.0
 11
350.8627446544066
 21
713.5705964576562
 31
0.0
  0
LINE
  5
9E
330
47
100
AcDbEntity
  8
1
  6
Continuous
 62
     7
100
AcDbLine
 10
345.8627446544066
 20
571.7283487542508
 30
0.0
 11
345.8627324298648
 21
571.7283487542508
 31
0.0
  0
LINE
  5
9F
330
47
100
AcDbEntity
  8
1
  6
Continuous
 62
     7
100
AcDbLine
 10
360.8627446544066
 20
606.078332195031
 30
0.0
 11
369.363950476123
 21
606.078332195031
 31
0.0
  0
LINE
  5
A0
330
47
100
AcDbEntity
  8
1
  6
Continuous
 62
     7
100
AcDbLine
 10
761.0363479900652
 20
607.465136531722
 30
0.0
 11
761.0363479900652
 21
606.078332195031
 31
0.0
  0
LINE
  5
A1
330
47
100
AcDbEntity
  8
1
  6
Continuous
 62
     7
100
AcDbLine
 10
369.363950476123
 20
563.0783321950311
 30
0.0
 11
322.363950476123
 21
563.0783321950311
 31
0.0
  0
LINE
  5
A2
330
47
100
AcDbEntity
  8
1
  6
Continuous
 62
     7
100
AcDbLine
 10
321.863950476123
 20
563.5783321950311
 30
0.0
 11
321.863950476123
 21
605.578332195031
 31
0.0
  0
LINE
  5
A3
330
47
100
AcDbEntity
  8
1
  6
Continuous
 62
     7
100
AcDbLine
 10
322.363950476123
 20
606.078332195031
 30
0.0
 11
330.8627324298648
 21
606.078332195031
 31
0.0
  0
LINE
  5
A4
330
47
100
AcDbEntity
  8
1
  6
Continuous
 62
     7
100
AcDbLine
 10
592.3381980674957
 20
696.9682474095272
 30
0.0
 11
621.8619591404616
 21
684.6253331626215
 31
0.0
  0
LINE
  5
A5
330
47
100
AcDbEntity
  8
1
  6
Continuous
 62
     7
100
AcDbLine
 10
621.8619591404637
 20
684.6253331626264
 30
0.0
 11
622.0548171755727
 21
685.0866419293936
 31
0.0
  0
LINE
  5
A6
330
47
100
AcDbEntity
  8
1
  6
Continuous
 62
     7
100
AcDbLine
 10
648.0809661495257
 20
674.747900730119
 30
0.0
 11
592.723914137713
 21
697.8908649430613
 31
0.0
  0
LINE
  5
A7
330
47
100
AcDbEntity
  8
1
  6
Continuous
 62
     7
100
AcDbLine
 10
806.6863479900653
 20
563.0783321950311
 30
0.0
 11
759.6863479900653
 21
563.0783321950311
 31
0.0
  0
LINE
  5
A8
330
47
100
AcDbEntity
  8
1
  6
Continuous
 62
     7
100
AcDbLine
 10
806.6863479900653
 20
606.078332195031
 30
0.0
 11
759.6863479900653
 21
606.078332195031
 31
0.0
  0
LINE
  5
A9
330
47
100
AcDbEntity
  8
1
  6
Continuous
 62
     7
100
AcDbLine
 10
369.863950476123
 20
605.578332195031
 30
0.0
 11
369.863950476123
 21
563.5783321950311
 31
0.0
  0
LINE
  5
AA
330
47
100
AcDbEntity
  8
1
  6
Continuous
 62
     7
100
AcDbLine
 10
759.1863479900649
 20
605.4320126011002
 30
0.0
 11
759.1863479900653
 21
605.578332195031
 31
0.0
  0
LINE
  5
AB
330
47
100
AcDbEntity
  8
1
  6
Continuous
 62
     7
100
AcDbLine
 10
368.0139504761229
 20
606.078332195031
 30
0.0
 11
368.0139504761227
 21
607.4783321950335
 31
0.0
  0
LINE
  5
AC
330
47
100
AcDbEntity
  8
1
  6
Continuous
 62
     7
100
AcDbLine
 10
761.0363479900652
 20
606.078332195031
 30
0.0
 11
761.036347990065
 21
607.3783321950309
 31
0.0
  0
LINE
  5
AD
330
47
100
AcDbEntity
  8
1
  6
Continuous
 62
     7
100
AcDbLine
 10
656.0883223171395
 20
691.9938704499106
 30
0.0
 11
605.5882246729907
 21
713.106301658838
 31
0.0
  0
LINE
  5
AE
330
47
100
AcDbEntity
  8
1
  6
Continuous
 62
     7
100
AcDbLine
 10
592.3381980674957
 20
696.9682474095272
 30
0.0
 11
592.723914137713
 21
697.8908649430613
 31
0.0
  0
LINE
  5
AF
330
47
100
AcDbEntity
  8
1
  6
Continuous
 62
     7
100
AcDbLine
 10
759.1863479900649
 20
605.4320126011002
 30
0.0
 11
759.1863479900653
 21
563.5783321950311
 31
0.0
  0
LINE
  5
B0
330
47
100
AcDbEntity
  8
1
  6
Continuous
 62
     7
100
AcDbLine
 10
807.1863479900653
 20
605.578332195031
 30
0.0
 11
807.1863479900653
 21
563.5783321950311
 31
0.0
  0
LINE
  5
B1
330
47
100
AcDbEntity
  8
1
  6
Continuous
 62
     7
100
AcDbLine
 10
368.0139504761229
 20
606.078332195031
 30
0.0
 11
368.0139504761229
 21
607.4783321950308
 31
0.0
  0
LINE
  5
B2
330
47
100
AcDbEntity
  8
1
  6
Continuous
 62
     7
100
AcDbLine
 10
592.723914137713
 20
697.8908649430613
 30
0.0
 11
597.7382230505158
 21
709.8848928789505
 31
0.0
  0
LINE
  5
B3
330
47
100
AcDbEntity
  8
1
  6
Continuous
 62
     7
100
AcDbLine
 10
805.336347990065
 20
606.078332195031
 30
0.0
 11
805.336347990065
 21
607.465136531722
 31
0.0
  0
LINE
  5
B4
330
47
100
AcDbEntity
  8
1
  6
Continuous
 62
     7
100
AcDbLine
 10
805.3363479900652
 20
607.3783321950309
 30
0.0
 11
805.336347990065
 21
606.078332195031
 31
0.0
  0
LINE
  5
B5
330
47
100
AcDbEntity
  8
1
  6
Continuous
 62
     7
100
AcDbLine
 10
323.7139504761232
 20
607.4783321950335
 30
0.0
 11
323.7139504761229
 21
606.078332195031
 31
0.0
  0
LINE
  5
B6
330
47
100
AcDbEntity
  8
1
  6
Continuous
 62
     7
100
AcDbLine
 10
323.7139504761228
 20
607.4783321950308
 30
0.0
 11
323.7139504761229
 21
606.078332195031
 31
0.0
  0
LINE
  5
B7
330
47
100
AcDbEntity
  8
1
  6
Continuous
 62
     7
100
AcDbLine
 10
360.8631804246056
 20
1103.009618842174
 30
0.0
 11
360.8625635107779
 21
1019.869309322427
 31
0.0
  0
LINE
  5
B8
330
47
100
AcDbEntity
  8
1
  6
Continuous
 62
     7
100
AcDbLine
 10
330.8625635117188
 20
1019.869546963953
 30
0.0
 11
330.8631797695356
 21
1102.927041272358
 31
0.0
  0
ARC
  5
B9
330
47
100
AcDbEntity
  8
1
  6
Continuous
 62
     7
100
AcDbCircle
 10
519.6506489141786
 20
424.8146023986877
 30
0.0
 40
281.0000000000004
100
AcDbArc
 50
31.52191958636537
 51
37.37225795075847
  0
ARC
  5
BA
330
47
100
AcDbEntity
  8
1
  6
Continuous
 62
     7
100
AcDbCircle
 10
519.6506489141786
 20
424.8146023986877
 30
0.0
 40
300.0000000000001
100
AcDbArc
 50
37.01743610584899
 51
62.94843231620557
  0
ARC
  5
BB
330
47
100
AcDbEntity
  8
1
  6
Continuous
 62
     7
100
AcDbCircle
 10
519.6506489141786
 20
424.8146023986877
 30
0.0
 40
281.0000000000004
100
AcDbArc
 50
37.37225795075847
 51
62.80325537779838
  0
ARC
  5
BC
330
47
100
AcDbEntity
  8
1
  6
Continuous
 62
     7
100
AcDbCircle
 10
345.863950476123
 20
1194.960654012071
 30
0.0
 40
24.00000000000011
100
AcDbArc
 50
141.3178125465108
 51
180.0
  0
ARC
  5
BD
330
47
100
AcDbEntity
  8
1
  6
Continuous
 62
     7
100
AcDbCircle
 10
345.863950476123
 20
1194.960654012071
 30
0.0
 40
24.00000000000006
100
AcDbArc
 50
0.0
 51
141.3178125465108
  0
SPLINE
  5
BE
330
47
100
AcDbEntity
  8
1
  6
Continuous
 62
     7
100
AcDbSpline
210
0.0
220
0.0
230
1.0
 70
     8
 71
     3
 72
    35
 73
    31
 74
    29
 42
0.000000001
 43
0.0000000001
 44
0.00000001
 40
0.0
 40
0.0
 40
0.0
 40
0.0
 40
1.364035335612787
 40
2.724508496129229
 40
4.076559928967713
 40
5.43139035619657
 40
6.773950050513291
 40
8.115276736394955
 40
9.445786196357808
 40
10.77671875750668
 40
12.0974914391037
 40
13.41810433808335
 40
14.73130395566947
 40
16.0445394298645
 40
17.35376957154055
 40
18.66297909034738
 40
19.97218860915413
 40
21.28141875083014
 40
22.5946542250253
 40
23.90785384261154
 40
25.22846674159107
 40
26.54923942318754
 40
27.88017198433648
 40
29.21068144429936
 40
30.55200813018106
 40
31.89456782449793
 40
33.24939825172685
 40
34.60144968456513
 40
35.96192284508133
 40
37.32595818069439
 40
37.32595818069439
 40
37.32595818069439
 40
37.32595818069439
 10
359.9579362680306
 20
1017.779458907883
 30
0.0
 10
359.7884973606984
 20
1017.357538231225
 30
0.0
 10
359.4500620225915
 20
1016.51479872803
 30
0.0
 10
358.8758171930455
 20
1015.281326676357
 30
0.0
 10
358.1733846950538
 20
1014.118650447131
 30
0.0
 10
357.3698851386281
 20
1013.032108497318
 30
0.0
 10
356.4837963479427
 20
1012.016623166678
 30
0.0
 10
355.5202288791592
 20
1011.08559868003
 30
0.0
 10
354.4802487098156
 20
1010.246896310616
 30
0.0
 10
353.3756135069757
 20
1009.507669519899
 30
0.0
 10
352.2123937955373
 20
1008.871408753701
 30
0.0
 10
351.0022217259464
 20
1008.344262749942
 30
0.0
 10
349.7515656495882
 20
1007.929971630829
 30
0.0
 10
348.4721565493309
 20
1007.631706164531
 30
0.0
 10
347.1721322335733
 20
1007.451998136513
 30
0.0
 10
345.8624646705686
 20
1007.391725124407
 30
0.0
 10
344.5527980626199
 20
1007.452018885265
 30
0.0
 10
343.2527765940979
 20
1007.631747509245
 30
0.0
 10
341.9733722193522
 20
1007.930033244888
 30
0.0
 10
340.7227227066691
 20
1008.344344177805
 30
0.0
 10
339.5125589886826
 20
1008.871509353973
 30
0.0
 10
338.3493493575214
 20
1009.50778854871
 30
0.0
 10
337.2447258662194
 20
1010.247032839814
 30
0.0
 10
336.2047589843739
 20
1011.085751685289
 30
0.0
 10
335.2412062657164
 20
1012.016791437395
 30
0.0
 10
334.3551335632412
 20
1013.032290806007
 30
0.0
 10
333.5516512207488
 20
1014.118845485343
 30
0.0
 10
332.8492371428557
 20
1015.281532842898
 30
0.0
 10
332.2750118549936
 20
1016.515013992043
 30
0.0
 10
331.9365898682565
 20
1017.357758856886
 30
0.0
 10
331.767157645337
 20
1017.779682217872
 30
0.0
 11
359.9579362680306
 21
1017.779458907883
 31
0.0
 11
359.4382516991029
 21
1016.51830056918
 31
0.0
 11
358.852908294503
 21
1015.290188065499
 31
0.0
 11
358.1564935883702
 21
1014.131287881248
 31
0.0
 11
357.3531760622756
 21
1013.04030371945
 31
0.0
 11
356.4696713548398
 21
1012.029419964207
 31
0.0
 11
355.5043081763237
 21
1011.098167467092
 31
0.0
 11
354.4686673361501
 21
1010.262881004493
 31
0.0
 11
353.362481551789
 21
1009.522790135685
 31
0.0
 11
352.2036386336702
 21
1008.889131261542
 31
0.0
 11
350.9927745068419
 21
1008.362038768265
 31
0.0
 11
349.7461784041305
 21
1007.949132733615
 31
0.0
 11
348.4671893909136
 21
1007.651182207763
 31
0.0
 11
347.1702963070515
 21
1007.471872715577
 31
0.0
 11
345.8624648297437
 21
1007.411819471058
 31
0.0
 11
344.5546343040097
 21
1007.47189343524
 31
0.0
 11
343.2577440610692
 21
1007.651223473781
 31
0.0
 11
341.978759768374
 21
1007.949194262323
 31
0.0
 11
340.7321702073937
 21
1008.362120046455
 31
0.0
 11
339.5213144313219
 21
1008.889231723106
 31
0.0
 11
338.3624815522592
 21
1009.522908956448
 31
0.0
 11
337.2563074931252
 21
1010.263017350208
 31
0.0
 11
336.2206798863317
 21
1011.098320220121
 31
0.0
 11
335.2553314615543
 21
1012.029588011145
 31
0.0
 11
334.3718427694265
 21
1013.040485763421
 31
0.0
 11
333.5685425276422
 21
1014.131482651855
 31
0.0
 11
332.8721461817842
 21
1015.290393869098
 31
0.0
 11
332.2868222339599
 21
1016.518515646085
 31
0.0
 11
331.767157645337
 21
1017.779682217872
 31
0.0
  0
SPLINE
  5
BF
330
47
100
AcDbEntity
  8
1
  6
Continuous
 62
     7
100
AcDbSpline
210
0.0
220
0.0
230
1.0
 70
     8
 71
     3
 72
    43
 73
    39
 74
    37
 42
0.000000001
 43
0.0000000001
 44
0.00000001
 40
0.0
 40
0.0
 40
0.0
 40
0.0
 40
1.375031497453402
 40
2.746591129772443
 40
4.115636816947239
 40
5.487428997179411
 40
6.850952294816993
 40
8.213262311490514
 40
9.566265893632828
 40
10.91968968964455
 40
12.26176627783724
 40
13.60368263573989
 40
14.93437601705692
 40
16.26509662391886
 40
17.58580613186828
 40
18.90648784728986
 40
20.2197077017203
 40
21.53292133627961
 40
22.84214369567772
 40
24.15136119050123
 40
25.46057868532489
 40
26.7698010447232
 40
28.08301467928247
 40
29.3962345337127
 40
30.71691624913449
 40
32.03762575708384
 40
33.3683463639459
 40
34.69903974526302
 40
36.04095610316522
 40
37.3830326913583
 40
38.73645648736957
 40
40.08946006951136
 40
41.45177008618512
 40
42.81529338382339
 40
44.18708556405564
 40
45.55613125123042
 40
46.92769088354911
 40
48.30272238100224
 40
48.30272238100224
 40
48.30272238100224
 40
48.30272238100224
 10
360.8625635107779
 20
1019.869309322427
 30
0.0
 10
360.8406008904879
 20
1019.411498358258
 30
0.0
 10
360.7967310915318
 20
1018.497032373557
 30
0.0
 10
360.6587023841828
 20
1017.130421224909
 30
0.0
 10
360.3772340121044
 20
1015.786235425163
 30
0.0
 10
359.975665232487
 20
1014.476826793619
 30
0.0
 10
359.4738226649314
 20
1013.204960004659
 30
0.0
 10
358.8715798287081
 20
1011.984155409514
 30
0.0
 10
358.1677028910582
 20
1010.822885893002
 30
0.0
 10
357.370653992291
 20
1009.731841647505
 30
0.0
 10
356.4850649945802
 20
1008.716255895447
 30
0.0
 10
355.5200908044088
 20
1007.786580194796
 30
0.0
 10
354.479944167162
 20
1006.947864716904
 30
0.0
 10
353.3755857562297
 20
1006.20826695037
 30
0.0
 10
352.2124245450298
 20
1005.572019044497
 30
0.0
 10
351.0022039927218
 20
1005.04496688971
 30
0.0
 10
349.7515281342232
 20
1004.630672328336
 30
0.0
 10
348.4721266246399
 20
1004.332386209773
 30
0.0
 10
347.1721088287028
 20
1004.152679844128
 30
0.0
 10
345.8624385354346
 20
1004.0924110863
 30
0.0
 10
344.5527691971547
 20
1004.152700592923
 30
0.0
 10
343.252754248427
 20
1004.332427554427
 30
0.0
 10
341.9733574646822
 20
1004.630733942215
 30
0.0
 10
340.7226881699133
 20
1005.045048317705
 30
0.0
 10
339.5124759677226
 20
1005.57211964567
 30
0.0
 10
338.3493248365961
 20
1006.208385979156
 30
0.0
 10
337.2449781430792
 20
1006.948001241692
 30
0.0
 10
336.204844793538
 20
1007.786733198281
 30
0.0
 10
335.2398853321242
 20
1008.716424186677
 30
0.0
 10
334.3543124242153
 20
1009.73202396879
 30
0.0
 10
333.5572808107089
 20
1010.82308084161
 30
0.0
 10
332.8534222708711
 20
1011.984361509335
 30
0.0
 10
332.2511987756481
 20
1013.205175645521
 30
0.0
 10
331.749376358047
 20
1014.477050384898
 30
0.0
 10
331.3478283231377
 20
1015.786465378239
 30
0.0
 10
331.0663812467189
 20
1017.130655637054
 30
0.0
 10
330.9283741902911
 20
1018.497268972288
 30
0.0
 10
330.884518879013
 20
1019.411735651892
 30
0.0
 10
330.8625635117188
 20
1019.869546963953
 30
0.0
 11
360.8625635107779
 21
1019.869309322427
 31
0.0
 11
360.7845840442757
 21
1018.496490748663
 31
0.0
 11
360.6346581317847
 21
1017.133149981062
 31
0.0
 11
360.3573201551414
 21
1015.792489791678
 31
0.0
 11
359.9579101327868
 21
1014.48013106703
 31
0.0
 11
359.4565003094029
 21
1013.21214685031
 31
0.0
 11
358.8528821592829
 21
1011.990863217541
 31
0.0
 11
358.1516242389065
 21
1010.833773755345
 31
0.0
 11
357.353149927077
 21
1009.740981576571
 31
0.0
 11
356.4709267436866
 21
1008.729620204846
 31
0.0
 11
355.5042820411433
 21
1007.798847659286
 31
0.0
 11
354.4683020170201
 21
1006.963688832725
 31
0.0
 11
353.3624554166239
 21
1006.223472221998
 31
0.0
 11
352.2037024299819
 21
1005.589780561016
 31
0.0
 11
350.9927483716882
 21
1005.062722250187
 31
0.0
 11
349.7461278918911
 21
1004.649825451607
 31
0.0
 11
348.4671632557665
 21
1004.351866544381
 31
0.0
 11
347.1702782396478
 21
1004.172555523602
 31
0.0
 11
345.8624386945991
 21
1004.112504095489
 31
0.0
 11
344.5546001010953
 21
1004.172576243393
 31
0.0
 11
343.2577179259221
 21
1004.351907810399
 31
0.0
 11
341.9787580104521
 21
1004.649886979929
 31
0.0
 11
340.7321440722399
 21
1005.062803528376
 31
0.0
 11
339.5211983641607
 21
1005.589881024004
 31
0.0
 11
338.3624554170943
 21
1006.223591042761
 31
0.0
 11
337.2566205439173
 21
1006.963825173067
 31
0.0
 11
336.220653751152
 21
1007.799000412315
 31
0.0
 11
335.2540237947441
 21
1008.729788272086
 31
0.0
 11
334.3718166342284
 21
1009.741163620542
 31
0.0
 11
333.5733596353525
 21
1010.833968449222
 31
0.0
 11
332.8721200465645
 21
1011.991069021139
 31
0.0
 11
332.2685212450341
 21
1013.212362216737
 31
0.0
 11
331.7671315100936
 21
1014.480354377019
 31
0.0
 11
331.3677422791847
 21
1015.792719429263
 31
0.0
 11
331.090425542345
 21
1017.13338401228
 31
0.0
 11
330.9405212289647
 21
1018.496727154951
 31
0.0
 11
330.8625635117188
 21
1019.869546963953
 31
0.0
  0
SPLINE
  5
C0
330
47
100
AcDbEntity
  8
1
  6
Continuous
 62
     7
100
AcDbSpline
210
0.0
220
0.0
230
1.0
 70
     8
 71
     3
 72
    11
 73
     7
 74
     5
 42
0.000000001
 43
0.0000000001
 44
0.00000001
 40
0.0
 40
0.0
 40
0.0
 40
0.0
 40
0.3378020020336286
 40
0.6765369452924115
 40
0.6889181616344424
 40
0.70129748744646
 40
0.70129748744646
 40
0.70129748744646
 40
0.70129748744646
 10
359.9160655175384
 20
692.9252056425732
 30
0.0
 10
359.8396490697052
 20
693.0079593121578
 30
0.0
 10
359.6866051040674
 20
693.1736951757591
 30
0.0
 10
359.5167689070954
 20
693.3287078283502
 30
0.0
 10
359.4249792459322
 20
693.4077980525162
 30
0.0
 10
359.4187179337953
 20
693.4131754921433
 30
0.0
 10
359.4155875120983
 20
693.4158640012404
 30
0.0
 11
359.9160655175384
 21
692.9252056425732
 31
0.0
 11
359.6833906404174
 21
693.1700986681435
 31
0.0
 11
359.4343556505148
 21
693.3997134241921
 31
0.0
 11
359.4249765761896
 21
693.4077959661735
 31
0.0
 11
359.4155875120983
 21
693.4158640012404
 31
0.0
  0
SPLINE
  5
C1
330
47
100
AcDbEntity
  8
1
  6
Continuous
 62
     7
100
AcDbSpline
210
0.0
220
0.0
230
1.0
 70
     8
 71
     3
 72
    35
 73
    31
 74
    29
 42
0.000000001
 43
0.0000000001
 44
0.00000001
 40
0.0
 40
0.0
 40
0.0
 40
0.0
 40
0.794537650773977
 40
1.588030060263737
 40
2.525013123196097
 40
3.461367355108439
 40
4.519812054475012
 40
5.577919007406222
 40
6.739196790060691
 40
7.900287560604748
 40
9.139174728673742
 40
10.37796136487835
 40
11.6650019936836
 40
12.95199836966235
 40
14.25533669054244
 40
15.55867501141728
 40
16.84567138737961
 40
18.13271201615893
 40
19.37149865233047
 40
20.61038582036132
 40
21.77147659086739
 40
22.93275437348866
 40
23.99086132640137
 40
25.04930602578579
 40
25.98566025779643
 40
26.92264332124029
 40
27.72843261545508
 40
28.5354075593197
 40
28.60768642286561
 40
28.67987044034898
 40
28.67987044034898
 40
28.67987044034898
 40
28.67987044034898
 10
359.4155875120983
 20
693.4158640012404
 30
0.0
 10
359.2100852522126
 20
693.5832814132738
 30
0.0
 10
358.7993510678792
 20
693.9178959806143
 30
0.0
 10
358.0858139337759
 20
694.3674665974585
 30
0.0
 10
357.3006912984128
 20
694.7855063023105
 30
0.0
 10
356.4076647717188
 20
695.1842272158796
 30
0.0
 10
355.4540873527479
 20
695.5412017064599
 30
0.0
 10
354.4115602005645
 20
695.8697026003191
 30
0.0
 10
353.3207893098257
 20
696.1542335188243
 30
0.0
 10
352.1596789293947
 20
696.4028696692101
 30
0.0
 10
350.9635300275815
 20
696.606015690181
 30
0.0
 10
349.7187778704024
 20
696.7676713869458
 30
0.0
 10
348.4527519685428
 20
696.8827546338812
 30
0.0
 10
347.1619188819209
 20
696.9529262394146
 30
0.0
 10
345.8639504758191
 20
696.9759563381731
 30
0.0
 10
344.5659820659695
 20
696.9529262417898
 30
0.0
 10
343.275148990493
 20
696.8827546239279
 30
0.0
 10
342.0091230484949
 20
696.7676714226775
 30
0.0
 10
340.7643710357047
 20
696.6060155609123
 30
0.0
 10
339.5682216107938
 20
696.4028701376579
 30
0.0
 10
338.4071130657754
 20
696.1542318899142
 30
0.0
 10
337.3163356194437
 20
695.8697084625328
 30
0.0
 10
336.2738308669291
 20
695.5411819723186
 30
0.0
 10
335.3201746571013
 20
695.1842975167261
 30
0.0
 10
334.4274100761889
 20
694.7852772748205
 30
0.0
 10
333.6377595899668
 20
694.3663471039123
 30
0.0
 10
332.920387527295
 20
693.908626663774
 30
0.0
 10
332.4780453528817
 20
693.5607588037929
 30
0.0
 10
332.2390292591963
 20
693.3523010036076
 30
0.0
 10
332.2033414363897
 20
693.3199692117302
 30
0.0
 10
332.1855092354923
 20
693.3038139347091
 30
0.0
 11
359.4155875120983
 21
693.4158640012404
 31
0.0
 11
358.7895624017842
 21
693.9051314421054
 31
0.0
 11
358.1220635492967
 21
694.3341716447511
 31
0.0
 11
357.2957264314762
 21
694.7758776871312
 31
0.0
 11
356.4414479957746
 21
695.159241223745
 31
0.0
 11
355.4509630182276
 21
695.5323962717509
 31
0.0
 11
354.4420466442813
 21
695.8512662659398
 31
0.0
 11
353.3187710614768
 21
696.1459152984132
 31
0.0
 11
352.1835357859906
 21
696.3895803257193
 31
0.0
 11
350.9623121613396
 21
696.5980372096468
 31
0.0
 11
349.7338771768241
 21
696.7578490287874
 31
0.0
 11
348.4521774259448
 21
696.8749785613082
 31
0.0
 11
347.1670785899291
 21
696.9448402251181
 31
0.0
 11
345.863950476123
 21
696.9682474095271
 31
0.0
 11
344.5608223623167
 21
696.944840225118
 31
0.0
 11
343.275723526301
 21
696.8749785613082
 31
0.0
 11
341.9940237754219
 21
696.7578490287874
 31
0.0
 11
340.7655887909063
 21
696.5980372096468
 31
0.0
 11
339.5443651662554
 21
696.3895803257193
 31
0.0
 11
338.4091298907692
 21
696.1459152984131
 31
0.0
 11
337.2858543079647
 21
695.8512662659398
 31
0.0
 11
336.2769379340183
 21
695.5323962717508
 31
0.0
 11
335.2864529564712
 21
695.1592412237449
 31
0.0
 11
334.4321745207698
 21
694.7758776871311
 31
0.0
 11
333.6058374029493
 21
694.334171644751
 31
0.0
 11
332.9283058148853
 21
693.897998132333
 31
0.0
 11
332.2935453017309
 21
693.399713424192
 31
0.0
 11
332.2391565169695
 21
693.3521099144423
 31
0.0
 11
332.1855092354923
 21
693.3038139347091
 31
0.0
  0
ARC
  5
C2
330
47
100
AcDbEntity
  8
1
  6
Continuous
 62
     7
100
AcDbCircle
 10
350.8627446544066
 20
703.5705964576562
 30
0.0
 40
10.0
100
AcDbArc
 50
0.0
 51
90.0
  0
ARC
  5
C3
330
47
100
AcDbEntity
  8
1
  6
Continuous
 62
     7
100
AcDbCircle
 10
340.8627324298648
 20
703.5705964576562
 30
0.0
 40
10.0
100
AcDbArc
 50
90.0
 51
180.0
  0
ARC
  5
C4
330
47
100
AcDbEntity
  8
1
  6
Continuous
 62
     7
100
AcDbCircle
 10
345.8627446544066
 20
586.7283487542508
 30
0.0
 40
15.0
100
AcDbArc
 50
270.0
 51
0.0
  0
ARC
  5
C5
330
47
100
AcDbEntity
  8
1
  6
Continuous
 62
     7
100
AcDbCircle
 10
345.8627324298648
 20
586.7283487542508
 30
0.0
 40
15.0
100
AcDbArc
 50
180.0
 51
270.0
  0
ARC
  5
C6
330
47
100
AcDbEntity
  8
1
  6
Continuous
 62
     7
100
AcDbCircle
 10
759.6863479900653
 20
563.5783321950311
 30
0.0
 40
0.5
100
AcDbArc
 50
180.0
 51
270.0
  0
ARC
  5
C7
330
47
100
AcDbEntity
  8
1
  6
Continuous
 62
     7
100
AcDbCircle
 10
759.6863479900653
 20
605.578332195031
 30
0.0
 40
0.5
100
AcDbArc
 50
90.0
 51
180.0
  0
ARC
  5
C8
330
47
100
AcDbEntity
  8
1
  6
Continuous
 62
     7
100
AcDbCircle
 10
622.5161259423378
 20
684.8937838942857
 30
0.0
 40
0.4999999999998306
100
AcDbArc
 50
67.31179802937325
 51
157.311798029243
  0
ARC
  5
C9
330
47
100
AcDbEntity
  8
1
  6
Continuous
 62
     7
100
AcDbCircle
 10
806.6863479900653
 20
563.5783321950311
 30
0.0
 40
0.5
100
AcDbArc
 50
270.0
 51
0.0
  0
ARC
  5
CA
330
47
100
AcDbEntity
  8
1
  6
Continuous
 62
     7
100
AcDbCircle
 10
759.6863479900653
 20
563.5783321950311
 30
0.0
 40
0.5
100
AcDbArc
 50
180.0
 51
270.0
  0
ARC
  5
CB
330
47
100
AcDbEntity
  8
1
  6
Continuous
 62
     7
100
AcDbCircle
 10
759.6863479900653
 20
605.578332195031
 30
0.0
 40
0.5
100
AcDbArc
 50
90.0
 51
180.0
  0
ARC
  5
CC
330
47
100
AcDbEntity
  8
1
  6
Continuous
 62
     7
100
AcDbCircle
 10
369.363950476123
 20
605.578332195031
 30
0.0
 40
0.5
100
AcDbArc
 50
0.0
 51
90.0
  0
ARC
  5
CD
330
47
100
AcDbEntity
  8
1
  6
Continuous
 62
     7
100
AcDbCircle
 10
603.2739282516966
 20
707.5705964576566
 30
0.0
 40
6.000000000000099
100
AcDbArc
 50
67.31179802925703
 51
157.3117980292569
  0
ARC
  5
CE
330
47
100
AcDbEntity
  8
1
  6
Continuous
 62
     7
100
AcDbCircle
 10
806.6863479900653
 20
563.5783321950311
 30
0.0
 40
0.5
100
AcDbArc
 50
270.0
 51
0.0
  0
ARC
  5
CF
330
47
100
AcDbEntity
  8
1
  6
Continuous
 62
     7
100
AcDbCircle
 10
369.363950476123
 20
605.578332195031
 30
0.0
 40
0.5
100
AcDbArc
 50
0.0
 51
90.0
  0
ARC
  5
D0
330
47
100
AcDbEntity
  8
1
  6
Continuous
 62
     7
100
AcDbCircle
 10
322.3639504761227
 20
605.578332195031
 30
0.0
 40
0.5
100
AcDbArc
 50
89.99999999996092
 51
180.0
  0
ARC
  5
D1
330
47
100
AcDbEntity
  8
1
  6
Continuous
 62
     7
100
AcDbCircle
 10
322.3639504761227
 20
605.578332195031
 30
0.0
 40
0.5
100
AcDbArc
 50
89.99999999996092
 51
180.0
  0
ENDBLK
  5
49
330
47
100
AcDbEntity
  8
0
100
AcDbBlockEnd
  0
BLOCK
  5
4B
330
4A
100
AcDbEntity
  8
0
100
AcDbBlockBegin
  2
50-11
 70
     0
 10
549.1716960595231
 20
769.5465998838686
 30
0.0
  3
50-11
  1

  0
LINE
  5
D2
330
4A
100
AcDbEntity
  8
1
  6
Continuous
 62
     7
100
AcDbLine
 10
273.8639504761229
 20
1194.960654012071
 30
0.0
 11
273.8639504761229
 21
1207.39141914586
 31
0.0
  0
LINE
  5
D3
330
4A
100
AcDbEntity
  8
1
  6
Continuous
 62
     7
100
AcDbLine
 10
273.8639504761229
 20
1182.529888878282
 30
0.0
 11
273.8639504761229
 21
1194.960654012071
 31
0.0
  0
LINE
  5
D4
330
4A
100
AcDbEntity
  8
1
  6
Continuous
 62
     7
100
AcDbLine
 10
417.863950476123
 20
1207.39141914586
 30
0.0
 11
417.863950476123
 21
1194.960654012071
 31
0.0
  0
LINE
  5
D5
330
4A
100
AcDbEntity
  8
1
  6
Continuous
 62
     7
100
AcDbLine
 10
417.863950476123
 20
1194.960654012071
 30
0.0
 11
417.863950476123
 21
1182.529888878282
 31
0.0
  0
LINE
  5
D6
330
4A
100
AcDbEntity
  8
1
  6
Continuous
 62
     7
100
AcDbLine
 10
273.863950476123
 20
542.7783321950308
 30
0.0
 11
273.863950476123
 21
554.7774890241109
 31
0.0
  0
LINE
  5
D7
330
4A
100
AcDbEntity
  8
1
  6
Continuous
 62
     7
100
AcDbLine
 10
417.863950476123
 20
542.7783321950308
 30
0.0
 11
273.863950476123
 21
542.7783321950308
 31
0.0
  0
LINE
  5
D8
330
4A
100
AcDbEntity
  8
1
  6
Continuous
 62
     7
100
AcDbLine
 10
321.863950476123
 20
561.7783321950309
 30
0.0
 11
321.863950476123
 21
562.2783321950308
 31
0.0
  0
LINE
  5
D9
330
4A
100
AcDbEntity
  8
1
  6
Continuous
 62
     7
100
AcDbLine
 10
322.363950476123
 20
562.7783321950308
 30
0.0
 11
369.363950476123
 21
562.7783321950308
 31
0.0
  0
LINE
  5
DA
330
4A
100
AcDbEntity
  8
1
  6
Continuous
 62
     7
100
AcDbLine
 10
810.6863479900651
 20
542.7783321950305
 30
0.0
 11
783.1863479900651
 21
542.7783321950305
 31
0.0
  0
LINE
  5
DB
330
4A
100
AcDbEntity
  8
1
  6
Continuous
 62
     7
100
AcDbLine
 10
810.6863479900651
 20
558.2753984074303
 30
0.0
 11
810.6863479900651
 21
542.7783321950305
 31
0.0
  0
LINE
  5
DC
330
4A
100
AcDbEntity
  8
1
  6
Continuous
 62
     7
100
AcDbLine
 10
807.1863479900651
 20
561.7783321950305
 30
0.0
 11
807.1863479900651
 21
562.2783321950305
 31
0.0
  0
LINE
  5
DD
330
4A
100
AcDbEntity
  8
1
  6
Continuous
 62
     7
100
AcDbLine
 10
783.1863479900651
 20
542.7783321950305
 30
0.0
 11
755.6863479900651
 21
542.7783321950305
 31
0.0
  0
LINE
  5
DE
330
4A
100
AcDbEntity
  8
1
  6
Continuous
 62
     7
100
AcDbLine
 10
755.6863479900651
 20
542.7783321950305
 30
0.0
 11
755.6863479900651
 21
558.2753984074303
 31
0.0
  0
LINE
  5
DF
330
4A
100
AcDbEntity
  8
1
  6
Continuous
 62
     7
100
AcDbLine
 10
759.1863479900651
 20
562.2783321950305
 30
0.0
 11
759.1863479900651
 21
561.7783321950305
 31
0.0
  0
LINE
  5
E0
330
4A
100
AcDbEntity
  8
1
  6
Continuous
 62
     7
100
AcDbLine
 10
806.6863479900651
 20
562.7783321950305
 30
0.0
 11
759.6863479900651
 21
562.7783321950305
 31
0.0
  0
LINE
  5
E1
330
4A
100
AcDbEntity
  8
1
  6
Continuous
 62
     7
100
AcDbLine
 10
417.863950476123
 20
554.7774890241109
 30
0.0
 11
417.863950476123
 21
542.7783321950308
 31
0.0
  0
LINE
  5
E2
330
4A
100
AcDbEntity
  8
1
  6
Continuous
 62
     7
100
AcDbLine
 10
369.863950476123
 20
562.2783321950308
 30
0.0
 11
369.863950476123
 21
561.7783321950309
 31
0.0
  0
ARC
  5
E3
330
4A
100
AcDbEntity
  8
1
  6
Continuous
 62
     7
100
AcDbCircle
 10
345.863950476123
 20
1767.46065401207
 30
0.0
 40
599.9999999999991
100
AcDbArc
 50
264.1432980900817
 51
267.7683263338627
  0
ARC
  5
E4
330
4A
100
AcDbEntity
  8
1
  6
Continuous
 62
     7
100
AcDbCircle
 10
345.863950476123
 20
622.4606540120708
 30
0.0
 40
600.0000000000003
100
AcDbArc
 50
84.14329809008169
 51
95.85670190991829
  0
ARC
  5
E5
330
4A
100
AcDbEntity
  8
1
  6
Continuous
 62
     7
100
AcDbCircle
 10
345.863950476123
 20
1767.46065401207
 30
0.0
 40
599.9999999999989
100
AcDbArc
 50
272.2316737599402
 51
275.8567019099183
  0
ARC
  5
E6
330
4A
100
AcDbEntity
  8
1
  6
Continuous
 62
     7
100
AcDbCircle
 10
345.863950476123
 20
-38.22166780496947
 30
0.0
 40
600.0000000000001
100
AcDbArc
 50
92.33827865581483
 51
96.63695793933634
  0
LINE
  5
E7
330
4A
100
AcDbEntity
  8
1
  6
Continuous
 62
     7
100
AcDbLine
 10
807.8094635679545
 20
561.2728711019649
 30
0.0
 11
807.6659483231209
 21
561.2787485147642
 31
0.0
  0
ARC
  5
E8
330
4A
100
AcDbEntity
  8
1
  6
Continuous
 62
     7
100
AcDbCircle
 10
783.1863479900651
 20
-42.55733279740828
 30
0.0
 40
599.9999999999999
100
AcDbArc
 50
87.66172134418517
 51
90.0
  0
LINE
  5
E9
330
4A
100
AcDbEntity
  8
1
  6
Continuous
 62
     7
100
AcDbLine
 10
758.7067476570094
 20
561.2787485147642
 30
0.0
 11
758.5632324121757
 21
561.2728711019649
 31
0.0
  0
ARC
  5
EA
330
4A
100
AcDbEntity
  8
1
  6
Continuous
 62
     7
100
AcDbCircle
 10
783.1863479900651
 20
-38.22166780496947
 30
0.0
 40
600.0000000000001
100
AcDbArc
 50
87.66172134418517
 51
92.33827865581483
  0
ARC
  5
EB
330
4A
100
AcDbEntity
  8
1
  6
Continuous
 62
     7
100
AcDbCircle
 10
783.1863479900651
 20
-42.55733279740828
 30
0.0
 40
600.0
100
AcDbArc
 50
90.0
 51
92.33827865581483
  0
ARC
  5
EC
330
4A
100
AcDbEntity
  8
1
  6
Continuous
 62
     7
100
AcDbCircle
 10
345.863950476123
 20
-38.22166780496947
 30
0.0
 40
600.0
100
AcDbArc
 50
83.36304206066364
 51
87.66172134418514
  0
ARC
  5
ED
330
4A
100
AcDbEntity
  8
1
  6
Continuous
 62
     7
100
AcDbCircle
 10
345.863950476123
 20
-38.22166780496947
 30
0.0
 40
600.0000000000002
100
AcDbArc
 50
87.66172134418514
 51
92.33827865581483
  0
ARC
  5
EE
330
4A
100
AcDbEntity
  8
1
  6
Continuous
 62
     7
100
AcDbCircle
 10
345.863950476123
 20
-38.22166780496947
 30
0.0
 40
599.3694603497913
100
AcDbArc
 50
83.37982033905685
 51
96.62017966094315
  0
SPLINE
  5
EF
330
4A
100
AcDbEntity
  8
1
  6
Continuous
 62
     7
100
AcDbSpline
210
0.0
220
0.0
230
1.0
 70
     8
 71
     3
 72
    11
 73
     7
 74
     5
 42
0.000000001
 43
0.0000000001
 44
0.00000001
 40
0.0
 40
0.0
 40
0.0
 40
0.0
 40
0.7308403477041827
 40
1.427223715192362
 40
2.179504259565112
 40
2.972071898821281
 40
2.972071898821281
 40
2.972071898821281
 40
2.972071898821281
 10
414.9634639008173
 20
557.1513306123845
 30
0.0
 10
415.1793698338579
 20
557.0390838157683
 30
0.0
 10
415.6010023608321
 20
556.8198823175178
 30
0.0
 10
416.188678708843
 20
556.3708490560641
 30
0.0
 10
416.5592621431794
 20
555.7043808906652
 30
0.0
 10
416.7210289763208
 20
555.2161650099249
 30
0.0
 10
416.8040216921714
 20
554.9656911340342
 30
0.0
 11
414.9634639008173
 21
557.1513306123845
 31
0.0
 11
415.6015322908841
 21
556.794965144884
 31
0.0
 11
416.138695137489
 21
556.3517881229558
 31
0.0
 11
416.5303884924736
 21
555.7095246758017
 31
0.0
 11
416.8040216921714
 21
554.9656911340342
 31
0.0
  0
SPLINE
  5
F0
330
4A
100
AcDbEntity
  8
1
  6
Continuous
 62
     7
100
AcDbSpline
210
0.0
220
0.0
230
1.0
 70
     8
 71
     3
 72
    11
 73
     7
 74
     5
 42
0.000000001
 43
0.0000000001
 44
0.00000001
 40
0.0
 40
0.0
 40
0.0
 40
0.0
 40
0.7308403477041332
 40
1.427223715192401
 40
2.17950425956521
 40
2.972071898821398
 40
2.972071898821398
 40
2.972071898821398
 40
2.972071898821398
 10
276.7644370514289
 20
557.1513306123845
 30
0.0
 10
276.5485311183881
 20
557.0390838157684
 30
0.0
 10
276.1268985914141
 20
556.8198823175177
 30
0.0
 10
275.5392222434032
 20
556.370849056064
 30
0.0
 10
275.1686388090667
 20
555.7043808906653
 30
0.0
 10
275.0068719759252
 20
555.2161650099248
 30
0.0
 10
274.9238792600746
 20
554.9656911340342
 30
0.0
 11
276.7644370514289
 21
557.1513306123845
 31
0.0
 11
276.1263686613622
 21
556.794965144884
 31
0.0
 11
275.5892058147572
 21
556.3517881229558
 31
0.0
 11
275.1975124597724
 21
555.7095246758017
 31
0.0
 11
274.9238792600746
 21
554.9656911340342
 31
0.0
  0
ARC
  5
F1
330
4A
100
AcDbEntity
  8
1
  6
Continuous
 62
     7
100
AcDbCircle
 10
285.863950476123
 20
1207.39141914586
 30
0.0
 40
12.00000000000017
100
AcDbArc
 50
95.85670190991796
 51
180.0
  0
ARC
  5
F2
330
4A
100
AcDbEntity
  8
1
  6
Continuous
 62
     7
100
AcDbCircle
 10
285.863950476123
 20
1182.529888878282
 30
0.0
 40
12.00000000000011
100
AcDbArc
 50
180.0
 51
264.143298090082
  0
ARC
  5
F3
330
4A
100
AcDbEntity
  8
1
  6
Continuous
 62
     7
100
AcDbCircle
 10
405.863950476123
 20
1207.39141914586
 30
0.0
 40
12.0
100
AcDbArc
 50
0.0
 51
84.14329809008044
  0
ARC
  5
F4
330
4A
100
AcDbEntity
  8
1
  6
Continuous
 62
     7
100
AcDbCircle
 10
405.863950476123
 20
1182.529888878282
 30
0.0
 40
12.0000000000002
100
AcDbArc
 50
275.8567019099195
 51
0.0
  0
ARC
  5
F5
330
4A
100
AcDbEntity
  8
1
  6
Continuous
 62
     7
100
AcDbCircle
 10
285.863950476123
 20
1182.529888878282
 30
0.0
 40
11.99999999999999
100
AcDbArc
 50
192.3629020750043
 51
264.143298090082
  0
ARC
  5
F6
330
4A
100
AcDbEntity
  8
1
  6
Continuous
 62
     7
100
AcDbCircle
 10
285.863950476123
 20
1207.39141914586
 30
0.0
 40
12.00000000000017
100
AcDbArc
 50
95.85670190991796
 51
167.6370979249957
  0
ARC
  5
F7
330
4A
100
AcDbEntity
  8
1
  6
Continuous
 62
     7
100
AcDbCircle
 10
276.863950476123
 20
554.7774890241109
 30
0.0
 40
2.999999999999867
100
AcDbArc
 50
96.63695793933647
 51
180.0
  0
ARC
  5
F8
330
4A
100
AcDbEntity
  8
1
  6
Continuous
 62
     7
100
AcDbCircle
 10
322.363950476123
 20
562.2783321950308
 30
0.0
 40
0.5
100
AcDbArc
 50
90.0
 51
180.0
  0
ARC
  5
F9
330
4A
100
AcDbEntity
  8
1
  6
Continuous
 62
     7
100
AcDbCircle
 10
321.363950476123
 20
561.7783321950309
 30
0.0
 40
0.5000000000001544
100
AcDbArc
 50
272.3382786558225
 51
0.0
  0
ARC
  5
FA
330
4A
100
AcDbEntity
  8
1
  6
Continuous
 62
     7
100
AcDbCircle
 10
807.6863479900651
 20
558.2753984074303
 30
0.0
 40
3.0
100
AcDbArc
 50
0.0
 51
87.64800516006103
  0
ARC
  5
FB
330
4A
100
AcDbEntity
  8
1
  6
Continuous
 62
     7
100
AcDbCircle
 10
806.6863479900651
 20
562.2783321950305
 30
0.0
 40
0.5
100
AcDbArc
 50
0.0
 51
90.0
  0
ARC
  5
FC
330
4A
100
AcDbEntity
  8
1
  6
Continuous
 62
     7
100
AcDbCircle
 10
807.6863479900651
 20
561.7783321950305
 30
0.0
 40
0.5
100
AcDbArc
 50
180.0
 51
267.6617213441895
  0
ARC
  5
FD
330
4A
100
AcDbEntity
  8
1
  6
Continuous
 62
     7
100
AcDbCircle
 10
807.6863479900651
 20
553.9397334149913
 30
0.0
 40
3.000000000000206
100
AcDbArc
 50
46.18451680604358
 51
87.64800516006113
  0
ARC
  5
FE
330
4A
100
AcDbEntity
  8
1
  6
Continuous
 62
     7
100
AcDbCircle
 10
758.6863479900651
 20
558.2753984074303
 30
0.0
 40
2.999999999999948
100
AcDbArc
 50
92.35199483993898
 51
180.0
  0
ARC
  5
FF
330
4A
100
AcDbEntity
  8
1
  6
Continuous
 62
     7
100
AcDbCircle
 10
759.6863479900651
 20
562.2783321950305
 30
0.0
 40
0.5
100
AcDbArc
 50
90.0
 51
180.0
  0
ARC
  5
100
330
4A
100
AcDbEntity
  8
1
  6
Continuous
 62
     7
100
AcDbCircle
 10
758.6863479900651
 20
561.7783321950305
 30
0.0
 40
0.4999999999999273
100
AcDbArc
 50
272.3382786558235
 51
0.0
  0
ARC
  5
101
330
4A
100
AcDbEntity
  8
1
  6
Continuous
 62
     7
100
AcDbCircle
 10
758.6863479900651
 20
553.9397334149913
 30
0.0
 40
3.000000000000061
100
AcDbArc
 50
92.35199483993888
 51
133.8154831939549
  0
ARC
  5
102
330
4A
100
AcDbEntity
  8
1
  6
Continuous
 62
     7
100
AcDbCircle
 10
414.863950476123
 20
554.7774890241109
 30
0.0
 40
3.0
100
AcDbArc
 50
0.0
 51
83.36304206066355
  0
ARC
  5
103
330
4A
100
AcDbEntity
  8
1
  6
Continuous
 62
     7
100
AcDbCircle
 10
369.363950476123
 20
562.2783321950308
 30
0.0
 40
0.5
100
AcDbArc
 50
0.0
 51
90.0
  0
ARC
  5
104
330
4A
100
AcDbEntity
  8
1
  6
Continuous
 62
     7
100
AcDbCircle
 10
370.363950476123
 20
561.7783321950309
 30
0.0
 40
0.5
100
AcDbArc
 50
180.0
 51
267.6617213442101
  0
ENDBLK
  5
4C
330
4A
100
AcDbEntity
  8
0
100
AcDbBlockEnd
  0
BLOCK
  5
4E
330
4D
100
AcDbEntity
  8
0
100
AcDbBlockBegin
  2
98-107A
 70
     0
 10
430.0525687572541
 20
577.2453224235927
 30
0.0
  3
98-107A
  1

  0
LINE
  5
105
330
4D
100
AcDbEntity
  8
0
  6
Continuous
 62
     7
100
AcDbLine
 10
276.363950476123
 20
540.7783321950305
 30
0.0
 11
276.363950476123
 21
541.7783321950305
 31
0.0
  0
LINE
  5
106
330
4D
100
AcDbEntity
  8
0
  6
Continuous
 62
     7
100
AcDbLine
 10
793.6863479900651
 20
541.7783321950305
 30
0.0
 11
772.6863479900651
 21
541.7783321950305
 31
0.0
  0
LINE
  5
107
330
4D
100
AcDbEntity
  8
1
  6
Continuous
 62
     7
100
AcDbLine
 10
808.1863479900651
 20
541.7783321950305
 30
0.0
 11
808.1863479900651
 21
538.7783321950305
 31
0.0
  0
LINE
  5
108
330
4D
100
AcDbEntity
  8
1
  6
Continuous
 62
     7
100
AcDbLine
 10
758.1863479900651
 20
538.7783321950305
 30
0.0
 11
758.1863479900651
 21
541.7783321950305
 31
0.0
  0
LINE
  5
109
330
4D
100
AcDbEntity
  8
1
  6
Continuous
 62
     7
100
AcDbLine
 10
758.1863479900651
 20
541.7783321950305
 30
0.0
 11
772.6863479900651
 21
541.7783321950305
 31
0.0
  0
LINE
  5
10A
330
4D
100
AcDbEntity
  8
1
  6
Continuous
 62
     7
100
AcDbLine
 10
808.1863479900651
 20
541.7783321950305
 30
0.0
 11
793.6863479900651
 21
541.7783321950305
 31
0.0
  0
LINE
  5
10B
330
4D
100
AcDbEntity
  8
1
  6
Continuous
 62
     7
100
AcDbLine
 10
415.3639504761229
 20
538.7783321950305
 30
0.0
 11
415.363950476123
 21
541.7783321950305
 31
0.0
  0
LINE
  5
10C
330
4D
100
AcDbEntity
  8
1
  6
Continuous
 62
     7
100
AcDbLine
 10
276.363950476123
 20
540.7783321950305
 30
0.0
 11
276.363950476123
 21
538.7783321950305
 31
0.0
  0
LINE
  5
10D
330
4D
100
AcDbEntity
  8
1
  6
Continuous
 62
     7
100
AcDbLine
 10
332.4820433200828
 20
538.7783321950305
 30
0.0
 11
333.0125509325445
 21
538.7783321950305
 31
0.0
  0
LINE
  5
10E
330
4D
100
AcDbEntity
  8
1
  6
Continuous
 62
     7
100
AcDbLine
 10
276.363950476123
 20
538.7783321950305
 30
0.0
 11
415.3639504761229
 21
538.7783321950305
 31
0.0
  0
LINE
  5
10F
330
4D
100
AcDbEntity
  8
1
  6
Continuous
 62
     7
100
AcDbLine
 10
758.1863479900651
 20
538.7783321950305
 30
0.0
 11
808.1863479900651
 21
538.7783321950305
 31
0.0
  0
ENDBLK
  5
4F
330
4D
100
AcDbEntity
  8
0
100
AcDbBlockEnd
  0
BLOCK
  5
51
330
50
100
AcDbEntity
  8
0
100
AcDbBlockBegin
  2
70-16
 70
     0
 10
540.4438953415281
 20
499.6399986061269
 30
0.0
  3
70-16
  1

  0
LINE
  5
110
330
50
100
AcDbEntity
  8
1
  6
Continuous
 62
     7
100
AcDbLine
 10
757.194179643515
 20
541.7783321950308
 30
0.0
 11
757.1941796435149
 21
542.2783321950309
 31
0.0
  0
LINE
  5
111
330
50
100
AcDbEntity
  8
0
  6
Continuous
 62
     7
100
AcDbLine
 10
304.8639504761234
 20
541.7783321950305
 30
0.0
 11
416.3639504761227
 21
541.7783321950305
 31
0.0
  0
LINE
  5
112
330
50
100
AcDbEntity
  8
1
  6
Continuous
 62
     7
100
AcDbLine
 10
304.8639504761234
 20
541.7783321950305
 30
0.0
 11
275.3639504761235
 21
541.7783321950305
 31
0.0
  0
LINE
  5
113
330
50
100
AcDbEntity
  8
1
  6
Continuous
 62
     7
100
AcDbLine
 10
275.3639504761235
 20
541.7783321950305
 30
0.0
 11
275.3639504761235
 21
542.7783321950308
 31
0.0
  0
LINE
  5
114
330
50
100
AcDbEntity
  8
1
  6
Continuous
 62
     7
100
AcDbLine
 10
416.3639504761227
 20
542.7783321950308
 30
0.0
 11
416.3639504761227
 21
541.7783321950305
 31
0.0
  0
LINE
  5
115
330
50
100
AcDbEntity
  8
1
  6
Continuous
 62
     7
100
AcDbLine
 10
758.1863479900651
 20
541.7783321950305
 30
0.0
 11
757.194179643515
 21
541.7783321950308
 31
0.0
  0
LINE
  5
116
330
50
100
AcDbEntity
  8
1
  6
Continuous
 62
     7
100
AcDbLine
 10
809.1785163366153
 20
542.2783321950309
 30
0.0
 11
809.1785163366152
 21
541.7783321950308
 31
0.0
  0
LINE
  5
117
330
50
100
AcDbEntity
  8
1
  6
Continuous
 62
     7
100
AcDbLine
 10
809.1785163366152
 20
541.7783321950308
 30
0.0
 11
808.1863479900651
 21
541.7783321950305
 31
0.0
  0
ARC
  5
118
330
50
100
AcDbEntity
  8
1
  6
Continuous
 62
     7
100
AcDbCircle
 10
758.1941796435149
 20
542.2783321950309
 30
0.0
 40
0.9999999999999115
100
AcDbArc
 50
150.0000000000196
 51
180.0
  0
ARC
  5
119
330
50
100
AcDbEntity
  8
1
  6
Continuous
 62
     7
100
AcDbCircle
 10
808.1785163366153
 20
542.2783321950309
 30
0.0
 40
1.0
100
AcDbArc
 50
0.0
 51
29.99999999997711
  0
ENDBLK
  5
52
330
50
100
AcDbEntity
  8
0
100
AcDbBlockEnd
  0
BLOCK
  5
54
330
53
100
AcDbEntity
  8
0
100
AcDbBlockBegin
  2
35-276__1
 70
     0
 10
384.4639504761227
 20
432.8503162308074
 30
0.0
  3
35-276__1
  1

  0
LINE
  5
11A
330
53
100
AcDbEntity
  8
1
  6
Continuous
 62
     7
100
AcDbLine
 10
793.6638479900649
 20
488.2783321950295
 30
0.0
 11
793.6638479900649
 21
513.7783321950303
 31
0.0
  0
LINE
  5
11B
330
53
100
AcDbEntity
  8
1
  6
Continuous
 62
     7
100
AcDbLine
 10
772.7088479900647
 20
488.2783321950295
 30
0.0
 11
772.7088479900647
 21
513.7789684842985
 31
0.0
  0
LINE
  5
11C
330
53
100
AcDbEntity
  8
1
  6
Continuous
 62
     2
100
AcDbLine
 10
792.5018479900649
 20
513.7783321950303
 30
0.0
 11
792.5018479900649
 21
488.2783321950295
 31
0.0
  0
LINE
  5
11D
330
53
100
AcDbEntity
  8
1
  6
Continuous
 62
     2
100
AcDbLine
 10
773.870847990065
 20
513.7783321950303
 30
0.0
 11
773.870847990065
 21
488.2783321950295
 31
0.0
  0
LINE
  5
11E
330
53
100
AcDbEntity
  8
1
  6
Continuous
 62
     7
100
AcDbLine
 10
773.870847990065
 20
531.7783321950303
 30
0.0
 11
772.7088479900652
 21
531.7783321950303
 31
0.0
  0
LINE
  5
11F
330
53
100
AcDbEntity
  8
1
  6
Continuous
 62
     7
100
AcDbLine
 10
792.5018479900648
 20
531.7783321950303
 30
0.0
 11
793.6638479900649
 21
531.7783321950302
 31
0.0
  0
LINE
  5
120
330
53
100
AcDbEntity
  8
1
  6
Continuous
 62
     7
100
AcDbLine
 10
793.6638479900649
 20
537.2783321950303
 30
0.0
 11
793.6638479900649
 21
535.2783321950303
 31
0.0
  0
LINE
  5
121
330
53
100
AcDbEntity
  8
1
  6
Continuous
 62
     7
100
AcDbLine
 10
772.7088479900652
 20
537.2783321950303
 30
0.0
 11
772.7088479900652
 21
535.2783321950303
 31
0.0
  0
LINE
  5
122
330
53
100
AcDbEntity
  8
1
  6
Continuous
 62
     7
100
AcDbLine
 10
793.6638479900649
 20
524.2783321950302
 30
0.0
 11
793.6638479900649
 21
531.7783321950302
 31
0.0
  0
LINE
  5
123
330
53
100
AcDbEntity
  8
1
  6
Continuous
 62
     7
100
AcDbLine
 10
772.7088479900647
 20
524.2783321950302
 30
0.0
 11
772.7088479900652
 21
531.7783321950303
 31
0.0
  0
LINE
  5
124
330
53
100
AcDbEntity
  8
1
  6
Continuous
 62
     7
100
AcDbLine
 10
792.5018479900648
 20
531.7783321950303
 30
0.0
 11
773.870847990065
 21
531.7783321950303
 31
0.0
  0
LINE
  5
125
330
53
100
AcDbEntity
  8
1
  6
Continuous
 62
     2
100
AcDbLine
 10
773.870847990065
 20
531.7783321950303
 30
0.0
 11
773.870847990065
 21
531.573784994681
 31
0.0
  0
LINE
  5
126
330
53
100
AcDbEntity
  8
1
  6
Continuous
 62
     2
100
AcDbLine
 10
792.5018479900648
 20
531.7783321950303
 30
0.0
 11
792.5018479900649
 21
524.2783321950302
 31
0.0
  0
LINE
  5
127
330
53
100
AcDbEntity
  8
0
  6
Continuous
 62
     7
100
AcDbLine
 10
772.7088479900652
 20
537.2783321950303
 30
0.0
 11
772.9363479900649
 21
537.2783321950303
 31
0.0
  0
LINE
  5
128
330
53
100
AcDbEntity
  8
0
  6
Continuous
 62
     7
100
AcDbLine
 10
793.4363479900649
 20
537.2783321950302
 30
0.0
 11
793.6638479900649
 21
537.2783321950303
 31
0.0
  0
LINE
  5
129
330
53
100
AcDbEntity
  8
0
  6
Continuous
 62
     2
100
AcDbLine
 10
793.6638479900649
 20
535.2783321950303
 30
0.0
 11
792.5018479900648
 21
531.7783321950303
 31
0.0
  0
LINE
  5
12A
330
53
100
AcDbEntity
  8
1
  6
Continuous
 62
     7
100
AcDbLine
 10
793.6638479900649
 20
535.2783321950303
 30
0.0
 11
793.6638479900649
 21
531.7783321950302
 31
0.0
  0
LINE
  5
12B
330
53
100
AcDbEntity
  8
0
  6
Continuous
 62
     2
100
AcDbLine
 10
773.870847990065
 20
531.573784994681
 30
0.0
 11
772.7088479900652
 21
535.2783321950303
 31
0.0
  0
LINE
  5
12C
330
53
100
AcDbEntity
  8
1
  6
Continuous
 62
     2
100
AcDbLine
 10
773.870847990065
 20
531.573784994681
 30
0.0
 11
773.870847990065
 21
524.2783321950302
 31
0.0
  0
LINE
  5
12D
330
53
100
AcDbEntity
  8
1
  6
Continuous
 62
     7
100
AcDbLine
 10
772.7088479900652
 20
535.2783321950303
 30
0.0
 11
772.7088479900652
 21
531.7783321950303
 31
0.0
  0
LINE
  5
12E
330
53
100
AcDbEntity
  8
1
  6
Continuous
 62
     7
100
AcDbLine
 10
407.3414504761228
 20
531.7783321950308
 30
0.0
 11
406.1794504761228
 21
531.7783321950305
 31
0.0
  0
LINE
  5
12F
330
53
100
AcDbEntity
  8
1
  6
Continuous
 62
     7
100
AcDbLine
 10
386.3864504761228
 20
531.7783321950303
 30
0.0
 11
387.548450476123
 21
531.7783321950305
 31
0.0
  0
LINE
  5
130
330
53
100
AcDbEntity
  8
1
  6
Continuous
 62
     7
100
AcDbLine
 10
386.3864504761228
 20
535.2783321950305
 30
0.0
 11
386.3864504761228
 21
537.2783321950305
 31
0.0
  0
LINE
  5
131
330
53
100
AcDbEntity
  8
1
  6
Continuous
 62
     7
100
AcDbLine
 10
407.3414504761228
 20
535.2783321950305
 30
0.0
 11
407.3414504761228
 21
537.2783321950305
 31
0.0
  0
LINE
  5
132
330
53
100
AcDbEntity
  8
1
  6
Continuous
 62
     7
100
AcDbLine
 10
386.3864504761228
 20
513.7783321950303
 30
0.0
 11
386.3864504761228
 21
488.2783321950295
 31
0.0
  0
LINE
  5
133
330
53
100
AcDbEntity
  8
1
  6
Continuous
 62
     7
100
AcDbLine
 10
407.3414504761229
 20
513.7789684842985
 30
0.0
 11
407.3414504761229
 21
488.2783321950295
 31
0.0
  0
LINE
  5
134
330
53
100
AcDbEntity
  8
1
  6
Continuous
 62
     2
100
AcDbLine
 10
387.5484504761229
 20
488.2783321950295
 30
0.0
 11
387.5484504761229
 21
513.7783321950303
 31
0.0
  0
LINE
  5
135
330
53
100
AcDbEntity
  8
1
  6
Continuous
 62
     2
100
AcDbLine
 10
406.1794504761227
 20
488.2783321950295
 30
0.0
 11
406.1794504761227
 21
513.7783321950303
 31
0.0
  0
LINE
  5
136
330
53
100
AcDbEntity
  8
1
  6
Continuous
 62
     7
100
AcDbLine
 10
386.3864504761228
 20
531.7783321950303
 30
0.0
 11
386.3864504761228
 21
524.2783321950303
 31
0.0
  0
LINE
  5
137
330
53
100
AcDbEntity
  8
1
  6
Continuous
 62
     7
100
AcDbLine
 10
407.3414504761228
 20
531.7783321950308
 30
0.0
 11
407.3414504761229
 21
524.2783321950303
 31
0.0
  0
LINE
  5
138
330
53
100
AcDbEntity
  8
1
  6
Continuous
 62
     7
100
AcDbLine
 10
406.1794504761228
 20
531.7783321950305
 30
0.0
 11
387.548450476123
 21
531.7783321950305
 31
0.0
  0
LINE
  5
139
330
53
100
AcDbEntity
  8
1
  6
Continuous
 62
     2
100
AcDbLine
 10
406.1794504761228
 20
531.5737849946813
 30
0.0
 11
406.1794504761228
 21
531.7783321950305
 31
0.0
  0
LINE
  5
13A
330
53
100
AcDbEntity
  8
1
  6
Continuous
 62
     2
100
AcDbLine
 10
387.5484504761229
 20
524.2783321950303
 30
0.0
 11
387.548450476123
 21
531.7783321950305
 31
0.0
  0
LINE
  5
13B
330
53
100
AcDbEntity
  8
0
  6
Continuous
 62
     7
100
AcDbLine
 10
407.1139504761227
 20
537.2783321950305
 30
0.0
 11
407.3414504761228
 21
537.2783321950305
 31
0.0
  0
LINE
  5
13C
330
53
100
AcDbEntity
  8
0
  6
Continuous
 62
     7
100
AcDbLine
 10
386.3864504761228
 20
537.2783321950305
 30
0.0
 11
386.6139504761227
 21
537.2783321950303
 31
0.0
  0
LINE
  5
13D
330
53
100
AcDbEntity
  8
0
  6
Continuous
 62
     2
100
AcDbLine
 10
387.548450476123
 20
531.7783321950305
 30
0.0
 11
386.3864504761228
 21
535.2783321950305
 31
0.0
  0
LINE
  5
13E
330
53
100
AcDbEntity
  8
1
  6
Continuous
 62
     7
100
AcDbLine
 10
386.3864504761228
 20
531.7783321950303
 30
0.0
 11
386.3864504761228
 21
535.2783321950305
 31
0.0
  0
LINE
  5
13F
330
53
100
AcDbEntity
  8
0
  6
Continuous
 62
     2
100
AcDbLine
 10
407.3414504761228
 20
535.2783321950305
 30
0.0
 11
406.1794504761228
 21
531.5737849946813
 31
0.0
  0
LINE
  5
140
330
53
100
AcDbEntity
  8
1
  6
Continuous
 62
     2
100
AcDbLine
 10
406.1794504761227
 20
524.2783321950303
 30
0.0
 11
406.1794504761228
 21
531.5737849946813
 31
0.0
  0
LINE
  5
141
330
53
100
AcDbEntity
  8
1
  6
Continuous
 62
     7
100
AcDbLine
 10
407.3414504761228
 20
531.7783321950308
 30
0.0
 11
407.3414504761228
 21
535.2783321950305
 31
0.0
  0
ENDBLK
  5
55
330
53
100
AcDbEntity
  8
0
100
AcDbBlockEnd
  0
BLOCK
  5
57
330
56
100
AcDbEntity
  8
0
100
AcDbBlockBegin
  2
92-53A
 70
     0
 10
-0.95259734304827
 20
339.0943354875502
 30
0.0
  3
92-53A
  1

  0
LINE
  5
142
330
56
100
AcDbEntity
  8
1
  6
Continuous
 62
     7
100
AcDbLine
 10
276.3639504761228
 20
524.2783321950303
 30
0.0
 11
313.3639504761229
 21
524.2783321950303
 31
0.0
  0
LINE
  5
143
330
56
100
AcDbEntity
  8
1
  6
Continuous
 62
     7
100
AcDbLine
 10
313.3639504761229
 20
522.2783321950303
 30
0.0
 11
313.3639504761229
 21
524.2783321950303
 31
0.0
  0
LINE
  5
144
330
56
100
AcDbEntity
  8
1
  6
Continuous
 62
     7
100
AcDbLine
 10
276.3639504761228
 20
524.2783321950303
 30
0.0
 11
276.3639504761228
 21
522.2783321950303
 31
0.0
  0
LINE
  5
145
330
56
100
AcDbEntity
  8
1
  6
Continuous
 62
     7
100
AcDbLine
 10
764.6863479900651
 20
524.2783321950303
 30
0.0
 11
801.6863479900651
 21
524.2783321950303
 31
0.0
  0
LINE
  5
146
330
56
100
AcDbEntity
  8
1
  6
Continuous
 62
     7
100
AcDbLine
 10
801.6863479900651
 20
522.2783321950303
 30
0.0
 11
801.6863479900651
 21
524.2783321950303
 31
0.0
  0
LINE
  5
147
330
56
100
AcDbEntity
  8
1
  6
Continuous
 62
     7
100
AcDbLine
 10
764.6863479900651
 20
524.2783321950303
 30
0.0
 11
764.6863479900651
 21
522.2783321950303
 31
0.0
  0
LINE
  5
148
330
56
100
AcDbEntity
  8
1
  6
Continuous
 62
     7
100
AcDbLine
 10
378.3639504761234
 20
524.2783321950303
 30
0.0
 11
415.3639504761234
 21
524.2783321950303
 31
0.0
  0
LINE
  5
149
330
56
100
AcDbEntity
  8
1
  6
Continuous
 62
     7
100
AcDbLine
 10
378.3639504761234
 20
524.2783321950303
 30
0.0
 11
378.3639504761234
 21
522.2783321950303
 31
0.0
  0
LINE
  5
14A
330
56
100
AcDbEntity
  8
1
  6
Continuous
 62
     7
100
AcDbLine
 10
415.3639504761234
 20
522.2783321950303
 30
0.0
 11
415.3639504761234
 21
524.2783321950303
 31
0.0
  0
ENDBLK
  5
58
330
56
100
AcDbEntity
  8
0
100
AcDbBlockEnd
  0
BLOCK
  5
5A
330
59
100
AcDbEntity
  8
0
100
AcDbBlockBegin
  2
73-1-21_5
 70
     0
 10
99.58876906766275
 20
538.1654607305719
 30
0.0
  3
73-1-21_5
  1

  0
LINE
  5
14B
330
59
100
AcDbEntity
  8
1
  6
Continuous
 62
     7
100
AcDbLine
 10
273.3639504761235
 20
522.2783321950304
 30
0.0
 11
273.3639504761235
 21
521.2783321950303
 31
0.0
  0
LINE
  5
14C
330
59
100
AcDbEntity
  8
1
  6
Continuous
 62
     7
100
AcDbLine
 10
273.3639504761235
 20
521.2783321950303
 30
0.0
 11
276.6007834692722
 21
521.2783321950304
 31
0.0
  0
LINE
  5
14D
330
59
100
AcDbEntity
  8
1
  6
Continuous
 62
     7
100
AcDbLine
 10
283.1391318845832
 20
519.7783321950304
 30
0.0
 11
285.9346150402479
 21
519.7783321950304
 31
0.0
  0
LINE
  5
14E
330
59
100
AcDbEntity
  8
1
  6
Continuous
 62
     7
100
AcDbLine
 10
286.8006404440322
 20
519.7783321950304
 30
0.0
 11
294.3639504678038
 21
519.7783321950304
 31
0.0
  0
LINE
  5
14F
330
59
100
AcDbEntity
  8
1
  6
Continuous
 62
     7
100
AcDbLine
 10
294.8639504761234
 20
522.2783321950304
 30
0.0
 11
273.3639504761235
 21
522.2783321950304
 31
0.0
  0
LINE
  5
150
330
59
100
AcDbEntity
  8
1
  6
Continuous
 62
     7
100
AcDbLine
 10
316.3639504761235
 20
522.2783321950304
 30
0.0
 11
294.8639504761234
 21
522.2783321950304
 31
0.0
  0
LINE
  5
151
330
59
100
AcDbEntity
  8
1
  6
Continuous
 62
     7
100
AcDbLine
 10
295.3639504844431
 20
519.7783321950304
 30
0.0
 11
302.9272605082143
 21
519.7783321950304
 31
0.0
  0
LINE
  5
152
330
59
100
AcDbEntity
  8
1
  6
Continuous
 62
     7
100
AcDbLine
 10
303.793285911999
 20
519.7783321950304
 30
0.0
 11
306.5887690676635
 21
519.7783321950304
 31
0.0
  0
LINE
  5
153
330
59
100
AcDbEntity
  8
1
  6
Continuous
 62
     7
100
AcDbLine
 10
313.1271174829747
 20
521.2783321950304
 30
0.0
 11
316.3639504761235
 21
521.2783321950303
 31
0.0
  0
LINE
  5
154
330
59
100
AcDbEntity
  8
1
  6
Continuous
 62
     7
100
AcDbLine
 10
316.3639504761235
 20
521.2783321950303
 30
0.0
 11
316.3639504761235
 21
522.2783321950304
 31
0.0
  0
LINE
  5
155
330
59
100
AcDbEntity
  8
1
  6
Continuous
 62
     7
100
AcDbLine
 10
276.6007834692722
 20
521.2783321950304
 30
0.0
 11
282.4947822448321
 21
521.2783321950304
 31
0.0
  0
LINE
  5
156
330
59
100
AcDbEntity
  8
1
  6
Continuous
 62
     7
100
AcDbLine
 10
283.2018890260189
 20
521.2783321950304
 30
0.0
 11
289.9829672891941
 21
521.2783321950304
 31
0.0
  0
LINE
  5
157
330
59
100
AcDbEntity
  8
1
  6
Continuous
 62
     7
100
AcDbLine
 10
290.948893115483
 20
521.2783321950304
 30
0.0
 11
298.7790078367635
 21
521.2783321950304
 31
0.0
  0
LINE
  5
158
330
59
100
AcDbEntity
  8
1
  6
Continuous
 62
     7
100
AcDbLine
 10
299.7449336630526
 20
521.2783321950304
 30
0.0
 11
306.5260119262281
 21
521.2783321950304
 31
0.0
  0
LINE
  5
159
330
59
100
AcDbEntity
  8
1
  6
Continuous
 62
     7
100
AcDbLine
 10
307.2331187074145
 20
521.2783321950304
 30
0.0
 11
313.1271174829747
 21
521.2783321950304
 31
0.0
  0
LINE
  5
15A
330
59
100
AcDbEntity
  8
1
  6
Continuous
 62
     7
100
AcDbLine
 10
761.6863479900651
 20
522.2783321950304
 30
0.0
 11
761.6863479900651
 21
521.2783321950303
 31
0.0
  0
LINE
  5
15B
330
59
100
AcDbEntity
  8
1
  6
Continuous
 62
     7
100
AcDbLine
 10
761.6863479900651
 20
521.2783321950303
 30
0.0
 11
764.923180983214
 21
521.2783321950304
 31
0.0
  0
LINE
  5
15C
330
59
100
AcDbEntity
  8
1
  6
Continuous
 62
     7
100
AcDbLine
 10
771.461529398525
 20
519.7783321950304
 30
0.0
 11
774.2570125541895
 21
519.7783321950304
 31
0.0
  0
LINE
  5
15D
330
59
100
AcDbEntity
  8
1
  6
Continuous
 62
     7
100
AcDbLine
 10
775.123037957974
 20
519.7783321950304
 30
0.0
 11
782.6863479817454
 21
519.7783321950304
 31
0.0
  0
LINE
  5
15E
330
59
100
AcDbEntity
  8
1
  6
Continuous
 62
     7
100
AcDbLine
 10
783.1863479900651
 20
522.2783321950304
 30
0.0
 11
761.6863479900651
 21
522.2783321950304
 31
0.0
  0
LINE
  5
15F
330
59
100
AcDbEntity
  8
1
  6
Continuous
 62
     7
100
AcDbLine
 10
804.6863479900651
 20
522.2783321950304
 30
0.0
 11
783.1863479900651
 21
522.2783321950304
 31
0.0
  0
LINE
  5
160
330
59
100
AcDbEntity
  8
1
  6
Continuous
 62
     7
100
AcDbLine
 10
783.6863479983847
 20
519.7783321950304
 30
0.0
 11
791.2496580221564
 21
519.7783321950304
 31
0.0
  0
LINE
  5
161
330
59
100
AcDbEntity
  8
1
  6
Continuous
 62
     7
100
AcDbLine
 10
792.1156834259407
 20
519.7783321950304
 30
0.0
 11
794.9111665816052
 21
519.7783321950304
 31
0.0
  0
LINE
  5
162
330
59
100
AcDbEntity
  8
1
  6
Continuous
 62
     7
100
AcDbLine
 10
801.4495149969164
 20
521.2783321950304
 30
0.0
 11
804.6863479900651
 21
521.2783321950303
 31
0.0
  0
LINE
  5
163
330
59
100
AcDbEntity
  8
1
  6
Continuous
 62
     7
100
AcDbLine
 10
804.6863479900651
 20
521.2783321950303
 30
0.0
 11
804.6863479900651
 21
522.2783321950304
 31
0.0
  0
LINE
  5
164
330
59
100
AcDbEntity
  8
1
  6
Continuous
 62
     7
100
AcDbLine
 10
764.923180983214
 20
521.2783321950304
 30
0.0
 11
770.817179758774
 21
521.2783321950304
 31
0.0
  0
LINE
  5
165
330
59
100
AcDbEntity
  8
1
  6
Continuous
 62
     7
100
AcDbLine
 10
771.5242865399604
 20
521.2783321950304
 30
0.0
 11
778.305364803136
 21
521.2783321950304
 31
0.0
  0
LINE
  5
166
330
59
100
AcDbEntity
  8
1
  6
Continuous
 62
     7
100
AcDbLine
 10
779.2712906294248
 20
521.2783321950304
 30
0.0
 11
787.1014053507056
 21
521.2783321950304
 31
0.0
  0
LINE
  5
167
330
59
100
AcDbEntity
  8
1
  6
Continuous
 62
     7
100
AcDbLine
 10
788.0673311769946
 20
521.2783321950304
 30
0.0
 11
794.8484094401699
 21
521.2783321950304
 31
0.0
  0
LINE
  5
168
330
59
100
AcDbEntity
  8
1
  6
Continuous
 62
     7
100
AcDbLine
 10
795.5555162213566
 20
521.2783321950304
 30
0.0
 11
801.4495149969164
 21
521.2783321950304
 31
0.0
  0
LINE
  5
169
330
59
100
AcDbEntity
  8
1
  6
Continuous
 62
     7
100
AcDbLine
 10
418.3639504761227
 20
521.2783321950303
 30
0.0
 11
418.3639504761227
 21
522.2783321950304
 31
0.0
  0
LINE
  5
16A
330
59
100
AcDbEntity
  8
1
  6
Continuous
 62
     7
100
AcDbLine
 10
415.127117482974
 20
521.2783321950304
 30
0.0
 11
418.3639504761227
 21
521.2783321950303
 31
0.0
  0
LINE
  5
16B
330
59
100
AcDbEntity
  8
1
  6
Continuous
 62
     7
100
AcDbLine
 10
405.7932859119982
 20
519.7783321950304
 30
0.0
 11
408.5887690676631
 21
519.7783321950304
 31
0.0
  0
LINE
  5
16C
330
59
100
AcDbEntity
  8
1
  6
Continuous
 62
     7
100
AcDbLine
 10
397.3639504844423
 20
519.7783321950304
 30
0.0
 11
404.9272605082139
 21
519.7783321950304
 31
0.0
  0
LINE
  5
16D
330
59
100
AcDbEntity
  8
1
  6
Continuous
 62
     7
100
AcDbLine
 10
418.3639504761227
 20
522.2783321950304
 30
0.0
 11
396.8639504761227
 21
522.2783321950304
 31
0.0
  0
LINE
  5
16E
330
59
100
AcDbEntity
  8
1
  6
Continuous
 62
     7
100
AcDbLine
 10
396.8639504761227
 20
522.2783321950304
 30
0.0
 11
375.3639504761227
 21
522.2783321950304
 31
0.0
  0
LINE
  5
16F
330
59
100
AcDbEntity
  8
1
  6
Continuous
 62
     7
100
AcDbLine
 10
388.8006404440317
 20
519.7783321950304
 30
0.0
 11
396.3639504678031
 21
519.7783321950304
 31
0.0
  0
LINE
  5
170
330
59
100
AcDbEntity
  8
1
  6
Continuous
 62
     7
100
AcDbLine
 10
385.1391318845825
 20
519.7783321950304
 30
0.0
 11
387.9346150402471
 21
519.7783321950304
 31
0.0
  0
LINE
  5
171
330
59
100
AcDbEntity
  8
1
  6
Continuous
 62
     7
100
AcDbLine
 10
375.3639504761227
 20
521.2783321950303
 30
0.0
 11
378.6007834692715
 21
521.2783321950304
 31
0.0
  0
LINE
  5
172
330
59
100
AcDbEntity
  8
1
  6
Continuous
 62
     7
100
AcDbLine
 10
375.3639504761227
 20
522.2783321950304
 30
0.0
 11
375.3639504761227
 21
521.2783321950303
 31
0.0
  0
LINE
  5
173
330
59
100
AcDbEntity
  8
1
  6
Continuous
 62
     7
100
AcDbLine
 10
409.2331187074141
 20
521.2783321950304
 30
0.0
 11
415.127117482974
 21
521.2783321950304
 31
0.0
  0
LINE
  5
174
330
59
100
AcDbEntity
  8
1
  6
Continuous
 62
     7
100
AcDbLine
 10
401.7449336630522
 20
521.2783321950304
 30
0.0
 11
408.5260119262273
 21
521.2783321950304
 31
0.0
  0
LINE
  5
175
330
59
100
AcDbEntity
  8
1
  6
Continuous
 62
     7
100
AcDbLine
 10
392.9488931154825
 20
521.2783321950304
 30
0.0
 11
400.7790078367631
 21
521.2783321950304
 31
0.0
  0
LINE
  5
176
330
59
100
AcDbEntity
  8
1
  6
Continuous
 62
     7
100
AcDbLine
 10
385.201889026018
 20
521.2783321950304
 30
0.0
 11
391.9829672891934
 21
521.2783321950304
 31
0.0
  0
LINE
  5
177
330
59
100
AcDbEntity
  8
1
  6
Continuous
 62
     7
100
AcDbLine
 10
378.6007834692715
 20
521.2783321950304
 30
0.0
 11
384.4947822448315
 21
521.2783321950304
 31
0.0
  0
ARC
  5
178
330
59
100
AcDbEntity
  8
1
  6
Continuous
 62
     7
100
AcDbCircle
 10
283.1391318845832
 20
529.7783321950304
 30
0.0
 40
10.0
100
AcDbArc
 50
244.1580672368328
 51
270.0
  0
ARC
  5
179
330
59
100
AcDbEntity
  8
1
  6
Continuous
 62
     7
100
AcDbCircle
 10
306.5887690676635
 20
529.7783321950304
 30
0.0
 40
10.0
100
AcDbArc
 50
270.0
 51
295.8419327631672
  0
ARC
  5
17A
330
59
100
AcDbEntity
  8
1
  6
Continuous
 62
     7
100
AcDbCircle
 10
771.461529398525
 20
529.7783321950304
 30
0.0
 40
10.0
100
AcDbArc
 50
244.1580672368328
 51
270.0
  0
ARC
  5
17B
330
59
100
AcDbEntity
  8
1
  6
Continuous
 62
     7
100
AcDbCircle
 10
794.9111665816052
 20
529.7783321950304
 30
0.0
 40
10.0
100
AcDbArc
 50
270.0
 51
295.8419327631683
  0
ARC
  5
17C
330
59
100
AcDbEntity
  8
1
  6
Continuous
 62
     7
100
AcDbCircle
 10
408.5887690676631
 20
529.7783321950304
 30
0.0
 40
10.0
100
AcDbArc
 50
270.0
 51
295.8419327631657
  0
ARC
  5
17D
330
59
100
AcDbEntity
  8
1
  6
Continuous
 62
     7
100
AcDbCircle
 10
385.1391318845825
 20
529.7783321950304
 30
0.0
 40
9.999999999999929
100
AcDbArc
 50
244.1580672368337
 51
270.0
  0
SPLINE
  5
17E
330
59
100
AcDbEntity
  8
1
  6
Continuous
 62
     7
100
AcDbSpline
210
0.0
220
0.0
230
1.0
 70
     8
 71
     3
 72
    31
 73
    27
 74
    25
 42
0.000000001
 43
0.0000000001
 44
0.00000001
 40
0.0
 40
0.0
 40
0.0
 40
0.0
 40
0.2709659657161791
 40
0.5252266825988349
 40
1.065749191989618
 40
1.674599338716185
 40
2.320394603574502
 40
2.934363293921487
 40
3.290221355350014
 40
3.646480797917767
 40
4.682658411629387
 40
5.750236623408988
 40
6.775822658068877
 40
7.208802824113889
 40
7.646130372373277
 40
8.816358621488032
 40
10.01163910374903
 40
11.17461240969555
 40
11.65874765828536
 40
12.14501675838394
 40
13.08086599532719
 40
14.04099014818397
 40
14.98716394131837
 40
15.89608035491237
 40
16.14448976460337
 40
16.39628796371013
 40
16.39628796371013
 40
16.39628796371013
 40
16.39628796371013
 10
381.8978878233612
 20
520.318187537807
 30
0.0
 10
381.9812843761201
 20
520.2838882555101
 30
0.0
 10
382.1429360193954
 20
520.2174042562089
 30
0.0
 10
382.4896551503242
 20
520.1202379621365
 30
0.0
 10
382.9697995479174
 20
520.252019867131
 30
0.0
 10
383.4439372137648
 20
520.6190583633293
 30
0.0
 10
383.9224095558066
 20
521.0140061144334
 30
0.0
 10
384.4029291366103
 20
521.2861844597057
 30
0.0
 10
384.8488027356819
 20
521.3344440063049
 30
0.0
 10
385.4313843527606
 20
521.2610902674278
 30
0.0
 10
386.1721283873105
 20
520.8532916421483
 30
0.0
 10
386.9690469415578
 20
520.1973282346718
 30
0.0
 10
387.7316626623081
 20
519.7789770978
 30
0.0
 10
388.367243544847
 20
519.7213201997748
 30
0.0
 10
389.048066883064
 20
519.7896639853225
 30
0.0
 10
389.9150370476926
 20
520.1948735862456
 30
0.0
 10
390.8756118837053
 20
520.8576969463941
 30
0.0
 10
391.7522841294398
 20
521.273549403104
 30
0.0
 10
392.4656436267732
 20
521.3400654477938
 30
0.0
 10
393.1024908034883
 20
521.2802852360734
 30
0.0
 10
393.8496367448155
 20
520.9755953740066
 30
0.0
 10
394.6521781940669
 20
520.4741429090219
 30
0.0
 10
395.4578200644071
 20
519.9926019657207
 30
0.0
 10
396.1429520478588
 20
519.7770085085933
 30
0.0
 10
396.6134950559186
 20
519.7688337631471
 30
0.0
 10
396.7800891239866
 20
519.7751517880183
 30
0.0
 10
396.8639504761227
 20
519.7783321950304
 30
0.0
 11
381.8978878233612
 21
520.318187537807
 31
0.0
 11
382.1505313976905
 21
520.2202396853128
 31
0.0
 11
382.3978878233612
 21
520.1613898016907
 31
0.0
 11
382.9266111215355
 21
520.2737119017785
 31
0.0
 11
383.4317974533538
 21
520.6135431390636
 31
0.0
 11
383.9442525755435
 21
521.0065333059972
 31
0.0
 11
384.4947822448315
 21
521.2783321950304
 31
0.0
 11
384.8481335227235
 21
521.3204965691434
 31
0.0
 11
385.201889026018
 21
521.2783321950304
 31
0.0
 11
386.138965437064
 21
520.8361197492073
 31
0.0
 11
387.0054568062307
 21
520.2124884925634
 31
0.0
 11
387.9346150402471
 21
519.7783321950304
 31
0.0
 11
388.3654433026104
 21
519.7352180067419
 31
0.0
 11
388.8006404440317
 21
519.7783321950304
 31
0.0
 11
389.8858191784944
 21
520.2163062460257
 31
0.0
 11
390.9063339631748
 21
520.8385963746138
 31
0.0
 11
391.9829672891934
 21
521.2783321950304
 31
0.0
 11
392.4648583297588
 21
521.3248935969142
 31
0.0
 11
392.9488931154825
 21
521.2783321950304
 31
0.0
 11
393.8275834078968
 21
520.9562807009145
 31
0.0
 11
394.6579562826012
 21
520.4742855996403
 31
0.0
 11
395.4875619139062
 21
520.0193137960612
 31
0.0
 11
396.3639504761226
 21
519.7783321950304
 31
0.0
 11
396.6122553761509
 21
519.7711272760378
 31
0.0
 11
396.8639504761227
 21
519.7783321950304
 31
0.0
  0
SPLINE
  5
17F
330
59
100
AcDbEntity
  8
1
  6
Continuous
 62
     7
100
AcDbSpline
210
0.0
220
0.0
230
1.0
 70
     8
 71
     3
 72
    31
 73
    27
 74
    25
 42
0.000000001
 43
0.0000000001
 44
0.00000001
 40
0.0
 40
0.0
 40
0.0
 40
0.0
 40
0.2709659657161791
 40
0.5252266825988349
 40
1.065749191989507
 40
1.674599338716122
 40
2.320394603574348
 40
2.934363293921333
 40
3.290221355350029
 40
3.646480797917952
 40
4.682658411629621
 40
5.750236623409288
 40
6.775822658069081
 40
7.208802824113923
 40
7.646130372373141
 40
8.816358621487897
 40
10.01163910374879
 40
11.17461240969541
 40
11.65874765828521
 40
12.1450167583838
 40
13.0808659953271
 40
14.04099014818393
 40
14.98716394131847
 40
15.89608035491253
 40
16.14448976460347
 40
16.39628796371024
 40
16.39628796371024
 40
16.39628796371024
 40
16.39628796371024
 10
411.8300131288843
 20
520.318187537807
 30
0.0
 10
411.7466165761252
 20
520.2838882555101
 30
0.0
 10
411.5849649328502
 20
520.217404256209
 30
0.0
 10
411.2382458019213
 20
520.1202379621362
 30
0.0
 10
410.7581014043284
 20
520.2520198671313
 30
0.0
 10
410.2839637384807
 20
520.6190583633293
 30
0.0
 10
409.8054913964392
 20
521.0140061144332
 30
0.0
 10
409.3249718156352
 20
521.286184459706
 30
0.0
 10
408.8790982165636
 20
521.3344440063047
 30
0.0
 10
408.2965165994846
 20
521.2610902674284
 30
0.0
 10
407.5557725649349
 20
520.8532916421481
 30
0.0
 10
406.7588540106875
 20
520.1973282346713
 30
0.0
 10
405.9962382899371
 20
519.7789770978002
 30
0.0
 10
405.3606574073986
 20
519.7213201997748
 30
0.0
 10
404.6798340691815
 20
519.7896639853227
 30
0.0
 10
403.8128639045532
 20
520.1948735862458
 30
0.0
 10
402.8522890685404
 20
520.8576969463938
 30
0.0
 10
401.975616822806
 20
521.273549403104
 30
0.0
 10
401.2622573254723
 20
521.3400654477937
 30
0.0
 10
400.6254101487573
 20
521.2802852360734
 30
0.0
 10
399.87826420743
 20
520.9755953740064
 30
0.0
 10
399.0757227581787
 20
520.4741429090221
 30
0.0
 10
398.2700808878383
 20
519.9926019657207
 30
0.0
 10
397.5849489043864
 20
519.7770085085932
 30
0.0
 10
397.1144058963268
 20
519.7688337631471
 30
0.0
 10
396.9478118282588
 20
519.7751517880185
 30
0.0
 10
396.8639504761227
 20
519.7783321950304
 30
0.0
 11
411.8300131288843
 21
520.318187537807
 31
0.0
 11
411.5773695545549
 21
520.2202396853128
 31
0.0
 11
411.3300131288843
 21
520.1613898016907
 31
0.0
 11
410.8012898307101
 21
520.2737119017785
 31
0.0
 11
410.2961034988917
 21
520.6135431390636
 31
0.0
 11
409.7836483767022
 21
521.0065333059972
 31
0.0
 11
409.2331187074141
 21
521.2783321950304
 31
0.0
 11
408.879767429522
 21
521.3204965691434
 31
0.0
 11
408.5260119262273
 21
521.2783321950304
 31
0.0
 11
407.5889355151813
 21
520.8361197492072
 31
0.0
 11
406.7224441460147
 21
520.2124884925631
 31
0.0
 11
405.7932859119982
 21
519.7783321950304
 31
0.0
 11
405.3624576496351
 21
519.7352180067419
 31
0.0
 11
404.9272605082139
 21
519.7783321950304
 31
0.0
 11
403.8420817737512
 21
520.2163062460257
 31
0.0
 11
402.8215669890709
 21
520.8385963746136
 31
0.0
 11
401.7449336630522
 21
521.2783321950304
 31
0.0
 11
401.2630426224869
 21
521.3248935969142
 31
0.0
 11
400.7790078367631
 21
521.2783321950304
 31
0.0
 11
399.9003175443488
 21
520.9562807009145
 31
0.0
 11
399.0699446696443
 21
520.4742855996403
 31
0.0
 11
398.2403390383391
 21
520.0193137960612
 31
0.0
 11
397.3639504761227
 21
519.7783321950304
 31
0.0
 11
397.1156455760945
 21
519.7711272760378
 31
0.0
 11
396.8639504761227
 21
519.7783321950304
 31
0.0
  0
SPLINE
  5
180
330
59
100
AcDbEntity
  8
1
  6
Continuous
 62
     7
100
AcDbSpline
210
0.0
220
0.0
230
1.0
 70
     8
 71
     3
 72
    31
 73
    27
 74
    25
 42
0.000000001
 43
0.0000000001
 44
0.00000001
 40
0.0
 40
0.0
 40
0.0
 40
0.0
 40
0.2709659657161262
 40
0.5252266825988372
 40
1.065749191989366
 40
1.674599338715823
 40
2.320394603574185
 40
2.934363293921221
 40
3.290221355349917
 40
3.646480797917727
 40
4.682658411629448
 40
5.750236623409068
 40
6.775822658069016
 40
7.208802824113689
 40
7.646130372372963
 40
8.816358621487877
 40
10.01163910374887
 40
11.17461240969538
 40
11.65874765828513
 40
12.1450167583836
 40
13.08086599532706
 40
14.04099014818379
 40
14.98716394131844
 40
15.89608035491249
 40
16.1444897646035
 40
16.39628796371014
 40
16.39628796371014
 40
16.39628796371014
 40
16.39628796371014
 10
798.1524106428267
 20
520.318187537807
 30
0.0
 10
798.0690140900678
 20
520.2838882555103
 30
0.0
 10
797.9073624467928
 20
520.2174042562089
 30
0.0
 10
797.5606433158636
 20
520.1202379621362
 30
0.0
 10
797.080498918271
 20
520.2520198671315
 30
0.0
 10
796.6063612524232
 20
520.6190583633293
 30
0.0
 10
796.1278889103819
 20
521.0140061144331
 30
0.0
 10
795.6473693295774
 20
521.286184459706
 30
0.0
 10
795.2014957305062
 20
521.3344440063048
 30
0.0
 10
794.6189141134271
 20
521.2610902674281
 30
0.0
 10
793.8781700788775
 20
520.8532916421482
 30
0.0
 10
793.08125152463
 20
520.1973282346714
 30
0.0
 10
792.31863580388
 20
519.7789770978002
 30
0.0
 10
791.683054921341
 20
519.7213201997747
 30
0.0
 10
791.0022315831241
 20
519.7896639853227
 30
0.0
 10
790.1352614184955
 20
520.1948735862456
 30
0.0
 10
789.1746865824827
 20
520.8576969463938
 30
0.0
 10
788.2980143367482
 20
521.2735494031039
 30
0.0
 10
787.5846548394148
 20
521.3400654477938
 30
0.0
 10
786.9478076626996
 20
521.2802852360733
 30
0.0
 10
786.2006617213724
 20
520.9755953740066
 30
0.0
 10
785.3981202721211
 20
520.4741429090218
 30
0.0
 10
784.5924784017805
 20
519.9926019657208
 30
0.0
 10
783.9073464183292
 20
519.7770085085934
 30
0.0
 10
783.436803410269
 20
519.7688337631471
 30
0.0
 10
783.2702093422013
 20
519.7751517880184
 30
0.0
 10
783.1863479900651
 20
519.7783321950304
 30
0.0
 11
798.1524106428267
 21
520.318187537807
 31
0.0
 11
797.8997670684975
 21
520.2202396853128
 31
0.0
 11
797.6524106428267
 21
520.1613898016907
 31
0.0
 11
797.1236873446526
 21
520.2737119017786
 31
0.0
 11
796.6185010128344
 21
520.6135431390636
 31
0.0
 11
796.1060458906447
 21
521.0065333059972
 31
0.0
 11
795.5555162213566
 21
521.2783321950304
 31
0.0
 11
795.2021649434645
 21
521.3204965691434
 31
0.0
 11
794.8484094401699
 21
521.2783321950304
 31
0.0
 11
793.9113330291239
 21
520.8361197492072
 31
0.0
 11
793.0448416599572
 21
520.2124884925631
 31
0.0
 11
792.1156834259407
 21
519.7783321950304
 31
0.0
 11
791.6848551635776
 21
519.7352180067419
 31
0.0
 11
791.2496580221564
 21
519.7783321950304
 31
0.0
 11
790.1644792876936
 21
520.2163062460257
 31
0.0
 11
789.1439645030132
 21
520.8385963746136
 31
0.0
 11
788.0673311769946
 21
521.2783321950304
 31
0.0
 11
787.5854401364293
 21
521.3248935969142
 31
0.0
 11
787.1014053507056
 21
521.2783321950304
 31
0.0
 11
786.2227150582911
 21
520.9562807009145
 31
0.0
 11
785.3923421835867
 21
520.4742855996403
 31
0.0
 11
784.5627365522815
 21
520.0193137960612
 31
0.0
 11
783.6863479900651
 21
519.7783321950304
 31
0.0
 11
783.4380430900368
 21
519.7711272760378
 31
0.0
 11
783.1863479900651
 21
519.7783321950304
 31
0.0
  0
SPLINE
  5
181
330
59
100
AcDbEntity
  8
1
  6
Continuous
 62
     7
100
AcDbSpline
210
0.0
220
0.0
230
1.0
 70
     8
 71
     3
 72
    31
 73
    27
 74
    25
 42
0.000000001
 43
0.0000000001
 44
0.00000001
 40
0.0
 40
0.0
 40
0.0
 40
0.0
 40
0.2709659657162322
 40
0.5252266825988325
 40
1.065749191989584
 40
1.674599338716041
 40
2.320394603574403
 40
2.934363293921439
 40
3.290221355349909
 40
3.646480797917606
 40
4.682658411629175
 40
5.750236623408822
 40
6.775822658068762
 40
7.208802824113661
 40
7.646130372372935
 40
8.816358621487849
 40
10.01163910374893
 40
11.17461240969545
 40
11.6587476582852
 40
12.14501675838355
 40
13.08086599532691
 40
14.04099014818354
 40
14.98716394131809
 40
15.89608035491225
 40
16.14448976460314
 40
16.3962879637099
 40
16.3962879637099
 40
16.3962879637099
 40
16.3962879637099
 10
768.2202853373037
 20
520.318187537807
 30
0.0
 10
768.3036818900625
 20
520.2838882555102
 30
0.0
 10
768.4653335333379
 20
520.217404256209
 30
0.0
 10
768.812052664267
 20
520.1202379621365
 30
0.0
 10
769.2921970618595
 20
520.252019867131
 30
0.0
 10
769.7663347277073
 20
520.6190583633295
 30
0.0
 10
770.2448070697486
 20
521.0140061144328
 30
0.0
 10
770.7253266505531
 20
521.2861844597062
 30
0.0
 10
771.1712002496241
 20
521.3344440063046
 30
0.0
 10
771.7537818667032
 20
521.2610902674281
 30
0.0
 10
772.4945259012529
 20
520.8532916421483
 30
0.0
 10
773.2914444555001
 20
520.1973282346717
 30
0.0
 10
774.0540601762507
 20
519.7789770978
 30
0.0
 10
774.6896410587891
 20
519.7213201997747
 30
0.0
 10
775.3704643970066
 20
519.7896639853227
 30
0.0
 10
776.2374345616347
 20
520.1948735862455
 30
0.0
 10
777.1980093976478
 20
520.8576969463938
 30
0.0
 10
778.0746816433823
 20
521.273549403104
 30
0.0
 10
778.7880411407158
 20
521.3400654477938
 30
0.0
 10
779.4248883174305
 20
521.2802852360733
 30
0.0
 10
780.172034258758
 20
520.9755953740066
 30
0.0
 10
780.9745757080093
 20
520.4741429090218
 30
0.0
 10
781.7802175783493
 20
519.9926019657207
 30
0.0
 10
782.4653495618015
 20
519.7770085085936
 30
0.0
 10
782.9358925698609
 20
519.7688337631469
 30
0.0
 10
783.1024866379292
 20
519.7751517880185
 30
0.0
 10
783.1863479900651
 20
519.7783321950304
 30
0.0
 11
768.2202853373037
 21
520.318187537807
 31
0.0
 11
768.4729289116331
 21
520.2202396853128
 31
0.0
 11
768.7202853373037
 21
520.1613898016907
 31
0.0
 11
769.249008635478
 21
520.2737119017786
 31
0.0
 11
769.7541949672963
 21
520.6135431390636
 31
0.0
 11
770.2666500894859
 21
521.0065333059972
 31
0.0
 11
770.817179758774
 21
521.2783321950304
 31
0.0
 11
771.1705310366659
 21
521.3204965691434
 31
0.0
 11
771.5242865399604
 21
521.2783321950304
 31
0.0
 11
772.4613629510063
 21
520.8361197492073
 31
0.0
 11
773.3278543201731
 21
520.2124884925634
 31
0.0
 11
774.2570125541895
 21
519.7783321950304
 31
0.0
 11
774.6878408165528
 21
519.7352180067419
 31
0.0
 11
775.123037957974
 21
519.7783321950304
 31
0.0
 11
776.2082166924368
 21
520.2163062460257
 31
0.0
 11
777.2287314771173
 21
520.8385963746136
 31
0.0
 11
778.305364803136
 21
521.2783321950304
 31
0.0
 11
778.7872558437012
 21
521.3248935969142
 31
0.0
 11
779.2712906294248
 21
521.2783321950304
 31
0.0
 11
780.1499809218392
 21
520.9562807009145
 31
0.0
 11
780.9803537965435
 21
520.4742855996403
 31
0.0
 11
781.8099594278485
 21
520.0193137960612
 31
0.0
 11
782.6863479900651
 21
519.7783321950304
 31
0.0
 11
782.9346528900933
 21
519.7711272760378
 31
0.0
 11
783.1863479900651
 21
519.7783321950304
 31
0.0
  0
SPLINE
  5
182
330
59
100
AcDbEntity
  8
1
  6
Continuous
 62
     7
100
AcDbSpline
210
0.0
220
0.0
230
1.0
 70
     8
 71
     3
 72
    31
 73
    27
 74
    25
 42
0.000000001
 43
0.0000000001
 44
0.00000001
 40
0.0
 40
0.0
 40
0.0
 40
0.0
 40
0.2709659657161262
 40
0.5252266825988372
 40
1.065749191989565
 40
1.674599338716227
 40
2.320394603574498
 40
2.934363293921636
 40
3.290221355350162
 40
3.646480797917859
 40
4.682658411629428
 40
5.750236623409075
 40
6.775822658068964
 40
7.20880282411392
 40
7.64613037237342
 40
8.816358621488229
 40
10.01163910374913
 40
11.17461240969571
 40
11.65874765828551
 40
12.1450167583841
 40
13.08086599532729
 40
14.04099014818407
 40
14.98716394131842
 40
15.89608035491247
 40
16.14448976460342
 40
16.39628796371024
 40
16.39628796371024
 40
16.39628796371024
 40
16.39628796371024
 10
309.830013128885
 20
520.318187537807
 30
0.0
 10
309.7466165761261
 20
520.2838882555102
 30
0.0
 10
309.5849649328509
 20
520.217404256209
 30
0.0
 10
309.2382458019221
 20
520.1202379621363
 30
0.0
 10
308.7581014043289
 20
520.252019867131
 30
0.0
 10
308.2839637384814
 20
520.6190583633293
 30
0.0
 10
307.8054913964397
 20
521.0140061144332
 30
0.0
 10
307.3249718156356
 20
521.2861844597061
 30
0.0
 10
306.8790982165643
 20
521.3344440063047
 30
0.0
 10
306.2965165994853
 20
521.2610902674282
 30
0.0
 10
305.5557725649358
 20
520.8532916421482
 30
0.0
 10
304.7588540106883
 20
520.1973282346718
 30
0.0
 10
303.996238289938
 20
519.7789770978001
 30
0.0
 10
303.3606574073992
 20
519.7213201997746
 30
0.0
 10
302.6798340691819
 20
519.7896639853227
 30
0.0
 10
301.8128639045534
 20
520.1948735862455
 30
0.0
 10
300.8522890685408
 20
520.8576969463942
 30
0.0
 10
299.9756168228064
 20
521.2735494031039
 30
0.0
 10
299.2622573254728
 20
521.3400654477938
 30
0.0
 10
298.6254101487577
 20
521.2802852360733
 30
0.0
 10
297.8782642074306
 20
520.9755953740065
 30
0.0
 10
297.0757227581792
 20
520.4741429090218
 30
0.0
 10
296.2700808878392
 20
519.9926019657208
 30
0.0
 10
295.5849489043872
 20
519.7770085085932
 30
0.0
 10
295.1144058963276
 20
519.7688337631471
 30
0.0
 10
294.9478118282595
 20
519.7751517880184
 30
0.0
 10
294.8639504761234
 20
519.7783321950304
 30
0.0
 11
309.830013128885
 21
520.318187537807
 31
0.0
 11
309.5773695545557
 21
520.2202396853128
 31
0.0
 11
309.330013128885
 21
520.1613898016907
 31
0.0
 11
308.8012898307107
 21
520.2737119017785
 31
0.0
 11
308.2961034988924
 21
520.6135431390636
 31
0.0
 11
307.7836483767027
 21
521.0065333059972
 31
0.0
 11
307.2331187074145
 21
521.2783321950304
 31
0.0
 11
306.8797674295225
 21
521.3204965691434
 31
0.0
 11
306.5260119262281
 21
521.2783321950304
 31
0.0
 11
305.5889355151822
 21
520.8361197492073
 31
0.0
 11
304.7224441460154
 21
520.2124884925634
 31
0.0
 11
303.793285911999
 21
519.7783321950304
 31
0.0
 11
303.3624576496358
 21
519.7352180067419
 31
0.0
 11
302.9272605082143
 21
519.7783321950304
 31
0.0
 11
301.8420817737515
 21
520.2163062460257
 31
0.0
 11
300.8215669890713
 21
520.8385963746138
 31
0.0
 11
299.7449336630526
 21
521.2783321950304
 31
0.0
 11
299.2630426224873
 21
521.3248935969142
 31
0.0
 11
298.7790078367635
 21
521.2783321950304
 31
0.0
 11
297.9003175443493
 21
520.9562807009145
 31
0.0
 11
297.0699446696449
 21
520.4742855996403
 31
0.0
 11
296.2403390383399
 21
520.0193137960612
 31
0.0
 11
295.3639504761235
 21
519.7783321950304
 31
0.0
 11
295.1156455760953
 21
519.7711272760378
 31
0.0
 11
294.8639504761234
 21
519.7783321950304
 31
0.0
  0
SPLINE
  5
183
330
59
100
AcDbEntity
  8
1
  6
Continuous
 62
     7
100
AcDbSpline
210
0.0
220
0.0
230
1.0
 70
     8
 71
     3
 72
    31
 73
    27
 74
    25
 42
0.000000001
 43
0.0000000001
 44
0.00000001
 40
0.0
 40
0.0
 40
0.0
 40
0.0
 40
0.2709659657161262
 40
0.5252266825988372
 40
1.065749191989509
 40
1.674599338716077
 40
2.320394603574303
 40
2.93436329392139
 40
3.290221355350086
 40
3.646480797917953
 40
4.68265841162957
 40
5.750236623409283
 40
6.775822658069025
 40
7.208802824113811
 40
7.646130372373086
 40
8.816358621487947
 40
10.01163910374894
 40
11.17461240969557
 40
11.65874765828527
 40
12.14501675838373
 40
13.08086599532704
 40
14.04099014818386
 40
14.98716394131836
 40
15.89608035491247
 40
16.14448976460342
 40
16.39628796371018
 40
16.39628796371018
 40
16.39628796371018
 40
16.39628796371018
 10
279.8978878233619
 20
520.318187537807
 30
0.0
 10
279.9812843761208
 20
520.2838882555102
 30
0.0
 10
280.142936019396
 20
520.2174042562089
 30
0.0
 10
280.4896551503248
 20
520.1202379621363
 30
0.0
 10
280.9697995479179
 20
520.252019867131
 30
0.0
 10
281.4439372137654
 20
520.6190583633293
 30
0.0
 10
281.9224095558069
 20
521.0140061144333
 30
0.0
 10
282.4029291366111
 20
521.2861844597059
 30
0.0
 10
282.8488027356825
 20
521.3344440063049
 30
0.0
 10
283.4313843527616
 20
521.2610902674281
 30
0.0
 10
284.1721283873112
 20
520.853291642148
 30
0.0
 10
284.9690469415585
 20
520.1973282346715
 30
0.0
 10
285.731662662309
 20
519.7789770978001
 30
0.0
 10
286.3672435448475
 20
519.7213201997747
 30
0.0
 10
287.0480668830647
 20
519.7896639853226
 30
0.0
 10
287.9150370476932
 20
520.1948735862458
 30
0.0
 10
288.8756118837058
 20
520.8576969463941
 30
0.0
 10
289.7522841294403
 20
521.2735494031039
 30
0.0
 10
290.465643626774
 20
521.3400654477939
 30
0.0
 10
291.1024908034888
 20
521.2802852360733
 30
0.0
 10
291.8496367448159
 20
520.9755953740064
 30
0.0
 10
292.6521781940675
 20
520.4741429090219
 30
0.0
 10
293.4578200644077
 20
519.9926019657206
 30
0.0
 10
294.1429520478595
 20
519.7770085085933
 30
0.0
 10
294.6134950559193
 20
519.7688337631472
 30
0.0
 10
294.7800891239875
 20
519.7751517880185
 30
0.0
 10
294.8639504761234
 20
519.7783321950304
 30
0.0
 11
279.8978878233619
 21
520.318187537807
 31
0.0
 11
280.1505313976912
 21
520.2202396853128
 31
0.0
 11
280.3978878233619
 21
520.1613898016907
 31
0.0
 11
280.9266111215361
 21
520.2737119017785
 31
0.0
 11
281.4317974533544
 21
520.6135431390636
 31
0.0
 11
281.9442525755439
 21
521.0065333059972
 31
0.0
 11
282.4947822448321
 21
521.2783321950304
 31
0.0
 11
282.8481335227243
 21
521.3204965691434
 31
0.0
 11
283.2018890260189
 21
521.2783321950304
 31
0.0
 11
284.1389654370648
 21
520.8361197492072
 31
0.0
 11
285.0054568062315
 21
520.2124884925631
 31
0.0
 11
285.9346150402479
 21
519.7783321950304
 31
0.0
 11
286.365443302611
 21
519.7352180067419
 31
0.0
 11
286.8006404440322
 21
519.7783321950304
 31
0.0
 11
287.885819178495
 21
520.2163062460257
 31
0.0
 11
288.9063339631754
 21
520.8385963746138
 31
0.0
 11
289.9829672891941
 21
521.2783321950304
 31
0.0
 11
290.4648583297594
 21
521.3248935969142
 31
0.0
 11
290.948893115483
 21
521.2783321950304
 31
0.0
 11
291.8275834078974
 21
520.9562807009145
 31
0.0
 11
292.6579562826018
 21
520.4742855996403
 31
0.0
 11
293.4875619139069
 21
520.0193137960612
 31
0.0
 11
294.3639504761234
 21
519.7783321950304
 31
0.0
 11
294.6122553761516
 21
519.7711272760378
 31
0.0
 11
294.8639504761234
 21
519.7783321950304
 31
0.0
  0
ARC
  5
184
330
59
100
AcDbEntity
  8
1
  6
Continuous
 62
     7
100
AcDbCircle
 10
276.6007834692722
 20
516.2783321950304
 30
0.0
 40
5.000000000000002
100
AcDbArc
 50
64.15806723683284
 51
90.0
  0
ARC
  5
185
330
59
100
AcDbEntity
  8
1
  6
Continuous
 62
     7
100
AcDbCircle
 10
313.1271174829747
 20
516.2783321950304
 30
0.0
 40
5.0
100
AcDbArc
 50
90.0
 51
115.8419327631689
  0
ARC
  5
186
330
59
100
AcDbEntity
  8
1
  6
Continuous
 62
     7
100
AcDbCircle
 10
764.923180983214
 20
516.2783321950304
 30
0.0
 40
5.000000000000002
100
AcDbArc
 50
64.15806723683284
 51
90.0
  0
ARC
  5
187
330
59
100
AcDbEntity
  8
1
  6
Continuous
 62
     7
100
AcDbCircle
 10
801.4495149969164
 20
516.2783321950304
 30
0.0
 40
5.0
100
AcDbArc
 50
90.0
 51
115.841932763166
  0
ARC
  5
188
330
59
100
AcDbEntity
  8
1
  6
Continuous
 62
     7
100
AcDbCircle
 10
415.127117482974
 20
516.2783321950304
 30
0.0
 40
5.0
100
AcDbArc
 50
90.0
 51
115.8419327631683
  0
ARC
  5
189
330
59
100
AcDbEntity
  8
1
  6
Continuous
 62
     7
100
AcDbCircle
 10
378.6007834692715
 20
516.2783321950304
 30
0.0
 40
5.000000000000075
100
AcDbArc
 50
64.15806723683109
 51
90.0
  0
ENDBLK
  5
5B
330
59
100
AcDbEntity
  8
0
100
AcDbBlockEnd
  0
BLOCK
  5
5D
330
5C
100
AcDbEntity
  8
0
100
AcDbBlockBegin
  2
32-25
 70
     0
 10
207.180893781212
 20
486.8557556058935
 30
0.0
  3
32-25
  1

  0
LINE
  5
18A
330
5C
100
AcDbEntity
  8
1
  6
Continuous
 62
     7
100
AcDbLine
 10
287.9357472458472
 20
514.8464276231057
 30
0.0
 11
287.9357472458472
 21
519.7783321950303
 31
0.0
  0
LINE
  5
18B
330
5C
100
AcDbEntity
  8
1
  6
Continuous
 62
     7
100
AcDbLine
 10
301.7921537063984
 20
514.8464276231057
 30
0.0
 11
301.7921537063984
 21
519.7783321950303
 31
0.0
  0
LINE
  5
18C
330
5C
100
AcDbEntity
  8
1
  6
Continuous
 62
     7
100
AcDbLine
 10
284.4748510866058
 20
513.7783321950303
 30
0.0
 11
282.8639504761228
 21
513.7783321950303
 31
0.0
  0
LINE
  5
18D
330
5C
100
AcDbEntity
  8
1
  6
Continuous
 62
     7
100
AcDbLine
 10
305.1646492551569
 20
513.7783321950303
 30
0.0
 11
294.8639504761229
 21
513.7783321950303
 31
0.0
  0
LINE
  5
18E
330
5C
100
AcDbEntity
  8
1
  6
Continuous
 62
     7
100
AcDbLine
 10
294.8639504761229
 20
513.7783321950303
 30
0.0
 11
284.4748510866058
 21
513.7783321950303
 31
0.0
  0
LINE
  5
18F
330
5C
100
AcDbEntity
  8
1
  6
Continuous
 62
     7
100
AcDbLine
 10
281.8119206028904
 20
514.3857219255366
 30
0.0
 11
281.0139549273645
 21
514.8464276231057
 31
0.0
  0
LINE
  5
190
330
5C
100
AcDbEntity
  8
1
  6
Continuous
 62
     7
100
AcDbLine
 10
307.9128122331107
 20
514.3838928127701
 30
0.0
 11
306.8639504761229
 21
513.7783321950303
 31
0.0
  0
LINE
  5
191
330
5C
100
AcDbEntity
  8
1
  6
Continuous
 62
     7
100
AcDbLine
 10
305.3414504761229
 20
513.7783321950303
 30
0.0
 11
305.1646492551569
 21
513.7783321950303
 31
0.0
  0
LINE
  5
192
330
5C
100
AcDbEntity
  8
1
  6
Continuous
 62
     7
100
AcDbLine
 10
281.0139549273645
 20
514.8464276231057
 30
0.0
 11
281.0139549273645
 21
519.7783321950303
 31
0.0
  0
LINE
  5
193
330
5C
100
AcDbEntity
  8
1
  6
Continuous
 62
     7
100
AcDbLine
 10
282.8639504761228
 20
513.7783321950303
 30
0.0
 11
281.8119206028904
 21
514.3857219255366
 31
0.0
  0
LINE
  5
194
330
5C
100
AcDbEntity
  8
1
  6
Continuous
 62
     7
100
AcDbLine
 10
284.3639504761228
 20
519.7783321950303
 30
0.0
 11
281.0139549273645
 21
519.7783321950303
 31
0.0
  0
LINE
  5
195
330
5C
100
AcDbEntity
  8
1
  6
Continuous
 62
     7
100
AcDbLine
 10
308.7139460248815
 20
514.8464276231057
 30
0.0
 11
307.9128122331107
 21
514.3838928127701
 31
0.0
  0
LINE
  5
196
330
5C
100
AcDbEntity
  8
1
  6
Continuous
 62
     7
100
AcDbLine
 10
308.7139460248815
 20
519.7783321950303
 30
0.0
 11
308.7139460248815
 21
514.8464276231057
 31
0.0
  0
LINE
  5
197
330
5C
100
AcDbEntity
  8
1
  6
Continuous
 62
     7
100
AcDbLine
 10
308.7139460248815
 20
519.7783321950303
 30
0.0
 11
305.3639504761229
 21
519.7783321950303
 31
0.0
  0
LINE
  5
198
330
5C
100
AcDbEntity
  8
1
  6
Continuous
 62
     7
100
AcDbLine
 10
306.8639504761229
 20
513.7783321950303
 30
0.0
 11
305.3639504761229
 21
513.7783321950303
 31
0.0
  0
LINE
  5
199
330
5C
100
AcDbEntity
  8
1
  6
Continuous
 62
     7
100
AcDbLine
 10
771.1863479900651
 20
513.7783321950303
 30
0.0
 11
793.487046769099
 21
513.7783321950303
 31
0.0
  0
LINE
  5
19A
330
5C
100
AcDbEntity
  8
1
  6
Continuous
 62
     7
100
AcDbLine
 10
793.6638479900649
 20
513.7783321950303
 30
0.0
 11
793.487046769099
 21
513.7783321950303
 31
0.0
  0
LINE
  5
19B
330
5C
100
AcDbEntity
  8
1
  6
Continuous
 62
     7
100
AcDbLine
 10
772.6863479900651
 20
519.7783321950303
 30
0.0
 11
771.1863479900651
 21
519.7783321950303
 31
0.0
  0
LINE
  5
19C
330
5C
100
AcDbEntity
  8
1
  6
Continuous
 62
     7
100
AcDbLine
 10
795.1863479900651
 20
513.7783321950303
 30
0.0
 11
793.6863479900651
 21
513.7783321950303
 31
0.0
  0
LINE
  5
19D
330
5C
100
AcDbEntity
  8
1
  6
Continuous
 62
     7
100
AcDbLine
 10
795.1863479900651
 20
513.7783321950303
 30
0.0
 11
795.1863479900651
 21
514.8464276231057
 31
0.0
  0
LINE
  5
19E
330
5C
100
AcDbEntity
  8
1
  6
Continuous
 62
     7
100
AcDbLine
 10
795.1863479900651
 20
519.7783321950303
 30
0.0
 11
793.6863479900651
 21
519.7783321950303
 31
0.0
  0
LINE
  5
19F
330
5C
100
AcDbEntity
  8
1
  6
Continuous
 62
     7
100
AcDbLine
 10
771.1863479900651
 20
513.7783321950303
 30
0.0
 11
771.1863479900651
 21
514.8464276231057
 31
0.0
  0
LINE
  5
1A0
330
5C
100
AcDbEntity
  8
1
  6
Continuous
 62
     7
100
AcDbLine
 10
795.1863479900651
 20
514.8464276231057
 30
0.0
 11
795.1863479900651
 21
519.7783321950303
 31
0.0
  0
LINE
  5
1A1
330
5C
100
AcDbEntity
  8
1
  6
Continuous
 62
     7
100
AcDbLine
 10
771.1863479900651
 20
514.8464276231057
 30
0.0
 11
771.1863479900651
 21
519.7783321950303
 31
0.0
  0
LINE
  5
1A2
330
5C
100
AcDbEntity
  8
1
  6
Continuous
 62
     7
100
AcDbLine
 10
783.1863479900651
 20
514.8464276231057
 30
0.0
 11
783.1863479900651
 21
519.7783321950303
 31
0.0
  0
LINE
  5
1A3
330
5C
100
AcDbEntity
  8
1
  6
Continuous
 62
     7
100
AcDbLine
 10
403.7921537063988
 20
519.7783321950303
 30
0.0
 11
403.7921537063988
 21
514.8464276231057
 31
0.0
  0
LINE
  5
1A4
330
5C
100
AcDbEntity
  8
1
  6
Continuous
 62
     7
100
AcDbLine
 10
389.9357472458478
 20
519.7783321950303
 30
0.0
 11
389.9357472458478
 21
514.8464276231057
 31
0.0
  0
LINE
  5
1A5
330
5C
100
AcDbEntity
  8
1
  6
Continuous
 62
     7
100
AcDbLine
 10
408.8639504761234
 20
513.7783321950303
 30
0.0
 11
407.2530498656403
 21
513.7783321950303
 31
0.0
  0
LINE
  5
1A6
330
5C
100
AcDbEntity
  8
1
  6
Continuous
 62
     7
100
AcDbLine
 10
396.8639504761234
 20
513.7783321950303
 30
0.0
 11
386.5632516970892
 21
513.7783321950303
 31
0.0
  0
LINE
  5
1A7
330
5C
100
AcDbEntity
  8
1
  6
Continuous
 62
     7
100
AcDbLine
 10
407.2530498656403
 20
513.7783321950303
 30
0.0
 11
396.8639504761234
 21
513.7783321950303
 31
0.0
  0
LINE
  5
1A8
330
5C
100
AcDbEntity
  8
1
  6
Continuous
 62
     7
100
AcDbLine
 10
410.7139460248818
 20
514.8464276231057
 30
0.0
 11
409.9159803493557
 21
514.3857219255366
 31
0.0
  0
LINE
  5
1A9
330
5C
100
AcDbEntity
  8
1
  6
Continuous
 62
     7
100
AcDbLine
 10
384.8639504761234
 20
513.7783321950303
 30
0.0
 11
383.8150887191354
 21
514.3838928127701
 31
0.0
  0
LINE
  5
1AA
330
5C
100
AcDbEntity
  8
1
  6
Continuous
 62
     7
100
AcDbLine
 10
386.5632516970892
 20
513.7783321950303
 30
0.0
 11
386.3864504761232
 21
513.7783321950303
 31
0.0
  0
LINE
  5
1AB
330
5C
100
AcDbEntity
  8
1
  6
Continuous
 62
     7
100
AcDbLine
 10
410.7139460248818
 20
519.7783321950303
 30
0.0
 11
410.7139460248818
 21
514.8464276231057
 31
0.0
  0
LINE
  5
1AC
330
5C
100
AcDbEntity
  8
1
  6
Continuous
 62
     7
100
AcDbLine
 10
409.9159803493557
 20
514.3857219255366
 30
0.0
 11
408.8639504761234
 21
513.7783321950303
 31
0.0
  0
LINE
  5
1AD
330
5C
100
AcDbEntity
  8
1
  6
Continuous
 62
     7
100
AcDbLine
 10
410.7139460248818
 20
519.7783321950303
 30
0.0
 11
407.3639504761234
 21
519.7783321950303
 31
0.0
  0
LINE
  5
1AE
330
5C
100
AcDbEntity
  8
1
  6
Continuous
 62
     7
100
AcDbLine
 10
383.8150887191354
 20
514.3838928127701
 30
0.0
 11
383.0139549273648
 21
514.8464276231057
 31
0.0
  0
LINE
  5
1AF
330
5C
100
AcDbEntity
  8
1
  6
Continuous
 62
     7
100
AcDbLine
 10
383.0139549273648
 20
514.8464276231057
 30
0.0
 11
383.0139549273648
 21
519.7783321950303
 31
0.0
  0
LINE
  5
1B0
330
5C
100
AcDbEntity
  8
1
  6
Continuous
 62
     7
100
AcDbLine
 10
386.3639504761234
 20
519.7783321950303
 30
0.0
 11
383.0139549273648
 21
519.7783321950303
 31
0.0
  0
LINE
  5
1B1
330
5C
100
AcDbEntity
  8
1
  6
Continuous
 62
     7
100
AcDbLine
 10
386.3639504761234
 20
513.7783321950303
 30
0.0
 11
384.8639504761234
 21
513.7783321950303
 31
0.0
  0
ARC
  5
1B2
330
5C
100
AcDbEntity
  8
1
  6
Continuous
 62
     7
100
AcDbCircle
 10
284.4748510866058
 20
519.9194642154939
 30
0.0
 40
6.141132020463568
100
AcDbArc
 50
244.3023524963332
 51
270.0
  0
ARC
  5
1B3
330
5C
100
AcDbEntity
  8
1
  6
Continuous
 62
     7
100
AcDbCircle
 10
305.2530498656398
 20
519.9158059899605
 30
0.0
 40
6.138110397458544
100
AcDbArc
 50
269.1748019067743
 51
270.8251980932272
  0
ARC
  5
1B4
330
5C
100
AcDbEntity
  8
1
  6
Continuous
 62
     7
100
AcDbCircle
 10
305.2530498656398
 20
519.9158059899605
 30
0.0
 40
6.138110397458477
100
AcDbArc
 50
235.6784033614789
 51
269.1748019067743
  0
ARC
  5
1B5
330
5C
100
AcDbEntity
  8
1
  6
Continuous
 62
     7
100
AcDbCircle
 10
294.8639504761229
 20
536.7822822877791
 30
0.0
 40
23.00395009274883
100
AcDbArc
 50
252.4718398636644
 51
270.0
  0
ARC
  5
1B6
330
5C
100
AcDbEntity
  8
1
  6
Continuous
 62
     7
100
AcDbCircle
 10
305.2530498656398
 20
519.9158059899605
 30
0.0
 40
6.138110397458546
100
AcDbArc
 50
270.8251980932272
 51
295.6784033614795
  0
ARC
  5
1B7
330
5C
100
AcDbEntity
  8
1
  6
Continuous
 62
     7
100
AcDbCircle
 10
284.4748510866058
 20
519.9194642154939
 30
0.0
 40
6.141132020463601
100
AcDbArc
 50
270.0
 51
304.3023524963315
  0
ARC
  5
1B8
330
5C
100
AcDbEntity
  8
1
  6
Continuous
 62
     7
100
AcDbCircle
 10
294.8639504761229
 20
536.7822822877791
 30
0.0
 40
23.00395009274882
100
AcDbArc
 50
270.0
 51
287.5281601363351
  0
ARC
  5
1B9
330
5C
100
AcDbEntity
  8
1
  6
Continuous
 62
     7
100
AcDbCircle
 10
793.575447379582
 20
519.9158059899605
 30
0.0
 40
6.138110397458544
100
AcDbArc
 50
269.1748019067738
 51
270.8251980932262
  0
ARC
  5
1BA
330
5C
100
AcDbEntity
  8
1
  6
Continuous
 62
     7
100
AcDbCircle
 10
789.1863479900651
 20
531.1648066931016
 30
0.0
 40
17.3864744980712
100
AcDbArc
 50
249.8123537708998
 51
290.1876462291002
  0
ARC
  5
1BB
330
5C
100
AcDbEntity
  8
1
  6
Continuous
 62
     7
100
AcDbCircle
 10
777.1863479900651
 20
531.1648066931012
 30
0.0
 40
17.38647449807088
100
AcDbArc
 50
249.8123537708994
 51
290.1876462291006
  0
ARC
  5
1BC
330
5C
100
AcDbEntity
  8
1
  6
Continuous
 62
     7
100
AcDbCircle
 10
407.2530498656403
 20
519.9194642154939
 30
0.0
 40
6.141132020463601
100
AcDbArc
 50
270.0
 51
295.6976475036668
  0
ARC
  5
1BD
330
5C
100
AcDbEntity
  8
1
  6
Continuous
 62
     7
100
AcDbCircle
 10
386.4748510866065
 20
519.9158059899605
 30
0.0
 40
6.13811039745855
100
AcDbArc
 50
269.1748019067701
 51
270.8251980932235
  0
ARC
  5
1BE
330
5C
100
AcDbEntity
  8
1
  6
Continuous
 62
     7
100
AcDbCircle
 10
386.4748510866065
 20
519.9158059899605
 30
0.0
 40
6.13811039745854
100
AcDbArc
 50
270.8251980932235
 51
304.3215966385198
  0
ARC
  5
1BF
330
5C
100
AcDbEntity
  8
1
  6
Continuous
 62
     7
100
AcDbCircle
 10
396.8639504761234
 20
536.7822822877791
 30
0.0
 40
23.00395009274882
100
AcDbArc
 50
270.0
 51
287.5281601363349
  0
ARC
  5
1C0
330
5C
100
AcDbEntity
  8
1
  6
Continuous
 62
     7
100
AcDbCircle
 10
386.4748510866065
 20
519.9158059899605
 30
0.0
 40
6.138110397458514
100
AcDbArc
 50
244.3215966385186
 51
269.1748019067701
  0
ARC
  5
1C1
330
5C
100
AcDbEntity
  8
1
  6
Continuous
 62
     7
100
AcDbCircle
 10
407.2530498656403
 20
519.9194642154939
 30
0.0
 40
6.141132020463564
100
AcDbArc
 50
235.6976475036676
 51
270.0
  0
ARC
  5
1C2
330
5C
100
AcDbEntity
  8
1
  6
Continuous
 62
     7
100
AcDbCircle
 10
396.8639504761234
 20
536.7822822877791
 30
0.0
 40
23.00395009274881
100
AcDbArc
 50
252.4718398636645
 51
270.0
  0
ENDBLK
  5
5E
330
5C
100
AcDbEntity
  8
0
100
AcDbBlockEnd
  0
BLOCK
  5
60
330
5F
100
AcDbEntity
  8
0
100
AcDbBlockBegin
  2
01-110
 70
     0
 10
829.0255463491021
 20
483.637747271616
 30
0.0
  3
01-110
  1

  0
LINE
  5
1C3
330
5F
100
AcDbEntity
  8
1
  6
Continuous
 62
     7
100
AcDbLine
 10
772.9363479900651
 20
538.7783321950305
 30
0.0
 11
772.9363479900651
 21
537.2783321950305
 31
0.0
  0
LINE
  5
1C4
330
5F
100
AcDbEntity
  8
1
  6
Continuous
 62
     7
100
AcDbLine
 10
292.3790006336363
 20
537.2783321950305
 30
0.0
 11
305.1139504761231
 21
537.2783321950305
 31
0.0
  0
LINE
  5
1C5
330
5F
100
AcDbEntity
  8
1
  6
Continuous
 62
     7
100
AcDbLine
 10
772.9363479900651
 20
537.2783321950305
 30
0.0
 11
793.4363479900651
 21
537.2783321950305
 31
0.0
  0
LINE
  5
1C6
330
5F
100
AcDbEntity
  8
1
  6
Continuous
 62
     7
100
AcDbLine
 10
793.4363479900651
 20
537.2783321950305
 30
0.0
 11
793.4363479900651
 21
538.7783321950305
 31
0.0
  0
LINE
  5
1C7
330
5F
100
AcDbEntity
  8
1
  6
Continuous
 62
     7
100
AcDbLine
 10
284.613950476123
 20
537.2783321950305
 30
0.0
 11
284.613950476123
 21
538.7783321950305
 31
0.0
  0
LINE
  5
1C8
330
5F
100
AcDbEntity
  8
1
  6
Continuous
 62
     7
100
AcDbLine
 10
284.613950476123
 20
537.2783321950305
 30
0.0
 11
292.3790006336363
 21
537.2783321950305
 31
0.0
  0
LINE
  5
1C9
330
5F
100
AcDbEntity
  8
1
  6
Continuous
 62
     7
100
AcDbLine
 10
305.113950476123
 20
538.7783321950305
 30
0.0
 11
305.1139504761231
 21
537.2783321950305
 31
0.0
  0
LINE
  5
1CA
330
5F
100
AcDbEntity
  8
1
  6
Continuous
 62
     7
100
AcDbLine
 10
386.6139504761229
 20
537.2783321950305
 30
0.0
 11
399.3489003186097
 21
537.2783321950305
 31
0.0
  0
LINE
  5
1CB
330
5F
100
AcDbEntity
  8
1
  6
Continuous
 62
     7
100
AcDbLine
 10
407.113950476123
 20
538.7783321950305
 30
0.0
 11
407.113950476123
 21
537.2783321950305
 31
0.0
  0
LINE
  5
1CC
330
5F
100
AcDbEntity
  8
1
  6
Continuous
 62
     7
100
AcDbLine
 10
399.3489003186097
 20
537.2783321950305
 30
0.0
 11
407.113950476123
 21
537.2783321950305
 31
0.0
  0
LINE
  5
1CD
330
5F
100
AcDbEntity
  8
1
  6
Continuous
 62
     7
100
AcDbLine
 10
386.6139504761229
 20
537.2783321950305
 30
0.0
 11
386.613950476123
 21
538.7783321950305
 31
0.0
  0
ENDBLK
  5
61
330
5F
100
AcDbEntity
  8
0
100
AcDbBlockEnd
  0
BLOCK
  5
63
330
62
100
AcDbEntity
  8
0
100
AcDbBlockBegin
  2
開示A4
 70
     0
 10
0.0
 20
0.0
 30
0.0
  3
開示A4
  1

  0
POINT
  5
1CE
330
62
100
AcDbEntity
  8
1
 62
     4
100
AcDbPoint
 10
34.0
 20
34.00000000000001
 30
0.0
  0
POINT
  5
1CF
330
62
100
AcDbEntity
  8
1
 62
     4
100
AcDbPoint
 10
57.0
 20
12.25
 30
0.0
  0
POINT
  5
1D0
330
62
100
AcDbEntity
  8
1
 62
     4
100
AcDbPoint
 10
57.0
 20
20.75000000000001
 30
0.0
  0
POINT
  5
1D1
330
62
100
AcDbEntity
  8
1
 62
     4
100
AcDbPoint
 10
57.0
 20
24.75000000000001
 30
0.0
  0
POINT
  5
1D2
330
62
100
AcDbEntity
  8
1
 62
     4
100
AcDbPoint
 10
57.0
 20
16.25
 30
0.0
  0
POINT
  5
1D3
330
62
100
AcDbEntity
  8
1
 62
     4
100
AcDbPoint
 10
157.5
 20
19.00000000000001
 30
0.0
  0
POINT
  5
1D4
330
62
100
AcDbEntity
  8
1
 62
     4
100
AcDbPoint
 10
47.5
 20
282.0000000000003
 30
0.0
  0
POINT
  5
1D5
330
62
100
AcDbEntity
  8
1
 62
     4
100
AcDbPoint
 10
57.0
 20
22.75000000000001
 30
0.0
  0
POINT
  5
1D6
330
62
100
AcDbEntity
  8
1
 62
     4
100
AcDbPoint
 10
57.0
 20
14.25
 30
0.0
  0
POINT
  5
1D7
330
62
100
AcDbEntity
  8
1
 62
     4
100
AcDbPoint
 10
157.5
 20
12.5
 30
0.0
  0
POINT
  5
1D8
330
62
100
AcDbEntity
  8
1
 62
     4
100
AcDbPoint
 10
163.25
 20
12.5
 30
0.0
  0
POINT
  5
1D9
330
62
100
AcDbEntity
  8
1
 62
     4
100
AcDbPoint
 10
151.75
 20
12.5
 30
0.0
  0
POINT
  5
1DA
330
62
100
AcDbEntity
  8
1
 62
     4
100
AcDbPoint
 10
134.75
 20
12.5
 30
0.0
  0
POINT
  5
1DB
330
62
100
AcDbEntity
  8
1
 62
     4
100
AcDbPoint
 10
146.25
 20
12.5
 30
0.0
  0
POINT
  5
1DC
330
62
100
AcDbEntity
  8
1
 62
     4
100
AcDbPoint
 10
140.5
 20
12.5
 30
0.0
  0
POINT
  5
1DD
330
62
100
AcDbEntity
  8
1
 62
     4
100
AcDbPoint
 10
140.5
 20
19.00000000000001
 30
0.0
  0
POINT
  5
1DE
330
62
100
AcDbEntity
  8
1
 62
     4
100
AcDbPoint
 10
117.75
 20
12.5
 30
0.0
  0
POINT
  5
1DF
330
62
100
AcDbEntity
  8
1
 62
     4
100
AcDbPoint
 10
129.25
 20
12.5
 30
0.0
  0
POINT
  5
1E0
330
62
100
AcDbEntity
  8
1
 62
     4
100
AcDbPoint
 10
123.5
 20
12.5
 30
0.0
  0
POINT
  5
1E1
330
62
100
AcDbEntity
  8
1
 62
     4
100
AcDbPoint
 10
123.5
 20
19.00000000000001
 30
0.0
  0
POINT
  5
1E2
330
62
100
AcDbEntity
  8
1
 62
     4
100
AcDbPoint
 10
100.75
 20
12.5
 30
0.0
  0
POINT
  5
1E3
330
62
100
AcDbEntity
  8
1
 62
     4
100
AcDbPoint
 10
112.25
 20
12.5
 30
0.0
  0
POINT
  5
1E4
330
62
100
AcDbEntity
  8
1
 62
     4
100
AcDbPoint
 10
106.5
 20
12.5
 30
0.0
  0
POINT
  5
1E5
330
62
100
AcDbEntity
  8
1
 62
     4
100
AcDbPoint
 10
106.5
 20
19.00000000000001
 30
0.0
  0
POINT
  5
1E6
330
62
100
AcDbEntity
  8
1
 62
     4
100
AcDbPoint
 10
85.25
 20
17.0
 30
0.0
  0
POINT
  5
1E7
330
62
100
AcDbEntity
  8
1
 62
     4
100
AcDbPoint
 10
93.75
 20
17.0
 30
0.0
  0
LINE
  5
1E8
330
62
100
AcDbEntity
  8
1
  6
Continuous
 62
     2
100
AcDbLine
 10
81.0
 20
27.00000000000001
 30
0.0
 11
81.0
 21
10.0
 31
0.0
  0
LINE
  5
1E9
330
62
100
AcDbEntity
  8
1
  6
DOT_CENTER
 62
     2
100
AcDbLine
 10
187.0
 20
26.50000000000001
 30
0.0
 11
187.0
 21
20.50000000000001
 31
0.0
  0
LINE
  5
1EA
330
62
100
AcDbEntity
  8
1
  6
DOT_CENTER
 62
     2
100
AcDbLine
 10
184.0
 20
23.50000000000001
 30
0.0
 11
197.0
 21
23.50000000000001
 31
0.0
  0
LINE
  5
1EB
330
62
100
AcDbEntity
  8
1
  6
Continuous
 62
     7
100
AcDbLine
 10
196.0
 20
21.50000000000001
 30
0.0
 11
191.0
 21
22.30000000000001
 31
0.0
  0
LINE
  5
1EC
330
62
100
AcDbEntity
  8
1
  6
Continuous
 62
     7
100
AcDbLine
 10
196.0
 20
25.50000000000001
 30
0.0
 11
196.0
 21
21.50000000000001
 31
0.0
  0
LINE
  5
1ED
330
62
100
AcDbEntity
  8
1
  6
Continuous
 62
     7
100
AcDbLine
 10
191.0
 20
24.70000000000001
 30
0.0
 11
196.0
 21
25.50000000000001
 31
0.0
  0
LINE
  5
1EE
330
62
100
AcDbEntity
  8
1
  6
Continuous
 62
     7
100
AcDbLine
 10
191.0
 20
24.70000000000001
 30
0.0
 11
191.0
 21
22.30000000000001
 31
0.0
  0
LINE
  5
1EF
330
62
100
AcDbEntity
  8
1
  6
Continuous
 62
     2
100
AcDbLine
 10
33.0
 20
27.0
 30
0.0
 11
33.0
 21
10.0
 31
0.0
  0
LINE
  5
1F0
330
62
100
AcDbEntity
  8
1
  6
Continuous
 62
     2
100
AcDbLine
 10
25.0
 20
18.50000000000001
 30
0.0
 11
81.0
 21
18.50000000000001
 31
0.0
  0
LINE
  5
1F1
330
62
100
AcDbEntity
  8
1
  6
Continuous
 62
     7
100
AcDbLine
 10
200.0
 20
287.0000000000003
 30
0.0
 11
105.0
 21
287.0000000000003
 31
0.0
  0
LINE
  5
1F2
330
62
100
AcDbEntity
  8
1
  6
Continuous
 62
     7
100
AcDbLine
 10
200.0
 20
10.0
 30
0.0
 11
200.0
 21
148.5
 31
0.0
  0
LINE
  5
1F3
330
62
100
AcDbEntity
  8
1
  6
Continuous
 62
     7
100
AcDbLine
 10
25.0
 20
10.0
 30
0.0
 11
105.0
 21
10.0
 31
0.0
  0
LINE
  5
1F4
330
62
100
AcDbEntity
  8
1
  6
PHANTOM
 62
     4
100
AcDbLine
 10
0.0
 20
297.0
 30
0.0
 11
0.0
 21
0.0
 31
0.0
  0
LINE
  5
1F5
330
62
100
AcDbEntity
  8
1
  6
PHANTOM
 62
     4
100
AcDbLine
 10
210.0
 20
297.0
 30
0.0
 11
0.0
 21
297.0
 31
0.0
  0
LINE
  5
1F6
330
62
100
AcDbEntity
  8
1
  6
PHANTOM
 62
     4
100
AcDbLine
 10
210.0
 20
0.0
 30
0.0
 11
210.0
 21
297.0
 31
0.0
  0
LINE
  5
1F7
330
62
100
AcDbEntity
  8
1
  6
PHANTOM
 62
     4
100
AcDbLine
 10
0.0
 20
0.0
 30
0.0
 11
210.0
 21
0.0
 31
0.0
  0
LINE
  5
1F8
330
62
100
AcDbEntity
  8
1
  6
Continuous
 62
     7
100
AcDbLine
 10
25.0
 20
41.0
 30
0.0
 11
200.0
 21
41.0
 31
0.0
  0
LINE
  5
1F9
330
62
100
AcDbEntity
  8
1
  6
Continuous
 62
     7
100
AcDbLine
 10
200.0
 20
27.00000000000001
 30
0.0
 11
25.0
 21
27.00000000000001
 31
0.0
  0
LINE
  5
1FA
330
62
100
AcDbEntity
  8
1
  6
Continuous
 62
     2
100
AcDbLine
 10
33.0
 20
41.00000000000001
 30
0.0
 11
33.0
 21
27.0
 31
0.0
  0
LINE
  5
1FB
330
62
100
AcDbEntity
  8
1
  6
Continuous
 62
     2
100
AcDbLine
 10
55.0
 20
287.0000000000003
 30
0.0
 11
55.0
 21
277.0000000000003
 31
0.0
  0
LINE
  5
1FC
330
62
100
AcDbEntity
  8
1
  6
Continuous
 62
     2
100
AcDbLine
 10
40.0
 20
287.0000000000003
 30
0.0
 11
40.0
 21
277.0000000000003
 31
0.0
  0
LINE
  5
1FD
330
62
100
AcDbEntity
  8
1
  6
Continuous
 62
     7
100
AcDbLine
 10
25.0
 20
10.0
 30
0.0
 11
25.0
 21
148.5
 31
0.0
  0
LINE
  5
1FE
330
62
100
AcDbEntity
  8
1
  6
Continuous
 62
     2
100
AcDbLine
 10
55.0
 20
277.0000000000003
 30
0.0
 11
25.0
 21
277.0000000000003
 31
0.0
  0
LINE
  5
1FF
330
62
100
AcDbEntity
  8
1
  6
Continuous
 62
     2
100
AcDbLine
 10
166.0
 20
27.00000000000001
 30
0.0
 11
166.0
 21
10.0
 31
0.0
  0
LINE
  5
200
330
62
100
AcDbEntity
  8
1
  6
Continuous
 62
     2
100
AcDbLine
 10
132.0
 20
27.00000000000001
 30
0.0
 11
132.0
 21
9.99999999999999
 31
0.0
  0
LINE
  5
201
330
62
100
AcDbEntity
  8
1
  6
Continuous
 62
     2
100
AcDbLine
 10
149.0
 20
27.00000000000001
 30
0.0
 11
149.0
 21
10.0
 31
0.0
  0
LINE
  5
202
330
62
100
AcDbEntity
  8
1
  6
Continuous
 62
     2
100
AcDbLine
 10
115.0
 20
27.00000000000001
 30
0.0
 11
115.0
 21
9.99999999999999
 31
0.0
  0
LINE
  5
203
330
62
100
AcDbEntity
  8
1
  6
Continuous
 62
     2
100
AcDbLine
 10
98.0
 20
27.00000000000001
 30
0.0
 11
98.0
 21
9.99999999999999
 31
0.0
  0
LINE
  5
204
330
62
100
AcDbEntity
  8
1
  6
Continuous
 62
     2
100
AcDbLine
 10
166.0
 20
20.00000000000001
 30
0.0
 11
200.0
 21
20.00000000000001
 31
0.0
  0
LINE
  5
205
330
62
100
AcDbEntity
  8
1
  6
Continuous
 62
     2
100
AcDbLine
 10
105.0
 20
287.0000000000003
 30
0.0
 11
105.0
 21
292.0000000000003
 31
0.0
  0
LINE
  5
206
330
62
100
AcDbEntity
  8
1
  6
Continuous
 62
     7
100
AcDbLine
 10
105.0
 20
287.0000000000003
 30
0.0
 11
25.0
 21
287.0000000000003
 31
0.0
  0
LINE
  5
207
330
62
100
AcDbEntity
  8
1
  6
Continuous
 62
     2
100
AcDbLine
 10
25.0
 20
148.5
 30
0.0
 11
20.0
 21
148.5
 31
0.0
  0
LINE
  5
208
330
62
100
AcDbEntity
  8
1
  6
Continuous
 62
     7
100
AcDbLine
 10
25.0
 20
148.5
 30
0.0
 11
25.0
 21
287.0000000000003
 31
0.0
  0
LINE
  5
209
330
62
100
AcDbEntity
  8
1
  6
Continuous
 62
     2
100
AcDbLine
 10
200.0
 20
148.5
 30
0.0
 11
205.0
 21
148.5
 31
0.0
  0
LINE
  5
20A
330
62
100
AcDbEntity
  8
1
  6
Continuous
 62
     7
100
AcDbLine
 10
200.0
 20
148.5
 30
0.0
 11
200.0
 21
287.0000000000003
 31
0.0
  0
LINE
  5
20B
330
62
100
AcDbEntity
  8
1
  6
Continuous
 62
     2
100
AcDbLine
 10
105.0
 20
10.0
 30
0.0
 11
105.0
 21
5.0
 31
0.0
  0
LINE
  5
20C
330
62
100
AcDbEntity
  8
1
  6
Continuous
 62
     7
100
AcDbLine
 10
105.0
 20
10.0
 30
0.0
 11
200.0
 21
10.0
 31
0.0
  0
CIRCLE
  5
20D
330
62
100
AcDbEntity
  8
1
  6
DOT_CENTER
 62
     7
100
AcDbCircle
 10
89.5
 20
18.0
 30
0.0
 40
0.1000000000000227
  0
CIRCLE
  5
20E
330
62
100
AcDbEntity
  8
1
  6
DOT_CENTER
 62
     7
100
AcDbCircle
 10
89.5
 20
16.0
 30
0.0
 40
0.1000000000000227
  0
CIRCLE
  5
20F
330
62
100
AcDbEntity
  8
1
  6
Continuous
 62
     7
100
AcDbCircle
 10
187.0
 20
23.50000000000001
 30
0.0
 40
2.0
  0
CIRCLE
  5
210
330
62
100
AcDbEntity
  8
1
  6
Continuous
 62
     7
100
AcDbCircle
 10
187.0
 20
23.50000000000001
 30
0.0
 40
1.200000000000102
  0
CIRCLE
  5
211
330
62
100
AcDbEntity
  8
1
  6
Continuous
 62
     7
100
AcDbCircle
 10
154.5
 20
12.5
 30
0.0
 40
0.3000000000000114
  0
CIRCLE
  5
212
330
62
100
AcDbEntity
  8
1
  6
Continuous
 62
     7
100
AcDbCircle
 10
160.5
 20
12.5
 30
0.0
 40
0.3000000000000114
  0
CIRCLE
  5
213
330
62
100
AcDbEntity
  8
1
  6
Continuous
 62
     7
100
AcDbCircle
 10
143.5
 20
12.5
 30
0.0
 40
0.3000000000000114
  0
CIRCLE
  5
214
330
62
100
AcDbEntity
  8
1
  6
Continuous
 62
     7
100
AcDbCircle
 10
137.5
 20
12.5
 30
0.0
 40
0.3000000000000114
  0
CIRCLE
  5
215
330
62
100
AcDbEntity
  8
1
  6
Continuous
 62
     7
100
AcDbCircle
 10
126.5
 20
12.5
 30
0.0
 40
0.2999999999999972
  0
CIRCLE
  5
216
330
62
100
AcDbEntity
  8
1
  6
Continuous
 62
     7
100
AcDbCircle
 10
120.5
 20
12.5
 30
0.0
 40
0.2999999999999972
  0
CIRCLE
  5
217
330
62
100
AcDbEntity
  8
1
  6
Continuous
 62
     7
100
AcDbCircle
 10
109.5
 20
12.5
 30
0.0
 40
0.2999999999999972
  0
CIRCLE
  5
218
330
62
100
AcDbEntity
  8
1
  6
Continuous
 62
     7
100
AcDbCircle
 10
103.5
 20
12.5
 30
0.0
 40
0.2999999999999972
  0
MTEXT
  5
21A
330
62
100
AcDbEntity
  8
1
 62
   250
100
AcDbMText
 10
25.0
 20
5.0
 30
0.0
 40
3.5
 41
0.0
 71
     4
 72
     1
  1
備考欄の文字列 原点位置=4
  7
CONVERTER_11
 73
     1
 44
0.54545454545455
  0
MTEXT
  5
21B
330
62
100
AcDbEntity
  8
1
 62
     2
100
AcDbMText
 10
89.5
 20
24.00000000000001
 30
0.0
 40
3.5
 41
0.0
 71
     5
 72
     1
  1
尺度
  7
CONVERTER_11
 73
     1
 44
0.54545454545455
  0
MTEXT
  5
21C
330
62
100
AcDbEntity
  8
1
 62
     2
100
AcDbMText
 10
135.5
 20
25.00000000000001
 30
0.0
 40
3.0
 41
0.0
 71
     5
 72
     1
  1
製図
  7
CONVERTER_11
 73
     1
 44
0.59090909090909
  0
MTEXT
  5
21D
330
62
100
AcDbEntity
  8
1
 62
     2
100
AcDbMText
 10
152.5
 20
25.00000000000001
 30
0.0
 40
3.0
 41
0.0
 71
     5
 72
     1
  1
設計
  7
CONVERTER_11
 73
     1
 44
0.59090909090909
  0
MTEXT
  5
21E
330
62
100
AcDbEntity
  8
1
 62
     2
100
AcDbMText
 10
118.5
 20
25.00000000000001
 30
0.0
 40
3.0
 41
0.0
 71
     5
 72
     1
  1
検図
  7
CONVERTER_11
 73
     1
 44
0.59090909090909
  0
MTEXT
  5
21F
330
62
100
AcDbEntity
  8
1
 62
     2
100
AcDbMText
 10
175.0
 20
23.50000000000001
 30
0.0
 40
3.5
 41
0.0
 71
     5
 72
     1
  1
第三角法
  7
CONVERTER_11
 73
     1
 44
0.54545454545455
  0
MTEXT
  5
220
330
62
100
AcDbEntity
  8
1
 62
     2
100
AcDbMText
 10
101.5
 20
25.00000000000001
 30
0.0
 40
3.0
 41
0.0
 71
     5
 72
     1
  1
承認
  7
CONVERTER_11
 73
     1
 44
0.59090909090909
  0
MTEXT
  5
221
330
62
100
AcDbEntity
  8
1
 62
     2
100
AcDbMText
 10
29.0
 20
14.25
 30
0.0
 40
3.5
 41
0.0
 71
     5
 72
     1
  1
品番
  7
CONVERTER_11
 73
     1
 44
0.72727272727273
  0
MTEXT
  5
222
330
62
100
AcDbEntity
  8
1
 62
     2
100
AcDbMText
 10
29.0
 20
22.75
 30
0.0
 40
3.5
 41
0.0
 71
     5
 72
     1
  1
品名
  7
CONVERTER_11
 73
     1
 44
0.72727272727273
  0
MTEXT
  5
223
330
62
100
AcDbEntity
  8
1
 62
     2
100
AcDbMText
 10
29.0
 20
34.00000000000001
 30
0.0
 40
3.5
 41
0.0
 71
     5
 72
     1
  1
備考
  7
CONVERTER_11
 73
     1
 44
0.45454545454545
  0
MTEXT
  5
224
330
62
100
AcDbEntity
  8
1
 62
     2
100
AcDbMText
 10
32.5
 20
282.0000000000003
 30
0.0
 40
5.0
 41
0.0
 71
     5
 72
     1
  1
図番
  7
CONVERTER_11
 73
     1
 44
0.45454545454545
  0
MTEXT
  5
225
330
62
100
AcDbEntity
  8
1
 62
     7
100
AcDbMText
 10
171.5
 20
15.0
 30
0.0
 40
2.5
 41
0.0
 71
     5
 72
     1
  1
株式会社
  7
CONVERTER_11
 73
     1
 44
1.0
  0
MTEXT
  5
226
330
62
100
AcDbEntity
  8
1
 62
     7
100
AcDbMText
 10
188.5
 20
15.0
 30
0.0
 40
3.0
 41
0.0
 71
     5
 72
     1
  1
三栄水栓製作所
  7
CONVERTER_11
 73
     1
 44
1.0
  0
ENDBLK
  5
64
330
62
100
AcDbEntity
  8
0
100
AcDbBlockEnd
  0
BLOCK
  5
66
330
65
100
AcDbEntity
  8
0
100
AcDbBlockBegin
  2
82-20-M21
 70
     0
 10
445.5180746425182
 20
676.1901394943508
 30
0.0
  3
82-20-M21
  1

  0
LINE
  5
227
330
65
100
AcDbEntity
  8
1
  6
PHANTOM
 62
     4
100
AcDbLine
 10
332.2970885298378
 20
678.2953227067412
 30
0.0
 11
359.2970885298378
 21
678.2953227067412
 31
0.0
  0
LINE
  5
228
330
65
100
AcDbEntity
  8
1
  6
Continuous
 62
     7
100
AcDbLine
 10
333.363950476123
 20
681.6959784069813
 30
0.0
 11
333.3639504761229
 21
690.7506594094011
 31
0.0
  0
LINE
  5
229
330
65
100
AcDbEntity
  8
1
  6
Continuous
 62
     7
100
AcDbLine
 10
358.3639504761229
 20
690.7506594094011
 30
0.0
 11
358.3639504761229
 21
681.6959784069813
 31
0.0
  0
LINE
  5
22A
330
65
100
AcDbEntity
  8
1
  6
Continuous
 62
     7
100
AcDbLine
 10
333.3639504761229
 20
681.5244840740972
 30
0.0
 11
334.3855210483644
 21
678.0297679764515
 31
0.0
  0
LINE
  5
22B
330
65
100
AcDbEntity
  8
1
  6
Continuous
 62
     7
100
AcDbLine
 10
358.3639504761229
 20
681.5244840740972
 30
0.0
 11
357.3453156671234
 21
678.0484996755888
 31
0.0
  0
LINE
  5
22C
330
65
100
AcDbEntity
  8
1
  6
Continuous
 62
     7
100
AcDbLine
 10
591.6909129291861
 20
686.34593495179
 30
0.0
 11
614.756351267444
 21
676.7030331964045
 31
0.0
  0
LINE
  5
22D
330
65
100
AcDbEntity
  8
1
  6
Continuous
 62
     7
100
AcDbLine
 10
596.7078762874019
 20
695.0872349119095
 30
0.0
 11
618.4289884628928
 21
686.0063517457523
 31
0.0
  0
LINE
  5
22E
330
65
100
AcDbEntity
  8
1
  6
Continuous
 62
     7
100
AcDbLine
 10
591.9594559259361
 20
682.4401113375329
 30
0.0
 11
601.873625852561
 21
678.2953227067412
 31
0.0
  0
LINE
  5
22F
330
65
100
AcDbEntity
  8
1
  6
Continuous
 62
     7
100
AcDbLine
 10
601.873625852561
 20
678.2953227067412
 30
0.0
 11
611.7877957791858
 21
674.1505340759493
 31
0.0
  0
LINE
  5
230
330
65
100
AcDbEntity
  8
1
  6
Continuous
 62
     7
100
AcDbLine
 10
595.7325971380463
 20
695.4949670730501
 30
0.0
 11
596.7078762874019
 21
695.0872349119095
 31
0.0
  0
LINE
  5
231
330
65
100
AcDbEntity
  8
1
  6
Continuous
 62
     7
100
AcDbLine
 10
595.4709304172972
 20
695.3875867803872
 30
0.0
 11
591.6909129291861
 21
686.34593495179
 31
0.0
  0
LINE
  5
232
330
65
100
AcDbEntity
  8
1
  6
Continuous
 62
     7
100
AcDbLine
 10
591.6909129291861
 20
686.34593495179
 30
0.0
 11
591.3520887892912
 21
683.480141580136
 31
0.0
  0
LINE
  5
233
330
65
100
AcDbEntity
  8
1
  6
Continuous
 62
     7
100
AcDbLine
 10
614.756351267444
 20
676.7030331964045
 30
0.0
 11
612.9546663485463
 21
674.4488138415484
 31
0.0
  0
LINE
  5
234
330
65
100
AcDbEntity
  8
1
  6
Continuous
 62
     7
100
AcDbLine
 10
618.5363687555551
 20
685.7446850250017
 30
0.0
 11
614.756351267444
 21
676.7030331964045
 31
0.0
  0
SPLINE
  5
235
330
65
100
AcDbEntity
  8
1
  6
Continuous
 62
     7
100
AcDbSpline
210
0.0
220
0.0
230
1.0
 70
     8
 71
     3
 72
     9
 73
     5
 74
     3
 42
0.000000001
 43
0.0000000001
 44
0.00000001
 40
0.0
 40
0.0
 40
0.0
 40
0.0
 40
0.2140978847214409
 40
0.4312601803736115
 40
0.4312601803736115
 40
0.4312601803736115
 40
0.4312601803736115
 10
358.363950476123
 20
690.750659409367
 30
0.0
 10
358.3617480994091
 20
690.8221461815374
 30
0.0
 10
358.3573118032153
 20
690.9661429235889
 30
0.0
 10
358.3275339547449
 20
691.1071023685245
 30
0.0
 10
358.3125392241619
 20
691.1780828981643
 30
0.0
 11
358.363950476123
 21
690.750659409367
 31
0.0
 11
358.3510976631348
 21
690.9643711537657
 31
0.0
 11
358.3125392241619
 21
691.1780828981643
 31
0.0
  0
SPLINE
  5
236
330
65
100
AcDbEntity
  8
1
  6
Continuous
 62
     7
100
AcDbSpline
210
0.0
220
0.0
230
1.0
 70
     8
 71
     3
 72
    43
 73
    39
 74
    37
 42
0.000000001
 43
0.0000000001
 44
0.00000001
 40
0.0
 40
0.0
 40
0.0
 40
0.0
 40
0.4649034163722439
 40
0.9273627578031027
 40
1.476021015067561
 40
2.022524806387072
 40
2.679342174927995
 40
3.335198848413048
 40
4.105516937179141
 40
4.875336395076291
 40
5.750838093047548
 40
6.626081719826032
 40
7.590203835082903
 40
8.554184885013363
 40
9.584990716174913
 40
10.61572156131209
 40
11.68783272342787
 40
12.75991103797931
 40
13.84599287722873
 40
14.93207471640855
 40
16.0041530307613
 40
17.0762641925705
 40
18.10699503733771
 40
19.13780086808492
 40
20.10178191761061
 40
21.06590403246474
 40
21.94114765888991
 40
22.81664935652628
 40
23.58646881414742
 40
24.35678690265728
 40
25.01264357594201
 40
25.66946094430089
 40
26.2159647354893
 40
26.76462299264209
 40
27.22708233288359
 40
27.69198575198227
 40
27.90914805195517
 40
28.12324593156872
 40
28.12324593156872
 40
28.12324593156872
 40
28.12324593156872
 10
358.3125392241619
 20
691.1780828981643
 30
0.0
 10
358.2682288604886
 20
691.327230518053
 30
0.0
 10
358.1798410934961
 20
691.624741668446
 30
0.0
 10
357.9191705482069
 20
692.0473054280599
 30
0.0
 10
357.5840340389651
 20
692.4452985796684
 30
0.0
 10
357.1501884767307
 20
692.8385711741414
 30
0.0
 10
356.6465090799495
 20
693.2014374232915
 30
0.0
 10
356.0493090012804
 20
693.5569966022597
 30
0.0
 10
355.3919622983066
 20
693.8806392951324
 30
0.0
 10
354.6480716148679
 20
694.1899767258353
 30
0.0
 10
353.8540901152888
 20
694.4661816261095
 30
0.0
 10
352.9853789949863
 20
694.7208431775049
 30
0.0
 10
352.0769437941918
 20
694.9412043843031
 30
0.0
 10
351.1094018380997
 20
695.1339482402387
 30
0.0
 10
350.1129914882243
 20
695.2913405371454
 30
0.0
 10
349.0757686460382
 20
695.4166599371176
 30
0.0
 10
348.0210049386354
 20
695.5058394966156
 30
0.0
 10
346.9454205078571
 20
695.5602416315583
 30
0.0
 10
345.8639504734685
 20
695.578083135205
 30
0.0
 10
344.7824804390989
 20
695.5602416309778
 30
0.0
 10
343.7068960087099
 20
695.5058394954533
 30
0.0
 10
342.6521323010287
 20
695.4166599356348
 30
0.0
 10
341.6149094614462
 20
695.2913405347956
 30
0.0
 10
340.618499104075
 20
695.1339482394567
 30
0.0
 10
339.6509571762272
 20
694.941204376959
 30
0.0
 10
338.7425218767406
 20
694.7208431928614
 30
0.0
 10
337.8738110943198
 20
694.4661815637953
 30
0.0
 10
337.079828411196
 20
694.1899769358106
 30
0.0
 10
336.335941641736
 20
693.880638604937
 30
0.0
 10
335.6785814389285
 20
693.5569990171965
 30
0.0
 10
335.0814246964144
 20
693.2014298706315
 30
0.0
 10
334.5775978533761
 20
692.8385975352985
 30
0.0
 10
334.1442162247137
 20
692.4452182325097
 30
0.0
 10
333.8075003258552
 20
692.047588353125
 30
0.0
 10
333.5518649605296
 20
691.6238664624495
 30
0.0
 10
333.4278409716128
 20
691.2601224831221
 30
0.0
 10
333.371359911136
 20
690.9659656357198
 30
0.0
 10
333.3664085638299
 20
690.8220873644007
 30
0.0
 10
333.3639504761229
 20
690.7506594094309
 30
0.0
 11
358.3125392241619
 21
691.1780828981643
 31
0.0
 11
358.1606617169908
 21
691.6174784043079
 31
0.0
 11
357.9262384023592
 21
692.016119032049
 31
0.0
 11
357.5746448011056
 21
692.4373171111373
 31
0.0
 11
357.1717266041498
 21
692.8065369909843
 31
0.0
 11
356.6410601378295
 21
693.1935798259642
 31
0.0
 11
356.0783142848933
 21
693.5304256070436
 31
0.0
 11
355.3884962162866
 21
693.8732681203013
 31
0.0
 11
354.678075582483
 21
694.1697888103961
 31
0.0
 11
353.8518278566177
 21
694.4593020521369
 31
0.0
 11
353.0121231453904
 21
694.7061773296091
 31
0.0
 11
352.0754811968877
 21
694.9347234114455
 31
0.0
 11
351.1301617347679
 21
695.1234840461052
 31
0.0
 11
350.1121112642343
 21
695.2851438701236
 31
0.0
 11
349.0888479359638
 21
695.4089914934608
 31
0.0
 11
348.0205904091927
 21
695.4998110834617
 31
0.0
 11
346.9498807347786
 21
695.5539655219868
 31
0.0
 11
345.863950476123
 21
695.5721102870933
 31
0.0
 11
344.7780202174673
 21
695.553965521987
 31
0.0
 11
343.7073105430532
 21
695.499811083462
 31
0.0
 11
342.6390530162821
 21
695.4089914934609
 31
0.0
 11
341.6157896880117
 21
695.2851438701235
 31
0.0
 11
340.5977392174782
 21
695.1234840461052
 31
0.0
 11
339.6524197553584
 21
694.9347234114455
 31
0.0
 11
338.7157778068555
 21
694.7061773296093
 31
0.0
 11
337.876073095628
 21
694.4593020521368
 31
0.0
 11
337.0498253697627
 21
694.1697888103961
 31
0.0
 11
336.3394047359594
 21
693.8732681203014
 31
0.0
 11
335.6495866673527
 21
693.5304256070438
 31
0.0
 11
335.0868408144163
 21
693.1935798259641
 31
0.0
 11
334.5561743480961
 21
692.8065369909843
 31
0.0
 11
334.1532561511403
 21
692.4373171111373
 31
0.0
 11
333.8016625498868
 21
692.0161190320491
 31
0.0
 11
333.5672392352553
 21
691.6174784043081
 31
0.0
 11
333.4153617280841
 21
691.1780828981645
 31
0.0
 11
333.3768032891152
 21
690.9643711537977
 31
0.0
 11
333.3639504761229
 21
690.7506594094309
 31
0.0
  0
SPLINE
  5
237
330
65
100
AcDbEntity
  8
1
  6
Continuous
 62
     7
100
AcDbSpline
210
0.0
220
0.0
230
1.0
 70
     8
 71
     3
 72
    45
 73
    41
 74
    39
 42
0.000000001
 43
0.0000000001
 44
0.00000001
 40
0.0
 40
0.0
 40
0.0
 40
0.0
 40
0.0648859075777171
 40
0.1302642160646568
 40
0.5579753616564607
 40
0.9834379548705251
 40
1.488203551585773
 40
1.990987039597845
 40
2.595259018625504
 40
3.1986471581823
 40
3.907339799772567
 40
4.615573700950824
 40
5.421035262975597
 40
6.226259399497956
 40
7.113251745411396
 40
8.000114311236887
 40
8.948455675815849
 40
9.896728053296297
 40
10.8830703224564
 40
11.86938237192739
 40
12.86857766419294
 40
13.86777295645566
 40
14.85408500591921
 40
15.84042727506775
 40
16.78869965253458
 40
17.73704101709862
 40
18.6239035829099
 40
19.51089592880944
 40
20.31612006531982
 40
21.12158162733342
 40
21.82981552850236
 40
22.53850817008403
 40
23.14189630963419
 40
23.74616828865551
 40
24.24895177666272
 40
24.75371737337271
 40
25.17917996657418
 40
25.60689111217608
 40
25.68181635432084
 40
25.75611187126709
 40
25.75611187126709
 40
25.75611187126709
 40
25.75611187126709
 10
334.3855210483671
 20
678.0297679764351
 30
0.0
 10
334.3892204099807
 20
678.0084539102519
 30
0.0
 10
334.3966471946661
 20
677.9656640292701
 30
0.0
 10
334.4374238515028
 20
677.7841859630307
 30
0.0
 10
334.5367786149965
 20
677.4918539607121
 30
0.0
 10
334.7720335308015
 20
677.1021863058669
 30
0.0
 10
335.0817900818522
 20
676.7363177320584
 30
0.0
 10
335.4805076650067
 20
676.3744231916778
 30
0.0
 10
335.9440262997796
 20
676.0406128607369
 30
0.0
 10
336.493411108756
 20
675.7134905926425
 30
0.0
 10
337.0981823067829
 20
675.4157417523018
 30
0.0
 10
337.7825581895539
 20
675.1311506094653
 30
0.0
 10
338.5130222416635
 20
674.877042314868
 30
0.0
 10
339.3122361664214
 20
674.6427536265631
 30
0.0
 10
340.1479966408026
 20
674.4400213340775
 30
0.0
 10
341.0381352150814
 20
674.2626969814319
 30
0.0
 10
341.9548327440431
 20
674.117896069501
 30
0.0
 10
342.9090777567955
 20
674.0026022208741
 30
0.0
 10
343.8794603681521
 20
673.9205570259603
 30
0.0
 10
344.868998044387
 20
673.8705070614853
 30
0.0
 10
345.8639504762136
 20
673.8540928778581
 30
0.0
 10
346.8589029080376
 20
673.8705070615068
 30
0.0
 10
347.8484405842638
 20
673.9205570260009
 30
0.0
 10
348.8188231956087
 20
674.0026022209297
 30
0.0
 10
349.7730682083437
 20
674.117896069572
 30
0.0
 10
350.6897657372996
 20
674.2626969814969
 30
0.0
 10
351.579904311527
 20
674.4400213341999
 30
0.0
 10
352.4156647860218
 20
674.6427536265004
 30
0.0
 10
353.21487871033
 20
674.8770423154466
 30
0.0
 10
353.9453427639598
 20
675.1311506077968
 30
0.0
 10
354.6297186416566
 20
675.4157417580623
 30
0.0
 10
355.234489857143
 20
675.7134905727742
 30
0.0
 10
355.7838746100375
 20
676.0406129231353
 30
0.0
 10
356.2473934355876
 20
676.3744229741723
 30
0.0
 10
356.6461104184394
 20
676.7363183952584
 30
0.0
 10
356.9558690130925
 20
677.1021839708401
 30
0.0
 10
357.1911174137442
 20
677.4918611841883
 30
0.0
 10
357.2915218538878
 20
677.7872065321692
 30
0.0
 10
357.3332730651371
 20
677.9749558815352
 30
0.0
 10
357.3413127719386
 20
678.0240541446324
 30
0.0
 10
357.3453156671236
 20
678.0484996755899
 30
0.0
 11
334.3855210483671
 21
678.0297679764351
 31
0.0
 11
334.3971384030702
 21
677.965930536757
 31
0.0
 11
334.4112488279271
 21
677.9020930970789
 31
0.0
 11
334.5509761345246
 21
677.4978492314266
 31
0.0
 11
334.7666455839857
 21
677.1310998539049
 31
0.0
 11
335.090111697139
 21
676.7435976211436
 31
0.0
 11
335.4607964383383
 21
676.4039153316844
 31
0.0
 11
335.9490095873529
 21
676.0478359235028
 31
0.0
 11
336.4667357720542
 21
675.7379378049096
 31
0.0
 11
337.1013683951724
 21
675.4225226927124
 31
0.0
 11
337.7549553782717
 21
675.1497236578253
 31
0.0
 11
338.5151032860678
 21
674.8833714754238
 31
0.0
 11
339.287631620397
 21
674.6562462201491
 31
0.0
 11
340.1493422130196
 21
674.4459838248598
 31
0.0
 11
341.0190361181697
 21
674.2723240409728
 31
0.0
 11
341.9556425510606
 21
674.1235970028762
 31
0.0
 11
342.8970448130694
 21
674.0096571894057
 31
0.0
 11
343.8798417376989
 21
673.9261031666048
 31
0.0
 11
344.8648946381599
 21
673.8762810831616
 31
0.0
 11
345.863950476123
 21
673.8595878992637
 31
0.0
 11
346.863006314086
 21
673.8762810831616
 31
0.0
 11
347.8480592145471
 21
673.9261031666048
 31
0.0
 11
348.8308561391765
 21
674.0096571894057
 31
0.0
 11
349.7722584011854
 21
674.1235970028758
 31
0.0
 11
350.7088648340762
 21
674.2723240409728
 31
0.0
 11
351.5785587392263
 21
674.4459838248597
 31
0.0
 11
352.4402693318489
 21
674.6562462201491
 31
0.0
 11
353.2127976661781
 21
674.8833714754239
 31
0.0
 11
353.9729455739742
 21
675.1497236578255
 31
0.0
 11
354.6265325570735
 21
675.4225226927125
 31
0.0
 11
355.2611651801917
 21
675.7379378049095
 31
0.0
 11
355.7788913648931
 21
676.0478359235028
 31
0.0
 11
356.2671045139077
 21
676.4039153316844
 31
0.0
 11
356.6377892551069
 21
676.7435976211436
 31
0.0
 11
356.96125536826
 21
677.1310998539047
 31
0.0
 11
357.1769248177209
 21
677.4978492314265
 31
0.0
 11
357.3166521243185
 21
677.9020930970789
 31
0.0
 11
357.3326230309118
 21
677.9752963863344
 31
0.0
 11
357.3453156671236
 21
678.0484996755899
 31
0.0
  0
SPLINE
  5
238
330
65
100
AcDbEntity
  8
1
  6
Continuous
 62
     7
100
AcDbSpline
210
0.0
220
0.0
230
1.0
 70
     8
 71
     3
 72
     9
 73
     5
 74
     3
 42
0.000000001
 43
0.0000000001
 44
0.00000001
 40
0.0
 40
0.0
 40
0.0
 40
0.0
 40
0.3204772972585796
 40
0.6437443837151627
 40
0.6437443837151627
 40
0.6437443837151627
 40
0.6437443837151627
 10
357.3453156671236
 20
678.0484996755899
 30
0.0
 10
357.3561468111026
 20
678.1554042697811
 30
0.0
 10
357.3779033654936
 20
678.3701440742025
 30
0.0
 10
357.337128113768
 20
678.5821100379595
 30
0.0
 10
357.3166521243188
 20
678.6885523164035
 30
0.0
 11
357.3453156671236
 21
678.0484996755899
 31
0.0
 11
357.3623113409321
 21
678.3685259959968
 31
0.0
 11
357.3166521243188
 21
678.6885523164035
 31
0.0
  0
SPLINE
  5
239
330
65
100
AcDbEntity
  8
1
  6
Continuous
 62
     7
100
AcDbSpline
210
0.0
220
0.0
230
1.0
 70
     8
 71
     3
 72
     9
 73
     5
 74
     3
 42
0.000000001
 43
0.0000000001
 44
0.00000001
 40
0.0
 40
0.0
 40
0.0
 40
0.0
 40
0.214097884687759
 40
0.4312601803056488
 40
0.4312601803056488
 40
0.4312601803056488
 40
0.4312601803056488
 10
358.363950476123
 20
681.5244840741312
 30
0.0
 10
358.3617480994071
 20
681.5959708462901
 30
0.0
 10
358.3573118032091
 20
681.7399675883187
 30
0.0
 10
358.3275339547427
 20
681.8809270332321
 30
0.0
 10
358.3125392241618
 20
681.9519075628605
 30
0.0
 11
358.363950476123
 21
681.5244840741312
 31
0.0
 11
358.3510976631306
 21
681.7381958184959
 31
0.0
 11
358.3125392241618
 21
681.9519075628605
 31
0.0
  0
SPLINE
  5
23A
330
65
100
AcDbEntity
  8
1
  6
Continuous
 62
     7
100
AcDbSpline
210
0.0
220
0.0
230
1.0
 70
     8
 71
     3
 72
    43
 73
    39
 74
    37
 42
0.000000001
 43
0.0000000001
 44
0.00000001
 40
0.0
 40
0.0
 40
0.0
 40
0.0
 40
0.4649034163723513
 40
0.9273627578031813
 40
1.476021015067516
 40
2.022524806387061
 40
2.679342174927959
 40
3.335198848413119
 40
4.105516937179212
 40
4.875336395076371
 40
5.75083809304779
 40
6.626081719826315
 40
7.59020383508316
 40
8.554184885013564
 40
9.584990716175039
 40
10.6157215613123
 40
11.68783272342814
 40
12.75991103797958
 40
13.84599287722906
 40
14.93207471640877
 40
16.00415303076163
 40
17.07626419257083
 40
18.10699503733798
 40
19.13780086808515
 40
20.10178191761073
 40
21.06590403246486
 40
21.94114765889001
 40
22.81664935652648
 40
23.58646881414769
 40
24.3567869026576
 40
25.01264357594228
 40
25.66946094430139
 40
26.21596473548973
 40
26.76462299264244
 40
27.22708233288405
 40
27.69198575198263
 40
27.90914805197909
 40
28.12324593161573
 40
28.12324593161573
 40
28.12324593161573
 40
28.12324593161573
 10
358.3125392241618
 20
681.9519075628605
 30
0.0
 10
358.2682288604885
 20
682.101055182749
 30
0.0
 10
358.179841093496
 20
682.3985663331422
 30
0.0
 10
357.919170548207
 20
682.821130092756
 30
0.0
 10
357.5840340389648
 20
683.2191232443643
 30
0.0
 10
357.1501884767309
 20
683.6123958388376
 30
0.0
 10
356.6465090799494
 20
683.9752620879879
 30
0.0
 10
356.0493090012808
 20
684.3308212669563
 30
0.0
 10
355.3919622983066
 20
684.6544639598288
 30
0.0
 10
354.6480716148681
 20
684.9638013905316
 30
0.0
 10
353.8540901152888
 20
685.2400062908059
 30
0.0
 10
352.9853789949861
 20
685.4946678422014
 30
0.0
 10
352.0769437941919
 20
685.7150290489999
 30
0.0
 10
351.1094018380996
 20
685.9077729049352
 30
0.0
 10
350.1129914882244
 20
686.065165201842
 30
0.0
 10
349.0757686460382
 20
686.1904846018143
 30
0.0
 10
348.0210049386353
 20
686.2796641613123
 30
0.0
 10
346.9454205078571
 20
686.3340662962553
 30
0.0
 10
345.8639504734684
 20
686.3519077999017
 30
0.0
 10
344.7824804390988
 20
686.3340662956741
 30
0.0
 10
343.7068960087098
 20
686.2796641601499
 30
0.0
 10
342.6521323010286
 20
686.1904846003315
 30
0.0
 10
341.6149094614461
 20
686.0651651994922
 30
0.0
 10
340.6184991040751
 20
685.9077729041531
 30
0.0
 10
339.6509571762273
 20
685.7150290416555
 30
0.0
 10
338.7425218767407
 20
685.4946678575577
 30
0.0
 10
337.8738110943199
 20
685.2400062284917
 30
0.0
 10
337.079828411196
 20
684.9638016005068
 30
0.0
 10
336.3359416417361
 20
684.6544632696338
 30
0.0
 10
335.6785814389283
 20
684.3308236818925
 30
0.0
 10
335.0814246964143
 20
683.975254535328
 30
0.0
 10
334.577597853376
 20
683.6124221999944
 30
0.0
 10
334.1442162247137
 20
683.2190428972062
 30
0.0
 10
333.8075003258551
 20
682.821413017821
 30
0.0
 10
333.5518649605296
 20
682.3976911271457
 30
0.0
 10
333.4278409716102
 20
682.033947147811
 30
0.0
 10
333.3713599111318
 20
681.7397903003928
 30
0.0
 10
333.3664085638286
 20
681.595912029058
 30
0.0
 10
333.3639504761229
 20
681.5244840740804
 30
0.0
 11
358.3125392241618
 21
681.9519075628605
 31
0.0
 11
358.1606617169907
 21
682.3913030690042
 31
0.0
 11
357.9262384023592
 21
682.7899436967452
 31
0.0
 11
357.5746448011056
 21
683.2111417758334
 31
0.0
 11
357.1717266041499
 21
683.5803616556806
 31
0.0
 11
356.6410601378297
 21
683.9674044906606
 31
0.0
 11
356.0783142848934
 21
684.3042502717401
 31
0.0
 11
355.3884962162867
 21
684.6470927849978
 31
0.0
 11
354.6780755824831
 21
684.9436134750924
 31
0.0
 11
353.8518278566176
 21
685.2331267168332
 31
0.0
 11
353.0121231453903
 21
685.4800019943058
 31
0.0
 11
352.0754811968876
 21
685.708548076142
 31
0.0
 11
351.1301617347679
 21
685.8973087108018
 31
0.0
 11
350.1121112642344
 21
686.0589685348201
 31
0.0
 11
349.0888479359638
 21
686.1828161581575
 31
0.0
 11
348.0205904091927
 21
686.2736357481584
 31
0.0
 11
346.9498807347785
 21
686.3277901866836
 31
0.0
 11
345.8639504761229
 21
686.34593495179
 31
0.0
 11
344.7780202174673
 21
686.3277901866836
 31
0.0
 11
343.707310543053
 21
686.2736357481585
 31
0.0
 11
342.639053016282
 21
686.1828161581575
 31
0.0
 11
341.6157896880117
 21
686.0589685348201
 31
0.0
 11
340.5977392174782
 21
685.8973087108017
 31
0.0
 11
339.6524197553585
 21
685.7085480761419
 31
0.0
 11
338.7157778068556
 21
685.4800019943058
 31
0.0
 11
337.8760730956282
 21
685.2331267168331
 31
0.0
 11
337.0498253697628
 21
684.9436134750924
 31
0.0
 11
336.3394047359594
 21
684.6470927849979
 31
0.0
 11
335.6495866673526
 21
684.3042502717401
 31
0.0
 11
335.0868408144163
 21
683.9674044906604
 31
0.0
 11
334.556174348096
 21
683.5803616556805
 31
0.0
 11
334.1532561511402
 21
683.2111417758335
 31
0.0
 11
333.8016625498868
 21
682.7899436967454
 31
0.0
 11
333.5672392352553
 21
682.3913030690043
 31
0.0
 11
333.4153617280841
 21
681.9519075628607
 31
0.0
 11
333.3768032891122
 21
681.7381958184706
 31
0.0
 11
333.3639504761229
 21
681.5244840740804
 31
0.0
  0
SPLINE
  5
23B
330
65
100
AcDbEntity
  8
1
  6
Continuous
 62
     7
100
AcDbSpline
210
0.0
220
0.0
230
1.0
 70
     8
 71
     3
 72
    43
 73
    39
 74
    37
 42
0.000000001
 43
0.0000000001
 44
0.00000001
 40
0.0
 40
0.0
 40
0.0
 40
0.0
 40
0.4277111427592366
 40
0.853173737275996
 40
1.357939334058881
 40
1.860722822164614
 40
2.464994801329135
 40
3.068382941042532
 40
3.777075582838037
 40
4.485309484242123
 40
5.29077104654542
 40
6.095995183364197
 40
6.982987529613324
 40
7.869850095767531
 40
8.818191460664373
 40
9.766463838400119
 40
10.75280610773123
 40
11.73911815726031
 40
12.73831344946732
 40
13.737508741568
 40
14.72382079079357
 40
15.7101630596544
 40
16.65843543682134
 40
17.60677680108118
 40
18.49363936661499
 40
19.38063171225006
 40
20.18585584853427
 40
20.99131741033548
 40
21.69955131132928
 40
22.40824395274493
 40
23.01163209216125
 40
23.61590407105398
 40
24.11868755895995
 40
24.6234531555686
 40
25.04891574862537
 40
25.47662689432289
 40
25.80922270653916
 40
26.13924128744107
 40
26.13924128744107
 40
26.13924128744107
 40
26.13924128744107
 10
357.3166521243188
 20
678.6885523164035
 30
0.0
 10
357.2758865897683
 20
678.8257681266036
 30
0.0
 10
357.1945698451201
 20
679.0994783853296
 30
0.0
 10
356.9547529431482
 20
679.4882370441798
 30
0.0
 10
356.6464273546264
 20
679.8543907438448
 30
0.0
 10
356.2472894372838
 20
680.2162015308363
 30
0.0
 10
355.7839043921845
 20
680.5500384801352
 30
0.0
 10
355.2344803197198
 20
680.8771529248645
 30
0.0
 10
354.6297213528818
 20
681.1749042023837
 30
0.0
 10
353.9453419239903
 20
681.4594946387043
 30
0.0
 10
353.2148789442264
 20
681.7136031470216
 30
0.0
 10
352.4156647133661
 20
681.9478917743559
 30
0.0
 10
351.5799043284308
 20
682.1506240846367
 30
0.0
 10
350.6897657285994
 20
682.3279484320869
 30
0.0
 10
349.773068206484
 20
682.4727493451888
 30
0.0
 10
348.8188231914511
 20
682.5880431930628
 30
0.0
 10
347.8484405804492
 20
682.6700883876612
 30
0.0
 10
346.8589029039832
 20
682.720138351641
 30
0.0
 10
345.8639504722446
 20
682.7365525348176
 30
0.0
 10
344.8689980405689
 20
682.7201383507577
 30
0.0
 10
343.8794603645975
 20
682.670088385913
 30
0.0
 10
342.909077753533
 20
682.5880431907685
 30
0.0
 10
341.9548327411835
 20
682.4727493417988
 30
0.0
 10
341.0381352123141
 20
682.3279484302974
 30
0.0
 10
340.1479966391909
 20
682.1506240756489
 30
0.0
 10
339.3122361621041
 20
681.9478917900246
 30
0.0
 10
338.5130222477928
 20
681.7136030782269
 30
0.0
 10
337.7825581601816
 20
681.4594948659968
 30
0.0
 10
337.0981823957385
 20
681.1749034508621
 30
0.0
 10
336.4934107904567
 20
680.8771555497999
 30
0.0
 10
335.9440272895738
 20
680.5500302665437
 30
0.0
 10
335.4805042049325
 20
680.216230194334
 30
0.0
 10
335.0818006238272
 20
679.8543033752054
 30
0.0
 10
334.7719964058248
 20
679.4885446892788
 30
0.0
 10
334.5368934557648
 20
679.0985267058015
 30
0.0
 10
334.408127520252
 20
678.7223223528695
 30
0.0
 10
334.3506756596595
 20
678.360116575743
 30
0.0
 10
334.3739360789811
 20
678.1395982753235
 30
0.0
 10
334.3855210483671
 20
678.0297679764351
 30
0.0
 11
357.3166521243188
 21
678.6885523164035
 31
0.0
 11
357.1769248177212
 21
679.0927961820556
 31
0.0
 11
356.96125536826
 21
679.4595455595775
 31
0.0
 11
356.6377892551068
 21
679.8470477923387
 31
0.0
 11
356.2671045139076
 21
680.186730081798
 31
0.0
 11
355.778891364893
 21
680.5428094899795
 31
0.0
 11
355.2611651801916
 21
680.8527076085727
 31
0.0
 11
354.6265325570734
 21
681.1681227207698
 31
0.0
 11
353.9729455739742
 21
681.440921755657
 31
0.0
 11
353.2127976661781
 21
681.7072739380585
 31
0.0
 11
352.4402693318489
 21
681.9343991933331
 31
0.0
 11
351.5785587392263
 21
682.1446615886227
 31
0.0
 11
350.7088648340762
 21
682.3183213725094
 31
0.0
 11
349.7722584011855
 21
682.4670484106064
 31
0.0
 11
348.8308561391766
 21
682.5809882240765
 31
0.0
 11
347.8480592145472
 21
682.6645422468775
 31
0.0
 11
346.8630063140861
 21
682.7143643303207
 31
0.0
 11
345.863950476123
 21
682.7310575142187
 31
0.0
 11
344.8648946381597
 21
682.7143643303207
 31
0.0
 11
343.8798417376986
 21
682.6645422468775
 31
0.0
 11
342.8970448130693
 21
682.5809882240767
 31
0.0
 11
341.9556425510606
 21
682.4670484106064
 31
0.0
 11
341.0190361181698
 21
682.3183213725094
 31
0.0
 11
340.1493422130196
 21
682.1446615886225
 31
0.0
 11
339.287631620397
 21
681.9343991933331
 31
0.0
 11
338.5151032860678
 21
681.7072739380584
 31
0.0
 11
337.7549553782717
 21
681.440921755657
 31
0.0
 11
337.1013683951724
 21
681.1681227207698
 31
0.0
 11
336.4667357720542
 21
680.8527076085727
 31
0.0
 11
335.9490095873529
 21
680.5428094899794
 31
0.0
 11
335.4607964383382
 21
680.1867300817978
 31
0.0
 11
335.0901116971389
 21
679.8470477923388
 31
0.0
 11
334.7666455839857
 21
679.4595455595775
 31
0.0
 11
334.5509761345245
 21
679.0927961820557
 31
0.0
 11
334.411248827927
 21
678.6885523164035
 31
0.0
 11
334.3651970111997
 21
678.3591601464193
 31
0.0
 11
334.3855210483671
 21
678.0297679764351
 31
0.0
  0
ARC
  5
23C
330
65
100
AcDbEntity
  8
1
  6
Continuous
 62
     7
100
AcDbCircle
 10
612.1735118494012
 20
675.0731516094797
 30
0.0
 40
1.000000000000109
100
AcDbArc
 50
247.3117980292781
 51
321.3664021283565
  0
ARC
  5
23D
330
65
100
AcDbEntity
  8
1
  6
Continuous
 62
     7
100
AcDbCircle
 10
592.3451719961516
 20
683.3627288710632
 30
0.0
 40
1.000000000000011
100
AcDbArc
 50
173.2571939301882
 51
247.311798029267
  0
ARC
  5
23E
330
65
100
AcDbEntity
  8
1
  6
Continuous
 62
     7
100
AcDbCircle
 10
618.3518452488491
 20
685.8218282390447
 30
0.0
 40
0.1999999999999379
100
AcDbArc
 50
337.311798029268
 51
67.31179802931065
  0
ARC
  5
23F
330
65
100
AcDbEntity
  8
1
  6
Continuous
 62
     7
100
AcDbCircle
 10
595.6554539240032
 20
695.310443566344
 30
0.0
 40
0.2000000000000867
100
AcDbArc
 50
67.31179802925055
 51
157.311798029238
  0
ENDBLK
  5
67
330
65
100
AcDbEntity
  8
0
100
AcDbBlockEnd
  0
BLOCK
  5
69
330
68
100
AcDbEntity
  8
0
100
AcDbBlockBegin
  2
88-546A-M21
 70
     0
 10
2408.350680209258
 20
2291.4099997565
 30
0.0
  3
88-546A-M21
  1

  0
LINE
  5
240
330
68
100
AcDbEntity
  8
1
  6
Continuous
 62
     7
100
AcDbLine
 10
330.8627324298649
 20
607.4783321950299
 30
0.0
 11
321.8639504761252
 21
607.4783321950299
 31
0.0
  0
LINE
  5
241
330
68
100
AcDbEntity
  8
1
  6
Continuous
 62
     7
100
AcDbLine
 10
807.1863479900646
 20
607.4783321950299
 30
0.0
 11
807.1863479900646
 21
637.4783321950299
 31
0.0
  0
LINE
  5
242
330
68
100
AcDbEntity
  8
1
  6
Continuous
 62
     7
100
AcDbLine
 10
759.1863479900655
 20
637.4783321950299
 30
0.0
 11
759.1863479900655
 21
607.4783321950299
 31
0.0
  0
LINE
  5
243
330
68
100
AcDbEntity
  8
1
  6
Continuous
 62
     7
100
AcDbLine
 10
807.1863479900646
 20
607.4783321950299
 30
0.0
 11
759.1863479900655
 21
607.4783321950299
 31
0.0
  0
LINE
  5
244
330
68
100
AcDbEntity
  8
1
  6
Continuous
 62
     7
100
AcDbLine
 10
369.8639504761243
 20
607.4783321950299
 30
0.0
 11
360.8627446544066
 21
607.4783321950299
 31
0.0
  0
LINE
  5
245
330
68
100
AcDbEntity
  8
1
  6
Continuous
 62
     7
100
AcDbLine
 10
321.8639504761252
 20
637.4783321950299
 30
0.0
 11
321.8639504761252
 21
607.4783321950299
 31
0.0
  0
LINE
  5
246
330
68
100
AcDbEntity
  8
1
  6
Continuous
 62
     7
100
AcDbLine
 10
369.8639504761243
 20
607.4783321950299
 30
0.0
 11
369.8639504761243
 21
637.4783321950299
 31
0.0
  0
ARC
  5
247
330
68
100
AcDbEntity
  8
1
  6
Continuous
 62
     7
100
AcDbCircle
 10
818.5132710669889
 20
637.4783321950299
 30
0.0
 40
59.32692307692337
100
AcDbArc
 50
162.0335350006595
 51
180.0
  0
ARC
  5
248
330
68
100
AcDbEntity
  8
1
  6
Continuous
 62
     7
100
AcDbCircle
 10
381.1908735530485
 20
637.4783321950299
 30
0.0
 40
59.32692307692337
100
AcDbArc
 50
162.0335350006595
 51
180.0
  0
ARC
  5
249
330
68
100
AcDbEntity
  8
1
  6
Continuous
 62
     7
100
AcDbCircle
 10
310.5370273992011
 20
637.4783321950299
 30
0.0
 40
59.32692307692315
100
AcDbArc
 50
0.0
 51
17.96646499934042
  0
ARC
  5
24A
330
68
100
AcDbEntity
  8
1
  6
Continuous
 62
     7
100
AcDbCircle
 10
747.8594249131413
 20
637.4783321950299
 30
0.0
 40
59.32692307692332
100
AcDbArc
 50
0.0
 51
21.558784228284
  0
ENDBLK
  5
6A
330
68
100
AcDbEntity
  8
0
100
AcDbBlockEnd
  0
BLOCK
  5
6C
330
6B
100
AcDbEntity
  8
0
100
AcDbBlockBegin
  2
84-360A-M22
 70
     0
 10
1499.276764104901
 20
716.9099997565004
 30
0.0
  3
84-360A-M22
  1

  0
LINE
  5
24B
330
6B
100
AcDbEntity
  8
1
  6
PHANTOM
 62
     5
100
AcDbLine
 10
772.3635205236212
 20
718.4458940377144
 30
0.0
 11
770.0621808390874
 21
718.2445529043957
 31
0.0
  0
LINE
  5
24C
330
6B
100
AcDbEntity
  8
1
  6
PHANTOM
 62
     5
100
AcDbLine
 10
814.1273605960994
 20
658.3765082774298
 30
0.0
 11
813.7047423343588
 21
657.4702004903934
 31
0.0
  0
LINE
  5
24D
330
6B
100
AcDbEntity
  8
1
  6
Continuous
 62
     7
100
AcDbLine
 10
744.9490351219806
 20
707.5695227770348
 30
0.0
 11
747.4533786687925
 21
704.9798623358984
 31
0.0
  0
LINE
  5
24E
330
6B
100
AcDbEntity
  8
1
  6
Continuous
 62
     7
100
AcDbLine
 10
779.1863479900653
 20
691.6630528611627
 30
0.0
 11
777.1863479900653
 21
692.1783321950302
 31
0.0
  0
LINE
  5
24F
330
6B
100
AcDbEntity
  8
1
  6
Continuous
 62
     7
100
AcDbLine
 10
750.1863479900653
 20
703.5827322989462
 30
0.0
 11
748.6863479900653
 21
704.568540584613
 31
0.0
  0
LINE
  5
250
330
6B
100
AcDbEntity
  8
1
  6
Continuous
 62
     7
100
AcDbLine
 10
744.9490351219806
 20
707.5695227770348
 30
0.0
 11
742.9484034850511
 21
706.4144575629048
 31
0.0
  0
LINE
  5
251
102
{ACAD_REACTORS
330
27B
102
}
330
6B
100
AcDbEntity
  8
1
  6
Continuous
 62
     7
100
AcDbLine
 10
750.1863479900653
 20
703.5827322989462
 30
0.0
 11
748.6863479900653
 21
704.568540584613
 31
0.0
  0
LINE
  5
252
102
{ACAD_REACTORS
330
27B
102
}
330
6B
100
AcDbEntity
  8
1
  6
Continuous
 62
     7
100
AcDbLine
 10
779.1863479900653
 20
691.6630528611627
 30
0.0
 11
777.1863479900653
 21
692.1783321950302
 31
0.0
  0
LINE
  5
253
330
6B
100
AcDbEntity
  8
1
  6
PHANTOM
 62
     4
100
AcDbLine
 10
783.1863479900653
 20
694.8240937750807
 30
0.0
 11
783.1863479900653
 21
652.7783321950301
 31
0.0
  0
LINE
  5
254
330
6B
100
AcDbEntity
  8
1
  6
Continuous
 62
     7
100
AcDbLine
 10
808.1863479900653
 20
670.7783321950301
 30
0.0
 11
808.1863479900653
 21
669.7783321950301
 31
0.0
  0
LINE
  5
255
330
6B
100
AcDbEntity
  8
1
  6
Continuous
 62
     7
100
AcDbLine
 10
808.1863479900653
 20
669.7783321950301
 30
0.0
 11
805.2067823862158
 21
669.7783321950301
 31
0.0
  0
LINE
  5
256
330
6B
100
AcDbEntity
  8
1
  6
Continuous
 62
     7
100
AcDbLine
 10
361.2360283105242
 20
1160.760864077585
 30
0.0
 11
360.7223700748629
 21
1160.460654012071
 31
0.0
  0
LINE
  5
257
102
{ACAD_REACTORS
330
27D
102
}
330
6B
100
AcDbEntity
  8
1
  6
Continuous
 62
     7
100
AcDbLine
 10
361.7841319595917
 20
1190.560214487785
 30
0.0
 11
363.7928772801765
 21
1188.96065401207
 31
0.0
  0
LINE
  5
258
330
6B
100
AcDbEntity
  8
1
  6
Continuous
 62
     7
100
AcDbLine
 10
330.4918726417213
 20
1160.760864077585
 30
0.0
 11
331.0055308773821
 21
1160.460654012071
 31
0.0
  0
LINE
  5
259
102
{ACAD_REACTORS
330
27C
102
}
330
6B
100
AcDbEntity
  8
1
  6
Continuous
 62
     7
100
AcDbLine
 10
329.9437689926534
 20
1190.560214487785
 30
0.0
 11
327.9350236720687
 21
1188.96065401207
 31
0.0
  0
LINE
  5
25A
102
{ACAD_REACTORS
330
27D
102
}
330
6B
100
AcDbEntity
  8
1
  6
Continuous
 62
     7
100
AcDbLine
 10
363.2888641468442
 20
1161.96065401207
 30
0.0
 11
361.2360283105242
 21
1160.760864077585
 31
0.0
  0
LINE
  5
25B
330
6B
100
AcDbEntity
  8
1
  6
Continuous
 62
     7
100
AcDbLine
 10
361.2812556802641
 20
1190.960654012071
 30
0.0
 11
361.7841319595917
 21
1190.560214487785
 31
0.0
  0
LINE
  5
25C
102
{ACAD_REACTORS
330
27C
102
}
330
6B
100
AcDbEntity
  8
1
  6
Continuous
 62
     7
100
AcDbLine
 10
328.4390368054009
 20
1161.960654012071
 30
0.0
 11
330.4918726417213
 21
1160.760864077585
 31
0.0
  0
LINE
  5
25D
330
6B
100
AcDbEntity
  8
1
  6
Continuous
 62
     7
100
AcDbLine
 10
330.4466452719809
 20
1190.960654012071
 30
0.0
 11
329.9437689926534
 21
1190.560214487785
 31
0.0
  0
ARC
  5
25E
330
6B
100
AcDbEntity
  8
1
  6
PHANTOM
 62
     5
100
AcDbCircle
 10
805.0642827257332
 20
662.602690894837
 30
0.0
 40
9.999999999999819
100
AcDbArc
 50
334.9999999999984
 51
0.0
  0
ARC
  5
25F
330
6B
100
AcDbEntity
  8
1
  6
PHANTOM
 62
     5
100
AcDbCircle
 10
805.0642827257332
 20
662.602690894837
 30
0.0
 40
9.999999999999819
100
AcDbArc
 50
334.9999999999984
 51
29.69975156013895
  0
ARC
  5
260
330
6B
100
AcDbEntity
  8
1
  6
PHANTOM
 62
     5
100
AcDbCircle
 10
805.0642827257332
 20
662.602690894837
 30
0.0
 40
9.999999999999819
100
AcDbArc
 50
334.9999999999984
 51
29.69975156013895
  0
ARC
  5
261
330
6B
100
AcDbEntity
  8
1
  6
PHANTOM
 62
     5
100
AcDbCircle
 10
805.0642827257332
 20
662.602690894837
 30
0.0
 40
10.00000000000023
100
AcDbArc
 50
0.0
 51
29.69975156013895
  0
ARC
  5
262
330
6B
100
AcDbEntity
  8
1
  6
PHANTOM
 62
     5
100
AcDbCircle
 10
639.7136604884108
 20
568.2893113431264
 30
0.0
 40
200.3571428571431
100
AcDbArc
 50
29.69975156013763
 51
48.54229199834968
  0
ARC
  5
263
330
6B
100
AcDbEntity
  8
1
  6
Continuous
 62
     7
100
AcDbCircle
 10
678.4494888866784
 20
496.081649813776
 30
0.0
 40
219.9999999999998
100
AcDbArc
 50
71.38191495189238
 51
71.7204212010843
  0
ARC
  5
264
330
6B
100
AcDbEntity
  8
1
  6
Continuous
 62
     7
100
AcDbCircle
 10
688.1863479900653
 20
515.4211893378874
 30
0.0
 40
200.3571428571429
100
AcDbArc
 50
54.69975156013975
 51
73.54229199835179
  0
ARC
  5
265
330
6B
100
AcDbEntity
  8
1
  6
Continuous
 62
     7
100
AcDbCircle
 10
678.4494888866784
 20
496.081649813776
 30
0.0
 40
219.5515342386306
100
AcDbArc
 50
63.27423731996624
 51
70.9288111281871
  0
ARC
  5
266
102
{ACAD_REACTORS
330
27B
102
}
330
6B
100
AcDbEntity
  8
1
  6
Continuous
 62
     7
100
AcDbCircle
 10
678.4494888866784
 20
496.081649813776
 30
0.0
 40
219.9999999999999
100
AcDbArc
 50
62.74865308431202
 51
71.38191495189238
  0
ARC
  5
267
330
6B
100
AcDbEntity
  8
1
  6
Continuous
 62
     7
100
AcDbCircle
 10
678.4494888866784
 20
496.081649813776
 30
0.0
 40
219.9999999999998
100
AcDbArc
 50
57.03802307375565
 51
62.74865308431202
  0
ARC
  5
268
102
{ACAD_REACTORS
330
27B
102
}
330
6B
100
AcDbEntity
  8
1
  6
Continuous
 62
     7
100
AcDbCircle
 10
678.4494888866784
 20
496.081649813776
 30
0.0
 40
219.5515342386306
100
AcDbArc
 50
63.27423731996624
 51
70.9288111281871
  0
ARC
  5
269
330
6B
100
AcDbEntity
  8
1
  6
Continuous
 62
     7
100
AcDbCircle
 10
792.7067823862158
 20
672.2783321950301
 30
0.0
 40
10.0
100
AcDbArc
 50
0.0
 51
57.03802307375501
  0
ARC
  5
26A
330
6B
100
AcDbEntity
  8
1
  6
Continuous
 62
     7
100
AcDbCircle
 10
805.2067823862158
 20
672.2783321950301
 30
0.0
 40
2.5
100
AcDbArc
 50
180.0
 51
270.0
  0
ARC
  5
26B
330
6B
100
AcDbEntity
  8
1
  6
Continuous
 62
     7
100
AcDbCircle
 10
798.1863479900653
 20
670.7783321950301
 30
0.0
 40
10.0
100
AcDbArc
 50
0.0
 51
54.69975156014022
  0
ARC
  5
26C
102
{ACAD_REACTORS
330
27D
102
}
330
6B
100
AcDbEntity
  8
1
  6
Continuous
 62
     7
100
AcDbCircle
 10
-229.6174872422401
 20
1186.533231884501
 30
0.0
 40
591.4153293443075
100
AcDbArc
 50
357.502405522131
 51
0.39013342878285
  0
ARC
  5
26D
102
{ACAD_REACTORS
330
27C
102
}
330
6B
100
AcDbEntity
  8
1
  6
Continuous
 62
     7
100
AcDbCircle
 10
921.3453881944848
 20
1186.533231884501
 30
0.0
 40
591.415329344307
100
AcDbArc
 50
179.6098665712171
 51
182.497594477869
  0
ARC
  5
26E
330
6B
100
AcDbEntity
  8
1
  6
Continuous
 62
     7
100
AcDbCircle
 10
345.8639504761223
 20
1189.960654012071
 30
0.0
 40
45.00000000000016
100
AcDbArc
 50
251.7052947919977
 51
288.2947052080025
  0
ARC
  5
26F
330
6B
100
AcDbEntity
  8
1
  6
Continuous
 62
     7
100
AcDbCircle
 10
-229.6174872422401
 20
1186.533231884501
 30
0.0
 40
590.915329344307
100
AcDbArc
 50
357.3514819526911
 51
357.4711541167296
  0
ARC
  5
270
330
6B
100
AcDbEntity
  8
1
  6
Continuous
 62
     7
100
AcDbCircle
 10
-229.6174872422401
 20
1186.533231884501
 30
0.0
 40
590.9153293443076
100
AcDbArc
 50
357.4711541167296
 51
0.42929158021493
  0
ARC
  5
271
330
6B
100
AcDbEntity
  8
1
  6
Continuous
 62
     7
100
AcDbCircle
 10
921.3453881944848
 20
1186.533231884501
 30
0.0
 40
590.9153293443073
100
AcDbArc
 50
179.5707084197851
 51
182.5288458832704
  0
ARC
  5
272
330
6B
100
AcDbEntity
  8
1
  6
Continuous
 62
     7
100
AcDbCircle
 10
921.3453881944848
 20
1186.533231884501
 30
0.0
 40
590.9153293443071
100
AcDbArc
 50
177.2239373385471
 51
179.5707084197851
  0
ARC
  5
273
102
{ACAD_REACTORS
330
27C
102
}
330
6B
100
AcDbEntity
  8
1
  6
Continuous
 62
     7
100
AcDbCircle
 10
921.3453881944848
 20
1186.533231884501
 30
0.0
 40
593.4153293443069
100
AcDbArc
 50
179.7656254835274
 51
182.3732242779171
  0
ARC
  5
274
102
{ACAD_REACTORS
330
27D
102
}
330
6B
100
AcDbEntity
  8
1
  6
Continuous
 62
     7
100
AcDbCircle
 10
-229.6174872422401
 20
1186.533231884501
 30
0.0
 40
593.4153293443076
100
AcDbArc
 50
357.6267757220828
 51
0.2343745164726
  0
ARC
  5
275
330
6B
100
AcDbEntity
  8
1
  6
Continuous
 62
     7
100
AcDbCircle
 10
-229.6174872422401
 20
1186.533231884501
 30
0.0
 40
590.9153293443075
100
AcDbArc
 50
0.42929158021493
 51
2.77606266145281
  0
ARC
  5
276
330
6B
100
AcDbEntity
  8
1
  6
Continuous
 62
     7
100
AcDbCircle
 10
-229.6174872422401
 20
1186.533231884501
 30
0.0
 40
590.9153293443076
100
AcDbArc
 50
356.1868068539001
 51
357.3514819526911
  0
ARC
  5
277
330
6B
100
AcDbEntity
  8
1
  6
Continuous
 62
     7
100
AcDbCircle
 10
921.3453881944848
 20
1186.533231884501
 30
0.0
 40
590.9153293443073
100
AcDbArc
 50
182.5288458832704
 51
182.6485180473088
  0
ARC
  5
278
330
6B
100
AcDbEntity
  8
1
  6
Continuous
 62
     7
100
AcDbCircle
 10
345.8639504761226
 20
1194.960654012071
 30
0.0
 40
24.99999999999922
100
AcDbArc
 50
53.87015686343469
 51
126.1298431365651
  0
ARC
  5
279
330
6B
100
AcDbEntity
  8
1
  6
Continuous
 62
     7
100
AcDbCircle
 10
921.3453881944848
 20
1186.533231884501
 30
0.0
 40
590.915329344307
100
AcDbArc
 50
182.6485180473088
 51
183.8131931460998
  0
ARC
  5
27A
330
6B
100
AcDbEntity
  8
1
  6
Continuous
 62
     7
100
AcDbCircle
 10
345.8639504761223
 20
1201.723341143986
 30
0.0
 40
44.99999999999994
100
AcDbArc
 50
250.79504416631
 51
289.2049558336901
  0
HATCH
  5
27B
330
6B
100
AcDbEntity
  8
1
  6
Continuous
 62
     2
100
AcDbHatch
 10
0.0
 20
0.0
 30
0.0
210
0.0
220
0.0
230
1.0
  2
CUSTOM0
 70
     0
 71
     1
 91
        1
 92
        1
 93
        4
 72
     1
 10
779.1863479900653
 20
691.6630528611627
 11
777.1863479900653
 21
692.1783321950302
 72
     2
 10
678.4494888866784
 20
496.081649813776
 40
219.5515342386306
 50
63.27423731996624
 51
70.9288111281871
 73
     1
 72
     1
 10
750.1863479900653
 20
703.5827322989462
 11
748.6863479900653
 21
704.568540584613
 72
     2
 10
678.4494888866784
 20
496.081649813776
 40
219.9999999999999
 50
288.6180850481076
 51
297.251346915688
 73
     0
 97
        4
330
252
330
268
330
251
330
266
 75
     1
 76
     2
 52
45.0
 41
0.5
 77
     0
 78
     1
 53
45.0
 43
0.0
 44
0.0
 45
-1.414213562373095
 46
0.0000000000000001
 79
     0
 98
        1
 10
0.0
 20
0.0
  0
HATCH
  5
27C
330
6B
100
AcDbEntity
  8
1
  6
Continuous
 62
     2
100
AcDbHatch
 10
0.0
 20
0.0
 30
0.0
210
0.0
220
0.0
230
1.0
  2
CUSTOM1
 70
     0
 71
     1
 91
        1
 92
        1
 93
        4
 72
     2
 10
921.3453881944848
 20
1186.533231884501
 40
593.4153293443069
 50
179.7656254835274
 51
182.3732242779171
 73
     1
 72
     1
 10
328.4390368054009
 20
1161.960654012071
 11
330.4918726417213
 21
1160.760864077585
 72
     2
 10
921.3453881944848
 20
1186.533231884501
 40
591.415329344307
 50
177.502405522131
 51
180.3901334287829
 73
     0
 72
     1
 10
329.9437689926534
 20
1190.560214487785
 11
327.9350236720687
 21
1188.96065401207
 97
        4
330
273
330
25C
330
26D
330
259
 75
     1
 76
     2
 52
45.0
 41
0.5
 77
     0
 78
     1
 53
45.0
 43
0.0
 44
0.0
 45
-1.414213562373095
 46
0.0000000000000001
 79
     0
 98
        1
 10
0.0
 20
0.0
  0
HATCH
  5
27D
330
6B
100
AcDbEntity
  8
1
  6
Continuous
 62
     2
100
AcDbHatch
 10
0.0
 20
0.0
 30
0.0
210
0.0
220
0.0
230
1.0
  2
CUSTOM2
 70
     0
 71
     1
 91
        1
 92
        1
 93
        4
 72
     2
 10
-229.6174872422401
 20
1186.533231884501
 40
593.4153293443076
 50
359.7656254835274
 51
362.3732242779172
 73
     0
 72
     1
 10
363.2888641468442
 20
1161.96065401207
 11
361.2360283105242
 21
1160.760864077585
 72
     2
 10
-229.6174872422401
 20
1186.533231884501
 40
591.4153293443075
 50
357.502405522131
 51
360.3901334287828
 73
     1
 72
     1
 10
361.7841319595917
 20
1190.560214487785
 11
363.7928772801765
 21
1188.96065401207
 97
        4
330
26C
330
25A
330
274
330
257
 75
     1
 76
     2
 52
45.0
 41
0.5
 77
     0
 78
     1
 53
45.0
 43
0.0
 44
0.0
 45
-1.414213562373095
 46
0.0000000000000001
 79
     0
 98
        1
 10
0.0
 20
0.0
  0
ENDBLK
  5
6D
330
6B
100
AcDbEntity
  8
0
100
AcDbBlockEnd
  0
BLOCK
  5
70
330
6E
100
AcDbEntity
  8
0
100
AcDbBlockBegin
  2
87-163A-M21
 70
     0
 10
3239.914153234306
 20
2260.4099997565
 30
0.0
  3
87-163A-M21
  1

  0
INSERT
  5
6F
330
6E
100
AcDbEntity
  8
1
100
AcDbBlockReference
  2
84-360A-M22
 10
1499.276764104901
 20
716.9099997565003
 30
0.0
 41
1.0
 42
1.0
 43
1.0
  0
LINE
  5
27E
330
6E
100
AcDbEntity
  8
1
  6
PHANTOM
 62
     5
100
AcDbLine
 10
813.7047423343588
 20
657.4702004903929
 30
0.0
 11
809.8283711358913
 21
649.1572956288164
 31
0.0
  0
LINE
  5
27F
330
6E
100
AcDbEntity
  8
1
  6
PHANTOM
 62
     5
100
AcDbLine
 10
809.2458077198219
 20
648.8856418465425
 30
0.0
 11
805.8962693397575
 21
649.783147950498
 31
0.0
  0
LINE
  5
280
330
6E
100
AcDbEntity
  8
1
  6
PHANTOM
 62
     5
100
AcDbLine
 10
717.7436176861497
 20
747.4561024764866
 30
0.0
 11
717.2633152877665
 21
746.4260906592167
 31
0.0
  0
LINE
  5
281
330
6E
100
AcDbEntity
  8
1
  6
PHANTOM
 62
     5
100
AcDbLine
 10
808.1863479900653
 20
670.7783321950301
 30
0.0
 11
808.1863479900653
 21
669.7783321950301
 31
0.0
  0
LINE
  5
282
330
6E
100
AcDbEntity
  8
1
  6
Continuous
 62
     7
100
AcDbLine
 10
808.1863479900653
 20
669.7783321950301
 30
0.0
 11
805.2067823862158
 21
669.7783321950301
 31
0.0
  0
LINE
  5
283
330
6E
100
AcDbEntity
  8
1
  6
Continuous
 62
     7
100
AcDbLine
 10
683.1863479900653
 20
710.7783321950301
 30
0.0
 11
683.1863479900653
 21
709.6418398995843
 31
0.0
  0
LINE
  5
284
330
6E
100
AcDbEntity
  8
1
  6
PHANTOM
 62
     4
100
AcDbLine
 10
783.1863479900653
 20
694.8240937750807
 30
0.0
 11
783.1863479900653
 21
652.7783321950301
 31
0.0
  0
LINE
  5
285
330
6E
100
AcDbEntity
  8
1
  6
Continuous
 62
     7
100
AcDbLine
 10
758.1863479900653
 20
656.2783321950301
 30
0.0
 11
758.1863479900653
 21
678.7783321950301
 31
0.0
  0
LINE
  5
286
330
6E
100
AcDbEntity
  8
1
  6
Continuous
 62
     7
100
AcDbLine
 10
780.5616880842877
 20
655.7783321950301
 30
0.0
 11
758.6863479900653
 21
655.7783321950301
 31
0.0
  0
LINE
  5
287
330
6E
100
AcDbEntity
  8
1
  6
Continuous
 62
     7
100
AcDbLine
 10
808.1863479900653
 20
669.7783321950301
 30
0.0
 11
808.1863479900653
 21
660.6060565283306
 31
0.0
  0
LINE
  5
288
330
6E
100
AcDbEntity
  8
1
  6
Continuous
 62
     7
100
AcDbLine
 10
807.7731720788988
 20
660.1136526518244
 30
0.0
 11
785.7711334142955
 21
656.2340996046642
 31
0.0
  0
LINE
  5
289
330
6E
100
AcDbEntity
  8
1
  6
Continuous
 62
     7
100
AcDbLine
 10
783.1863479900653
 20
655.7783321950301
 30
0.0
 11
780.5616880842877
 21
655.7783321950301
 31
0.0
  0
LINE
  5
28A
330
6E
100
AcDbEntity
  8
1
  6
Continuous
 62
     7
100
AcDbLine
 10
779.1863479900653
 20
691.6630528611627
 30
0.0
 11
777.1863479900653
 21
692.1783321950302
 31
0.0
  0
LINE
  5
28B
330
6E
100
AcDbEntity
  8
1
  6
Continuous
 62
     7
100
AcDbLine
 10
750.1863479900653
 20
703.5827322989462
 30
0.0
 11
748.6863479900653
 21
704.568540584613
 31
0.0
  0
LINE
  5
28C
330
6E
100
AcDbEntity
  8
1
  6
Continuous
 62
     7
100
AcDbLine
 10
364.0428793709438
 20
1188.960654012071
 30
0.0
 11
361.5312626947514
 21
1190.960654012071
 31
0.0
  0
LINE
  5
28D
330
6E
100
AcDbEntity
  8
1
  6
Continuous
 62
     7
100
AcDbLine
 10
363.5390786677971
 20
1161.960654012071
 30
0.0
 11
360.9726136753505
 21
1160.460654012071
 31
0.0
  0
LINE
  5
28E
330
6E
100
AcDbEntity
  8
1
  6
Continuous
 62
     7
100
AcDbLine
 10
328.1888222844481
 20
1161.960654012071
 30
0.0
 11
330.7552872768947
 21
1160.460654012071
 31
0.0
  0
LINE
  5
28F
330
6E
100
AcDbEntity
  8
1
  6
Continuous
 62
     7
100
AcDbLine
 10
330.1966382574937
 20
1190.960654012071
 30
0.0
 11
327.6850215813012
 21
1188.960654012071
 31
0.0
  0
LINE
  5
290
330
6E
100
AcDbEntity
  8
1
  6
Continuous
 62
     7
100
AcDbLine
 10
320.8639504761222
 20
677.7783321950301
 30
0.0
 11
320.8639504761222
 21
656.2783321950301
 31
0.0
  0
LINE
  5
291
330
6E
100
AcDbEntity
  8
1
  6
Continuous
 62
     7
100
AcDbLine
 10
370.8639504761222
 20
656.2783321950301
 30
0.0
 11
370.8639504761222
 21
677.7783321950301
 31
0.0
  0
LINE
  5
292
330
6E
100
AcDbEntity
  8
1
  6
Continuous
 62
     7
100
AcDbLine
 10
370.3639504761222
 20
655.7783321950301
 30
0.0
 11
360.8627446544061
 21
655.7783321950301
 31
0.0
  0
LINE
  5
293
330
6E
100
AcDbEntity
  8
1
  6
Continuous
 62
     7
100
AcDbLine
 10
330.8627324298643
 20
655.7783321950301
 30
0.0
 11
321.3639504761222
 21
655.7783321950301
 31
0.0
  0
ARC
  5
294
330
6E
100
AcDbEntity
  8
1
  6
PHANTOM
 62
     5
100
AcDbCircle
 10
722.2751566213328
 20
745.3430111677835
 30
0.0
 40
4.999999999999909
100
AcDbArc
 50
64.99999999999837
 51
90.0
  0
ARC
  5
295
330
6E
100
AcDbEntity
  8
1
  6
PHANTOM
 62
     5
100
AcDbCircle
 10
759.5046083196808
 20
692.6745393251299
 30
0.0
 40
14.00000000000018
100
AcDbArc
 50
18.126974337103
 51
41.49354248247101
  0
ARC
  5
296
330
6E
100
AcDbEntity
  8
1
  6
PHANTOM
 62
     5
100
AcDbCircle
 10
620.1849545546038
 20
569.4429115878515
 30
0.0
 40
200.0000000000004
100
AcDbArc
 50
41.49354248247089
 51
60.68838098644655
  0
ARC
  5
297
330
6E
100
AcDbEntity
  8
1
  6
PHANTOM
 62
     5
100
AcDbCircle
 10
639.7136604884108
 20
568.2893113431264
 30
0.0
 40
200.3571428571428
100
AcDbArc
 50
64.4280540212621
 51
64.99999999999785
  0
ARC
  5
298
330
6E
100
AcDbEntity
  8
1
  6
PHANTOM
 62
     5
100
AcDbCircle
 10
722.2751566213328
 20
745.3430111677835
 30
0.0
 40
5.0
100
AcDbArc
 50
90.0
 51
155.0000000000031
  0
ARC
  5
299
330
6E
100
AcDbEntity
  8
1
  6
PHANTOM
 62
     5
100
AcDbCircle
 10
622.7158266851866
 20
554.8767105438092
 30
0.0
 40
220.0000000000005
100
AcDbArc
 50
47.95175246216937
 51
61.94185502721909
  0
ARC
  5
29A
330
6E
100
AcDbEntity
  8
1
  6
Continuous
 62
     7
100
AcDbCircle
 10
744.1863479900653
 20
678.7783321950301
 30
0.0
 40
14.0
100
AcDbArc
 50
0.0
 51
66.49354248247339
  0
ARC
  5
29B
330
6E
100
AcDbEntity
  8
1
  6
Continuous
 62
     7
100
AcDbCircle
 10
688.1863479900653
 20
515.4211893378874
 30
0.0
 40
200.3571428571429
100
AcDbArc
 50
89.42805402126429
 51
90.0
  0
ARC
  5
29C
330
6E
100
AcDbEntity
  8
1
  6
Continuous
 62
     7
100
AcDbCircle
 10
688.1863479900653
 20
710.7783321950301
 30
0.0
 40
5.0
100
AcDbArc
 50
90.0
 51
180.0
  0
ARC
  5
29D
330
6E
100
AcDbEntity
  8
1
  6
Continuous
 62
     7
100
AcDbCircle
 10
669.999797201338
 20
508.2135184670178
 30
0.0
 40
200.0
100
AcDbArc
 50
66.49354248247298
 51
85.68838098644866
  0
ARC
  5
29E
330
6E
100
AcDbEntity
  8
1
  6
Continuous
 62
     7
100
AcDbCircle
 10
678.4494888866784
 20
496.081649813776
 30
0.0
 40
219.9999999999998
100
AcDbArc
 50
71.38191495189238
 51
86.94185502722127
  0
ARC
  5
29F
330
6E
100
AcDbEntity
  8
1
  6
Continuous
 62
     7
100
AcDbCircle
 10
805.2067823862158
 20
672.2783321950301
 30
0.0
 40
2.5
100
AcDbArc
 50
180.0
 51
270.0
  0
ARC
  5
2A0
330
6E
100
AcDbEntity
  8
1
  6
Continuous
 62
     7
100
AcDbCircle
 10
792.7067823862158
 20
672.2783321950301
 30
0.0
 40
10.0
100
AcDbArc
 50
0.0
 51
57.03802307375533
  0
ARC
  5
2A1
330
6E
100
AcDbEntity
  8
1
  6
Continuous
 62
     7
100
AcDbCircle
 10
678.4494888866784
 20
496.081649813776
 30
0.0
 40
219.5515342386306
100
AcDbArc
 50
63.27423731996624
 51
70.9288111281871
  0
ARC
  5
2A2
330
6E
100
AcDbEntity
  8
1
  6
Continuous
 62
     7
100
AcDbCircle
 10
678.4494888866784
 20
496.081649813776
 30
0.0
 40
220.0000000000003
100
AcDbArc
 50
57.03802307375565
 51
62.74865308431202
  0
ARC
  5
2A3
330
6E
100
AcDbEntity
  8
1
  6
PHANTOM
 62
     5
100
AcDbCircle
 10
-67.02196391584141
 20
1595.928393735383
 30
0.0
 40
591.1653293443076
100
AcDbArc
 50
307.9451402673781
 51
310.9954473632212
  0
ARC
  5
2A4
330
6E
100
AcDbEntity
  8
1
  6
PHANTOM
 62
     5
100
AcDbCircle
 10
746.8316901994343
 20
782.0747396201073
 30
0.0
 40
591.1653293443075
100
AcDbArc
 50
142.0548597326218
 51
142.2854734842086
  0
ARC
  5
2A5
330
6E
100
AcDbEntity
  8
1
  6
PHANTOM
 62
     5
100
AcDbCircle
 10
287.8811944188254
 20
1136.977897954774
 30
0.0
 40
10.99999999999997
100
AcDbArc
 50
142.2854734842068
 51
307.7145265157923
  0
ARC
  5
2A6
330
6E
100
AcDbEntity
  8
1
  6
PHANTOM
 62
     5
100
AcDbCircle
 10
287.8811944188254
 20
1136.977897954774
 30
0.0
 40
18.0
100
AcDbArc
 50
180.0
 51
307.7145265157923
  0
ARC
  5
2A7
330
6E
100
AcDbEntity
  8
1
  6
PHANTOM
 62
     5
100
AcDbCircle
 10
292.4773884965395
 20
1141.574092032488
 30
0.0
 40
12.49999999999967
100
AcDbArc
 50
161.2782275840412
 51
288.7217724159547
  0
ARC
  5
2A8
330
6E
100
AcDbEntity
  8
1
  6
PHANTOM
 62
     5
100
AcDbCircle
 10
-67.02196391584141
 20
1595.928393735383
 30
0.0
 40
591.1653293443076
100
AcDbArc
 50
307.7145265157914
 51
307.9451402673781
  0
ARC
  5
2A9
330
6E
100
AcDbEntity
  8
1
  6
PHANTOM
 62
     5
100
AcDbCircle
 10
1064.710425779341
 20
536.2613713768619
 30
0.0
 40
1000.000000000001
100
AcDbArc
 50
138.3405795102229
 51
142.2854734842087
  0
ARC
  5
2AA
330
6E
100
AcDbEntity
  8
1
  6
PHANTOM
 62
     5
100
AcDbCircle
 10
746.8316901994343
 20
782.0747396201073
 30
0.0
 40
591.1653293443068
100
AcDbArc
 50
138.8032659793443
 51
142.0548597326218
  0
ARC
  5
2AB
330
6E
100
AcDbEntity
  8
1
  6
PHANTOM
 62
     5
100
AcDbCircle
 10
342.3284165701895
 20
1191.425120106138
 30
0.0
 40
45.00000000000012
100
AcDbArc
 50
206.3613151914892
 51
241.1042250445663
  0
ARC
  5
2AC
330
6E
100
AcDbEntity
  8
1
  6
PHANTOM
 62
     5
100
AcDbCircle
 10
-312.8353321590836
 20
1913.807129315287
 30
0.0
 40
999.9999999999964
100
AcDbArc
 50
307.7145265157912
 51
309.3784162572703
  0
ARC
  5
2AD
330
6E
100
AcDbEntity
  8
1
  6
PHANTOM
 62
     5
100
AcDbCircle
 10
349.3994843820555
 20
1191.425120106138
 30
0.0
 40
45.00000000000033
100
AcDbArc
 50
298.8957749554339
 51
333.6386848085121
  0
ARC
  5
2AE
330
6E
100
AcDbEntity
  8
1
  6
PHANTOM
 62
     5
100
AcDbCircle
 10
758.7498648680859
 20
1595.928393735383
 30
0.0
 40
591.1653293443072
100
AcDbArc
 50
229.0045526367789
 51
232.0548597326219
  0
ARC
  5
2AF
330
6E
100
AcDbEntity
  8
1
  6
PHANTOM
 62
     5
100
AcDbCircle
 10
-55.10378924718987
 20
782.0747396201073
 30
0.0
 40
591.1653293443073
100
AcDbArc
 50
37.94514026737804
 51
41.19673402065571
  0
ARC
  5
2B0
330
6E
100
AcDbEntity
  8
1
  6
PHANTOM
 62
     5
100
AcDbCircle
 10
-55.10378924718987
 20
782.0747396201073
 30
0.0
 40
591.1653293443077
100
AcDbArc
 50
37.71452651579133
 51
37.94514026737804
  0
ARC
  5
2B1
330
6E
100
AcDbEntity
  8
1
  6
PHANTOM
 62
     5
100
AcDbCircle
 10
399.2505124557055
 20
1141.574092032488
 30
0.0
 40
12.4999999999998
100
AcDbArc
 50
251.2782275840436
 51
18.72177241595368
  0
ARC
  5
2B2
330
6E
100
AcDbEntity
  8
1
  6
PHANTOM
 62
     5
100
AcDbCircle
 10
403.8467065334193
 20
1136.977897954774
 30
0.0
 40
18.0
100
AcDbArc
 50
0.0
 51
37.71452651579185
  0
ARC
  5
2B3
330
6E
100
AcDbEntity
  8
1
  6
PHANTOM
 62
     5
100
AcDbCircle
 10
403.8467065334193
 20
1136.977897954774
 30
0.0
 40
11.00000000000046
100
AcDbArc
 50
232.2854734842084
 51
37.71452651579177
  0
ARC
  5
2B4
330
6E
100
AcDbEntity
  8
1
  6
PHANTOM
 62
     5
100
AcDbCircle
 10
758.7498648680859
 20
1595.928393735383
 30
0.0
 40
591.1653293443075
100
AcDbArc
 50
232.0548597326219
 51
232.2854734842087
  0
ARC
  5
2B5
330
6E
100
AcDbEntity
  8
1
  6
PHANTOM
 62
     5
100
AcDbCircle
 10
-372.9825248270927
 20
536.2613713768646
 30
0.0
 40
999.9999999999959
100
AcDbArc
 50
37.71452651579131
 51
41.65942048977714
  0
ARC
  5
2B6
330
6E
100
AcDbEntity
  8
1
  6
PHANTOM
 62
     5
100
AcDbCircle
 10
1004.563233111332
 20
1913.80712931529
 30
0.0
 40
1000.000000000002
100
AcDbArc
 50
230.6215837427296
 51
232.2854734842087
  0
ARC
  5
2B7
330
6E
100
AcDbEntity
  8
1
  6
Continuous
 62
     7
100
AcDbCircle
 10
345.8639504761226
 20
1194.960654012071
 30
0.0
 40
25.00000000000049
100
AcDbArc
 50
53.13010235415796
 51
53.87015686343592
  0
ARC
  5
2B8
330
6E
100
AcDbEntity
  8
1
  6
Continuous
 62
     7
100
AcDbCircle
 10
921.3453881944846
 20
1186.533231884502
 30
0.0
 40
593.6653293443072
100
AcDbArc
 50
179.7657241821592
 51
182.3722243114998
  0
ARC
  5
2B9
330
6E
100
AcDbEntity
  8
1
  6
Continuous
 62
     7
100
AcDbCircle
 10
-229.6174872422401
 20
1186.533231884502
 30
0.0
 40
591.1653293443072
100
AcDbArc
 50
0.42911003218283
 51
2.75625041500966
  0
ARC
  5
2BA
330
6E
100
AcDbEntity
  8
1
  6
Continuous
 62
     7
100
AcDbCircle
 10
921.3453881944846
 20
1186.533231884502
 30
0.0
 40
591.1653293443073
100
AcDbArc
 50
187.0548597326219
 51
187.2854734842087
  0
ARC
  5
2BB
330
6E
100
AcDbEntity
  8
1
  6
Continuous
 62
     7
100
AcDbCircle
 10
345.8639504761226
 20
1112.960654012071
 30
0.0
 40
11.00000000000037
100
AcDbArc
 50
187.2854734842079
 51
352.7145265157919
  0
ARC
  5
2BC
330
6E
100
AcDbEntity
  8
1
  6
Continuous
 62
     7
100
AcDbCircle
 10
345.8639504761226
 20
1194.960654012071
 30
0.0
 40
25.00000000000097
100
AcDbArc
 50
126.8698976458435
 51
182.5000932383824
  0
ARC
  5
2BD
330
6E
100
AcDbEntity
  8
1
  6
Continuous
 62
     7
100
AcDbCircle
 10
345.8639504761226
 20
1189.960654012071
 30
0.0
 40
45.00000000000006
100
AcDbArc
 50
251.3613151914885
 51
288.6386848085109
  0
ARC
  5
2BE
330
6E
100
AcDbEntity
  8
1
  6
Continuous
 62
     7
100
AcDbCircle
 10
345.8639504761226
 20
1112.960654012071
 30
0.0
 40
18.00000000000033
100
AcDbArc
 50
187.2854734842082
 51
352.7145265157916
  0
ARC
  5
2BF
330
6E
100
AcDbEntity
  8
1
  6
Continuous
 62
     7
100
AcDbCircle
 10
345.8639504761226
 20
1119.460654012073
 30
0.0
 40
12.50000000000004
100
AcDbArc
 50
206.2782275840443
 51
333.7217724159545
  0
ARC
  5
2C0
330
6E
100
AcDbEntity
  8
1
  6
Continuous
 62
     7
100
AcDbCircle
 10
1319.935897309148
 20
1237.491141816954
 30
0.0
 40
1000.000000000002
100
AcDbArc
 50
182.5000932383834
 51
187.2854734842086
  0
ARC
  5
2C1
330
6E
100
AcDbEntity
  8
1
  6
Continuous
 62
     7
100
AcDbCircle
 10
-628.2079963568975
 20
1237.491141816954
 30
0.0
 40
999.9999999999958
100
AcDbArc
 50
352.7145265157912
 51
357.4999067616166
  0
ARC
  5
2C2
330
6E
100
AcDbEntity
  8
1
  6
Continuous
 62
     7
100
AcDbCircle
 10
921.3453881944846
 20
1186.533231884502
 30
0.0
 40
591.1653293443073
100
AcDbArc
 50
177.2437495849904
 51
179.5708899678172
  0
ARC
  5
2C3
330
6E
100
AcDbEntity
  8
1
  6
Continuous
 62
     7
100
AcDbCircle
 10
345.8639504761226
 20
1194.960654012071
 30
0.0
 40
25.00000000000042
100
AcDbArc
 50
357.4999067616176
 51
53.13010235415796
  0
ARC
  5
2C4
330
6E
100
AcDbEntity
  8
1
  6
Continuous
 62
     7
100
AcDbCircle
 10
345.8639504761226
 20
1194.960654012071
 30
0.0
 40
25.00000000000046
100
AcDbArc
 50
126.1298431365657
 51
126.8698976458435
  0
ARC
  5
2C5
330
6E
100
AcDbEntity
  8
1
  6
Continuous
 62
     7
100
AcDbCircle
 10
921.3453881944846
 20
1186.533231884502
 30
0.0
 40
591.165329344307
100
AcDbArc
 50
182.5277757561426
 51
183.8032659793443
  0
ARC
  5
2C6
330
6E
100
AcDbEntity
  8
1
  6
Continuous
 62
     7
100
AcDbCircle
 10
921.3453881944846
 20
1186.533231884502
 30
0.0
 40
591.1653293443071
100
AcDbArc
 50
183.8032659793443
 51
187.0548597326219
  0
ARC
  5
2C7
330
6E
100
AcDbEntity
  8
1
  6
Continuous
 62
     7
100
AcDbCircle
 10
-229.6174872422401
 20
1186.533231884502
 30
0.0
 40
591.1653293443073
100
AcDbArc
 50
356.1967340206557
 51
357.4722242438573
  0
ARC
  5
2C8
330
6E
100
AcDbEntity
  8
1
  6
Continuous
 62
     7
100
AcDbCircle
 10
-229.6174872422401
 20
1186.533231884502
 30
0.0
 40
591.1653293443076
100
AcDbArc
 50
352.9451402673781
 51
356.1967340206557
  0
ARC
  5
2C9
330
6E
100
AcDbEntity
  8
1
  6
Continuous
 62
     7
100
AcDbCircle
 10
-229.6174872422401
 20
1186.533231884502
 30
0.0
 40
591.1653293443076
100
AcDbArc
 50
352.7145265157914
 51
352.9451402673781
  0
ARC
  5
2CA
330
6E
100
AcDbEntity
  8
1
  6
Continuous
 62
     7
100
AcDbCircle
 10
-229.6174872422401
 20
1186.533231884502
 30
0.0
 40
593.6653293443075
100
AcDbArc
 50
357.6277756885002
 51
0.23427581784084
  0
ARC
  5
2CB
330
6E
100
AcDbEntity
  8
1
  6
Continuous
 62
     7
100
AcDbCircle
 10
410.8639504761222
 20
677.7783321950301
 30
0.0
 40
89.99999999999949
100
AcDbArc
 50
160.1874855212811
 51
180.0
  0
ARC
  5
2CC
330
6E
100
AcDbEntity
  8
1
  6
Continuous
 62
     7
100
AcDbCircle
 10
345.8639504761222
 20
645.7783321950301
 30
0.0
 40
69.99999999999987
100
AcDbArc
 50
80.14963277389212
 51
99.85036722610766
  0
ARC
  5
2CD
330
6E
100
AcDbEntity
  8
1
  6
Continuous
 62
     7
100
AcDbCircle
 10
280.8639504761222
 20
677.7783321950301
 30
0.0
 40
90.0
100
AcDbArc
 50
0.0
 51
19.81251447871873
  0
ARC
  5
2CE
330
6E
100
AcDbEntity
  8
1
  6
PHANTOM
 62
     5
100
AcDbCircle
 10
287.8811944188254
 20
1136.977897954774
 30
0.0
 40
17.99999999999996
100
AcDbArc
 50
142.285473484208
 51
180.0
  0
ARC
  5
2CF
330
6E
100
AcDbEntity
  8
1
  6
PHANTOM
 62
     5
100
AcDbCircle
 10
403.8467065334193
 20
1136.977897954774
 30
0.0
 40
17.99999999999988
100
AcDbArc
 50
232.2854734842081
 51
0.0
  0
ARC
  5
2D0
330
6E
100
AcDbEntity
  8
1
  6
PHANTOM
 62
     5
100
AcDbCircle
 10
809.3752172423731
 20
649.3686047596871
 30
0.0
 40
0.5000000000000006
100
AcDbArc
 50
255.0000000000056
 51
334.9999999999656
  0
ARC
  5
2D1
330
6E
100
AcDbEntity
  8
1
  6
PHANTOM
 62
     5
100
AcDbCircle
 10
719.0759308618399
 20
745.5808541357355
 30
0.0
 40
1.999999999999931
100
AcDbArc
 50
155.0000000000066
 51
240.6883809864366
  0
ARC
  5
2D2
330
6E
100
AcDbEntity
  8
1
  6
Continuous
 62
     7
100
AcDbCircle
 10
685.1863479900653
 20
709.6418398995843
 30
0.0
 40
2.0
100
AcDbArc
 50
180.0
 51
265.688380986446
  0
ARC
  5
2D3
330
6E
100
AcDbEntity
  8
1
  6
Continuous
 62
     7
100
AcDbCircle
 10
780.5616880842877
 20
685.7783321950301
 30
0.0
 40
30.0
100
AcDbArc
 50
270.0
 51
280.0
  0
ARC
  5
2D4
330
6E
100
AcDbEntity
  8
1
  6
Continuous
 62
     7
100
AcDbCircle
 10
807.6863479900653
 20
660.6060565283306
 30
0.0
 40
0.5000000000000624
100
AcDbArc
 50
280.0000000000039
 51
0.0
  0
ARC
  5
2D5
330
6E
100
AcDbEntity
  8
1
  6
Continuous
 62
     7
100
AcDbCircle
 10
758.6863479900653
 20
656.2783321950301
 30
0.0
 40
0.5
100
AcDbArc
 50
180.0
 51
270.0
  0
ARC
  5
2D6
330
6E
100
AcDbEntity
  8
1
  6
Continuous
 62
     7
100
AcDbCircle
 10
321.3639504761222
 20
656.2783321950301
 30
0.0
 40
0.5
100
AcDbArc
 50
180.0
 51
270.0
  0
ARC
  5
2D7
330
6E
100
AcDbEntity
  8
1
  6
Continuous
 62
     7
100
AcDbCircle
 10
370.3639504761222
 20
656.2783321950301
 30
0.0
 40
0.5
100
AcDbArc
 50
270.0
 51
0.0
  0
ARC
  5
2D8
330
6E
100
AcDbEntity
  8
1
  6
Continuous
 62
     7
100
AcDbCircle
 10
335.5994096951649
 20
704.8938056563502
 30
0.0
 40
10.00000000000002
100
AcDbArc
 50
99.85036722610904
 51
160.1874855212816
  0
ARC
  5
2D9
330
6E
100
AcDbEntity
  8
1
  6
Continuous
 62
     7
100
AcDbCircle
 10
356.1284912570799
 20
704.8938056563502
 30
0.0
 40
10.00000000000018
100
AcDbArc
 50
19.81251447871777
 51
80.14963277389128
  0
ENDBLK
  5
71
330
6E
100
AcDbEntity
  8
0
100
AcDbBlockEnd
  0
BLOCK
  5
73
330
72
100
AcDbEntity
  8
0
100
AcDbBlockBegin
  2
30-252A-C2__2
 70
     0
 10
135.3639504761223
 20
603.8164009729128
 30
0.0
  3
30-252A-C2__2
  1

  0
LINE
  5
2DA
330
72
100
AcDbEntity
  8
1
  6
Continuous
 62
     7
100
AcDbLine
 10
305.2139504761224
 20
440.2783321950304
 30
0.0
 11
305.2139504761224
 21
448.2783321950302
 31
0.0
  0
LINE
  5
2DB
330
72
100
AcDbEntity
  8
1
  6
Continuous
 62
     2
100
AcDbLine
 10
285.6759504761224
 20
440.2783321950304
 30
0.0
 11
285.6759504761224
 21
448.2783321950302
 31
0.0
  0
LINE
  5
2DC
330
72
100
AcDbEntity
  8
1
  6
Continuous
 62
     7
100
AcDbLine
 10
281.971645630709
 20
487.7783321950292
 30
0.0
 11
281.8639504761223
 21
487.7783321950292
 31
0.0
  0
LINE
  5
2DD
330
72
100
AcDbEntity
  8
1
  6
Continuous
 62
     7
100
AcDbLine
 10
282.3639504761234
 20
488.2783321950302
 30
0.0
 11
281.8639504761223
 21
487.7783321950292
 31
0.0
  0
LINE
  5
2DE
330
72
100
AcDbEntity
  8
1
  6
Continuous
 62
     7
100
AcDbLine
 10
281.8639504761223
 20
459.868266835088
 30
0.0
 11
281.8639504761223
 21
487.7783321950292
 31
0.0
  0
LINE
  5
2DF
330
72
100
AcDbEntity
  8
0
  6
Continuous
 62
     7
100
AcDbLine
 10
305.2139504761224
 20
455.2783321950302
 30
0.0
 11
284.5139504761224
 21
455.2783321950302
 31
0.0
  0
LINE
  5
2E0
330
72
100
AcDbEntity
  8
1
  6
Continuous
 62
     7
100
AcDbLine
 10
289.8639504761223
 20
473.0783321950304
 30
0.0
 11
286.971645630709
 21
473.0783321950304
 31
0.0
  0
LINE
  5
2E1
330
72
100
AcDbEntity
  8
1
  6
Continuous
 62
     7
100
AcDbLine
 10
289.8639504761223
 20
473.2783321950302
 30
0.0
 11
286.971645630709
 21
473.2783321950302
 31
0.0
  0
LINE
  5
2E2
330
72
100
AcDbEntity
  8
1
  6
Continuous
 62
     7
100
AcDbLine
 10
289.8639504761223
 20
473.4783321950304
 30
0.0
 11
286.971645630709
 21
473.4783321950304
 31
0.0
  0
LINE
  5
2E3
330
72
100
AcDbEntity
  8
1
  6
Continuous
 62
     7
100
AcDbLine
 10
286.971645630709
 20
487.7783321950292
 30
0.0
 11
286.971645630709
 21
459.868266835088
 31
0.0
  0
LINE
  5
2E4
330
72
100
AcDbEntity
  8
1
  6
Continuous
 62
     7
100
AcDbLine
 10
289.8639504761223
 20
459.868266835088
 30
0.0
 11
289.8639504761223
 21
487.7783321950292
 31
0.0
  0
LINE
  5
2E5
330
72
100
AcDbEntity
  8
1
  6
Continuous
 62
     7
100
AcDbLine
 10
302.7562553215358
 20
473.0783321950304
 30
0.0
 11
299.8639504761223
 21
473.0783321950304
 31
0.0
  0
LINE
  5
2E6
330
72
100
AcDbEntity
  8
1
  6
Continuous
 62
     7
100
AcDbLine
 10
302.7562553215358
 20
473.2783321950302
 30
0.0
 11
299.8639504761223
 21
473.2783321950302
 31
0.0
  0
LINE
  5
2E7
330
72
100
AcDbEntity
  8
1
  6
Continuous
 62
     7
100
AcDbLine
 10
302.7562553215358
 20
473.4783321950304
 30
0.0
 11
299.8639504761223
 21
473.4783321950304
 31
0.0
  0
LINE
  5
2E8
330
72
100
AcDbEntity
  8
1
  6
Continuous
 62
     7
100
AcDbLine
 10
299.8639504761223
 20
487.7783321950292
 30
0.0
 11
299.8639504761223
 21
459.868266835088
 31
0.0
  0
LINE
  5
2E9
330
72
100
AcDbEntity
  8
1
  6
Continuous
 62
     7
100
AcDbLine
 10
302.7562553215358
 20
459.868266835088
 30
0.0
 11
302.7562553215358
 21
487.7783321950292
 31
0.0
  0
LINE
  5
2EA
330
72
100
AcDbEntity
  8
1
  6
Continuous
 62
     7
100
AcDbLine
 10
307.7562553215358
 20
487.7783321950292
 30
0.0
 11
307.7562553215358
 21
459.868266835088
 31
0.0
  0
LINE
  5
2EB
330
72
100
AcDbEntity
  8
1
  6
Continuous
 62
     7
100
AcDbLine
 10
307.7562553215358
 20
459.868266835088
 30
0.0
 11
307.8639504761223
 21
459.868266835088
 31
0.0
  0
LINE
  5
2EC
330
72
100
AcDbEntity
  8
1
  6
Continuous
 62
     7
100
AcDbLine
 10
299.8639504761223
 20
459.868266835088
 30
0.0
 11
302.7562553215358
 21
459.868266835088
 31
0.0
  0
LINE
  5
2ED
330
72
100
AcDbEntity
  8
1
  6
Continuous
 62
     7
100
AcDbLine
 10
286.971645630709
 20
459.868266835088
 30
0.0
 11
289.8639504761223
 21
459.868266835088
 31
0.0
  0
LINE
  5
2EE
330
72
100
AcDbEntity
  8
1
  6
Continuous
 62
     7
100
AcDbLine
 10
281.8639504761223
 20
459.868266835088
 30
0.0
 11
281.971645630709
 21
459.868266835088
 31
0.0
  0
LINE
  5
2EF
330
72
100
AcDbEntity
  8
1
  6
Continuous
 62
     7
100
AcDbLine
 10
281.971645630709
 20
487.7783321950292
 30
0.0
 11
281.971645630709
 21
459.868266835088
 31
0.0
  0
LINE
  5
2F0
330
72
100
AcDbEntity
  8
1
  6
Continuous
 62
     7
100
AcDbLine
 10
307.8639504761223
 20
487.7783321950292
 30
0.0
 11
307.7562553215358
 21
487.7783321950292
 31
0.0
  0
LINE
  5
2F1
330
72
100
AcDbEntity
  8
1
  6
Continuous
 62
     7
100
AcDbLine
 10
289.8639504761223
 20
487.7783321950292
 30
0.0
 11
286.971645630709
 21
487.7783321950292
 31
0.0
  0
LINE
  5
2F2
330
72
100
AcDbEntity
  8
1
  6
Continuous
 62
     7
100
AcDbLine
 10
302.7562553215358
 20
487.7783321950292
 30
0.0
 11
299.8639504761223
 21
487.7783321950292
 31
0.0
  0
LINE
  5
2F3
330
72
100
AcDbEntity
  8
0
  6
PHANTOM
 62
     4
100
AcDbLine
 10
294.8639504761223
 20
491.2783321950302
 30
0.0
 11
294.8639504761223
 21
429.8606703245265
 31
0.0
  0
LINE
  5
2F4
330
72
100
AcDbEntity
  8
1
  6
Continuous
 62
     7
100
AcDbLine
 10
305.2139504761224
 20
448.2783321950302
 30
0.0
 11
305.2139504761224
 21
450.290975233425
 31
0.0
  0
LINE
  5
2F5
330
72
100
AcDbEntity
  8
1
  6
Continuous
 62
     7
100
AcDbLine
 10
305.2139504761224
 20
448.2783321950302
 30
0.0
 11
284.5139504761224
 21
448.2783321950302
 31
0.0
  0
LINE
  5
2F6
330
72
100
AcDbEntity
  8
1
  6
Continuous
 62
     2
100
AcDbLine
 10
304.0519504761224
 20
448.2783321950302
 30
0.0
 11
304.0519504761224
 21
440.2783321950304
 31
0.0
  0
LINE
  5
2F7
330
72
100
AcDbEntity
  8
1
  6
Continuous
 62
     7
100
AcDbLine
 10
305.2139504761224
 20
450.290975233425
 30
0.0
 11
305.2139504761224
 21
455.2783321950302
 31
0.0
  0
LINE
  5
2F8
330
72
100
AcDbEntity
  8
1
  6
Continuous
 62
     2
100
AcDbLine
 10
305.2139504761224
 20
450.290975233425
 30
0.0
 11
304.0519504761224
 21
448.2783321950302
 31
0.0
  0
LINE
  5
2F9
330
72
100
AcDbEntity
  8
1
  6
Continuous
 62
     7
100
AcDbLine
 10
305.2139504761224
 20
455.2783321950302
 30
0.0
 11
307.8639504761223
 21
459.868266835088
 31
0.0
  0
LINE
  5
2FA
330
72
100
AcDbEntity
  8
1
  6
Continuous
 62
     7
100
AcDbLine
 10
284.5139504761224
 20
450.290975233425
 30
0.0
 11
284.5139504761224
 21
448.2783321950302
 31
0.0
  0
LINE
  5
2FB
330
72
100
AcDbEntity
  8
1
  6
Continuous
 62
     7
100
AcDbLine
 10
284.5139504761224
 20
455.2783321950302
 30
0.0
 11
284.5139504761224
 21
450.290975233425
 31
0.0
  0
LINE
  5
2FC
330
72
100
AcDbEntity
  8
1
  6
Continuous
 62
     2
100
AcDbLine
 10
285.6759504761224
 20
448.2783321950302
 30
0.0
 11
284.5139504761224
 21
450.290975233425
 31
0.0
  0
LINE
  5
2FD
330
72
100
AcDbEntity
  8
1
  6
Continuous
 62
     7
100
AcDbLine
 10
284.5139504761224
 20
455.2783321950302
 30
0.0
 11
281.8639504761223
 21
459.868266835088
 31
0.0
  0
LINE
  5
2FE
330
72
100
AcDbEntity
  8
1
  6
Continuous
 62
     7
100
AcDbLine
 10
307.8639504761223
 20
487.7783321950292
 30
0.0
 11
307.3639504761214
 21
488.2783321950302
 31
0.0
  0
LINE
  5
2FF
330
72
100
AcDbEntity
  8
0
  6
Continuous
 62
     7
100
AcDbLine
 10
307.8639504761214
 20
487.7783321950311
 30
0.0
 11
307.8639504761214
 21
487.7783321950311
 31
0.0
  0
LINE
  5
300
330
72
100
AcDbEntity
  8
1
  6
Continuous
 62
     7
100
AcDbLine
 10
307.3639504761214
 20
488.2783321950302
 30
0.0
 11
282.3639504761234
 21
488.2783321950302
 31
0.0
  0
LINE
  5
301
330
72
100
AcDbEntity
  8
1
  6
Continuous
 62
     7
100
AcDbLine
 10
307.8639504761223
 20
487.7783321950292
 30
0.0
 11
307.8639504761223
 21
459.868266835088
 31
0.0
  0
LINE
  5
302
330
72
100
AcDbEntity
  8
1
  6
Continuous
 62
     7
100
AcDbLine
 10
284.5139504761224
 20
448.2783321950302
 30
0.0
 11
284.5139504761224
 21
440.2783321950304
 31
0.0
  0
ARC
  5
303
330
72
100
AcDbEntity
  8
1
  6
Continuous
 62
     7
100
AcDbCircle
 10
284.471645630709
 20
460.8064610225209
 30
0.0
 40
2.670244995001949
100
AcDbArc
 50
200.5699920920995
 51
339.4300079079004
  0
ARC
  5
304
330
72
100
AcDbEntity
  8
1
  6
Continuous
 62
     7
100
AcDbCircle
 10
294.8639504761223
 20
466.2191197961737
 30
0.0
 40
8.082903768654623
100
AcDbArc
 50
231.786789298261
 51
308.2132107017389
  0
ARC
  5
305
330
72
100
AcDbEntity
  8
1
  6
Continuous
 62
     7
100
AcDbCircle
 10
305.2562553215358
 20
460.8064610225209
 30
0.0
 40
2.670244995001949
100
AcDbArc
 50
200.5699920920995
 51
339.4300079079004
  0
ARC
  5
306
330
72
100
AcDbEntity
  8
1
  6
Continuous
 62
     7
100
AcDbCircle
 10
305.2562553215358
 20
481.7783321950433
 30
0.0
 40
6.499999999986987
100
AcDbArc
 50
67.3801350519118
 51
112.6198649480882
  0
ARC
  5
307
330
72
100
AcDbEntity
  8
1
  6
Continuous
 62
     7
100
AcDbCircle
 10
284.471645630709
 20
481.7783321950433
 30
0.0
 40
6.499999999986987
100
AcDbArc
 50
67.3801350519118
 51
112.6198649480882
  0
ARC
  5
308
330
72
100
AcDbEntity
  8
1
  6
Continuous
 62
     7
100
AcDbCircle
 10
294.8639504761225
 20
463.0283321950847
 30
0.0
 40
25.24999999994552
100
AcDbArc
 50
78.57881372497627
 51
101.4211862750248
  0
ENDBLK
  5
74
330
72
100
AcDbEntity
  8
0
100
AcDbBlockEnd
  0
BLOCK
  5
77
330
75
100
AcDbEntity
  8
0
100
AcDbBlockBegin
  2
V872FE__3
 70
     0
 10
204.2873649720033
 20
3322.218627885286
 30
0.0
  3
V872FE__3
  1

  0
INSERT
  5
76
330
75
100
AcDbEntity
  8
1
100
AcDbBlockReference
  2
30-252A-C2__2
 10
135.3639504761223
 20
603.8164009729127
 30
0.0
 41
1.0
 42
1.0
 43
1.0
  0
LINE
  5
309
330
75
100
AcDbEntity
  8
1
  6
PHANTOM
 62
     4
100
AcDbLine
 10
294.8639504761223
 20
425.7783321950296
 30
0.0
 11
294.8639504761223
 21
486.7783321950296
 31
0.0
  0
ENDBLK
  5
78
330
75
100
AcDbEntity
  8
0
100
AcDbBlockEnd
  0
BLOCK
  5
7A
330
79
100
AcDbEntity
  8
0
100
AcDbBlockBegin
  2
30-252A-C2__4
 70
     0
 10
819.333111091098
 20
2925.207512818157
 30
0.0
  3
30-252A-C2__4
  1

  0
LINE
  5
30A
330
79
100
AcDbEntity
  8
1
  6
Continuous
 62
     7
100
AcDbLine
 10
793.5363479900653
 20
440.2783321950308
 30
0.0
 11
793.5363479900656
 21
448.2783321950308
 31
0.0
  0
LINE
  5
30B
330
79
100
AcDbEntity
  8
1
  6
Continuous
 62
     2
100
AcDbLine
 10
773.9983479900653
 20
440.2783321950304
 30
0.0
 11
773.9983479900653
 21
448.2783321950308
 31
0.0
  0
LINE
  5
30C
330
79
100
AcDbEntity
  8
1
  6
Continuous
 62
     7
100
AcDbLine
 10
771.1863479900657
 20
473.0783321950308
 30
0.0
 11
771.1863479900657
 21
458.136216027519
 31
0.0
  0
LINE
  5
30D
330
79
100
AcDbEntity
  8
1
  6
Continuous
 62
     7
100
AcDbLine
 10
771.3863479900655
 20
473.2783321950304
 30
0.0
 11
772.8562209711432
 21
473.2783321950304
 31
0.0
  0
LINE
  5
30E
330
79
100
AcDbEntity
  8
1
  6
Continuous
 62
     7
100
AcDbLine
 10
794.9863479900654
 20
473.2783321950304
 30
0.0
 11
795.1863479900657
 21
473.0783321950308
 31
0.0
  0
LINE
  5
30F
330
79
100
AcDbEntity
  8
1
  6
Continuous
 62
     7
100
AcDbLine
 10
795.1863479900657
 20
473.4783321950307
 30
0.0
 11
794.9863479900654
 21
473.2783321950304
 31
0.0
  0
LINE
  5
310
330
79
100
AcDbEntity
  8
1
  6
Continuous
 62
     7
100
AcDbLine
 10
771.3863479900655
 20
473.2783321950304
 30
0.0
 11
771.1863479900657
 21
473.0783321950308
 31
0.0
  0
LINE
  5
311
330
79
100
AcDbEntity
  8
1
  6
Continuous
 62
     7
100
AcDbLine
 10
771.1863479900657
 20
473.4783321950307
 30
0.0
 11
771.3863479900655
 21
473.2783321950304
 31
0.0
  0
LINE
  5
312
330
79
100
AcDbEntity
  8
1
  6
Continuous
 62
     7
100
AcDbLine
 10
771.1863479900657
 20
473.0783321950308
 30
0.0
 11
772.8562209711432
 21
473.0783321950308
 31
0.0
  0
LINE
  5
313
330
79
100
AcDbEntity
  8
1
  6
Continuous
 62
     7
100
AcDbLine
 10
795.1863479900657
 20
473.4783321950307
 30
0.0
 11
795.1863479900657
 21
487.7783321950296
 31
0.0
  0
LINE
  5
314
330
79
100
AcDbEntity
  8
1
  6
Continuous
 62
     7
100
AcDbLine
 10
771.1863479900657
 20
473.4783321950307
 30
0.0
 11
772.8562209711432
 21
473.4783321950307
 31
0.0
  0
LINE
  5
315
330
79
100
AcDbEntity
  8
1
  6
Continuous
 62
     7
100
AcDbLine
 10
771.1863479900657
 20
488.2783321950304
 30
0.0
 11
795.1863479900657
 21
488.2783321950304
 31
0.0
  0
LINE
  5
316
330
79
100
AcDbEntity
  8
1
  6
Continuous
 62
     7
100
AcDbLine
 10
795.1863479900657
 20
488.2783321950304
 30
0.0
 11
795.1863479900657
 21
487.7783321950296
 31
0.0
  0
LINE
  5
317
330
79
100
AcDbEntity
  8
1
  6
Continuous
 62
     7
100
AcDbLine
 10
793.5164750089876
 20
487.7783321950295
 30
0.0
 11
793.5164750089876
 21
459.8682668350881
 31
0.0
  0
LINE
  5
318
330
79
100
AcDbEntity
  8
1
  6
Continuous
 62
     7
100
AcDbLine
 10
784.8562209711429
 20
459.8682668350881
 30
0.0
 11
784.8562209711429
 21
487.7783321950295
 31
0.0
  0
LINE
  5
319
330
79
100
AcDbEntity
  8
1
  6
Continuous
 62
     7
100
AcDbLine
 10
781.5164750089876
 20
487.7783321950295
 30
0.0
 11
781.5164750089876
 21
459.8682668350881
 31
0.0
  0
LINE
  5
31A
330
79
100
AcDbEntity
  8
1
  6
Continuous
 62
     7
100
AcDbLine
 10
772.8562209711432
 20
487.7783321950295
 30
0.0
 11
772.8562209711432
 21
459.8682668350881
 31
0.0
  0
LINE
  5
31B
330
79
100
AcDbEntity
  8
1
  6
Continuous
 62
     7
100
AcDbLine
 10
771.1863479900657
 20
487.7783321950296
 30
0.0
 11
771.1863479900657
 21
473.4783321950307
 31
0.0
  0
LINE
  5
31C
330
79
100
AcDbEntity
  8
1
  6
Continuous
 62
     7
100
AcDbLine
 10
781.5164750089876
 20
487.7783321950295
 30
0.0
 11
784.8562209711429
 21
487.7783321950295
 31
0.0
  0
LINE
  5
31D
330
79
100
AcDbEntity
  8
1
  6
Continuous
 62
     7
100
AcDbLine
 10
793.5164750089876
 20
487.7783321950295
 30
0.0
 11
795.1863479900657
 21
487.7783321950296
 31
0.0
  0
LINE
  5
31E
330
79
100
AcDbEntity
  8
1
  6
Continuous
 62
     7
100
AcDbLine
 10
793.5164750089876
 20
459.8682668350881
 30
0.0
 11
795.1863479900657
 21
459.8682668350881
 31
0.0
  0
LINE
  5
31F
330
79
100
AcDbEntity
  8
1
  6
Continuous
 62
     7
100
AcDbLine
 10
772.8562209711432
 20
459.8682668350881
 30
0.0
 11
771.1863479900657
 21
459.8682668350881
 31
0.0
  0
LINE
  5
320
330
79
100
AcDbEntity
  8
1
  6
Continuous
 62
     7
100
AcDbLine
 10
781.5164750089876
 20
459.8682668350881
 30
0.0
 11
784.8562209711429
 21
459.8682668350881
 31
0.0
  0
LINE
  5
321
330
79
100
AcDbEntity
  8
1
  6
Continuous
 62
     7
100
AcDbLine
 10
772.8562209711432
 20
487.7783321950295
 30
0.0
 11
771.1863479900657
 21
487.7783321950296
 31
0.0
  0
LINE
  5
322
330
79
100
AcDbEntity
  8
1
  6
Continuous
 62
     7
100
AcDbLine
 10
771.1863479900657
 20
488.2783321950304
 30
0.0
 11
771.1863479900657
 21
487.7783321950296
 31
0.0
  0
LINE
  5
323
330
79
100
AcDbEntity
  8
0
  6
Continuous
 62
     7
100
AcDbLine
 10
793.5363479900656
 20
455.2783321950308
 30
0.0
 11
772.8363479900653
 21
455.2783321950308
 31
0.0
  0
LINE
  5
324
330
79
100
AcDbEntity
  8
1
  6
Continuous
 62
     7
100
AcDbLine
 10
793.5363479900656
 20
455.2783321950308
 30
0.0
 11
795.1863479900653
 21
458.136216027519
 31
0.0
  0
LINE
  5
325
330
79
100
AcDbEntity
  8
1
  6
Continuous
 62
     7
100
AcDbLine
 10
772.8363479900653
 20
455.2783321950308
 30
0.0
 11
771.1863479900657
 21
458.136216027519
 31
0.0
  0
LINE
  5
326
330
79
100
AcDbEntity
  8
1
  6
Continuous
 62
     7
100
AcDbLine
 10
793.5363479900656
 20
448.2783321950308
 30
0.0
 11
793.5363479900656
 21
450.2909752334257
 31
0.0
  0
LINE
  5
327
330
79
100
AcDbEntity
  8
1
  6
Continuous
 62
     7
100
AcDbLine
 10
793.5363479900656
 20
448.2783321950308
 30
0.0
 11
792.3743479900654
 21
448.2783321950308
 31
0.0
  0
LINE
  5
328
330
79
100
AcDbEntity
  8
1
  6
Continuous
 62
     2
100
AcDbLine
 10
793.5363479900656
 20
450.2909752334257
 30
0.0
 11
792.3743479900654
 21
448.2783321950308
 31
0.0
  0
LINE
  5
329
330
79
100
AcDbEntity
  8
1
  6
Continuous
 62
     7
100
AcDbLine
 10
772.8363479900653
 20
448.2783321950308
 30
0.0
 11
772.8363479900653
 21
440.2783321950304
 31
0.0
  0
LINE
  5
32A
330
79
100
AcDbEntity
  8
1
  6
Continuous
 62
     2
100
AcDbLine
 10
773.9983479900653
 20
448.2783321950308
 30
0.0
 11
772.8363479900653
 21
450.2909752334257
 31
0.0
  0
LINE
  5
32B
330
79
100
AcDbEntity
  8
1
  6
Continuous
 62
     7
100
AcDbLine
 10
772.8363479900653
 20
450.2909752334257
 30
0.0
 11
772.8363479900653
 21
448.2783321950308
 31
0.0
  0
LINE
  5
32C
330
79
100
AcDbEntity
  8
1
  6
Continuous
 62
     7
100
AcDbLine
 10
792.3743479900654
 20
448.2783321950308
 30
0.0
 11
772.8363479900653
 21
448.2783321950308
 31
0.0
  0
LINE
  5
32D
330
79
100
AcDbEntity
  8
1
  6
Continuous
 62
     7
100
AcDbLine
 10
772.8363479900653
 20
455.2783321950308
 30
0.0
 11
772.8363479900653
 21
450.2909752334257
 31
0.0
  0
LINE
  5
32E
330
79
100
AcDbEntity
  8
1
  6
Continuous
 62
     7
100
AcDbLine
 10
793.5363479900656
 20
450.2909752334257
 30
0.0
 11
793.5363479900656
 21
455.2783321950308
 31
0.0
  0
LINE
  5
32F
330
79
100
AcDbEntity
  8
1
  6
Continuous
 62
     7
100
AcDbLine
 10
795.1863479900653
 20
458.136216027519
 30
0.0
 11
795.1863479900657
 21
473.0783321950308
 31
0.0
  0
LINE
  5
330
330
79
100
AcDbEntity
  8
1
  6
Continuous
 62
     7
100
AcDbLine
 10
781.5164750089876
 20
473.4783321950307
 30
0.0
 11
784.8562209711429
 21
473.4783321950307
 31
0.0
  0
LINE
  5
331
330
79
100
AcDbEntity
  8
1
  6
Continuous
 62
     7
100
AcDbLine
 10
781.5164750089876
 20
473.2783321950304
 30
0.0
 11
784.8562209711429
 21
473.2783321950304
 31
0.0
  0
LINE
  5
332
330
79
100
AcDbEntity
  8
1
  6
Continuous
 62
     7
100
AcDbLine
 10
781.5164750089876
 20
473.0783321950308
 30
0.0
 11
784.8562209711429
 21
473.0783321950308
 31
0.0
  0
LINE
  5
333
330
79
100
AcDbEntity
  8
1
  6
Continuous
 62
     7
100
AcDbLine
 10
793.5164750089876
 20
473.4783321950307
 30
0.0
 11
795.1863479900657
 21
473.4783321950307
 31
0.0
  0
LINE
  5
334
330
79
100
AcDbEntity
  8
1
  6
Continuous
 62
     7
100
AcDbLine
 10
793.5164750089876
 20
473.2783321950304
 30
0.0
 11
794.9863479900654
 21
473.2783321950304
 31
0.0
  0
LINE
  5
335
330
79
100
AcDbEntity
  8
1
  6
Continuous
 62
     7
100
AcDbLine
 10
793.5164750089876
 20
473.0783321950308
 30
0.0
 11
795.1863479900657
 21
473.0783321950308
 31
0.0
  0
LINE
  5
336
330
79
100
AcDbEntity
  8
1
  6
Continuous
 62
     2
100
AcDbLine
 10
792.3743479900654
 20
448.2783321950308
 30
0.0
 11
792.3743479900654
 21
440.2783321950308
 31
0.0
  0
LINE
  5
337
330
79
100
AcDbEntity
  8
1
  6
PHANTOM
 62
     4
100
AcDbLine
 10
783.1863479900653
 20
491.2783321950304
 30
0.0
 11
783.1863479900653
 21
430.2783321950308
 31
0.0
  0
LINE
  5
338
330
79
100
AcDbEntity
  8
1
  6
Continuous
 62
     7
100
AcDbLine
 10
407.2139504761233
 20
440.2783321950304
 30
0.0
 11
407.2139504761233
 21
448.2783321950299
 31
0.0
  0
LINE
  5
339
330
79
100
AcDbEntity
  8
1
  6
Continuous
 62
     2
100
AcDbLine
 10
387.6759504761241
 20
440.2783321950304
 30
0.0
 11
387.6759504761233
 21
448.2783321950299
 31
0.0
  0
LINE
  5
33A
330
79
100
AcDbEntity
  8
1
  6
Continuous
 62
     7
100
AcDbLine
 10
386.5139504761232
 20
448.2783321950299
 30
0.0
 11
386.5139504761232
 21
440.2782077106514
 31
0.0
  0
LINE
  5
33B
330
79
100
AcDbEntity
  8
1
  6
Continuous
 62
     7
100
AcDbLine
 10
409.8639504761231
 20
487.7783321950302
 30
0.0
 11
409.8639504761239
 21
459.8682668350876
 31
0.0
  0
LINE
  5
33C
330
79
100
AcDbEntity
  8
1
  6
Continuous
 62
     7
100
AcDbLine
 10
409.3639504761222
 20
488.2783321950302
 30
0.0
 11
384.3639504761246
 21
488.2783321950302
 31
0.0
  0
LINE
  5
33D
330
79
100
AcDbEntity
  8
0
  6
Continuous
 62
     7
100
AcDbLine
 10
409.8639504761231
 20
487.7783321950302
 30
0.0
 11
409.8639504761222
 21
487.7783321950313
 31
0.0
  0
LINE
  5
33E
330
79
100
AcDbEntity
  8
1
  6
Continuous
 62
     7
100
AcDbLine
 10
409.8639504761231
 20
487.7783321950302
 30
0.0
 11
409.3639504761222
 21
488.2783321950302
 31
0.0
  0
LINE
  5
33F
330
79
100
AcDbEntity
  8
1
  6
Continuous
 62
     7
100
AcDbLine
 10
386.5139504761232
 20
455.2783321950302
 30
0.0
 11
383.8639504761231
 21
459.8682668350876
 31
0.0
  0
LINE
  5
340
330
79
100
AcDbEntity
  8
1
  6
Continuous
 62
     2
100
AcDbLine
 10
387.6759504761233
 20
448.2783321950299
 30
0.0
 11
386.5139504761232
 21
450.290975233425
 31
0.0
  0
LINE
  5
341
330
79
100
AcDbEntity
  8
1
  6
Continuous
 62
     7
100
AcDbLine
 10
386.5139504761232
 20
455.2783321950302
 30
0.0
 11
386.5139504761232
 21
450.290975233425
 31
0.0
  0
LINE
  5
342
330
79
100
AcDbEntity
  8
1
  6
Continuous
 62
     7
100
AcDbLine
 10
386.5139504761232
 20
450.290975233425
 30
0.0
 11
386.5139504761232
 21
448.2783321950299
 31
0.0
  0
LINE
  5
343
330
79
100
AcDbEntity
  8
1
  6
Continuous
 62
     7
100
AcDbLine
 10
407.2139504761233
 20
455.2783321950302
 30
0.0
 11
409.8639504761239
 21
459.8682668350876
 31
0.0
  0
LINE
  5
344
330
79
100
AcDbEntity
  8
1
  6
Continuous
 62
     2
100
AcDbLine
 10
407.2139504761233
 20
450.290975233425
 30
0.0
 11
406.051950476124
 21
448.2783321950299
 31
0.0
  0
LINE
  5
345
330
79
100
AcDbEntity
  8
1
  6
Continuous
 62
     7
100
AcDbLine
 10
407.2139504761233
 20
450.290975233425
 30
0.0
 11
407.2139504761233
 21
455.2783321950302
 31
0.0
  0
LINE
  5
346
330
79
100
AcDbEntity
  8
1
  6
Continuous
 62
     2
100
AcDbLine
 10
406.051950476124
 20
448.2783321950299
 30
0.0
 11
406.0519504761232
 21
440.2783321950304
 31
0.0
  0
LINE
  5
347
330
79
100
AcDbEntity
  8
1
  6
Continuous
 62
     7
100
AcDbLine
 10
407.2139504761233
 20
448.2783321950299
 30
0.0
 11
386.5139504761232
 21
448.2783321950299
 31
0.0
  0
LINE
  5
348
330
79
100
AcDbEntity
  8
1
  6
Continuous
 62
     7
100
AcDbLine
 10
407.2139504761233
 20
448.2783321950299
 30
0.0
 11
407.2139504761233
 21
450.290975233425
 31
0.0
  0
LINE
  5
349
330
79
100
AcDbEntity
  8
0
  6
PHANTOM
 62
     4
100
AcDbLine
 10
396.8639504761239
 20
491.2783321950302
 30
0.0
 11
396.8639504761231
 21
429.8606703245265
 31
0.0
  0
LINE
  5
34A
330
79
100
AcDbEntity
  8
1
  6
Continuous
 62
     7
100
AcDbLine
 10
404.7562553215374
 20
487.7783321950293
 30
0.0
 11
401.8639504761239
 21
487.7783321950293
 31
0.0
  0
LINE
  5
34B
330
79
100
AcDbEntity
  8
1
  6
Continuous
 62
     7
100
AcDbLine
 10
391.8639504761239
 20
487.7783321950293
 30
0.0
 11
388.9716456307099
 21
487.7783321950293
 31
0.0
  0
LINE
  5
34C
330
79
100
AcDbEntity
  8
1
  6
Continuous
 62
     7
100
AcDbLine
 10
409.8639504761231
 20
487.7783321950302
 30
0.0
 11
409.7562553215366
 21
487.7783321950293
 31
0.0
  0
LINE
  5
34D
330
79
100
AcDbEntity
  8
1
  6
Continuous
 62
     7
100
AcDbLine
 10
383.9716456307099
 20
487.7783321950293
 30
0.0
 11
383.9716456307099
 21
459.8682668350876
 31
0.0
  0
LINE
  5
34E
330
79
100
AcDbEntity
  8
1
  6
Continuous
 62
     7
100
AcDbLine
 10
383.8639504761231
 20
459.8682668350876
 30
0.0
 11
383.9716456307099
 21
459.8682668350876
 31
0.0
  0
LINE
  5
34F
330
79
100
AcDbEntity
  8
1
  6
Continuous
 62
     7
100
AcDbLine
 10
388.9716456307099
 20
459.8682668350876
 30
0.0
 11
391.8639504761239
 21
459.8682668350876
 31
0.0
  0
LINE
  5
350
330
79
100
AcDbEntity
  8
1
  6
Continuous
 62
     7
100
AcDbLine
 10
401.8639504761239
 20
459.8682668350876
 30
0.0
 11
404.7562553215366
 21
459.8682668350876
 31
0.0
  0
LINE
  5
351
330
79
100
AcDbEntity
  8
1
  6
Continuous
 62
     7
100
AcDbLine
 10
409.7562553215366
 20
459.8682668350876
 30
0.0
 11
409.8639504761239
 21
459.8682668350876
 31
0.0
  0
LINE
  5
352
330
79
100
AcDbEntity
  8
1
  6
Continuous
 62
     7
100
AcDbLine
 10
409.7562553215366
 20
487.7783321950293
 30
0.0
 11
409.7562553215366
 21
459.8682668350876
 31
0.0
  0
LINE
  5
353
330
79
100
AcDbEntity
  8
1
  6
Continuous
 62
     7
100
AcDbLine
 10
404.7562553215366
 20
459.8682668350876
 30
0.0
 11
404.7562553215374
 21
487.7783321950293
 31
0.0
  0
LINE
  5
354
330
79
100
AcDbEntity
  8
1
  6
Continuous
 62
     7
100
AcDbLine
 10
401.8639504761239
 20
487.7783321950293
 30
0.0
 11
401.8639504761239
 21
459.8682668350876
 31
0.0
  0
LINE
  5
355
330
79
100
AcDbEntity
  8
1
  6
Continuous
 62
     7
100
AcDbLine
 10
404.7562553215366
 20
473.4783321950305
 30
0.0
 11
401.8639504761239
 21
473.4783321950305
 31
0.0
  0
LINE
  5
356
330
79
100
AcDbEntity
  8
1
  6
Continuous
 62
     7
100
AcDbLine
 10
404.7562553215366
 20
473.2783321950302
 30
0.0
 11
401.8639504761231
 21
473.2783321950302
 31
0.0
  0
LINE
  5
357
330
79
100
AcDbEntity
  8
1
  6
Continuous
 62
     7
100
AcDbLine
 10
404.7562553215366
 20
473.0783321950304
 30
0.0
 11
401.8639504761231
 21
473.0783321950304
 31
0.0
  0
LINE
  5
358
330
79
100
AcDbEntity
  8
1
  6
Continuous
 62
     7
100
AcDbLine
 10
391.8639504761239
 20
459.8682668350876
 30
0.0
 11
391.8639504761239
 21
487.7783321950293
 31
0.0
  0
LINE
  5
359
330
79
100
AcDbEntity
  8
1
  6
Continuous
 62
     7
100
AcDbLine
 10
388.9716456307099
 20
487.7783321950293
 30
0.0
 11
388.9716456307099
 21
459.8682668350876
 31
0.0
  0
LINE
  5
35A
330
79
100
AcDbEntity
  8
1
  6
Continuous
 62
     7
100
AcDbLine
 10
391.8639504761231
 20
473.4783321950305
 30
0.0
 11
388.9716456307099
 21
473.4783321950305
 31
0.0
  0
LINE
  5
35B
330
79
100
AcDbEntity
  8
1
  6
Continuous
 62
     7
100
AcDbLine
 10
391.8639504761231
 20
473.2783321950302
 30
0.0
 11
388.9716456307099
 21
473.2783321950302
 31
0.0
  0
LINE
  5
35C
330
79
100
AcDbEntity
  8
1
  6
Continuous
 62
     7
100
AcDbLine
 10
391.8639504761231
 20
473.0783321950304
 30
0.0
 11
388.9716456307099
 21
473.0783321950304
 31
0.0
  0
LINE
  5
35D
330
79
100
AcDbEntity
  8
0
  6
Continuous
 62
     7
100
AcDbLine
 10
407.2139504761233
 20
455.2783321950302
 30
0.0
 11
386.5139504761232
 21
455.2783321950302
 31
0.0
  0
LINE
  5
35E
330
79
100
AcDbEntity
  8
1
  6
Continuous
 62
     7
100
AcDbLine
 10
383.8639504761231
 20
459.8682668350876
 30
0.0
 11
383.8639504761231
 21
487.7783321950293
 31
0.0
  0
LINE
  5
35F
330
79
100
AcDbEntity
  8
1
  6
Continuous
 62
     7
100
AcDbLine
 10
384.3639504761246
 20
488.2783321950302
 30
0.0
 11
383.8639504761231
 21
487.7783321950293
 31
0.0
  0
LINE
  5
360
330
79
100
AcDbEntity
  8
1
  6
Continuous
 62
     7
100
AcDbLine
 10
383.9716456307099
 20
487.7783321950293
 30
0.0
 11
383.8639504761231
 21
487.7783321950293
 31
0.0
  0
ARC
  5
361
330
79
100
AcDbEntity
  8
1
  6
Continuous
 62
     7
100
AcDbCircle
 10
789.1863479900651
 20
469.278332195067
 30
0.0
 40
18.99999999996361
100
AcDbArc
 50
76.82644889271428
 51
103.1735511072847
  0
ARC
  5
362
330
79
100
AcDbEntity
  8
1
  6
Continuous
 62
     7
100
AcDbCircle
 10
777.1863479900654
 20
469.278332195067
 30
0.0
 40
18.99999999996353
100
AcDbArc
 50
76.82644889271529
 51
103.1735511072847
  0
ARC
  5
363
330
79
100
AcDbEntity
  8
1
  6
Continuous
 62
     7
100
AcDbCircle
 10
789.1863479900651
 20
464.4149002049597
 30
0.0
 40
6.27868417743957
100
AcDbArc
 50
226.3971810273169
 51
313.6028189726853
  0
ARC
  5
364
330
79
100
AcDbEntity
  8
1
  6
Continuous
 62
     7
100
AcDbCircle
 10
777.1863479900654
 20
464.4149002049597
 30
0.0
 40
6.27868417743957
100
AcDbArc
 50
226.3971810273169
 51
313.6028189726831
  0
ARC
  5
365
330
79
100
AcDbEntity
  8
1
  6
Continuous
 62
     7
100
AcDbCircle
 10
396.8639504761234
 20
463.0283321950847
 30
0.0
 40
25.24999999994576
100
AcDbArc
 50
78.57881372497481
 51
101.4211862750232
  0
ARC
  5
366
330
79
100
AcDbEntity
  8
1
  6
Continuous
 62
     7
100
AcDbCircle
 10
386.4716456307099
 20
481.7783321950429
 30
0.0
 40
6.49999999998746
100
AcDbArc
 50
67.38013505191351
 51
112.6198649480865
  0
ARC
  5
367
330
79
100
AcDbEntity
  8
1
  6
Continuous
 62
     7
100
AcDbCircle
 10
407.2562553215366
 20
481.7783321950429
 30
0.0
 40
6.49999999998746
100
AcDbArc
 50
67.38013505191351
 51
112.61986494808
  0
ARC
  5
368
330
79
100
AcDbEntity
  8
1
  6
Continuous
 62
     7
100
AcDbCircle
 10
407.2562553215369
 20
460.8064610225207
 30
0.0
 40
2.670244995002275
100
AcDbArc
 50
200.5699920921008
 51
339.4300079078949
  0
ARC
  5
369
330
79
100
AcDbEntity
  8
1
  6
Continuous
 62
     7
100
AcDbCircle
 10
396.8639504761231
 20
466.2191197961736
 30
0.0
 40
8.082903768654353
100
AcDbArc
 50
231.7867892982667
 51
308.2132107017421
  0
ARC
  5
36A
330
79
100
AcDbEntity
  8
1
  6
Continuous
 62
     7
100
AcDbCircle
 10
386.4716456307099
 20
460.8064610225207
 30
0.0
 40
2.670244995002009
100
AcDbArc
 50
200.569992092103
 51
339.430007907897
  0
ENDBLK
  5
7B
330
79
100
AcDbEntity
  8
0
100
AcDbBlockEnd
  0
BLOCK
  5
7E
330
7C
100
AcDbEntity
  8
0
100
AcDbBlockBegin
  2
V872FE__5
 70
     0
 10
993.5000000000001
 20
7491.832338129498
 30
0.0
  3
V872FE__5
  1

  0
INSERT
  5
7D
330
7C
100
AcDbEntity
  8
1
100
AcDbBlockReference
  2
30-252A-C2__4
 10
819.3331110910979
 20
2925.207512818156
 30
0.0
 41
1.0
 42
1.0
 43
1.0
  0
LINE
  5
36B
330
7C
100
AcDbEntity
  8
1
  6
PHANTOM
 62
     4
100
AcDbLine
 10
783.1863479900651
 20
496.2783321950296
 30
0.0
 11
783.1863479900651
 21
423.2783321950296
 31
0.0
  0
LINE
  5
36C
330
7C
100
AcDbEntity
  8
1
  6
PHANTOM
 62
     4
100
AcDbLine
 10
396.8639504761239
 20
496.2783321950296
 30
0.0
 11
396.8639504761239
 21
423.2783321950296
 31
0.0
  0
ENDBLK
  5
7F
330
7C
100
AcDbEntity
  8
0
100
AcDbBlockEnd
  0
BLOCK
  5
81
330
80
100
AcDbEntity
  8
0
100
AcDbBlockBegin
  2
32-16__6
 70
     0
 10
160.2403665383586
 20
1883.940889385973
 30
0.0
  3
32-16__6
  1

  0
LINE
  5
36D
330
80
100
AcDbEntity
  8
1
  6
Continuous
 62
     7
100
AcDbLine
 10
281.0139504761228
 20
427.3464276231055
 30
0.0
 11
281.0139504761228
 21
433.2783321950307
 31
0.0
  0
LINE
  5
36E
330
80
100
AcDbEntity
  8
1
  6
Continuous
 62
     7
100
AcDbLine
 10
287.9357472458471
 20
427.3464276231055
 30
0.0
 11
287.9357472458471
 21
439.210236766955
 31
0.0
  0
LINE
  5
36F
330
80
100
AcDbEntity
  8
1
  6
Continuous
 62
     7
100
AcDbLine
 10
301.7921537063982
 20
439.210236766955
 30
0.0
 11
301.7921537063982
 21
427.3464276231055
 31
0.0
  0
LINE
  5
370
330
80
100
AcDbEntity
  8
1
  6
Continuous
 62
     7
100
AcDbLine
 10
305.1646537063981
 20
440.2783321950306
 30
0.0
 11
294.8639504761226
 21
440.2783321950306
 31
0.0
  0
LINE
  5
371
330
80
100
AcDbEntity
  8
1
  6
Continuous
 62
     7
100
AcDbLine
 10
305.3414504761228
 20
440.2783321950306
 30
0.0
 11
305.1646537063981
 21
440.2783321950306
 31
0.0
  0
LINE
  5
372
330
80
100
AcDbEntity
  8
1
  6
Continuous
 62
     7
100
AcDbLine
 10
284.3864504761226
 20
440.2783321950306
 30
0.0
 11
282.8639460248811
 21
440.2783321950306
 31
0.0
  0
LINE
  5
373
330
80
100
AcDbEntity
  8
1
  6
Continuous
 62
     7
100
AcDbLine
 10
284.5632472458472
 20
440.2783321950306
 30
0.0
 11
284.3864504761226
 21
440.2783321950306
 31
0.0
  0
LINE
  5
374
330
80
100
AcDbEntity
  8
1
  6
Continuous
 62
     7
100
AcDbLine
 10
294.8639504761226
 20
440.2783321950306
 30
0.0
 11
284.5632472458472
 21
440.2783321950306
 31
0.0
  0
LINE
  5
375
330
80
100
AcDbEntity
  8
1
  6
Continuous
 62
     7
100
AcDbLine
 10
305.2530520912605
 20
426.2783321950306
 30
0.0
 11
306.8639549273643
 21
426.2783321950306
 31
0.0
  0
LINE
  5
376
330
80
100
AcDbEntity
  8
1
  6
Continuous
 62
     7
100
AcDbLine
 10
294.8639504761226
 20
426.2783321950306
 30
0.0
 11
305.2530520912605
 21
426.2783321950306
 31
0.0
  0
LINE
  5
377
330
80
100
AcDbEntity
  8
1
  6
Continuous
 62
     7
100
AcDbLine
 10
284.4748488609851
 20
426.2783321950306
 30
0.0
 11
294.8639504761226
 21
426.2783321950306
 31
0.0
  0
LINE
  5
378
330
80
100
AcDbEntity
  8
1
  6
Continuous
 62
     7
100
AcDbLine
 10
281.8119132446773
 20
426.8857236038775
 30
0.0
 11
281.0139504761228
 21
427.3464276231055
 31
0.0
  0
LINE
  5
379
330
80
100
AcDbEntity
  8
1
  6
Continuous
 62
     7
100
AcDbLine
 10
281.8150812013994
 20
439.6727698068496
 30
0.0
 11
282.8639460248811
 21
440.2783321950306
 31
0.0
  0
LINE
  5
37A
330
80
100
AcDbEntity
  8
1
  6
Continuous
 62
     7
100
AcDbLine
 10
307.9128197508459
 20
439.6727698068494
 30
0.0
 11
308.7139504761227
 21
439.210236766955
 31
0.0
  0
LINE
  5
37B
330
80
100
AcDbEntity
  8
1
  6
Continuous
 62
     7
100
AcDbLine
 10
307.9159877075682
 20
426.8857236038775
 30
0.0
 11
306.8639549273643
 21
426.2783321950306
 31
0.0
  0
LINE
  5
37C
330
80
100
AcDbEntity
  8
1
  6
Continuous
 62
     7
100
AcDbLine
 10
306.8639549273643
 20
440.2783321950306
 30
0.0
 11
305.3414504761228
 21
440.2783321950306
 31
0.0
  0
LINE
  5
37D
330
80
100
AcDbEntity
  8
1
  6
Continuous
 62
     7
100
AcDbLine
 10
282.8639460248811
 20
426.2783321950306
 30
0.0
 11
284.4748488609851
 21
426.2783321950306
 31
0.0
  0
LINE
  5
37E
330
80
100
AcDbEntity
  8
1
  6
Continuous
 62
     7
100
AcDbLine
 10
282.8639460248811
 20
426.2783321950306
 30
0.0
 11
281.8119132446773
 21
426.8857236038775
 31
0.0
  0
LINE
  5
37F
330
80
100
AcDbEntity
  8
1
  6
Continuous
 62
     7
100
AcDbLine
 10
281.0139504761228
 20
439.210236766955
 30
0.0
 11
281.8150812013994
 21
439.6727698068496
 31
0.0
  0
LINE
  5
380
330
80
100
AcDbEntity
  8
1
  6
Continuous
 62
     7
100
AcDbLine
 10
308.7139504761227
 20
439.210236766955
 30
0.0
 11
308.7139504761227
 21
427.3464276231055
 31
0.0
  0
LINE
  5
381
330
80
100
AcDbEntity
  8
1
  6
Continuous
 62
     7
100
AcDbLine
 10
306.8639549273643
 20
440.2783321950306
 30
0.0
 11
307.9128197508459
 21
439.6727698068494
 31
0.0
  0
LINE
  5
382
330
80
100
AcDbEntity
  8
1
  6
Continuous
 62
     7
100
AcDbLine
 10
308.7139504761227
 20
427.3464276231055
 30
0.0
 11
307.9159877075682
 21
426.8857236038775
 31
0.0
  0
LINE
  5
383
330
80
100
AcDbEntity
  8
1
  6
Continuous
 62
     7
100
AcDbLine
 10
281.0139504761228
 20
433.2783321950307
 30
0.0
 11
281.0139504761228
 21
439.210236766955
 31
0.0
  0
ARC
  5
384
330
80
100
AcDbEntity
  8
1
  6
Continuous
 62
     7
100
AcDbCircle
 10
305.2530520912605
 20
434.1408510043298
 30
0.0
 40
6.138117760409306
100
AcDbArc
 50
89.17482367374099
 51
90.82517632625954
  0
ARC
  5
385
330
80
100
AcDbEntity
  8
1
  6
Continuous
 62
     7
100
AcDbCircle
 10
305.2530520912605
 20
434.1408510043298
 30
0.0
 40
6.138117760408806
100
AcDbArc
 50
64.32157487155239
 51
89.17482367374099
  0
ARC
  5
386
330
80
100
AcDbEntity
  8
1
  6
Continuous
 62
     7
100
AcDbCircle
 10
284.4748488609851
 20
434.1408510043298
 30
0.0
 40
6.138117760409303
100
AcDbArc
 50
89.1748236737431
 51
90.8251763262606
  0
ARC
  5
387
330
80
100
AcDbEntity
  8
1
  6
Continuous
 62
     7
100
AcDbCircle
 10
284.4748488609851
 20
434.1408510043298
 30
0.0
 40
6.138117760408911
100
AcDbArc
 50
55.67842512844847
 51
89.1748236737431
  0
ARC
  5
388
330
80
100
AcDbEntity
  8
1
  6
Continuous
 62
     7
100
AcDbCircle
 10
294.8639504761226
 20
417.2743821022816
 30
0.0
 40
23.00395009274874
100
AcDbArc
 50
72.47183986366458
 51
90.0
  0
ARC
  5
389
330
80
100
AcDbEntity
  8
1
  6
Continuous
 62
     7
100
AcDbCircle
 10
305.2530520912605
 20
432.4194714270634
 30
0.0
 40
6.141139232033241
100
AcDbArc
 50
235.6976682683401
 51
270.0
  0
ARC
  5
38A
330
80
100
AcDbEntity
  8
1
  6
Continuous
 62
     7
100
AcDbCircle
 10
294.8639504761226
 20
449.2822822877788
 30
0.0
 40
23.00395009274861
100
AcDbArc
 50
252.4718398636646
 51
270.0
  0
ARC
  5
38B
330
80
100
AcDbEntity
  8
1
  6
Continuous
 62
     7
100
AcDbCircle
 10
284.4748488609851
 20
432.4194714270634
 30
0.0
 40
6.141139232033004
100
AcDbArc
 50
244.3023317316573
 51
270.0
  0
ARC
  5
38C
330
80
100
AcDbEntity
  8
1
  6
Continuous
 62
     7
100
AcDbCircle
 10
284.4748488609851
 20
434.1408510043298
 30
0.0
 40
6.138117760409309
100
AcDbArc
 50
90.8251763262606
 51
115.6784251284491
  0
ARC
  5
38D
330
80
100
AcDbEntity
  8
1
  6
Continuous
 62
     7
100
AcDbCircle
 10
305.2530520912605
 20
432.4194714270634
 30
0.0
 40
6.141139232032799
100
AcDbArc
 50
270.0
 51
295.6976682683422
  0
ARC
  5
38E
330
80
100
AcDbEntity
  8
1
  6
Continuous
 62
     7
100
AcDbCircle
 10
305.2530520912605
 20
434.1408510043298
 30
0.0
 40
6.138117760409307
100
AcDbArc
 50
90.82517632625954
 51
124.3215748715537
  0
ARC
  5
38F
330
80
100
AcDbEntity
  8
1
  6
Continuous
 62
     7
100
AcDbCircle
 10
294.8639504761226
 20
449.2822822877788
 30
0.0
 40
23.0039500927482
100
AcDbArc
 50
270.0
 51
287.5281601363355
  0
ARC
  5
390
330
80
100
AcDbEntity
  8
1
  6
Continuous
 62
     7
100
AcDbCircle
 10
284.4748488609851
 20
432.4194714270634
 30
0.0
 40
6.141139232032799
100
AcDbArc
 50
270.0
 51
304.3023317316577
  0
ARC
  5
391
330
80
100
AcDbEntity
  8
1
  6
Continuous
 62
     7
100
AcDbCircle
 10
294.8639504761226
 20
417.2743821022816
 30
0.0
 40
23.00395009274899
100
AcDbArc
 50
90.0
 51
107.5281601363353
  0
ENDBLK
  5
82
330
80
100
AcDbEntity
  8
0
100
AcDbBlockEnd
  0
BLOCK
  5
84
330
83
100
AcDbEntity
  8
0
100
AcDbBlockBegin
  2
32-16__7
 70
     0
 10
363.2403665383586
 20
1883.940889385973
 30
0.0
  3
32-16__7
  1

  0
LINE
  5
392
330
83
100
AcDbEntity
  8
1
  6
Continuous
 62
     7
100
AcDbLine
 10
783.1863479900652
 20
439.2102367669547
 30
0.0
 11
783.1863479900652
 21
427.3464276231052
 31
0.0
  0
LINE
  5
393
330
83
100
AcDbEntity
  8
1
  6
Continuous
 62
     7
100
AcDbLine
 10
771.1863435388237
 20
439.2102367669547
 30
0.0
 11
771.1863435388237
 21
427.3464276231052
 31
0.0
  0
LINE
  5
394
330
83
100
AcDbEntity
  8
1
  6
Continuous
 62
     7
100
AcDbLine
 10
771.1863435388237
 20
427.3464276231052
 30
0.0
 11
771.1863435388237
 21
426.2783321950303
 31
0.0
  0
LINE
  5
395
330
83
100
AcDbEntity
  8
1
  6
Continuous
 62
     7
100
AcDbLine
 10
771.1863435388237
 20
440.2783321950303
 30
0.0
 11
771.1863435388237
 21
439.2102367669547
 31
0.0
  0
LINE
  5
396
330
83
100
AcDbEntity
  8
1
  6
Continuous
 62
     7
100
AcDbLine
 10
795.1863524413064
 20
440.2783321950303
 30
0.0
 11
795.1863524413064
 21
426.2783321950303
 31
0.0
  0
LINE
  5
397
330
83
100
AcDbEntity
  8
1
  6
Continuous
 62
     7
100
AcDbLine
 10
771.1863435388237
 20
426.2783321950303
 30
0.0
 11
795.1863524413064
 21
426.2783321950303
 31
0.0
  0
LINE
  5
398
330
83
100
AcDbEntity
  8
1
  6
Continuous
 62
     7
100
AcDbLine
 10
795.1863524413064
 20
440.2783321950303
 30
0.0
 11
793.6638479900652
 21
440.2783321950303
 31
0.0
  0
LINE
  5
399
330
83
100
AcDbEntity
  8
1
  6
Continuous
 62
     7
100
AcDbLine
 10
772.8856447597899
 20
440.2783321950303
 30
0.0
 11
793.487051220341
 21
440.2783321950303
 31
0.0
  0
LINE
  5
39A
330
83
100
AcDbEntity
  8
1
  6
Continuous
 62
     7
100
AcDbLine
 10
772.8856447597899
 20
440.2783321950303
 30
0.0
 11
772.7088479900648
 21
440.2783321950303
 31
0.0
  0
LINE
  5
39B
330
83
100
AcDbEntity
  8
1
  6
Continuous
 62
     7
100
AcDbLine
 10
772.7088479900648
 20
440.2783321950303
 30
0.0
 11
771.1863435388237
 21
440.2783321950303
 31
0.0
  0
LINE
  5
39C
330
83
100
AcDbEntity
  8
1
  6
Continuous
 62
     7
100
AcDbLine
 10
793.6638479900652
 20
440.2783321950303
 30
0.0
 11
793.487051220341
 21
440.2783321950303
 31
0.0
  0
LINE
  5
39D
330
83
100
AcDbEntity
  8
1
  6
Continuous
 62
     7
100
AcDbLine
 10
410.7139504761224
 20
427.3464276231052
 30
0.0
 11
409.9159877075679
 21
426.8857236038772
 31
0.0
  0
LINE
  5
39E
330
83
100
AcDbEntity
  8
1
  6
Continuous
 62
     7
100
AcDbLine
 10
408.8639549273642
 20
440.2783321950303
 30
0.0
 11
409.9128197508458
 21
439.6727698068491
 31
0.0
  0
LINE
  5
39F
330
83
100
AcDbEntity
  8
1
  6
Continuous
 62
     7
100
AcDbLine
 10
410.7139504761224
 20
439.2102367669547
 30
0.0
 11
410.7139504761224
 21
427.3464276231052
 31
0.0
  0
LINE
  5
3A0
330
83
100
AcDbEntity
  8
1
  6
Continuous
 62
     7
100
AcDbLine
 10
383.0139504761226
 20
427.3464276231052
 30
0.0
 11
383.0139504761226
 21
439.2102367669547
 31
0.0
  0
LINE
  5
3A1
330
83
100
AcDbEntity
  8
1
  6
Continuous
 62
     7
100
AcDbLine
 10
383.0139504761226
 20
439.2102367669547
 30
0.0
 11
383.8150812013992
 21
439.6727698068493
 31
0.0
  0
LINE
  5
3A2
330
83
100
AcDbEntity
  8
1
  6
Continuous
 62
     7
100
AcDbLine
 10
384.8639460248811
 20
426.2783321950303
 30
0.0
 11
383.8119132446772
 21
426.8857236038772
 31
0.0
  0
LINE
  5
3A3
330
83
100
AcDbEntity
  8
1
  6
Continuous
 62
     7
100
AcDbLine
 10
384.8639460248811
 20
426.2783321950303
 30
0.0
 11
386.4748488609847
 21
426.2783321950303
 31
0.0
  0
LINE
  5
3A4
330
83
100
AcDbEntity
  8
1
  6
Continuous
 62
     7
100
AcDbLine
 10
408.8639549273642
 20
440.2783321950303
 30
0.0
 11
407.3414504761227
 21
440.2783321950303
 31
0.0
  0
LINE
  5
3A5
330
83
100
AcDbEntity
  8
1
  6
Continuous
 62
     7
100
AcDbLine
 10
409.9159877075679
 20
426.8857236038772
 30
0.0
 11
408.8639549273642
 21
426.2783321950303
 31
0.0
  0
LINE
  5
3A6
330
83
100
AcDbEntity
  8
1
  6
Continuous
 62
     7
100
AcDbLine
 10
409.9128197508458
 20
439.6727698068491
 30
0.0
 11
410.7139504761224
 21
439.2102367669547
 31
0.0
  0
LINE
  5
3A7
330
83
100
AcDbEntity
  8
1
  6
Continuous
 62
     7
100
AcDbLine
 10
383.8150812013992
 20
439.6727698068493
 30
0.0
 11
384.8639460248811
 21
440.2783321950303
 31
0.0
  0
LINE
  5
3A8
330
83
100
AcDbEntity
  8
1
  6
Continuous
 62
     7
100
AcDbLine
 10
383.8119132446772
 20
426.8857236038772
 30
0.0
 11
383.0139504761226
 21
427.3464276231052
 31
0.0
  0
LINE
  5
3A9
330
83
100
AcDbEntity
  8
1
  6
Continuous
 62
     7
100
AcDbLine
 10
386.4748488609847
 20
426.2783321950303
 30
0.0
 11
396.8639504761225
 21
426.2783321950303
 31
0.0
  0
LINE
  5
3AA
330
83
100
AcDbEntity
  8
1
  6
Continuous
 62
     7
100
AcDbLine
 10
396.8639504761225
 20
426.2783321950303
 30
0.0
 11
407.2530520912602
 21
426.2783321950303
 31
0.0
  0
LINE
  5
3AB
330
83
100
AcDbEntity
  8
1
  6
Continuous
 62
     7
100
AcDbLine
 10
407.2530520912602
 20
426.2783321950303
 30
0.0
 11
408.8639549273642
 21
426.2783321950303
 31
0.0
  0
LINE
  5
3AC
330
83
100
AcDbEntity
  8
1
  6
Continuous
 62
     7
100
AcDbLine
 10
396.8639504761225
 20
440.2783321950303
 30
0.0
 11
386.5632472458472
 21
440.2783321950303
 31
0.0
  0
LINE
  5
3AD
330
83
100
AcDbEntity
  8
1
  6
Continuous
 62
     7
100
AcDbLine
 10
386.5632472458472
 20
440.2783321950303
 30
0.0
 11
386.3864504761223
 21
440.2783321950303
 31
0.0
  0
LINE
  5
3AE
330
83
100
AcDbEntity
  8
1
  6
Continuous
 62
     7
100
AcDbLine
 10
386.3864504761223
 20
440.2783321950303
 30
0.0
 11
384.8639460248811
 21
440.2783321950303
 31
0.0
  0
LINE
  5
3AF
330
83
100
AcDbEntity
  8
1
  6
Continuous
 62
     7
100
AcDbLine
 10
407.3414504761227
 20
440.2783321950303
 30
0.0
 11
407.1646537063981
 21
440.2783321950303
 31
0.0
  0
LINE
  5
3B0
330
83
100
AcDbEntity
  8
1
  6
Continuous
 62
     7
100
AcDbLine
 10
407.1646537063981
 20
440.2783321950303
 30
0.0
 11
396.8639504761225
 21
440.2783321950303
 31
0.0
  0
LINE
  5
3B1
330
83
100
AcDbEntity
  8
1
  6
Continuous
 62
     7
100
AcDbLine
 10
403.7921537063982
 20
439.2102367669547
 30
0.0
 11
403.7921537063982
 21
427.3464276231052
 31
0.0
  0
LINE
  5
3B2
330
83
100
AcDbEntity
  8
1
  6
Continuous
 62
     7
100
AcDbLine
 10
389.9357472458471
 20
427.3464276231052
 30
0.0
 11
389.9357472458471
 21
439.2102367669547
 31
0.0
  0
ARC
  5
3B3
330
83
100
AcDbEntity
  8
1
  6
Continuous
 62
     7
100
AcDbCircle
 10
777.1863457644444
 20
422.8918451945867
 30
0.0
 40
17.38648700044336
100
AcDbArc
 50
69.81236110525704
 51
110.1876388947423
  0
ARC
  5
3B4
330
83
100
AcDbEntity
  8
1
  6
Continuous
 62
     7
100
AcDbCircle
 10
777.1863457644444
 20
443.6648191954732
 30
0.0
 40
17.38648700044329
100
AcDbArc
 50
249.8123611052578
 51
290.1876388947429
  0
ARC
  5
3B5
330
83
100
AcDbEntity
  8
1
  6
Continuous
 62
     7
100
AcDbCircle
 10
789.1863479900652
 20
443.6648066930986
 30
0.0
 40
17.38647449806885
100
AcDbArc
 50
249.8123537708969
 51
290.1876462291031
  0
ARC
  5
3B6
330
83
100
AcDbEntity
  8
1
  6
Continuous
 62
     7
100
AcDbCircle
 10
789.1863479900652
 20
422.891857696961
 30
0.0
 40
17.38647449806917
100
AcDbArc
 50
69.81235377089733
 51
110.1876462291027
  0
ARC
  5
3B7
330
83
100
AcDbEntity
  8
1
  6
Continuous
 62
     7
100
AcDbCircle
 10
772.7972463749276
 20
434.1408510043295
 30
0.0
 40
6.138117760409363
100
AcDbArc
 50
89.174823673741
 51
90.82517632626326
  0
ARC
  5
3B8
330
83
100
AcDbEntity
  8
1
  6
Continuous
 62
     7
100
AcDbCircle
 10
793.5754496052031
 20
434.1408510043295
 30
0.0
 40
6.13811776040936
100
AcDbArc
 50
89.17482367374312
 51
90.82517632625688
  0
ARC
  5
3B9
330
83
100
AcDbEntity
  8
1
  6
Continuous
 62
     7
100
AcDbCircle
 10
396.8639504761225
 20
417.2743821022813
 30
0.0
 40
23.00395009274899
100
AcDbArc
 50
90.0
 51
107.528160136335
  0
ARC
  5
3BA
330
83
100
AcDbEntity
  8
1
  6
Continuous
 62
     7
100
AcDbCircle
 10
386.4748488609847
 20
432.4194714270631
 30
0.0
 40
6.141139232032799
100
AcDbArc
 50
270.0
 51
304.3023317316607
  0
ARC
  5
3BB
330
83
100
AcDbEntity
  8
1
  6
Continuous
 62
     7
100
AcDbCircle
 10
396.8639504761225
 20
449.2822822877785
 30
0.0
 40
23.0039500927482
100
AcDbArc
 50
270.0
 51
287.5281601363358
  0
ARC
  5
3BC
330
83
100
AcDbEntity
  8
1
  6
Continuous
 62
     7
100
AcDbCircle
 10
407.2530520912602
 20
434.1408510043295
 30
0.0
 40
6.13811776040936
100
AcDbArc
 50
90.82517632625688
 51
124.3215748715512
  0
ARC
  5
3BD
330
83
100
AcDbEntity
  8
1
  6
Continuous
 62
     7
100
AcDbCircle
 10
407.2530520912602
 20
432.4194714270631
 30
0.0
 40
6.141139232032799
100
AcDbArc
 50
270.0
 51
295.697668268342
  0
ARC
  5
3BE
330
83
100
AcDbEntity
  8
1
  6
Continuous
 62
     7
100
AcDbCircle
 10
386.4748488609847
 20
434.1408510043295
 30
0.0
 40
6.138117760409364
100
AcDbArc
 50
90.82517632625954
 51
115.6784251284469
  0
ARC
  5
3BF
330
83
100
AcDbEntity
  8
1
  6
Continuous
 62
     7
100
AcDbCircle
 10
386.4748488609847
 20
432.4194714270631
 30
0.0
 40
6.141139232032931
100
AcDbArc
 50
244.3023317316599
 51
270.0
  0
ARC
  5
3C0
330
83
100
AcDbEntity
  8
1
  6
Continuous
 62
     7
100
AcDbCircle
 10
396.8639504761225
 20
449.2822822877785
 30
0.0
 40
23.00395009274858
100
AcDbArc
 50
252.4718398636649
 51
270.0
  0
ARC
  5
3C1
330
83
100
AcDbEntity
  8
1
  6
Continuous
 62
     7
100
AcDbCircle
 10
407.2530520912602
 20
432.4194714270631
 30
0.0
 40
6.141139232033081
100
AcDbArc
 50
235.6976682683424
 51
270.0
  0
ARC
  5
3C2
330
83
100
AcDbEntity
  8
1
  6
Continuous
 62
     7
100
AcDbCircle
 10
396.8639504761225
 20
417.2743821022813
 30
0.0
 40
23.00395009274877
100
AcDbArc
 50
72.47183986366433
 51
90.0
  0
ARC
  5
3C3
330
83
100
AcDbEntity
  8
1
  6
Continuous
 62
     7
100
AcDbCircle
 10
386.4748488609847
 20
434.1408510043295
 30
0.0
 40
6.138117760409182
100
AcDbArc
 50
55.6784251284457
 51
89.17482367373941
  0
ARC
  5
3C4
330
83
100
AcDbEntity
  8
1
  6
Continuous
 62
     7
100
AcDbCircle
 10
386.4748488609847
 20
434.1408510043295
 30
0.0
 40
6.138117760409366
100
AcDbArc
 50
89.17482367373941
 51
90.82517632625954
  0
ARC
  5
3C5
330
83
100
AcDbEntity
  8
1
  6
Continuous
 62
     7
100
AcDbCircle
 10
407.2530520912602
 20
434.1408510043295
 30
0.0
 40
6.138117760408931
100
AcDbArc
 50
64.32157487155118
 51
89.17482367373941
  0
ARC
  5
3C6
330
83
100
AcDbEntity
  8
1
  6
Continuous
 62
     7
100
AcDbCircle
 10
407.2530520912602
 20
434.1408510043295
 30
0.0
 40
6.138117760409366
100
AcDbArc
 50
89.17482367373941
 51
90.82517632625688
  0
ENDBLK
  5
85
330
83
100
AcDbEntity
  8
0
100
AcDbBlockEnd
  0
BLOCK
  5
87
330
86
100
AcDbEntity
  8
0
100
AcDbBlockBegin
  2
35-276__8
 70
     0
 10
284.3864504761232
 20
488.2783321950308
 30
0.0
  3
35-276__8
  1

  0
LINE
  5
3C7
330
86
100
AcDbEntity
  8
1
  6
Continuous
 62
     7
100
AcDbLine
 10
285.5484504761232
 20
531.7783321950305
 30
0.0
 11
284.3864504761234
 21
531.7783321950308
 31
0.0
  0
LINE
  5
3C8
330
86
100
AcDbEntity
  8
1
  6
Continuous
 62
     7
100
AcDbLine
 10
304.1794504761232
 20
531.7783321950305
 30
0.0
 11
305.3414504761232
 21
531.7783321950303
 31
0.0
  0
LINE
  5
3C9
330
86
100
AcDbEntity
  8
1
  6
Continuous
 62
     7
100
AcDbLine
 10
305.3414504761232
 20
537.2783321950305
 30
0.0
 11
305.3414504761232
 21
535.2783321950305
 31
0.0
  0
LINE
  5
3CA
330
86
100
AcDbEntity
  8
1
  6
Continuous
 62
     7
100
AcDbLine
 10
284.3864504761234
 20
537.2783321950305
 30
0.0
 11
284.3864504761234
 21
535.2783321950305
 31
0.0
  0
LINE
  5
3CB
330
86
100
AcDbEntity
  8
1
  6
Continuous
 62
     7
100
AcDbLine
 10
305.3414504761232
 20
488.2777738468674
 30
0.0
 11
305.3414504761232
 21
513.7783321950303
 31
0.0
  0
LINE
  5
3CC
330
86
100
AcDbEntity
  8
1
  6
Continuous
 62
     7
100
AcDbLine
 10
284.3864504761232
 20
488.2777738468674
 30
0.0
 11
284.3864504761233
 21
513.7789684842985
 31
0.0
  0
LINE
  5
3CD
330
86
100
AcDbEntity
  8
1
  6
Continuous
 62
     2
100
AcDbLine
 10
304.1794504761232
 20
513.7783321950303
 30
0.0
 11
304.1794504761232
 21
488.2777738468674
 31
0.0
  0
LINE
  5
3CE
330
86
100
AcDbEntity
  8
1
  6
Continuous
 62
     2
100
AcDbLine
 10
285.5484504761233
 20
513.7783321950303
 30
0.0
 11
285.5484504761233
 21
488.2777738468674
 31
0.0
  0
LINE
  5
3CF
330
86
100
AcDbEntity
  8
1
  6
Continuous
 62
     7
100
AcDbLine
 10
305.3414504761232
 20
524.2783321950303
 30
0.0
 11
305.3414504761232
 21
531.7783321950303
 31
0.0
  0
LINE
  5
3D0
330
86
100
AcDbEntity
  8
1
  6
Continuous
 62
     7
100
AcDbLine
 10
284.3864504761233
 20
524.2783321950303
 30
0.0
 11
284.3864504761234
 21
531.7783321950308
 31
0.0
  0
LINE
  5
3D1
330
86
100
AcDbEntity
  8
1
  6
Continuous
 62
     7
100
AcDbLine
 10
304.1794504761232
 20
531.7783321950305
 30
0.0
 11
285.5484504761232
 21
531.7783321950305
 31
0.0
  0
LINE
  5
3D2
330
86
100
AcDbEntity
  8
1
  6
Continuous
 62
     2
100
AcDbLine
 10
285.5484504761232
 20
531.7783321950305
 30
0.0
 11
285.5484504761232
 21
531.5737849946813
 31
0.0
  0
LINE
  5
3D3
330
86
100
AcDbEntity
  8
1
  6
Continuous
 62
     2
100
AcDbLine
 10
304.1794504761232
 20
531.7783321950305
 30
0.0
 11
304.1794504761232
 21
524.2783321950303
 31
0.0
  0
LINE
  5
3D4
330
86
100
AcDbEntity
  8
0
  6
Continuous
 62
     7
100
AcDbLine
 10
284.3864504761234
 20
537.2783321950305
 30
0.0
 11
284.6139504761235
 21
537.2783321950305
 31
0.0
  0
LINE
  5
3D5
330
86
100
AcDbEntity
  8
0
  6
Continuous
 62
     7
100
AcDbLine
 10
305.1139504761234
 20
537.2783321950303
 30
0.0
 11
305.3414504761232
 21
537.2783321950305
 31
0.0
  0
LINE
  5
3D6
330
86
100
AcDbEntity
  8
0
  6
Continuous
 62
     2
100
AcDbLine
 10
305.3414504761232
 20
535.2783321950305
 30
0.0
 11
304.1794504761232
 21
531.7783321950305
 31
0.0
  0
LINE
  5
3D7
330
86
100
AcDbEntity
  8
1
  6
Continuous
 62
     7
100
AcDbLine
 10
305.3414504761232
 20
535.2783321950305
 30
0.0
 11
305.3414504761232
 21
531.7783321950303
 31
0.0
  0
LINE
  5
3D8
330
86
100
AcDbEntity
  8
0
  6
Continuous
 62
     2
100
AcDbLine
 10
285.5484504761232
 20
531.5737849946813
 30
0.0
 11
284.3864504761234
 21
535.2783321950305
 31
0.0
  0
LINE
  5
3D9
330
86
100
AcDbEntity
  8
1
  6
Continuous
 62
     2
100
AcDbLine
 10
285.5484504761232
 20
531.5737849946813
 30
0.0
 11
285.5484504761233
 21
524.2783321950303
 31
0.0
  0
LINE
  5
3DA
330
86
100
AcDbEntity
  8
1
  6
Continuous
 62
     7
100
AcDbLine
 10
284.3864504761234
 20
535.2783321950305
 30
0.0
 11
284.3864504761234
 21
531.7783321950308
 31
0.0
  0
ENDBLK
  5
88
330
86
100
AcDbEntity
  8
0
100
AcDbBlockEnd
  0
BLOCK
  5
424
330
41B
100
AcDbEntity
  8
0
100
AcDbBlockBegin
  2
*D22
 70
     1
 10
0.0
 20
0.0
 30
0.0
  3
*D22
  1

  0
LINE
  5
41C
330
41B
100
AcDbEntity
  8
1
  6
Continuous
 62
     2
100
AcDbLine
 10
815.0642827257334
 20
840.3430111677835
 30
0.0
 11
850.0642827257334
 21
840.3430111677835
 31
0.0
  0
LINE
  5
41D
330
41B
100
AcDbEntity
  8
1
  6
Continuous
 62
     2
100
AcDbLine
 10
783.1863479900651
 20
840.3430111677835
 30
0.0
 11
815.0642827257334
 21
840.3430111677835
 31
0.0
  0
LINE
  5
41E
330
41B
100
AcDbEntity
  8
1
  6
Continuous
 62
     2
100
AcDbLine
 10
748.1863479900651
 20
840.3430111677835
 30
0.0
 11
783.1863479900651
 21
840.3430111677835
 31
0.0
  0
LINE
  5
41F
330
41B
100
AcDbEntity
  8
1
  6
Continuous
 62
     2
100
AcDbLine
 10
783.1863479900651
 20
698.9109316817472
 30
0.0
 11
783.1863479900651
 21
845.3430111677835
 31
0.0
  0
LINE
  5
420
330
41B
100
AcDbEntity
  8
1
  6
Continuous
 62
     2
100
AcDbLine
 10
815.0642827257334
 20
662.602690894837
 30
0.0
 11
815.0642827257334
 21
845.3430111677835
 31
0.0
  0
SOLID
  5
421
330
41B
100
AcDbEntity
  8
1
 62
     2
100
AcDbTrace
 10
765.6863479900651
 20
838.0390924600041
 30
0.0
 11
765.6863479900651
 21
842.6469298755629
 31
0.0
 12
783.1863479900651
 22
840.3430111677835
 32
0.0
 13
783.1863479900651
 23
840.3430111677835
 33
0.0
  0
SOLID
  5
422
330
41B
100
AcDbEntity
  8
1
 62
     2
100
AcDbTrace
 10
832.5642827257334
 20
842.6469298755629
 30
0.0
 11
832.5642827257334
 21
838.0390924600041
 31
0.0
 12
815.0642827257334
 22
840.3430111677835
 32
0.0
 13
815.0642827257334
 23
840.3430111677835
 33
0.0
  0
MTEXT
  5
423
330
41B
100
AcDbEntity
  8
1
 62
     7
100
AcDbMText
 10
786.0003153578994
 20
845.3430111677835
 30
0.0
 40
17.5
 41
0.0
 71
     7
 72
     1
  1
32
  7
CONVERTER_12
 11
0.9999999999970619
 21
2.424068405545306E-6
 31
0.0
 73
     1
 44
0.60024009603842
  0
ENDBLK
  5
425
330
41B
100
AcDbEntity
  8
0
100
AcDbBlockEnd
  0
BLOCK
  5
42F
330
428
100
AcDbEntity
  8
0
100
AcDbBlockBegin
  2
*D23
 70
     1
 10
0.0
 20
0.0
 30
0.0
  3
*D23
  1

  0
LINE
  5
429
330
428
100
AcDbEntity
  8
1
  6
Continuous
 62
     2
100
AcDbLine
 10
905.0642827257334
 20
750.3430111677835
 30
0.0
 11
905.0642827257334
 21
541.7783321950308
 31
0.0
  0
LINE
  5
42A
330
428
100
AcDbEntity
  8
1
  6
Continuous
 62
     2
100
AcDbLine
 10
722.2751566213328
 20
750.3430111677835
 30
0.0
 11
910.0642827257334
 21
750.3430111677835
 31
0.0
  0
LINE
  5
42B
330
428
100
AcDbEntity
  8
1
  6
Continuous
 62
     2
100
AcDbLine
 10
809.1785163366152
 20
541.7783321950308
 30
0.0
 11
910.0642827257334
 21
541.7783321950308
 31
0.0
  0
SOLID
  5
42C
330
428
100
AcDbEntity
  8
1
 62
     2
100
AcDbTrace
 10
907.3682014335128
 20
732.8430111677835
 30
0.0
 11
902.760364017954
 21
732.8430111677835
 31
0.0
 12
905.0642827257334
 22
750.3430111677835
 32
0.0
 13
905.0642827257334
 23
750.3430111677835
 33
0.0
  0
SOLID
  5
42D
330
428
100
AcDbEntity
  8
1
 62
     2
100
AcDbTrace
 10
902.760364017954
 20
559.2783321950308
 30
0.0
 11
907.3682014335128
 21
559.2783321950308
 31
0.0
 12
905.0642827257334
 22
541.7783321950308
 32
0.0
 13
905.0642827257334
 23
541.7783321950308
 33
0.0
  0
MTEXT
  5
42E
330
428
100
AcDbEntity
  8
1
 62
     7
100
AcDbMText
 10
900.0642827257334
 20
616.7983161489985
 30
0.0
 40
17.5
 41
0.0
 71
     7
 72
     1
  1
\C7;最大\C7;209
  7
CONVERTER_11
 11
0.0
 21
1.0
 31
0.0
 73
     1
 44
0.45454545454545
  0
ENDBLK
  5
430
330
428
100
AcDbEntity
  8
0
100
AcDbBlockEnd
  0
BLOCK
  5
43A
330
433
100
AcDbEntity
  8
0
100
AcDbBlockBegin
  2
*D24
 70
     1
 10
0.0
 20
0.0
 30
0.0
  3
*D24
  1

  0
LINE
  5
434
330
433
100
AcDbEntity
  8
1
  6
Continuous
 62
     2
100
AcDbLine
 10
865.0642827257334
 20
715.7783321950301
 30
0.0
 11
865.0642827257334
 21
541.7783321950308
 31
0.0
  0
LINE
  5
435
330
433
100
AcDbEntity
  8
1
  6
Continuous
 62
     2
100
AcDbLine
 10
688.1863479900653
 20
715.7783321950301
 30
0.0
 11
870.0642827257334
 21
715.7783321950301
 31
0.0
  0
LINE
  5
436
330
433
100
AcDbEntity
  8
1
  6
Continuous
 62
     2
100
AcDbLine
 10
809.1785163366152
 20
541.7783321950308
 30
0.0
 11
870.0642827257334
 21
541.7783321950308
 31
0.0
  0
SOLID
  5
437
330
433
100
AcDbEntity
  8
1
 62
     2
100
AcDbTrace
 10
867.3682014335128
 20
698.2783321950301
 30
0.0
 11
862.760364017954
 21
698.2783321950301
 31
0.0
 12
865.0642827257334
 22
715.7783321950301
 32
0.0
 13
865.0642827257334
 23
715.7783321950301
 33
0.0
  0
SOLID
  5
438
330
433
100
AcDbEntity
  8
1
 62
     2
100
AcDbTrace
 10
862.760364017954
 20
559.2783321950308
 30
0.0
 11
867.3682014335128
 21
559.2783321950308
 31
0.0
 12
865.0642827257334
 22
541.7783321950308
 32
0.0
 13
865.0642827257334
 23
541.7783321950308
 33
0.0
  0
MTEXT
  5
439
330
433
100
AcDbEntity
  8
1
 62
     7
100
AcDbMText
 10
860.0642827257334
 20
602.3702159833474
 30
0.0
 40
17.5
 41
0.0
 71
     7
 72
     1
  1
\C7;最小\C7;174
  7
CONVERTER_11
 11
0.0
 21
1.0
 31
0.0
 73
     1
 44
0.45454545454545
  0
ENDBLK
  5
43B
330
433
100
AcDbEntity
  8
0
100
AcDbBlockEnd
  0
BLOCK
  5
445
330
43E
100
AcDbEntity
  8
0
100
AcDbBlockBegin
  2
*D25
 70
     1
 10
0.0
 20
0.0
 30
0.0
  3
*D25
  1

  0
LINE
  5
43F
330
43E
100
AcDbEntity
  8
1
  6
Continuous
 62
     2
100
AcDbLine
 10
783.1863479900651
 20
839.8745501029669
 30
0.0
 11
601.873625852561
 21
839.8745501029669
 31
0.0
  0
LINE
  5
440
330
43E
100
AcDbEntity
  8
1
  6
Continuous
 62
     2
100
AcDbLine
 10
783.1863479900651
 20
698.9109316817472
 30
0.0
 11
783.1863479900651
 21
844.8745501029669
 31
0.0
  0
LINE
  5
441
330
43E
100
AcDbEntity
  8
1
  6
Continuous
 62
     2
100
AcDbLine
 10
601.873625852561
 20
678.2953227067412
 30
0.0
 11
601.873625852561
 21
844.8745501029669
 31
0.0
  0
SOLID
  5
442
330
43E
100
AcDbEntity
  8
1
 62
     2
100
AcDbTrace
 10
765.6863479900651
 20
837.5706313951874
 30
0.0
 11
765.6863479900651
 21
842.1784688107463
 31
0.0
 12
783.1863479900651
 22
839.8745501029669
 32
0.0
 13
783.1863479900651
 23
839.8745501029669
 33
0.0
  0
SOLID
  5
443
330
43E
100
AcDbEntity
  8
1
 62
     2
100
AcDbTrace
 10
619.373625852561
 20
842.1784688107463
 30
0.0
 11
619.373625852561
 21
837.5706313951874
 31
0.0
 12
601.873625852561
 22
839.8745501029669
 32
0.0
 13
601.873625852561
 23
839.8745501029669
 33
0.0
  0
MTEXT
  5
444
330
43E
100
AcDbEntity
  8
1
 62
     7
100
AcDbMText
 10
676.7799869213133
 20
844.8745501029669
 30
0.0
 40
17.5
 41
0.0
 71
     7
 72
     1
  1
181
  7
CONVERTER_12
 11
0.9999999999970619
 21
2.424068405545306E-6
 31
0.0
 73
     1
 44
0.60024009603842
  0
ENDBLK
  5
446
330
43E
100
AcDbEntity
  8
0
100
AcDbBlockEnd
  0
BLOCK
  5
450
330
449
100
AcDbEntity
  8
0
100
AcDbBlockBegin
  2
*D26
 70
     1
 10
0.0
 20
0.0
 30
0.0
  3
*D26
  1

  0
LINE
  5
44A
330
449
100
AcDbEntity
  8
1
  6
Continuous
 62
     2
100
AcDbLine
 10
541.3520887892912
 20
541.7783321950308
 30
0.0
 11
541.3520887892912
 21
678.2953227067412
 31
0.0
  0
LINE
  5
44B
330
449
100
AcDbEntity
  8
1
  6
Continuous
 62
     2
100
AcDbLine
 10
757.194179643515
 20
541.7783321950308
 30
0.0
 11
536.3520887892912
 21
541.7783321950308
 31
0.0
  0
LINE
  5
44C
330
449
100
AcDbEntity
  8
1
  6
Continuous
 62
     2
100
AcDbLine
 10
601.873625852561
 20
678.2953227067412
 30
0.0
 11
536.3520887892912
 21
678.2953227067412
 31
0.0
  0
SOLID
  5
44D
330
449
100
AcDbEntity
  8
1
 62
     2
100
AcDbTrace
 10
539.0481700815118
 20
559.2783321950308
 30
0.0
 11
543.6560074970706
 21
559.2783321950308
 31
0.0
 12
541.3520887892912
 22
541.7783321950308
 32
0.0
 13
541.3520887892912
 23
541.7783321950308
 33
0.0
  0
SOLID
  5
44E
330
449
100
AcDbEntity
  8
1
 62
     2
100
AcDbTrace
 10
543.6560074970706
 20
660.7953227067412
 30
0.0
 11
539.0481700815118
 21
660.7953227067412
 31
0.0
 12
541.3520887892912
 22
678.2953227067412
 32
0.0
 13
541.3520887892912
 23
678.2953227067412
 33
0.0
  0
MTEXT
  5
44F
330
449
100
AcDbEntity
  8
1
 62
     7
100
AcDbMText
 10
536.3520887892912
 20
591.6618274508859
 30
0.0
 40
17.5
 41
0.0
 71
     7
 72
     1
  1
137
  7
CONVERTER_12
 11
0.0
 21
1.0
 31
0.0
 73
     1
 44
0.60024009603842
  0
ENDBLK
  5
451
330
449
100
AcDbEntity
  8
0
100
AcDbBlockEnd
  0
BLOCK
  5
45D
330
454
100
AcDbEntity
  8
0
100
AcDbBlockBegin
  2
*D27
 70
     1
 10
0.0
 20
0.0
 30
0.0
  3
*D27
  1

  0
LINE
  5
455
330
454
100
AcDbEntity
  8
1
  6
Continuous
 62
     2
100
AcDbLine
 10
799.2281558476566
 20
506.7777156312509
 30
0.0
 11
984.4035205624127
 21
506.7777156312509
 31
0.0
  0
LINE
  5
456
330
454
100
AcDbEntity
  8
1
  6
Continuous
 62
     2
100
AcDbLine
 10
775.2281558476566
 20
506.7777156312509
 30
0.0
 11
799.2281558476566
 21
506.7777156312509
 31
0.0
  0
LINE
  5
457
330
454
100
AcDbEntity
  8
1
  6
Continuous
 62
     2
100
AcDbLine
 10
740.2281558476566
 20
506.7777156312509
 30
0.0
 11
775.2281558476566
 21
506.7777156312509
 31
0.0
  0
LINE
  5
458
330
454
100
AcDbEntity
  8
1
  6
Continuous
 62
     2
100
AcDbLine
 10
771.1863479900651
 20
513.7783321950303
 30
0.0
 11
777.7281558476566
 21
502.4475886123287
 31
0.0
  0
LINE
  5
459
330
454
100
AcDbEntity
  8
1
  6
Continuous
 62
     2
100
AcDbLine
 10
795.1863479900651
 20
513.7783321950303
 30
0.0
 11
801.7281558476566
 21
502.4475886123287
 31
0.0
  0
SOLID
  5
45A
330
454
100
AcDbEntity
  8
1
 62
     2
100
AcDbTrace
 10
757.7281558476566
 20
504.4737969234715
 30
0.0
 11
757.7281558476566
 21
509.0816343390303
 31
0.0
 12
775.2281558476566
 22
506.7777156312509
 32
0.0
 13
775.2281558476566
 23
506.7777156312509
 33
0.0
  0
SOLID
  5
45B
330
454
100
AcDbEntity
  8
1
 62
     2
100
AcDbTrace
 10
816.7281558476566
 20
509.0816343390303
 30
0.0
 11
816.7281558476566
 21
504.4737969234715
 31
0.0
 12
799.2281558476566
 22
506.7777156312509
 32
0.0
 13
799.2281558476566
 23
506.7777156312509
 33
0.0
  0
MTEXT
  5
45C
330
454
100
AcDbEntity
  8
1
 62
     7
100
AcDbMText
 10
818.1535205624127
 20
511.7777156312509
 30
0.0
 40
17.5
 41
0.0
 71
     7
 72
     1
  1
ロックナット対辺24
  7
CONVERTER_11
 11
0.9999999999970619
 21
2.424068405545306E-6
 31
0.0
 73
     1
 44
0.45454545454545
  0
ENDBLK
  5
45E
330
454
100
AcDbEntity
  8
0
100
AcDbBlockEnd
  0
BLOCK
  5
468
330
461
100
AcDbEntity
  8
0
100
AcDbBlockBegin
  2
*D28
 70
     1
 10
0.0
 20
0.0
 30
0.0
  3
*D28
  1

  0
LINE
  5
462
330
461
100
AcDbEntity
  8
1
  6
Continuous
 62
     2
100
AcDbLine
 10
273.8639504761231
 20
335.7783321950299
 30
0.0
 11
417.8639504761231
 21
335.7783321950299
 31
0.0
  0
LINE
  5
463
330
461
100
AcDbEntity
  8
1
  6
Continuous
 62
     2
100
AcDbLine
 10
273.8639504761231
 20
542.7783321950308
 30
0.0
 11
273.8639504761231
 21
330.7783321950299
 31
0.0
  0
LINE
  5
464
330
461
100
AcDbEntity
  8
1
  6
Continuous
 62
     2
100
AcDbLine
 10
417.8639504761231
 20
542.7783321950308
 30
0.0
 11
417.8639504761231
 21
330.7783321950299
 31
0.0
  0
SOLID
  5
465
330
461
100
AcDbEntity
  8
1
 62
     2
100
AcDbTrace
 10
291.3639504761231
 20
338.0822509028093
 30
0.0
 11
291.3639504761231
 21
333.4744134872505
 31
0.0
 12
273.8639504761231
 22
335.7783321950299
 32
0.0
 13
273.8639504761231
 23
335.7783321950299
 33
0.0
  0
SOLID
  5
466
330
461
100
AcDbEntity
  8
1
 62
     2
100
AcDbTrace
 10
400.3639504761231
 20
333.4744134872505
 30
0.0
 11
400.3639504761231
 21
338.0822509028093
 31
0.0
 12
417.8639504761231
 22
335.7783321950299
 32
0.0
 13
417.8639504761231
 23
335.7783321950299
 33
0.0
  0
MTEXT
  5
467
330
461
100
AcDbEntity
  8
1
 62
     7
100
AcDbMText
 10
327.4889504761231
 20
340.7783321950299
 30
0.0
 40
17.5
 41
0.0
 71
     7
 72
     1
  1
144
  7
CONVERTER_12
 11
0.9999999999970619
 21
2.424068405545306E-6
 31
0.0
 73
     1
 44
0.60024009603842
  0
ENDBLK
  5
469
330
461
100
AcDbEntity
  8
0
100
AcDbBlockEnd
  0
BLOCK
  5
473
330
46C
100
AcDbEntity
  8
0
100
AcDbBlockBegin
  2
*D29
 70
     1
 10
0.0
 20
0.0
 30
0.0
  3
*D29
  1

  0
LINE
  5
46D
330
46C
100
AcDbEntity
  8
1
  6
Continuous
 62
     2
100
AcDbLine
 10
396.8639504761229
 20
375.7783321950299
 30
0.0
 11
294.8639504761226
 21
375.7783321950299
 31
0.0
  0
LINE
  5
46E
330
46C
100
AcDbEntity
  8
1
  6
Continuous
 62
     2
100
AcDbLine
 10
396.8639504761229
 20
410.7783321950299
 30
0.0
 11
396.8639504761229
 21
370.7783321950299
 31
0.0
  0
LINE
  5
46F
330
46C
100
AcDbEntity
  8
1
  6
Continuous
 62
     2
100
AcDbLine
 10
294.8639504761226
 20
410.7783321950299
 30
0.0
 11
294.8639504761226
 21
370.7783321950299
 31
0.0
  0
SOLID
  5
470
330
46C
100
AcDbEntity
  8
1
 62
     2
100
AcDbTrace
 10
379.3639504761229
 20
373.4744134872505
 30
0.0
 11
379.3639504761229
 21
378.0822509028093
 31
0.0
 12
396.8639504761229
 22
375.7783321950299
 32
0.0
 13
396.8639504761229
 23
375.7783321950299
 33
0.0
  0
SOLID
  5
471
330
46C
100
AcDbEntity
  8
1
 62
     2
100
AcDbTrace
 10
312.3639504761226
 20
378.0822509028093
 30
0.0
 11
312.3639504761226
 21
373.4744134872505
 31
0.0
 12
294.8639504761226
 22
375.7783321950299
 32
0.0
 13
294.8639504761226
 23
375.7783321950299
 33
0.0
  0
MTEXT
  5
472
330
46C
100
AcDbEntity
  8
1
 62
     7
100
AcDbMText
 10
327.4889504761229
 20
380.7783321950299
 30
0.0
 40
17.5
 41
0.0
 71
     7
 72
     1
  1
102
  7
CONVERTER_12
 11
0.9999999999970619
 21
2.424068405545306E-6
 31
0.0
 73
     1
 44
0.60024009603842
  0
ENDBLK
  5
474
330
46C
100
AcDbEntity
  8
0
100
AcDbBlockEnd
  0
BLOCK
  5
47E
330
477
100
AcDbEntity
  8
0
100
AcDbBlockBegin
  2
*D30
 70
     1
 10
0.0
 20
0.0
 30
0.0
  3
*D30
  1

  0
LINE
  5
478
330
477
100
AcDbEntity
  8
1
  6
Continuous
 62
     2
100
AcDbLine
 10
755.6863479900651
 20
375.7783321950299
 30
0.0
 11
810.6863479900651
 21
375.7783321950299
 31
0.0
  0
LINE
  5
479
330
477
100
AcDbEntity
  8
1
  6
Continuous
 62
     2
100
AcDbLine
 10
755.6863479900651
 20
542.7783321950305
 30
0.0
 11
755.6863479900651
 21
370.7783321950299
 31
0.0
  0
LINE
  5
47A
330
477
100
AcDbEntity
  8
1
  6
Continuous
 62
     2
100
AcDbLine
 10
810.6863479900651
 20
542.7783321950305
 30
0.0
 11
810.6863479900651
 21
370.7783321950299
 31
0.0
  0
SOLID
  5
47B
330
477
100
AcDbEntity
  8
1
 62
     2
100
AcDbTrace
 10
773.1863479900651
 20
378.0822509028093
 30
0.0
 11
773.1863479900651
 21
373.4744134872505
 31
0.0
 12
755.6863479900651
 22
375.7783321950299
 32
0.0
 13
755.6863479900651
 23
375.7783321950299
 33
0.0
  0
SOLID
  5
47C
330
477
100
AcDbEntity
  8
1
 62
     2
100
AcDbTrace
 10
793.1863479900651
 20
373.4744134872505
 30
0.0
 11
793.1863479900651
 21
378.0822509028093
 31
0.0
 12
810.6863479900651
 22
375.7783321950299
 32
0.0
 13
810.6863479900651
 23
375.7783321950299
 33
0.0
  0
MTEXT
  5
47D
330
477
100
AcDbEntity
  8
1
 62
     7
100
AcDbMText
 10
770.0613479900653
 20
380.7783321950299
 30
0.0
 40
17.5
 41
0.0
 71
     7
 72
     1
  1
55
  7
CONVERTER_12
 11
0.9999999999970619
 21
2.424068405545306E-6
 31
0.0
 73
     1
 44
0.60024009603842
  0
ENDBLK
  5
47F
330
477
100
AcDbEntity
  8
0
100
AcDbBlockEnd
  0
BLOCK
  5
48B
330
482
100
AcDbEntity
  8
0
100
AcDbBlockBegin
  2
*D31
 70
     1
 10
0.0
 20
0.0
 30
0.0
  3
*D31
  1

  0
LINE
  5
483
330
482
100
AcDbEntity
  8
1
  6
Continuous
 62
     2
100
AcDbLine
 10
467.863950476123
 20
524.2783321950303
 30
0.0
 11
467.863950476123
 21
386.933376592282
 31
0.0
  0
LINE
  5
484
330
482
100
AcDbEntity
  8
1
  6
Continuous
 62
     2
100
AcDbLine
 10
467.863950476123
 20
538.7783321950305
 30
0.0
 11
467.863950476123
 21
524.2783321950303
 31
0.0
  0
LINE
  5
485
330
482
100
AcDbEntity
  8
1
  6
Continuous
 62
     2
100
AcDbLine
 10
467.863950476123
 20
573.7783321950305
 30
0.0
 11
467.863950476123
 21
538.7783321950305
 31
0.0
  0
LINE
  5
486
330
482
100
AcDbEntity
  8
1
  6
Continuous
 62
     2
100
AcDbLine
 10
422.4926339740739
 20
524.2783321950303
 30
0.0
 11
472.863950476123
 21
524.2783321950303
 31
0.0
  0
LINE
  5
487
330
482
100
AcDbEntity
  8
1
  6
Continuous
 62
     2
100
AcDbLine
 10
422.4926339740739
 20
538.7783321950305
 30
0.0
 11
472.863950476123
 21
538.7783321950305
 31
0.0
  0
SOLID
  5
488
330
482
100
AcDbEntity
  8
1
 62
     2
100
AcDbTrace
 10
465.5600317683436
 20
556.2783321950305
 30
0.0
 11
470.1678691839024
 21
556.2783321950305
 31
0.0
 12
467.863950476123
 22
538.7783321950305
 32
0.0
 13
467.863950476123
 23
538.7783321950305
 33
0.0
  0
SOLID
  5
489
330
482
100
AcDbEntity
  8
1
 62
     2
100
AcDbTrace
 10
470.1678691839024
 20
506.7783321950303
 30
0.0
 11
465.5600317683436
 21
506.7783321950303
 31
0.0
 12
467.863950476123
 22
524.2783321950303
 32
0.0
 13
467.863950476123
 23
524.2783321950303
 33
0.0
  0
MTEXT
  5
48A
330
482
100
AcDbEntity
  8
1
 62
     7
100
AcDbMText
 10
462.863950476123
 20
399.577126592282
 30
0.0
 40
17.5
 41
0.0
 71
     7
 72
     1
  1
\C7;最大\C7;37最小5
  7
CONVERTER_11
 11
0.0
 21
1.0
 31
0.0
 73
     1
 44
0.45454545454545
  0
ENDBLK
  5
48C
330
482
100
AcDbEntity
  8
0
100
AcDbBlockEnd
  0
BLOCK
  5
496
330
48F
100
AcDbEntity
  8
0
100
AcDbBlockBegin
  2
*D32
 70
     1
 10
0.0
 20
0.0
 30
0.0
  3
*D32
  1

  0
LINE
  5
490
330
48F
100
AcDbEntity
  8
1
  6
Continuous
 62
     2
100
AcDbLine
 10
269.8811944188253
 20
954.1125041638318
 30
0.0
 11
345.8639504761225
 21
954.1125041638318
 31
0.0
  0
LINE
  5
491
330
48F
100
AcDbEntity
  8
1
  6
Continuous
 62
     2
100
AcDbLine
 10
269.8811944188253
 20
1136.977897954774
 30
0.0
 11
269.8811944188253
 21
949.1125041638318
 31
0.0
  0
LINE
  5
492
330
48F
100
AcDbEntity
  8
1
  6
Continuous
 62
     2
100
AcDbLine
 10
345.8639504761225
 20
989.1125041638311
 30
0.0
 11
345.8639504761225
 21
949.1125041638318
 31
0.0
  0
SOLID
  5
493
330
48F
100
AcDbEntity
  8
1
 62
     2
100
AcDbTrace
 10
287.3811944188253
 20
956.4164228716112
 30
0.0
 11
287.3811944188253
 21
951.8085854560524
 31
0.0
 12
269.8811944188253
 22
954.1125041638318
 32
0.0
 13
269.8811944188253
 23
954.1125041638318
 33
0.0
  0
SOLID
  5
494
330
48F
100
AcDbEntity
  8
1
 62
     2
100
AcDbTrace
 10
328.3639504761225
 20
951.8085854560524
 30
0.0
 11
328.3639504761225
 21
956.4164228716112
 31
0.0
 12
345.8639504761225
 22
954.1125041638318
 32
0.0
 13
345.8639504761225
 23
954.1125041638318
 33
0.0
  0
MTEXT
  5
495
330
48F
100
AcDbEntity
  8
1
 62
     7
100
AcDbMText
 10
294.7475724474739
 20
959.1125041638318
 30
0.0
 40
17.5
 41
0.0
 71
     7
 72
     1
  1
76
  7
CONVERTER_12
 11
0.9999999999970619
 21
2.424068405545306E-6
 31
0.0
 73
     1
 44
0.60024009603842
  0
ENDBLK
  5
497
330
48F
100
AcDbEntity
  8
0
100
AcDbBlockEnd
  0
BLOCK
  5
4A1
330
49A
100
AcDbEntity
  8
0
100
AcDbBlockBegin
  2
*D33
 70
     1
 10
0.0
 20
0.0
 30
0.0
  3
*D33
  1

  0
LINE
  5
49B
330
49A
100
AcDbEntity
  8
1
  6
Continuous
 62
     2
100
AcDbLine
 10
345.8639504761225
 20
954.1125041638318
 30
0.0
 11
421.8467065334193
 21
954.1125041638318
 31
0.0
  0
LINE
  5
49C
330
49A
100
AcDbEntity
  8
1
  6
Continuous
 62
     2
100
AcDbLine
 10
345.8639504761225
 20
989.1125041638311
 30
0.0
 11
345.8639504761225
 21
949.1125041638318
 31
0.0
  0
LINE
  5
49D
330
49A
100
AcDbEntity
  8
1
  6
Continuous
 62
     2
100
AcDbLine
 10
421.8467065334193
 20
1136.977897954774
 30
0.0
 11
421.8467065334193
 21
949.1125041638318
 31
0.0
  0
SOLID
  5
49E
330
49A
100
AcDbEntity
  8
1
 62
     2
100
AcDbTrace
 10
363.3639504761225
 20
956.4164228716112
 30
0.0
 11
363.3639504761225
 21
951.8085854560524
 31
0.0
 12
345.8639504761225
 22
954.1125041638318
 32
0.0
 13
345.8639504761225
 23
954.1125041638318
 33
0.0
  0
SOLID
  5
49F
330
49A
100
AcDbEntity
  8
1
 62
     2
100
AcDbTrace
 10
404.3467065334193
 20
951.8085854560524
 30
0.0
 11
404.3467065334193
 21
956.4164228716112
 31
0.0
 12
421.8467065334193
 22
954.1125041638318
 32
0.0
 13
421.8467065334193
 23
954.1125041638318
 33
0.0
  0
MTEXT
  5
4A0
330
49A
100
AcDbEntity
  8
1
 62
     7
100
AcDbMText
 10
370.7303285047709
 20
959.1125041638318
 30
0.0
 40
17.5
 41
0.0
 71
     7
 72
     1
  1
76
  7
CONVERTER_12
 11
0.9999999999970619
 21
2.424068405545306E-6
 31
0.0
 73
     1
 44
0.60024009603842
  0
ENDBLK
  5
4A2
330
49A
100
AcDbEntity
  8
0
100
AcDbBlockEnd
  0
BLOCK
  5
4AC
330
4A5
100
AcDbEntity
  8
0
100
AcDbBlockBegin
  2
*D34
 70
     1
 10
0.0
 20
0.0
 30
0.0
  3
*D34
  1

  0
LINE
  5
4A6
330
4A5
100
AcDbEntity
  8
1
  6
Continuous
 62
     2
100
AcDbLine
 10
223.863950476123
 20
541.7783321950305
 30
0.0
 11
223.863950476123
 21
433.2783321950306
 31
0.0
  0
LINE
  5
4A7
330
4A5
100
AcDbEntity
  8
1
  6
Continuous
 62
     2
100
AcDbLine
 10
275.3639504761235
 20
541.7783321950305
 30
0.0
 11
218.863950476123
 21
541.7783321950305
 31
0.0
  0
LINE
  5
4A8
330
4A5
100
AcDbEntity
  8
1
  6
Continuous
 62
     2
100
AcDbLine
 10
281.0139504761228
 20
433.2783321950306
 30
0.0
 11
218.863950476123
 21
433.2783321950306
 31
0.0
  0
SOLID
  5
4A9
330
4A5
100
AcDbEntity
  8
1
 62
     2
100
AcDbTrace
 10
226.1678691839024
 20
524.2783321950305
 30
0.0
 11
221.5600317683436
 21
524.2783321950305
 31
0.0
 12
223.863950476123
 22
541.7783321950305
 32
0.0
 13
223.863950476123
 23
541.7783321950305
 33
0.0
  0
SOLID
  5
4AA
330
4A5
100
AcDbEntity
  8
1
 62
     2
100
AcDbTrace
 10
221.5600317683436
 20
450.7783321950306
 30
0.0
 11
226.1678691839024
 21
450.7783321950306
 31
0.0
 12
223.863950476123
 22
433.2783321950306
 32
0.0
 13
223.863950476123
 23
433.2783321950306
 33
0.0
  0
MTEXT
  5
4AB
330
4A5
100
AcDbEntity
  8
1
 62
     7
100
AcDbMText
 10
218.863950476123
 20
469.1533321950306
 30
0.0
 40
17.5
 41
0.0
 71
     7
 72
     1
  1
109
  7
CONVERTER_12
 11
0.0
 21
1.0
 31
0.0
 73
     1
 44
0.60024009603842
  0
ENDBLK
  5
4AD
330
4A5
100
AcDbEntity
  8
0
100
AcDbBlockEnd
  0
BLOCK
  5
4B9
330
4B0
100
AcDbEntity
  8
0
100
AcDbBlockBegin
  2
*D35
 70
     1
 10
0.0
 20
0.0
 30
0.0
  3
*D35
  1

  0
LINE
  5
4B1
330
4B0
100
AcDbEntity
  8
1
  6
Continuous
 62
     2
100
AcDbLine
 10
601.8736258525612
 20
677.2953227067412
 30
0.0
 11
601.8736258525612
 21
614.984908258598
 31
0.0
  0
LINE
  5
4B2
330
4B0
100
AcDbEntity
  8
1
  6
Continuous
 62
     2
100
AcDbLine
 10
601.4821359717424
 20
677.3588944473706
 30
0.0
 11
577.4537815879138
 21
619.884024281813
 31
0.0
  0
LINE
  5
4B3
330
4B0
100
AcDbEntity
  8
1
  6
Continuous
 62
     2
100
AcDbLine
 10
601.8736258525612
 20
614.984908258598
 30
0.0
 11
601.8736258525612
 21
609.984908258598
 31
0.0
  0
LINE
  5
4B4
330
4B0
100
AcDbEntity
  8
1
  6
Continuous
 62
     2
100
AcDbLine
 10
577.4537815879138
 20
619.884024281813
 30
0.0
 11
575.5252012368367
 21
615.2709366141614
 31
0.0
  0
ARC
  5
4B5
330
4B0
100
AcDbEntity
  8
1
  6
Continuous
 62
     2
100
AcDbCircle
 10
601.8736258525612
 20
678.2953227067412
 30
0.0
 40
63.31041444814326
100
AcDbArc
 50
223.5556083829339
 51
325.1409310525432
  0
SOLID
  5
4B6
330
4B0
100
AcDbEntity
  8
1
 62
     2
100
AcDbTrace
 10
561.2188440227523
 20
626.8111336116391
 30
0.0
 11
563.5649039276001
 21
630.7770091229341
 31
0.0
 12
577.4537815879138
 22
619.884024281813
 32
0.0
 13
577.4537815879138
 23
619.884024281813
 33
0.0
  0
SOLID
  5
4B7
330
4B0
100
AcDbEntity
  8
1
 62
     2
100
AcDbTrace
 10
618.8893472088571
 20
619.6778037546591
 30
0.0
 11
619.5241612946023
 21
615.113904465152
 31
0.0
 12
601.8736258525612
 22
614.984908258598
 32
0.0
 13
601.8736258525612
 23
614.984908258598
 33
0.0
  0
MTEXT
  5
4B8
330
4B0
100
AcDbEntity
  8
1
 62
     7
100
AcDbMText
 10
614.2402849071493
 20
618.1477319242185
 30
0.0
 40
17.5
 41
0.0
 71
     7
 72
     1
  1
23{\Fgdt;~}
  7
CONVERTER_12
 11
0.8670012010541994
 21
0.4983060478968478
 31
0.0
 73
     1
 44
0.60024009603842
  0
ENDBLK
  5
4BA
330
4B0
100
AcDbEntity
  8
0
100
AcDbBlockEnd
  0
BLOCK
  5
4C6
330
4BD
100
AcDbEntity
  8
0
100
AcDbBlockBegin
  2
*D36
 70
     1
 10
0.0
 20
0.0
 30
0.0
  3
*D36
  1

  0
LINE
  5
4BE
330
4BD
100
AcDbEntity
  8
1
  6
Continuous
 62
     2
100
AcDbLine
 10
345.8639504761226
 20
1039.960654012072
 30
0.0
 11
345.8639504761226
 21
1034.960654012072
 31
0.0
  0
LINE
  5
4BF
330
4BD
100
AcDbEntity
  8
1
  6
Continuous
 62
     2
100
AcDbLine
 10
455.4655015600364
 20
1085.359102928156
 30
0.0
 11
459.0010354659691
 21
1081.823569022224
 31
0.0
  0
LINE
  5
4C0
330
4BD
100
AcDbEntity
  8
1
  6
Continuous
 62
     2
100
AcDbLine
 10
345.8639504761226
 20
1094.960654012071
 30
0.0
 11
345.8639504761226
 21
1039.960654012072
 31
0.0
  0
LINE
  5
4C1
330
4BD
100
AcDbEntity
  8
1
  6
Continuous
 62
     2
100
AcDbLine
 10
427.1812303125752
 20
1113.643374175618
 30
0.0
 11
455.4655015600364
 21
1085.359102928156
 31
0.0
  0
ARC
  5
4C2
330
4BD
100
AcDbEntity
  8
1
  6
Continuous
 62
     2
100
AcDbCircle
 10
345.8639504761226
 20
1194.960654012072
 30
0.0
 40
154.9999999999995
100
AcDbArc
 50
270.0
 51
314.9999999999996
  0
SOLID
  5
4C3
330
4BD
100
AcDbEntity
  8
1
 62
     2
100
AcDbTrace
 10
363.2060826559842
 20
1043.248281251932
 30
0.0
 11
363.466064374443
 21
1038.64778397943
 31
0.0
 12
345.8639504761226
 22
1039.960654012072
 32
0.0
 13
345.8639504761226
 23
1039.960654012072
 33
0.0
  0
SOLID
  5
4C4
330
4BD
100
AcDbEntity
  8
1
 62
     2
100
AcDbTrace
 10
443.9472667622129
 20
1071.984189524539
 30
0.0
 11
440.8780587801041
 21
1075.421067178862
 31
0.0
 12
455.4655015600364
 22
1085.359102928156
 32
0.0
 13
455.4655015600364
 23
1085.359102928156
 33
0.0
  0
MTEXT
  5
4C5
330
4BD
100
AcDbEntity
  8
1
 62
     7
100
AcDbMText
 10
385.4817843300441
 20
1049.012068062351
 30
0.0
 40
17.5
 41
0.0
 71
     7
 72
     1
  1
45{\Fgdt;~}
  7
CONVERTER_12
 11
0.9238795325112854
 21
0.382683432365093
 31
0.0
 73
     1
 44
0.60024009603842
  0
ENDBLK
  5
4C7
330
4BD
100
AcDbEntity
  8
0
100
AcDbBlockEnd
  0
BLOCK
  5
4D3
330
4CA
100
AcDbEntity
  8
0
100
AcDbBlockBegin
  2
*D37
 70
     1
 10
0.0
 20
0.0
 30
0.0
  3
*D37
  1

  0
LINE
  5
4CB
330
4CA
100
AcDbEntity
  8
1
  6
Continuous
 62
     2
100
AcDbLine
 10
236.2623993922085
 20
1085.359102928157
 30
0.0
 11
232.7268654862758
 21
1081.823569022224
 31
0.0
  0
LINE
  5
4CC
330
4CA
100
AcDbEntity
  8
1
  6
Continuous
 62
     2
100
AcDbLine
 10
345.8639504761226
 20
1039.960654012073
 30
0.0
 11
345.8639504761226
 21
1034.960654012073
 31
0.0
  0
LINE
  5
4CD
330
4CA
100
AcDbEntity
  8
1
  6
Continuous
 62
     2
100
AcDbLine
 10
264.5466706396696
 20
1113.643374175618
 30
0.0
 11
236.2623993922085
 21
1085.359102928157
 31
0.0
  0
LINE
  5
4CE
330
4CA
100
AcDbEntity
  8
1
  6
Continuous
 62
     2
100
AcDbLine
 10
345.8639504761226
 20
1094.960654012072
 30
0.0
 11
345.8639504761226
 21
1039.960654012073
 31
0.0
  0
ARC
  5
4CF
330
4CA
100
AcDbEntity
  8
1
  6
Continuous
 62
     2
100
AcDbCircle
 10
345.8639504761226
 20
1194.960654012073
 30
0.0
 40
155.0
100
AcDbArc
 50
225.0000000000004
 51
270.0
  0
SOLID
  5
4D0
330
4CA
100
AcDbEntity
  8
1
 62
     2
100
AcDbTrace
 10
250.8498421721408
 20
1075.421067178862
 30
0.0
 11
247.7806341900319
 21
1071.984189524539
 31
0.0
 12
236.2623993922085
 22
1085.359102928157
 32
0.0
 13
236.2623993922085
 23
1085.359102928157
 33
0.0
  0
SOLID
  5
4D1
330
4CA
100
AcDbEntity
  8
1
 62
     2
100
AcDbTrace
 10
328.2618365778021
 20
1038.647783979431
 30
0.0
 11
328.521818296261
 21
1043.248281251932
 31
0.0
 12
345.8639504761226
 22
1039.960654012073
 32
0.0
 13
345.8639504761226
 23
1039.960654012073
 33
0.0
  0
MTEXT
  5
4D2
330
4CA
100
AcDbEntity
  8
1
 62
     7
100
AcDbMText
 10
270.6767546205176
 20
1063.745380208407
 30
0.0
 40
17.5
 41
0.0
 71
     7
 72
     1
  1
45{\Fgdt;~}
  7
CONVERTER_12
 11
0.9238795325112891
 21
-0.3826834323650843
 31
0.0
 73
     1
 44
0.60024009603842
  0
ENDBLK
  5
4D4
330
4CA
100
AcDbEntity
  8
0
100
AcDbBlockEnd
  0
ENDSEC
  0
SECTION
  2
ENTITIES
  0
INSERT
  5
89
330
1F
100
AcDbEntity
  8
0
100
AcDbBlockReference
  2
61-88
 10
-31.17965621211883
 20
1031.019027038844
 30
0.0
 41
1.0
 42
1.0
 43
1.0
  0
INSERT
  5
8A
330
1F
100
AcDbEntity
  8
0
100
AcDbBlockReference
  2
50-11
 10
549.171696059523
 20
769.5465998838685
 30
0.0
 41
1.0
 42
1.0
 43
1.0
  0
INSERT
  5
8B
330
1F
100
AcDbEntity
  8
0
100
AcDbBlockReference
  2
98-107A
 10
430.0525687572541
 20
577.2453224235926
 30
0.0
 41
1.0
 42
1.0
 43
1.0
  0
INSERT
  5
8C
330
1F
100
AcDbEntity
  8
0
100
AcDbBlockReference
  2
70-16
 10
540.443895341528
 20
499.6399986061268
 30
0.0
 41
1.0
 42
1.0
 43
1.0
  0
INSERT
  5
8D
330
1F
100
AcDbEntity
  8
0
100
AcDbBlockReference
  2
35-276__1
 10
384.4639504761226
 20
432.8503162308073
 30
0.0
 41
1.0
 42
1.0
 43
1.0
  0
INSERT
  5
8E
330
1F
100
AcDbEntity
  8
0
100
AcDbBlockReference
  2
92-53A
 10
-0.95259734304827
 20
339.0943354875502
 30
0.0
 41
1.0
 42
1.0
 43
1.0
  0
INSERT
  5
8F
330
1F
100
AcDbEntity
  8
0
100
AcDbBlockReference
  2
73-1-21_5
 10
99.58876906766274
 20
538.1654607305718
 30
0.0
 41
1.0
 42
1.0
 43
1.0
  0
INSERT
  5
90
330
1F
100
AcDbEntity
  8
0
100
AcDbBlockReference
  2
32-25
 10
207.180893781212
 20
486.8557556058934
 30
0.0
 41
1.0
 42
1.0
 43
1.0
  0
INSERT
  5
91
330
1F
100
AcDbEntity
  8
0
100
AcDbBlockReference
  2
01-110
 10
829.025546349102
 20
483.6377472716159
 30
0.0
 41
1.0
 42
1.0
 43
1.0
  0
INSERT
  5
92
330
1F
100
AcDbEntity
  8
1
100
AcDbBlockReference
  2
開示A4
 10
0.0
 20
0.0
 30
0.0
 41
5.0
 42
5.0
 43
5.0
  0
INSERT
  5
93
330
1F
100
AcDbEntity
  8
0
100
AcDbBlockReference
  2
82-20-M21
 10
445.5180746425181
 20
676.1901394943507
 30
0.0
 41
1.0
 42
1.0
 43
1.0
  0
INSERT
  5
94
330
1F
100
AcDbEntity
  8
1
100
AcDbBlockReference
  2
88-546A-M21
 10
2408.350680209257
 20
2291.409999756499
 30
0.0
 41
1.0
 42
1.0
 43
1.0
  0
INSERT
  5
95
330
1F
100
AcDbEntity
  8
1
100
AcDbBlockReference
  2
87-163A-M21
 10
3239.914153234306
 20
2260.409999756499
 30
0.0
 41
1.0
 42
1.0
 43
1.0
  0
INSERT
  5
96
330
1F
100
AcDbEntity
  8
1
100
AcDbBlockReference
  2
V872FE__3
 10
204.2873649720033
 20
3322.218627885286
 30
0.0
 41
1.0
 42
1.0
 43
1.0
  0
INSERT
  5
97
330
1F
100
AcDbEntity
  8
1
100
AcDbBlockReference
  2
V872FE__5
 10
993.5
 20
7491.832338129497
 30
0.0
 41
1.0
 42
1.0
 43
1.0
  0
INSERT
  5
98
330
1F
100
AcDbEntity
  8
0
100
AcDbBlockReference
  2
32-16__6
 10
160.2403665383586
 20
1883.940889385973
 30
0.0
 41
1.0
 42
1.0
 43
1.0
  0
INSERT
  5
99
330
1F
100
AcDbEntity
  8
0
100
AcDbBlockReference
  2
32-16__7
 10
363.2403665383586
 20
1883.940889385973
 30
0.0
 41
1.0
 42
1.0
 43
1.0
  0
INSERT
  5
9A
330
1F
100
AcDbEntity
  8
1
100
AcDbBlockReference
  2
35-276__8
 10
284.3864504761231
 20
488.2783321950308
 30
0.0
 41
1.0
 42
1.0
 43
1.0
  0
LINE
  5
3DB
330
1F
100
AcDbEntity
  8
1
  6
DASH_CENTER
 62
     2
100
AcDbLine
 10
781.9184932048429
 20
648.4594088339204
 30
0.0
 11
795.0619211449789
 21
676.6455810107595
 31
0.0
  0
LINE
  5
3DC
330
1F
100
AcDbEntity
  8
1
  6
DASH_CENTER
 62
     2
100
AcDbLine
 10
345.8639504761231
 20
730.7783321950299
 30
0.0
 11
345.8639504761231
 21
523.7783321950305
 31
0.0
  0
LINE
  5
3DD
330
1F
100
AcDbEntity
  8
1
  6
DASH_CENTER
 62
     2
100
AcDbLine
 10
345.8639504761225
 20
989.1125041638311
 30
0.0
 11
345.8639504761225
 21
1094.960654012071
 31
0.0
  0
LINE
  5
3DE
330
1F
100
AcDbEntity
  8
1
  6
DASH_CENTER
 62
     2
100
AcDbLine
 10
258.8639504761223
 20
1194.960654012071
 30
0.0
 11
432.8639504761226
 21
1194.960654012071
 31
0.0
  0
LINE
  5
3DF
330
1F
100
AcDbEntity
  8
1
  6
DASH_CENTER
 62
     2
100
AcDbLine
 10
335.2573487583254
 20
1205.567255729869
 30
0.0
 11
427.1812303125751
 21
1113.643374175618
 31
0.0
  0
LINE
  5
3E0
330
1F
100
AcDbEntity
  8
1
  6
DASH_CENTER
 62
     2
100
AcDbLine
 10
356.4705521939192
 20
1205.567255729869
 30
0.0
 11
264.5466706396695
 21
1113.643374175618
 31
0.0
  0
LINE
  5
3E1
330
1F
100
AcDbEntity
  8
1
  6
DASH_CENTER
 62
     2
100
AcDbLine
 10
322.7798664477232
 20
678.2953227067412
 30
0.0
 11
368.8919784855895
 21
678.2953227067411
 31
0.0
  0
LINE
  5
3E2
330
1F
100
AcDbEntity
  8
1
  6
DASH_CENTER
 62
     2
100
AcDbLine
 10
601.8736258525612
 20
678.2953227067412
 30
0.0
 11
601.8736258525612
 21
677.2953227067412
 31
0.0
  0
LINE
  5
3E3
330
1F
100
AcDbEntity
  8
1
  6
Continuous
 62
     2
100
AcDbLine
 10
273.0
 20
1085.440786663846
 30
0.0
 11
320.8639504761225
 21
1085.440786663846
 31
0.0
  0
LINE
  5
3E4
330
1F
100
AcDbEntity
  8
1
  6
DASH_CENTER
 62
     2
100
AcDbLine
 10
396.8639504761229
 20
410.7783321950299
 30
0.0
 11
396.8639504761229
 21
467.2101224289241
 31
0.0
  0
LINE
  5
3E5
330
1F
100
AcDbEntity
  8
1
  6
DASH_CENTER
 62
     2
100
AcDbLine
 10
294.8639504761234
 20
467.2101224289241
 30
0.0
 11
294.8639504761226
 21
410.7783321950299
 31
0.0
  0
LINE
  5
3E6
330
1F
100
AcDbEntity
  8
1
  6
Continuous
 62
     2
100
AcDbLine
 10
373.0
 20
1085.440786663846
 30
0.0
 11
420.0
 21
1085.440786663846
 31
0.0
  0
LINE
  5
3E7
330
1F
100
AcDbEntity
  8
1
  6
Continuous
 62
     2
100
AcDbLine
 10
613.6354350852027
 20
712.5148047080445
 30
0.0
 11
663.0
 21
712.5148047080445
 31
0.0
  0
LINE
  5
3E8
330
1F
100
AcDbEntity
  8
1
  6
Continuous
 62
     2
100
AcDbLine
 10
707.0
 20
781.9714795679386
 30
0.0
 11
755.0
 21
781.9714795679386
 31
0.0
  0
LINE
  5
3E9
330
1F
100
AcDbEntity
  8
1
  6
DASH_CENTER
 62
     2
100
AcDbLine
 10
783.1863479900651
 20
639.6065424861154
 30
0.0
 11
783.1863479900651
 21
698.9109316817472
 31
0.0
  0
LINE
  5
3EA
330
1F
100
AcDbEntity
  8
0
  6
CENTER_DASH_DASH
 62
     2
100
AcDbLine
 10
813.0564457504452
 20
524.2783321950303
 30
0.0
 11
801.6863479900651
 21
524.2783321950303
 31
0.0
  0
LINE
  5
3EB
330
1F
100
AcDbEntity
  8
0
  6
CENTER_DASH_DASH
 62
     2
100
AcDbLine
 10
755.8639504761231
 20
538.7783321950305
 30
0.0
 11
758.1863479900651
 21
538.7783321950305
 31
0.0
  0
LINE
  5
3EC
330
1F
100
AcDbEntity
  8
1
  6
DASH_CENTER
 62
     2
100
AcDbLine
 10
783.1863479900651
 20
423.2783321950296
 30
0.0
 11
783.1863479900651
 21
639.6065424861154
 31
0.0
  0
LINE
  5
3ED
330
1F
100
AcDbEntity
  8
1
  6
DASH_CENTER
 62
     2
100
AcDbLine
 10
294.8639504761234
 20
467.2101224289241
 30
0.0
 11
294.8639504761234
 21
546.3354133197237
 31
0.0
  0
LINE
  5
3EE
330
1F
100
AcDbEntity
  8
1
  6
DASH_CENTER
 62
     2
100
AcDbLine
 10
396.8639504761229
 20
467.2101224289241
 30
0.0
 11
396.8639504761229
 21
547.7783321950305
 31
0.0
  0
LINE
  5
3EF
330
1F
100
AcDbEntity
  8
1
  6
DASH_CENTER
 62
     2
100
AcDbLine
 10
593.0890149193899
 20
708.035019396146
 30
0.0
 11
652.0847423802328
 21
683.3710969754521
 31
0.0
  0
LINE
  5
3F0
330
1F
100
AcDbEntity
  8
1
  6
DASH_CENTER
 62
     2
100
AcDbLine
 10
608.574072734867
 20
694.3225257544423
 30
0.0
 11
601.8736258525612
 21
678.2953227067412
 31
0.0
  0
LINE
  5
3F1
330
1F
100
AcDbEntity
  8
1
  6
DASH_CENTER
 62
     2
100
AcDbLine
 10
601.8736258525612
 20
678.2953227067412
 30
0.0
 11
601.4821359717424
 21
677.3588944473706
 31
0.0
  0
LINE
  5
3F2
330
1F
100
AcDbEntity
  8
0
  6
CENTER_DASH_DASH
 62
     2
100
AcDbLine
 10
764.6863479900651
 20
524.2783321950303
 30
0.0
 11
755.8639504761231
 21
524.2783321950303
 31
0.0
  0
LINE
  5
3F3
330
1F
100
AcDbEntity
  8
0
  6
CENTER_DASH_DASH
 62
     2
100
AcDbLine
 10
808.1863479900651
 20
538.7783321950305
 30
0.0
 11
813.0564457504452
 21
538.7783321950305
 31
0.0
  0
LINE
  5
3F4
330
1F
100
AcDbEntity
  8
0
  6
CENTER_DASH_DASH
 62
     2
100
AcDbLine
 10
415.3639504761229
 20
538.7783321950305
 30
0.0
 11
422.4926339740739
 21
538.7783321950305
 31
0.0
  0
LINE
  5
3F5
330
1F
100
AcDbEntity
  8
0
  6
CENTER_DASH_DASH
 62
     2
100
AcDbLine
 10
415.3639504761234
 20
524.2783321950303
 30
0.0
 11
422.4926339740739
 21
524.2783321950303
 31
0.0
  0
LINE
  5
3F6
330
1F
100
AcDbEntity
  8
0
  6
CENTER_DASH_DASH
 62
     2
100
AcDbLine
 10
313.3639504761229
 20
524.2783321950303
 30
0.0
 11
378.3639504761234
 21
524.2783321950303
 31
0.0
  0
LINE
  5
3F7
330
1F
100
AcDbEntity
  8
0
  6
CENTER_DASH_DASH
 62
     2
100
AcDbLine
 10
276.363950476123
 20
538.7783321950305
 30
0.0
 11
262.6912507712171
 21
538.7783321950305
 31
0.0
  0
LINE
  5
3F8
330
1F
100
AcDbEntity
  8
0
  6
CENTER_DASH_DASH
 62
     2
100
AcDbLine
 10
276.3639504761228
 20
524.2783321950303
 30
0.0
 11
262.6912507712171
 21
524.2783321950303
 31
0.0
  0
LINE
  5
3F9
330
1F
100
AcDbEntity
  8
1
  6
DASH_CENTER
 62
     2
100
AcDbLine
 10
345.8639504761225
 20
1094.960654012071
 30
0.0
 11
345.8639504761225
 21
1237.460654012071
 31
0.0
  0
ARC
  5
3FA
330
1F
100
AcDbEntity
  8
1
  6
Continuous
 62
     2
100
AcDbCircle
 10
720.2462784244447
 20
716.7900464839607
 30
0.0
 40
54.00000000000004
100
AcDbArc
 50
110.2958566546951
 51
145.3710818509287
  0
ARC
  5
3FB
330
1F
100
AcDbEntity
  8
1
  6
DASH_CENTER
 62
     2
100
AcDbCircle
 10
519.6506489141789
 20
424.8146023986877
 30
0.0
 40
290.5000000000003
100
AcDbArc
 50
33.71930529068717
 51
62.87821943117569
  0
SOLID
  5
401
330
1F
100
AcDbEntity
  8
1
 62
     2
100
AcDbTrace
 10
733.2343906427512
 20
504.921372624149
 30
0.0
 11
729.2438863843688
 21
507.2252913319285
 31
0.0
 12
739.9891385135602
 22
521.2287765442663
 32
0.0
 13
739.9891385135602
 23
521.2287765442663
 33
0.0
  0
LEADER
  5
402
330
1F
100
AcDbEntity
  8
1
  6
Continuous
 62
     2
100
AcDbLeader
  3
Standard
 71
     0
 76
     3
 10
739.9891385135602
 20
521.2287765442663
 30
0.0
 10
714.8912008938244
 20
477.7578734216897
 30
0.0
 10
590.2606527451896
 20
477.7578734216897
 30
0.0
  0
SOLID
  5
403
330
1F
100
AcDbEntity
  8
1
 62
     2
100
AcDbTrace
 10
765.9541001192557
 20
478.4653977831671
 30
0.0
 11
761.9635958608733
 21
480.7693164909466
 31
0.0
 12
772.7088479900647
 22
494.7728017032845
 32
0.0
 13
772.7088479900647
 23
494.7728017032845
 33
0.0
  0
LEADER
  5
404
330
1F
100
AcDbEntity
  8
1
  6
Continuous
 62
     2
100
AcDbLeader
  3
Standard
 71
     0
 76
     3
 10
772.7088479900647
 20
494.7728017032845
 30
0.0
 10
726.0113323133276
 20
413.8903319639314
 30
0.0
 10
647.6049812836513
 20
413.8903319639314
 30
0.0
  0
SOLID
  5
405
330
1F
100
AcDbEntity
  8
1
 62
     2
100
AcDbTrace
 10
379.7592026053143
 20
427.9707763891939
 30
0.0
 11
375.768698346932
 21
430.2746950969733
 31
0.0
 12
386.5139504761233
 22
444.2781803093112
 32
0.0
 13
386.5139504761233
 23
444.2781803093112
 33
0.0
  0
LEADER
  5
406
330
1F
100
AcDbEntity
  8
1
  6
Continuous
 62
     2
100
AcDbLeader
  3
Standard
 71
     0
 76
     3
 10
386.5139504761233
 20
444.2781803093112
 30
0.0
 10
370.5104548412994
 20
416.5593127710894
 30
0.0
 10
317.604166286479
 20
416.5593127710894
 30
0.0
  0
SOLID
  5
407
330
1F
100
AcDbEntity
  8
1
 62
     2
100
AcDbTrace
 10
676.2524611204667
 20
751.6955426905247
 30
0.0
 11
679.8869331808277
 21
748.8630917217206
 31
0.0
 12
667.3123966029538
 22
736.476039156087
 32
0.0
 13
667.3123966029538
 23
736.476039156087
 33
0.0
  0
LEADER
  5
408
330
1F
100
AcDbEntity
  8
1
  6
Continuous
 62
     2
100
AcDbLeader
  3
Standard
 71
     0
 76
     2
 10
667.3123966029538
 20
736.476039156087
 30
0.0
 10
671.135590896821
 20
741.3817879211781
 30
0.0
  0
SOLID
  5
409
330
1F
100
AcDbEntity
  8
1
 62
     2
100
AcDbTrace
 10
702.696731568938
 20
766.8475839849292
 30
0.0
 11
700.7196380304893
 21
771.0097068553462
 31
0.0
 12
717.5154157550322
 22
776.4374036080952
 32
0.0
 13
717.5154157550322
 23
776.4374036080952
 33
0.0
  0
LEADER
  5
40A
330
1F
100
AcDbEntity
  8
1
  6
Continuous
 62
     2
100
AcDbLeader
  3
Standard
 71
     0
 76
     2
 10
717.5154157550322
 20
776.4374036080952
 30
0.0
 10
708.8217551016972
 20
772.307736887936
 30
0.0
  0
MTEXT
  5
40C
330
1F
100
AcDbEntity
  8
1
 62
     7
100
AcDbMText
 10
170.0
 20
187.5
 30
0.0
 40
17.5
 41
0.0
 71
     4
 72
     1
  1
JIS
  7
CONVERTER_12
 73
     1
 44
0.90036014405762
  0
MTEXT
  5
40D
330
1F
100
AcDbEntity
  8
1
 62
     7
100
AcDbMText
 10
170.0
 20
152.5
 30
0.0
 40
17.5
 41
0.0
 71
     4
 72
     1
  1
吐水口は回転式(120{\Fgdt;~})
  7
CONVERTER_11
 73
     1
 44
0.68181818181818
  0
MTEXT
  5
40E
330
1F
100
AcDbEntity
  8
1
 62
     7
100
AcDbMText
 10
468.75
 20
85.0
 30
0.0
 40
17.5
 41
0.0
 71
     5
 72
     1
  1
5
  7
CONVERTER_12
 73
     1
 44
0.7202881152461
  0
MTEXT
  5
40F
330
1F
100
AcDbEntity
  8
1
 62
     7
100
AcDbMText
 10
426.25
 20
85.0
 30
0.0
 40
17.5
 41
0.0
 71
     5
 72
     1
  1
1
  7
CONVERTER_12
 73
     1
 44
0.7202881152461
  0
MTEXT
  5
410
330
1F
100
AcDbEntity
  8
1
 62
     7
100
AcDbMText
 10
652.575926819507
 20
492.7578734216896
 30
0.0
 40
17.5
 41
0.0
 71
     5
 72
     1
  1
取付穴径
  7
CONVERTER_11
 73
     1
 44
0.54545454545455
  0
MTEXT
  5
411
330
1F
100
AcDbEntity
  8
1
 62
     7
100
AcDbMText
 10
652.6712407079419
 20
462.7578734216897
 30
0.0
 40
17.5
 41
0.0
 71
     5
 72
     1
  1
{\Fgdt;n}23～{\Fgdt;n}27
  7
CONVERTER_11
 73
     1
 44
0.54545454545455
  0
MTEXT
  5
412
330
1F
100
AcDbEntity
  8
0
 62
     7
100
AcDbMText
 10
295.9913489408926
 20
1100.440786663846
 30
0.0
 40
25.0
 41
0.0
 71
     5
 72
     1
  1
湯側
  7
CONVERTER_11
 73
     1
 44
1.0
  0
MTEXT
  5
413
330
1F
100
AcDbEntity
  8
0
 62
     7
100
AcDbMText
 10
343.7205982782447
 20
431.5593127710894
 30
0.0
 40
17.5
 41
0.0
 71
     5
 72
     1
  1
G1/2
  7
CONVERTER_12
 73
     1
 44
0.7202881152461
  0
MTEXT
  5
414
330
1F
100
AcDbEntity
  8
0
 62
     7
100
AcDbMText
 10
395.8639504761225
 20
1100.440786663846
 30
0.0
 40
25.0
 41
0.0
 71
     5
 72
     1
  1
水側
  7
CONVERTER_11
 73
     1
 44
1.0
  0
MTEXT
  5
415
330
1F
100
AcDbEntity
  8
0
 62
     7
100
AcDbMText
 10
638.1038272432096
 20
730.0148047080445
 30
0.0
 40
25.0
 41
0.0
 71
     5
 72
     1
  1
止水
  7
CONVERTER_11
 73
     1
 44
1.0
  0
MTEXT
  5
416
330
1F
100
AcDbEntity
  8
0
 62
     7
100
AcDbMText
 10
731.0513853589678
 20
799.4714795679386
 30
0.0
 40
25.0
 41
0.0
 71
     5
 72
     1
  1
吐水
  7
CONVERTER_11
 73
     1
 44
1.0
  0
MTEXT
  5
417
330
1F
100
AcDbEntity
  8
0
 62
     7
100
AcDbMText
 10
284.9999999999999
 20
71.25
 30
0.0
 40
17.5
 41
0.0
 71
     5
 72
     1
  1
K7761V-13
  7
CONVERTER_12
 73
     1
 44
1.32052821128451
  0
MTEXT
  5
418
330
1F
100
AcDbEntity
  8
0
 62
     7
100
AcDbMText
 10
285.0
 20
113.7500000000001
 30
0.0
 40
17.5
 41
0.0
 71
     5
 72
     1
  1
シングル台付混合栓
  7
CONVERTER_11
 73
     1
 44
1.0
  0
MTEXT
  5
419
330
1F
100
AcDbEntity
  8
0
 62
     7
100
AcDbMText
 10
686.8081567984894
 20
428.8903319639314
 30
0.0
 40
17.5
 41
0.0
 71
     5
 72
     1
  1
PJ1/2
  7
CONVERTER_12
 73
     1
 44
1.32052821128451
  0
MTEXT
  5
41A
330
1F
100
AcDbEntity
  8
1
 62
     7
100
AcDbMText
 10
672.4809067377792
 20
772.28466488925
 30
0.0
 40
25.0
 41
0.0
 71
     5
 72
     1
  1
25{\Fgdt;~}
  7
CONVERTER_12
 73
     1
 44
0.7202881152461
  0
DIMENSION
  5
427
330
1F
100
AcDbEntity
  8
1
100
AcDbDimension
  2
*D22
 10
783.1863479900651
 20
840.3430111677835
 30
0.0
 11
799.1253153578994
 21
854.0930111677835
 31
0.0
 70
    32
  1
32
 71
     5
 42
-1.0
 53
0.00013888888889
  3
ME10_DIM_10
100
AcDbAlignedDimension
 13
815.0642827257332
 23
662.6026908948369
 33
0.0
 14
783.1863479900651
 24
698.9109316817472
 34
0.0
100
AcDbRotatedDimension
  0
DIMENSION
  5
432
330
1F
100
AcDbEntity
  8
1
100
AcDbDimension
  2
*D23
 10
905.0642827257334
 20
750.3430111677835
 30
0.0
 11
891.3142827257334
 21
645.8264411489986
 31
0.0
 70
    32
  1
最大209
 71
     5
 42
-1.0
 53
90.0
  3
ME10_DIM_11
100
AcDbAlignedDimension
 13
809.178516336615
 23
541.7783321950307
 33
0.0
 14
722.2751566213326
 24
750.3430111677834
 34
0.0
 50
90.0
100
AcDbRotatedDimension
  0
DIMENSION
  5
43D
330
1F
100
AcDbEntity
  8
1
100
AcDbDimension
  2
*D24
 10
865.0642827257334
 20
715.7783321950301
 30
0.0
 11
851.3142827257334
 21
628.7733409833475
 31
0.0
 70
    32
  1
<>
 71
     5
 42
-1.0
 53
90.0
  3
ME10_DIM_12
100
AcDbAlignedDimension
 13
809.178516336615
 23
541.7783321950307
 33
0.0
 14
688.1863479900652
 24
715.77833219503
 34
0.0
 50
90.0
100
AcDbRotatedDimension
  0
DIMENSION
  5
448
330
1F
100
AcDbEntity
  8
1
100
AcDbDimension
  2
*D25
 10
783.1863479900651
 20
839.8745501029669
 30
0.0
 11
692.5299869213133
 21
853.6245501029669
 31
0.0
 70
    32
  1
181
 71
     5
 42
-1.0
 53
0.00013888888889
  3
ME10_DIM_13
100
AcDbAlignedDimension
 13
601.8736258525607
 23
678.2953227067411
 33
0.0
 14
783.1863479900651
 24
698.9109316817472
 34
0.0
100
AcDbRotatedDimension
  0
DIMENSION
  5
453
330
1F
100
AcDbEntity
  8
1
100
AcDbDimension
  2
*D26
 10
541.3520887892912
 20
541.7783321950308
 30
0.0
 11
527.6020887892912
 21
610.0368274508859
 31
0.0
 70
    32
  1
137
 71
     5
 42
-1.0
 53
90.0
  3
ME10_DIM_14
100
AcDbAlignedDimension
 13
601.8736258525607
 23
678.2953227067411
 33
0.0
 14
757.1941796435148
 24
541.7783321950307
 34
0.0
 50
90.0
100
AcDbRotatedDimension
  0
DIMENSION
  5
460
330
1F
100
AcDbEntity
  8
1
100
AcDbDimension
  2
*D27
 10
775.2281558476566
 20
506.7777156312509
 30
0.0
 11
901.2785205624127
 21
520.5277156312509
 31
0.0
 70
    33
  1
ロックナット対辺24
 71
     5
 42
-1.0
 52
120.0
 53
0.00013888888889
  3
ME10_DIM_15
100
AcDbAlignedDimension
 13
795.186347990065
 23
513.7783321950302
 33
0.0
 14
771.1863479900649
 24
513.7783321950302
 34
0.0
  0
DIMENSION
  5
46B
330
1F
100
AcDbEntity
  8
1
100
AcDbDimension
  2
*D28
 10
273.8639504761231
 20
335.7783321950299
 30
0.0
 11
345.8639504761231
 21
349.5283321950299
 31
0.0
 70
    32
  1
<>
 71
     5
 42
-1.0
 53
0.00013888888889
  3
ME10_DIM_16
100
AcDbAlignedDimension
 13
417.863950476123
 23
542.7783321950307
 33
0.0
 14
273.863950476123
 24
542.7783321950307
 34
0.0
100
AcDbRotatedDimension
  0
DIMENSION
  5
476
330
1F
100
AcDbEntity
  8
1
100
AcDbDimension
  2
*D29
 10
396.8639504761229
 20
375.7783321950299
 30
0.0
 11
345.8639504761229
 21
389.5283321950299
 31
0.0
 70
    32
  1
<>
 71
     5
 42
-1.0
 53
0.00013888888889
  3
ME10_DIM_17
100
AcDbAlignedDimension
 13
294.8639504761226
 23
410.7783321950299
 33
0.0
 14
396.8639504761229
 24
410.7783321950299
 34
0.0
100
AcDbRotatedDimension
  0
DIMENSION
  5
481
330
1F
100
AcDbEntity
  8
1
100
AcDbDimension
  2
*D30
 10
755.6863479900651
 20
375.7783321950299
 30
0.0
 11
783.1863479900653
 21
389.5283321950299
 31
0.0
 70
    32
  1
<>
 71
     5
 42
-1.0
 53
0.00013888888889
  3
ME10_DIM_18
100
AcDbAlignedDimension
 13
810.6863479900649
 23
542.7783321950304
 33
0.0
 14
755.6863479900649
 24
542.7783321950304
 34
0.0
100
AcDbRotatedDimension
  0
DIMENSION
  5
48E
330
1F
100
AcDbEntity
  8
1
100
AcDbDimension
  2
*D31
 10
467.863950476123
 20
538.7783321950305
 30
0.0
 11
454.113950476123
 21
446.105251592282
 31
0.0
 70
    32
  1
最大37最小5
 71
     5
 42
-1.0
 53
90.0
  3
ME10_DIM_19
100
AcDbAlignedDimension
 13
422.4926339740739
 23
524.2783321950303
 33
0.0
 14
422.4926339740739
 24
538.7783321950305
 34
0.0
 50
90.0
100
AcDbRotatedDimension
  0
DIMENSION
  5
499
330
1F
100
AcDbEntity
  8
1
100
AcDbDimension
  2
*D32
 10
269.8811944188253
 20
954.1125041638318
 30
0.0
 11
307.8725724474739
 21
967.8625041638318
 31
0.0
 70
    32
  1
76
 71
     5
 42
-1.0
 53
0.00013888888889
  3
ME10_DIM_20
100
AcDbAlignedDimension
 13
345.8639504761225
 23
989.1125041638311
 33
0.0
 14
269.8811944188253
 24
1136.977897954774
 34
0.0
100
AcDbRotatedDimension
  0
DIMENSION
  5
4A4
330
1F
100
AcDbEntity
  8
1
100
AcDbDimension
  2
*D33
 10
345.8639504761225
 20
954.1125041638318
 30
0.0
 11
383.8553285047709
 21
967.8625041638318
 31
0.0
 70
    32
  1
76
 71
     5
 42
-1.0
 53
0.00013888888889
  3
ME10_DIM_21
100
AcDbAlignedDimension
 13
421.8467065334192
 23
1136.977897954774
 33
0.0
 14
345.8639504761225
 24
989.1125041638311
 34
0.0
100
AcDbRotatedDimension
  0
DIMENSION
  5
4AF
330
1F
100
AcDbEntity
  8
1
100
AcDbDimension
  2
*D34
 10
223.863950476123
 20
541.7783321950305
 30
0.0
 11
210.113950476123
 21
487.5283321950306
 31
0.0
 70
    32
  1
109
 71
     5
 42
-1.0
 53
90.0
  3
ME10_DIM_22
100
AcDbAlignedDimension
 13
281.0139504761227
 23
433.2783321950306
 33
0.0
 14
275.3639504761234
 24
541.7783321950304
 34
0.0
 50
90.0
100
AcDbRotatedDimension
  0
DIMENSION
  5
4BC
330
1F
100
AcDbEntity
  8
1
100
AcDbDimension
  2
*D35
 10
589.4204120934692
 20
616.2217692023218
 30
0.0
 11
626.5698801083453
 21
635.3263838554572
 31
0.0
 70
    37
  1
23
 71
     5
 42
-1.0
  3
ME10_DIM_23
100
AcDb3PointAngularDimension
 13
601.4821359717424
 23
677.3588944473706
 33
0.0
 14
601.8736258525612
 24
677.2953227067412
 34
0.0
 15
601.8736258525612
 25
678.2953227067412
 35
0.0
  0
DIMENSION
  5
4C9
330
1F
100
AcDbEntity
  8
1
100
AcDbDimension
  2
*D36
 10
405.1798824927107
 20
1051.759326472823
 30
0.0
 11
399.9179852976918
 21
1064.462670044853
 31
0.0
 70
    37
  1
<>
 71
     5
 42
-1.0
  3
ME10_DIM_24
100
AcDb3PointAngularDimension
 13
345.8639504761225
 23
1094.960654012071
 33
0.0
 14
427.1812303125751
 24
1113.643374175618
 34
0.0
 15
345.8639504761226
 25
1194.960654012072
 35
0.0
  0
DIMENSION
  5
4D6
330
1F
100
AcDbEntity
  8
1
100
AcDbDimension
  2
*D37
 10
286.5480184595343
 20
1051.759326472823
 30
0.0
 11
291.8099156545544
 21
1064.462670044853
 31
0.0
 70
    37
  1
<>
 71
     5
 42
-1.0
  3
ME10_DIM_25
100
AcDb3PointAngularDimension
 13
264.5466706396695
 23
1113.643374175618
 33
0.0
 14
345.8639504761225
 24
1094.960654012071
 34
0.0
 15
345.8639504761226
 25
1194.960654012073
 35
0.0
  0
HATCH
  5
4D7
330
1F
100
AcDbEntity
  8
1
  6
Continuous
 62
     4
100
AcDbHatch
 10
0.0
 20
0.0
 30
0.0
210
0.0
220
0.0
230
1.0
  2
CUSTOM3
 70
     0
 71
     0
 91
        1
 92
        1
 93
        5
 72
     1
 10
262.6912507712171
 20
538.7783321950305
 11
284.613950476123
 21
538.7783321950305
 72
     1
 10
284.613950476123
 20
538.7783321950305
 11
284.6139504761235
 21
537.2783321950305
 72
     1
 10
284.6139504761235
 20
537.2783321950305
 11
284.3864504761233
 21
524.2783321950303
 72
     1
 10
284.3864504761233
 20
524.2783321950303
 11
262.6912507712171
 21
524.2783321950303
 72
     1
 10
262.6912507712171
 20
524.2783321950303
 11
262.6912507712171
 21
538.7783321950305
 97
        0
 75
     1
 76
     2
 52
45.0
 41
15.0
 77
     0
 78
     2
 53
45.0
 43
0.0
 44
0.0
 45
-21.21320343559642
 46
0.0000000000000017
 79
     0
 53
45.0
 43
3.535533905932737
 44
-3.535533905932737
 45
-21.21320343559642
 46
0.0000000000000017
 79
     0
 98
        1
 10
0.0
 20
0.0
  0
HATCH
  5
4D8
330
1F
100
AcDbEntity
  8
1
  6
Continuous
 62
     4
100
AcDbHatch
 10
0.0
 20
0.0
 30
0.0
210
0.0
220
0.0
230
1.0
  2
CUSTOM4
 70
     0
 71
     0
 91
        1
 92
        1
 93
        6
 72
     1
 10
305.113950476123
 20
538.7783321950305
 11
305.1139504761231
 21
537.2783321950305
 72
     1
 10
305.1139504761231
 20
537.2783321950305
 11
305.3414504761232
 21
524.2783321950303
 72
     1
 10
305.3414504761232
 20
524.2783321950303
 11
386.3864504761228
 21
524.2783321950303
 72
     1
 10
386.3864504761228
 20
524.2783321950303
 11
386.3864504761228
 21
537.2783321950305
 72
     1
 10
386.3864504761228
 20
537.2783321950305
 11
386.613950476123
 21
538.7783321950305
 72
     1
 10
386.613950476123
 20
538.7783321950305
 11
305.113950476123
 21
538.7783321950305
 97
        0
 75
     1
 76
     2
 52
45.0
 41
15.0
 77
     0
 78
     2
 53
45.0
 43
0.0
 44
0.0
 45
-21.21320343559642
 46
0.0000000000000017
 79
     0
 53
45.0
 43
3.535533905932737
 44
-3.535533905932737
 45
-21.21320343559642
 46
0.0000000000000017
 79
     0
 98
        1
 10
0.0
 20
0.0
  0
HATCH
  5
4D9
330
1F
100
AcDbEntity
  8
1
  6
Continuous
 62
     4
100
AcDbHatch
 10
0.0
 20
0.0
 30
0.0
210
0.0
220
0.0
230
1.0
  2
CUSTOM5
 70
     0
 71
     0
 91
        1
 92
        1
 93
        5
 72
     1
 10
422.4926339740739
 20
538.7783321950305
 11
407.113950476123
 21
538.7783321950305
 72
     1
 10
407.113950476123
 20
538.7783321950305
 11
407.1139504761227
 21
537.2783321950305
 72
     1
 10
407.1139504761227
 20
537.2783321950305
 11
407.3414504761229
 21
524.2783321950303
 72
     1
 10
407.3414504761229
 20
524.2783321950303
 11
422.4926339740739
 21
524.2783321950303
 72
     1
 10
422.4926339740739
 20
524.2783321950303
 11
422.4926339740739
 21
538.7783321950305
 97
        0
 75
     1
 76
     2
 52
45.0
 41
15.0
 77
     0
 78
     2
 53
45.0
 43
0.0
 44
0.0
 45
-21.21320343559642
 46
0.0000000000000017
 79
     0
 53
45.0
 43
3.535533905932737
 44
-3.535533905932737
 45
-21.21320343559642
 46
0.0000000000000017
 79
     0
 98
        1
 10
0.0
 20
0.0
  0
HATCH
  5
4DA
330
1F
100
AcDbEntity
  8
1
  6
Continuous
 62
     4
100
AcDbHatch
 10
0.0
 20
0.0
 30
0.0
210
0.0
220
0.0
230
1.0
  2
CUSTOM6
 70
     0
 71
     0
 91
        1
 92
        1
 93
        5
 72
     1
 10
755.8639504761231
 20
538.7783321950305
 11
755.8639504761231
 21
524.2783321950303
 72
     1
 10
755.8639504761231
 20
524.2783321950303
 11
772.7088479900647
 21
524.2783321950302
 72
     1
 10
772.7088479900647
 20
524.2783321950302
 11
772.7088479900652
 21
537.2783321950303
 72
     1
 10
772.7088479900652
 20
537.2783321950303
 11
772.9363479900651
 21
538.7783321950305
 72
     1
 10
772.9363479900651
 20
538.7783321950305
 11
755.8639504761231
 21
538.7783321950305
 97
        0
 75
     1
 76
     2
 52
45.0
 41
15.0
 77
     0
 78
     2
 53
45.0
 43
0.0
 44
0.0
 45
-21.21320343559642
 46
0.0000000000000017
 79
     0
 53
45.0
 43
3.535533905932737
 44
-3.535533905932737
 45
-21.21320343559642
 46
0.0000000000000017
 79
     0
 98
        1
 10
0.0
 20
0.0
  0
HATCH
  5
4DB
330
1F
100
AcDbEntity
  8
1
  6
Continuous
 62
     4
100
AcDbHatch
 10
0.0
 20
0.0
 30
0.0
210
0.0
220
0.0
230
1.0
  2
CUSTOM7
 70
     0
 71
     0
 91
        1
 92
        1
 93
        5
 72
     1
 10
793.4363479900651
 20
538.7783321950305
 11
793.4363479900649
 21
537.2783321950302
 72
     1
 10
793.4363479900649
 20
537.2783321950302
 11
793.6638479900649
 21
524.2783321950302
 72
     1
 10
793.6638479900649
 20
524.2783321950302
 11
813.0564457504452
 21
524.2783321950303
 72
     1
 10
813.0564457504452
 20
524.2783321950303
 11
813.0564457504452
 21
538.7783321950305
 72
     1
 10
813.0564457504452
 20
538.7783321950305
 11
793.4363479900651
 21
538.7783321950305
 97
        0
 75
     1
 76
     2
 52
45.0
 41
15.0
 77
     0
 78
     2
 53
45.0
 43
0.0
 44
0.0
 45
-21.21320343559642
 46
0.0000000000000017
 79
     0
 53
45.0
 43
3.535533905932737
 44
-3.535533905932737
 45
-21.21320343559642
 46
0.0000000000000017
 79
     0
 98
        1
 10
0.0
 20
0.0
  0
ENDSEC
  0
SECTION
  2
OBJECTS
  0
DICTIONARY
  5
C
330
0
100
AcDbDictionary
281
     1
  3
ACAD_GROUP
350
D
  3
ACAD_LAYOUT
350
1A
  3
ACAD_MATERIAL
350
3B
  3
ACAD_MLEADERSTYLE
350
4DE
  3
ACAD_MLINESTYLE
350
17
  3
ACAD_PLOTSETTINGS
350
19
  3
ACAD_PLOTSTYLENAME
350
E
  3
ACAD_VISUALSTYLE
350
2A
  3
AcDbVariableDictionary
350
4DC
  0
DICTIONARY
  5
D
102
{ACAD_REACTORS
330
C
102
}
330
C
100
AcDbDictionary
281
     1
  0
DICTIONARY
  5
1A
102
{ACAD_REACTORS
330
C
102
}
330
C
100
AcDbDictionary
281
     1
  3
Layout1
350
1E
  3
Layout2
350
26
  3
Model
350
22
  0
DICTIONARY
  5
3B
102
{ACAD_REACTORS
330
C
102
}
330
C
100
AcDbDictionary
281
     1
  3
ByBlock
350
3D
  3
ByLayer
350
3C
  3
Global
350
3E
  0
DICTIONARY
  5
4DE
102
{ACAD_REACTORS
330
C
102
}
330
C
100
AcDbDictionary
281
     1
  0
DICTIONARY
  5
17
102
{ACAD_REACTORS
330
C
102
}
330
C
100
AcDbDictionary
281
     1
  3
Standard
350
18
  0
DICTIONARY
  5
19
102
{ACAD_REACTORS
330
C
102
}
330
C
100
AcDbDictionary
281
     1
  0
ACDBDICTIONARYWDFLT
  5
E
102
{ACAD_REACTORS
330
C
102
}
330
C
100
AcDbDictionary
281
     1
  3
Normal
350
F
100
AcDbDictionaryWithDefault
340
F
  0
DICTIONARY
  5
2A
102
{ACAD_REACTORS
330
C
102
}
330
C
100
AcDbDictionary
281
     1
  3
2dWireframe
350
2F
  3
3D Hidden
350
31
  3
3dWireframe
350
30
  3
Basic
350
32
  3
Brighten
350
36
  3
ColorChange
350
3A
  3
Conceptual
350
34
  3
Dim
350
35
  3
Facepattern
350
39
  3
Flat
350
2B
  3
FlatWithEdges
350
2C
  3
Gouraud
350
2D
  3
GouraudWithEdges
350
2E
  3
Linepattern
350
38
  3
Realistic
350
33
  3
Thicken
350
37
  0
DICTIONARY
  5
4DC
102
{ACAD_REACTORS
330
C
102
}
330
C
100
AcDbDictionary
281
     1
  3
DIMASSOC
350
4DF
  3
HIDETEXT
350
4E0
  0
LAYOUT
  5
1E
102
{ACAD_REACTORS
330
1A
102
}
330
1A
100
AcDbPlotSettings
  1

  2
none_device
  4

  6

 40
0.0
 41
0.0
 42
0.0
 43
0.0
 44
0.0
 45
0.0
 46
0.0
 47
0.0
 48
0.0
 49
0.0
140
0.0
141
0.0
142
1.0
143
1.0
 70
   688
 72
     0
 73
     0
 74
     5
  7

 75
    16
147
1.0
148
0.0
149
0.0
100
AcDbLayout
  1
Layout1
 70
     1
 71
     1
 10
0.0
 20
0.0
 11
12.0
 21
9.0
 12
0.0
 22
0.0
 32
0.0
 14
1.00000000000000E+20
 24
1.00000000000000E+20
 34
1.00000000000000E+20
 15
-1.00000000000000E+20
 25
-1.00000000000000E+20
 35
-1.00000000000000E+20
146
0.0
 13
0.0
 23
0.0
 33
0.0
 16
1.0
 26
0.0
 36
0.0
 17
0.0
 27
1.0
 37
0.0
 76
     0
330
1B
  0
LAYOUT
  5
26
102
{ACAD_REACTORS
330
1A
102
}
330
1A
100
AcDbPlotSettings
  1

  2
none_device
  4

  6

 40
0.0
 41
0.0
 42
0.0
 43
0.0
 44
0.0
 45
0.0
 46
0.0
 47
0.0
 48
0.0
 49
0.0
140
0.0
141
0.0
142
1.0
143
1.0
 70
   688
 72
     0
 73
     0
 74
     5
  7

 75
    16
147
1.0
148
0.0
149
0.0
100
AcDbLayout
  1
Layout2
 70
     1
 71
     2
 10
0.0
 20
0.0
 11
0.0
 21
0.0
 12
0.0
 22
0.0
 32
0.0
 14
0.0
 24
0.0
 34
0.0
 15
0.0
 25
0.0
 35
0.0
146
0.0
 13
0.0
 23
0.0
 33
0.0
 16
1.0
 26
0.0
 36
0.0
 17
0.0
 27
1.0
 37
0.0
 76
     0
330
23
  0
LAYOUT
  5
22
102
{ACAD_REACTORS
330
1A
102
}
330
1A
100
AcDbPlotSettings
  1

  2
none_device
  4

  6

 40
0.0
 41
0.0
 42
0.0
 43
0.0
 44
0.0
 45
0.0
 46
0.0
 47
0.0
 48
0.0
 49
0.0
140
0.0
141
0.0
142
1.0
143
1.0
 70
  1712
 72
     0
 73
     0
 74
     0
  7

 75
     0
147
1.0
148
0.0
149
0.0
100
AcDbLayout
  1
Model
 70
     1
 71
     0
 10
0.0
 20
0.0
 11
12.0
 21
9.0
 12
0.0
 22
0.0
 32
0.0
 14
0.0
 24
0.0
 34
0.0
 15
1050.0
 25
1485.0
 35
0.0
146
0.0
 13
0.0
 23
0.0
 33
0.0
 16
1.0
 26
0.0
 36
0.0
 17
0.0
 27
1.0
 37
0.0
 76
     0
330
1F
331
29
  0
MATERIAL
  5
3D
102
{ACAD_REACTORS
330
3B
102
}
102
{ACAD_XDICTIONARY
360
503
102
}
330
3B
100
AcDbMaterial
  1
ByBlock
  0
MATERIAL
  5
3C
102
{ACAD_REACTORS
330
3B
102
}
102
{ACAD_XDICTIONARY
360
501
102
}
330
3B
100
AcDbMaterial
  1
ByLayer
  0
MATERIAL
  5
3E
102
{ACAD_REACTORS
330
3B
102
}
102
{ACAD_XDICTIONARY
360
505
102
}
330
3B
100
AcDbMaterial
  1
Global
  0
MLINESTYLE
  5
18
102
{ACAD_REACTORS
330
17
102
}
330
17
100
AcDbMlineStyle
  2
Standard
 70
     0
  3

 62
   256
 51
90.0
 52
90.0
 71
     2
 49
0.5
 62
   256
  6
BYLAYER
 49
-0.5
 62
   256
  6
BYLAYER
  0
ACDBPLACEHOLDER
  5
F
102
{ACAD_REACTORS
330
E
102
}
330
E
  0
VISUALSTYLE
  5
2F
102
{ACAD_REACTORS
330
2A
102
}
102
{ACAD_XDICTIONARY
360
4E9
102
}
330
2A
100
AcDbVisualStyle
  2
2dWireframe
 70
     4
 71
     0
 72
     2
 73
     0
 90
        0
 40
-0.6
 41
-30.0
 62
     5
 63
     7
 74
     1
 91
        4
 64
     7
 65
   257
 75
     1
175
     1
 42
1.0
 92
        0
 66
   257
 43
1.0
 76
     1
 77
     6
 78
     2
 67
     7
 79
     5
170
     0
171
     0
290
     0
174
     0
 93
        1
 44
0.0
173
     0
291
     0
 45
0.0
1001
ACAD
1000
AcDbSavedByObjectVersion
1070
     0
  0
VISUALSTYLE
  5
31
102
{ACAD_REACTORS
330
2A
102
}
102
{ACAD_XDICTIONARY
360
4ED
102
}
330
2A
100
AcDbVisualStyle
  2
3D Hidden
 70
     6
 71
     1
 72
     2
 73
     2
 90
        0
 40
-0.6
 41
-30.0
 62
     5
 63
     7
 74
     2
 91
        2
 64
     7
 65
   257
 75
     2
175
     1
 42
40.0
 92
        0
 66
   257
 43
1.0
 76
     1
 77
     6
 78
     2
 67
     7
 79
     3
170
     0
171
     0
290
     0
174
     0
 93
        1
 44
0.0
173
     0
291
     0
 45
0.0
1001
ACAD
1000
AcDbSavedByObjectVersion
1070
     0
  0
VISUALSTYLE
  5
30
102
{ACAD_REACTORS
330
2A
102
}
102
{ACAD_XDICTIONARY
360
4EB
102
}
330
2A
100
AcDbVisualStyle
  2
3dWireframe
 70
     5
 71
     0
 72
     2
 73
     0
 90
        0
 40
-0.6
 41
-30.0
 62
     5
 63
     7
 74
     1
 91
        4
 64
     7
 65
   257
 75
     1
175
     1
 42
1.0
 92
        0
 66
   257
 43
1.0
 76
     1
 77
     6
 78
     2
 67
     7
 79
     5
170
     0
171
     0
290
     0
174
     0
 93
        1
 44
0.0
173
     0
291
     0
 45
0.0
1001
ACAD
1000
AcDbSavedByObjectVersion
1070
     0
  0
VISUALSTYLE
  5
32
102
{ACAD_REACTORS
330
2A
102
}
102
{ACAD_XDICTIONARY
360
4EF
102
}
330
2A
100
AcDbVisualStyle
  2
Basic
 70
     7
 71
     1
 72
     0
 73
     1
 90
        0
 40
-0.6
 41
-30.0
 62
     5
 63
     7
 74
     0
 91
        4
 64
     7
 65
   257
 75
     1
175
     1
 42
1.0
 92
        8
 66
     7
 43
1.0
 76
     1
 77
     6
 78
     2
 67
     7
 79
     5
170
     0
171
     0
290
     0
174
     0
 93
        1
 44
0.0
173
     0
291
     1
 45
0.0
1001
ACAD
1000
AcDbSavedByObjectVersion
1070
     0
  0
VISUALSTYLE
  5
36
102
{ACAD_REACTORS
330
2A
102
}
102
{ACAD_XDICTIONARY
360
4F7
102
}
330
2A
100
AcDbVisualStyle
  2
Brighten
 70
    12
 71
     2
 72
     2
 73
     0
 90
        0
 40
-0.6
 41
-30.0
 62
     5
 63
     7
 74
     1
 91
        4
 64
     7
 65
   257
 75
     1
175
     1
 42
1.0
 92
        8
 66
     7
 43
1.0
 76
     1
 77
     6
 78
     2
 67
     7
 79
     5
170
     0
171
     0
290
     0
174
     0
 93
        1
 44
50.0
173
     0
291
     1
 45
0.0
1001
ACAD
1000
AcDbSavedByObjectVersion
1070
     0
  0
VISUALSTYLE
  5
3A
102
{ACAD_REACTORS
330
2A
102
}
102
{ACAD_XDICTIONARY
360
4FF
102
}
330
2A
100
AcDbVisualStyle
  2
ColorChange
 70
    16
 71
     2
 72
     2
 73
     3
 90
        0
 40
-0.6
 41
-30.0
 62
     5
 63
     8
 74
     1
 91
        4
 64
     7
 65
   257
 75
     1
175
     1
 42
1.0
 92
        8
 66
     8
 43
1.0
 76
     1
 77
     6
 78
     2
 67
     7
 79
     5
170
     0
171
     0
290
     0
174
     0
 93
        1
 44
0.0
173
     0
291
     1
 45
0.0
1001
ACAD
1000
AcDbSavedByObjectVersion
1070
     0
  0
VISUALSTYLE
  5
34
102
{ACAD_REACTORS
330
2A
102
}
102
{ACAD_XDICTIONARY
360
4F3
102
}
330
2A
100
AcDbVisualStyle
  2
Conceptual
 70
     9
 71
     3
 72
     2
 73
     0
 90
        0
 40
-0.6
 41
-30.0
 62
     5
 63
     7
 74
     2
 91
        2
 64
     7
 65
   257
 75
     1
175
     1
 42
40.0
 92
        8
 66
     7
 43
1.0
 76
     1
 77
     6
 78
     2
 67
     7
 79
     3
170
     0
171
     0
290
     0
174
     0
 93
        1
 44
0.0
173
     0
291
     0
 45
0.0
1001
ACAD
1000
AcDbSavedByObjectVersion
1070
     0
  0
VISUALSTYLE
  5
35
102
{ACAD_REACTORS
330
2A
102
}
102
{ACAD_XDICTIONARY
360
4F5
102
}
330
2A
100
AcDbVisualStyle
  2
Dim
 70
    11
 71
     2
 72
     2
 73
     0
 90
        0
 40
-0.6
 41
-30.0
 62
     5
 63
     7
 74
     1
 91
        4
 64
     7
 65
   257
 75
     1
175
     1
 42
1.0
 92
        8
 66
     7
 43
1.0
 76
     1
 77
     6
 78
     2
 67
     7
 79
     5
170
     0
171
     0
290
     0
174
     0
 93
        1
 44
-50.0
173
     0
291
     1
 45
0.0
1001
ACAD
1000
AcDbSavedByObjectVersion
1070
     0
  0
VISUALSTYLE
  5
39
102
{ACAD_REACTORS
330
2A
102
}
102
{ACAD_XDICTIONARY
360
4FD
102
}
330
2A
100
AcDbVisualStyle
  2
Facepattern
 70
    15
 71
     2
 72
     2
 73
     0
 90
        0
 40
-0.6
 41
-30.0
 62
     5
 63
     7
 74
     1
 91
        4
 64
     7
 65
   257
 75
     1
175
     1
 42
1.0
 92
        8
 66
     7
 43
1.0
 76
     1
 77
     6
 78
     2
 67
     7
 79
     5
170
     0
171
     0
290
     0
174
     0
 93
        1
 44
0.0
173
     0
291
     1
 45
0.0
1001
ACAD
1000
AcDbSavedByObjectVersion
1070
     0
  0
VISUALSTYLE
  5
2B
102
{ACAD_REACTORS
330
2A
102
}
102
{ACAD_XDICTIONARY
360
4E1
102
}
330
2A
100
AcDbVisualStyle
  2
Flat
 70
     0
 71
     2
 72
     1
 73
     1
 90
        2
 40
-0.6
 41
30.0
 62
     5
 63
     7
 74
     0
 91
        4
 64
     7
 65
   257
 75
     1
175
     1
 42
1.0
 92
        8
 66
     7
 43
1.0
 76
     1
 77
     6
 78
     2
 67
     7
 79
     5
170
     0
171
     0
290
     0
174
     0
 93
       13
 44
0.0
173
     0
291
     1
 45
0.0
1001
ACAD
1000
AcDbSavedByObjectVersion
1070
     0
  0
VISUALSTYLE
  5
2C
102
{ACAD_REACTORS
330
2A
102
}
102
{ACAD_XDICTIONARY
360
4E3
102
}
330
2A
100
AcDbVisualStyle
  2
FlatWithEdges
 70
     1
 71
     2
 72
     1
 73
     1
 90
        2
 40
-0.6
 41
30.0
 62
     5
 63
     7
 74
     1
 91
        4
 64
     7
 65
   257
 75
     1
175
     1
 42
1.0
 92
        0
 66
   257
 43
1.0
 76
     1
 77
     6
 78
     2
 67
     7
 79
     5
170
     0
171
     0
290
     0
174
     0
 93
       13
 44
0.0
173
     0
291
     1
 45
0.0
1001
ACAD
1000
AcDbSavedByObjectVersion
1070
     0
  0
VISUALSTYLE
  5
2D
102
{ACAD_REACTORS
330
2A
102
}
102
{ACAD_XDICTIONARY
360
4E5
102
}
330
2A
100
AcDbVisualStyle
  2
Gouraud
 70
     2
 71
     2
 72
     2
 73
     1
 90
        2
 40
-0.6
 41
30.0
 62
     5
 63
     7
 74
     0
 91
        4
 64
     7
 65
   257
 75
     1
175
     1
 42
1.0
 92
        0
 66
     7
 43
1.0
 76
     1
 77
     6
 78
     2
 67
     7
 79
     5
170
     0
171
     0
290
     0
174
     0
 93
       13
 44
0.0
173
     0
291
     1
 45
0.0
1001
ACAD
1000
AcDbSavedByObjectVersion
1070
     0
  0
VISUALSTYLE
  5
2E
102
{ACAD_REACTORS
330
2A
102
}
102
{ACAD_XDICTIONARY
360
4E7
102
}
330
2A
100
AcDbVisualStyle
  2
GouraudWithEdges
 70
     3
 71
     2
 72
     2
 73
     1
 90
        2
 40
-0.6
 41
30.0
 62
     5
 63
     7
 74
     1
 91
        4
 64
     7
 65
   257
 75
     1
175
     1
 42
1.0
 92
        0
 66
   257
 43
1.0
 76
     1
 77
     6
 78
     2
 67
     7
 79
     5
170
     0
171
     0
290
     0
174
     0
 93
       13
 44
0.0
173
     0
291
     1
 45
0.0
1001
ACAD
1000
AcDbSavedByObjectVersion
1070
     0
  0
VISUALSTYLE
  5
38
102
{ACAD_REACTORS
330
2A
102
}
102
{ACAD_XDICTIONARY
360
4FB
102
}
330
2A
100
AcDbVisualStyle
  2
Linepattern
 70
    14
 71
     2
 72
     2
 73
     0
 90
        0
 40
-0.6
 41
-30.0
 62
     5
 63
     7
 74
     1
 91
        4
 64
     7
 65
   257
 75
     7
175
     7
 42
1.0
 92
        8
 66
     7
 43
1.0
 76
     1
 77
     6
 78
     2
 67
     7
 79
     5
170
     0
171
     0
290
     0
174
     0
 93
        1
 44
0.0
173
     0
291
     1
 45
0.0
1001
ACAD
1000
AcDbSavedByObjectVersion
1070
     0
  0
VISUALSTYLE
  5
33
102
{ACAD_REACTORS
330
2A
102
}
102
{ACAD_XDICTIONARY
360
4F1
102
}
330
2A
100
AcDbVisualStyle
  2
Realistic
 70
     8
 71
     2
 72
     2
 73
     0
 90
        0
 40
-0.6
 41
-30.0
 62
     5
 63
     7
 74
     1
 91
        0
 64
     7
 65
   257
 75
     1
175
     1
 42
1.0
 92
        8
 66
     8
 43
1.0
 76
     1
 77
     6
 78
     2
 67
     7
 79
     5
170
     0
171
     0
290
     0
174
     0
 93
       13
 44
0.0
173
     0
291
     0
 45
0.0
1001
ACAD
1000
AcDbSavedByObjectVersion
1070
     0
  0
VISUALSTYLE
  5
37
102
{ACAD_REACTORS
330
2A
102
}
102
{ACAD_XDICTIONARY
360
4F9
102
}
330
2A
100
AcDbVisualStyle
  2
Thicken
 70
    13
 71
     2
 72
     2
 73
     0
 90
        0
 40
-0.6
 41
-30.0
 62
     5
 63
     7
 74
     1
 91
        4
 64
     7
 65
   257
 75
     1
175
     1
 42
1.0
 92
       12
 66
     7
 43
1.0
 76
     1
 77
     6
 78
     2
 67
     7
 79
     5
170
     0
171
     0
290
     0
174
     0
 93
        1
 44
0.0
173
     0
291
     1
 45
0.0
1001
ACAD
1000
AcDbSavedByObjectVersion
1070
     0
  0
DICTIONARYVAR
  5
4DF
102
{ACAD_REACTORS
330
4DC
102
}
330
4DC
100
DictionaryVariables
280
     0
  1
2
  0
DICTIONARYVAR
  5
4E0
102
{ACAD_REACTORS
330
4DC
102
}
330
4DC
100
DictionaryVariables
280
     0
  1
1
  0
DICTIONARY
  5
503
330
3D
100
AcDbDictionary
280
     1
281
     1
  3
ACAD_XREC_ROUNDTRIP
360
504
  0
DICTIONARY
  5
501
330
3C
100
AcDbDictionary
280
     1
281
     1
  3
ACAD_XREC_ROUNDTRIP
360
502
  0
DICTIONARY
  5
505
330
3E
100
AcDbDictionary
280
     1
281
     1
  3
ACAD_XREC_ROUNDTRIP
360
506
  0
DICTIONARY
  5
4E9
330
2F
100
AcDbDictionary
280
     1
281
     1
  3
ACAD_XREC_ROUNDTRIP
360
4EA
  0
DICTIONARY
  5
4ED
330
31
100
AcDbDictionary
280
     1
281
     1
  3
ACAD_XREC_ROUNDTRIP
360
4EE
  0
DICTIONARY
  5
4EB
330
30
100
AcDbDictionary
280
     1
281
     1
  3
ACAD_XREC_ROUNDTRIP
360
4EC
  0
DICTIONARY
  5
4EF
330
32
100
AcDbDictionary
280
     1
281
     1
  3
ACAD_XREC_ROUNDTRIP
360
4F0
  0
DICTIONARY
  5
4F7
330
36
100
AcDbDictionary
280
     1
281
     1
  3
ACAD_XREC_ROUNDTRIP
360
4F8
  0
DICTIONARY
  5
4FF
330
3A
100
AcDbDictionary
280
     1
281
     1
  3
ACAD_XREC_ROUNDTRIP
360
500
  0
DICTIONARY
  5
4F3
330
34
100
AcDbDictionary
280
     1
281
     1
  3
ACAD_XREC_ROUNDTRIP
360
4F4
  0
DICTIONARY
  5
4F5
330
35
100
AcDbDictionary
280
     1
281
     1
  3
ACAD_XREC_ROUNDTRIP
360
4F6
  0
DICTIONARY
  5
4FD
330
39
100
AcDbDictionary
280
     1
281
     1
  3
ACAD_XREC_ROUNDTRIP
360
4FE
  0
DICTIONARY
  5
4E1
330
2B
100
AcDbDictionary
280
     1
281
     1
  3
ACAD_XREC_ROUNDTRIP
360
4E2
  0
DICTIONARY
  5
4E3
330
2C
100
AcDbDictionary
280
     1
281
     1
  3
ACAD_XREC_ROUNDTRIP
360
4E4
  0
DICTIONARY
  5
4E5
330
2D
100
AcDbDictionary
280
     1
281
     1
  3
ACAD_XREC_ROUNDTRIP
360
4E6
  0
DICTIONARY
  5
4E7
330
2E
100
AcDbDictionary
280
     1
281
     1
  3
ACAD_XREC_ROUNDTRIP
360
4E8
  0
DICTIONARY
  5
4FB
330
38
100
AcDbDictionary
280
     1
281
     1
  3
ACAD_XREC_ROUNDTRIP
360
4FC
  0
DICTIONARY
  5
4F1
330
33
100
AcDbDictionary
280
     1
281
     1
  3
ACAD_XREC_ROUNDTRIP
360
4F2
  0
DICTIONARY
  5
4F9
330
37
100
AcDbDictionary
280
     1
281
     1
  3
ACAD_XREC_ROUNDTRIP
360
4FA
  0
XRECORD
  5
504
102
{ACAD_REACTORS
330
503
102
}
330
503
100
AcDbXrecord
280
     1
102
MATERIAL
148
0.0
149
0.0
149
0.0
 93
        0
 94
      127
282
     0
 72
     1
 77
     1
171
     1
175
     1
179
     1
273
     0
  0
XRECORD
  5
502
102
{ACAD_REACTORS
330
501
102
}
330
501
100
AcDbXrecord
280
     1
102
MATERIAL
148
0.0
149
0.0
149
0.0
 93
        0
 94
      127
282
     0
 72
     1
 77
     1
171
     1
175
     1
179
     1
273
     0
  0
XRECORD
  5
506
102
{ACAD_REACTORS
330
505
102
}
330
505
100
AcDbXrecord
280
     1
102
MATERIAL
148
0.0
149
0.0
149
0.0
 93
        0
 94
      127
282
     0
 72
     1
 77
     1
171
     1
175
     1
179
     1
273
     0
  0
XRECORD
  5
4EA
102
{ACAD_REACTORS
330
4E9
102
}
330
4E9
100
AcDbXrecord
280
     1
102
RTVSPropertyOp0
 70
     1
102
RTVSPropertyOp1
 70
     1
102
RTVSPropertyOp2
 70
     1
102
RTVSPropertyOp3
 70
     1
102
RTVSPropertyOp4
 70
     1
102
RTVSPropertyOp5
 70
     1
102
RTVSPropertyOp6
 70
     1
102
RTVSPropertyOp7
 70
     1
102
RTVSPropertyOp8
 70
     1
102
RTVSPropertyOp9
 70
     1
102
RTVSPropertyOp10
 70
     1
102
RTVSPropertyOp11
 70
     1
102
RTVSPropertyOp12
 70
     1
102
RTVSPropertyOp13
 70
     1
102
RTVSPropertyOp14
 70
     1
102
RTVSPropertyOp15
 70
     1
102
RTVSPropertyOp16
 70
     1
102
RTVSPropertyOp17
 70
     1
102
RTVSPropertyOp18
 70
     1
102
RTVSPropertyOp19
 70
     1
102
RTVSPropertyOp20
 70
     1
102
RTVSPropertyOp21
 70
     1
102
RTVSPropertyOp22
 70
     1
102
RTVSPropertyOp23
 70
     1
102
RTVSPropertyOp24
 70
     1
102
RTVSPropertyOp25
 70
     1
102
RTVSPropertyOp26
 70
     1
102
RTVSPropertyOp27
 70
     1
102
RTVSPropertyOp28
 70
     1
102
RTVSPropertyOp29
 70
     1
102
RTVSPropertyOp30
 70
     1
102
RTVSPropertyOp31
 70
     1
102
RTVSPropertyOp32
 70
     1
  0
XRECORD
  5
4EE
102
{ACAD_REACTORS
330
4ED
102
}
330
4ED
100
AcDbXrecord
280
     1
102
RTVSPropertyOp0
 70
     1
102
RTVSPropertyOp1
 70
     1
102
RTVSPropertyOp2
 70
     1
102
RTVSPropertyOp3
 70
     1
102
RTVSPropertyOp4
 70
     1
102
RTVSPropertyOp5
 70
     1
102
RTVSPropertyOp6
 70
     1
102
RTVSPropertyOp7
 70
     1
102
RTVSPropertyOp8
 70
     1
102
RTVSPropertyOp9
 70
     1
102
RTVSPropertyOp10
 70
     1
102
RTVSPropertyOp11
 70
     1
102
RTVSPropertyOp12
 70
     1
102
RTVSPropertyOp13
 70
     1
102
RTVSPropertyOp14
 70
     1
102
RTVSPropertyOp15
 70
     1
102
RTVSPropertyOp16
 70
     1
102
RTVSPropertyOp17
 70
     1
102
RTVSPropertyOp18
 70
     1
102
RTVSPropertyOp19
 70
     1
102
RTVSPropertyOp20
 70
     1
102
RTVSPropertyOp21
 70
     1
102
RTVSPropertyOp22
 70
     1
102
RTVSPropertyOp23
 70
     1
102
RTVSPropertyOp24
 70
     1
102
RTVSPropertyOp25
 70
     1
102
RTVSPropertyOp26
 70
     1
102
RTVSPropertyOp27
 70
     1
102
RTVSPropertyOp28
 70
     1
102
RTVSPropertyOp29
 70
     1
102
RTVSPropertyOp30
 70
     1
102
RTVSPropertyOp31
 70
     1
102
RTVSPropertyOp32
 70
     1
  0
XRECORD
  5
4EC
102
{ACAD_REACTORS
330
4EB
102
}
330
4EB
100
AcDbXrecord
280
     1
102
RTVSPropertyOp0
 70
     1
102
RTVSPropertyOp1
 70
     1
102
RTVSPropertyOp2
 70
     1
102
RTVSPropertyOp3
 70
     1
102
RTVSPropertyOp4
 70
     1
102
RTVSPropertyOp5
 70
     1
102
RTVSPropertyOp6
 70
     1
102
RTVSPropertyOp7
 70
     1
102
RTVSPropertyOp8
 70
     1
102
RTVSPropertyOp9
 70
     1
102
RTVSPropertyOp10
 70
     1
102
RTVSPropertyOp11
 70
     1
102
RTVSPropertyOp12
 70
     1
102
RTVSPropertyOp13
 70
     1
102
RTVSPropertyOp14
 70
     1
102
RTVSPropertyOp15
 70
     1
102
RTVSPropertyOp16
 70
     1
102
RTVSPropertyOp17
 70
     1
102
RTVSPropertyOp18
 70
     1
102
RTVSPropertyOp19
 70
     1
102
RTVSPropertyOp20
 70
     1
102
RTVSPropertyOp21
 70
     1
102
RTVSPropertyOp22
 70
     1
102
RTVSPropertyOp23
 70
     1
102
RTVSPropertyOp24
 70
     1
102
RTVSPropertyOp25
 70
     1
102
RTVSPropertyOp26
 70
     1
102
RTVSPropertyOp27
 70
     1
102
RTVSPropertyOp28
 70
     1
102
RTVSPropertyOp29
 70
     1
102
RTVSPropertyOp30
 70
     1
102
RTVSPropertyOp31
 70
     1
102
RTVSPropertyOp32
 70
     1
  0
XRECORD
  5
4F0
102
{ACAD_REACTORS
330
4EF
102
}
330
4EF
100
AcDbXrecord
280
     1
102
RTVSPropertyOp0
 70
     1
102
RTVSPropertyOp1
 70
     1
102
RTVSPropertyOp2
 70
     1
102
RTVSPropertyOp3
 70
     1
102
RTVSPropertyOp4
 70
     1
102
RTVSPropertyOp5
 70
     1
102
RTVSPropertyOp6
 70
     1
102
RTVSPropertyOp7
 70
     1
102
RTVSPropertyOp8
 70
     1
102
RTVSPropertyOp9
 70
     1
102
RTVSPropertyOp10
 70
     1
102
RTVSPropertyOp11
 70
     1
102
RTVSPropertyOp12
 70
     1
102
RTVSPropertyOp13
 70
     1
102
RTVSPropertyOp14
 70
     1
102
RTVSPropertyOp15
 70
     1
102
RTVSPropertyOp16
 70
     1
102
RTVSPropertyOp17
 70
     1
102
RTVSPropertyOp18
 70
     1
102
RTVSPropertyOp19
 70
     1
102
RTVSPropertyOp20
 70
     1
102
RTVSPropertyOp21
 70
     1
102
RTVSPropertyOp22
 70
     1
102
RTVSPropertyOp23
 70
     1
102
RTVSPropertyOp24
 70
     1
102
RTVSPropertyOp25
 70
     1
102
RTVSPropertyOp26
 70
     1
102
RTVSPropertyOp27
 70
     1
102
RTVSPropertyOp28
 70
     1
102
RTVSPropertyOp29
 70
     1
102
RTVSPropertyOp30
 70
     1
102
RTVSPropertyOp31
 70
     1
102
RTVSPropertyOp32
 70
     1
  0
XRECORD
  5
4F8
102
{ACAD_REACTORS
330
4F7
102
}
330
4F7
100
AcDbXrecord
280
     1
102
RTVSPropertyOp0
 70
     1
102
RTVSPropertyOp1
 70
     1
102
RTVSPropertyOp2
 70
     1
102
RTVSPropertyOp3
 70
     1
102
RTVSPropertyOp4
 70
     1
102
RTVSPropertyOp5
 70
     1
102
RTVSPropertyOp6
 70
     1
102
RTVSPropertyOp7
 70
     1
102
RTVSPropertyOp8
 70
     1
102
RTVSPropertyOp9
 70
     1
102
RTVSPropertyOp10
 70
     1
102
RTVSPropertyOp11
 70
     1
102
RTVSPropertyOp12
 70
     1
102
RTVSPropertyOp13
 70
     1
102
RTVSPropertyOp14
 70
     1
102
RTVSPropertyOp15
 70
     1
102
RTVSPropertyOp16
 70
     1
102
RTVSPropertyOp17
 70
     1
102
RTVSPropertyOp18
 70
     1
102
RTVSPropertyOp19
 70
     1
102
RTVSPropertyOp20
 70
     1
102
RTVSPropertyOp21
 70
     1
102
RTVSPropertyOp22
 70
     1
102
RTVSPropertyOp23
 70
     1
102
RTVSPropertyOp24
 70
     1
102
RTVSPropertyOp25
 70
     1
102
RTVSPropertyOp26
 70
     1
102
RTVSPropertyOp27
 70
     1
102
RTVSPropertyOp28
 70
     1
102
RTVSPropertyOp29
 70
     1
102
RTVSPropertyOp30
 70
     1
102
RTVSPropertyOp31
 70
     1
102
RTVSPropertyOp32
 70
     1
  0
XRECORD
  5
500
102
{ACAD_REACTORS
330
4FF
102
}
330
4FF
100
AcDbXrecord
280
     1
102
RTVSPropertyOp0
 70
     1
102
RTVSPropertyOp1
 70
     1
102
RTVSPropertyOp2
 70
     1
102
RTVSPropertyOp3
 70
     1
102
RTVSPropertyOp4
 70
     1
102
RTVSPropertyOp5
 70
     1
102
RTVSPropertyOp6
 70
     1
102
RTVSPropertyOp7
 70
     1
102
RTVSPropertyOp8
 70
     1
102
RTVSPropertyOp9
 70
     1
102
RTVSPropertyOp10
 70
     1
102
RTVSPropertyOp11
 70
     1
102
RTVSPropertyOp12
 70
     1
102
RTVSPropertyOp13
 70
     1
102
RTVSPropertyOp14
 70
     1
102
RTVSPropertyOp15
 70
     1
102
RTVSPropertyOp16
 70
     1
102
RTVSPropertyOp17
 70
     1
102
RTVSPropertyOp18
 70
     1
102
RTVSPropertyOp19
 70
     1
102
RTVSPropertyOp20
 70
     1
102
RTVSPropertyOp21
 70
     1
102
RTVSPropertyOp22
 70
     1
102
RTVSPropertyOp23
 70
     1
102
RTVSPropertyOp24
 70
     1
102
RTVSPropertyOp25
 70
     1
102
RTVSPropertyOp26
 70
     1
102
RTVSPropertyOp27
 70
     1
102
RTVSPropertyOp28
 70
     1
102
RTVSPropertyOp29
 70
     1
102
RTVSPropertyOp30
 70
     1
102
RTVSPropertyOp31
 70
     1
102
RTVSPropertyOp32
 70
     1
  0
XRECORD
  5
4F4
102
{ACAD_REACTORS
330
4F3
102
}
330
4F3
100
AcDbXrecord
280
     1
102
RTVSPropertyOp0
 70
     1
102
RTVSPropertyOp1
 70
     1
102
RTVSPropertyOp2
 70
     1
102
RTVSPropertyOp3
 70
     1
102
RTVSPropertyOp4
 70
     1
102
RTVSPropertyOp5
 70
     1
102
RTVSPropertyOp6
 70
     1
102
RTVSPropertyOp7
 70
     1
102
RTVSPropertyOp8
 70
     1
102
RTVSPropertyOp9
 70
     1
102
RTVSPropertyOp10
 70
     1
102
RTVSPropertyOp11
 70
     1
102
RTVSPropertyOp12
 70
     1
102
RTVSPropertyOp13
 70
     1
102
RTVSPropertyOp14
 70
     1
102
RTVSPropertyOp15
 70
     1
102
RTVSPropertyOp16
 70
     1
102
RTVSPropertyOp17
 70
     1
102
RTVSPropertyOp18
 70
     1
102
RTVSPropertyOp19
 70
     1
102
RTVSPropertyOp20
 70
     1
102
RTVSPropertyOp21
 70
     1
102
RTVSPropertyOp22
 70
     1
102
RTVSPropertyOp23
 70
     1
102
RTVSPropertyOp24
 70
     1
102
RTVSPropertyOp25
 70
     1
102
RTVSPropertyOp26
 70
     1
102
RTVSPropertyOp27
 70
     1
102
RTVSPropertyOp28
 70
     1
102
RTVSPropertyOp29
 70
     1
102
RTVSPropertyOp30
 70
     1
102
RTVSPropertyOp31
 70
     1
102
RTVSPropertyOp32
 70
     1
  0
XRECORD
  5
4F6
102
{ACAD_REACTORS
330
4F5
102
}
330
4F5
100
AcDbXrecord
280
     1
102
RTVSPropertyOp0
 70
     1
102
RTVSPropertyOp1
 70
     1
102
RTVSPropertyOp2
 70
     1
102
RTVSPropertyOp3
 70
     1
102
RTVSPropertyOp4
 70
     1
102
RTVSPropertyOp5
 70
     1
102
RTVSPropertyOp6
 70
     1
102
RTVSPropertyOp7
 70
     1
102
RTVSPropertyOp8
 70
     1
102
RTVSPropertyOp9
 70
     1
102
RTVSPropertyOp10
 70
     1
102
RTVSPropertyOp11
 70
     1
102
RTVSPropertyOp12
 70
     1
102
RTVSPropertyOp13
 70
     1
102
RTVSPropertyOp14
 70
     1
102
RTVSPropertyOp15
 70
     1
102
RTVSPropertyOp16
 70
     1
102
RTVSPropertyOp17
 70
     1
102
RTVSPropertyOp18
 70
     1
102
RTVSPropertyOp19
 70
     1
102
RTVSPropertyOp20
 70
     1
102
RTVSPropertyOp21
 70
     1
102
RTVSPropertyOp22
 70
     1
102
RTVSPropertyOp23
 70
     1
102
RTVSPropertyOp24
 70
     1
102
RTVSPropertyOp25
 70
     1
102
RTVSPropertyOp26
 70
     1
102
RTVSPropertyOp27
 70
     1
102
RTVSPropertyOp28
 70
     1
102
RTVSPropertyOp29
 70
     1
102
RTVSPropertyOp30
 70
     1
102
RTVSPropertyOp31
 70
     1
102
RTVSPropertyOp32
 70
     1
  0
XRECORD
  5
4FE
102
{ACAD_REACTORS
330
4FD
102
}
330
4FD
100
AcDbXrecord
280
     1
102
RTVSPropertyOp0
 70
     1
102
RTVSPropertyOp1
 70
     1
102
RTVSPropertyOp2
 70
     1
102
RTVSPropertyOp3
 70
     1
102
RTVSPropertyOp4
 70
     1
102
RTVSPropertyOp5
 70
     1
102
RTVSPropertyOp6
 70
     1
102
RTVSPropertyOp7
 70
     1
102
RTVSPropertyOp8
 70
     1
102
RTVSPropertyOp9
 70
     1
102
RTVSPropertyOp10
 70
     1
102
RTVSPropertyOp11
 70
     1
102
RTVSPropertyOp12
 70
     1
102
RTVSPropertyOp13
 70
     1
102
RTVSPropertyOp14
 70
     1
102
RTVSPropertyOp15
 70
     1
102
RTVSPropertyOp16
 70
     1
102
RTVSPropertyOp17
 70
     1
102
RTVSPropertyOp18
 70
     1
102
RTVSPropertyOp19
 70
     1
102
RTVSPropertyOp20
 70
     1
102
RTVSPropertyOp21
 70
     1
102
RTVSPropertyOp22
 70
     1
102
RTVSPropertyOp23
 70
     1
102
RTVSPropertyOp24
 70
     1
102
RTVSPropertyOp25
 70
     1
102
RTVSPropertyOp26
 70
     1
102
RTVSPropertyOp27
 70
     1
102
RTVSPropertyOp28
 70
     1
102
RTVSPropertyOp29
 70
     1
102
RTVSPropertyOp30
 70
     1
102
RTVSPropertyOp31
 70
     1
102
RTVSPropertyOp32
 70
     1
  0
XRECORD
  5
4E2
102
{ACAD_REACTORS
330
4E1
102
}
330
4E1
100
AcDbXrecord
280
     1
102
RTVSPropertyOp0
 70
     1
102
RTVSPropertyOp1
 70
     1
102
RTVSPropertyOp2
 70
     1
102
RTVSPropertyOp3
 70
     1
102
RTVSPropertyOp4
 70
     1
102
RTVSPropertyOp5
 70
     1
102
RTVSPropertyOp6
 70
     1
102
RTVSPropertyOp7
 70
     1
102
RTVSPropertyOp8
 70
     1
102
RTVSPropertyOp9
 70
     1
102
RTVSPropertyOp10
 70
     1
102
RTVSPropertyOp11
 70
     1
102
RTVSPropertyOp12
 70
     1
102
RTVSPropertyOp13
 70
     1
102
RTVSPropertyOp14
 70
     1
102
RTVSPropertyOp15
 70
     1
102
RTVSPropertyOp16
 70
     1
102
RTVSPropertyOp17
 70
     1
102
RTVSPropertyOp18
 70
     1
102
RTVSPropertyOp19
 70
     1
102
RTVSPropertyOp20
 70
     1
102
RTVSPropertyOp21
 70
     1
102
RTVSPropertyOp22
 70
     1
102
RTVSPropertyOp23
 70
     1
102
RTVSPropertyOp24
 70
     1
102
RTVSPropertyOp25
 70
     1
102
RTVSPropertyOp26
 70
     1
102
RTVSPropertyOp27
 70
     1
102
RTVSPropertyOp28
 70
     1
102
RTVSPropertyOp29
 70
     1
102
RTVSPropertyOp30
 70
     1
102
RTVSPropertyOp31
 70
     1
102
RTVSPropertyOp32
 70
     1
  0
XRECORD
  5
4E4
102
{ACAD_REACTORS
330
4E3
102
}
330
4E3
100
AcDbXrecord
280
     1
102
RTVSPropertyOp0
 70
     1
102
RTVSPropertyOp1
 70
     1
102
RTVSPropertyOp2
 70
     1
102
RTVSPropertyOp3
 70
     1
102
RTVSPropertyOp4
 70
     1
102
RTVSPropertyOp5
 70
     1
102
RTVSPropertyOp6
 70
     1
102
RTVSPropertyOp7
 70
     1
102
RTVSPropertyOp8
 70
     1
102
RTVSPropertyOp9
 70
     1
102
RTVSPropertyOp10
 70
     1
102
RTVSPropertyOp11
 70
     1
102
RTVSPropertyOp12
 70
     1
102
RTVSPropertyOp13
 70
     1
102
RTVSPropertyOp14
 70
     1
102
RTVSPropertyOp15
 70
     1
102
RTVSPropertyOp16
 70
     1
102
RTVSPropertyOp17
 70
     1
102
RTVSPropertyOp18
 70
     1
102
RTVSPropertyOp19
 70
     1
102
RTVSPropertyOp20
 70
     1
102
RTVSPropertyOp21
 70
     1
102
RTVSPropertyOp22
 70
     1
102
RTVSPropertyOp23
 70
     1
102
RTVSPropertyOp24
 70
     1
102
RTVSPropertyOp25
 70
     1
102
RTVSPropertyOp26
 70
     1
102
RTVSPropertyOp27
 70
     1
102
RTVSPropertyOp28
 70
     1
102
RTVSPropertyOp29
 70
     1
102
RTVSPropertyOp30
 70
     1
102
RTVSPropertyOp31
 70
     1
102
RTVSPropertyOp32
 70
     1
  0
XRECORD
  5
4E6
102
{ACAD_REACTORS
330
4E5
102
}
330
4E5
100
AcDbXrecord
280
     1
102
RTVSPropertyOp0
 70
     1
102
RTVSPropertyOp1
 70
     1
102
RTVSPropertyOp2
 70
     1
102
RTVSPropertyOp3
 70
     1
102
RTVSPropertyOp4
 70
     1
102
RTVSPropertyOp5
 70
     1
102
RTVSPropertyOp6
 70
     1
102
RTVSPropertyOp7
 70
     1
102
RTVSPropertyOp8
 70
     1
102
RTVSPropertyOp9
 70
     1
102
RTVSPropertyOp10
 70
     1
102
RTVSPropertyOp11
 70
     1
102
RTVSPropertyOp12
 70
     1
102
RTVSPropertyOp13
 70
     1
102
RTVSPropertyOp14
 70
     1
102
RTVSPropertyOp15
 70
     1
102
RTVSPropertyOp16
 70
     1
102
RTVSPropertyOp17
 70
     1
102
RTVSPropertyOp18
 70
     1
102
RTVSPropertyOp19
 70
     1
102
RTVSPropertyOp20
 70
     1
102
RTVSPropertyOp21
 70
     1
102
RTVSPropertyOp22
 70
     1
102
RTVSPropertyOp23
 70
     1
102
RTVSPropertyOp24
 70
     1
102
RTVSPropertyOp25
 70
     1
102
RTVSPropertyOp26
 70
     1
102
RTVSPropertyOp27
 70
     1
102
RTVSPropertyOp28
 70
     1
102
RTVSPropertyOp29
 70
     1
102
RTVSPropertyOp30
 70
     1
102
RTVSPropertyOp31
 70
     1
102
RTVSPropertyOp32
 70
     1
  0
XRECORD
  5
4E8
102
{ACAD_REACTORS
330
4E7
102
}
330
4E7
100
AcDbXrecord
280
     1
102
RTVSPropertyOp0
 70
     1
102
RTVSPropertyOp1
 70
     1
102
RTVSPropertyOp2
 70
     1
102
RTVSPropertyOp3
 70
     1
102
RTVSPropertyOp4
 70
     1
102
RTVSPropertyOp5
 70
     1
102
RTVSPropertyOp6
 70
     1
102
RTVSPropertyOp7
 70
     1
102
RTVSPropertyOp8
 70
     1
102
RTVSPropertyOp9
 70
     1
102
RTVSPropertyOp10
 70
     1
102
RTVSPropertyOp11
 70
     1
102
RTVSPropertyOp12
 70
     1
102
RTVSPropertyOp13
 70
     1
102
RTVSPropertyOp14
 70
     1
102
RTVSPropertyOp15
 70
     1
102
RTVSPropertyOp16
 70
     1
102
RTVSPropertyOp17
 70
     1
102
RTVSPropertyOp18
 70
     1
102
RTVSPropertyOp19
 70
     1
102
RTVSPropertyOp20
 70
     1
102
RTVSPropertyOp21
 70
     1
102
RTVSPropertyOp22
 70
     1
102
RTVSPropertyOp23
 70
     1
102
RTVSPropertyOp24
 70
     1
102
RTVSPropertyOp25
 70
     1
102
RTVSPropertyOp26
 70
     1
102
RTVSPropertyOp27
 70
     1
102
RTVSPropertyOp28
 70
     1
102
RTVSPropertyOp29
 70
     1
102
RTVSPropertyOp30
 70
     1
102
RTVSPropertyOp31
 70
     1
102
RTVSPropertyOp32
 70
     1
  0
XRECORD
  5
4FC
102
{ACAD_REACTORS
330
4FB
102
}
330
4FB
100
AcDbXrecord
280
     1
102
RTVSPropertyOp0
 70
     1
102
RTVSPropertyOp1
 70
     1
102
RTVSPropertyOp2
 70
     1
102
RTVSPropertyOp3
 70
     1
102
RTVSPropertyOp4
 70
     1
102
RTVSPropertyOp5
 70
     1
102
RTVSPropertyOp6
 70
     1
102
RTVSPropertyOp7
 70
     1
102
RTVSPropertyOp8
 70
     1
102
RTVSPropertyOp9
 70
     1
102
RTVSPropertyOp10
 70
     1
102
RTVSPropertyOp11
 70
     1
102
RTVSPropertyOp12
 70
     1
102
RTVSPropertyOp13
 70
     1
102
RTVSPropertyOp14
 70
     1
102
RTVSPropertyOp15
 70
     1
102
RTVSPropertyOp16
 70
     1
102
RTVSPropertyOp17
 70
     1
102
RTVSPropertyOp18
 70
     1
102
RTVSPropertyOp19
 70
     1
102
RTVSPropertyOp20
 70
     1
102
RTVSPropertyOp21
 70
     1
102
RTVSPropertyOp22
 70
     1
102
RTVSPropertyOp23
 70
     1
102
RTVSPropertyOp24
 70
     1
102
RTVSPropertyOp25
 70
     1
102
RTVSPropertyOp26
 70
     1
102
RTVSPropertyOp27
 70
     1
102
RTVSPropertyOp28
 70
     1
102
RTVSPropertyOp29
 70
     1
102
RTVSPropertyOp30
 70
     1
102
RTVSPropertyOp31
 70
     1
102
RTVSPropertyOp32
 70
     1
  0
XRECORD
  5
4F2
102
{ACAD_REACTORS
330
4F1
102
}
330
4F1
100
AcDbXrecord
280
     1
102
RTVSPropertyOp0
 70
     1
102
RTVSPropertyOp1
 70
     1
102
RTVSPropertyOp2
 70
     1
102
RTVSPropertyOp3
 70
     1
102
RTVSPropertyOp4
 70
     1
102
RTVSPropertyOp5
 70
     1
102
RTVSPropertyOp6
 70
     1
102
RTVSPropertyOp7
 70
     1
102
RTVSPropertyOp8
 70
     1
102
RTVSPropertyOp9
 70
     1
102
RTVSPropertyOp10
 70
     1
102
RTVSPropertyOp11
 70
     1
102
RTVSPropertyOp12
 70
     1
102
RTVSPropertyOp13
 70
     1
102
RTVSPropertyOp14
 70
     1
102
RTVSPropertyOp15
 70
     1
102
RTVSPropertyOp16
 70
     1
102
RTVSPropertyOp17
 70
     1
102
RTVSPropertyOp18
 70
     1
102
RTVSPropertyOp19
 70
     1
102
RTVSPropertyOp20
 70
     1
102
RTVSPropertyOp21
 70
     1
102
RTVSPropertyOp22
 70
     1
102
RTVSPropertyOp23
 70
     1
102
RTVSPropertyOp24
 70
     1
102
RTVSPropertyOp25
 70
     1
102
RTVSPropertyOp26
 70
     1
102
RTVSPropertyOp27
 70
     1
102
RTVSPropertyOp28
 70
     1
102
RTVSPropertyOp29
 70
     1
102
RTVSPropertyOp30
 70
     1
102
RTVSPropertyOp31
 70
     1
102
RTVSPropertyOp32
 70
     1
  0
XRECORD
  5
4FA
102
{ACAD_REACTORS
330
4F9
102
}
330
4F9
100
AcDbXrecord
280
     1
102
RTVSPropertyOp0
 70
     1
102
RTVSPropertyOp1
 70
     1
102
RTVSPropertyOp2
 70
     1
102
RTVSPropertyOp3
 70
     1
102
RTVSPropertyOp4
 70
     1
102
RTVSPropertyOp5
 70
     1
102
RTVSPropertyOp6
 70
     1
102
RTVSPropertyOp7
 70
     1
102
RTVSPropertyOp8
 70
     1
102
RTVSPropertyOp9
 70
     1
102
RTVSPropertyOp10
 70
     1
102
RTVSPropertyOp11
 70
     1
102
RTVSPropertyOp12
 70
     1
102
RTVSPropertyOp13
 70
     1
102
RTVSPropertyOp14
 70
     1
102
RTVSPropertyOp15
 70
     1
102
RTVSPropertyOp16
 70
     1
102
RTVSPropertyOp17
 70
     1
102
RTVSPropertyOp18
 70
     1
102
RTVSPropertyOp19
 70
     1
102
RTVSPropertyOp20
 70
     1
102
RTVSPropertyOp21
 70
     1
102
RTVSPropertyOp22
 70
     1
102
RTVSPropertyOp23
 70
     1
102
RTVSPropertyOp24
 70
     1
102
RTVSPropertyOp25
 70
     1
102
RTVSPropertyOp26
 70
     1
102
RTVSPropertyOp27
 70
     1
102
RTVSPropertyOp28
 70
     1
102
RTVSPropertyOp29
 70
     1
102
RTVSPropertyOp30
 70
     1
102
RTVSPropertyOp31
 70
     1
102
RTVSPropertyOp32
 70
     1
  0
ENDSEC
  0
EOF
