  0
SECTION
  2
HEADER
  9
$ACADVER
  1
AC1015
  9
$ACADMAINTVER
 70
     6
  9
$DWGCODEPAGE
  3
ANSI_932
  9
$INSBASE
 10
0.0
 20
0.0
 30
0.0
  9
$EXTMIN
 10
0.0
 20
0.00000000000001
 30
0.0
  9
$EXTMAX
 10
210.0000000000001
 20
297.0000000000001
 30
0.0
  9
$LIMMIN
 10
0.0
 20
0.0
  9
$LIMMAX
 10
12.0
 20
9.0
  9
$ORTHOMODE
 70
     0
  9
$REGENMODE
 70
     1
  9
$FILLMODE
 70
     1
  9
$QTEXTMODE
 70
     0
  9
$MIRRTEXT
 70
     1
  9
$LTSCALE
 40
1.0
  9
$ATTMODE
 70
     1
  9
$TEXTSIZE
 40
0.2
  9
$TRACEWID
 40
0.05
  9
$TEXTSTYLE
  7
Standard
  9
$CLAYER
  8
0
  9
$CELTYPE
  6
ByLayer
  9
$CECOLOR
 62
   256
  9
$CELTSCALE
 40
1.0
  9
$DISPSILH
 70
     0
  9
$DIMSCALE
 40
1.0
  9
$DIMASZ
 40
0.18
  9
$DIMEXO
 40
0.0625
  9
$DIMDLI
 40
0.38
  9
$DIMRND
 40
0.0
  9
$DIMDLE
 40
0.0
  9
$DIMEXE
 40
0.18
  9
$DIMTP
 40
0.0
  9
$DIMTM
 40
0.0
  9
$DIMTXT
 40
0.18
  9
$DIMCEN
 40
0.09
  9
$DIMTSZ
 40
0.0
  9
$DIMTOL
 70
     0
  9
$DIMLIM
 70
     0
  9
$DIMTIH
 70
     1
  9
$DIMTOH
 70
     1
  9
$DIMSE1
 70
     0
  9
$DIMSE2
 70
     0
  9
$DIMTAD
 70
     0
  9
$DIMZIN
 70
     0
  9
$DIMBLK
  1

  9
$DIMASO
 70
     1
  9
$DIMSHO
 70
     1
  9
$DIMPOST
  1

  9
$DIMAPOST
  1

  9
$DIMALT
 70
     0
  9
$DIMALTD
 70
     2
  9
$DIMALTF
 40
25.4
  9
$DIMLFAC
 40
1.0
  9
$DIMTOFL
 70
     0
  9
$DIMTVP
 40
0.0
  9
$DIMTIX
 70
     0
  9
$DIMSOXD
 70
     0
  9
$DIMSAH
 70
     0
  9
$DIMBLK1
  1

  9
$DIMBLK2
  1

  9
$DIMSTYLE
  2
Standard
  9
$DIMCLRD
 70
     0
  9
$DIMCLRE
 70
     0
  9
$DIMCLRT
 70
     0
  9
$DIMTFAC
 40
1.0
  9
$DIMGAP
 40
0.09
  9
$DIMJUST
 70
     0
  9
$DIMSD1
 70
     0
  9
$DIMSD2
 70
     0
  9
$DIMTOLJ
 70
     1
  9
$DIMTZIN
 70
     0
  9
$DIMALTZ
 70
     0
  9
$DIMALTTZ
 70
     0
  9
$DIMUPT
 70
     0
  9
$DIMDEC
 70
     4
  9
$DIMTDEC
 70
     4
  9
$DIMALTU
 70
     2
  9
$DIMALTTD
 70
     2
  9
$DIMTXSTY
  7
Standard
  9
$DIMAUNIT
 70
     0
  9
$DIMADEC
 70
     0
  9
$DIMALTRND
 40
0.0
  9
$DIMAZIN
 70
     0
  9
$DIMDSEP
 70
    46
  9
$DIMATFIT
 70
     3
  9
$DIMFRAC
 70
     0
  9
$DIMLDRBLK
  1

  9
$DIMLUNIT
 70
     2
  9
$DIMLWD
 70
    -2
  9
$DIMLWE
 70
    -2
  9
$DIMTMOVE
 70
     0
  9
$LUNITS
 70
     2
  9
$LUPREC
 70
     4
  9
$SKETCHINC
 40
0.1
  9
$FILLETRAD
 40
0.5
  9
$AUNITS
 70
     0
  9
$AUPREC
 70
     0
  9
$MENU
  1
.
  9
$ELEVATION
 40
0.0
  9
$PELEVATION
 40
0.0
  9
$THICKNESS
 40
0.0
  9
$LIMCHECK
 70
     0
  9
$CHAMFERA
 40
0.5
  9
$CHAMFERB
 40
0.5
  9
$CHAMFERC
 40
1.0
  9
$CHAMFERD
 40
0.0
  9
$SKPOLY
 70
     0
  9
$TDCREATE
 40
2459790.635228426
  9
$TDUCREATE
 40
2459790.260228426
  9
$TDUPDATE
 40
2459790.635229873
  9
$TDUUPDATE
 40
2459790.260229873
  9
$TDINDWG
 40
0.0000000116
  9
$TDUSRTIMER
 40
0.0000000116
  9
$USRTIMER
 70
     1
  9
$ANGBASE
 50
0.0
  9
$ANGDIR
 70
     0
  9
$PDMODE
 70
     0
  9
$PDSIZE
 40
0.0
  9
$PLINEWID
 40
0.0
  9
$SPLFRAME
 70
     0
  9
$SPLINETYPE
 70
     6
  9
$SPLINESEGS
 70
     8
  9
$HANDSEED
  5
192
  9
$SURFTAB1
 70
     6
  9
$SURFTAB2
 70
     6
  9
$SURFTYPE
 70
     6
  9
$SURFU
 70
     6
  9
$SURFV
 70
     6
  9
$UCSBASE
  2

  9
$UCSNAME
  2

  9
$UCSORG
 10
0.0
 20
0.0
 30
0.0
  9
$UCSXDIR
 10
1.0
 20
0.0
 30
0.0
  9
$UCSYDIR
 10
0.0
 20
1.0
 30
0.0
  9
$UCSORTHOREF
  2

  9
$UCSORTHOVIEW
 70
     0
  9
$UCSORGTOP
 10
0.0
 20
0.0
 30
0.0
  9
$UCSORGBOTTOM
 10
0.0
 20
0.0
 30
0.0
  9
$UCSORGLEFT
 10
0.0
 20
0.0
 30
0.0
  9
$UCSORGRIGHT
 10
0.0
 20
0.0
 30
0.0
  9
$UCSORGFRONT
 10
0.0
 20
0.0
 30
0.0
  9
$UCSORGBACK
 10
0.0
 20
0.0
 30
0.0
  9
$PUCSBASE
  2

  9
$PUCSNAME
  2

  9
$PUCSORG
 10
0.0
 20
0.0
 30
0.0
  9
$PUCSXDIR
 10
1.0
 20
0.0
 30
0.0
  9
$PUCSYDIR
 10
0.0
 20
1.0
 30
0.0
  9
$PUCSORTHOREF
  2

  9
$PUCSORTHOVIEW
 70
     0
  9
$PUCSORGTOP
 10
0.0
 20
0.0
 30
0.0
  9
$PUCSORGBOTTOM
 10
0.0
 20
0.0
 30
0.0
  9
$PUCSORGLEFT
 10
0.0
 20
0.0
 30
0.0
  9
$PUCSORGRIGHT
 10
0.0
 20
0.0
 30
0.0
  9
$PUCSORGFRONT
 10
0.0
 20
0.0
 30
0.0
  9
$PUCSORGBACK
 10
0.0
 20
0.0
 30
0.0
  9
$USERI1
 70
     0
  9
$USERI2
 70
     0
  9
$USERI3
 70
     0
  9
$USERI4
 70
     0
  9
$USERI5
 70
     0
  9
$USERR1
 40
18.1
  9
$USERR2
 40
0.0
  9
$USERR3
 40
0.0
  9
$USERR4
 40
0.0
  9
$USERR5
 40
0.0
  9
$WORLDVIEW
 70
     1
  9
$SHADEDGE
 70
     3
  9
$SHADEDIF
 70
    70
  9
$TILEMODE
 70
     1
  9
$MAXACTVP
 70
    64
  9
$PINSBASE
 10
0.0
 20
0.0
 30
0.0
  9
$PLIMCHECK
 70
     0
  9
$PEXTMIN
 10
1.00000000000000E+20
 20
1.00000000000000E+20
 30
1.00000000000000E+20
  9
$PEXTMAX
 10
-1.00000000000000E+20
 20
-1.00000000000000E+20
 30
-1.00000000000000E+20
  9
$PLIMMIN
 10
0.0
 20
0.0
  9
$PLIMMAX
 10
12.0
 20
9.0
  9
$UNITMODE
 70
     0
  9
$VISRETAIN
 70
     1
  9
$PLINEGEN
 70
     0
  9
$PSLTSCALE
 70
     1
  9
$TREEDEPTH
 70
  3020
  9
$CMLSTYLE
  2
Standard
  9
$CMLJUST
 70
     0
  9
$CMLSCALE
 40
1.0
  9
$PROXYGRAPHICS
 70
     1
  9
$MEASUREMENT
 70
     1
  9
$CELWEIGHT
370
    -1
  9
$ENDCAPS
280
     0
  9
$JOINSTYLE
280
     0
  9
$LWDISPLAY
290
     0
  9
$INSUNITS
 70
     4
  9
$HYPERLINKBASE
  1

  9
$STYLESHEET
  1

  9
$XEDIT
290
     1
  9
$CEPSNTYPE
380
     0
  9
$PSTYLEMODE
290
     1
  9
$FINGERPRINTGUID
  2
{6095337F-2D69-4CAE-B0BA-88D7900660EF}
  9
$VERSIONGUID
  2
{FAEB1C32-E019-11D5-929B-00C0DF256EC4}
  9
$EXTNAMES
290
     1
  9
$PSVPSCALE
 40
0.0
  9
$OLESTARTUP
290
     0
  0
ENDSEC
  0
SECTION
  2
CLASSES
  0
CLASS
  1
ACDBDICTIONARYWDFLT
  2
AcDbDictionaryWithDefault
  3
ObjectDBX Classes
 90
        0
280
     0
281
     0
  0
CLASS
  1
VISUALSTYLE
  2
AcDbVisualStyle
  3
ObjectDBX Classes
 90
     4095
280
     0
281
     0
  0
CLASS
  1
MATERIAL
  2
AcDbMaterial
  3
ObjectDBX Classes
 90
     1153
280
     0
281
     0
  0
CLASS
  1
DICTIONARYVAR
  2
AcDbDictionaryVar
  3
ObjectDBX Classes
 90
        0
280
     0
281
     0
  0
CLASS
  1
ACDBPLACEHOLDER
  2
AcDbPlaceHolder
  3
ObjectDBX Classes
 90
        0
280
     0
281
     0
  0
CLASS
  1
LAYOUT
  2
AcDbLayout
  3
ObjectDBX Classes
 90
        0
280
     0
281
     0
  0
ENDSEC
  0
SECTION
  2
TABLES
  0
TABLE
  2
VPORT
  5
8
330
0
100
AcDbSymbolTable
 70
     1
  0
VPORT
  5
29
330
8
100
AcDbSymbolTableRecord
100
AcDbViewportTableRecord
  2
*Active
 70
     0
 10
0.0
 20
0.0
 11
1.0
 21
1.0
 12
105.0000000000001
 22
148.5000000000001
 13
0.0
 23
0.0
 14
0.5
 24
0.5
 15
0.5
 25
0.5
 16
0.0
 26
0.0
 36
1.0
 17
0.0
 27
0.0
 37
0.0
 40
326.7000000000002
 41
1.60267857142857
 42
50.0
 43
0.0
 44
0.0
 50
0.0
 51
0.0
 71
     0
 72
   100
 73
     1
 74
     3
 75
     0
 76
     0
 77
     0
 78
     0
281
     0
 65
     1
110
0.0
120
0.0
130
0.0
111
1.0
121
0.0
131
0.0
112
0.0
122
1.0
132
0.0
 79
     0
146
0.0
  0
ENDTAB
  0
TABLE
  2
LTYPE
  5
5
330
0
100
AcDbSymbolTable
 70
     8
  0
LTYPE
  5
14
330
5
100
AcDbSymbolTableRecord
100
AcDbLinetypeTableRecord
  2
ByBlock
 70
     0
  3

 72
    65
 73
     0
 40
0.0
  0
LTYPE
  5
15
330
5
100
AcDbSymbolTableRecord
100
AcDbLinetypeTableRecord
  2
ByLayer
 70
     0
  3

 72
    65
 73
     0
 40
0.0
  0
LTYPE
  5
16
330
5
100
AcDbSymbolTableRecord
100
AcDbLinetypeTableRecord
  2
Continuous
 70
     0
  3
Solid line
 72
    65
 73
     0
 40
0.0
  0
LTYPE
  5
3F
330
5
100
AcDbSymbolTableRecord
100
AcDbLinetypeTableRecord
  2
DASHED
 70
     0
  3
Dashed
 72
    65
 73
     2
 40
15.0
 49
7.0
 74
     0
 49
-8.0
 74
     0
  0
LTYPE
  5
40
330
5
100
AcDbSymbolTableRecord
100
AcDbLinetypeTableRecord
  2
DOTTED
 70
     0
  3
Dotted
 72
    65
 73
     2
 40
1.0
 49
0.0
 74
     0
 49
-1.0
 74
     0
  0
LTYPE
  5
41
330
5
100
AcDbSymbolTableRecord
100
AcDbLinetypeTableRecord
  2
DOT_CENTER
 70
     0
  3
Dot_Center
 72
    65
 73
     4
 40
14.0
 49
12.0
 74
     0
 49
-1.0
 74
     0
 49
0.0
 74
     0
 49
-1.0
 74
     0
  0
LTYPE
  5
42
330
5
100
AcDbSymbolTableRecord
100
AcDbLinetypeTableRecord
  2
LONG_DASHED
 70
     0
  3
Long_Dashed
 72
    65
 73
     2
 40
15.0
 49
10.0
 74
     0
 49
-5.0
 74
     0
  0
LTYPE
  5
43
330
5
100
AcDbSymbolTableRecord
100
AcDbLinetypeTableRecord
  2
DASH_CENTER
 70
     0
  3
Dash_Center
 72
    65
 73
     4
 40
14.0
 49
11.0
 74
     0
 49
-1.0
 74
     0
 49
1.0
 74
     0
 49
-1.0
 74
     0
  0
LTYPE
  5
44
330
5
100
AcDbSymbolTableRecord
100
AcDbLinetypeTableRecord
  2
PHANTOM
 70
     0
  3
Phantom
 72
    65
 73
     6
 40
13.0
 49
10.0
 74
     0
 49
-1.0
 74
     0
 49
0.0
 74
     0
 49
-1.0
 74
     0
 49
0.0
 74
     0
 49
-1.0
 74
     0
  0
LTYPE
  5
45
330
5
100
AcDbSymbolTableRecord
100
AcDbLinetypeTableRecord
  2
CENTER_DASH_DASH
 70
     0
  3
Center_Dash_Dash
 72
    65
 73
     6
 40
14.0
 49
9.0
 74
     0
 49
-1.0
 74
     0
 49
1.0
 74
     0
 49
-1.0
 74
     0
 49
1.0
 74
     0
 49
-1.0
 74
     0
  0
ENDTAB
  0
TABLE
  2
LAYER
  5
2
330
0
100
AcDbSymbolTable
 70
     3
  0
LAYER
  5
10
330
2
100
AcDbSymbolTableRecord
100
AcDbLayerTableRecord
  2
0
 70
     0
 62
     7
  6
Continuous
370
    -3
390
F
  0
LAYER
  5
46
330
2
100
AcDbSymbolTableRecord
100
AcDbLayerTableRecord
  2
1
 70
     0
 62
     7
  6
Continuous
370
    -3
390
F
  0
LAYER
  5
47
330
2
100
AcDbSymbolTableRecord
100
AcDbLayerTableRecord
  2
_U_30EC_U_30A4_U_30E4_U_30FC_1
 70
     0
 62
     7
  6
Continuous
370
    -3
390
F
  0
ENDTAB
  0
TABLE
  2
STYLE
  5
3
330
0
100
AcDbSymbolTable
 70
     3
  0
STYLE
  5
11
330
3
100
AcDbSymbolTableRecord
100
AcDbTextStyleTableRecord
  2
Standard
 70
     0
 40
0.0
 41
1.0
 50
0.0
 71
     0
 42
0.2
  3
txt
  4

  0
STYLE
  5
C6
330
3
100
AcDbSymbolTableRecord
100
AcDbTextStyleTableRecord
  2
CONVERTER_11
 70
     0
 40
0.0
 41
0.89
 50
0.0
 71
     0
 42
0.2
  3
MS Mincho.ttf
  4

1001
ACAD
1000
MS Mincho
1071
    32785
  0
STYLE
  5
124
330
3
100
AcDbSymbolTableRecord
100
AcDbTextStyleTableRecord
  2
CONVERTER_12
 70
     0
 40
0.0
 41
0.9
 50
0.0
 71
     0
 42
0.2
  3
txt.shx
  4

  0
ENDTAB
  0
TABLE
  2
VIEW
  5
6
330
0
100
AcDbSymbolTable
 70
     0
  0
ENDTAB
  0
TABLE
  2
UCS
  5
7
330
0
100
AcDbSymbolTable
 70
     0
  0
ENDTAB
  0
TABLE
  2
APPID
  5
9
330
0
100
AcDbSymbolTable
 70
     1
  0
APPID
  5
12
330
9
100
AcDbSymbolTableRecord
100
AcDbRegAppTableRecord
  2
ACAD
 70
     0
  0
ENDTAB
  0
TABLE
  2
DIMSTYLE
  5
A
330
0
100
AcDbSymbolTable
 70
     4
100
AcDbDimStyleTable
  0
DIMSTYLE
105
27
330
A
100
AcDbSymbolTableRecord
100
AcDbDimStyleTableRecord
  2
Standard
 70
     0
178
     0
340
11
  0
DIMSTYLE
105
13D
102
{ACAD_REACTORS
330
13E
102
}
330
A
100
AcDbSymbolTableRecord
100
AcDbDimStyleTableRecord
  2
ME10_DIM_10
 70
     0
  3
{\Fgdt;n}<>
 41
3.5
 42
0.0
 44
1.0
 73
     0
 74
     0
 77
     1
 78
     8
140
3.5
147
1.0
172
     1
173
     1
174
     1
175
     1
176
     2
177
     2
271
     2
178
     7
271
     2
340
124
  0
DIMSTYLE
105
148
102
{ACAD_REACTORS
330
149
102
}
330
A
100
AcDbSymbolTableRecord
100
AcDbDimStyleTableRecord
  2
ME10_DIM_11
 70
     0
 41
3.5
 42
0.0
 44
1.0
 73
     0
 74
     0
 77
     1
 78
     8
140
3.5
147
1.0
172
     1
173
     1
174
     1
175
     1
176
     2
177
     2
271
     2
178
     7
271
     2
340
124
  0
DIMSTYLE
105
153
102
{ACAD_REACTORS
330
154
102
}
330
A
100
AcDbSymbolTableRecord
100
AcDbDimStyleTableRecord
  2
ME10_DIM_12
 70
     0
 41
3.5
 42
0.0
 44
1.0
 73
     0
 74
     0
 77
     1
 78
     8
140
3.5
147
1.0
172
     1
173
     1
174
     1
175
     1
176
     2
177
     2
271
     2
178
     7
271
     2
340
124
  0
ENDTAB
  0
TABLE
  2
BLOCK_RECORD
  5
1
330
0
100
AcDbSymbolTable
 70
    13
  0
BLOCK_RECORD
  5
1F
330
1
100
AcDbSymbolTableRecord
100
AcDbBlockTableRecord
  2
*Model_Space
340
22
  0
BLOCK_RECORD
  5
1B
330
1
100
AcDbSymbolTableRecord
100
AcDbBlockTableRecord
  2
*Paper_Space
340
1E
  0
BLOCK_RECORD
  5
23
330
1
100
AcDbSymbolTableRecord
100
AcDbBlockTableRecord
  2
*Paper_Space0
340
26
  0
BLOCK_RECORD
  5
48
330
1
100
AcDbSymbolTableRecord
100
AcDbBlockTableRecord
  2
開示A4
340
0
102
{BLKREFS
331
4C
102
}
  0
BLOCK_RECORD
  5
4B
330
1
100
AcDbSymbolTableRecord
100
AcDbBlockTableRecord
  2
開示A4枠
340
0
102
{BLKREFS
331
61
102
}
  0
BLOCK_RECORD
  5
4F
330
1
100
AcDbSymbolTableRecord
100
AcDbBlockTableRecord
  2
78-100
340
0
102
{BLKREFS
331
62
102
}
  0
BLOCK_RECORD
  5
52
330
1
100
AcDbSymbolTableRecord
100
AcDbBlockTableRecord
  2
32-88
340
0
102
{BLKREFS
331
5C
102
}
  0
BLOCK_RECORD
  5
55
330
1
100
AcDbSymbolTableRecord
100
AcDbBlockTableRecord
  2
P82AT-2-15
340
0
102
{BLKREFS
331
5D
102
}
  0
BLOCK_RECORD
  5
58
330
1
100
AcDbSymbolTableRecord
100
AcDbBlockTableRecord
  2
91-1
340
0
102
{BLKREFS
331
5E
102
}
  0
BLOCK_RECORD
  5
5B
330
1
100
AcDbSymbolTableRecord
100
AcDbBlockTableRecord
  2
P82A-1S-15
340
0
102
{BLKREFS
331
63
102
}
  0
BLOCK_RECORD
  5
132
330
1
100
AcDbSymbolTableRecord
100
AcDbBlockTableRecord
  2
*D8
340
0
  0
BLOCK_RECORD
  5
13F
330
1
100
AcDbSymbolTableRecord
100
AcDbBlockTableRecord
  2
*D9
340
0
  0
BLOCK_RECORD
  5
14A
330
1
100
AcDbSymbolTableRecord
100
AcDbBlockTableRecord
  2
*D10
340
0
  0
BLOCK_RECORD
  5
155
330
1
100
AcDbSymbolTableRecord
100
AcDbBlockTableRecord
  2
*D11
340
0
102
{BLKREFS
331
15C
102
}
  0
BLOCK_RECORD
  5
15D
330
1
100
AcDbSymbolTableRecord
100
AcDbBlockTableRecord
  2
*D12
340
0
102
{BLKREFS
331
166
102
}
  0
ENDTAB
  0
ENDSEC
  0
SECTION
  2
BLOCKS
  0
BLOCK
  5
20
330
1F
100
AcDbEntity
  8
0
100
AcDbBlockBegin
  2
*Model_Space
 70
     0
 10
0.0
 20
0.0
 30
0.0
  3
*Model_Space
  1

  0
ENDBLK
  5
21
330
1F
100
AcDbEntity
  8
0
100
AcDbBlockEnd
  0
BLOCK
  5
1C
330
1B
100
AcDbEntity
 67
     1
  8
0
100
AcDbBlockBegin
  2
*Paper_Space
 70
     0
 10
0.0
 20
0.0
 30
0.0
  3
*Paper_Space
  1

  0
ENDBLK
  5
1D
330
1B
100
AcDbEntity
 67
     1
  8
0
100
AcDbBlockEnd
  0
BLOCK
  5
24
330
23
100
AcDbEntity
  8
0
100
AcDbBlockBegin
  2
*Paper_Space0
 70
     0
 10
0.0
 20
0.0
 30
0.0
  3
*Paper_Space0
  1

  0
ENDBLK
  5
25
330
23
100
AcDbEntity
  8
0
100
AcDbBlockEnd
  0
BLOCK
  5
49
330
48
100
AcDbEntity
  8
0
100
AcDbBlockBegin
  2
開示A4
 70
     0
 10
0.0
 20
0.00000000000001
 30
0.0
  3
開示A4
  1

  0
POINT
  5
64
330
48
100
AcDbEntity
  8
1
 62
     4
100
AcDbPoint
 10
183.0000000000001
 20
15.00000000000004
 30
0.0
  0
POINT
  5
65
330
48
100
AcDbEntity
  8
1
 62
     4
100
AcDbPoint
 10
93.75000000000003
 20
17.00000000000001
 30
0.0
  0
POINT
  5
66
330
48
100
AcDbEntity
  8
1
 62
     4
100
AcDbPoint
 10
85.25000000000003
 20
17.00000000000001
 30
0.0
  0
POINT
  5
67
330
48
100
AcDbEntity
  8
1
 62
     4
100
AcDbPoint
 10
106.5
 20
19.00000000000004
 30
0.0
  0
POINT
  5
68
330
48
100
AcDbEntity
  8
1
 62
     4
100
AcDbPoint
 10
106.5
 20
12.50000000000001
 30
0.0
  0
POINT
  5
69
330
48
100
AcDbEntity
  8
1
 62
     4
100
AcDbPoint
 10
112.25
 20
12.50000000000001
 30
0.0
  0
POINT
  5
6A
330
48
100
AcDbEntity
  8
1
 62
     4
100
AcDbPoint
 10
100.75
 20
12.50000000000001
 30
0.0
  0
POINT
  5
6B
330
48
100
AcDbEntity
  8
1
 62
     4
100
AcDbPoint
 10
123.5
 20
19.00000000000004
 30
0.0
  0
POINT
  5
6C
330
48
100
AcDbEntity
  8
1
 62
     4
100
AcDbPoint
 10
123.5
 20
12.50000000000001
 30
0.0
  0
POINT
  5
6D
330
48
100
AcDbEntity
  8
1
 62
     4
100
AcDbPoint
 10
129.25
 20
12.50000000000001
 30
0.0
  0
POINT
  5
6E
330
48
100
AcDbEntity
  8
1
 62
     4
100
AcDbPoint
 10
117.75
 20
12.50000000000001
 30
0.0
  0
POINT
  5
6F
330
48
100
AcDbEntity
  8
1
 62
     4
100
AcDbPoint
 10
140.5
 20
19.00000000000004
 30
0.0
  0
POINT
  5
70
330
48
100
AcDbEntity
  8
1
 62
     4
100
AcDbPoint
 10
140.5
 20
12.50000000000001
 30
0.0
  0
POINT
  5
71
330
48
100
AcDbEntity
  8
1
 62
     4
100
AcDbPoint
 10
146.2500000000001
 20
12.50000000000001
 30
0.0
  0
POINT
  5
72
330
48
100
AcDbEntity
  8
1
 62
     4
100
AcDbPoint
 10
134.75
 20
12.50000000000001
 30
0.0
  0
POINT
  5
73
330
48
100
AcDbEntity
  8
1
 62
     4
100
AcDbPoint
 10
151.7500000000001
 20
12.50000000000001
 30
0.0
  0
POINT
  5
74
330
48
100
AcDbEntity
  8
1
 62
     4
100
AcDbPoint
 10
163.2500000000001
 20
12.50000000000001
 30
0.0
  0
POINT
  5
75
330
48
100
AcDbEntity
  8
1
 62
     4
100
AcDbPoint
 10
157.5000000000001
 20
12.50000000000001
 30
0.0
  0
POINT
  5
76
330
48
100
AcDbEntity
  8
1
 62
     4
100
AcDbPoint
 10
57.0
 20
14.25000000000001
 30
0.0
  0
POINT
  5
77
330
48
100
AcDbEntity
  8
1
 62
     4
100
AcDbPoint
 10
57.0
 20
22.75000000000003
 30
0.0
  0
POINT
  5
78
330
48
100
AcDbEntity
  8
1
 62
     4
100
AcDbPoint
 10
47.5
 20
282.0000000000003
 30
0.0
  0
POINT
  5
79
330
48
100
AcDbEntity
  8
1
 62
     4
100
AcDbPoint
 10
157.5000000000001
 20
19.00000000000004
 30
0.0
  0
POINT
  5
7A
330
48
100
AcDbEntity
  8
1
 62
     4
100
AcDbPoint
 10
57.0
 20
16.25000000000001
 30
0.0
  0
POINT
  5
7B
330
48
100
AcDbEntity
  8
1
 62
     4
100
AcDbPoint
 10
57.0
 20
24.75000000000003
 30
0.0
  0
POINT
  5
7C
330
48
100
AcDbEntity
  8
1
 62
     4
100
AcDbPoint
 10
57.0
 20
20.75000000000003
 30
0.0
  0
POINT
  5
7D
330
48
100
AcDbEntity
  8
1
 62
     4
100
AcDbPoint
 10
57.0
 20
12.25000000000001
 30
0.0
  0
POINT
  5
7E
330
48
100
AcDbEntity
  8
1
 62
     4
100
AcDbPoint
 10
34.0
 20
34.00000000000003
 30
0.0
  0
LINE
  5
83
330
48
100
AcDbEntity
  8
1
  6
Continuous
 62
     7
100
AcDbLine
 10
105.0
 20
10.00000000000001
 30
0.0
 11
200.0000000000001
 21
10.00000000000001
 31
0.0
  0
LINE
  5
84
330
48
100
AcDbEntity
  8
1
  6
Continuous
 62
     2
100
AcDbLine
 10
105.0
 20
10.00000000000001
 30
0.0
 11
105.0
 21
5.00000000000001
 31
0.0
  0
LINE
  5
85
330
48
100
AcDbEntity
  8
1
  6
Continuous
 62
     7
100
AcDbLine
 10
200.0000000000001
 20
148.5000000000001
 30
0.0
 11
200.0000000000001
 21
287.0000000000003
 31
0.0
  0
LINE
  5
86
330
48
100
AcDbEntity
  8
1
  6
Continuous
 62
     2
100
AcDbLine
 10
200.0000000000001
 20
148.5000000000001
 30
0.0
 11
205.0000000000001
 21
148.5000000000001
 31
0.0
  0
LINE
  5
87
330
48
100
AcDbEntity
  8
1
  6
Continuous
 62
     7
100
AcDbLine
 10
25.0
 20
148.5000000000001
 30
0.0
 11
25.0
 21
287.0000000000003
 31
0.0
  0
LINE
  5
88
330
48
100
AcDbEntity
  8
1
  6
Continuous
 62
     2
100
AcDbLine
 10
25.0
 20
148.5000000000001
 30
0.0
 11
20.0
 21
148.5000000000001
 31
0.0
  0
LINE
  5
89
330
48
100
AcDbEntity
  8
1
  6
Continuous
 62
     7
100
AcDbLine
 10
105.0
 20
287.0000000000003
 30
0.0
 11
25.0
 21
287.0000000000003
 31
0.0
  0
LINE
  5
8A
330
48
100
AcDbEntity
  8
1
  6
Continuous
 62
     2
100
AcDbLine
 10
105.0
 20
287.0000000000003
 30
0.0
 11
105.0
 21
292.0000000000003
 31
0.0
  0
LINE
  5
8B
330
48
100
AcDbEntity
  8
1
  6
Continuous
 62
     2
100
AcDbLine
 10
166.0000000000001
 20
20.00000000000003
 30
0.0
 11
200.0000000000001
 21
20.00000000000003
 31
0.0
  0
LINE
  5
8C
330
48
100
AcDbEntity
  8
1
  6
Continuous
 62
     2
100
AcDbLine
 10
98.00000000000003
 20
27.00000000000003
 30
0.0
 11
98.00000000000003
 21
10.0
 31
0.0
  0
LINE
  5
8D
330
48
100
AcDbEntity
  8
1
  6
Continuous
 62
     2
100
AcDbLine
 10
115.0
 20
27.00000000000003
 30
0.0
 11
115.0
 21
10.0
 31
0.0
  0
LINE
  5
8E
330
48
100
AcDbEntity
  8
1
  6
Continuous
 62
     2
100
AcDbLine
 10
149.0000000000001
 20
27.00000000000003
 30
0.0
 11
149.0000000000001
 21
10.00000000000001
 31
0.0
  0
LINE
  5
8F
330
48
100
AcDbEntity
  8
1
  6
Continuous
 62
     2
100
AcDbLine
 10
132.0
 20
27.00000000000003
 30
0.0
 11
132.0
 21
10.0
 31
0.0
  0
LINE
  5
90
330
48
100
AcDbEntity
  8
1
  6
Continuous
 62
     2
100
AcDbLine
 10
166.0000000000001
 20
27.00000000000003
 30
0.0
 11
166.0000000000001
 21
10.00000000000001
 31
0.0
  0
LINE
  5
91
330
48
100
AcDbEntity
  8
1
  6
Continuous
 62
     2
100
AcDbLine
 10
55.0
 20
277.0000000000003
 30
0.0
 11
25.0
 21
277.0000000000003
 31
0.0
  0
LINE
  5
92
330
48
100
AcDbEntity
  8
1
  6
Continuous
 62
     7
100
AcDbLine
 10
25.0
 20
10.00000000000001
 30
0.0
 11
25.0
 21
148.5000000000001
 31
0.0
  0
LINE
  5
93
330
48
100
AcDbEntity
  8
1
  6
Continuous
 62
     2
100
AcDbLine
 10
40.0
 20
287.0000000000003
 30
0.0
 11
40.0
 21
277.0000000000003
 31
0.0
  0
LINE
  5
94
330
48
100
AcDbEntity
  8
1
  6
Continuous
 62
     2
100
AcDbLine
 10
55.0
 20
287.0000000000003
 30
0.0
 11
55.0
 21
277.0000000000003
 31
0.0
  0
LINE
  5
95
330
48
100
AcDbEntity
  8
1
  6
Continuous
 62
     2
100
AcDbLine
 10
33.0
 20
41.00000000000003
 30
0.0
 11
33.0
 21
27.00000000000003
 31
0.0
  0
LINE
  5
96
330
48
100
AcDbEntity
  8
1
  6
Continuous
 62
     7
100
AcDbLine
 10
200.0000000000001
 20
27.00000000000003
 30
0.0
 11
25.0
 21
27.00000000000003
 31
0.0
  0
LINE
  5
97
330
48
100
AcDbEntity
  8
1
  6
Continuous
 62
     7
100
AcDbLine
 10
25.0
 20
41.00000000000003
 30
0.0
 11
200.0000000000001
 21
41.00000000000003
 31
0.0
  0
LINE
  5
98
330
48
100
AcDbEntity
  8
1
  6
PHANTOM
 62
     4
100
AcDbLine
 10
0.0
 20
0.00000000000001
 30
0.0
 11
210.0000000000001
 21
0.00000000000001
 31
0.0
  0
LINE
  5
99
330
48
100
AcDbEntity
  8
1
  6
PHANTOM
 62
     4
100
AcDbLine
 10
210.0000000000001
 20
0.00000000000001
 30
0.0
 11
210.0000000000001
 21
297.0000000000001
 31
0.0
  0
LINE
  5
9A
330
48
100
AcDbEntity
  8
1
  6
PHANTOM
 62
     4
100
AcDbLine
 10
210.0000000000001
 20
297.0000000000001
 30
0.0
 11
0.0
 21
297.0000000000001
 31
0.0
  0
LINE
  5
9B
330
48
100
AcDbEntity
  8
1
  6
PHANTOM
 62
     4
100
AcDbLine
 10
0.0
 20
297.0000000000001
 30
0.0
 11
0.0
 21
0.00000000000001
 31
0.0
  0
LINE
  5
9C
330
48
100
AcDbEntity
  8
1
  6
Continuous
 62
     7
100
AcDbLine
 10
25.0
 20
10.00000000000001
 30
0.0
 11
105.0
 21
10.00000000000001
 31
0.0
  0
LINE
  5
9D
330
48
100
AcDbEntity
  8
1
  6
Continuous
 62
     7
100
AcDbLine
 10
200.0000000000001
 20
10.00000000000001
 30
0.0
 11
200.0000000000001
 21
148.5000000000001
 31
0.0
  0
LINE
  5
9E
330
48
100
AcDbEntity
  8
1
  6
Continuous
 62
     7
100
AcDbLine
 10
200.0000000000001
 20
287.0000000000003
 30
0.0
 11
105.0
 21
287.0000000000003
 31
0.0
  0
LINE
  5
9F
330
48
100
AcDbEntity
  8
1
  6
Continuous
 62
     2
100
AcDbLine
 10
25.0
 20
18.50000000000004
 30
0.0
 11
81.00000000000003
 21
18.50000000000004
 31
0.0
  0
LINE
  5
A0
330
48
100
AcDbEntity
  8
1
  6
Continuous
 62
     2
100
AcDbLine
 10
33.0
 20
27.00000000000003
 30
0.0
 11
33.0
 21
10.00000000000001
 31
0.0
  0
LINE
  5
A1
330
48
100
AcDbEntity
  8
1
  6
Continuous
 62
     7
100
AcDbLine
 10
191.0000000000001
 20
24.70000000000002
 30
0.0
 11
191.0000000000001
 21
22.30000000000003
 31
0.0
  0
LINE
  5
A2
330
48
100
AcDbEntity
  8
1
  6
Continuous
 62
     7
100
AcDbLine
 10
191.0000000000001
 20
24.70000000000002
 30
0.0
 11
196.0000000000001
 21
25.50000000000003
 31
0.0
  0
LINE
  5
A3
330
48
100
AcDbEntity
  8
1
  6
Continuous
 62
     7
100
AcDbLine
 10
196.0000000000001
 20
25.50000000000003
 30
0.0
 11
196.0000000000001
 21
21.50000000000003
 31
0.0
  0
LINE
  5
A4
330
48
100
AcDbEntity
  8
1
  6
Continuous
 62
     7
100
AcDbLine
 10
196.0000000000001
 20
21.50000000000003
 30
0.0
 11
191.0000000000001
 21
22.30000000000003
 31
0.0
  0
LINE
  5
A5
330
48
100
AcDbEntity
  8
1
  6
DOT_CENTER
 62
     2
100
AcDbLine
 10
184.0000000000001
 20
23.50000000000003
 30
0.0
 11
197.0000000000001
 21
23.50000000000003
 31
0.0
  0
LINE
  5
A6
330
48
100
AcDbEntity
  8
1
  6
DOT_CENTER
 62
     2
100
AcDbLine
 10
187.0000000000001
 20
26.50000000000003
 30
0.0
 11
187.0000000000001
 21
20.50000000000003
 31
0.0
  0
LINE
  5
A7
330
48
100
AcDbEntity
  8
1
  6
Continuous
 62
     2
100
AcDbLine
 10
81.00000000000003
 20
27.00000000000003
 30
0.0
 11
81.00000000000003
 21
10.00000000000001
 31
0.0
  0
CIRCLE
  5
A8
330
48
100
AcDbEntity
  8
1
  6
Continuous
 62
     7
100
AcDbCircle
 10
103.5
 20
12.50000000000001
 30
0.0
 40
0.2999999999999972
  0
CIRCLE
  5
A9
330
48
100
AcDbEntity
  8
1
  6
Continuous
 62
     7
100
AcDbCircle
 10
109.5
 20
12.50000000000001
 30
0.0
 40
0.2999999999999972
  0
CIRCLE
  5
AA
330
48
100
AcDbEntity
  8
1
  6
Continuous
 62
     7
100
AcDbCircle
 10
120.5
 20
12.50000000000001
 30
0.0
 40
0.2999999999999972
  0
CIRCLE
  5
AB
330
48
100
AcDbEntity
  8
1
  6
Continuous
 62
     7
100
AcDbCircle
 10
126.5
 20
12.50000000000001
 30
0.0
 40
0.2999999999999972
  0
CIRCLE
  5
AC
330
48
100
AcDbEntity
  8
1
  6
Continuous
 62
     7
100
AcDbCircle
 10
137.5
 20
12.50000000000001
 30
0.0
 40
0.3000000000000114
  0
CIRCLE
  5
AD
330
48
100
AcDbEntity
  8
1
  6
Continuous
 62
     7
100
AcDbCircle
 10
143.5000000000001
 20
12.50000000000001
 30
0.0
 40
0.2999999999998977
  0
CIRCLE
  5
AE
330
48
100
AcDbEntity
  8
1
  6
Continuous
 62
     7
100
AcDbCircle
 10
160.5000000000001
 20
12.50000000000001
 30
0.0
 40
0.2999999999998977
  0
CIRCLE
  5
AF
330
48
100
AcDbEntity
  8
1
  6
Continuous
 62
     7
100
AcDbCircle
 10
154.5000000000001
 20
12.50000000000001
 30
0.0
 40
0.2999999999998977
  0
CIRCLE
  5
B0
330
48
100
AcDbEntity
  8
1
  6
Continuous
 62
     7
100
AcDbCircle
 10
187.0000000000001
 20
23.50000000000003
 30
0.0
 40
1.199999999999989
  0
CIRCLE
  5
B1
330
48
100
AcDbEntity
  8
1
  6
Continuous
 62
     7
100
AcDbCircle
 10
187.0000000000001
 20
23.50000000000003
 30
0.0
 40
2.0
  0
CIRCLE
  5
B2
330
48
100
AcDbEntity
  8
1
  6
DOT_CENTER
 62
     7
100
AcDbCircle
 10
89.50000000000003
 20
16.00000000000001
 30
0.0
 40
0.1000000000000227
  0
CIRCLE
  5
B3
330
48
100
AcDbEntity
  8
1
  6
DOT_CENTER
 62
     7
100
AcDbCircle
 10
89.50000000000003
 20
18.00000000000001
 30
0.0
 40
0.1000000000000227
  0
SPLINE
  5
B4
102
{ACAD_REACTORS
330
D3
102
}
330
48
100
AcDbEntity
  8
_U_30EC_U_30A4_U_30E4_U_30FC_1
  6
Continuous
 62
     2
100
AcDbSpline
210
0.0
220
0.0
230
1.0
 70
     8
 71
     3
 72
    24
 73
    20
 74
    18
 42
0.000000001
 43
0.0000000001
 44
0.00000001
 40
0.0
 40
0.0
 40
0.0
 40
0.0
 40
0.221107500875382
 40
0.4273218586245348
 40
0.5080174679239392
 40
0.5914835907870286
 40
0.8143265690192723
 40
1.054651302686583
 40
1.29545269402317
 40
1.518109231328825
 40
1.540864321905468
 40
1.595126460622729
 40
1.659890947896069
 40
1.714153085187455
 40
1.736908174961755
 40
1.764951100735481
 40
1.801562291221096
 40
1.953914424543776
 40
2.12610416737987
 40
2.12610416737987
 40
2.12610416737987
 40
2.12610416737987
 10
185.9375369556889
 20
15.58989295113017
 30
0.0
 10
185.9112579081812
 20
15.53097628234375
 30
0.0
 10
185.8604698894425
 20
15.41711139679258
 30
0.0
 10
185.8131784839112
 20
15.14441958233116
 30
0.0
 10
185.7043482802618
 20
15.24445482575456
 30
0.0
 10
185.5514800279637
 20
15.27118593367333
 30
0.0
 10
185.7686155181199
 20
15.48518135017633
 30
0.0
 10
185.7838483674381
 20
15.70332117782487
 30
0.0
 10
185.8906889492001
 20
15.88451579066429
 30
0.0
 10
185.8305380947077
 20
16.169132263114
 30
0.0
 10
185.9334317395402
 20
16.14114089222453
 30
0.0
 10
185.977993346815
 20
16.132432516023
 30
0.0
 10
186.0380842395397
 20
16.12139654183357
 30
0.0
 10
186.0756619587438
 20
16.10767523055562
 30
0.0
 10
186.1252466928607
 20
16.10756076160224
 30
0.0
 10
186.0930158919325
 20
16.07306592398625
 30
0.0
 10
186.0171802221882
 20
16.08404104537968
 30
0.0
 10
186.0429447159694
 20
15.89858969582451
 30
0.0
 10
186.005589676385
 20
15.80702313549591
 30
0.0
 10
185.9857704961609
 20
15.75844135397706
 30
0.0
 11
185.9375369556889
 21
15.58989295113017
 31
0.0
 11
185.8616471328552
 21
15.38221708318561
 31
0.0
 11
185.7717402238433
 21
15.19663392356193
 31
0.0
 11
185.701149392311
 21
15.23573272563552
 31
0.0
 11
185.6245525192651
 21
15.26889163187721
 31
0.0
 11
185.7214026947455
 21
15.46958801203539
 31
0.0
 11
185.7994641467471
 21
15.69688163177025
 31
0.0
 11
185.858971692972
 21
15.93021436608692
 31
0.0
 11
185.9001601511226
 21
16.14902808999055
 31
0.0
 11
185.9224183822215
 21
16.14429889221396
 31
0.0
 11
185.975495702534
 21
16.13302157443901
 31
0.0
 11
186.0388460525845
 21
16.11956154999794
 31
0.0
 11
186.0919233728971
 21
16.10828423222299
 31
0.0
 11
186.1141816039959
 21
16.10355503444639
 31
0.0
 11
186.0964097157461
 21
16.08186250841011
 31
0.0
 11
186.0606122998071
 21
16.0741862844537
 31
0.0
 11
186.028195330148
 21
15.92532288171316
 31
0.0
 11
185.9857704961609
 21
15.75844135397706
 31
0.0
  0
SPLINE
  5
B5
102
{ACAD_REACTORS
330
D3
102
}
330
48
100
AcDbEntity
  8
_U_30EC_U_30A4_U_30E4_U_30FC_1
  6
Continuous
 62
     2
100
AcDbSpline
210
0.0
220
0.0
230
1.0
 70
     8
 71
     3
 72
    70
 73
    66
 74
    64
 42
0.000000001
 43
0.0000000001
 44
0.00000001
 40
0.0
 40
0.0
 40
0.0
 40
0.0
 40
0.0241731073021472
 40
0.0846058988987013
 40
0.1631685280353284
 40
0.2417311571789756
 40
0.3021639488292751
 40
0.3263370654895541
 40
0.3533118254248899
 40
0.4228783438922111
 40
0.5179999095313402
 40
0.6216398239466102
 40
0.7167613891499706
 40
0.7863279069649863
 40
0.8133026791761836
 40
0.8372943998771674
 40
0.8945054261372869
 40
0.9627895541962639
 40
1.020000580349074
 40
1.043992300975172
 40
1.071934345522908
 40
1.113121768772919
 40
1.145225199332243
 40
1.225483775412778
 40
1.329819923771488
 40
1.434156071994378
 40
1.514414647795798
 40
1.546518078208406
 40
1.578974764260179
 40
1.662678849314174
 40
1.777131373668395
 40
1.901833377474786
 40
2.016285900500575
 40
2.099989982527942
 40
2.132446666570301
 40
2.158782354486025
 40
2.216720867907814
 40
2.274659381334239
 40
2.300995069256171
 40
2.333451754066143
 40
2.417155836543824
 40
2.531608358985263
 40
2.656310362283758
 40
2.770762886388891
 40
2.854466971340056
 40
2.886923657363862
 40
2.913597976833294
 40
2.982389642875095
 40
3.076451716946961
 40
3.178937260458572
 40
3.272999334739975
 40
3.341791001059196
 40
3.368465320663507
 40
3.396976080738728
 40
3.472140811845964
 40
3.578408190308654
 40
3.70022689245609
 40
3.822045594634307
 40
3.928312973256414
 40
4.003477705314811
 40
4.031988456866877
 40
4.058324144797675
 40
4.116262658236836
 40
4.174201171400636
 40
4.200536849608568
 40
4.200536849608568
 40
4.200536849608568
 40
4.200536849608568
 10
185.9857704961609
 20
15.75844135397706
 30
0.0
 10
185.9938259544679
 20
15.75844359811687
 30
0.0
 10
186.0220200663241
 20
15.75845146032799
 30
0.0
 10
186.0765534803672
 20
15.75830754828372
 30
0.0
 10
186.1482891808604
 20
15.75909120499899
 30
0.0
 10
186.2236240137062
 20
15.75627570463812
 30
0.0
 10
186.2713052366439
 20
15.76298403400959
 30
0.0
 10
186.3195071245615
 20
15.75197563692433
 30
0.0
 10
186.3062571799874
 20
15.80546402997035
 30
0.0
 10
186.3151093964538
 20
15.86049583543092
 30
0.0
 10
186.3108698036285
 20
15.9541990872611
 30
0.0
 10
186.313348348128
 20
16.04959482218533
 30
0.0
 10
186.309093870606
 20
16.14356821983388
 30
0.0
 10
186.3179818665846
 20
16.19795062438013
 30
0.0
 10
186.3046977409945
 20
16.25233997691462
 30
0.0
 10
186.3514119277109
 20
16.23842216335359
 30
0.0
 10
186.3943254545736
 20
16.24103877374044
 30
0.0
 10
186.4605443456685
 20
16.23648422450756
 30
0.0
 10
186.5013342271798
 20
16.22778162134162
 30
0.0
 10
186.5525145690818
 20
16.23531799890196
 30
0.0
 10
186.52537204872
 20
16.19349970223286
 30
0.0
 10
186.4803096055706
 20
16.20284992072597
 30
0.0
 10
186.4942065045051
 20
16.13841207371839
 30
0.0
 10
186.4858414431653
 20
16.07378219627399
 30
0.0
 10
186.4903632178398
 20
15.97529141193889
 30
0.0
 10
186.4854741311167
 20
15.87595932842571
 30
0.0
 10
186.4950258992082
 20
15.8129311555297
 30
0.0
 10
186.47997614552
 20
15.7496401149979
 30
0.0
 10
186.5449159457208
 20
15.7651507294427
 30
0.0
 10
186.6116246399496
 20
15.75499387697813
 30
0.0
 10
186.7241435470828
 20
15.75988800099369
 30
0.0
 10
186.8390235448954
 20
15.75691204732784
 30
0.0
 10
186.9519871999747
 20
15.76221664184992
 30
0.0
 10
187.0176267597678
 20
15.7510730647209
 30
0.0
 10
187.0816276691053
 20
15.76744532319858
 30
0.0
 10
187.0703142889189
 20
15.71761689905276
 30
0.0
 10
187.0775339871509
 20
15.67416715212124
 30
0.0
 10
187.070314261127
 20
15.63071745587446
 30
0.0
 10
187.0816277175994
 20
15.58088895196877
 30
0.0
 10
187.0176263598972
 20
15.59726166091363
 30
0.0
 10
186.9519921240459
 20
15.5861127166159
 30
0.0
 10
186.838997431733
 20
15.59144857206855
 30
0.0
 10
186.7242456548644
 20
15.58834345663823
 30
0.0
 10
186.611318368686
 20
15.59364894682589
 30
0.0
 10
186.5455220903585
 20
15.58257300019594
 30
0.0
 10
186.4816097975358
 20
15.59887597847619
 30
0.0
 10
186.4936015165126
 20
15.54423524395743
 30
0.0
 10
186.4862104613004
 20
15.48854295047843
 30
0.0
 10
186.4892684841984
 20
15.39649689140572
 30
0.0
 10
186.4893422785683
 20
15.30179109873102
 30
0.0
 10
186.486031357836
 20
15.20952782902267
 30
0.0
 10
186.4939505989904
 20
15.15435768736141
 30
0.0
 10
186.4815076611617
 20
15.10058169100138
 30
0.0
 10
186.5389116551632
 20
15.11453768862783
 30
0.0
 10
186.5994708140383
 20
15.10511457884229
 30
0.0
 10
186.7048680855081
 20
15.10942885928706
 30
0.0
 10
186.8204294070622
 20
15.10835504612033
 30
0.0
 10
186.9359688877797
 20
15.10725965900997
 30
0.0
 10
187.0414181130841
 20
15.11162525770635
 30
0.0
 10
187.1018680471804
 20
15.10209426030673
 30
0.0
 10
187.159283773911
 20
15.11617289606382
 30
0.0
 10
187.1477773876709
 20
15.06707153265685
 30
0.0
 10
187.153756678175
 20
15.02564658018651
 30
0.0
 10
187.1520311050801
 20
14.97651677966697
 30
0.0
 10
187.1521500122971
 20
14.9485442844761
 30
0.0
 10
187.1521871691833
 20
14.93980288195952
 30
0.0
 11
185.9857704961609
 21
15.75844135397706
 31
0.0
 11
186.0099436128282
 21
15.75844135397706
 31
0.0
 11
186.0703764044962
 21
15.75844135397706
 31
0.0
 11
186.1489390336648
 21
15.75844135397706
 31
0.0
 11
186.2275016628334
 21
15.75844135397706
 31
0.0
 11
186.2879344545015
 21
15.75844135397706
 31
0.0
 11
186.3121075711687
 21
15.75844135397706
 31
0.0
 11
186.3121075711687
 21
15.78541612620064
 31
0.0
 11
186.3121075711687
 21
15.8549826440404
 31
0.0
 11
186.3121075711687
 21
15.95010420924986
 31
0.0
 11
186.3121075711687
 21
16.05374412358257
 31
0.0
 11
186.3121075711687
 21
16.14886568879203
 31
0.0
 11
186.3121075711687
 21
16.21843220663179
 31
0.0
 11
186.3121075711687
 21
16.24540697885537
 31
0.0
 11
186.3360407604892
 21
16.24373213107801
 31
0.0
 11
186.3931122119458
 21
16.23973826330122
 31
0.0
 11
186.461229750781
 21
16.23497138885796
 31
0.0
 11
186.5183012022376
 21
16.23097752108118
 31
0.0
 11
186.5422343915581
 21
16.22930267330382
 31
0.0
 11
186.5274972731229
 21
16.20556293372641
 31
0.0
 11
186.4886640249976
 21
16.19183767331313
 31
0.0
 11
186.4886640249976
 21
16.1597342422512
 31
0.0
 11
186.4886640249976
 21
16.07947566459637
 31
0.0
 11
186.4886640249976
 21
15.97513951364509
 31
0.0
 11
186.4886640249976
 21
15.87080336269382
 31
0.0
 11
186.4886640249976
 21
15.79054478503899
 31
0.0
 11
186.4886640249976
 21
15.75844135397706
 31
0.0
 11
186.5211207110824
 21
15.75844135397706
 31
0.0
 11
186.6048247962486
 21
15.75844135397706
 31
0.0
 11
186.7192773208634
 21
15.75844135397706
 31
0.0
 11
186.8439793252946
 21
15.75844135397706
 31
0.0
 11
186.9584318499095
 21
15.75844135397706
 31
0.0
 11
187.0421359350756
 21
15.75844135397706
 31
0.0
 11
187.0745926211604
 21
15.75844135397706
 31
0.0
 11
187.0745926211604
 21
15.73210566604962
 31
0.0
 11
187.0745926211604
 21
15.67416715260926
 31
0.0
 11
187.0745926211604
 21
15.61622863916889
 31
0.0
 11
187.0745926211604
 21
15.58989295124145
 31
0.0
 11
187.0421359350756
 21
15.58989295124145
 31
0.0
 11
186.9584318499095
 21
15.58989295124145
 31
0.0
 11
186.8439793252946
 21
15.58989295124145
 31
0.0
 11
186.7192773208634
 21
15.58989295124145
 31
0.0
 11
186.6048247962485
 21
15.58989295124145
 31
0.0
 11
186.5211207110824
 21
15.58989295124145
 31
0.0
 11
186.4886640249976
 21
15.58989295124145
 31
0.0
 11
186.4886640249976
 21
15.56321863152023
 31
0.0
 11
186.4886640249976
 21
15.49442696487077
 31
0.0
 11
186.4886640249976
 21
15.40036489006435
 31
0.0
 11
186.4886640249976
 21
15.29787934587229
 31
0.0
 11
186.4886640249976
 21
15.20381727106588
 31
0.0
 11
186.4886640249976
 21
15.13502560441641
 31
0.0
 11
186.4886640249976
 21
15.10835128469519
 31
0.0
 11
186.5171747850993
 21
15.10835128469519
 31
0.0
 11
186.5923395162766
 21
15.10835128469519
 31
0.0
 11
186.6986068948376
 21
15.10835128469519
 31
0.0
 11
186.8204255970904
 21
15.10835128469519
 31
0.0
 11
186.9422442993433
 21
15.10835128469519
 31
0.0
 11
187.0485116779043
 21
15.10835128469519
 31
0.0
 11
187.1236764090816
 21
15.10835128469519
 31
0.0
 11
187.1521871691833
 21
15.10835128469519
 31
0.0
 11
187.1521871691833
 21
15.08201559676774
 31
0.0
 11
187.1521871691833
 21
15.02407708332736
 31
0.0
 11
187.1521871691833
 21
14.96613856988697
 31
0.0
 11
187.1521871691833
 21
14.93980288195952
 31
0.0
  0
SPLINE
  5
B6
102
{ACAD_REACTORS
330
D3
102
}
330
48
100
AcDbEntity
  8
_U_30EC_U_30A4_U_30E4_U_30FC_1
  6
Continuous
 62
     2
100
AcDbSpline
210
0.0
220
0.0
230
1.0
 70
     8
 71
     3
 72
    62
 73
    58
 74
    56
 42
0.000000001
 43
0.0000000001
 44
0.00000001
 40
0.0
 40
0.0
 40
0.0
 40
0.0
 40
0.0598250028308485
 40
0.2024846486897331
 40
0.3727558389221031
 40
0.515415484793607
 40
0.5752404975785339
 40
0.9332326775487383
 40
1.290451762839497
 40
1.602077253145878
 40
1.699931634112126
 40
1.799359756425052
 40
2.270120149657092
 40
2.804661928461561
 40
2.882342287383275
 40
3.076543185719126
 40
3.329004354835591
 40
3.58146552456842
 40
3.775666424543706
 40
3.853346784558327
 40
3.899120679595073
 40
3.984129341792071
 40
4.02990323681742
 40
4.105797496059575
 40
4.295533144152534
 40
4.542189486611779
 40
4.788845828875727
 40
4.978581476410112
 40
5.054475735244354
 40
5.621734664339355
 40
6.130867242037388
 40
6.225249780948598
 40
6.318913039727338
 40
6.663579954558958
 40
7.04749890022481
 40
7.435230791575745
 40
7.498943906668157
 40
7.650875181210151
 40
7.832212509001661
 40
7.984143783697047
 40
8.047856898903174
 40
8.091554632732679
 40
8.172707566964336
 40
8.21640530076806
 40
8.289021782160944
 40
8.462184160757317
 40
8.668861838005398
 40
8.84202421526399
 40
8.914640695475185
 40
8.98988158086139
 40
9.155411528827294
 40
9.320941477744075
 40
9.396182352487324
 40
9.454709011143871
 40
9.583467660170806
 40
9.712226309013085
 40
9.770752957989538
 40
9.770752957989538
 40
9.770752957989538
 40
9.770752957989538
 10
187.1521871691833
 20
14.93980288195952
 30
0.0
 10
187.1322348171623
 20
14.93980875568674
 30
0.0
 10
187.0647037716465
 20
14.9398286380616
 30
0.0
 10
186.9410612161789
 20
14.93949362520328
 30
0.0
 10
186.7863180150056
 20
14.94107673750513
 30
0.0
 10
186.669734948248
 20
14.93686078860498
 30
0.0
 10
186.4550942634239
 20
14.95215205331627
 30
0.0
 10
186.851894840723
 20
14.59198721286195
 30
0.0
 10
186.8945656069268
 20
14.37510503397169
 30
0.0
 10
187.3189162146612
 20
14.19325062511446
 30
0.0
 10
187.1439821496074
 20
14.08985196568074
 30
0.0
 10
187.0194523925084
 20
13.87831523212723
 30
0.0
 10
186.7666277235943
 20
14.34806081001564
 30
0.0
 10
186.4797602893626
 20
14.99511516984524
 30
0.0
 10
186.490633592666
 20
14.68782672154696
 30
0.0
 10
186.488289277796
 20
14.5228861697178
 30
0.0
 10
186.4861096126411
 20
14.28879670711695
 30
0.0
 10
186.4980774396346
 20
14.04498072421784
 30
0.0
 10
186.468798474063
 20
13.89855796860986
 30
0.0
 10
186.511452262547
 20
13.75113490174539
 30
0.0
 10
186.4239814005639
 20
13.7668579730622
 30
0.0
 10
186.3768527606744
 20
13.76694303543455
 30
0.0
 10
186.2898973207713
 20
13.7510942548291
 30
0.0
 10
186.3313474021722
 20
13.89527771422763
 30
0.0
 10
186.3029875004285
 20
14.03855052698456
 30
0.0
 10
186.31459737753
 20
14.27674947365266
 30
0.0
 10
186.3124175648271
 20
14.50517235240347
 30
0.0
 10
186.3103111127994
 20
14.66705729375995
 30
0.0
 10
186.3208035438323
 20
14.98153709333753
 30
0.0
 10
186.0128963252893
 20
14.29229470872436
 30
0.0
 10
185.7055258267455
 20
13.81476750243049
 30
0.0
 10
185.5851367066275
 20
14.03741112637431
 30
0.0
 10
185.4074607910721
 20
14.15011034955564
 30
0.0
 10
185.8853326362894
 20
14.32548143465464
 30
0.0
 10
185.9353959057208
 20
14.56091929252032
 30
0.0
 10
186.3583799621715
 20
14.95322989344609
 30
0.0
 10
186.1276754273541
 20
14.93655307029068
 30
0.0
 10
186.004968585934
 20
14.94269518948772
 30
0.0
 10
185.8325483095661
 20
14.93312822699576
 30
0.0
 10
185.7213224694448
 20
14.95448818489667
 30
0.0
 10
185.6025779627448
 20
14.92136265357422
 30
0.0
 10
185.6183169706685
 20
15.00203900606885
 30
0.0
 10
185.6178550933762
 20
15.04645414290856
 30
0.0
 10
185.6027881889931
 20
15.12967081778535
 30
0.0
 10
185.7372380935443
 20
15.09062651983885
 30
0.0
 10
185.8619755545746
 20
15.11739729328424
 30
0.0
 10
186.062875523728
 20
15.10063949044054
 30
0.0
 10
186.1921540949352
 20
15.12204225913006
 30
0.0
 10
186.3328419928295
 20
15.08868778853423
 30
0.0
 10
186.2980927452614
 20
15.22651875785069
 30
0.0
 10
186.3222185666714
 20
15.34963257349483
 30
0.0
 10
186.2967086182392
 20
15.47024055670337
 30
0.0
 10
186.3333251146685
 20
15.60539865141496
 30
0.0
 10
186.2211417027769
 20
15.58094545781892
 30
0.0
 10
186.1280356457136
 20
15.59307749842024
 30
0.0
 10
186.0191547579819
 20
15.58957630069994
 30
0.0
 10
185.9569697640964
 20
15.58981755951604
 30
0.0
 10
185.9375369557246
 20
15.58989295124145
 30
0.0
 11
187.1521871691833
 21
14.93980288195952
 31
0.0
 11
187.0923621563982
 21
14.93980288195952
 31
0.0
 11
186.949702510526
 21
14.93980288195952
 31
0.0
 11
186.7794313202913
 21
14.93980288195952
 31
0.0
 11
186.6367716744191
 21
14.93980288195952
 31
0.0
 11
186.576946661634
 21
14.93980288195952
 31
0.0
 11
186.7679960754843
 21
14.63705127966893
 31
0.0
 11
186.994127278563
 21
14.36051890576686
 31
0.0
 11
187.2244526173371
 21
14.15061253493458
 31
0.0
 11
187.1521596330704
 21
14.08466403668718
 31
0.0
 11
187.0879364402643
 21
14.00876059052561
 31
0.0
 11
186.7732818215558
 21
14.35891458349364
 31
0.0
 11
186.4886640249976
 21
14.81138295143603
 31
0.0
 11
186.4886640249976
 21
14.73370259137315
 31
0.0
 11
186.4886640249976
 21
14.53950169121595
 31
0.0
 11
186.4886640249976
 21
14.28704052101158
 31
0.0
 11
186.4886640249976
 21
14.03457935080722
 31
0.0
 11
186.4886640249976
 21
13.84037845065001
 31
0.0
 11
186.4886640249976
 21
13.76269809058713
 31
0.0
 11
186.4428901295605
 21
13.76269809058713
 31
0.0
 11
186.3578814666058
 21
13.76269809058713
 31
0.0
 11
186.3121075711687
 21
13.76269809058713
 31
0.0
 11
186.3121075711687
 21
13.83859234982741
 31
0.0
 11
186.3121075711687
 21
14.02832799792812
 31
0.0
 11
186.3121075711687
 21
14.27498434045905
 31
0.0
 11
186.3121075711687
 21
14.52164068298997
 31
0.0
 11
186.3121075711687
 21
14.71137633109068
 31
0.0
 11
186.3121075711687
 21
14.78727059033096
 31
0.0
 11
185.9987626399267
 21
14.31440946197694
 31
0.0
 11
185.6352328662148
 21
13.95795177109383
 31
0.0
 11
185.5773927461628
 21
14.03253450545023
 31
0.0
 11
185.5094852305341
 21
14.09704322939244
 31
0.0
 11
185.7750721898319
 21
14.31672219795891
 31
0.0
 11
186.0233764972061
 21
14.60953395971699
 31
0.0
 11
186.226498280526
 21
14.93980288195952
 31
0.0
 11
186.1627851652721
 21
14.93980288195952
 31
0.0
 11
186.0108538904359
 21
14.93980288195952
 31
0.0
 11
185.8295165624055
 21
14.93980288195952
 31
0.0
 11
185.6775852875693
 21
14.93980288195952
 31
0.0
 11
185.6138721723154
 21
14.93980288195952
 31
0.0
 11
185.6138721723154
 21
14.9835006160021
 31
0.0
 11
185.6138721723154
 21
15.06465355065261
 31
0.0
 11
185.6138721723154
 21
15.10835128469519
 31
0.0
 11
185.6864886537961
 21
15.10835128469519
 31
0.0
 11
185.8596510327118
 21
15.10835128469519
 31
0.0
 11
186.0663287107723
 21
15.10835128469519
 31
0.0
 11
186.239491089688
 21
15.10835128469519
 31
0.0
 11
186.3121075711687
 21
15.10835128469519
 31
0.0
 11
186.3121075711687
 21
15.18359217009304
 31
0.0
 11
186.3121075711687
 21
15.34912211796832
 31
0.0
 11
186.3121075711687
 21
15.5146520658436
 31
0.0
 11
186.3121075711687
 21
15.58989295124145
 31
0.0
 11
186.2535809125055
 21
15.58989295124145
 31
0.0
 11
186.1248222634467
 21
15.58989295124145
 31
0.0
 11
185.9960636143877
 21
15.58989295124145
 31
0.0
 11
185.9375369557246
 21
15.58989295124145
 31
0.0
  0
SPLINE
  5
B7
102
{ACAD_REACTORS
330
D4
102
}
330
48
100
AcDbEntity
  8
_U_30EC_U_30A4_U_30E4_U_30FC_1
  6
Continuous
 62
     2
100
AcDbSpline
210
0.0
220
0.0
230
1.0
 70
    11
 71
     3
 72
   124
 73
   120
 74
   118
 42
0.000000001
 43
0.0000000001
 44
0.00000001
 40
0.0
 40
0.0
 40
0.0
 40
0.0
 40
0.027818722962451
 40
0.1011590162384269
 40
0.2048470170590523
 40
0.3237088716559245
 40
0.4425707262522284
 40
0.5462587270700116
 40
0.6195990203312934
 40
0.6474177522579513
 40
0.6750060736116095
 40
0.7357003855243611
 40
0.7963946998055327
 40
0.8239830245572619
 40
0.8540933811103997
 40
0.9373396629410109
 40
1.063094687343349
 40
1.220731268638187
 40
1.399622220914861
 40
1.589140358637846
 40
1.778658496424012
 40
1.957549448940679
 40
2.115186030873329
 40
2.240941056914605
 40
2.324187341760703
 40
2.354297700109552
 40
2.381886024672061
 40
2.442580338710646
 40
2.503274652750668
 40
2.530862977314777
 40
2.56098394927873
 40
2.640393784453075
 40
2.752662861759299
 40
2.881361560118315
 40
3.010060258455362
 40
3.122329335705509
 40
3.201739170818123
 40
3.231860142753484
 40
3.26429802403054
 40
3.35234370177841
 40
3.482095226868934
 40
3.639650650173192
 40
3.811108022565649
 40
3.982565394928154
 40
4.140120818152735
 40
4.269872343141444
 40
4.357918020802507
 40
4.390355902044136
 40
4.423256253992705
 40
4.508104530073227
 40
4.624121560636994
 40
4.750528176031751
 40
4.866545206602198
 40
4.951393482692155
 40
4.984293834645556
 40
5.011450833242475
 40
5.071196230152261
 40
5.13094162705734
 40
5.15809862564901
 40
5.1909989776017
 40
5.275847253689526
 40
5.39186428425696
 40
5.518270899648505
 40
5.634287930209545
 40
5.719136206288218
 40
5.752036558236106
 40
5.782130946283131
 40
5.862783906229304
 40
5.979550131775173
 40
6.117984316640578
 40
6.263641154588121
 40
6.402075339414327
 40
6.518841564908123
 40
6.599494524815705
 40
6.629588912848942
 40
6.654403028226519
 40
6.713575149488315
 40
6.784199939329689
 40
6.843372060493791
 40
6.868186175803037
 40
6.896246243202162
 40
6.939586233758585
 40
6.967846564565213
 40
7.043584251090148
 40
7.153234334452006
 40
7.283231855734752
 40
7.420011856035781
 40
7.550009376580129
 40
7.659659458835526
 40
7.73539714441752
 40
7.76365747485169
 40
7.796409728011347
 40
7.880876065096621
 40
7.996370852466007
 40
8.122208446418902
 40
8.237703224799496
 40
8.32216956201119
 40
8.354921815206204
 40
8.382078813307986
 40
8.441824209207297
 40
8.50156960524045
 40
8.52872660348603
 40
8.561478856696079
 40
8.645945193878129
 40
8.76143998086564
 40
8.887277580764783
 40
9.002772362001304
 40
9.087238696661524
 40
9.119990949235978
 40
9.152428830613678
 40
9.240474508638894
 40
9.370226034149843
 40
9.527781457984727
 40
9.699238830981715
 40
9.870696203978904
 40
10.02825162781432
 40
10.15800315332594
 40
10.24604883135149
 40
10.27848670378552
 40
10.27848670378552
 40
10.27848670378552
 40
10.27848670378552
 10
195.3821827564383
 20
14.01410517385759
 30
0.0
 10
195.3914554737523
 20
14.01410498511276
 30
0.0
 10
195.425174453686
 20
14.01410430876716
 30
0.0
 10
195.4934706812465
 20
14.01411807243307
 30
0.0
 10
195.592014171158
 20
14.01403224219547
 30
0.0
 10
195.7062066464812
 20
14.01441755612252
 30
0.0
 10
195.8185894417071
 20
14.01300835897547
 30
0.0
 10
195.9214376600119
 20
14.01719117422245
 30
0.0
 10
195.980683987485
 20
14.00823089251985
 30
0.0
 10
196.0371265937034
 20
14.02164434526062
 30
0.0
 10
196.0246255586955
 20
13.97087198613363
 30
0.0
 10
196.0329549635705
 20
13.92589320939069
 30
0.0
 10
196.0248170841119
 20
13.8805675299049
 30
0.0
 10
196.0370529214458
 20
13.82931932408467
 30
0.0
 10
195.9747773490334
 20
13.84447955365278
 30
0.0
 10
195.9060513026869
 20
13.83359750710745
 30
0.0
 10
195.7782756749592
 20
13.83911304747974
 30
0.0
 10
195.6262984511643
 20
13.837008512537
 30
0.0
 10
195.4502695972523
 20
13.83771002588476
 30
0.0
 10
195.2644431934287
 20
13.83745237531293
 30
0.0
 10
195.0786167437175
 20
13.83771005144606
 30
0.0
 10
194.9025880142169
 20
13.83700841847733
 30
0.0
 10
194.7506104154194
 20
13.83911332229991
 30
0.0
 10
194.6228357664555
 20
13.83359680767642
 30
0.0
 10
194.554107783658
 20
13.84448077125944
 30
0.0
 10
194.4918349042883
 20
13.82931786684211
 30
0.0
 10
194.5040616290017
 20
13.88057510805173
 30
0.0
 10
194.4960004462597
 20
13.92582473272427
 30
0.0
 10
194.5040675809893
 20
13.97106357955325
 30
0.0
 10
194.4918238487083
 20
14.0223417690996
 30
0.0
 10
194.5525017120697
 20
14.00749577363136
 30
0.0
 10
194.6162810745736
 20
14.01756448170737
 30
0.0
 10
194.7277314353502
 20
14.01294644212001
 30
0.0
 10
194.8497533443824
 20
14.01413328905471
 30
0.0
 10
194.9719538137823
 20
14.01515863900637
 30
0.0
 10
195.0829794287392
 20
14.01092475623403
 30
0.0
 10
195.1476517413958
 20
14.02018584521741
 30
0.0
 10
195.2091162810501
 20
14.00604423049685
 30
0.0
 10
195.1930065601337
 20
14.07235527884519
 30
0.0
 10
195.2042980327358
 20
14.14447790121978
 30
0.0
 10
195.1987400822561
 20
14.27513760888288
 30
0.0
 10
195.200803506169
 20
14.42607323708243
 30
0.0
 10
195.2000167127295
 20
14.59335873107888
 30
0.0
 10
195.2007845215627
 20
14.76061110332304
 30
0.0
 10
195.1988038785628
 20
14.91163289269916
 30
0.0
 10
195.2041306156621
 20
15.04206069552997
 30
0.0
 10
195.1933101388425
 20
15.11465442605901
 30
0.0
 10
195.2090326429875
 20
15.181504694368
 30
0.0
 10
195.143270813249
 20
15.16580512490826
 30
0.0
 10
195.0756367830764
 20
15.17609243083997
 30
0.0
 10
194.9615885293809
 20
15.17113786847124
 30
0.0
 10
194.8451242674902
 20
15.17414128030476
 30
0.0
 10
194.7306554121477
 20
15.16880303143391
 30
0.0
 10
194.6640324657812
 20
15.18001268074826
 30
0.0
 10
194.5990769715186
 20
15.16349132665013
 30
0.0
 10
194.6107989758707
 20
15.21473720477061
 30
0.0
 10
194.6032830189121
 20
15.25950333784093
 30
0.0
 10
194.6107989878836
 20
15.30426944897964
 30
0.0
 10
194.5990769505346
 20
15.35551536129744
 30
0.0
 10
194.66403263392
 20
15.33899381766819
 30
0.0
 10
194.7306533339822
 20
15.35020571373946
 30
0.0
 10
194.8451352858063
 20
15.34485436710668
 30
0.0
 10
194.9615454436962
 20
15.3479118877112
 30
0.0
 10
195.0757660174641
 20
15.34278499010711
 30
0.0
 10
195.1430150439226
 20
15.35345733355601
 30
0.0
 10
195.2083325941438
 20
15.3374208266908
 30
0.0
 10
195.1941391448553
 20
15.39949685750057
 30
0.0
 10
195.2036059462995
 20
15.46586761628765
 30
0.0
 10
195.1990269004085
 20
15.58239972741969
 30
0.0
 10
195.2007696555948
 20
15.71426685022379
 30
0.0
 10
195.1997551495391
 20
15.85615960150276
 30
0.0
 10
195.2017191344373
 20
15.98769050702583
 30
0.0
 10
195.196466855385
 20
16.10524577283005
 30
0.0
 10
195.2073408763475
 20
16.16947789001587
 30
0.0
 10
195.1919536641853
 20
16.2310880254505
 30
0.0
 10
195.2407591537801
 20
16.21702407382113
 30
0.0
 10
195.2853995564726
 20
16.21954742075317
 30
0.0
 10
195.3538643946742
 20
16.21512797401712
 30
0.0
 10
195.3959106169103
 20
16.20613025544039
 30
0.0
 10
195.4487544758776
 20
16.21411714866513
 30
0.0
 10
195.4207035002014
 20
16.17113917611675
 30
0.0
 10
195.3749142248595
 20
16.18259552043839
 30
0.0
 10
195.3869539073264
 20
16.12173520005138
 30
0.0
 10
195.3796086070641
 20
16.05769299468774
 30
0.0
 10
195.3831195826162
 20
15.94909368863913
 30
0.0
 10
195.3819806760173
 20
15.82494319144755
 30
0.0
 10
195.3819174780263
 20
15.6918971982988
 30
0.0
 10
195.3832872966868
 20
15.56797381249558
 30
0.0
 10
195.3791638801313
 20
15.45868337849341
 30
0.0
 10
195.3877763103564
 20
15.39608580094173
 30
0.0
 10
195.3746757454402
 20
15.33740133296368
 30
0.0
 10
195.4393884328198
 20
15.35362113810905
 30
0.0
 10
195.5060405953156
 20
15.34270260383314
 30
0.0
 10
195.6198779541103
 20
15.34793740173759
 30
0.0
 10
195.7357259122097
 20
15.34485547516916
 30
0.0
 10
195.849692426328
 20
15.35018259812515
 30
0.0
 10
195.9160341018099
 20
15.33904208166546
 30
0.0
 10
195.9807188525479
 20
15.35546979593181
 30
0.0
 10
195.9689820772722
 20
15.30425925210053
 30
0.0
 10
195.976516806304
 20
15.25950334121003
 30
0.0
 10
195.9689820992257
 20
15.2147473901003
 30
0.0
 10
195.9807188140737
 20
15.16353690871042
 30
0.0
 10
195.9160344075252
 20
15.17996427794222
 30
0.0
 10
195.8496886430824
 20
15.16882784447272
 30
0.0
 10
195.7357459487012
 20
15.17413115893122
 30
0.0
 10
195.6197995623054
 20
15.17114764593546
 30
0.0
 10
195.5062756882122
 20
15.17606892268395
 30
0.0
 10
195.4389231318804
 20
15.16585087513521
 30
0.0
 10
195.3734285122495
 20
15.18145996138817
 30
0.0
 10
195.3891713619218
 20
15.11463851827413
 30
0.0
 10
195.3783275998212
 20
15.0420705781588
 30
0.0
 10
195.3836581629792
 20
14.91162247614418
 30
0.0
 10
195.3817136151855
 20
14.76064558185228
 30
0.0
 10
195.3823133683215
 20
14.5932224393416
 30
0.0
 10
195.3821506559604
 20
14.42656176118373
 30
0.0
 10
195.3821895488136
 20
14.27360142921638
 30
0.0
 10
195.3821816413098
 20
14.14849178985707
 30
0.0
 10
195.3821828382745
 20
14.06507890991422
 30
0.0
 10
195.3821827716207
 20
14.02491778281978
 30
0.0
 10
195.3821827564383
 20
14.01410517385759
 30
0.0
 11
195.3821827564383
 21
14.01410517385759
 31
0.0
 11
195.4100014883675
 21
14.01410517385759
 31
0.0
 11
195.4833417816353
 21
14.01410517385759
 31
0.0
 11
195.5870297824623
 21
14.01410517385759
 31
0.0
 11
195.7058916370687
 21
14.01410517385759
 31
0.0
 11
195.8247534916752
 21
14.01410517385759
 31
0.0
 11
195.9284414925021
 21
14.01410517385759
 31
0.0
 11
196.0017817857699
 21
14.01410517385759
 31
0.0
 11
196.0296005176991
 21
14.01410517385759
 31
0.0
 11
196.0296005176991
 21
13.98651684921171
 31
0.0
 11
196.0296005176991
 21
13.92582253499079
 31
0.0
 11
196.0296005176991
 21
13.86512822076986
 31
0.0
 11
196.0296005176991
 21
13.83753989612399
 31
0.0
 11
195.9994901593494
 21
13.83753989612399
 31
0.0
 11
195.9162438745005
 21
13.83753989612399
 31
0.0
 11
195.7904888484522
 21
13.83753989612399
 31
0.0
 11
195.6328522665042
 21
13.83753989612399
 31
0.0
 11
195.4539613139565
 21
13.83753989612399
 31
0.0
 11
195.2644431761089
 21
13.83753989612399
 31
0.0
 11
195.0749250382613
 21
13.83753989612399
 31
0.0
 11
194.8960340857136
 21
13.83753989612399
 31
0.0
 11
194.7383975037656
 21
13.83753989612399
 31
0.0
 11
194.6126424777173
 21
13.83753989612399
 31
0.0
 11
194.5293961928683
 21
13.83753989612399
 31
0.0
 11
194.4992858345187
 21
13.83753989612399
 31
0.0
 11
194.4992858345187
 21
13.86512822076987
 31
0.0
 11
194.4992858345187
 21
13.92582253499079
 31
0.0
 11
194.4992858345187
 21
13.98651684921171
 31
0.0
 11
194.4992858345187
 21
14.01410517385759
 31
0.0
 11
194.5294068064947
 21
14.01410517385759
 31
0.0
 11
194.608816641704
 21
14.01410517385759
 31
0.0
 11
194.721085719069
 21
14.01410517385759
 31
0.0
 11
194.8497844175118
 21
14.01410517385759
 31
0.0
 11
194.9784831159545
 21
14.01410517385759
 31
0.0
 11
195.0907521933195
 21
14.01410517385759
 31
0.0
 11
195.1701620285289
 21
14.01410517385759
 31
0.0
 11
195.2002830005048
 21
14.01410517385759
 31
0.0
 11
195.2002830005048
 21
14.04654305523837
 31
0.0
 11
195.2002830005048
 21
14.13458873327192
 31
0.0
 11
195.2002830005048
 21
14.26434025879505
 31
0.0
 11
195.2002830005048
 21
14.42189568264456
 31
0.0
 11
195.2002830005048
 21
14.59335305565726
 31
0.0
 11
195.2002830005048
 21
14.76481042866996
 31
0.0
 11
195.2002830005048
 21
14.92236585251946
 31
0.0
 11
195.2002830005048
 21
15.05211737804259
 31
0.0
 11
195.2002830005048
 21
15.14016305607614
 31
0.0
 11
195.2002830005048
 21
15.17260093745692
 31
0.0
 11
195.1673826485529
 21
15.17260093745692
 31
0.0
 11
195.0825343724662
 21
15.17260093745692
 31
0.0
 11
194.9665173418988
 21
15.17260093745692
 31
0.0
 11
194.8401107265044
 21
15.17260093745692
 31
0.0
 11
194.724093695937
 21
15.17260093745692
 31
0.0
 11
194.6392454198503
 21
15.17260093745692
 31
0.0
 11
194.6063450678984
 21
15.17260093745692
 31
0.0
 11
194.6063450678984
 21
15.19975793614805
 31
0.0
 11
194.6063450678984
 21
15.25950333326852
 31
0.0
 11
194.6063450678984
 21
15.319248730389
 31
0.0
 11
194.6063450678984
 21
15.34640572908013
 31
0.0
 11
194.6392454198504
 21
15.34640572908013
 31
0.0
 11
194.724093695937
 21
15.34640572908013
 31
0.0
 11
194.8401107265044
 21
15.34640572908013
 31
0.0
 11
194.9665173418988
 21
15.34640572908013
 31
0.0
 11
195.0825343724662
 21
15.34640572908013
 31
0.0
 11
195.1673826485529
 21
15.34640572908013
 31
0.0
 11
195.2002830005048
 21
15.34640572908013
 31
0.0
 11
195.2002830005048
 21
15.37650011731373
 31
0.0
 11
195.2002830005048
 21
15.45715307777976
 31
0.0
 11
195.2002830005048
 21
15.57391930412612
 31
0.0
 11
195.2002830005048
 21
15.71235349000066
 31
0.0
 11
195.2002830005048
 21
15.85801032905126
 31
0.0
 11
195.2002830005048
 21
15.99644451492581
 31
0.0
 11
195.2002830005048
 21
16.11321074127217
 31
0.0
 11
195.2002830005048
 21
16.1938637017382
 31
0.0
 11
195.2002830005048
 21
16.2239580899718
 31
0.0
 11
195.2250405288618
 21
16.22228324219444
 31
0.0
 11
195.284077711867
 21
16.21828937441768
 31
0.0
 11
195.3545414464215
 21
16.21352249997444
 31
0.0
 11
195.4135786294266
 21
16.20952863219767
 31
0.0
 11
195.4383361577836
 21
16.20785378442032
 31
0.0
 11
195.4233067224031
 21
16.18415814206511
 31
0.0
 11
195.3821827564383
 21
16.17047697887405
 31
0.0
 11
195.3821827564383
 21
16.14221664794833
 31
0.0
 11
195.3821827564383
 21
16.06647896106741
 31
0.0
 11
195.3821827564383
 21
15.95682887707562
 31
0.0
 11
195.3821827564383
 21
15.82683135481732
 31
0.0
 11
195.3821827564383
 21
15.69005135313685
 31
0.0
 11
195.3821827564383
 21
15.56005383087856
 31
0.0
 11
195.3821827564383
 21
15.45040374688677
 31
0.0
 11
195.3821827564383
 21
15.37466606000585
 31
0.0
 11
195.3821827564383
 21
15.34640572908013
 31
0.0
 11
195.4149350096115
 21
15.34640572908013
 31
0.0
 11
195.4994013467422
 21
15.34640572908013
 31
0.0
 11
195.6148961342476
 21
15.34640572908013
 31
0.0
 11
195.7407337385445
 21
15.34640572908013
 31
0.0
 11
195.8562285260498
 21
15.34640572908013
 31
0.0
 11
195.9406948631806
 21
15.34640572908013
 31
0.0
 11
195.9734471163538
 21
15.34640572908013
 31
0.0
 11
195.9734471163538
 21
15.319248730389
 31
0.0
 11
195.9734471163538
 21
15.25950333326852
 31
0.0
 11
195.9734471163538
 21
15.19975793614805
 31
0.0
 11
195.9734471163538
 21
15.17260093745692
 31
0.0
 11
195.9406948631806
 21
15.17260093745692
 31
0.0
 11
195.8562285260498
 21
15.17260093745692
 31
0.0
 11
195.7407337385445
 21
15.17260093745692
 31
0.0
 11
195.6148961342476
 21
15.17260093745692
 31
0.0
 11
195.4994013467422
 21
15.17260093745692
 31
0.0
 11
195.4149350096114
 21
15.17260093745692
 31
0.0
 11
195.3821827564383
 21
15.17260093745692
 31
0.0
 11
195.3821827564383
 21
15.14016305607614
 31
0.0
 11
195.3821827564383
 21
15.05211737804259
 31
0.0
 11
195.3821827564383
 21
14.92236585251947
 31
0.0
 11
195.3821827564383
 21
14.76481042866996
 31
0.0
 11
195.3821827564383
 21
14.59335305565726
 31
0.0
 11
195.3821827564383
 21
14.42189568264455
 31
0.0
 11
195.3821827564383
 21
14.26434025879505
 31
0.0
 11
195.3821827564383
 21
14.13458873327192
 31
0.0
 11
195.3821827564383
 21
14.04654305523837
 31
0.0
 11
195.3821827564383
 21
14.01410517385759
 31
0.0
  0
SPLINE
  5
B8
102
{ACAD_REACTORS
330
D5
102
}
330
48
100
AcDbEntity
  8
_U_30EC_U_30A4_U_30E4_U_30FC_1
  6
Continuous
 62
     2
100
AcDbSpline
210
0.0
220
0.0
230
1.0
 70
    11
 71
     3
 72
   131
 73
   127
 74
   125
 42
0.000000001
 43
0.0000000001
 44
0.00000001
 40
0.0
 40
0.0
 40
0.0
 40
0.0
 40
0.0195577029826212
 40
0.0426490537461534
 40
0.2863607575856533
 40
0.5344948436189079
 40
0.7842238845573313
 40
0.8737315789467498
 40
0.9803832810313216
 40
1.092842274517068
 40
1.199761146656826
 40
1.289788768186532
 40
1.351573580786203
 40
1.370727117561428
 40
1.416400936017836
 40
1.470914848355973
 40
1.516588666791761
 40
1.535742203552839
 40
1.634216592293185
 40
1.760283341175018
 40
1.897966686682078
 40
2.031216387368897
 40
2.049689751137891
 40
2.101115601646825
 40
2.179502577739945
 40
2.278859318314059
 40
2.393194462258716
 40
2.51651664838383
 40
2.642834515405957
 40
2.766156701983461
 40
2.880491846754575
 40
2.979848588358616
 40
3.058235565443793
 40
3.109661416668948
 40
3.128134780704123
 40
3.14678374238644
 40
3.191254343315272
 40
3.244332157315875
 40
3.28880275822575
 40
3.307451719895021
 40
3.327717853844633
 40
3.383747753579993
 40
3.468388665924384
 40
3.574487837698691
 40
3.694892515728796
 40
3.822449946851933
 40
3.950007377920324
 40
4.070412055800414
 40
4.176511227367968
 40
4.261152139501416
 40
4.317182039076608
 40
4.337448172964528
 40
4.620011002696157
 40
4.885096638397473
 40
4.945373043518259
 40
5.014107710488588
 40
5.070481727652016
 40
5.31924695563654
 40
5.584812164506054
 40
5.859000912056945
 40
6.133746937542075
 40
6.401732212968866
 40
6.420736683995456
 40
6.472845717451107
 40
6.550702743894035
 40
6.646951193874243
 40
6.754234497930567
 40
6.865196086587345
 40
6.972479390357804
 40
7.068727839771966
 40
7.146584865450975
 40
7.198693898189204
 40
7.217698368905345
 40
7.234950401630823
 40
7.276089864269868
 40
7.325191803515977
 40
7.366331266090364
 40
7.383583298769714
 40
7.402779163492119
 40
7.453386443254522
 40
7.524934666445552
 40
7.606953361405892
 40
7.688972056429072
 40
7.760520279784322
 40
7.811127559734593
 40
7.830323424546214
 40
7.847844055299844
 40
7.894799345666882
 40
7.96277939274457
 40
8.043374293560618
 40
8.128174145149522
 40
8.208769044817323
 40
8.276749090377024
 40
8.323704379669586
 40
8.341225010056316
 40
8.358497614800465
 40
8.401679126686641
 40
8.4578150921857
 40
8.513951057728104
 40
8.557132569708003
 40
8.574405174505046
 40
8.602340668616398
 40
8.643455660539964
 40
8.663225271966631
 40
8.715345156564275
 40
8.78903188962861
 40
8.87350204552034
 40
8.957972194323963
 40
9.03165892556785
 40
9.083778811234538
 40
9.103548423003001
 40
9.119550083123539
 40
9.16081752237984
 40
9.217244429110206
 40
9.278724491644692
 40
9.335151398295476
 40
9.376418837357772
 40
9.39242049730056
 40
9.401196302734776
 40
9.41749422938425
 40
9.426270027749522
 40
9.440875075477555
 40
9.475702496998734
 40
9.517270709865896
 40
9.552098131994063
 40
9.56670316988427
 40
9.56670316988427
 40
9.56670316988427
 40
9.56670316988427
 10
194.6170254148479
 20
15.67015871511029
 30
0.0
 10
194.6134345093371
 20
15.6645369070216
 30
0.0
 10
194.6056039123625
 20
15.65227754419113
 30
0.0
 10
194.5129968974547
 20
15.61601916040973
 30
0.0
 10
194.4887622233247
 20
15.40148444212716
 30
0.0
 10
194.3858709845939
 20
15.22197284509706
 30
0.0
 10
194.1220492364305
 20
15.03615573798148
 30
0.0
 10
194.284547156918
 20
14.95959336566081
 30
0.0
 10
194.3607225760838
 20
14.89856693195444
 30
0.0
 10
194.4492171072758
 20
14.83515804544761
 30
0.0
 10
194.538993023311
 20
14.77525634219561
 30
0.0
 10
194.5883817636047
 20
14.7210215484921
 30
0.0
 10
194.6745708157381
 20
14.69286240541834
 30
0.0
 10
194.641126067423
 20
14.65713309652813
 30
0.0
 10
194.6214671166311
 20
14.62550387991908
 30
0.0
 10
194.5919888217882
 20
14.58475872796071
 30
0.0
 10
194.5688989446031
 20
14.55504663489646
 30
0.0
 10
194.5380205968358
 20
14.50211422668498
 30
0.0
 10
194.472919336574
 20
14.62740334938904
 30
0.0
 10
194.3796000122415
 20
14.68213900233936
 30
0.0
 10
194.2950636285139
 20
14.73916423939345
 30
0.0
 10
194.1722498125741
 20
14.89675287427524
 30
0.0
 10
194.1764450847301
 20
14.82035806766837
 30
0.0
 10
194.1751478652677
 20
14.77361280161297
 30
0.0
 10
194.1758126448076
 20
14.69584785812602
 30
0.0
 10
194.1755549986956
 20
14.59902068324424
 30
0.0
 10
194.1756431239921
 20
14.4865027907881
 30
0.0
 10
194.1756077302282
 20
14.36524085945701
 30
0.0
 10
194.1756511758278
 20
14.24086897858962
 30
0.0
 10
194.1755199942405
 20
14.11967683631337
 30
0.0
 10
194.1759477562047
 20
14.00691148919744
 30
0.0
 10
194.174667820231
 20
13.91082913768745
 30
0.0
 10
194.1779759851044
 20
13.83113826468701
 30
0.0
 10
194.1715197740086
 20
13.78815175788785
 30
0.0
 10
194.1806208705556
 20
13.74955432372043
 30
0.0
 10
194.1447910339935
 20
13.75810887724071
 30
0.0
 10
194.1115223815253
 20
13.75342519985448
 30
0.0
 10
194.0604562576041
 20
13.75351298759785
 30
0.0
 10
194.0269723972814
 20
13.75794430283822
 30
0.0
 10
193.9907585408754
 20
13.7496079384251
 30
0.0
 10
194.0009782568666
 20
13.79145277179285
 30
0.0
 10
193.9936487887774
 20
13.83778560820175
 30
0.0
 10
193.9973633136103
 20
13.92374831106015
 30
0.0
 10
193.9959480554897
 20
14.0260514270485
 30
0.0
 10
193.9964105554639
 20
14.14453223931513
 30
0.0
 10
193.9962773686232
 20
14.26957683153357
 30
0.0
 10
193.9963015910046
 20
14.39475828107051
 30
0.0
 10
193.9963354925551
 20
14.51286645379059
 30
0.0
 10
193.9962060293133
 20
14.61628748709517
 30
0.0
 10
193.9965507549082
 20
14.69932036153667
 30
0.0
 10
193.9958698278691
 20
14.75143368521244
 30
0.0
 10
193.9994586600622
 20
14.87912907821361
 30
0.0
 10
193.7826171386438
 20
14.58048716819623
 30
0.0
 10
193.602135492195
 20
14.35263981511509
 30
0.0
 10
193.5490322295612
 20
14.49373443289818
 30
0.0
 10
193.5200429133149
 20
14.54325767560946
 30
0.0
 10
193.419664806282
 20
14.64641779790103
 30
0.0
 10
193.7405127723261
 20
14.72695035023784
 30
0.0
 10
193.8689897005429
 20
14.91066283036435
 30
0.0
 10
194.090645432536
 20
15.1193199577176
 30
0.0
 10
194.1770224894069
 20
15.29339211228348
 30
0.0
 10
194.4549394229074
 20
15.56967051342514
 30
0.0
 10
194.3346247839284
 20
15.56534559551116
 30
0.0
 10
194.2863197351348
 20
15.56614856202555
 30
0.0
 10
194.2102377454905
 20
15.56574582146586
 30
0.0
 10
194.116701000975
 20
15.56590275611611
 30
0.0
 10
194.0117594788557
 20
15.56582502576226
 30
0.0
 10
193.9033887738717
 20
15.56595464378556
 30
0.0
 10
193.7981454235897
 20
15.56554393490694
 30
0.0
 10
193.7056237819412
 20
15.56682073671592
 30
0.0
 10
193.6268130800708
 20
15.56340766534853
 30
0.0
 10
193.5839674565379
 20
15.57023350036322
 30
0.0
 10
193.5449499586516
 20
15.56065064201126
 30
0.0
 10
193.5526365271863
 20
15.59420779565544
 30
0.0
 10
193.5485464404312
 20
15.62523550322235
 30
0.0
 10
193.5485531368814
 20
15.67236529270902
 30
0.0
 10
193.5526239724911
 20
15.7034094164678
 30
0.0
 10
193.5449495574582
 20
15.73701861635905
 30
0.0
 10
193.5834819405495
 20
15.72748410420874
 30
0.0
 10
193.6241228014479
 20
15.73397435498073
 30
0.0
 10
193.6951471850463
 20
15.73100150650256
 30
0.0
 10
193.7729318149634
 20
15.7317476139916
 30
0.0
 10
193.8507292246474
 20
15.73247814044527
 30
0.0
 10
193.9217232089908
 20
15.72954235514162
 30
0.0
 10
193.9624279791821
 20
15.73595468772955
 30
0.0
 10
194.000985348991
 20
15.72650524176006
 30
0.0
 10
193.9927342754929
 20
15.76264692158786
 30
0.0
 10
193.9982346669358
 20
15.80129837613229
 30
0.0
 10
193.9955754206164
 20
15.86913528561841
 30
0.0
 10
193.9965815471533
 20
15.94591641538741
 30
0.0
 10
193.996017801832
 20
16.02849393582758
 30
0.0
 10
193.9970714526593
 20
16.10517329229879
 30
0.0
 10
193.994267586313
 20
16.17331990776701
 30
0.0
 10
194.0000702721305
 20
16.21132399809348
 30
0.0
 10
193.9915654551159
 20
16.24758448077647
 30
0.0
 10
194.0255610233125
 20
16.23755723771853
 30
0.0
 10
194.0594575683099
 20
16.24073266813706
 30
0.0
 10
194.1126669060347
 20
16.23508965640611
 30
0.0
 10
194.1660768574484
 20
16.23434774436427
 30
0.0
 10
194.199591464949
 20
16.2281922348298
 30
0.0
 10
194.2388086183039
 20
16.23346029773595
 30
0.0
 10
194.2120263698492
 20
16.19253380793488
 30
0.0
 10
194.1708111001723
 20
16.20371204538112
 30
0.0
 10
194.1782641540874
 20
16.15867056192126
 30
0.0
 10
194.1742227952183
 20
16.11412278028145
 30
0.0
 10
194.176171404964
 20
16.04223572621704
 30
0.0
 10
194.1752364849758
 20
15.96168630588772
 30
0.0
 10
194.176510719003
 20
15.88173995404997
 30
0.0
 10
194.1732043793864
 20
15.80841837083184
 30
0.0
 10
194.1802106179961
 20
15.7668864300257
 30
0.0
 10
194.1701440380126
 20
15.72752418568115
 30
0.0
 10
194.2029814803921
 20
15.73468063430983
 30
0.0
 10
194.236457729648
 20
15.73027243137946
 30
0.0
 10
194.2915053476019
 20
15.73217943347899
 30
0.0
 10
194.3489502595314
 20
15.7318536640729
 30
0.0
 10
194.4023026248309
 20
15.73106308733084
 30
0.0
 10
194.4398540896639
 20
15.73313959118076
 30
0.0
 10
194.4623172523237
 20
15.73022338167111
 30
0.0
 10
194.4751678073731
 20
15.73572552644057
 30
0.0
 10
194.4858255685888
 20
15.73801118197791
 30
0.0
 10
194.4986635650144
 20
15.74494972588054
 30
0.0
 10
194.514599103307
 20
15.72853046313673
 30
0.0
 10
194.5410623920892
 20
15.7170912231945
 30
0.0
 10
194.5726805253757
 20
15.69644687835191
 30
0.0
 10
194.5987255892151
 20
15.68116869628296
 30
0.0
 10
194.6128517723973
 20
15.67266976323185
 30
0.0
 10
194.6170254148479
 20
15.67015871511029
 30
0.0
 11
194.6170254148479
 21
15.67015871511029
 31
0.0
 11
194.6049990002243
 21
15.65473571164189
 31
0.0
 11
194.5848961795565
 21
15.64337406233918
 31
0.0
 11
194.4778986355813
 21
15.4244062023116
 31
0.0
 11
194.3477039934325
 21
15.21317201512161
 31
0.0
 11
194.1996540366071
 21
15.0120605902748
 31
0.0
 11
194.2734958253735
 21
14.9614738493538
 31
0.0
 11
194.36056643118
 21
14.8998841165374
 31
0.0
 11
194.4518003750405
 21
14.83413160594427
 31
0.0
 11
194.5381321779688
 21
14.77105653169306
 31
0.0
 11
194.6104963609787
 21
14.71749910790243
 31
0.0
 11
194.6598274450843
 21
14.68029954869105
 31
0.0
 11
194.6486940702213
 21
14.66471410869495
 31
0.0
 11
194.6221452532403
 21
14.62754882870425
 31
0.0
 11
194.5904579555533
 21
14.58319026871535
 31
0.0
 11
194.5639091385723
 21
14.54602498872465
 31
0.0
 11
194.5527757637093
 21
14.53043954872855
 31
0.0
 11
194.4807013362947
 21
14.5975400869062
 31
0.0
 11
194.385285698538
 21
14.67993354174671
 31
0.0
 11
194.279326415217
 21
14.76785017366918
 31
0.0
 11
194.175621051109
 21
14.85152024309268
 31
0.0
 11
194.175621051109
 21
14.83304687900864
 31
0.0
 11
194.175621051109
 21
14.78162102763956
 31
0.0
 11
194.175621051109
 21
14.70323405031
 31
0.0
 11
194.175621051109
 21
14.6038773083445
 31
0.0
 11
194.175621051109
 21
14.48954216306761
 31
0.0
 11
194.175621051109
 21
14.3662199758039
 31
0.0
 11
194.175621051109
 21
14.23990210787791
 31
0.0
 11
194.175621051109
 21
14.1165799206142
 31
0.0
 11
194.175621051109
 21
14.00224477533731
 31
0.0
 11
194.175621051109
 21
13.90288803337181
 31
0.0
 11
194.175621051109
 21
13.82450105604224
 31
0.0
 11
194.175621051109
 21
13.77307520467317
 31
0.0
 11
194.175621051109
 21
13.75460184058913
 31
0.0
 11
194.1569720893626
 21
13.75460184058913
 31
0.0
 11
194.112501488275
 21
13.75460184058913
 31
0.0
 11
194.0594236740737
 21
13.75460184058913
 31
0.0
 11
194.014953072986
 21
13.75460184058913
 31
0.0
 11
193.9963041112396
 21
13.75460184058913
 31
0.0
 11
193.9963041112396
 21
13.7748679746022
 31
0.0
 11
193.9963041112396
 21
13.83089787452067
 31
0.0
 11
193.9963041112396
 21
13.91553878716348
 31
0.0
 11
193.9963041112396
 21
14.02163795934954
 31
0.0
 11
193.9963041112396
 21
14.14204263789776
 31
0.0
 11
193.9963041112396
 21
14.26960006962706
 31
0.0
 11
193.9963041112396
 21
14.39715750135637
 31
0.0
 11
193.9963041112396
 21
14.51756217990459
 31
0.0
 11
193.9963041112396
 21
14.62366135209064
 31
0.0
 11
193.9963041112396
 21
14.70830226473345
 31
0.0
 11
193.9963041112396
 21
14.76433216465193
 31
0.0
 11
193.9963041112396
 21
14.784598298665
 31
0.0
 11
193.7883272849482
 21
14.59331998274058
 31
0.0
 11
193.5763486358425
 21
14.43414885430812
 31
0.0
 11
193.5495629014483
 21
14.48814671952097
 31
0.0
 11
193.5138765415025
 21
14.54689140572028
 31
0.0
 11
193.4799697494124
 21
14.59192871537978
 31
0.0
 11
193.6830287742319
 21
14.73563387201055
 31
0.0
 11
193.881853195826
 21
14.9116842352999
 31
0.0
 11
194.0677041444179
 21
15.11327514524952
 31
0.0
 11
194.2318427502303
 21
15.3336019418611
 31
0.0
 11
194.3655301434864
 21
15.56585996513637
 31
0.0
 11
194.3465256724482
 21
15.56585996513637
 31
0.0
 11
194.2944166389562
 21
15.56585996513637
 31
0.0
 11
194.2165596124447
 21
15.56585996513637
 31
0.0
 11
194.1203111623478
 21
15.56585996513637
 31
0.0
 11
194.0130278580997
 21
15.56585996513637
 31
0.0
 11
193.9020662691345
 21
15.56585996513637
 31
0.0
 11
193.7947829648864
 21
15.56585996513637
 31
0.0
 11
193.6985345147895
 21
15.56585996513637
 31
0.0
 11
193.620677488278
 21
15.56585996513637
 31
0.0
 11
193.568568454786
 21
15.56585996513637
 31
0.0
 11
193.5495639837478
 21
15.56585996513637
 31
0.0
 11
193.5495639837478
 21
15.58311199790984
 31
0.0
 11
193.5495639837478
 21
15.62425146067734
 31
0.0
 11
193.5495639837478
 21
15.67335340010951
 31
0.0
 11
193.5495639837478
 21
15.71449286287701
 31
0.0
 11
193.5495639837478
 21
15.73174489565047
 31
0.0
 11
193.568759848601
 21
15.73174489565047
 31
0.0
 11
193.6193671286684
 21
15.73174489565047
 31
0.0
 11
193.690915352212
 21
15.73174489565047
 31
0.0
 11
193.7729340474937
 21
15.73174489565047
 31
0.0
 11
193.8549527427754
 21
15.73174489565047
 31
0.0
 11
193.926500966319
 21
15.73174489565047
 31
0.0
 11
193.9771082463865
 21
15.73174489565047
 31
0.0
 11
193.9963041112396
 21
15.73174489565047
 31
0.0
 11
193.9963041112396
 21
15.7492655265522
 31
0.0
 11
193.9963041112396
 21
15.79622081736883
 31
0.0
 11
193.9963041112396
 21
15.86420086526755
 31
0.0
 11
193.9963041112396
 21
15.9447957674155
 31
0.0
 11
193.9963041112396
 21
16.02959562097988
 31
0.0
 11
193.9963041112396
 21
16.11019052312783
 31
0.0
 11
193.9963041112396
 21
16.17817057102654
 31
0.0
 11
193.9963041112396
 21
16.22512586184318
 31
0.0
 11
193.9963041112396
 21
16.24264649274491
 31
0.0
 11
194.0135484112112
 21
16.2416580616752
 31
0.0
 11
194.0566591611401
 21
16.23918698400092
 31
0.0
 11
194.1127031360478
 21
16.23597458302437
 31
0.0
 11
194.1687471109554
 21
16.23276218204781
 31
0.0
 11
194.2118578608843
 21
16.23029110437353
 31
0.0
 11
194.2291021608559
 21
16.22930267330382
 31
0.0
 11
194.2143774674851
 21
16.20556293372641
 31
0.0
 11
194.175621051109
 21
16.19183767331313
 31
0.0
 11
194.175621051109
 21
16.17206806177294
 31
0.0
 11
194.175621051109
 21
16.11994817680334
 31
0.0
 11
194.175621051109
 21
16.04626144288081
 31
0.0
 11
194.175621051109
 21
15.9617912844818
 31
0.0
 11
194.175621051109
 21
15.87732112608279
 31
0.0
 11
194.175621051109
 21
15.80363439216026
 31
0.0
 11
194.175621051109
 21
15.75151450719066
 31
0.0
 11
194.175621051109
 21
15.73174489565047
 31
0.0
 11
194.1916227112935
 21
15.73174489565047
 31
0.0
 11
194.232890150717
 21
15.73174489565047
 31
0.0
 11
194.2893170576837
 21
15.73174489565047
 31
0.0
 11
194.3507971204981
 21
15.73174489565047
 31
0.0
 11
194.4072240274648
 21
15.73174489565047
 31
0.0
 11
194.4484914668882
 21
15.73174489565047
 31
0.0
 11
194.4644931270728
 21
15.73174489565047
 31
0.0
 11
194.4728206422924
 21
15.73451387455922
 31
0.0
 11
194.4882860277004
 21
15.7396562639612
 31
0.0
 11
194.49661354292
 21
15.74242524286995
 31
0.0
 11
194.5091363776005
 21
15.73490952398295
 31
0.0
 11
194.5389985218386
 21
15.71698742509855
 31
0.0
 11
194.5746404359293
 21
15.69559653288169
 31
0.0
 11
194.6045025801674
 21
15.6776744339973
 31
0.0
 11
194.6170254148479
 21
15.67015871511029
 31
0.0
  0
SPLINE
  5
B9
102
{ACAD_REACTORS
330
D6
102
}
330
48
100
AcDbEntity
  8
_U_30EC_U_30A4_U_30E4_U_30FC_1
  6
Continuous
 62
     2
100
AcDbSpline
210
0.0
220
0.0
230
1.0
 70
    11
 71
     3
 72
    91
 73
    87
 74
    85
 42
0.000000001
 43
0.0000000001
 44
0.00000001
 40
0.0
 40
0.0
 40
0.0
 40
0.0
 40
0.0267532254356684
 40
0.0856103386464102
 40
0.1444674521996603
 40
0.1712206856618514
 40
0.2039416005642536
 40
0.2955601971652484
 40
0.4362601844617202
 40
0.6162252844507534
 40
0.8256392189704982
 40
1.054685709844468
 40
1.293548478893588
 40
1.532411247938332
 40
1.761457738799596
 40
1.970871673298593
 40
2.150836773256818
 40
2.291536760495679
 40
2.383155356836757
 40
2.415876284101405
 40
2.442629517488048
 40
2.501486630949178
 40
2.560343744424329
 40
2.5870969778266
 40
2.617068194441027
 40
2.699247336756197
 40
2.822032643466481
 40
2.973822353258039
 40
3.143014704823481
 40
3.31800793688006
 40
3.487200288186894
 40
3.638989997548431
 40
3.76177530379493
 40
3.843954445753265
 40
3.87392566222996
 40
3.890812773500668
 40
3.907699884771847
 40
3.937960767857446
 40
3.980983618142395
 40
4.199085915228579
 40
4.439444339237371
 40
4.67758824126101
 40
5.050698317837896
 40
5.44821245476331
 40
5.855291218044892
 40
6.138575438885605
 40
6.417434507584462
 40
6.444551104394144
 40
6.504207617363444
 40
6.563864130314768
 40
6.590980727104361
 40
6.848609460381761
 40
7.109611990668717
 40
7.352910904446398
 40
7.557830220705786
 40
7.587518925913705
 40
7.652834077376148
 40
7.718149228846132
 40
7.747837934062437
 40
7.854880190301365
 40
7.976511257403882
 40
8.36948789659271
 40
8.75751495922406
 40
9.126072419331523
 40
9.460639380392585
 40
9.746695593036327
 40
9.777569943119094
 40
9.807050320932197
 40
9.83037733612933
 40
9.886003295436405
 40
9.95239556943032
 40
10.00802152870667
 40
10.0313485438826
 40
10.21356951009633
 40
10.42203479292913
 40
10.66154556731109
 40
10.9169378956435
 40
11.15832906556611
 40
11.18982674596669
 40
11.27286608520453
 40
11.390266530334
 40
11.52484752840937
 40
11.65942852648496
 40
11.77682897161537
 40
11.85986831085737
 40
11.89136598230482
 40
11.89136598230482
 40
11.89136598230482
 40
11.89136598230482
 10
190.7027885008196
 20
14.70699600701773
 30
0.0
 10
190.7028237765288
 20
14.71587847311986
 30
0.0
 10
190.7029366710796
 20
14.74430237047347
 30
0.0
 10
190.7012984568489
 20
14.79409639169804
 30
0.0
 10
190.7069750292911
 20
14.83657564478155
 30
0.0
 10
190.6956928731706
 20
14.88730154856848
 30
0.0
 10
190.7632296979031
 20
14.8701290074011
 30
0.0
 10
190.8388029210701
 20
14.88290227165997
 30
0.0
 10
190.9828357056001
 20
14.87629729457383
 30
0.0
 10
191.1569419185427
 20
14.87888462206467
 30
0.0
 10
191.3639599611003
 20
14.87800591955554
 30
0.0
 10
191.5894688172378
 20
14.87828207920028
 30
0.0
 10
191.8251162293406
 20
14.87818339658663
 30
0.0
 10
192.0607640531349
 20
14.87828184412768
 30
0.0
 10
192.2862717580626
 20
14.8780067819079
 30
0.0
 10
192.4932934632805
 20
14.87888186270736
 30
0.0
 10
192.667388891529
 20
14.87630522678447
 30
0.0
 10
192.8114492071986
 20
14.88288290449215
 30
0.0
 10
192.8869691915293
 20
14.87016243405605
 30
0.0
 10
192.9545776037031
 20
14.88726400191689
 30
0.0
 10
192.9430840140676
 20
14.83674785802941
 30
0.0
 10
192.9505104581735
 20
14.79253252226502
 30
0.0
 10
192.9428838927987
 20
14.74867966503611
 30
0.0
 10
192.9546489459426
 20
14.69878374479329
 30
0.0
 10
192.8930788491984
 20
14.71393227712513
 30
0.0
 10
192.8256791738672
 20
14.70310665350675
 30
0.0
 10
192.7013004056222
 20
14.70852031626237
 30
0.0
 10
192.5554428236572
 20
14.70649205390786
 30
0.0
 10
192.3893576440086
 20
14.70715777578388
 30
0.0
 10
192.2188412621725
 20
14.70689643521243
 30
0.0
 10
192.0519790855389
 20
14.70721553391095
 30
0.0
 10
191.9087346827105
 20
14.70635302590763
 30
0.0
 10
191.7773313869834
 20
14.70863300482989
 30
0.0
 10
191.7239859134656
 20
14.70407704374203
 30
0.0
 10
191.6485188456912
 20
14.70999914992879
 30
0.0
 10
191.6769075779232
 20
14.70094169343353
 30
0.0
 10
191.7033652409542
 20
14.6972591226893
 30
0.0
 10
191.6633522907702
 20
14.66654271968279
 30
0.0
 10
191.5713663691868
 20
14.67667591174629
 30
0.0
 10
191.543939620707
 20
14.43032502247791
 30
0.0
 10
191.4478793967234
 20
14.27499558764376
 30
0.0
 10
191.1917277964473
 20
13.94525417931571
 30
0.0
 10
191.7627537732762
 20
14.08430022210453
 30
0.0
 10
192.0173656320517
 20
14.08291779973364
 30
0.0
 10
192.6279647048619
 20
13.99790569242087
 30
0.0
 10
192.3340698578083
 20
14.29685417558203
 30
0.0
 10
192.0133304286518
 20
14.44330856901783
 30
0.0
 10
192.1313543360433
 20
14.50025540818288
 30
0.0
 10
192.1724716466261
 20
14.52420099873349
 30
0.0
 10
192.2156812394411
 20
14.54599758811232
 30
0.0
 10
192.317457409445
 20
14.60928721253903
 30
0.0
 10
192.4328867625248
 20
14.35147151408783
 30
0.0
 10
192.6329591642277
 20
14.21616041113683
 30
0.0
 10
192.7269077387229
 20
14.03792795138884
 30
0.0
 10
192.9558829746393
 20
13.87997821027052
 30
0.0
 10
192.8596031846709
 20
13.82915972576301
 30
0.0
 10
192.816795976378
 20
13.79881292523055
 30
0.0
 10
192.7718243528779
 20
13.77466130281462
 30
0.0
 10
192.7121720925213
 20
13.72552146747569
 30
0.0
 10
192.6789731061326
 20
13.85997475673612
 30
0.0
 10
192.5582013350796
 20
14.01594265286582
 30
0.0
 10
192.1970976005978
 20
13.88569928059557
 30
0.0
 10
191.8385061955541
 20
13.90224694409484
 30
0.0
 10
191.457092045008
 20
13.89331229351865
 30
0.0
 10
191.170345528289
 20
13.82882671672409
 30
0.0
 10
190.8592055599717
 20
13.94230668192826
 30
0.0
 10
190.8268737818787
 20
13.8312225992777
 30
0.0
 10
190.7896178253318
 20
13.81196313850013
 30
0.0
 10
190.7865737632753
 20
13.85874784087297
 30
0.0
 10
190.7679892860608
 20
13.89806853919136
 30
0.0
 10
190.7512436616777
 20
13.95765983478234
 30
0.0
 10
190.7383730915753
 20
14.00201969871284
 30
0.0
 10
190.7042327806429
 20
14.09106331120204
 30
0.0
 10
190.9482714457753
 20
14.02181042943772
 30
0.0
 10
191.1441394486671
 20
14.00030369057746
 30
0.0
 10
191.2395426381277
 20
14.28226484478464
 30
0.0
 10
191.2945135769598
 20
14.44363045421123
 30
0.0
 10
191.5159619357156
 20
14.71391177589739
 30
0.0
 10
191.3849239381217
 20
14.70548446853735
 30
0.0
 10
191.3110026555854
 20
14.70779008496971
 30
0.0
 10
191.1977459876244
 20
14.70671378321659
 30
0.0
 10
191.0694251807485
 20
14.7070763907651
 30
0.0
 10
190.9404252030415
 20
14.70697724466087
 30
0.0
 10
190.8287840946292
 20
14.70699932712573
 30
0.0
 10
190.7514663970025
 20
14.70699579189671
 30
0.0
 10
190.713287653201
 20
14.70699595845082
 30
0.0
 10
190.7027885008196
 20
14.70699600701773
 30
0.0
 11
190.7027885008196
 21
14.70699600701773
 31
0.0
 11
190.7027885008196
 21
14.73374924051798
 31
0.0
 11
190.7027885008196
 21
14.79260635421855
 31
0.0
 11
190.7027885008196
 21
14.8514634679191
 31
0.0
 11
190.7027885008196
 21
14.87821670141936
 31
0.0
 11
190.7355094280989
 21
14.87821670141936
 31
0.0
 11
190.8271280244809
 21
14.87821670141936
 31
0.0
 11
190.9678280117819
 21
14.87821670141936
 31
0.0
 11
191.147793111818
 21
14.87821670141936
 31
0.0
 11
191.3572070464054
 21
14.87821670141936
 31
0.0
 11
191.5862535373604
 21
14.87821670141936
 31
0.0
 11
191.8251163064993
 21
14.87821670141936
 31
0.0
 11
192.0639790756381
 21
14.87821670141936
 31
0.0
 11
192.2930255665931
 21
14.87821670141936
 31
0.0
 11
192.5024395011806
 21
14.87821670141936
 31
0.0
 11
192.6824046012168
 21
14.87821670141936
 31
0.0
 11
192.8231045885177
 21
14.87821670141936
 31
0.0
 11
192.9147231848997
 21
14.87821670141936
 31
0.0
 11
192.947444112179
 21
14.87821670141936
 31
0.0
 11
192.947444112179
 21
14.85146346791911
 31
0.0
 11
192.947444112179
 21
14.79260635421855
 31
0.0
 11
192.947444112179
 21
14.73374924051798
 31
0.0
 11
192.947444112179
 21
14.70699600701773
 31
0.0
 11
192.9174728954758
 21
14.70699600701773
 31
0.0
 11
192.8352937529027
 21
14.70699600701773
 31
0.0
 11
192.712508445764
 21
14.70699600701773
 31
0.0
 11
192.5607187353642
 21
14.70699600701773
 31
0.0
 11
192.3915263830078
 21
14.70699600701773
 31
0.0
 11
192.2165331499991
 21
14.70699600701773
 31
0.0
 11
192.0473407976427
 21
14.70699600701773
 31
0.0
 11
191.8955510872428
 21
14.70699600701773
 31
0.0
 11
191.7727657801042
 21
14.70699600701773
 31
0.0
 11
191.690586637531
 21
14.70699600701773
 31
0.0
 11
191.6606154208279
 21
14.70699600701773
 31
0.0
 11
191.6766359412525
 21
14.70165583340794
 31
0.0
 11
191.6926564616771
 21
14.69631565979816
 31
0.0
 11
191.670615568142
 21
14.67558114591444
 31
0.0
 11
191.6284861855364
 21
14.66685871536112
 31
0.0
 11
191.5365235541377
 21
14.46909247312658
 31
0.0
 11
191.4279078521763
 21
14.2546751197851
 31
0.0
 11
191.3127500824807
 21
14.04622559051622
 31
0.0
 11
191.685736667502
 21
14.0558244125303
 31
0.0
 11
192.083070003615
 21
14.06781232404996
 31
0.0
 11
192.4899342191146
 21
14.08102711828533
 31
0.0
 11
192.2983119496979
 21
14.28966761302482
 31
0.0
 11
192.0966752013698
 21
14.48229420151833
 31
0.0
 11
192.1204947794749
 21
14.49525327269565
 31
0.0
 11
192.1728978513061
 21
14.52376322928577
 31
0.0
 11
192.2253009231374
 21
14.55227318587589
 31
0.0
 11
192.2491205012425
 21
14.56523225705321
 31
0.0
 11
192.4387101558627
 21
14.3907950837027
 31
0.0
 11
192.6200310940436
 21
14.20305846374093
 31
0.0
 11
192.7777729231148
 21
14.01782380992438
 31
0.0
 11
192.8966252504059
 21
13.85089253500951
 31
0.0
 11
192.8715408217924
 21
13.83501202286071
 31
0.0
 11
192.8163550788426
 21
13.80007489613334
 31
0.0
 11
192.7611693358928
 21
13.76513776940597
 31
0.0
 11
192.7360849072793
 21
13.74925725725717
 31
0.0
 11
192.6775518151613
 21
13.83887824681811
 31
0.0
 11
192.6050015078458
 21
13.93650288221033
 31
0.0
 11
192.2125412924095
 21
13.9163628694376
 31
0.0
 11
191.824947406956
 21
13.89803302999774
 31
0.0
 11
191.4567378976213
 21
13.88202178722396
 31
0.0
 11
191.1224308105412
 21
13.86883756444948
 31
0.0
 11
190.8365441918518
 21
13.85898878500751
 31
0.0
 11
190.821186232174
 21
13.83220523466697
 31
0.0
 11
190.7937434290546
 21
13.82143559057246
 31
0.0
 11
190.7867927192319
 21
13.84370299445578
 31
0.0
 11
190.7702179496548
 21
13.8968021883314
 31
0.0
 11
190.7504351601596
 21
13.96017864553778
 31
0.0
 11
190.7338603905825
 21
14.01327783941339
 31
0.0
 11
190.7269096807598
 21
14.03554524329671
 31
0.0
 11
190.9091199859153
 21
14.03751638912954
 31
0.0
 11
191.1174975848588
 21
14.04356211829473
 31
0.0
 11
191.2303203127216
 21
14.25483550301555
 31
0.0
 11
191.3407936722036
 21
14.4850981315588
 31
0.0
 11
191.4358254265628
 21
14.70699600701773
 31
0.0
 11
191.4043277461597
 21
14.70699600701773
 31
0.0
 11
191.3212884069154
 21
14.70699600701773
 31
0.0
 11
191.2038879617768
 21
14.70699600701773
 31
0.0
 11
191.0693069636912
 21
14.70699600701773
 31
0.0
 11
190.9347259656055
 21
14.70699600701773
 31
0.0
 11
190.817325520467
 21
14.70699600701773
 31
0.0
 11
190.7342861812226
 21
14.70699600701773
 31
0.0
 11
190.7027885008196
 21
14.70699600701773
 31
0.0
  0
SPLINE
  5
BA
102
{ACAD_REACTORS
330
D7
102
}
330
48
100
AcDbEntity
  8
_U_30EC_U_30A4_U_30E4_U_30FC_1
  6
Continuous
 62
     2
100
AcDbSpline
210
0.0
220
0.0
230
1.0
 70
    11
 71
     3
 72
    35
 73
    31
 74
    29
 42
0.000000001
 43
0.0000000001
 44
0.00000001
 40
0.0
 40
0.0
 40
0.0
 40
0.0
 40
0.033523103662059
 40
0.0713218571712022
 40
0.4278866681486986
 40
0.8116865841963985
 40
1.198190238000058
 40
1.561379546812686
 40
1.659983174622055
 40
1.75931557380719
 40
2.132719617231051
 40
2.525233363588778
 40
2.910815397779686
 40
3.26524436430327
 40
3.592606723581969
 40
3.964386154603914
 40
4.359942131737759
 40
4.758154118639294
 40
4.8438465386999
 40
4.936650065543171
 40
5.256616602537224
 40
5.581707404415912
 40
5.899719158308051
 40
6.198363494280653
 40
6.466301046615719
 40
6.493895311537041
 40
6.559697020196777
 40
6.638234543442352
 40
6.704036252154077
 40
6.731630508422854
 40
6.731630508422854
 40
6.731630508422854
 40
6.731630508422854
 10
191.9736010568669
 20
16.23463843719135
 30
0.0
 10
191.9676006097788
 20
16.22480690542324
 30
0.0
 10
191.9548344099157
 20
16.203889885798
 30
0.0
 10
191.7949362006551
 20
16.17127126532686
 30
0.0
 10
192.2322025842338
 20
15.88206680336705
 30
0.0
 10
192.4345394828262
 20
15.6804113835844
 30
0.0
 10
192.6819564267973
 20
15.43749387603278
 30
0.0
 10
193.1831513624606
 20
15.36047662757778
 30
0.0
 10
193.012556219897
 20
15.21876939174658
 30
0.0
 10
192.9383299463201
 20
15.0171036620911
 30
0.0
 10
192.6131432248188
 20
15.36956287174727
 30
0.0
 10
192.3277741670664
 20
15.53175212559566
 30
0.0
 10
192.0337604077658
 20
15.73687130053047
 30
0.0
 10
191.8084452691134
 20
16.21827488595456
 30
0.0
 10
191.5993085055522
 20
15.75343046609223
 30
0.0
 10
191.3207873674835
 20
15.54350952252914
 30
0.0
 10
191.037138317721
 20
15.37424456359987
 30
0.0
 10
190.707863952783
 20
15.00142360907939
 30
0.0
 10
190.6277012318224
 20
15.19708014459
 30
0.0
 10
190.4759724909746
 20
15.32491104190603
 30
0.0
 10
190.9083395826795
 20
15.40454031765933
 30
0.0
 10
191.0962565329766
 20
15.60026634915479
 30
0.0
 10
191.3468477420503
 20
15.81632996916755
 30
0.0
 10
191.5714350470161
 20
15.98190992300061
 30
0.0
 10
191.6259775409713
 20
16.26133964636829
 30
0.0
 10
191.7494661029012
 20
16.24737950408079
 30
0.0
 10
191.8060273344521
 20
16.24521268867649
 30
0.0
 10
191.8761870984945
 20
16.24046859881361
 30
0.0
 10
191.9333414022105
 20
16.23709429350543
 30
0.0
 10
191.9644190320839
 20
16.2351985471112
 30
0.0
 10
191.9736010568669
 20
16.23463843719135
 30
0.0
 11
191.9736010568669
 21
16.23463843719135
 31
0.0
 11
191.9525319069884
 21
16.20856374969787
 31
0.0
 11
191.9174464559425
 21
16.1945011455347
 31
0.0
 11
192.1512374769094
 21
15.92527961131383
 31
0.0
 11
192.4414585957566
 21
15.67413407969261
 31
0.0
 11
192.7612797483684
 21
15.45710987618786
 31
0.0
 11
193.0838708706289
 21
15.29025232631639
 31
0.0
 11
193.0213299868076
 21
15.2140203558493
 31
0.0
 11
192.9688035818975
 21
15.12971197913426
 31
0.0
 11
192.6436279095814
 21
15.31326404831582
 31
0.0
 11
192.3237227768436
 21
15.5407013974343
 31
0.0
 11
192.0354200158608
 21
15.79673855123311
 31
0.0
 11
191.8050514588095
 21
16.06609003445567
 31
0.0
 11
191.5995531719516
 21
15.81126348721038
 31
0.0
 11
191.3288301341536
 21
15.55645182277758
 31
0.0
 11
191.0119538423247
 21
15.31969466354858
 31
0.0
 11
190.6679957933741
 21
15.11903163191468
 31
0.0
 11
190.6218855341338
 21
15.19126067703554
 31
0.0
 11
190.5636970460349
 21
15.26355586798968
 31
0.0
 11
190.8433040489015
 21
15.41911456961746
 31
0.0
 11
191.1093004621154
 21
15.60601009790406
 31
0.0
 11
191.3499997459747
 21
15.8138449628521
 31
0.0
 11
191.5537153607775
 21
16.03222167446417
 31
0.0
 11
191.7087607668219
 21
16.25074274274288
 31
0.0
 11
191.7363041569866
 21
16.24906789496552
 31
0.0
 11
191.8019845489177
 21
16.24507402718874
 31
0.0
 11
191.8803772747711
 21
16.24030715274549
 31
0.0
 11
191.9460576667022
 21
16.23631328496871
 31
0.0
 11
191.9736010568669
 21
16.23463843719135
 31
0.0
  0
SPLINE
  5
BB
102
{ACAD_REACTORS
330
D8
102
}
330
48
100
AcDbEntity
  8
_U_30EC_U_30A4_U_30E4_U_30FC_1
  6
Continuous
 62
     2
100
AcDbSpline
210
0.0
220
0.0
230
1.0
 70
    11
 71
     3
 72
    15
 73
    11
 74
     9
 42
0.000000001
 43
0.0000000001
 44
0.00000001
 40
0.0
 40
0.0
 40
0.0
 40
0.0
 40
0.2785535985096117
 40
0.5215624748198844
 40
0.6076917376040858
 40
0.6938210001741751
 40
0.9405019146455489
 40
1.221691403489183
 40
1.300471877081122
 40
1.37925234168493
 40
1.37925234168493
 40
1.37925234168493
 40
1.37925234168493
 10
189.5681493631
 20
16.22930267330382
 30
0.0
 10
189.6296017794178
 20
16.17691646592717
 30
0.0
 10
189.7446649974113
 20
16.0788287679822
 30
0.0
 10
190.0397348497245
 20
15.9288978589722
 30
0.0
 10
189.9025147631857
 20
15.84343227515016
 30
0.0
 10
189.8041227843778
 20
15.71085785201558
 30
0.0
 10
189.7130033590649
 20
16.0161698578142
 30
0.0
 10
189.3636839480655
 20
16.07967869465378
 30
0.0
 10
189.511925837657
 20
16.1789650988088
 30
0.0
 10
189.5494081874237
 20
16.21252348402384
 30
0.0
 10
189.5681493631
 20
16.22930267330382
 30
0.0
 11
189.5681493631
 21
16.22930267330382
 31
0.0
 11
189.7919222440596
 21
16.06341774278973
 31
0.0
 11
189.9695046306384
 21
15.89753281227565
 31
0.0
 11
189.9066308127979
 21
15.83866743034593
 31
0.0
 11
189.8437569949575
 21
15.77980204841622
 31
0.0
 11
189.6688535117725
 21
15.95375677059492
 31
0.0
 11
189.447825685614
 21
16.12757920110704
 31
0.0
 11
189.507987524357
 21
16.17844093720543
 31
0.0
 11
189.5681493631
 21
16.22930267330382
 31
0.0
  0
SPLINE
  5
BC
102
{ACAD_REACTORS
330
D9
102
}
330
48
100
AcDbEntity
  8
_U_30EC_U_30A4_U_30E4_U_30FC_1
  6
Continuous
 62
     2
100
AcDbSpline
210
0.0
220
0.0
230
1.0
 70
    11
 71
     3
 72
    75
 73
    71
 74
    69
 42
0.000000001
 43
0.0000000001
 44
0.00000001
 40
0.0
 40
0.0
 40
0.0
 40
0.0
 40
0.0342546099129691
 40
0.1245622414432364
 40
0.2522385480897572
 40
0.3985991922940715
 40
0.544959836498091
 40
0.6726361431438905
 40
0.7629437746737031
 40
0.7971983935298061
 40
1.101723623449672
 40
1.408591244036676
 40
1.43333247169038
 40
1.487763172450179
 40
1.542193873082008
 40
1.566935100592557
 40
1.92352393182187
 40
2.271755704953671
 40
2.590579755100914
 40
2.858943305581174
 40
2.889120339309165
 40
2.91830585519108
 40
2.941366645531203
 40
2.996357760973105
 40
3.061992318140669
 40
3.116983433626867
 40
3.140044223997546
 40
3.411273122936521
 40
3.732441619741129
 40
3.761068217532829
 40
3.837787499630389
 40
3.948858699126031
 40
4.08054104910441
 40
4.219093782625793
 40
4.350776132722345
 40
4.46184733240568
 40
4.538566614678414
 40
4.567193212544661
 40
4.594907573998919
 40
4.666381453557458
 40
4.76411104401104
 40
4.870592538125843
 40
4.968322128642237
 40
5.039796008286951
 40
5.067510369784381
 40
5.094263603185597
 40
5.153120716668232
 40
5.211977830150678
 40
5.238731063551684
 40
5.272290535138952
 40
5.363380529444756
 40
5.497618415781462
 40
5.660621563453676
 40
5.838007341749377
 40
6.015393119910756
 40
6.178396267038353
 40
6.312634151842333
 40
6.403724143059323
 40
6.437283612672418
 40
6.464036846261036
 40
6.522893960004652
 40
6.581751071483916
 40
6.608504301590864
 40
6.637253941281012
 40
6.711397748902892
 40
6.812778057283504
 40
6.92323719924928
 40
7.024617507623924
 40
7.098761315207634
 40
7.127510946007584
 40
7.127510946007584
 40
7.127510946007584
 40
7.127510946007584
 10
188.4418622390564
 20
14.95849128473266
 30
0.0
 10
188.4418622819707
 20
14.94707313408722
 30
0.0
 10
188.4418624481128
 20
14.9055525784263
 30
0.0
 10
188.4418593081787
 20
14.82146922003774
 30
0.0
 10
188.44187882798
 20
14.70004497322329
 30
0.0
 10
188.4417912187738
 20
14.55980494047449
 30
0.0
 10
188.442111623523
 20
14.42006556794577
 30
0.0
 10
188.4411605909741
 20
14.2974503889493
 30
0.0
 10
188.4431978595967
 20
14.21587074438044
 30
0.0
 10
188.4349433178746
 20
14.06271267077699
 30
0.0
 10
188.7430797940901
 20
14.22560236054723
 30
0.0
 10
189.0350645173735
 20
14.39482938688005
 30
0.0
 10
189.0408354448708
 20
14.25973235781913
 30
0.0
 10
189.045547171989
 20
14.21617221160446
 30
0.0
 10
189.0482535411919
 20
14.17211249350547
 30
0.0
 10
189.0672545672956
 20
14.02272590363134
 30
0.0
 10
188.6583942247304
 20
14.08681172241262
 30
0.0
 10
188.3793710348832
 20
13.97296341411019
 30
0.0
 10
188.1018081587167
 20
13.87364095811138
 30
0.0
 10
187.8099837184399
 20
13.91630687596364
 30
0.0
 10
187.7869144678658
 20
13.8132167974454
 30
0.0
 10
187.7537474383334
 20
13.78691091244473
 30
0.0
 10
187.748065396274
 20
13.83455309036307
 30
0.0
 10
187.7284214559045
 20
13.87180336115072
 30
0.0
 10
187.7095089485623
 20
13.93007387847565
 30
0.0
 10
187.6942849867707
 20
13.97385201007807
 30
0.0
 10
187.6477246372936
 20
14.08759421046314
 30
0.0
 10
187.9890897312451
 20
14.05576301120049
 30
0.0
 10
188.2679649367383
 20
14.02161435106481
 30
0.0
 10
188.2617753034908
 20
14.16913976479653
 30
0.0
 10
188.2630935452773
 20
14.24013150908833
 30
0.0
 10
188.2624831689948
 20
14.34719767958663
 30
0.0
 10
188.2625871570725
 20
14.47398529785999
 30
0.0
 10
188.2629987964055
 20
14.60849243496051
 30
0.0
 10
188.2613907841968
 20
14.73395549951186
 30
0.0
 10
188.2659902567925
 20
14.84505246719119
 30
0.0
 10
188.256418650221
 20
14.9076188680069
 30
0.0
 10
188.2704001783691
 20
14.96595388295003
 30
0.0
 10
188.2147384386705
 20
14.95289710582239
 30
0.0
 10
188.1575655197822
 20
14.96136307749501
 30
0.0
 10
188.0616048925647
 20
14.95729976080638
 30
0.0
 10
187.9633767522822
 20
14.95970889852476
 30
0.0
 10
187.8672582457561
 20
14.9555160061339
 30
0.0
 10
187.8104648525812
 20
14.96429346441165
 30
0.0
 10
187.7550356873385
 20
14.95094936850124
 30
0.0
 10
187.7670679427918
 20
15.00036910959259
 30
0.0
 10
187.7592003173938
 20
15.04393988030397
 30
0.0
 10
187.7666295563831
 20
15.08830469118528
 30
0.0
 10
187.7551930564144
 20
15.13902297763993
 30
0.0
 10
187.8232102370134
 20
15.12162460757745
 30
0.0
 10
187.8968496879747
 20
15.13417450237191
 30
0.0
 10
188.0325064058211
 20
15.12799677011099
 30
0.0
 10
188.1884909024526
 20
15.13029203093086
 30
0.0
 10
188.3615926358144
 20
15.12940968262532
 30
0.0
 10
188.5346942964182
 20
15.1302920714241
 30
0.0
 10
188.6906789811218
 20
15.12799662955552
 30
0.0
 10
188.8263351889798
 20
15.13417486262433
 30
0.0
 10
188.8999756705653
 20
15.12162394218337
 30
0.0
 10
188.9679914174724
 20
15.13902373012145
 30
0.0
 10
188.9565590885923
 20
15.08830130414557
 30
0.0
 10
188.9639539458297
 20
15.0439706081111
 30
0.0
 10
188.9562039912272
 20
15.00028307550198
 30
0.0
 10
188.9681203741877
 20
14.95063590098478
 30
0.0
 10
188.9108170223618
 20
14.96461411338428
 30
0.0
 10
188.8520145789773
 20
14.95539755673255
 30
0.0
 10
188.75252936332
 20
14.95952268164932
 30
0.0
 10
188.649428009835
 20
14.95822760025889
 30
0.0
 10
188.5537846354574
 20
14.95854077077643
 30
0.0
 10
188.4857467971617
 20
14.95848776697146
 30
0.0
 10
188.4514462213443
 20
14.95849051871658
 30
0.0
 10
188.4418622390564
 20
14.95849128473266
 30
0.0
 11
188.4418622390564
 21
14.95849128473266
 31
0.0
 11
188.4418622390564
 21
14.92423666587186
 31
0.0
 11
188.4418622390564
 21
14.83392903432977
 31
0.0
 11
188.4418622390564
 21
14.7062527276668
 31
0.0
 11
188.4418622390564
 21
14.55989208344341
 31
0.0
 11
188.4418622390564
 21
14.41353143922001
 31
0.0
 11
188.4418622390564
 21
14.28585513255705
 31
0.0
 11
188.4418622390564
 21
14.19554750101496
 31
0.0
 11
188.4418622390564
 21
14.16129288215416
 31
0.0
 11
188.7391932644567
 21
14.2270947571377
 31
0.0
 11
189.0384623627245
 21
14.29496038212074
 31
0.0
 11
189.0405487124976
 21
14.2703072788283
 31
0.0
 11
189.0451386819987
 21
14.21607045158492
 31
0.0
 11
189.0497286514996
 21
14.16183362434154
 31
0.0
 11
189.0518150012728
 21
14.13718052104909
 31
0.0
 11
188.705639688924
 21
14.05163370140899
 31
0.0
 11
188.3669653138838
 21
13.97060877629902
 31
0.0
 11
188.0563731516688
 21
13.89862764024929
 31
0.0
 11
187.7944444777955
 21
13.84021218778991
 31
0.0
 11
187.7817515029292
 21
13.81283442738013
 31
0.0
 11
187.7569794787514
 21
13.79740260446737
 31
0.0
 11
187.7491867589502
 21
13.81910683390638
 31
0.0
 11
187.7306041194242
 21
13.87086307333788
 31
0.0
 11
187.70842483999
 21
13.93263664943353
 31
0.0
 11
187.689842200464
 21
13.98439288886503
 31
0.0
 11
187.6820494806628
 21
14.00609711830404
 31
0.0
 11
187.9482776335932
 21
14.05794001759667
 31
0.0
 11
188.2626334936289
 21
14.12373968771911
 31
0.0
 11
188.2626334936289
 21
14.15236628569626
 31
0.0
 11
188.2626334936289
 21
14.229085568275
 31
0.0
 11
188.2626334936289
 21
14.34015676842633
 31
0.0
 11
188.2626334936289
 21
14.47183911912119
 31
0.0
 11
188.2626334936289
 21
14.61039185333057
 31
0.0
 11
188.2626334936289
 21
14.74207420402544
 31
0.0
 11
188.2626334936289
 21
14.85314540417676
 31
0.0
 11
188.2626334936289
 21
14.92986468675551
 31
0.0
 11
188.2626334936289
 21
14.95849128473266
 31
0.0
 11
188.2349191321108
 21
14.95849128473266
 31
0.0
 11
188.1634452524063
 21
14.95849128473266
 31
0.0
 11
188.0657156617901
 21
14.95849128473266
 31
0.0
 11
187.9592341675364
 21
14.95849128473266
 31
0.0
 11
187.8615045769201
 21
14.95849128473266
 31
0.0
 11
187.7900306972156
 21
14.95849128473266
 31
0.0
 11
187.7623163356976
 21
14.95849128473266
 31
0.0
 11
187.7623163356976
 21
14.98524451823291
 31
0.0
 11
187.7623163356976
 21
15.04410163193346
 31
0.0
 11
187.7623163356976
 21
15.10295874563401
 31
0.0
 11
187.7623163356976
 21
15.12971197913426
 31
0.0
 11
187.7958758072876
 21
15.12971197913426
 31
0.0
 11
187.8869658016031
 21
15.12971197913426
 31
0.0
 11
188.021203687963
 21
15.12971197913426
 31
0.0
 11
188.1842068356856
 21
15.12971197913426
 31
0.0
 11
188.3615926140897
 21
15.12971197913426
 31
0.0
 11
188.5389783924938
 21
15.12971197913426
 31
0.0
 11
188.7019815402165
 21
15.12971197913426
 31
0.0
 11
188.8362194265763
 21
15.12971197913426
 31
0.0
 11
188.9273094208919
 21
15.12971197913426
 31
0.0
 11
188.9608688924819
 21
15.12971197913426
 31
0.0
 11
188.9608688924819
 21
15.10295874563401
 31
0.0
 11
188.9608688924819
 21
15.04410163193346
 31
0.0
 11
188.9608688924819
 21
14.98524451823291
 31
0.0
 11
188.9608688924819
 21
14.95849128473266
 31
0.0
 11
188.9321192527878
 21
14.95849128473266
 31
0.0
 11
188.8579754451555
 21
14.95849128473266
 31
0.0
 11
188.7565951367605
 21
14.95849128473266
 31
0.0
 11
188.6461359947778
 21
14.95849128473266
 31
0.0
 11
188.5447556863828
 21
14.95849128473266
 31
0.0
 11
188.4706118787505
 21
14.95849128473266
 31
0.0
 11
188.4418622390564
 21
14.95849128473266
 31
0.0
  0
SPLINE
  5
BD
102
{ACAD_REACTORS
330
DA
102
}
330
48
100
AcDbEntity
  8
_U_30EC_U_30A4_U_30E4_U_30FC_1
  6
Continuous
 62
     2
100
AcDbSpline
210
0.0
220
0.0
230
1.0
 70
    11
 71
     3
 72
    91
 73
    87
 74
    85
 42
0.000000001
 43
0.0000000001
 44
0.00000001
 40
0.0
 40
0.0
 40
0.0
 40
0.0
 40
0.0345987051695718
 40
0.1258134969461369
 40
0.2547723404888987
 40
0.4026032099154125
 40
0.5504340793416704
 40
0.679392922883608
 40
0.7706077146571035
 40
0.8052064287780925
 40
1.124852390615283
 40
1.427402236308882
 40
1.706356627453523
 40
1.955541417875206
 40
2.16948593856635
 40
2.344350786664816
 40
2.480568411561946
 40
2.590440557428941
 40
2.649189927151094
 40
2.749320643306316
 40
2.912632739880014
 40
3.147745656000208
 40
3.244827496385099
 40
3.338490056946691
 40
3.583815413207118
 40
3.76142394323848
 40
3.886956104362642
 40
3.985855451886803
 40
4.091766255337688
 40
4.250186473811882
 40
4.422734315084527
 40
4.628285684838621
 40
4.872093227758455
 40
5.152549652145568
 40
5.464967135837545
 40
5.803201477852458
 40
6.16036298881393
 40
6.193449448276013
 40
6.284170385501668
 40
6.419718138764509
 40
6.587285046385787
 40
6.774063446723673
 40
6.967245678113656
 40
7.15402407881767
 40
7.321590987026028
 40
7.457138740890386
 40
7.547859678556122
 40
7.580946138182682
 40
7.608533084714734
 40
7.669224367077708
 40
7.729915649429927
 40
7.757502595949978
 40
7.79027806255346
 40
7.88014627743093
 40
8.014419963180364
 40
8.180411842397865
 40
8.365434637679334
 40
8.556801071622607
 40
8.741823866830691
 40
8.907815745916258
 40
9.042089431507355
 40
9.13195764624948
 40
9.164733112797057
 40
9.415425063139983
 40
9.667986180958442
 40
9.69416980746261
 40
9.756607686047568
 40
9.831130315322374
 40
9.893568193899839
 40
9.919751820398655
 40
9.95096796469049
 40
9.9964216312106
 40
10.22087981037448
 40
10.44341866197536
 40
10.47847970788849
 40
10.57091337438749
 40
10.70159545461224
 40
10.85140174170355
 40
11.00120802880472
 40
11.13189010907377
 40
11.22432377583005
 40
11.25938480938951
 40
11.28697175596139
 40
11.34766303835913
 40
11.40835432042064
 40
11.43594125892098
 40
11.43594125892098
 40
11.43594125892098
 40
11.43594125892098
 10
190.0818114333289
 20
15.55242795125079
 30
0.0
 10
190.0702785844941
 20
15.55242790287917
 30
0.0
 10
190.0283409444998
 20
15.55242773704166
 30
0.0
 10
189.9434129719026
 20
15.55243125800911
 30
0.0
 10
189.8207688553128
 20
15.5524092643588
 30
0.0
 10
189.6791206916993
 20
15.55250801177056
 30
0.0
 10
189.537975369849
 20
15.55214686232423
 30
0.0
 10
189.4141351317905
 20
15.55321883609091
 30
0.0
 10
189.3317217825381
 20
15.5509224909127
 30
0.0
 10
189.1727791229692
 20
15.56048569373421
 30
0.0
 10
189.3503402353375
 20
15.19785394311372
 30
0.0
 10
189.3379739205453
 20
14.95243127723116
 30
0.0
 10
189.4064519473864
 20
14.66862501324836
 30
0.0
 10
189.469302432097
 20
14.43250999939037
 30
0.0
 10
189.5452253431728
 20
14.2332674039613
 30
0.0
 10
189.6303189577017
 20
14.07745347451377
 30
0.0
 10
189.7244607592936
 20
13.97657857781395
 30
0.0
 10
189.8282648207727
 20
13.92465852638967
 30
0.0
 10
189.9125872030774
 20
13.9760648437962
 30
0.0
 10
189.9351322179453
 20
14.09144544037517
 30
0.0
 10
189.9745730975371
 20
14.21885149702382
 30
0.0
 10
189.9202919734942
 20
14.53622328086757
 30
0.0
 10
190.0451218072473
 20
14.38982180140907
 30
0.0
 10
190.2019291513602
 20
14.35795300331172
 30
0.0
 10
190.0947720007057
 20
14.12421357767628
 30
0.0
 10
190.0808711209867
 20
13.95972776583658
 30
0.0
 10
190.0234709467225
 20
13.83130869122484
 30
0.0
 10
189.9335020145008
 20
13.76018802352828
 30
0.0
 10
189.8095274657877
 20
13.74432324142255
 30
0.0
 10
189.663427319686
 20
13.77993797554172
 30
0.0
 10
189.5243894320284
 20
13.90000570500279
 30
0.0
 10
189.4102003962144
 20
14.07435682550321
 30
0.0
 10
189.3146141301486
 20
14.29946603111242
 30
0.0
 10
189.2318652572626
 20
14.56388246006444
 30
0.0
 10
189.1807179256412
 20
14.88187933098545
 30
0.0
 10
189.0770189207339
 20
15.15543728488915
 30
0.0
 10
189.204284120852
 20
15.56005818612869
 30
0.0
 10
189.0357890623019
 20
15.5511236784968
 30
0.0
 10
188.9511995787077
 20
15.55315961418365
 30
0.0
 10
188.8189876387628
 20
15.55213937388408
 30
0.0
 10
188.6560505094104
 20
15.55253230318431
 30
0.0
 10
188.4733759170534
 20
15.5523569631337
 30
0.0
 10
188.2847057373383
 20
15.5526010530747
 30
0.0
 10
188.101446902019
 20
15.55185657906238
 30
0.0
 10
187.9404746832719
 20
15.55416360522428
 30
0.0
 10
187.8029808335276
 20
15.54799804883664
 30
0.0
 10
187.7289590372312
 20
15.56032838458213
 30
0.0
 10
187.6613215186857
 20
15.54329323723558
 30
0.0
 10
187.6732373719271
 20
15.59524438447529
 30
0.0
 10
187.6655677285694
 20
15.6407142496653
 30
0.0
 10
187.6732592225117
 20
15.68614453703706
 30
0.0
 10
187.6613141797762
 20
15.73802395984572
 30
0.0
 10
187.7283588305868
 20
15.72119143490265
 30
0.0
 10
187.8017375665677
 20
15.73335409092672
 30
0.0
 10
187.9379128305273
 20
15.72727231074959
 30
0.0
 10
188.0973811801513
 20
15.72954834315059
 30
0.0
 10
188.2789173085837
 20
15.72881233998963
 30
0.0
 10
188.4658034862179
 20
15.72905954196135
 30
0.0
 10
188.6468012316836
 20
15.72886400799255
 30
0.0
 10
188.8080802578879
 20
15.7293223471484
 30
0.0
 10
188.9393882124887
 20
15.72812673751207
 30
0.0
 10
189.0225051322597
 20
15.73051347319743
 30
0.0
 10
189.1556236547814
 20
15.72230605725465
 30
0.0
 10
189.064589350266
 20
15.97752868952656
 30
0.0
 10
188.9789633074419
 20
16.24164358328248
 30
0.0
 10
189.0990589003455
 20
16.22904442969166
 30
0.0
 10
189.1514264948544
 20
16.22694235763076
 30
0.0
 10
189.2214497569715
 20
16.22535399889658
 30
0.0
 10
189.2671922337817
 20
16.21602567538113
 30
0.0
 10
189.3220812646934
 20
16.22545966915428
 30
0.0
 10
189.296357478568
 20
16.17733028655173
 30
0.0
 10
189.1825397571453
 20
16.18266829744168
 30
0.0
 10
189.3159346621136
 20
15.95449174576777
 30
0.0
 10
189.1943658735471
 20
15.72156856595924
 30
0.0
 10
189.3223188769413
 20
15.7308725888444
 30
0.0
 10
189.4049048406461
 20
15.72801001754682
 30
0.0
 10
189.5307214850824
 20
15.72923437412303
 30
0.0
 10
189.6741469838058
 20
15.72932431888965
 30
0.0
 10
189.8157420951728
 20
15.72746163183854
 30
0.0
 10
189.9459127249968
 20
15.73333075937163
 30
0.0
 10
190.019345228619
 20
15.72070340823204
 30
0.0
 10
190.0891112922096
 20
15.73877563110413
 30
0.0
 10
190.0775772605396
 20
15.68612850546327
 30
0.0
 10
190.0833184346682
 20
15.64221317686549
 30
0.0
 10
190.0816615770911
 20
15.59089982676551
 30
0.0
 10
190.0817757561669
 20
15.56158792021636
 30
0.0
 10
190.0818114333289
 20
15.55242795125079
 30
0.0
 11
190.0818114333289
 21
15.55242795125079
 31
0.0
 11
190.0472127192051
 21
15.55242795125079
 31
0.0
 11
189.9559979274241
 21
15.55242795125079
 31
0.0
 11
189.8270390838717
 21
15.55242795125079
 31
0.0
 11
189.6792082144335
 21
15.55242795125079
 31
0.0
 11
189.5313773449954
 21
15.55242795125079
 31
0.0
 11
189.402418501443
 21
15.55242795125079
 31
0.0
 11
189.311203709662
 21
15.55242795125079
 31
0.0
 11
189.2766049955382
 21
15.55242795125079
 31
0.0
 11
189.3083140497693
 21
15.23435864930122
 31
0.0
 11
189.3527866656866
 21
14.93509522788082
 31
0.0
 11
189.409238911832
 21
14.66191269512577
 31
0.0
 11
189.4768868567478
 21
14.42208605917229
 31
0.0
 11
189.5549465689762
 21
14.22289032815656
 31
0.0
 11
189.6426341170592
 21
14.07160051021479
 31
0.0
 11
189.7391655695389
 21
13.97549161348319
 31
0.0
 11
189.8437569949575
 21
13.94183864609794
 31
0.0
 11
189.8943077302786
 21
13.97177376978837
 31
0.0
 11
189.9310588991552
 21
14.06491619815049
 31
0.0
 11
189.9562640977528
 21
14.22627151712056
 31
0.0
 11
189.9721769222368
 21
14.46084531263483
 31
0.0
 11
190.0494082682583
 21
14.40202182306619
 31
0.0
 11
190.1327184184385
 21
14.35921885432691
 31
0.0
 11
190.1066365811217
 21
14.11528388661011
 31
0.0
 11
190.0673317805105
 21
13.94207902887563
 31
0.0
 11
190.0105702596765
 21
13.83011272445918
 31
0.0
 11
189.932118261691
 21
13.76989341669646
 31
0.0
 11
189.8277420296256
 21
13.75192954892318
 31
0.0
 11
189.6738595065097
 21
13.78957440012362
 31
0.0
 11
189.5388902376747
 21
13.89707348877404
 31
0.0
 11
189.4221739916163
 21
14.0662736174481
 31
0.0
 11
189.32305053683
 21
14.28902158871945
 31
0.0
 11
189.2408596418113
 21
14.55716420516174
 31
0.0
 11
189.1749410750559
 21
14.86254826934862
 31
0.0
 11
189.1246346050594
 21
15.19702058385375
 31
0.0
 11
189.0892800003172
 21
15.55242795125079
 31
0.0
 11
189.0561935405844
 21
15.55242795125079
 31
0.0
 11
188.9654726026075
 21
15.55242795125079
 31
0.0
 11
188.8299248482186
 21
15.55242795125079
 31
0.0
 11
188.6623579392495
 21
15.55242795125079
 31
0.0
 11
188.4755795375324
 21
15.55242795125079
 31
0.0
 11
188.2823973048993
 21
15.55242795125079
 31
0.0
 11
188.0956189031822
 21
15.55242795125079
 31
0.0
 11
187.9280519942132
 21
15.55242795125079
 31
0.0
 11
187.7925042398242
 21
15.55242795125079
 31
0.0
 11
187.7017833018473
 21
15.55242795125079
 31
0.0
 11
187.6686968421146
 21
15.55242795125079
 31
0.0
 11
187.6686968421146
 21
15.58001489785848
 31
0.0
 11
187.6686968421146
 21
15.64070618039539
 31
0.0
 11
187.6686968421146
 21
15.7013974629323
 31
0.0
 11
187.6686968421146
 21
15.72898440953999
 31
0.0
 11
187.7014723087632
 21
15.72898440953999
 31
0.0
 11
187.7913405237674
 21
15.72898440953999
 31
0.0
 11
187.9256142097149
 21
15.72898440953999
 31
0.0
 11
188.0916060891932
 21
15.72898440953999
 31
0.0
 11
188.2766288847902
 21
15.72898440953999
 31
0.0
 11
188.4679953190932
 21
15.72898440953999
 31
0.0
 11
188.6530181146902
 21
15.72898440953999
 31
0.0
 11
188.8190099941685
 21
15.72898440953999
 31
0.0
 11
188.953283680116
 21
15.72898440953999
 31
0.0
 11
189.0431518951202
 21
15.72898440953999
 31
0.0
 11
189.0759273617688
 21
15.72898440953999
 31
0.0
 11
189.0659183950103
 21
15.9794764754496
 31
0.0
 11
189.0599112510663
 21
16.23196614552532
 31
0.0
 11
189.0860575870659
 21
16.23056921608122
 31
0.0
 11
189.1484065421419
 21
16.22723807663762
 31
0.0
 11
189.2228230369099
 21
16.2232622005275
 31
0.0
 11
189.2851719919859
 21
16.21993106108389
 31
0.0
 11
189.3113183279855
 21
16.2185341316398
 31
0.0
 11
189.298293111304
 21
16.19016528616081
 31
0.0
 11
189.2551649266405
 21
16.17581274276165
 31
0.0
 11
189.2574991961821
 21
15.95136670115109
 31
0.0
 11
189.2658452735903
 21
15.72898440953999
 31
0.0
 11
189.3009063195165
 21
15.72898440953999
 31
0.0
 11
189.3933399860495
 21
15.72898440953999
 31
0.0
 11
189.5240220663201
 21
15.72898440953999
 31
0.0
 11
189.6738283534596
 21
15.72898440953999
 31
0.0
 11
189.8236346405991
 21
15.72898440953999
 31
0.0
 11
189.9543167208697
 21
15.72898440953999
 31
0.0
 11
190.0467503874027
 21
15.72898440953999
 31
0.0
 11
190.0818114333289
 21
15.72898440953999
 31
0.0
 11
190.0818114333289
 21
15.7013974629323
 31
0.0
 11
190.0818114333289
 21
15.64070618039539
 31
0.0
 11
190.0818114333289
 21
15.58001489785848
 31
0.0
 11
190.0818114333289
 21
15.55242795125079
 31
0.0
  0
SPLINE
  5
BE
102
{ACAD_REACTORS
330
DB
102
}
330
48
100
AcDbEntity
  8
_U_30EC_U_30A4_U_30E4_U_30FC_1
  6
Continuous
 62
     2
100
AcDbSpline
210
0.0
220
0.0
230
1.0
 70
    11
 71
     3
 72
   118
 73
   114
 74
   112
 42
0.000000001
 43
0.0000000001
 44
0.00000001
 40
0.0
 40
0.0
 40
0.0
 40
0.0
 40
0.105470816297341
 40
0.2466098270051896
 40
0.3965912874591219
 40
0.528552506975399
 40
0.6156245055642275
 40
0.643143410579742
 40
0.7036850037985956
 40
0.7642265984504016
 40
0.7917455052354321
 40
0.928740431998983
 40
1.106572819088036
 40
1.287544879681033
 40
1.317578308030552
 40
1.399928030857189
 40
1.522968204799963
 40
1.675072986590584
 40
1.84461653318066
 40
2.019973001638728
 40
2.18951654888004
 40
2.341621331585377
 40
2.464661506320513
 40
2.547011229647077
 40
2.577044658168043
 40
2.603797890893085
 40
2.662655002908772
 40
2.721512114949555
 40
2.748265347702707
 40
2.774215307344783
 40
2.845959313407112
 40
2.954338556588312
 40
3.090194227585489
 40
3.244367517100456
 40
3.407699615844215
 40
3.571031714539363
 40
3.725205003920039
 40
3.861060674729539
 40
3.969439917716232
 40
4.041183923628906
 40
4.067133883212899
 40
4.311886746012095
 40
4.54789725833547
 40
4.764747083043923
 40
4.952749679951719
 40
5.045772974195811
 40
5.137862019644925
 40
5.33054316979298
 40
5.553448265243977
 40
5.795083855888159
 40
6.043293412177221
 40
6.285761695541171
 40
6.313902908752683
 40
6.384255941793273
 40
6.475714884766862
 40
6.567173827758952
 40
6.637526860839759
 40
6.665668074074122
 40
6.692018920328096
 40
6.749990782071161
 40
6.807962643790526
 40
6.834313490017998
 40
6.856393084245277
 40
6.913335195649901
 40
6.991194817302593
 40
7.076026942283883
 40
7.153886563725401
 40
7.210828674844955
 40
7.232908268931319
 40
7.25819933492384
 40
7.32487578159249
 40
7.419142481925145
 40
7.527204308842088
 40
7.635266135230665
 40
7.72953283416865
 40
7.796209279292973
 40
7.821500344594919
 40
7.844652988850989
 40
7.89986314054174
 40
7.965759128053878
 40
8.020969279771133
 40
8.0441219240466
 40
8.06935661016067
 40
8.109134395441469
 40
8.13223810019118
 40
8.193147867786543
 40
8.279261678876718
 40
8.377977512673933
 40
8.476693347146718
 40
8.562807160411769
 40
8.623716930826555
 40
8.646820636853509
 40
8.671988793774322
 40
8.734909185828233
 40
8.816705695188947
 40
8.898502204815518
 40
8.961422597377979
 40
8.986590754551091
 40
9.012941600733244
 40
9.070913462380327
 40
9.128885324081818
 40
9.155236170325137
 40
9.18040432792918
 40
9.243324721948253
 40
9.325121234212046
 40
9.406917746637701
 40
9.469838141978157
 40
9.49500628827093
 40
9.517811184379074
 40
9.572192090487073
 40
9.637098333281301
 40
9.691479239515502
 40
9.714284125643541
 40
9.714284125643541
 40
9.714284125643541
 40
9.714284125643541
 10
185.2874469028653
 20
15.26889163187721
 30
0.0
 10
185.3090990569037
 20
15.24111869242813
 30
0.0
 10
185.3597257109473
 20
15.17618054561238
 30
0.0
 10
185.4349383202592
 20
15.068910603129
 30
0.0
 10
185.5248482274345
 20
14.95377438266627
 30
0.0
 10
185.5709169676674
 20
14.85357045748321
 30
0.0
 10
185.6655825294655
 20
14.78434006814946
 30
0.0
 10
185.6204439320412
 20
14.73771639678274
 30
0.0
 10
185.5947047785791
 20
14.69660308866042
 30
0.0
 10
185.5645196708012
 20
14.66065971727939
 30
0.0
 10
185.5193684730563
 20
14.58579782596093
 30
0.0
 10
185.4710504458561
 20
14.80782524253602
 30
0.0
 10
185.3968539713074
 20
14.84510677337713
 30
0.0
 10
185.2836047324605
 20
15.116102021306
 30
0.0
 10
185.288513357817
 20
15.0009532844623
 30
0.0
 10
185.2868486556306
 20
14.92836675781628
 30
0.0
 10
185.2876830076713
 20
14.80625588483987
 30
0.0
 10
185.2873609540265
 20
14.65913800810462
 30
0.0
 10
185.2875076912455
 20
14.49307063956557
 30
0.0
 10
185.2872950092722
 20
14.32187554608603
 30
0.0
 10
185.2879497252034
 20
14.15552828635499
 30
0.0
 10
185.2859192461139
 20
14.00935173055694
 30
0.0
 10
185.291346039993
 20
13.88471047474611
 30
0.0
 10
185.2804930868707
 20
13.81718656540627
 30
0.0
 10
185.2956739155555
 20
13.75549061417024
 30
0.0
 10
185.2457895108134
 20
13.76727503897002
 30
0.0
 10
185.2017150342522
 20
13.75943822779971
 30
0.0
 10
185.1582371630201
 20
13.76760441372703
 30
0.0
 10
185.1092346786489
 20
13.75538056738469
 30
0.0
 10
185.1218731234826
 20
13.80960667249314
 30
0.0
 10
185.113018296845
 20
13.86936918907558
 30
0.0
 10
185.1175058770314
 20
13.9792202904437
 30
0.0
 10
185.1157960135992
 20
14.1102997540568
 30
0.0
 10
185.1163550915987
 20
14.26198011444329
 30
0.0
 10
185.1161928768694
 20
14.42211074929954
 30
0.0
 10
185.1162269924676
 20
14.58236865674567
 30
0.0
 10
185.1162514960127
 20
14.7337024752044
 30
0.0
 10
185.1161453543226
 20
14.86582156338601
 30
0.0
 10
185.1164299141932
 20
14.97294802533195
 30
0.0
 10
185.1158675547568
 20
15.03808619579475
 30
0.0
 10
185.1180765083691
 20
15.16618957858677
 30
0.0
 10
185.0319435998603
 20
14.79097610391576
 30
0.0
 10
184.9555140818499
 20
14.63918193123396
 30
0.0
 10
184.8660040767834
 20
14.4776620644631
 30
0.0
 10
184.7640413217325
 20
14.20471848820172
 30
0.0
 10
184.7187976491039
 20
14.36717346596516
 30
0.0
 10
184.610235594167
 20
14.45605432058118
 30
0.0
 10
184.7995791751753
 20
14.60549794961412
 30
0.0
 10
184.85653405457
 20
14.79749136974928
 30
0.0
 10
184.9717520993353
 20
15.02899622906758
 30
0.0
 10
184.9940151630133
 20
15.21797259759066
 30
0.0
 10
185.177190515214
 20
15.49454089325933
 30
0.0
 10
185.0538033597553
 20
15.48698978832096
 30
0.0
 10
184.9925684166834
 20
15.4885677236612
 30
0.0
 10
184.9081999617065
 20
15.48882592573674
 30
0.0
 10
184.8204235085965
 20
15.48544845751207
 30
0.0
 10
184.7656768696123
 20
15.49394814982022
 30
0.0
 10
184.7104703026025
 20
15.4804856104979
 30
0.0
 10
184.7222823035536
 20
15.52931442126765
 30
0.0
 10
184.7142496151794
 20
15.5726900489671
 30
0.0
 10
184.7228186104679
 20
15.61509438309574
 30
0.0
 10
184.7102943409156
 20
15.66267796552119
 30
0.0
 10
184.7555101538735
 20
15.6526721299511
 30
0.0
 10
184.8014815562723
 20
15.65894105174062
 30
0.0
 10
184.877722204771
 20
15.65593561405873
 30
0.0
 10
184.9561296131994
 20
15.65770448278542
 30
0.0
 10
185.0323992648933
 20
15.65464793981661
 30
0.0
 10
185.0783009459475
 20
15.66103971376178
 30
0.0
 10
185.1231733965401
 20
15.65093822978897
 30
0.0
 10
185.1105552275635
 20
15.70157201581899
 30
0.0
 10
185.1191936582707
 20
15.75501261882071
 30
0.0
 10
185.1152361595444
 20
15.84863255131681
 30
0.0
 10
185.1162325068335
 20
15.95112606688924
 30
0.0
 10
185.1171927413075
 20
16.05353270248165
 30
0.0
 10
185.1133211458005
 20
16.14735929609321
 30
0.0
 10
185.1217789814366
 20
16.20036542840354
 30
0.0
 10
185.1093075932836
 20
16.25211435651189
 30
0.0
 10
185.1542106389851
 20
16.23850747226759
 30
0.0
 10
185.1955083836772
 20
16.24100480320586
 30
0.0
 10
185.259534428105
 20
16.23648060574489
 30
0.0
 10
185.2986111148786
 20
16.22781003043309
 30
0.0
 10
185.3476543498742
 20
16.23515102070688
 30
0.0
 10
185.322508003059
 20
16.19602896051758
 30
0.0
 10
185.2815901333723
 20
16.2056384245581
 30
0.0
 10
185.2910109616604
 20
16.15540148169779
 30
0.0
 10
185.2855647318746
 20
16.10385945639491
 30
0.0
 10
185.2881699601804
 20
16.01959707584522
 30
0.0
 10
185.2870102202154
 20
15.92559135583409
 30
0.0
 10
185.2883591064231
 20
15.83196865395527
 30
0.0
 10
185.2849970101509
 20
15.74679517552224
 30
0.0
 10
185.2920959917769
 20
15.69716856072045
 30
0.0
 10
185.2812569154545
 20
15.6499369496999
 30
0.0
 10
185.3304010225245
 20
15.66201674936852
 30
0.0
 10
185.3794877630146
 20
15.65447393363012
 30
0.0
 10
185.4573714280641
 20
15.65686070361433
 30
0.0
 10
185.5350365172895
 20
15.65899381905415
 30
0.0
 10
185.5845393931355
 20
15.65193391922456
 30
0.0
 10
185.6344594750639
 20
15.66360151936215
 30
0.0
 10
185.6223198516881
 20
15.61540235371394
 30
0.0
 10
185.6305838229143
 20
15.57249219801237
 30
0.0
 10
185.6223198650783
 20
15.52958201851387
 30
0.0
 10
185.6344594549854
 20
15.48138288754867
 30
0.0
 10
185.5845395158746
 20
15.49305034471512
 30
0.0
 10
185.5350350651202
 20
15.48599202435047
 30
0.0
 10
185.4573784382973
 20
15.48811665228606
 30
0.0
 10
185.379464386576
 20
15.49053389365762
 30
0.0
 10
185.3304500352716
 20
15.48291848194487
 30
0.0
 10
185.2813246108943
 20
15.49507952557594
 30
0.0
 10
185.2915559988571
 20
15.4507301342416
 30
0.0
 10
185.2856677678053
 20
15.40925436202913
 30
0.0
 10
185.2878788305569
 20
15.34915394315305
 30
0.0
 10
185.2874109346146
 20
15.30225782762891
 30
0.0
 10
185.2874386992913
 20
15.27650146418198
 30
0.0
 10
185.2874469028653
 20
15.26889163187721
 30
0.0
 11
185.2874469028653
 21
15.26889163187721
 31
0.0
 11
185.3516977534484
 21
15.18524999634258
 31
0.0
 11
185.4348258835499
 21
15.07118889748223
 31
0.0
 11
185.5216831568896
 21
14.94891767195725
 31
0.0
 11
185.5971214371872
 21
14.84064565642878
 31
0.0
 11
185.6459925881626
 21
14.76858218755791
 31
0.0
 11
185.6296821285093
 21
14.746417821244
 31
0.0
 11
185.593799117272
 21
14.6976562153534
 31
0.0
 11
185.5579161060347
 21
14.64889460946281
 31
0.0
 11
185.5416056463814
 21
14.6267302431489
 31
0.0
 11
185.4763067109446
 21
14.74716139023814
 31
0.0
 11
185.3848434243234
 21
14.89966983670208
 31
0.0
 11
185.2874469028653
 21
15.05219788193143
 31
0.0
 11
185.2874469028653
 21
15.02216445328254
 31
0.0
 11
185.2874469028653
 21
14.93981472956784
 31
0.0
 11
185.2874469028653
 21
14.81677455413529
 31
0.0
 11
185.2874469028653
 21
14.66466977033284
 31
0.0
 11
185.2874469028653
 21
14.49512622150846
 31
0.0
 11
185.2874469028653
 21
14.3197697510101
 31
0.0
 11
185.2874469028653
 21
14.15022620218572
 31
0.0
 11
185.2874469028653
 21
13.99812141838327
 31
0.0
 11
185.2874469028653
 21
13.87508124295072
 31
0.0
 11
185.2874469028653
 21
13.79273151923602
 31
0.0
 11
185.2874469028653
 21
13.76269809058713
 31
0.0
 11
185.2606936700409
 21
13.76269809058713
 31
0.0
 11
185.2018365578272
 21
13.76269809058713
 31
0.0
 11
185.1429794456135
 21
13.76269809058713
 31
0.0
 11
185.1162262127891
 21
13.76269809058713
 31
0.0
 11
185.1162262127891
 21
13.78864805031251
 31
0.0
 11
185.1162262127891
 21
13.86039205661208
 31
0.0
 11
185.1162262127891
 21
13.96877130017102
 31
0.0
 11
185.1162262127891
 21
14.10462697167448
 31
0.0
 11
185.1162262127891
 21
14.25880026180762
 31
0.0
 11
185.1162262127891
 21
14.4221323612556
 31
0.0
 11
185.1162262127891
 21
14.58546446070357
 31
0.0
 11
185.1162262127891
 21
14.73963775083671
 31
0.0
 11
185.1162262127891
 21
14.87549342234016
 31
0.0
 11
185.1162262127891
 21
14.9838726658991
 31
0.0
 11
185.1162262127891
 21
15.05561667219868
 31
0.0
 11
185.1162262127891
 21
15.08156663192406
 31
0.0
 11
185.0379865861722
 21
14.84965603302373
 31
0.0
 11
184.9497110789304
 21
14.63077616328679
 31
0.0
 11
184.8544106930045
 21
14.43598991333548
 31
0.0
 11
184.7550964303356
 21
14.27636017379204
 31
0.0
 11
184.7109198342406
 21
14.358224461966
 31
0.0
 11
184.658805738348
 21
14.43414885430812
 31
0.0
 11
184.7627302590299
 21
14.59640087926759
 31
0.0
 11
184.8629319864735
 21
14.79551465421783
 31
0.0
 11
184.9550446607902
 21
15.01890447916199
 31
0.0
 11
185.0347020220912
 21
15.25398465410322
 31
0.0
 11
185.0975378104881
 21
15.48816947904467
 31
0.0
 11
185.0693965972143
 21
15.48816947904467
 31
0.0
 11
184.9990435640298
 21
15.48816947904467
 31
0.0
 11
184.9075846208899
 21
15.48816947904467
 31
0.0
 11
184.81612567775
 21
15.48816947904467
 31
0.0
 11
184.7457726445654
 21
15.48816947904467
 31
0.0
 11
184.7176314312916
 21
15.48816947904467
 31
0.0
 11
184.7176314312916
 21
15.51452032539224
 31
0.0
 11
184.7176314312916
 21
15.5724921873569
 31
0.0
 11
184.7176314312916
 21
15.63046404932156
 31
0.0
 11
184.7176314312916
 21
15.65681489566913
 31
0.0
 11
184.739711025602
 21
15.65681489566913
 31
0.0
 11
184.7966531372444
 21
15.65681489566913
 31
0.0
 11
184.8745127592862
 21
15.65681489566913
 31
0.0
 11
184.9593448847945
 21
15.65681489566913
 31
0.0
 11
185.0372045068362
 21
15.65681489566913
 31
0.0
 11
185.0941466184787
 21
15.65681489566913
 31
0.0
 11
185.1162262127891
 21
15.65681489566913
 31
0.0
 11
185.1162262127891
 21
15.68210596174354
 31
0.0
 11
185.1162262127891
 21
15.74878240866698
 31
0.0
 11
185.1162262127891
 21
15.84304910948978
 31
0.0
 11
185.1162262127891
 21
15.95111093726225
 31
0.0
 11
185.1162262127891
 21
16.05917276503472
 31
0.0
 11
185.1162262127891
 21
16.15343946585752
 31
0.0
 11
185.1162262127891
 21
16.22011591278096
 31
0.0
 11
185.1162262127891
 21
16.24540697885537
 31
0.0
 11
185.1393181988666
 21
16.24373213107801
 31
0.0
 11
185.1943837041285
 21
16.23973826330123
 31
0.0
 11
185.2601070491184
 21
16.23497138885797
 31
0.0
 11
185.3151725543802
 21
16.23097752108118
 31
0.0
 11
185.3382645404578
 21
16.22930267330382
 31
0.0
 11
185.3249012644362
 21
16.20789677921193
 31
0.0
 11
185.2874469028653
 21
16.1945011455347
 31
0.0
 11
185.2874469028653
 21
16.17139743948579
 31
0.0
 11
185.2874469028653
 21
16.11048766899321
 31
0.0
 11
185.2874469028653
 21
16.02437385553817
 31
0.0
 11
185.2874469028653
 21
15.92565802060192
 31
0.0
 11
185.2874469028653
 21
15.82694218566566
 31
0.0
 11
185.2874469028653
 21
15.74082837221063
 31
0.0
 11
185.2874469028653
 21
15.67991860171804
 31
0.0
 11
185.2874469028653
 21
15.65681489566913
 31
0.0
 11
185.3126150604809
 21
15.65681489566913
 31
0.0
 11
185.3755354545199
 21
15.65681489566913
 31
0.0
 11
185.4573319667706
 21
15.65681489566913
 31
0.0
 11
185.5391284790212
 21
15.65681489566913
 31
0.0
 11
185.6020488730602
 21
15.65681489566913
 31
0.0
 11
185.6272170306758
 21
15.65681489566913
 31
0.0
 11
185.6272170306758
 21
15.63046404932156
 31
0.0
 11
185.6272170306758
 21
15.5724921873569
 31
0.0
 11
185.6272170306758
 21
15.51452032539224
 31
0.0
 11
185.6272170306758
 21
15.48816947904467
 31
0.0
 11
185.6020488730602
 21
15.48816947904467
 31
0.0
 11
185.5391284790212
 21
15.48816947904467
 31
0.0
 11
185.4573319667705
 21
15.48816947904467
 31
0.0
 11
185.3755354545199
 21
15.48816947904467
 31
0.0
 11
185.3126150604809
 21
15.48816947904467
 31
0.0
 11
185.2874469028653
 21
15.48816947904467
 31
0.0
 11
185.2874469028653
 21
15.46536458293925
 31
0.0
 11
185.2874469028653
 21
15.41098367684172
 31
0.0
 11
185.2874469028653
 21
15.34607743408016
 31
0.0
 11
185.2874469028653
 21
15.29169652798263
 31
0.0
 11
185.2874469028653
 21
15.26889163187721
 31
0.0
  0
SPLINE
  5
BF
102
{ACAD_REACTORS
330
DC
102
}
330
48
100
AcDbEntity
  8
_U_30EC_U_30A4_U_30E4_U_30FC_1
  6
Continuous
 62
     2
100
AcDbSpline
210
0.0
220
0.0
230
1.0
 70
    11
 71
     3
 72
    47
 73
    43
 74
    41
 42
0.000000001
 43
0.0000000001
 44
0.00000001
 40
0.0
 40
0.0
 40
0.0
 40
0.0
 40
0.2207912809957272
 40
0.4459404186303171
 40
0.4902387190458276
 40
0.5327473892722079
 40
0.5742260451224551
 40
0.6155432630559843
 40
0.6568164066314759
 40
0.6982511618779683
 40
0.7407663929316197
 40
0.7851366743174273
 40
1.010288833836237
 40
1.231080507002094
 40
1.451765243652312
 40
1.67663820589161
 40
1.720461045359579
 40
1.830018144043445
 40
1.972442372353076
 40
2.114866600677445
 40
2.22442369939507
 40
2.268246538883311
 40
2.493628801207129
 40
2.71560283028652
 40
2.934211330706284
 40
3.149502369855278
 40
3.231387784850867
 40
3.318231873853959
 40
3.405143198197919
 40
3.48697030172027
 40
3.702258172493711
 40
3.920866283533949
 40
4.14283932593173
 40
4.368221903865179
 40
4.412044743359659
 40
4.521601842095675
 40
4.664026070452155
 40
4.806450298808865
 40
4.916007397546557
 40
4.959830237042879
 40
5.184703515846922
 40
5.405387250767289
 40
5.405387250767289
 40
5.405387250767289
 40
5.405387250767289
 10
182.6507427258645
 20
15.73406440953873
 30
0.0
 10
182.6568139420002
 20
15.7975848250121
 30
0.0
 10
182.6690762107243
 20
15.92587938689625
 30
0.0
 10
182.5604706879413
 20
16.20166220174082
 30
0.0
 10
182.6761985896604
 20
16.17188133432053
 30
0.0
 10
182.7171842509015
 20
16.16765556262823
 30
0.0
 10
182.7591205797518
 20
16.16310446389607
 30
0.0
 10
182.800419662571
 20
16.16201982929487
 30
0.0
 10
182.8417032115555
 20
16.16310338195228
 30
0.0
 10
182.8836148270647
 20
16.16766112711345
 30
0.0
 10
182.9245983549019
 20
16.1718743020973
 30
0.0
 10
183.0404922843489
 20
16.20177611317539
 30
0.0
 10
182.9295652727456
 20
15.9233980660989
 30
0.0
 10
182.9574856365267
 20
15.74283140824955
 30
0.0
 10
182.9404267346969
 20
15.50961042346473
 30
0.0
 10
182.9414637282103
 20
15.34906622543147
 30
0.0
 10
182.9414099399404
 20
15.22284817558723
 30
0.0
 10
182.941427737248
 20
15.12428963336242
 30
0.0
 10
182.941418858108
 20
14.99280702442964
 30
0.0
 10
182.9414263928033
 20
14.86132844968651
 30
0.0
 10
182.9414129405128
 20
14.76276222694091
 30
0.0
 10
182.9414531717492
 20
14.63639735624154
 30
0.0
 10
182.9406746403817
 20
14.47482068822872
 30
0.0
 10
182.9565958319267
 20
14.24361821892917
 30
0.0
 10
182.9333468885407
 20
14.05874351972004
 30
0.0
 10
183.0360183444366
 20
13.78935602770058
 30
0.0
 10
182.8820238362836
 20
13.82660112685819
 30
0.0
 10
182.8004129802832
 20
13.82137994680536
 30
0.0
 10
182.7188192292583
 20
13.82660620378353
 30
0.0
 10
182.5648513666844
 20
13.7893706988539
 30
0.0
 10
182.6674183421917
 20
14.05875129862884
 30
0.0
 10
182.6442045316088
 20
14.24361585325416
 30
0.0
 10
182.6600444655139
 20
14.4748221856564
 30
0.0
 10
182.6593296313426
 20
14.63639712308504
 30
0.0
 10
182.6593664569907
 20
14.76276231210521
 30
0.0
 10
182.659354900027
 20
14.86132756635982
 30
0.0
 10
182.6593575019214
 20
14.99281127417221
 30
0.0
 10
182.6593648531779
 20
15.124275480312
 30
0.0
 10
182.6593442541351
 20
15.22287786275327
 30
0.0
 10
182.6594082192028
 20
15.34896149354428
 30
0.0
 10
182.658173394759
 20
15.51210091383772
 30
0.0
 10
182.6532040396745
 20
15.66054183777551
 30
0.0
 10
182.6507427258645
 20
15.73406440953873
 30
0.0
 11
182.6507427258645
 21
15.73406440953873
 31
0.0
 11
182.6417328200379
 21
15.95467178795579
 31
0.0
 11
182.6318769706147
 21
16.17960510387182
 31
0.0
 11
182.6756985840801
 21
16.1731239146373
 31
0.0
 11
182.7178400934216
 21
16.16754892331926
 31
0.0
 11
182.759137140979
 21
16.16367167505632
 31
0.0
 11
182.8004341885365
 21
16.16238072887609
 31
0.0
 11
182.841687138873
 21
16.16367167505632
 31
0.0
 11
182.8829400892097
 21
16.16754892331926
 31
0.0
 11
182.9250882131343
 21
16.1731239146373
 31
0.0
 11
182.9689825870145
 21
16.17960510387182
 31
0.0
 11
182.9590577693891
 21
15.95467178795579
 31
0.0
 11
182.950038420831
 21
15.73406440953873
 31
0.0
 11
182.9435638463435
 21
15.51347467001056
 31
0.0
 11
182.9414218238286
 21
15.28861190965008
 31
0.0
 11
182.9414218238286
 21
15.24478907015487
 31
0.0
 11
182.9414218238286
 21
15.13523197141683
 31
0.0
 11
182.9414218238286
 21
14.99280774305738
 31
0.0
 11
182.9414218238286
 21
14.85038351469793
 31
0.0
 11
182.9414218238286
 21
14.74082641595989
 31
0.0
 11
182.9414218238286
 21
14.69700357646468
 31
0.0
 11
182.9435638463435
 21
14.47163149318768
 31
0.0
 11
182.950038420831
 21
14.24975190990983
 31
0.0
 11
182.9590577693891
 21
14.03132954885331
 31
0.0
 11
182.9689825870145
 21
13.81626739612929
 31
0.0
 11
182.8872616168771
 21
13.82145433189187
 31
0.0
 11
182.8004341885365
 21
13.82315538223864
 31
0.0
 11
182.7135395119339
 21
13.82145433189187
 31
0.0
 11
182.6318769706147
 21
13.81626739612929
 31
0.0
 11
182.6417328200379
 21
14.03132954885331
 31
0.0
 11
182.6507427258645
 21
14.24975190990983
 31
0.0
 11
182.6571833838798
 21
14.47163149318768
 31
0.0
 11
182.6593583588023
 21
14.69700357646468
 31
0.0
 11
182.6593583588023
 21
14.74082641595989
 31
0.0
 11
182.6593583588023
 21
14.85038351469793
 31
0.0
 11
182.6593583588023
 21
14.99280774305738
 31
0.0
 11
182.6593583588023
 21
15.13523197141683
 31
0.0
 11
182.6593583588023
 21
15.24478907015487
 31
0.0
 11
182.6593583588023
 21
15.28861190965008
 31
0.0
 11
182.6571833838798
 21
15.51347467001056
 31
0.0
 11
182.6507427258645
 21
15.73406440953873
 31
0.0
  0
SPLINE
  5
C0
102
{ACAD_REACTORS
330
DD
102
}
330
48
100
AcDbEntity
  8
_U_30EC_U_30A4_U_30E4_U_30FC_1
  6
Continuous
 62
     2
100
AcDbSpline
210
0.0
220
0.0
230
1.0
 70
    11
 71
     3
 72
   110
 73
   106
 74
   104
 42
0.000000001
 43
0.0000000001
 44
0.00000001
 40
0.0
 40
0.0
 40
0.0
 40
0.0
 40
0.220340625727759
 40
0.4407808782838075
 40
0.5952494494615057
 40
0.7488431659393062
 40
0.902358183130933
 40
1.056801968670403
 40
1.210736449099932
 40
1.363041386539867
 40
1.515315729683153
 40
1.669377239148076
 40
1.721611652756567
 40
1.773199502942964
 40
1.824933793210014
 40
1.877110426487986
 40
1.982682281206749
 40
2.078781667087558
 40
2.172809640822279
 40
2.271937807378933
 40
2.378349933379326
 40
2.494131557736516
 40
2.62668168394362
 40
2.783145050795991
 40
2.890701232940848
 40
2.993130312454742
 40
3.099869730691726
 40
3.220237816691224
 40
3.352695482737513
 40
3.481732806389764
 40
3.59349947369029
 40
3.674323013331811
 40
3.81795171195276
 40
3.946167120793758
 40
4.061405053453472
 40
4.166480796003084
 40
4.262478775059206
 40
4.350736673551191
 40
4.433071991253991
 40
4.511216293814564
 40
4.564262454117876
 40
4.618474415571492
 40
4.670128488754096
 40
4.72229687912627
 40
4.819540945314137
 40
4.931194984127993
 40
5.049996040257635
 40
5.168643755415181
 40
5.283970811762392
 40
5.392260784910218
 40
5.486512254876264
 40
5.559178233949692
 40
5.59142585285336
 40
5.626215969637736
 40
5.667155838674281
 40
5.717449290214089
 40
5.738402360944703
 40
5.784499116553673
 40
5.830595872164646
 40
5.851548942897506
 40
5.873019280661619
 40
5.924217778408161
 40
5.985325662817536
 40
6.036524160567549
 40
6.057994498334076
 40
6.236847789607332
 40
6.38140992894551
 40
6.493190424178535
 40
6.574067534230342
 40
6.691018086205379
 40
6.814881554220354
 40
6.944307823240221
 40
7.071266716065844
 40
7.193488604461689
 40
7.309042773127917
 40
7.414007203170542
 40
7.505140441886382
 40
7.531150360599566
 40
7.559221645322153
 40
7.587202218920814
 40
7.612569159499023
 40
7.662550809480893
 40
7.702878875764038
 40
7.857328205230853
 40
8.010799568088583
 40
8.165256399657476
 40
8.322232698713872
 40
8.479564855016502
 40
8.635216230290762
 40
8.79088255092568
 40
8.948305154947246
 40
9.16827183903294
 40
9.387358980987209
 40
9.608047961033451
 40
9.832914234792645
 40
9.85833869496298
 40
9.925366817229987
 40
10.02013071422757
 40
10.12876249858996
 40
10.23739428295246
 40
10.33215817995188
 40
10.39918630222391
 40
10.4246107623978
 40
10.6499201933694
 40
10.87188524531187
 40
10.87188524531187
 40
10.87188524531187
 40
10.87188524531187
 10
179.9057788376618
 20
15.73923260398193
 30
0.0
 10
179.9092864933541
 20
15.80616462073807
 30
0.0
 10
179.9163033987663
 20
15.94005891915861
 30
0.0
 10
179.8198027599072
 20
16.22548554971473
 30
0.0
 10
180.0510134726108
 20
16.16284386190285
 30
0.0
 10
180.1919290057157
 20
16.17001554055992
 30
0.0
 10
180.3490417757588
 20
16.16235883078246
 30
0.0
 10
180.5025913427288
 20
16.16252752283042
 30
0.0
 10
180.6545104935081
 20
16.16182040535433
 30
0.0
 10
180.8142214813232
 20
16.17210158351641
 30
0.0
 10
180.9408972601118
 20
16.15496511080753
 30
0.0
 10
181.1370821122081
 20
16.22727260107148
 30
0.0
 10
181.1034395279078
 20
16.12640699080119
 30
0.0
 10
181.1052011317184
 20
16.07619253947671
 30
0.0
 10
181.1027342073457
 20
16.02712335586467
 30
0.0
 10
181.1347076966011
 20
15.94063490847001
 30
0.0
 10
181.0010399903256
 20
15.98997438608338
 30
0.0
 10
180.9172208688056
 20
15.98430634314169
 30
0.0
 10
180.8173861139324
 20
15.99465516706299
 30
0.0
 10
180.7186576720145
 20
16.00086450411087
 30
0.0
 10
180.6121532771111
 20
16.00697763816779
 30
0.0
 10
180.4910511698059
 20
16.01588883484589
 30
0.0
 10
180.3703381502454
 20
16.00521605912384
 30
0.0
 10
180.1812553843438
 20
16.06468503080366
 30
0.0
 10
180.2129028505311
 20
15.9055832007754
 30
0.0
 10
180.1995563316834
 20
15.80839128339906
 30
0.0
 10
180.197495842645
 20
15.69634065110104
 30
0.0
 10
180.195818804467
 20
15.57699685629352
 30
0.0
 10
180.1973336794232
 20
15.45032592155111
 30
0.0
 10
180.195658247867
 20
15.32301588016118
 30
0.0
 10
180.2058844271657
 20
15.22451566404465
 30
0.0
 10
180.1779006596582
 20
15.08388702625631
 30
0.0
 10
180.3508029999305
 20
15.13989551134095
 30
0.0
 10
180.4645020202772
 20
15.127199514785
 30
0.0
 10
180.5840151672239
 20
15.13448377051255
 30
0.0
 10
180.6888491425072
 20
15.13878017056757
 30
0.0
 10
180.7843084898613
 20
15.14330568258977
 30
0.0
 10
180.8763823507032
 20
15.15149201146203
 30
0.0
 10
180.947655178244
 20
15.14643850638114
 30
0.0
 10
181.0544931705684
 20
15.18536425031674
 30
0.0
 10
181.0226603598037
 20
15.1051712200588
 30
0.0
 10
181.0266164503928
 20
15.05562936846034
 30
0.0
 10
181.0234502392014
 20
15.00557478039822
 30
0.0
 10
181.0550791490583
 20
14.92128847612024
 30
0.0
 10
180.9210133677691
 20
14.97425365495159
 30
0.0
 10
180.82923227932
 20
14.96540080890442
 30
0.0
 10
180.7079729189602
 20
14.97570049965155
 30
0.0
 10
180.5914113119771
 20
14.97748911767503
 30
0.0
 10
180.4783375745879
 20
14.97787017109696
 30
0.0
 10
180.3679246308471
 20
14.98415449472182
 30
0.0
 10
180.2898124067841
 20
14.97189133255366
 30
0.0
 10
180.1913625833643
 20
15.00453887616128
 30
0.0
 10
180.2012355173562
 20
14.94769748054208
 30
0.0
 10
180.1973923244402
 20
14.91392130557985
 30
0.0
 10
180.1966789884269
 20
14.87119604709413
 30
0.0
 10
180.1963369642975
 20
14.83401607262154
 30
0.0
 10
180.1963834255345
 20
14.79487237370772
 30
0.0
 10
180.1963649429927
 20
14.75716849497687
 30
0.0
 10
180.1963703431807
 20
14.71944955232404
 30
0.0
 10
180.19636972142
 20
14.68994324745151
 30
0.0
 10
180.1963698151545
 20
14.65873577699302
 30
0.0
 10
180.1963704287921
 20
14.61414424908086
 30
0.0
 10
180.1963671499337
 20
14.55963956508852
 30
0.0
 10
180.1963759623481
 20
14.5150554020145
 30
0.0
 10
180.1963359653417
 20
14.43117808585741
 30
0.0
 10
180.1976024270255
 20
14.31737520677679
 30
0.0
 10
180.1950274117842
 20
14.16830395933711
 30
0.0
 10
180.2065009381719
 20
14.06597203813907
 30
0.0
 10
180.1823506222265
 20
13.93338903885838
 30
0.0
 10
180.3332993946476
 20
13.97895732272023
 30
0.0
 10
180.4428436671556
 20
13.96427012162351
 30
0.0
 10
180.5733970473921
 20
13.96920435125065
 30
0.0
 10
180.6990312209514
 20
13.97257705323363
 30
0.0
 10
180.8188730625601
 20
13.97711497498775
 30
0.0
 10
180.9391362611426
 20
13.99048536182007
 30
0.0
 10
181.0222761663514
 20
13.98068712782599
 30
0.0
 10
181.1456080421077
 20
14.04126214623322
 30
0.0
 10
181.1244269203956
 20
13.98532460134023
 30
0.0
 10
181.1235950270117
 20
13.95939249372347
 30
0.0
 10
181.1218963707559
 20
13.9319725619094
 30
0.0
 10
181.1217974888829
 20
13.89738195206386
 30
0.0
 10
181.1203659301329
 20
13.86050408220768
 30
0.0
 10
181.1532804192192
 20
13.76846841021811
 30
0.0
 10
180.9551306988107
 20
13.84132015974834
 30
0.0
 10
180.8300548294892
 20
13.81825726508609
 30
0.0
 10
180.6673071295156
 20
13.82454021985788
 30
0.0
 10
180.5129366450001
 20
13.82260943909927
 30
0.0
 10
180.3566670436943
 20
13.82393762599269
 30
0.0
 10
180.1970544465282
 20
13.82059872487864
 30
0.0
 10
180.0540326342237
 20
13.83265795728243
 30
0.0
 10
179.8197144881628
 20
13.7695200197692
 30
0.0
 10
179.9173810751197
 20
14.0562052746632
 30
0.0
 10
179.9006868780059
 20
14.24988308142663
 30
0.0
 10
179.9146296709685
 20
14.47848242880296
 30
0.0
 10
179.9142987846633
 20
14.6338459395505
 30
0.0
 10
179.9143078119264
 20
14.73966336444126
 30
0.0
 10
179.9143055876316
 20
14.80205784124215
 30
0.0
 10
179.914306555189
 20
14.89220425248328
 30
0.0
 10
179.9143065473262
 20
14.99621167157439
 30
0.0
 10
179.9143053861104
 20
15.10022131375298
 30
0.0
 10
179.9143090971502
 20
15.19036243688768
 30
0.0
 10
179.9143011051052
 20
15.25276803097216
 30
0.0
 10
179.9143334275019
 20
15.3586883596112
 30
0.0
 10
179.913144078832
 20
15.51626716544742
 30
0.0
 10
179.9082216489256
 20
15.66528219822068
 30
0.0
 10
179.9057788376618
 20
15.73923260398193
 30
0.0
 11
179.9057788376618
 21
15.73923260398193
 31
0.0
 11
179.8966918223741
 21
15.95938578101019
 31
0.0
 11
179.8868249573133
 21
16.17960510387182
 31
0.0
 11
180.04115751414
 21
16.1731239146373
 31
0.0
 11
180.1946500189046
 21
16.16754892331926
 31
0.0
 11
180.3481160653367
 21
16.16367167505632
 31
0.0
 11
180.5025544554939
 21
16.16238072887609
 31
0.0
 11
180.6564835227473
 21
16.16367167505632
 31
0.0
 11
180.8087391004601
 21
16.16754892331926
 31
0.0
 11
180.9609113551074
 21
16.1731239146373
 31
0.0
 11
181.1148364762483
 21
16.17960510387182
 31
0.0
 11
181.1070811703123
 21
16.12794961777361
 31
0.0
 11
181.1044991623591
 21
16.07642642334205
 31
0.0
 11
181.1070811703123
 21
16.02475660564661
 31
0.0
 11
181.1148364762483
 21
15.97315954836786
 31
0.0
 11
181.0094874054411
 21
15.98001446156059
 31
0.0
 11
180.913637570006
 21
15.98693552058658
 31
0.0
 11
180.8198593171903
 21
15.993783819196
 31
0.0
 11
180.7209679915881
 21
16.00063211780541
 31
0.0
 11
180.6147532199924
 21
16.00710999974825
 31
0.0
 11
180.4991060528038
 21
16.01268829835797
 31
0.0
 11
180.3666126447258
 21
16.01656554662089
 31
0.0
 11
180.2101546018424
 21
16.01785649280113
 31
0.0
 11
180.2062663293721
 21
15.91037061609188
 31
0.0
 11
180.20153800484
 21
15.80805072896466
 31
0.0
 11
180.1976607566749
 21
15.70138175329689
 31
0.0
 11
180.1963698105272
 21
15.58102059013251
 31
0.0
 11
180.1967799146836
 21
15.44856355891566
 31
0.0
 11
180.1980896021502
 21
15.31953288186456
 31
0.0
 11
180.1994074577049
 21
15.2077739843231
 31
0.0
 11
180.199819115366
 21
15.12695149302385
 31
0.0
 11
180.3434452935874
 21
15.12780256941251
 31
0.0
 11
180.4716343930758
 21
15.13039989580079
 31
0.0
 11
180.5868078221796
 21
15.13425509545255
 31
0.0
 11
180.691775631222
 21
15.13901649302077
 31
0.0
 11
180.7876346289422
 21
15.14418027774176
 31
0.0
 11
180.8757413374194
 21
15.1493440624627
 31
0.0
 11
180.9578881438496
 21
15.15491243919741
 31
0.0
 11
181.0357692335571
 21
15.16132086801525
 31
0.0
 11
181.0280180445186
 21
15.10884407115338
 31
0.0
 11
181.0254328449317
 21
15.05469378470859
 31
0.0
 11
181.0280180445186
 21
15.00310444444368
 31
0.0
 11
181.0357692335571
 21
14.95151510417885
 31
0.0
 11
180.9389813454014
 21
14.96092324653758
 31
0.0
 11
180.8275950722015
 21
14.96865128473013
 31
0.0
 11
180.7089261429373
 21
14.97425273438146
 31
0.0
 11
180.5903167449213
 21
14.97726788195012
 31
0.0
 11
180.4750025117521
 21
14.9789876736164
 31
0.0
 11
180.36672619507
 21
14.98070746528259
 31
0.0
 11
180.2724839317708
 21
14.98202486979618
 31
0.0
 11
180.199819115366
 21
14.9824360763933
 31
0.0
 11
180.199407457705
 21
14.95019108508192
 31
0.0
 11
180.1980896021502
 21
14.91542593752119
 31
0.0
 11
180.1967799146836
 21
14.87450702260086
 31
0.0
 11
180.1963698105272
 21
14.82421524309953
 31
0.0
 11
180.1963698105272
 21
14.80326217235823
 31
0.0
 11
180.1963698105272
 21
14.75716541672737
 31
0.0
 11
180.1963698105272
 21
14.71106866109652
 31
0.0
 11
180.1963698105272
 21
14.69011559035522
 31
0.0
 11
180.1963698105272
 21
14.66864525258281
 31
0.0
 11
180.1963698105272
 21
14.61744675481785
 31
0.0
 11
180.1963698105272
 21
14.55633887038869
 31
0.0
 11
180.1963698105272
 21
14.50514037262372
 31
0.0
 11
180.1963698105272
 21
14.48367003485132
 31
0.0
 11
180.1967799146836
 21
14.30481721371549
 31
0.0
 11
180.1980896021502
 21
14.16026100715443
 31
0.0
 11
180.2002868589709
 21
14.0485021096129
 31
0.0
 11
180.2032586986986
 21
13.96767961831367
 31
0.0
 11
180.3202092517448
 21
13.96767961831367
 31
0.0
 11
180.4440727208747
 21
13.96767961831367
 31
0.0
 11
180.5734925526422
 21
13.96897056449392
 31
0.0
 11
180.7003922282244
 21
13.97284781275684
 31
0.0
 11
180.8224658067973
 21
13.97886708358867
 31
0.0
 11
180.9377587499463
 21
13.98663260442005
 31
0.0
 11
181.0421754573518
 21
13.99734161483404
 31
0.0
 11
181.1320599255449
 21
14.01237656274694
 31
0.0
 11
181.1264254031191
 21
13.98698427976716
 31
0.0
 11
181.1234433285423
 21
13.95907184053803
 31
0.0
 11
181.12213398812
 21
13.93112191867003
 31
0.0
 11
181.1217235369195
 21
13.90575829888473
 31
0.0
 11
181.1243087365064
 21
13.85584355063327
 31
0.0
 11
181.1320599255449
 21
13.81626739612929
 31
0.0
 11
180.9776977178345
 21
13.82145433189187
 31
0.0
 11
180.8242357818765
 21
13.82315538223864
 31
0.0
 11
180.6697789496484
 21
13.82315538223864
 31
0.0
 11
180.5128026496768
 21
13.82315538223864
 31
0.0
 11
180.3554704921537
 21
13.82315538223864
 31
0.0
 11
180.199819115366
 21
13.82315538223864
 31
0.0
 11
180.0441620874241
 21
13.82145433189187
 31
0.0
 11
179.8868249573133
 21
13.81626739612929
 31
0.0
 11
179.896691822374
 21
14.03601267385212
 31
0.0
 11
179.9057788376618
 21
14.25491128490853
 31
0.0
 11
179.9121721518401
 21
14.47550763902004
 31
0.0
 11
179.914306345501
 21
14.70036378479716
 31
0.0
 11
179.914306345501
 21
14.72578824496875
 31
0.0
 11
179.914306345501
 21
14.79281636723932
 31
0.0
 11
179.914306345501
 21
14.88758026424254
 31
0.0
 11
179.914306345501
 21
14.99621204861208
 31
0.0
 11
179.914306345501
 21
15.10484383298163
 31
0.0
 11
179.914306345501
 21
15.19960772998485
 31
0.0
 11
179.914306345501
 21
15.26663585225541
 31
0.0
 11
179.914306345501
 21
15.29206031242701
 31
0.0
 11
179.9121721518401
 21
15.51735963528736
 31
0.0
 11
179.9057788376618
 21
15.73923260398193
 31
0.0
  0
SPLINE
  5
C1
102
{ACAD_REACTORS
330
DE
102
}
330
48
100
AcDbEntity
  8
_U_30EC_U_30A4_U_30E4_U_30FC_1
  6
Continuous
 62
     2
100
AcDbSpline
210
0.0
220
0.0
230
1.0
 70
    11
 71
     3
 72
    95
 73
    91
 74
    89
 42
0.000000001
 43
0.0000000001
 44
0.00000001
 40
0.0
 40
0.0
 40
0.0
 40
0.0
 40
0.6550406656911534
 40
1.308087289031932
 40
1.420803739835794
 40
1.5661307597708
 40
1.757067341888458
 40
2.006513545026452
 40
2.087328263121557
 40
2.185328872295634
 40
2.294612454748367
 40
2.408936380534817
 40
2.526802767798559
 40
2.646360524615613
 40
2.762535723971582
 40
2.870057342870154
 40
2.96688344843164
 40
3.0508032435183
 40
3.1158182224366
 40
3.156030057150239
 40
3.213914225080141
 40
3.276689026450541
 40
3.34296032098129
 40
3.404230667150483
 40
3.453822809493277
 40
3.532499827188337
 40
3.634775188507068
 40
3.754909333008062
 40
3.889736761660564
 40
4.035769602175127
 40
4.187256681197522
 40
4.338733685675857
 40
4.488478734676026
 40
4.634708317831488
 40
4.77149318992118
 40
4.892686571561113
 40
5.199775528944356
 40
5.460353566929538
 40
5.667603142345419
 40
5.814722905404396
 40
5.828990806219694
 40
5.855488336304391
 40
5.869756237118723
 40
6.189796507762747
 40
6.531890469872972
 40
6.883053637016901
 40
7.230512024911381
 40
7.566966656764484
 40
7.885203559707392
 40
8.17288743971915
 40
8.418011594062667
 40
8.44392672119059
 40
8.510760470613079
 40
8.60214539379559
 40
8.701714041647032
 40
8.793098965075265
 40
8.859932715057841
 40
8.88584784260349
 40
9.242301256612699
 40
9.589275455016649
 40
9.92180854316406
 40
10.23479624298458
 40
10.29968150889169
 40
10.35323493887757
 40
10.40154625355144
 40
10.46482922477817
 40
10.559739006684
 40
10.69239545985611
 40
10.84920353475666
 40
11.01626328594774
 40
11.18672024367437
 40
11.35372582577205
 40
11.50257442292421
 40
11.61866495023285
 40
11.71329869152869
 40
11.82511050573902
 40
11.9446488084571
 40
12.069292426425
 40
12.1970729043517
 40
12.32562632860523
 40
12.45034565331274
 40
12.56646595170322
 40
12.6709900741463
 40
12.76077625936777
 40
12.82703233506689
 40
12.87429132785988
 40
12.89831990323327
 40
12.92234847860015
 40
13.53984767410315
 40
14.18294284359361
 40
14.18294284359361
 40
14.18294284359361
 40
14.18294284359361
 10
177.3067935648021
 20
14.70898038201726
 30
0.0
 10
177.175201975855
 20
14.82265058603233
 30
0.0
 10
176.9124193802728
 20
15.04964496316158
 30
0.0
 10
176.399739344102
 20
15.89214462956289
 30
0.0
 10
176.4106654595362
 20
15.53423377577021
 30
0.0
 10
176.4041226527993
 20
15.39267392272134
 30
0.0
 10
176.4028026631773
 20
15.19421305299283
 30
0.0
 10
176.4018117602537
 20
15.02150296045983
 30
0.0
 10
176.4024101751975
 20
14.87865373257582
 30
0.0
 10
176.4038994301882
 20
14.78265005413359
 30
0.0
 10
176.4055683588472
 20
14.67545503263142
 30
0.0
 10
176.4071934954618
 20
14.56164211517584
 30
0.0
 10
176.4092429501685
 20
14.4444157260459
 30
0.0
 10
176.4123165501927
 20
14.32656411232971
 30
0.0
 10
176.4156339697043
 20
14.21228087320621
 30
0.0
 10
176.4193605340281
 20
14.10521401867279
 30
0.0
 10
176.4217338161424
 20
14.01007408766922
 30
0.0
 10
176.4278718888357
 20
13.92558557205697
 30
0.0
 10
176.4239784495946
 20
13.86923087298143
 30
0.0
 10
176.4455230443078
 20
13.79825022472357
 30
0.0
 10
176.3680940058618
 20
13.82902677604485
 30
0.0
 10
176.3116353240191
 20
13.82011242517615
 30
0.0
 10
176.2540495896807
 20
13.82896218398277
 30
0.0
 10
176.1690163478474
 20
13.79738225225948
 30
0.0
 10
176.2009714146383
 20
13.88095155992193
 30
0.0
 10
176.1990705282539
 20
13.94882608968311
 30
0.0
 10
176.21079600473
 20
14.0523325676442
 30
0.0
 10
176.2164241053
 20
14.17002125616696
 30
0.0
 10
176.2237902178941
 20
14.30388609164424
 30
0.0
 10
176.232075970161
 20
14.44764152872633
 30
0.0
 10
176.2398851897426
 20
14.59714022843447
 30
0.0
 10
176.2457571222657
 20
14.74792549402079
 30
0.0
 10
176.2503667817969
 20
14.89699943878439
 30
0.0
 10
176.2542632117542
 20
15.04122913163024
 30
0.0
 10
176.2570715126564
 20
15.17583905213018
 30
0.0
 10
176.2576698755021
 20
15.36469614347355
 30
0.0
 10
176.2616023867151
 20
15.58975494313154
 30
0.0
 10
176.2442175378497
 20
15.86367091125708
 30
0.0
 10
176.2850417342584
 20
16.02787112098598
 30
0.0
 10
176.1995153256002
 20
16.22749661465097
 30
0.0
 10
176.2660558907688
 20
16.22385458403979
 30
0.0
 10
176.283872427323
 20
16.22413447160855
 30
0.0
 10
176.4056801797504
 20
16.22632927398615
 30
0.0
 10
176.5080770335461
 20
15.94675118721513
 30
0.0
 10
176.7580021509358
 20
15.74563008536008
 30
0.0
 10
176.987003533111
 20
15.47792614987915
 30
0.0
 10
177.2245151213109
 20
15.22646413862378
 30
0.0
 10
177.4486090740772
 20
14.98969974061356
 30
0.0
 10
177.675071628301
 20
14.73218692583085
 30
0.0
 10
177.8325687886515
 20
14.61649335056922
 30
0.0
 10
178.0472129612673
 20
14.27997152538796
 30
0.0
 10
178.0422645974619
 20
14.40464754091605
 30
0.0
 10
178.0433931602546
 20
14.46327691935738
 30
0.0
 10
178.0428877841517
 20
14.55043662371978
 30
0.0
 10
178.0430475158113
 20
14.64416143182874
 30
0.0
 10
178.0430054891318
 20
14.73018971297037
 30
0.0
 10
178.0430202040372
 20
14.79153891945497
 30
0.0
 10
178.0429706255985
 20
14.94135231520995
 30
0.0
 10
178.045881152281
 20
15.17989612510105
 30
0.0
 10
178.0259521041163
 20
15.54486509868702
 30
0.0
 10
178.0750433936248
 20
15.80799631993413
 30
0.0
 10
177.917795150918
 20
16.21928904947757
 30
0.0
 10
178.0762112872421
 20
16.16398282551749
 30
0.0
 10
178.1311680478629
 20
16.16199686500178
 30
0.0
 10
178.182788776674
 20
16.16264778248252
 30
0.0
 10
178.2713198965366
 20
16.20369527738249
 30
0.0
 10
178.2204898303168
 20
16.05696326622987
 30
0.0
 10
178.2313389930284
 20
15.95019971954435
 30
0.0
 10
178.2166036994847
 20
15.79085705414113
 30
0.0
 10
178.2099976446204
 20
15.62853061652876
 30
0.0
 10
178.2014961399915
 20
15.45992521892396
 30
0.0
 10
178.1943227202199
 20
15.29814814703543
 30
0.0
 10
178.188906321539
 20
15.15422331457933
 30
0.0
 10
178.1871713967648
 20
15.03437493466927
 30
0.0
 10
178.1875440672319
 20
14.92686101590516
 30
0.0
 10
178.1873656126263
 20
14.81820024645587
 30
0.0
 10
178.187701086314
 20
14.69953570165531
 30
0.0
 10
178.1890040622184
 20
14.57555163512742
 30
0.0
 10
178.1908887351575
 20
14.44858294171106
 30
0.0
 10
178.192500445485
 20
14.32153861551033
 30
0.0
 10
178.1941403137429
 20
14.19854884492178
 30
0.0
 10
178.1962570745751
 20
14.0830093138376
 30
0.0
 10
178.1963848422363
 20
13.98090903955837
 30
0.0
 10
178.2006514396554
 20
13.89009848838158
 30
0.0
 10
178.1908440085289
 20
13.83213621208787
 30
0.0
 10
178.2118474771689
 20
13.7651713013203
 30
0.0
 10
178.1725639739897
 20
13.77291153966689
 30
0.0
 10
177.9595307117746
 20
13.75755254145195
 30
0.0
 10
177.7636297943186
 20
14.3140305809447
 30
0.0
 10
177.4611197631544
 20
14.57556035348512
 30
0.0
 10
177.3067935648021
 20
14.70898038201726
 30
0.0
 11
177.3067935648021
 21
14.70898038201726
 31
0.0
 11
176.8595529338511
 21
15.18757635411979
 31
0.0
 11
176.4124049070643
 21
15.66352649288971
 31
0.0
 11
176.4089664262494
 21
15.55086249986234
 31
0.0
 11
176.4055610183501
 21
15.40557538184311
 31
0.0
 11
176.4029636920275
 21
15.21465645827969
 31
0.0
 11
176.4021126156603
 21
14.96521170139759
 31
0.0
 11
176.4025239230289
 21
14.88439802954281
 31
0.0
 11
176.4038420329817
 21
14.78640628477562
 31
0.0
 11
176.4055192267718
 21
14.6771355729974
 31
0.0
 11
176.4072367127518
 21
14.5628245487204
 31
0.0
 11
176.4094007838772
 21
14.44497802965267
 31
0.0
 11
176.4124049070643
 21
14.325458021002
 31
0.0
 11
176.4158359733138
 21
14.20933349846157
 31
0.0
 11
176.4192928929999
 21
14.10186746550231
 31
0.0
 11
176.4227085253088
 21
14.00510162351266
 31
0.0
 11
176.4261896983793
 21
13.92125406276973
 31
0.0
 11
176.4296006184313
 21
13.85632862007762
 31
0.0
 11
176.4330776843148
 21
13.81626739612929
 31
0.0
 11
176.3754263821571
 21
13.82145433189187
 31
0.0
 11
176.3126746318309
 21
13.82315538223864
 31
0.0
 11
176.2464251717157
 21
13.82145433189187
 31
0.0
 11
176.1853747739676
 21
13.81626739612929
 31
0.0
 11
176.1926772737813
 21
13.86531894125591
 31
0.0
 11
176.2008793569054
 21
13.94356725720857
 31
0.0
 11
176.2090098822348
 21
14.0455189325303
 31
0.0
 11
176.2163406441397
 21
14.16542920159753
 31
0.0
 11
176.2236358280421
 21
14.30005912343891
 31
0.0
 11
176.2318444255596
 21
14.44586107652746
 31
0.0
 11
176.2395504149465
 21
14.59715203135075
 31
0.0
 11
176.2455763002093
 21
14.74850913200735
 31
0.0
 11
176.2503046247416
 21
14.89817951391437
 31
0.0
 11
176.254192897212
 21
15.04435739582223
 31
0.0
 11
176.2567527408965
 21
15.18111831592697
 31
0.0
 11
176.2576324804574
 21
15.30230850686891
 31
0.0
 11
176.257192610677
 21
15.60939715262545
 31
0.0
 11
176.2559126888347
 21
15.86997204839366
 31
0.0
 11
176.2528658717893
 21
16.07719922716127
 31
0.0
 11
176.2473049112763
 21
16.22421385386063
 31
0.0
 11
176.2615728121469
 21
16.22421385386063
 31
0.0
 11
176.2880703423352
 21
16.22421385386063
 31
0.0
 11
176.3023382432058
 21
16.22421385386063
 31
0.0
 11
176.5194743650277
 21
15.98910179662774
 31
0.0
 11
176.751274412308
 21
15.73751281231563
 31
0.0
 11
176.9894816018839
 21
15.47949555543572
 31
0.0
 11
177.2260074557521
 21
15.2249707985549
 31
0.0
 11
177.4555698717705
 21
14.97899759549139
 31
0.0
 11
177.6731797360104
 21
14.74678934034108
 31
0.0
 11
177.8713724913707
 21
14.53826680567101
 31
0.0
 11
178.0430143099086
 21
14.3632669793259
 31
0.0
 11
178.0430143099086
 21
14.38918210687044
 31
0.0
 11
178.0430143099086
 21
14.45601585685372
 31
0.0
 11
178.0430143099086
 21
14.54740078030026
 31
0.0
 11
178.0430143099086
 21
14.64696942823455
 31
0.0
 11
178.0430143099086
 21
14.73835435168108
 31
0.0
 11
178.0430143099086
 21
14.80518810166437
 31
0.0
 11
178.0430143099086
 21
14.83110322920891
 31
0.0
 11
178.0417233637609
 21
15.18755430550869
 31
0.0
 11
178.0378461155959
 21
15.53450684014416
 31
0.0
 11
178.0296197790002
 21
15.86693815950553
 31
0.0
 11
178.0154535467228
 21
16.17960510387182
 31
0.0
 11
178.0790351249618
 21
16.16666367158336
 31
0.0
 11
178.1324170159611
 21
16.16238072887609
 31
0.0
 11
178.1805381084833
 21
16.16666367158336
 31
0.0
 11
178.2424836798197
 21
16.17960510387182
 31
0.0
 11
178.2351216487575
 21
16.08498128445101
 31
0.0
 11
178.2269790968818
 21
15.95257496503966
 31
0.0
 11
178.2183705364004
 21
15.79600336785657
 31
0.0
 11
178.2097547223215
 21
15.62916593734272
 31
0.0
 11
178.2016187850289
 21
15.45890325509362
 31
0.0
 11
178.1942501393835
 21
15.29206031242701
 31
0.0
 11
178.1891406931522
 21
15.14329943572811
 31
0.0
 11
178.1874503478904
 21
15.02722121527103
 31
0.0
 11
178.1874503478904
 21
14.9325874739752
 31
0.0
 11
178.1874503478904
 21
14.82077565976708
 31
0.0
 11
178.1878461204497
 21
14.7012380122275
 31
0.0
 11
178.1890819450708
 21
14.57660052093921
 31
0.0
 11
178.1908392193317
 21
14.44883212687393
 31
0.0
 11
178.1925303477608
 21
14.3202898265588
 31
0.0
 11
178.1942876220214
 21
14.19558288214556
 31
0.0
 11
178.1959787504505
 21
14.0794748960635
 31
0.0
 11
178.1972884379172
 21
13.97495896727018
 31
0.0
 11
178.1976985420735
 21
13.88517371555653
 31
0.0
 11
178.1976985420735
 21
13.81891763918417
 31
0.0
 11
178.1976985420735
 21
13.77165864614042
 31
0.0
 11
178.1736699662976
 21
13.77165864614042
 31
0.0
 11
178.1496413905217
 21
13.77165864614042
 31
0.0
 11
177.7410729200423
 21
14.23466735262191
 31
0.0
 11
177.3067935648021
 21
14.70898038201726
 31
0.0
  0
SPLINE
  5
C2
102
{ACAD_REACTORS
330
DF
102
}
330
48
100
AcDbEntity
  8
_U_30EC_U_30A4_U_30E4_U_30FC_1
  6
Continuous
 62
     2
100
AcDbSpline
210
0.0
220
0.0
230
1.0
 70
    11
 71
     3
 72
    25
 73
    21
 74
    19
 42
0.000000001
 43
0.0000000001
 44
0.00000001
 40
0.0
 40
0.0
 40
0.0
 40
0.0
 40
0.0911479969065106
 40
0.1858117896205804
 40
0.2804128399735061
 40
0.3715889190714511
 40
0.4679080494218993
 40
0.564268380922923
 40
0.6605683222644992
 40
0.7569653015810262
 40
0.8561348172522713
 40
1.092615965104286
 40
1.374867658141868
 40
1.611348812011585
 40
1.710518328425232
 40
1.809403163726545
 40
2.045205463294045
 40
2.326646917622102
 40
2.562449217190559
 40
2.661334043833877
 40
2.661334043833877
 40
2.661334043833877
 40
2.661334043833877
 10
173.2683700567199
 20
14.88614538197295
 30
0.0
 10
173.2987525917922
 20
14.88598079714557
 30
0.0
 10
173.3606895889112
 20
14.88564528689924
 30
0.0
 10
173.454135696033
 20
14.88269055452002
 30
0.0
 10
173.5475095236358
 20
14.87977752877152
 30
0.0
 10
173.6417760753477
 20
14.87894201643419
 30
0.0
 10
173.7354964790966
 20
14.87996644658049
 30
0.0
 10
173.8352040303205
 20
14.87916977470972
 30
0.0
 10
173.9188949546312
 20
14.88921410235221
 30
0.0
 10
174.0637996315045
 20
14.86234617674168
 30
0.0
 10
173.9396132444801
 20
15.03665530280051
 30
0.0
 10
173.8965867286282
 20
15.19651711006094
 30
0.0
 10
173.7808922142209
 20
15.45518458550217
 30
0.0
 10
173.7017565431256
 20
15.5923105286186
 30
0.0
 10
173.6431576621816
 20
15.80937033134077
 30
0.0
 10
173.5864803939438
 20
15.5926613421343
 30
0.0
 10
173.5052809900477
 20
15.45327012438238
 30
0.0
 10
173.4063701281488
 20
15.20406969370197
 30
0.0
 10
173.3253625094259
 20
15.01925830226076
 30
0.0
 10
173.2813683325838
 20
14.91650446856119
 30
0.0
 10
173.2683700567199
 20
14.88614538197295
 30
0.0
 11
173.2683700567199
 21
14.88614538197295
 31
0.0
 11
173.359513773782
 21
14.88526123266762
 31
0.0
 11
173.4541428297582
 21
14.88269697919601
 31
0.0
 11
173.5487082179706
 21
14.88009965280779
 31
0.0
 11
173.6398803250196
 21
14.87924857641912
 31
0.0
 11
173.7361985777706
 21
14.87965978301623
 31
0.0
 11
173.8325499034376
 21
14.88097718752972
 31
0.0
 11
173.9288262638286
 21
14.88310818579314
 31
0.0
 11
174.0251753846343
 21
14.88614538197295
 31
0.0
 11
173.9854633323141
 21
14.97701642195023
 31
0.0
 11
173.8907653613968
 21
15.19370890189604
 31
0.0
 11
173.7777387509471
 21
15.45234186183137
 31
0.0
 11
173.6830407800297
 21
15.66903434177718
 31
0.0
 11
173.6433287277095
 21
15.75990538175446
 31
0.0
 11
173.6043330259266
 21
15.66903434177719
 31
0.0
 11
173.5113432755212
 21
15.45234186183137
 31
0.0
 11
173.4003555089082
 21
15.19370890189604
 31
0.0
 11
173.3073657585028
 21
14.97701642195023
 31
0.0
 11
173.2683700567199
 21
14.88614538197295
 31
0.0
  0
SPLINE
  5
C3
102
{ACAD_REACTORS
330
DF
102
}
330
48
100
AcDbEntity
  8
_U_30EC_U_30A4_U_30E4_U_30FC_1
  6
Continuous
 62
     2
100
AcDbSpline
210
0.0
220
0.0
230
1.0
 70
    11
 71
     3
 72
    57
 73
    53
 74
    51
 42
0.000000001
 43
0.0000000001
 44
0.00000001
 40
0.0
 40
0.0
 40
0.0
 40
0.0
 40
0.0471632082809235
 40
0.0914861054632153
 40
0.1357762519702105
 40
0.1826527001609831
 40
0.2295203288572308
 40
0.2737751972220762
 40
0.3181310461542788
 40
0.3652607198398513
 40
0.4571007286314417
 40
0.5671851029165195
 40
0.6894623283868331
 40
0.8181758272545984
 40
0.951008722927399
 40
1.085852229674048
 40
1.218126164475306
 40
1.343545131142386
 40
1.454537202956802
 40
1.567187607530725
 40
1.680710966642344
 40
1.794226869736794
 40
1.900009184247536
 40
2.004085860447873
 40
2.108162674451761
 40
2.214000150155305
 40
2.496038577352146
 40
2.76235074547929
 40
2.997275353279421
 40
3.185110082137736
 40
3.246407890063935
 40
3.312607550212694
 40
3.378877742711568
 40
3.440140399651451
 40
4.100501696006495
 40
4.754913085563527
 40
5.41133169342393
 40
6.077890432568705
 40
6.110575292670984
 40
6.143260152775764
 40
6.367989363395154
 40
6.610525374951544
 40
6.863389136467318
 40
7.119380025547635
 40
7.376036605091104
 40
7.631164770966285
 40
7.87672242545641
 40
8.104953735855954
 40
8.312916685924291
 40
8.497730294941304
 40
8.651018984313863
 40
8.764738853624582
 40
8.764738853624582
 40
8.764738853624582
 40
8.764738853624582
 10
174.7922649500513
 20
13.81626739612929
 30
0.0
 10
174.7766616726931
 20
13.8182623107908
 30
0.0
 10
174.7463947960302
 20
13.82213201360301
 30
0.0
 10
174.7010994202252
 20
13.8234198496727
 30
0.0
 10
174.6559553129349
 20
13.82308683554053
 30
0.0
 10
174.60990171234
 20
13.82314658674226
 30
0.0
 10
174.5640496172096
 20
13.82325813650002
 30
0.0
 10
174.5183711648165
 20
13.82277833456593
 30
0.0
 10
174.4750811541608
 20
13.82461109618723
 30
0.0
 10
174.4039947951514
 20
13.80049556814658
 30
0.0
 10
174.4057477261441
 20
13.92184693977253
 30
0.0
 10
174.358619637057
 20
14.00726239751235
 30
0.0
 10
174.3191478251762
 20
14.12486929345137
 30
0.0
 10
174.2706635532645
 20
14.2423275254044
 30
0.0
 10
174.2201017402522
 20
14.36405935761512
 30
0.0
 10
174.1718634610477
 20
14.49075967862467
 30
0.0
 10
174.1135232947595
 20
14.59933687784953
 30
0.0
 10
174.0980892667261
 20
14.75620657134412
 30
0.0
 10
173.9566586330636
 20
14.72373446548323
 30
0.0
 10
173.8508397414904
 20
14.7351288868218
 30
0.0
 10
173.7358569725222
 20
14.73392591514616
 30
0.0
 10
173.6253142252141
 20
14.73506945347409
 30
0.0
 10
173.5176583522783
 20
14.73418350037527
 30
0.0
 10
173.4121322529242
 20
14.7341660239052
 30
0.0
 10
173.3109192682012
 20
14.72714032472416
 30
0.0
 10
173.1266804827753
 20
14.7513585985987
 30
0.0
 10
173.1157393685411
 20
14.44741691121886
 30
0.0
 10
173.008769163475
 20
14.22353177253398
 30
0.0
 10
172.9098148604347
 20
14.03895314292499
 30
0.0
 10
172.9225090524007
 20
13.79530204804209
 30
0.0
 10
172.8050091716397
 20
13.825080467532
 30
0.0
 10
172.742205586831
 20
13.82258089509605
 30
0.0
 10
172.67858720934
 20
13.82344075102807
 30
0.0
 10
172.3946014194076
 20
13.78098039941947
 30
0.0
 10
173.0251638499381
 20
14.50081952444784
 30
0.0
 10
173.1087645289071
 20
15.01276539435733
 30
0.0
 10
173.4929252789338
 20
15.53353743550044
 30
0.0
 10
173.4777208288567
 20
16.23519626253216
 30
0.0
 10
173.7239265722696
 20
16.22345633081257
 30
0.0
 10
173.8256346157561
 20
16.23225004452774
 30
0.0
 10
173.8249752035817
 20
15.98059650730347
 30
0.0
 10
173.9428317155828
 20
15.79818020733959
 30
0.0
 10
174.0315515260485
 20
15.55563740662866
 30
0.0
 10
174.132229248526
 20
15.32340030530133
 30
0.0
 10
174.2311142712243
 20
15.08674644566912
 30
0.0
 10
174.3299676990669
 20
14.85461739170094
 30
0.0
 10
174.4256166390925
 20
14.6312222278879
 30
0.0
 10
174.5159904573272
 20
14.42272549049319
 30
0.0
 10
174.5989944568188
 20
14.23308448529321
 30
0.0
 10
174.6726088582799
 20
14.066631060681
 30
0.0
 10
174.7342815895546
 20
13.929176996261
 30
0.0
 10
174.7749458885604
 20
13.84999239430036
 30
0.0
 10
174.7922649500513
 20
13.81626739612929
 30
0.0
 11
174.7922649500513
 21
13.81626739612929
 31
0.0
 11
174.7453878317448
 21
13.82145433189187
 31
0.0
 11
174.7010975896125
 21
13.82315538223864
 31
0.0
 11
174.6568074431729
 21
13.82315538223864
 31
0.0
 11
174.609930994716
 21
13.82315538223864
 31
0.0
 11
174.5630633657034
 21
13.82315538223864
 31
0.0
 11
174.5188084970408
 21
13.82315538223864
 31
0.0
 11
174.4744852776854
 21
13.82145433189187
 31
0.0
 11
174.4276419021443
 21
13.81626739612929
 31
0.0
 11
174.3992532136325
 21
13.90360966173245
 31
0.0
 11
174.3622721815898
 21
14.00729656274821
 31
0.0
 11
174.3188386236701
 21
14.12159987001129
 31
0.0
 11
174.2711055866936
 21
14.24113531268971
 31
0.0
 11
174.2208160133237
 21
14.36408057307567
 31
0.0
 11
174.1696467003932
 21
14.48883822929447
 31
0.0
 11
174.1197531801326
 21
14.61134141502773
 31
0.0
 11
174.0733119111841
 21
14.72784517367919
 31
0.0
 11
173.9623611907589
 21
14.73087465284507
 31
0.0
 11
173.849730922509
 21
14.73300454867791
 31
0.0
 11
173.736215206945
 21
14.73432195319141
 31
0.0
 11
173.62270004768
 21
14.73473315978853
 31
0.0
 11
173.5169185312816
 21
14.73432195319141
 31
0.0
 11
173.4128501919225
 21
14.73300454867791
 31
0.0
 11
173.3087951724045
 21
14.73087465284507
 31
0.0
 11
173.2030010615596
 21
14.72784517367919
 31
0.0
 11
173.0980914750139
 21
14.46604437513352
 31
0.0
 11
173.0034868690331
 21
14.21710232658461
 31
0.0
 11
172.9252231210298
 21
13.99559756969558
 31
0.0
 11
172.8693431224555
 21
13.81626739612929
 31
0.0
 11
172.8082651639442
 21
13.82145433189187
 31
0.0
 11
172.742087361813
 21
13.82315538223864
 31
0.0
 11
172.6758390041282
 21
13.82145433189187
 31
0.0
 11
172.6147963233938
 21
13.81626739612929
 31
0.0
 11
172.8899684951931
 21
14.41656508695144
 31
0.0
 11
173.158294573417
 21
15.01343642360777
 31
0.0
 11
173.4240277350405
 21
15.61366245644383
 31
0.0
 11
173.6914740737033
 21
16.22421385386063
 31
0.0
 11
173.7241589339806
 21
16.22421385386063
 31
0.0
 11
173.7568437942579
 21
16.22421385386063
 31
0.0
 11
173.8428300681057
 21
16.01658539037085
 31
0.0
 11
173.9357285813609
 21
15.79254614563519
 31
0.0
 11
174.0328714521464
 21
15.5590866318047
 31
0.0
 11
174.1317936458032
 21
15.32298128464147
 31
0.0
 11
174.2315341249927
 21
15.08649780379785
 31
0.0
 11
174.3313071129353
 21
14.85168781253712
 31
0.0
 11
174.4280608257448
 21
14.62599492196852
 31
0.0
 11
174.5188084970408
 21
14.41658052097921
 31
0.0
 11
174.6022150834546
 21
14.22607611130463
 31
0.0
 11
174.6770293263377
 21
14.05708232662468
 31
0.0
 11
174.7410729186603
 21
13.91781337700669
 31
0.0
 11
174.7922649500513
 21
13.81626739612929
 31
0.0
  0
SPLINE
  5
C4
102
{ACAD_REACTORS
330
E0
102
}
330
48
100
AcDbEntity
  8
_U_30EC_U_30A4_U_30E4_U_30FC_1
  6
Continuous
 62
     2
100
AcDbSpline
210
0.0
220
0.0
230
1.0
 70
    11
 71
     3
 72
    99
 73
    95
 74
    93
 42
0.000000001
 43
0.0000000001
 44
0.00000001
 40
0.0
 40
0.0
 40
0.0
 40
0.0
 40
0.0796417172272575
 40
0.1621768542356748
 40
0.2486489160958344
 40
0.3404969668525346
 40
0.438191251116535
 40
0.5434463660245658
 40
0.6518115192847411
 40
0.7530190937886712
 40
0.8492196919724999
 40
0.9419290312998099
 40
1.034249663570033
 40
1.129078600620176
 40
1.226697027573242
 40
1.327220425421712
 40
1.470572134938031
 40
1.595489863371248
 40
1.719934125348407
 40
1.850576620127447
 40
1.989059629987313
 40
2.134139054226961
 40
2.280698007207244
 40
2.424529739039509
 40
2.565929576985881
 40
2.708239260773515
 40
2.861717887443667
 40
3.045168540347388
 40
3.183798301138628
 40
3.314813961455465
 40
3.442083470447314
 40
3.569912708372974
 40
3.702177512509415
 40
3.842307559659531
 40
3.992872223245935
 40
4.156750662218324
 40
4.310981861107602
 40
4.445859909322675
 40
4.572393936131616
 40
4.701656719781985
 40
4.768279086008476
 40
4.835960697898419
 40
4.912788918729338
 40
5.00628520848155
 40
5.026909478751627
 40
5.047533749021191
 40
5.101808031471248
 40
5.162325165538548
 40
5.226919745995869
 40
5.29423180659674
 40
5.364544852554865
 40
5.438319055467936
 40
5.517877651324271
 40
5.607647714861583
 40
5.70044964254443
 40
5.788251142364161
 40
5.87271470603979
 40
5.955167292575308
 40
6.037192395190393
 40
6.120669181469123
 40
6.206848616686346
 40
6.296680855416748
 40
6.442558392872579
 40
6.568190371608255
 40
6.692904567360337
 40
6.824220446557114
 40
6.963121850329349
 40
7.107843738851139
 40
7.253431663907249
 40
7.395187468036669
 40
7.533140753237752
 40
7.670550457175222
 40
7.816236511769263
 40
7.987691657359221
 40
8.14227742196925
 40
8.293662615415021
 40
8.442962460879272
 40
8.59159831618532
 40
8.743678992361792
 40
8.903725323699181
 40
9.076307008890472
 40
9.265578604680584
 40
9.45920379536073
 40
9.617619810273434
 40
9.753609671361874
 40
9.874873300004065
 40
9.954520184977767
 40
10.02416413719244
 40
10.09769764405444
 40
10.18909955924971
 40
10.20974586420138
 40
10.23039218263386
 40
10.3005710188127
 40
10.37632012987546
 40
10.37632012987546
 40
10.37632012987546
 40
10.37632012987546
 10
170.1465954835851
 20
14.13795663215996
 30
0.0
 10
170.1632217851219
 20
14.11720608845314
 30
0.0
 10
170.1970784206577
 20
14.074951117119
 30
0.0
 10
170.2599822541037
 20
14.02029811392076
 30
0.0
 10
170.3332500940394
 20
13.97299025121052
 30
0.0
 10
170.4175969238637
 20
13.93527231437936
 30
0.0
 10
170.513224061546
 20
13.91040619731953
 30
0.0
 10
170.6171853775347
 20
13.90309559345938
 30
0.0
 10
170.7224020220405
 20
13.91142322794054
 30
0.0
 10
170.8206626371334
 20
13.9414917965153
 30
0.0
 10
170.9058986427548
 20
13.98848822971877
 30
0.0
 10
170.9779220206103
 20
14.0495299125086
 30
0.0
 10
171.0350917709096
 20
14.12412969578585
 30
0.0
 10
171.076786874744
 20
14.21002464660176
 30
0.0
 10
171.1026952846293
 20
14.30485850432211
 30
0.0
 10
171.1118037332654
 20
14.41854979038369
 30
0.0
 10
171.0986864796487
 20
14.5433258777078
 30
0.0
 10
171.0325330334414
 20
14.66014719171893
 30
0.0
 10
170.9369370919569
 20
14.74512539577377
 30
0.0
 10
170.8249681022369
 20
14.81416684459161
 30
0.0
 10
170.699365958327
 20
14.87204142045893
 30
0.0
 10
170.5656691620856
 20
14.92373723284343
 30
0.0
 10
170.431312281883
 20
14.97899092397183
 30
0.0
 10
170.3051983986877
 20
15.04939770641651
 30
0.0
 10
170.1926579987535
 20
15.13785540731249
 30
0.0
 10
170.0969963064459
 20
15.24981067868478
 30
0.0
 10
170.0334157151825
 20
15.39949910101381
 30
0.0
 10
170.0200706505016
 20
15.55932794385144
 30
0.0
 10
170.0320510987448
 20
15.71048405306846
 30
0.0
 10
170.071229892884
 20
15.8380924459154
 30
0.0
 10
170.135498775091
 20
15.95080874030845
 30
0.0
 10
170.223820499974
 20
16.04648609268689
 30
0.0
 10
170.3338091207628
 20
16.1235421498575
 30
0.0
 10
170.4632284401264
 20
16.1815139693628
 30
0.0
 10
170.6111838967793
 20
16.21739177588823
 30
0.0
 10
170.7682069455487
 20
16.22746719050565
 30
0.0
 10
170.9174940466431
 20
16.21863637762591
 30
0.0
 10
171.059625361417
 20
16.19074899340355
 30
0.0
 10
171.1595922609625
 20
16.13413314701138
 30
0.0
 10
171.3125074736185
 20
16.08674602105508
 30
0.0
 10
171.2455131717168
 20
16.00197553001186
 30
0.0
 10
171.2296479120269
 20
15.93438901873486
 30
0.0
 10
171.1978750531297
 20
15.8692609279319
 30
0.0
 10
171.2150202209571
 20
15.76723453256954
 30
0.0
 10
171.1666427208232
 20
15.77493211681903
 30
0.0
 10
171.1315789440766
 20
15.76806771724808
 30
0.0
 10
171.1296697985718
 20
15.832638311582
 30
0.0
 10
171.0985692931989
 20
15.87825639621395
 30
0.0
 10
171.0664551628455
 20
15.93561036628456
 30
0.0
 10
171.0208038475168
 20
15.98540462692559
 30
0.0
 10
170.9658508218387
 20
16.02994813718998
 30
0.0
 10
170.9010841173008
 20
16.0676398883655
 30
0.0
 10
170.8232377310596
 20
16.09283375791353
 30
0.0
 10
170.7355160553352
 20
16.09931230998111
 30
0.0
 10
170.6452903277806
 20
16.09235709285608
 30
0.0
 10
170.5594594694065
 20
16.06909190460922
 30
0.0
 10
170.4828343638596
 20
16.03131644107546
 30
0.0
 10
170.41652656362
 20
15.98051641089575
 30
0.0
 10
170.3622560536964
 20
15.91731143407212
 30
0.0
 10
170.3224925345458
 20
15.8427645571037
 30
0.0
 10
170.2976775510589
 20
15.75917313997764
 30
0.0
 10
170.2892124262871
 20
15.65192948382288
 30
0.0
 10
170.3019697987103
 20
15.52965457267561
 30
0.0
 10
170.3681548409273
 20
15.41149724291212
 30
0.0
 10
170.4640977399832
 20
15.32606325709529
 30
0.0
 10
170.5757914963182
 20
15.25583362306723
 30
0.0
 10
170.7010863668702
 20
15.19659162305305
 30
0.0
 10
170.8349823941447
 20
15.14616708086132
 30
0.0
 10
170.968993033315
 20
15.09322516984383
 30
0.0
 10
171.0950885316915
 20
15.02750170625176
 30
0.0
 10
171.2076216638417
 20
14.94480352537324
 30
0.0
 10
171.3031370284232
 20
14.83996006310072
 30
0.0
 10
171.3672706486964
 20
14.69937117251573
 30
0.0
 10
171.3811103725278
 20
14.54065409451592
 30
0.0
 10
171.367395471223
 20
14.38153155217876
 30
0.0
 10
171.3244739153985
 20
14.23483828819212
 30
0.0
 10
171.2545906329065
 20
14.10119796587143
 30
0.0
 10
171.1574592213829
 20
13.98532387699293
 30
0.0
 10
171.0347806023657
 20
13.8908998177009
 30
0.0
 10
170.8874408413168
 20
13.82179270651983
 30
0.0
 10
170.7177132497125
 20
13.77953210858853
 30
0.0
 10
170.5317404979597
 20
13.76781736230409
 30
0.0
 10
170.3528955926183
 20
13.77809486683436
 30
0.0
 10
170.1881733753744
 20
13.81966573769158
 30
0.0
 10
170.0834410841057
 20
13.88797642883942
 30
0.0
 10
169.9350960790366
 20
13.93675219032107
 30
0.0
 10
169.9980378194729
 20
14.02976591290842
 30
0.0
 10
170.007227443006
 20
14.10296536248281
 30
0.0
 10
170.0303711301232
 20
14.16936294501348
 30
0.0
 10
170.0034588335317
 20
14.26974809527583
 30
0.0
 10
170.0521338956339
 20
14.26234033517379
 30
0.0
 10
170.0916530580697
 20
14.26894063620896
 30
0.0
 10
170.0996204944702
 20
14.19078703218934
 30
0.0
 10
170.1305436967923
 20
14.15600927375859
 30
0.0
 10
170.1465954835851
 20
14.13795663215996
 30
0.0
 11
170.1465954835851
 21
14.13795663215996
 31
0.0
 11
170.1982038075864
 21
14.07729869814737
 31
0.0
 11
170.2601105501336
 21
14.02271295163321
 31
0.0
 11
170.3327764009803
 21
13.97583980928385
 31
0.0
 11
170.4166468655844
 21
13.93839906276538
 31
0.0
 11
170.511221073241
 21
13.91390636311879
 31
0.0
 11
170.6161603327166
 21
13.90575829888473
 31
0.0
 11
170.7240739497552
 21
13.91564048638224
 31
0.0
 11
170.8208419941616
 21
13.94528704887483
 31
0.0
 11
170.9050776083319
 21
13.9917511894882
 31
0.0
 11
170.9756144207686
 21
14.05191413218152
 31
0.0
 11
171.031944210998
 21
14.12505819466322
 31
0.0
 11
171.0736690016003
 21
14.21021434047523
 31
0.0
 11
171.0994680808033
 21
14.30436190989614
 31
0.0
 11
171.1080824729447
 21
14.40451552098222
 31
0.0
 11
171.0878517703357
 21
14.54643250879399
 31
0.0
 11
171.0272522666731
 21
14.65566684036389
 31
0.0
 11
170.9364971286286
 21
14.74081306430096
 31
0.0
 11
170.826010188474
 21
14.81052746532518
 31
0.0
 11
170.7008523531254
 21
14.86979854169924
 31
0.0
 11
170.5662951950998
 21
14.92404253474123
 31
0.0
 11
170.4316884277007
 21
14.98201274306006
 31
0.0
 11
170.3065802017258
 21
15.05297399304233
 31
0.0
 11
170.196027609828
 21
15.14113315968696
 31
0.0
 11
170.1053381235266
 21
15.25080295132618
 31
0.0
 11
170.0447055469484
 21
15.39179720476316
 31
0.0
 11
170.0245079172553
 21
15.57413260402316
 31
0.0
 11
170.0374030471347
 21
15.71216131926644
 31
0.0
 11
170.0761016659391
 21
15.8373312845129
 31
0.0
 11
170.1393141731506
 21
15.94779262129084
 31
0.0
 11
170.2257499954545
 21
16.04196885390622
 31
0.0
 11
170.3336492808963
 21
16.11846540770651
 31
0.0
 11
170.4613526283328
 21
16.17615670109488
 31
0.0
 11
170.6075393259923
 21
16.21220066809974
 31
0.0
 11
170.770976856545
 21
16.22421385386063
 31
0.0
 11
170.924891843129
 21
16.21434269066865
 31
0.0
 11
171.0564887242608
 21
16.18477329831498
 31
0.0
 11
171.172563634494
 21
16.13439993895253
 31
0.0
 11
171.2800792741122
 21
16.06264163167879
 31
0.0
 11
171.2516994050444
 21
16.00236624106888
 31
0.0
 11
171.2284855254283
 21
15.93879017337649
 31
0.0
 11
171.2078381040801
 21
15.86478841992271
 31
0.0
 11
171.1871840681487
 21
15.77360197897329
 31
0.0
 11
171.1665597978415
 21
15.77360197897329
 31
0.0
 11
171.1459355275343
 21
15.77360197897329
 31
0.0
 11
171.1256706495791
 21
15.82395108486349
 31
0.0
 11
171.0994658759421
 21
15.8785004511693
 31
0.0
 11
171.0650468924451
 21
15.93316116296116
 31
0.0
 11
171.0203554612937
 21
15.98349593725412
 31
0.0
 11
170.9657333359511
 21
16.0277717532153
 31
0.0
 11
170.9016722004326
 21
16.06436142334502
 31
0.0
 11
170.825968296114
 21
16.08882545979728
 31
0.0
 11
170.7365722046449
 21
16.09701100667023
 31
0.0
 11
170.6440937174207
 21
16.08926973931102
 31
0.0
 11
170.5594072091645
 21
16.06609003445567
 31
0.0
 11
170.483702448884
 21
16.0286349563401
 31
0.0
 11
170.4183754766516
 21
15.97832774281103
 31
0.0
 11
170.3650487887664
 21
15.91600293379881
 31
0.0
 11
170.3254809233901
 21
15.84249947895609
 31
0.0
 11
170.3009523754712
 21
15.75988443557392
 31
0.0
 11
170.2927954104109
 21
15.67042329844355
 31
0.0
 11
170.3130095765618
 21
15.52595308146575
 31
0.0
 11
170.373625616682
 21
15.41591177072938
 31
0.0
 11
170.4643479320758
 21
15.33033670130632
 31
0.0
 11
170.5748676948813
 21
15.25941954854626
 31
0.0
 11
170.7000089937719
 21
15.1991430555058
 31
0.0
 11
170.8345826882553
 21
15.14590447913022
 31
0.0
 11
170.9691729191968
 21
15.09039489581075
 31
0.0
 11
171.0942976816297
 21
15.02377281249412
 31
0.0
 11
171.2048009079771
 21
14.94118863716751
 31
0.0
 11
171.2955397598288
 21
14.83800003476273
 31
0.0
 11
171.3561557999489
 21
14.70552315979585
 31
0.0
 11
171.3763699660998
 21
14.5352637848384
 31
0.0
 11
171.3621839747998
 21
14.38133030397413
 31
0.0
 11
171.3196087009193
 21
14.23605531269098
 31
0.0
 11
171.2499752884265
 21
14.1039885418907
 31
0.0
 11
171.1544992078713
 21
13.99007218775249
 31
0.0
 11
171.0341060772624
 21
13.89715272597019
 31
0.0
 11
170.8896160201846
 21
13.82832357668181
 31
0.0
 11
170.7223519532714
 21
13.78581275203968
 31
0.0
 11
170.5336103348226
 21
13.77165864614042
 31
0.0
 11
170.3405031726388
 21
13.78581275203968
 31
0.0
 11
170.1878975900912
 21
13.82832357668181
 31
0.0
 11
170.0661897942203
 21
13.88899033013891
 31
0.0
 11
169.9660261826363
 21
13.95734322942738
 31
0.0
 11
169.9922320587039
 21
14.03255545163077
 31
0.0
 11
170.0090121537618
 21
14.10014767383613
 31
0.0
 11
170.0206196447852
 21
14.17275926235963
 31
0.0
 11
170.0313606254139
 21
14.2635278821286
 31
0.0
 11
170.0520069443316
 21
14.2635278821286
 31
0.0
 11
170.0726532632493
 21
14.2635278821286
 31
0.0
 11
170.104891639163
 21
14.20119204881085
 31
0.0
 11
170.1465954835851
 21
14.13795663215996
 31
0.0
  0
LWPOLYLINE
  5
C5
102
{ACAD_REACTORS
330
D2
102
}
330
48
100
AcDbEntity
  8
_U_30EC_U_30A4_U_30E4_U_30FC_1
  6
Continuous
 62
     2
100
AcDbPolyline
 90
        5
 70
     1
 43
0.0
 10
192.4578138032672
 20
15.39722336795627
 10
192.4578138032672
 20
15.22875434022059
 10
191.1602971697031
 20
15.22875434022059
 10
191.1602971697031
 20
15.39722336795627
 10
192.4578138032672
 20
15.39722336795627
  0
MTEXT
  5
C7
330
48
100
AcDbEntity
  8
1
 62
     2
100
AcDbMText
 10
32.5
 20
282.0000000000003
 30
0.0
 40
5.0
 41
0.0
 71
     5
 72
     1
  1
図番
  7
CONVERTER_11
 73
     1
 44
0.45454545454545
  0
MTEXT
  5
C8
330
48
100
AcDbEntity
  8
1
 62
     2
100
AcDbMText
 10
29.0
 20
34.00000000000003
 30
0.0
 40
3.5
 41
0.0
 71
     5
 72
     1
  1
備考
  7
CONVERTER_11
 73
     1
 44
0.45454545454545
  0
MTEXT
  5
C9
330
48
100
AcDbEntity
  8
1
 62
     2
100
AcDbMText
 10
29.0
 20
22.75000000000001
 30
0.0
 40
3.5
 41
0.0
 71
     5
 72
     1
  1
品名
  7
CONVERTER_11
 73
     1
 44
0.72727272727273
  0
MTEXT
  5
CA
330
48
100
AcDbEntity
  8
1
 62
     2
100
AcDbMText
 10
29.0
 20
14.25000000000001
 30
0.0
 40
3.5
 41
0.0
 71
     5
 72
     1
  1
品番
  7
CONVERTER_11
 73
     1
 44
0.72727272727273
  0
MTEXT
  5
CB
330
48
100
AcDbEntity
  8
1
 62
     2
100
AcDbMText
 10
101.5
 20
25.00000000000003
 30
0.0
 40
3.0
 41
0.0
 71
     5
 72
     1
  1
承認
  7
CONVERTER_11
 73
     1
 44
0.59090909090909
  0
MTEXT
  5
CC
330
48
100
AcDbEntity
  8
1
 62
     2
100
AcDbMText
 10
175.0000000000001
 20
23.50000000000003
 30
0.0
 40
3.5
 41
0.0
 71
     5
 72
     1
  1
第三角法
  7
CONVERTER_11
 73
     1
 44
0.54545454545455
  0
MTEXT
  5
CD
330
48
100
AcDbEntity
  8
1
 62
     2
100
AcDbMText
 10
118.5
 20
25.00000000000003
 30
0.0
 40
3.0
 41
0.0
 71
     5
 72
     1
  1
検図
  7
CONVERTER_11
 73
     1
 44
0.59090909090909
  0
MTEXT
  5
CE
330
48
100
AcDbEntity
  8
1
 62
     2
100
AcDbMText
 10
152.5000000000001
 20
25.00000000000003
 30
0.0
 40
3.0
 41
0.0
 71
     5
 72
     1
  1
設計
  7
CONVERTER_11
 73
     1
 44
0.59090909090909
  0
MTEXT
  5
CF
330
48
100
AcDbEntity
  8
1
 62
     2
100
AcDbMText
 10
135.5
 20
25.00000000000003
 30
0.0
 40
3.0
 41
0.0
 71
     5
 72
     1
  1
製図
  7
CONVERTER_11
 73
     1
 44
0.59090909090909
  0
MTEXT
  5
D0
330
48
100
AcDbEntity
  8
1
 62
     2
100
AcDbMText
 10
89.50000000000003
 20
24.00000000000003
 30
0.0
 40
3.5
 41
0.0
 71
     5
 72
     1
  1
尺度
  7
CONVERTER_11
 73
     1
 44
0.54545454545455
  0
MTEXT
  5
D1
330
48
100
AcDbEntity
  8
1
 62
   250
100
AcDbMText
 10
25.0
 20
5.00000000000001
 30
0.0
 40
3.5
 41
0.0
 71
     4
 72
     1
  1
備考欄の文字列 原点位置=4
  7
CONVERTER_11
 73
     1
 44
0.54545454545455
  0
HATCH
  5
D2
330
48
100
AcDbEntity
  8
1
  6
Continuous
 62
     2
100
AcDbHatch
 10
0.0
 20
0.0
 30
0.0
210
0.0
220
0.0
230
1.0
  2
CUSTOM0
 70
     0
 71
     1
 91
        1
 92
        1
 93
        4
 72
     1
 10
192.4578138032672
 20
15.39722336795627
 11
192.4578138032672
 21
15.22875434022059
 72
     1
 10
192.4578138032672
 20
15.22875434022059
 11
191.1602971697031
 21
15.22875434022059
 72
     1
 10
191.1602971697031
 20
15.22875434022059
 11
191.1602971697031
 21
15.39722336795627
 72
     1
 10
191.1602971697031
 20
15.39722336795627
 11
192.4578138032672
 21
15.39722336795627
 97
        1
330
C5
 75
     1
 76
     2
 52
45.0
 41
0.1
 77
     0
 78
     1
 53
45.0
 43
0.0
 44
0.0
 45
-0.282842712474619
 46
0.0
 79
     0
 98
        1
 10
0.0
 20
0.0
  0
HATCH
  5
D3
330
48
100
AcDbEntity
  8
1
  6
Continuous
 62
     2
100
AcDbHatch
 10
0.0
 20
0.0
 30
0.0
210
0.0
220
0.0
230
1.0
  2
CUSTOM1
 70
     0
 71
     1
 91
        1
 92
        1
 93
        3
 72
     4
 94
        3
 73
     0
 74
     0
 95
       24
 96
       20
 40
0.0
 40
0.0
 40
0.0
 40
0.0
 40
0.221107500875382
 40
0.4273218586245348
 40
0.5080174679239392
 40
0.5914835907870286
 40
0.8143265690192723
 40
1.054651302686583
 40
1.29545269402317
 40
1.518109231328825
 40
1.540864321905468
 40
1.595126460622729
 40
1.659890947896069
 40
1.714153085187455
 40
1.736908174961755
 40
1.764951100735481
 40
1.801562291221096
 40
1.953914424543776
 40
2.12610416737987
 40
2.12610416737987
 40
2.12610416737987
 40
2.12610416737987
 10
185.9375369556889
 20
15.58989295113017
 10
185.9112579081812
 20
15.53097628234375
 10
185.8604698894425
 20
15.41711139679258
 10
185.8131784839112
 20
15.14441958233116
 10
185.7043482802618
 20
15.24445482575456
 10
185.5514800279637
 20
15.27118593367333
 10
185.7686155181199
 20
15.48518135017633
 10
185.7838483674381
 20
15.70332117782487
 10
185.8906889492001
 20
15.88451579066429
 10
185.8305380947077
 20
16.169132263114
 10
185.9334317395402
 20
16.14114089222453
 10
185.977993346815
 20
16.132432516023
 10
186.0380842395397
 20
16.12139654183357
 10
186.0756619587438
 20
16.10767523055562
 10
186.1252466928607
 20
16.10756076160224
 10
186.0930158919325
 20
16.07306592398625
 10
186.0171802221882
 20
16.08404104537968
 10
186.0429447159694
 20
15.89858969582451
 10
186.005589676385
 20
15.80702313549591
 10
185.9857704961609
 20
15.75844135397706
 72
     4
 94
        3
 73
     0
 74
     0
 95
       70
 96
       66
 40
0.0
 40
0.0
 40
0.0
 40
0.0
 40
0.0241731073021472
 40
0.0846058988987013
 40
0.1631685280353284
 40
0.2417311571789756
 40
0.3021639488292751
 40
0.3263370654895541
 40
0.3533118254248899
 40
0.4228783438922111
 40
0.5179999095313402
 40
0.6216398239466102
 40
0.7167613891499706
 40
0.7863279069649863
 40
0.8133026791761836
 40
0.8372943998771674
 40
0.8945054261372869
 40
0.9627895541962639
 40
1.020000580349074
 40
1.043992300975172
 40
1.071934345522908
 40
1.113121768772919
 40
1.145225199332243
 40
1.225483775412778
 40
1.329819923771488
 40
1.434156071994378
 40
1.514414647795798
 40
1.546518078208406
 40
1.578974764260179
 40
1.662678849314174
 40
1.777131373668395
 40
1.901833377474786
 40
2.016285900500575
 40
2.099989982527942
 40
2.132446666570301
 40
2.158782354486025
 40
2.216720867907814
 40
2.274659381334239
 40
2.300995069256171
 40
2.333451754066143
 40
2.417155836543824
 40
2.531608358985263
 40
2.656310362283758
 40
2.770762886388891
 40
2.854466971340056
 40
2.886923657363862
 40
2.913597976833294
 40
2.982389642875095
 40
3.076451716946961
 40
3.178937260458572
 40
3.272999334739975
 40
3.341791001059196
 40
3.368465320663507
 40
3.396976080738728
 40
3.472140811845964
 40
3.578408190308654
 40
3.70022689245609
 40
3.822045594634307
 40
3.928312973256414
 40
4.003477705314811
 40
4.031988456866877
 40
4.058324144797675
 40
4.116262658236836
 40
4.174201171400636
 40
4.200536849608568
 40
4.200536849608568
 40
4.200536849608568
 40
4.200536849608568
 10
185.9857704961609
 20
15.75844135397706
 10
185.9938259544679
 20
15.75844359811687
 10
186.0220200663241
 20
15.75845146032799
 10
186.0765534803672
 20
15.75830754828372
 10
186.1482891808604
 20
15.75909120499899
 10
186.2236240137062
 20
15.75627570463812
 10
186.2713052366439
 20
15.76298403400959
 10
186.3195071245615
 20
15.75197563692433
 10
186.3062571799874
 20
15.80546402997035
 10
186.3151093964538
 20
15.86049583543092
 10
186.3108698036285
 20
15.9541990872611
 10
186.313348348128
 20
16.04959482218533
 10
186.309093870606
 20
16.14356821983388
 10
186.3179818665846
 20
16.19795062438013
 10
186.3046977409945
 20
16.25233997691462
 10
186.3514119277109
 20
16.23842216335359
 10
186.3943254545736
 20
16.24103877374044
 10
186.4605443456685
 20
16.23648422450756
 10
186.5013342271798
 20
16.22778162134162
 10
186.5525145690818
 20
16.23531799890196
 10
186.52537204872
 20
16.19349970223286
 10
186.4803096055706
 20
16.20284992072597
 10
186.4942065045051
 20
16.13841207371839
 10
186.4858414431653
 20
16.07378219627399
 10
186.4903632178398
 20
15.97529141193889
 10
186.4854741311167
 20
15.87595932842571
 10
186.4950258992082
 20
15.8129311555297
 10
186.47997614552
 20
15.7496401149979
 10
186.5449159457208
 20
15.7651507294427
 10
186.6116246399496
 20
15.75499387697813
 10
186.7241435470828
 20
15.75988800099369
 10
186.8390235448954
 20
15.75691204732784
 10
186.9519871999747
 20
15.76221664184992
 10
187.0176267597678
 20
15.7510730647209
 10
187.0816276691053
 20
15.76744532319858
 10
187.0703142889189
 20
15.71761689905276
 10
187.0775339871509
 20
15.67416715212124
 10
187.070314261127
 20
15.63071745587446
 10
187.0816277175994
 20
15.58088895196877
 10
187.0176263598972
 20
15.59726166091363
 10
186.9519921240459
 20
15.5861127166159
 10
186.838997431733
 20
15.59144857206855
 10
186.7242456548644
 20
15.58834345663823
 10
186.611318368686
 20
15.59364894682589
 10
186.5455220903585
 20
15.58257300019594
 10
186.4816097975358
 20
15.59887597847619
 10
186.4936015165126
 20
15.54423524395743
 10
186.4862104613004
 20
15.48854295047843
 10
186.4892684841984
 20
15.39649689140572
 10
186.4893422785683
 20
15.30179109873102
 10
186.486031357836
 20
15.20952782902267
 10
186.4939505989904
 20
15.15435768736141
 10
186.4815076611617
 20
15.10058169100138
 10
186.5389116551632
 20
15.11453768862783
 10
186.5994708140383
 20
15.10511457884229
 10
186.7048680855081
 20
15.10942885928706
 10
186.8204294070622
 20
15.10835504612033
 10
186.9359688877797
 20
15.10725965900997
 10
187.0414181130841
 20
15.11162525770635
 10
187.1018680471804
 20
15.10209426030673
 10
187.159283773911
 20
15.11617289606382
 10
187.1477773876709
 20
15.06707153265685
 10
187.153756678175
 20
15.02564658018651
 10
187.1520311050801
 20
14.97651677966697
 10
187.1521500122971
 20
14.9485442844761
 10
187.1521871691833
 20
14.93980288195952
 72
     4
 94
        3
 73
     0
 74
     0
 95
       62
 96
       58
 40
0.0
 40
0.0
 40
0.0
 40
0.0
 40
0.0598250028308485
 40
0.2024846486897331
 40
0.3727558389221031
 40
0.515415484793607
 40
0.5752404975785339
 40
0.9332326775487383
 40
1.290451762839497
 40
1.602077253145878
 40
1.699931634112126
 40
1.799359756425052
 40
2.270120149657092
 40
2.804661928461561
 40
2.882342287383275
 40
3.076543185719126
 40
3.329004354835591
 40
3.58146552456842
 40
3.775666424543706
 40
3.853346784558327
 40
3.899120679595073
 40
3.984129341792071
 40
4.02990323681742
 40
4.105797496059575
 40
4.295533144152534
 40
4.542189486611779
 40
4.788845828875727
 40
4.978581476410112
 40
5.054475735244354
 40
5.621734664339355
 40
6.130867242037388
 40
6.225249780948598
 40
6.318913039727338
 40
6.663579954558958
 40
7.04749890022481
 40
7.435230791575745
 40
7.498943906668157
 40
7.650875181210151
 40
7.832212509001661
 40
7.984143783697047
 40
8.047856898903174
 40
8.091554632732679
 40
8.172707566964336
 40
8.21640530076806
 40
8.289021782160944
 40
8.462184160757317
 40
8.668861838005398
 40
8.84202421526399
 40
8.914640695475185
 40
8.98988158086139
 40
9.155411528827294
 40
9.320941477744075
 40
9.396182352487324
 40
9.454709011143871
 40
9.583467660170806
 40
9.712226309013085
 40
9.770752957989538
 40
9.770752957989538
 40
9.770752957989538
 40
9.770752957989538
 10
187.1521871691833
 20
14.93980288195952
 10
187.1322348171623
 20
14.93980875568674
 10
187.0647037716465
 20
14.9398286380616
 10
186.9410612161789
 20
14.93949362520328
 10
186.7863180150056
 20
14.94107673750513
 10
186.669734948248
 20
14.93686078860498
 10
186.4550942634239
 20
14.95215205331627
 10
186.851894840723
 20
14.59198721286195
 10
186.8945656069268
 20
14.37510503397169
 10
187.3189162146612
 20
14.19325062511446
 10
187.1439821496074
 20
14.08985196568074
 10
187.0194523925084
 20
13.87831523212723
 10
186.7666277235943
 20
14.34806081001564
 10
186.4797602893626
 20
14.99511516984524
 10
186.490633592666
 20
14.68782672154696
 10
186.488289277796
 20
14.5228861697178
 10
186.4861096126411
 20
14.28879670711695
 10
186.4980774396346
 20
14.04498072421784
 10
186.468798474063
 20
13.89855796860986
 10
186.511452262547
 20
13.75113490174539
 10
186.4239814005639
 20
13.7668579730622
 10
186.3768527606744
 20
13.76694303543455
 10
186.2898973207713
 20
13.7510942548291
 10
186.3313474021722
 20
13.89527771422763
 10
186.3029875004285
 20
14.03855052698456
 10
186.31459737753
 20
14.27674947365266
 10
186.3124175648271
 20
14.50517235240347
 10
186.3103111127994
 20
14.66705729375995
 10
186.3208035438323
 20
14.98153709333753
 10
186.0128963252893
 20
14.29229470872436
 10
185.7055258267455
 20
13.81476750243049
 10
185.5851367066275
 20
14.03741112637431
 10
185.4074607910721
 20
14.15011034955564
 10
185.8853326362894
 20
14.32548143465464
 10
185.9353959057208
 20
14.56091929252032
 10
186.3583799621715
 20
14.95322989344609
 10
186.1276754273541
 20
14.93655307029068
 10
186.004968585934
 20
14.94269518948772
 10
185.8325483095661
 20
14.93312822699576
 10
185.7213224694448
 20
14.95448818489667
 10
185.6025779627448
 20
14.92136265357422
 10
185.6183169706685
 20
15.00203900606885
 10
185.6178550933762
 20
15.04645414290856
 10
185.6027881889931
 20
15.12967081778535
 10
185.7372380935443
 20
15.09062651983885
 10
185.8619755545746
 20
15.11739729328424
 10
186.062875523728
 20
15.10063949044054
 10
186.1921540949352
 20
15.12204225913006
 10
186.3328419928295
 20
15.08868778853423
 10
186.2980927452614
 20
15.22651875785069
 10
186.3222185666714
 20
15.34963257349483
 10
186.2967086182392
 20
15.47024055670337
 10
186.3333251146685
 20
15.60539865141496
 10
186.2211417027769
 20
15.58094545781892
 10
186.1280356457136
 20
15.59307749842024
 10
186.0191547579819
 20
15.58957630069994
 10
185.9569697640964
 20
15.58981755951604
 10
185.9375369557246
 20
15.58989295124145
 97
        3
330
B6
330
B4
330
B5
 75
     1
 76
     2
 52
45.0
 41
0.1
 77
     0
 78
     1
 53
45.0
 43
0.0
 44
0.0
 45
-0.282842712474619
 46
0.0
 79
     0
 98
        1
 10
0.0
 20
0.0
  0
HATCH
  5
D4
330
48
100
AcDbEntity
  8
1
  6
Continuous
 62
     2
100
AcDbHatch
 10
0.0
 20
0.0
 30
0.0
210
0.0
220
0.0
230
1.0
  2
CUSTOM2
 70
     0
 71
     1
 91
        1
 92
        1
 93
        1
 72
     4
 94
        3
 73
     0
 74
     0
 95
      124
 96
      120
 40
0.0
 40
0.0
 40
0.0
 40
0.0
 40
0.027818722962451
 40
0.1011590162384269
 40
0.2048470170590523
 40
0.3237088716559245
 40
0.4425707262522284
 40
0.5462587270700116
 40
0.6195990203312934
 40
0.6474177522579513
 40
0.6750060736116095
 40
0.7357003855243611
 40
0.7963946998055327
 40
0.8239830245572619
 40
0.8540933811103997
 40
0.9373396629410109
 40
1.063094687343349
 40
1.220731268638187
 40
1.399622220914861
 40
1.589140358637846
 40
1.778658496424012
 40
1.957549448940679
 40
2.115186030873329
 40
2.240941056914605
 40
2.324187341760703
 40
2.354297700109552
 40
2.381886024672061
 40
2.442580338710646
 40
2.503274652750668
 40
2.530862977314777
 40
2.56098394927873
 40
2.640393784453075
 40
2.752662861759299
 40
2.881361560118315
 40
3.010060258455362
 40
3.122329335705509
 40
3.201739170818123
 40
3.231860142753484
 40
3.26429802403054
 40
3.35234370177841
 40
3.482095226868934
 40
3.639650650173192
 40
3.811108022565649
 40
3.982565394928154
 40
4.140120818152735
 40
4.269872343141444
 40
4.357918020802507
 40
4.390355902044136
 40
4.423256253992705
 40
4.508104530073227
 40
4.624121560636994
 40
4.750528176031751
 40
4.866545206602198
 40
4.951393482692155
 40
4.984293834645556
 40
5.011450833242475
 40
5.071196230152261
 40
5.13094162705734
 40
5.15809862564901
 40
5.1909989776017
 40
5.275847253689526
 40
5.39186428425696
 40
5.518270899648505
 40
5.634287930209545
 40
5.719136206288218
 40
5.752036558236106
 40
5.782130946283131
 40
5.862783906229304
 40
5.979550131775173
 40
6.117984316640578
 40
6.263641154588121
 40
6.402075339414327
 40
6.518841564908123
 40
6.599494524815705
 40
6.629588912848942
 40
6.654403028226519
 40
6.713575149488315
 40
6.784199939329689
 40
6.843372060493791
 40
6.868186175803037
 40
6.896246243202162
 40
6.939586233758585
 40
6.967846564565213
 40
7.043584251090148
 40
7.153234334452006
 40
7.283231855734752
 40
7.420011856035781
 40
7.550009376580129
 40
7.659659458835526
 40
7.73539714441752
 40
7.76365747485169
 40
7.796409728011347
 40
7.880876065096621
 40
7.996370852466007
 40
8.122208446418902
 40
8.237703224799496
 40
8.32216956201119
 40
8.354921815206204
 40
8.382078813307986
 40
8.441824209207297
 40
8.50156960524045
 40
8.52872660348603
 40
8.561478856696079
 40
8.645945193878129
 40
8.76143998086564
 40
8.887277580764783
 40
9.002772362001304
 40
9.087238696661524
 40
9.119990949235978
 40
9.152428830613678
 40
9.240474508638894
 40
9.370226034149843
 40
9.527781457984727
 40
9.699238830981715
 40
9.870696203978904
 40
10.02825162781432
 40
10.15800315332594
 40
10.24604883135149
 40
10.27848670378552
 40
10.27848670378552
 40
10.27848670378552
 40
10.27848670378552
 10
195.3821827564383
 20
14.01410517385759
 10
195.3914554737523
 20
14.01410498511276
 10
195.425174453686
 20
14.01410430876716
 10
195.4934706812465
 20
14.01411807243307
 10
195.592014171158
 20
14.01403224219547
 10
195.7062066464812
 20
14.01441755612252
 10
195.8185894417071
 20
14.01300835897547
 10
195.9214376600119
 20
14.01719117422245
 10
195.980683987485
 20
14.00823089251985
 10
196.0371265937034
 20
14.02164434526062
 10
196.0246255586955
 20
13.97087198613363
 10
196.0329549635705
 20
13.92589320939069
 10
196.0248170841119
 20
13.8805675299049
 10
196.0370529214458
 20
13.82931932408467
 10
195.9747773490334
 20
13.84447955365278
 10
195.9060513026869
 20
13.83359750710745
 10
195.7782756749592
 20
13.83911304747974
 10
195.6262984511643
 20
13.837008512537
 10
195.4502695972523
 20
13.83771002588476
 10
195.2644431934287
 20
13.83745237531293
 10
195.0786167437175
 20
13.83771005144606
 10
194.9025880142169
 20
13.83700841847733
 10
194.7506104154194
 20
13.83911332229991
 10
194.6228357664555
 20
13.83359680767642
 10
194.554107783658
 20
13.84448077125944
 10
194.4918349042883
 20
13.82931786684211
 10
194.5040616290017
 20
13.88057510805173
 10
194.4960004462597
 20
13.92582473272427
 10
194.5040675809893
 20
13.97106357955325
 10
194.4918238487083
 20
14.0223417690996
 10
194.5525017120697
 20
14.00749577363136
 10
194.6162810745736
 20
14.01756448170737
 10
194.7277314353502
 20
14.01294644212001
 10
194.8497533443824
 20
14.01413328905471
 10
194.9719538137823
 20
14.01515863900637
 10
195.0829794287392
 20
14.01092475623403
 10
195.1476517413958
 20
14.02018584521741
 10
195.2091162810501
 20
14.00604423049685
 10
195.1930065601337
 20
14.07235527884519
 10
195.2042980327358
 20
14.14447790121978
 10
195.1987400822561
 20
14.27513760888288
 10
195.200803506169
 20
14.42607323708243
 10
195.2000167127295
 20
14.59335873107888
 10
195.2007845215627
 20
14.76061110332304
 10
195.1988038785628
 20
14.91163289269916
 10
195.2041306156621
 20
15.04206069552997
 10
195.1933101388425
 20
15.11465442605901
 10
195.2090326429875
 20
15.181504694368
 10
195.143270813249
 20
15.16580512490826
 10
195.0756367830764
 20
15.17609243083997
 10
194.9615885293809
 20
15.17113786847124
 10
194.8451242674902
 20
15.17414128030476
 10
194.7306554121477
 20
15.16880303143391
 10
194.6640324657812
 20
15.18001268074826
 10
194.5990769715186
 20
15.16349132665013
 10
194.6107989758707
 20
15.21473720477061
 10
194.6032830189121
 20
15.25950333784093
 10
194.6107989878836
 20
15.30426944897964
 10
194.5990769505346
 20
15.35551536129744
 10
194.66403263392
 20
15.33899381766819
 10
194.7306533339822
 20
15.35020571373946
 10
194.8451352858063
 20
15.34485436710668
 10
194.9615454436962
 20
15.3479118877112
 10
195.0757660174641
 20
15.34278499010711
 10
195.1430150439226
 20
15.35345733355601
 10
195.2083325941438
 20
15.3374208266908
 10
195.1941391448553
 20
15.39949685750057
 10
195.2036059462995
 20
15.46586761628765
 10
195.1990269004085
 20
15.58239972741969
 10
195.2007696555948
 20
15.71426685022379
 10
195.1997551495391
 20
15.85615960150276
 10
195.2017191344373
 20
15.98769050702583
 10
195.196466855385
 20
16.10524577283005
 10
195.2073408763475
 20
16.16947789001587
 10
195.1919536641853
 20
16.2310880254505
 10
195.2407591537801
 20
16.21702407382113
 10
195.2853995564726
 20
16.21954742075317
 10
195.3538643946742
 20
16.21512797401712
 10
195.3959106169103
 20
16.20613025544039
 10
195.4487544758776
 20
16.21411714866513
 10
195.4207035002014
 20
16.17113917611675
 10
195.3749142248595
 20
16.18259552043839
 10
195.3869539073264
 20
16.12173520005138
 10
195.3796086070641
 20
16.05769299468774
 10
195.3831195826162
 20
15.94909368863913
 10
195.3819806760173
 20
15.82494319144755
 10
195.3819174780263
 20
15.6918971982988
 10
195.3832872966868
 20
15.56797381249558
 10
195.3791638801313
 20
15.45868337849341
 10
195.3877763103564
 20
15.39608580094173
 10
195.3746757454402
 20
15.33740133296368
 10
195.4393884328198
 20
15.35362113810905
 10
195.5060405953156
 20
15.34270260383314
 10
195.6198779541103
 20
15.34793740173759
 10
195.7357259122097
 20
15.34485547516916
 10
195.849692426328
 20
15.35018259812515
 10
195.9160341018099
 20
15.33904208166546
 10
195.9807188525479
 20
15.35546979593181
 10
195.9689820772722
 20
15.30425925210053
 10
195.976516806304
 20
15.25950334121003
 10
195.9689820992257
 20
15.2147473901003
 10
195.9807188140737
 20
15.16353690871042
 10
195.9160344075252
 20
15.17996427794222
 10
195.8496886430824
 20
15.16882784447272
 10
195.7357459487012
 20
15.17413115893122
 10
195.6197995623054
 20
15.17114764593546
 10
195.5062756882122
 20
15.17606892268395
 10
195.4389231318804
 20
15.16585087513521
 10
195.3734285122495
 20
15.18145996138817
 10
195.3891713619218
 20
15.11463851827413
 10
195.3783275998212
 20
15.0420705781588
 10
195.3836581629792
 20
14.91162247614418
 10
195.3817136151855
 20
14.76064558185228
 10
195.3823133683215
 20
14.5932224393416
 10
195.3821506559604
 20
14.42656176118373
 10
195.3821895488136
 20
14.27360142921638
 10
195.3821816413098
 20
14.14849178985707
 10
195.3821828382745
 20
14.06507890991422
 10
195.3821827716207
 20
14.02491778281978
 10
195.3821827564383
 20
14.01410517385759
 97
        1
330
B7
 75
     1
 76
     2
 52
45.0
 41
0.1
 77
     0
 78
     1
 53
45.0
 43
0.0
 44
0.0
 45
-0.282842712474619
 46
0.0
 79
     0
 98
        1
 10
0.0
 20
0.0
  0
HATCH
  5
D5
330
48
100
AcDbEntity
  8
1
  6
Continuous
 62
     2
100
AcDbHatch
 10
0.0
 20
0.0
 30
0.0
210
0.0
220
0.0
230
1.0
  2
CUSTOM3
 70
     0
 71
     1
 91
        1
 92
        1
 93
        1
 72
     4
 94
        3
 73
     0
 74
     0
 95
      131
 96
      127
 40
0.0
 40
0.0
 40
0.0
 40
0.0
 40
0.0195577029826212
 40
0.0426490537461534
 40
0.2863607575856533
 40
0.5344948436189079
 40
0.7842238845573313
 40
0.8737315789467498
 40
0.9803832810313216
 40
1.092842274517068
 40
1.199761146656826
 40
1.289788768186532
 40
1.351573580786203
 40
1.370727117561428
 40
1.416400936017836
 40
1.470914848355973
 40
1.516588666791761
 40
1.535742203552839
 40
1.634216592293185
 40
1.760283341175018
 40
1.897966686682078
 40
2.031216387368897
 40
2.049689751137891
 40
2.101115601646825
 40
2.179502577739945
 40
2.278859318314059
 40
2.393194462258716
 40
2.51651664838383
 40
2.642834515405957
 40
2.766156701983461
 40
2.880491846754575
 40
2.979848588358616
 40
3.058235565443793
 40
3.109661416668948
 40
3.128134780704123
 40
3.14678374238644
 40
3.191254343315272
 40
3.244332157315875
 40
3.28880275822575
 40
3.307451719895021
 40
3.327717853844633
 40
3.383747753579993
 40
3.468388665924384
 40
3.574487837698691
 40
3.694892515728796
 40
3.822449946851933
 40
3.950007377920324
 40
4.070412055800414
 40
4.176511227367968
 40
4.261152139501416
 40
4.317182039076608
 40
4.337448172964528
 40
4.620011002696157
 40
4.885096638397473
 40
4.945373043518259
 40
5.014107710488588
 40
5.070481727652016
 40
5.31924695563654
 40
5.584812164506054
 40
5.859000912056945
 40
6.133746937542075
 40
6.401732212968866
 40
6.420736683995456
 40
6.472845717451107
 40
6.550702743894035
 40
6.646951193874243
 40
6.754234497930567
 40
6.865196086587345
 40
6.972479390357804
 40
7.068727839771966
 40
7.146584865450975
 40
7.198693898189204
 40
7.217698368905345
 40
7.234950401630823
 40
7.276089864269868
 40
7.325191803515977
 40
7.366331266090364
 40
7.383583298769714
 40
7.402779163492119
 40
7.453386443254522
 40
7.524934666445552
 40
7.606953361405892
 40
7.688972056429072
 40
7.760520279784322
 40
7.811127559734593
 40
7.830323424546214
 40
7.847844055299844
 40
7.894799345666882
 40
7.96277939274457
 40
8.043374293560618
 40
8.128174145149522
 40
8.208769044817323
 40
8.276749090377024
 40
8.323704379669586
 40
8.341225010056316
 40
8.358497614800465
 40
8.401679126686641
 40
8.4578150921857
 40
8.513951057728104
 40
8.557132569708003
 40
8.574405174505046
 40
8.602340668616398
 40
8.643455660539964
 40
8.663225271966631
 40
8.715345156564275
 40
8.78903188962861
 40
8.87350204552034
 40
8.957972194323963
 40
9.03165892556785
 40
9.083778811234538
 40
9.103548423003001
 40
9.119550083123539
 40
9.16081752237984
 40
9.217244429110206
 40
9.278724491644692
 40
9.335151398295476
 40
9.376418837357772
 40
9.39242049730056
 40
9.401196302734776
 40
9.41749422938425
 40
9.426270027749522
 40
9.440875075477555
 40
9.475702496998734
 40
9.517270709865896
 40
9.552098131994063
 40
9.56670316988427
 40
9.56670316988427
 40
9.56670316988427
 40
9.56670316988427
 10
194.6170254148479
 20
15.67015871511029
 10
194.6134345093371
 20
15.6645369070216
 10
194.6056039123625
 20
15.65227754419113
 10
194.5129968974547
 20
15.61601916040973
 10
194.4887622233247
 20
15.40148444212716
 10
194.3858709845939
 20
15.22197284509706
 10
194.1220492364305
 20
15.03615573798148
 10
194.284547156918
 20
14.95959336566081
 10
194.3607225760838
 20
14.89856693195444
 10
194.4492171072758
 20
14.83515804544761
 10
194.538993023311
 20
14.77525634219561
 10
194.5883817636047
 20
14.7210215484921
 10
194.6745708157381
 20
14.69286240541834
 10
194.641126067423
 20
14.65713309652813
 10
194.6214671166311
 20
14.62550387991908
 10
194.5919888217882
 20
14.58475872796071
 10
194.5688989446031
 20
14.55504663489646
 10
194.5380205968358
 20
14.50211422668498
 10
194.472919336574
 20
14.62740334938904
 10
194.3796000122415
 20
14.68213900233936
 10
194.2950636285139
 20
14.73916423939345
 10
194.1722498125741
 20
14.89675287427524
 10
194.1764450847301
 20
14.82035806766837
 10
194.1751478652677
 20
14.77361280161297
 10
194.1758126448076
 20
14.69584785812602
 10
194.1755549986956
 20
14.59902068324424
 10
194.1756431239921
 20
14.4865027907881
 10
194.1756077302282
 20
14.36524085945701
 10
194.1756511758278
 20
14.24086897858962
 10
194.1755199942405
 20
14.11967683631337
 10
194.1759477562047
 20
14.00691148919744
 10
194.174667820231
 20
13.91082913768745
 10
194.1779759851044
 20
13.83113826468701
 10
194.1715197740086
 20
13.78815175788785
 10
194.1806208705556
 20
13.74955432372043
 10
194.1447910339935
 20
13.75810887724071
 10
194.1115223815253
 20
13.75342519985448
 10
194.0604562576041
 20
13.75351298759785
 10
194.0269723972814
 20
13.75794430283822
 10
193.9907585408754
 20
13.7496079384251
 10
194.0009782568666
 20
13.79145277179285
 10
193.9936487887774
 20
13.83778560820175
 10
193.9973633136103
 20
13.92374831106015
 10
193.9959480554897
 20
14.0260514270485
 10
193.9964105554639
 20
14.14453223931513
 10
193.9962773686232
 20
14.26957683153357
 10
193.9963015910046
 20
14.39475828107051
 10
193.9963354925551
 20
14.51286645379059
 10
193.9962060293133
 20
14.61628748709517
 10
193.9965507549082
 20
14.69932036153667
 10
193.9958698278691
 20
14.75143368521244
 10
193.9994586600622
 20
14.87912907821361
 10
193.7826171386438
 20
14.58048716819623
 10
193.602135492195
 20
14.35263981511509
 10
193.5490322295612
 20
14.49373443289818
 10
193.5200429133149
 20
14.54325767560946
 10
193.419664806282
 20
14.64641779790103
 10
193.7405127723261
 20
14.72695035023784
 10
193.8689897005429
 20
14.91066283036435
 10
194.090645432536
 20
15.1193199577176
 10
194.1770224894069
 20
15.29339211228348
 10
194.4549394229074
 20
15.56967051342514
 10
194.3346247839284
 20
15.56534559551116
 10
194.2863197351348
 20
15.56614856202555
 10
194.2102377454905
 20
15.56574582146586
 10
194.116701000975
 20
15.56590275611611
 10
194.0117594788557
 20
15.56582502576226
 10
193.9033887738717
 20
15.56595464378556
 10
193.7981454235897
 20
15.56554393490694
 10
193.7056237819412
 20
15.56682073671592
 10
193.6268130800708
 20
15.56340766534853
 10
193.5839674565379
 20
15.57023350036322
 10
193.5449499586516
 20
15.56065064201126
 10
193.5526365271863
 20
15.59420779565544
 10
193.5485464404312
 20
15.62523550322235
 10
193.5485531368814
 20
15.67236529270902
 10
193.5526239724911
 20
15.7034094164678
 10
193.5449495574582
 20
15.73701861635905
 10
193.5834819405495
 20
15.72748410420874
 10
193.6241228014479
 20
15.73397435498073
 10
193.6951471850463
 20
15.73100150650256
 10
193.7729318149634
 20
15.7317476139916
 10
193.8507292246474
 20
15.73247814044527
 10
193.9217232089908
 20
15.72954235514162
 10
193.9624279791821
 20
15.73595468772955
 10
194.000985348991
 20
15.72650524176006
 10
193.9927342754929
 20
15.76264692158786
 10
193.9982346669358
 20
15.80129837613229
 10
193.9955754206164
 20
15.86913528561841
 10
193.9965815471533
 20
15.94591641538741
 10
193.996017801832
 20
16.02849393582758
 10
193.9970714526593
 20
16.10517329229879
 10
193.994267586313
 20
16.17331990776701
 10
194.0000702721305
 20
16.21132399809348
 10
193.9915654551159
 20
16.24758448077647
 10
194.0255610233125
 20
16.23755723771853
 10
194.0594575683099
 20
16.24073266813706
 10
194.1126669060347
 20
16.23508965640611
 10
194.1660768574484
 20
16.23434774436427
 10
194.199591464949
 20
16.2281922348298
 10
194.2388086183039
 20
16.23346029773595
 10
194.2120263698492
 20
16.19253380793488
 10
194.1708111001723
 20
16.20371204538112
 10
194.1782641540874
 20
16.15867056192126
 10
194.1742227952183
 20
16.11412278028145
 10
194.176171404964
 20
16.04223572621704
 10
194.1752364849758
 20
15.96168630588772
 10
194.176510719003
 20
15.88173995404997
 10
194.1732043793864
 20
15.80841837083184
 10
194.1802106179961
 20
15.7668864300257
 10
194.1701440380126
 20
15.72752418568115
 10
194.2029814803921
 20
15.73468063430983
 10
194.236457729648
 20
15.73027243137946
 10
194.2915053476019
 20
15.73217943347899
 10
194.3489502595314
 20
15.7318536640729
 10
194.4023026248309
 20
15.73106308733084
 10
194.4398540896639
 20
15.73313959118076
 10
194.4623172523237
 20
15.73022338167111
 10
194.4751678073731
 20
15.73572552644057
 10
194.4858255685888
 20
15.73801118197791
 10
194.4986635650144
 20
15.74494972588054
 10
194.514599103307
 20
15.72853046313673
 10
194.5410623920892
 20
15.7170912231945
 10
194.5726805253757
 20
15.69644687835191
 10
194.5987255892151
 20
15.68116869628296
 10
194.6128517723973
 20
15.67266976323185
 10
194.6170254148479
 20
15.67015871511029
 97
        1
330
B8
 75
     1
 76
     2
 52
45.0
 41
0.1
 77
     0
 78
     1
 53
45.0
 43
0.0
 44
0.0
 45
-0.282842712474619
 46
0.0
 79
     0
 98
        1
 10
0.0
 20
0.0
  0
HATCH
  5
D6
330
48
100
AcDbEntity
  8
1
  6
Continuous
 62
     2
100
AcDbHatch
 10
0.0
 20
0.0
 30
0.0
210
0.0
220
0.0
230
1.0
  2
CUSTOM4
 70
     0
 71
     1
 91
        1
 92
        1
 93
        1
 72
     4
 94
        3
 73
     0
 74
     0
 95
       91
 96
       87
 40
0.0
 40
0.0
 40
0.0
 40
0.0
 40
0.0267532254356684
 40
0.0856103386464102
 40
0.1444674521996603
 40
0.1712206856618514
 40
0.2039416005642536
 40
0.2955601971652484
 40
0.4362601844617202
 40
0.6162252844507534
 40
0.8256392189704982
 40
1.054685709844468
 40
1.293548478893588
 40
1.532411247938332
 40
1.761457738799596
 40
1.970871673298593
 40
2.150836773256818
 40
2.291536760495679
 40
2.383155356836757
 40
2.415876284101405
 40
2.442629517488048
 40
2.501486630949178
 40
2.560343744424329
 40
2.5870969778266
 40
2.617068194441027
 40
2.699247336756197
 40
2.822032643466481
 40
2.973822353258039
 40
3.143014704823481
 40
3.31800793688006
 40
3.487200288186894
 40
3.638989997548431
 40
3.76177530379493
 40
3.843954445753265
 40
3.87392566222996
 40
3.890812773500668
 40
3.907699884771847
 40
3.937960767857446
 40
3.980983618142395
 40
4.199085915228579
 40
4.439444339237371
 40
4.67758824126101
 40
5.050698317837896
 40
5.44821245476331
 40
5.855291218044892
 40
6.138575438885605
 40
6.417434507584462
 40
6.444551104394144
 40
6.504207617363444
 40
6.563864130314768
 40
6.590980727104361
 40
6.848609460381761
 40
7.109611990668717
 40
7.352910904446398
 40
7.557830220705786
 40
7.587518925913705
 40
7.652834077376148
 40
7.718149228846132
 40
7.747837934062437
 40
7.854880190301365
 40
7.976511257403882
 40
8.36948789659271
 40
8.75751495922406
 40
9.126072419331523
 40
9.460639380392585
 40
9.746695593036327
 40
9.777569943119094
 40
9.807050320932197
 40
9.83037733612933
 40
9.886003295436405
 40
9.95239556943032
 40
10.00802152870667
 40
10.0313485438826
 40
10.21356951009633
 40
10.42203479292913
 40
10.66154556731109
 40
10.9169378956435
 40
11.15832906556611
 40
11.18982674596669
 40
11.27286608520453
 40
11.390266530334
 40
11.52484752840937
 40
11.65942852648496
 40
11.77682897161537
 40
11.85986831085737
 40
11.89136598230482
 40
11.89136598230482
 40
11.89136598230482
 40
11.89136598230482
 10
190.7027885008196
 20
14.70699600701773
 10
190.7028237765288
 20
14.71587847311986
 10
190.7029366710796
 20
14.74430237047347
 10
190.7012984568489
 20
14.79409639169804
 10
190.7069750292911
 20
14.83657564478155
 10
190.6956928731706
 20
14.88730154856848
 10
190.7632296979031
 20
14.8701290074011
 10
190.8388029210701
 20
14.88290227165997
 10
190.9828357056001
 20
14.87629729457383
 10
191.1569419185427
 20
14.87888462206467
 10
191.3639599611003
 20
14.87800591955554
 10
191.5894688172378
 20
14.87828207920028
 10
191.8251162293406
 20
14.87818339658663
 10
192.0607640531349
 20
14.87828184412768
 10
192.2862717580626
 20
14.8780067819079
 10
192.4932934632805
 20
14.87888186270736
 10
192.667388891529
 20
14.87630522678447
 10
192.8114492071986
 20
14.88288290449215
 10
192.8869691915293
 20
14.87016243405605
 10
192.9545776037031
 20
14.88726400191689
 10
192.9430840140676
 20
14.83674785802941
 10
192.9505104581735
 20
14.79253252226502
 10
192.9428838927987
 20
14.74867966503611
 10
192.9546489459426
 20
14.69878374479329
 10
192.8930788491984
 20
14.71393227712513
 10
192.8256791738672
 20
14.70310665350675
 10
192.7013004056222
 20
14.70852031626237
 10
192.5554428236572
 20
14.70649205390786
 10
192.3893576440086
 20
14.70715777578388
 10
192.2188412621725
 20
14.70689643521243
 10
192.0519790855389
 20
14.70721553391095
 10
191.9087346827105
 20
14.70635302590763
 10
191.7773313869834
 20
14.70863300482989
 10
191.7239859134656
 20
14.70407704374203
 10
191.6485188456912
 20
14.70999914992879
 10
191.6769075779232
 20
14.70094169343353
 10
191.7033652409542
 20
14.6972591226893
 10
191.6633522907702
 20
14.66654271968279
 10
191.5713663691868
 20
14.67667591174629
 10
191.543939620707
 20
14.43032502247791
 10
191.4478793967234
 20
14.27499558764376
 10
191.1917277964473
 20
13.94525417931571
 10
191.7627537732762
 20
14.08430022210453
 10
192.0173656320517
 20
14.08291779973364
 10
192.6279647048619
 20
13.99790569242087
 10
192.3340698578083
 20
14.29685417558203
 10
192.0133304286518
 20
14.44330856901783
 10
192.1313543360433
 20
14.50025540818288
 10
192.1724716466261
 20
14.52420099873349
 10
192.2156812394411
 20
14.54599758811232
 10
192.317457409445
 20
14.60928721253903
 10
192.4328867625248
 20
14.35147151408783
 10
192.6329591642277
 20
14.21616041113683
 10
192.7269077387229
 20
14.03792795138884
 10
192.9558829746393
 20
13.87997821027052
 10
192.8596031846709
 20
13.82915972576301
 10
192.816795976378
 20
13.79881292523055
 10
192.7718243528779
 20
13.77466130281462
 10
192.7121720925213
 20
13.72552146747569
 10
192.6789731061326
 20
13.85997475673612
 10
192.5582013350796
 20
14.01594265286582
 10
192.1970976005978
 20
13.88569928059557
 10
191.8385061955541
 20
13.90224694409484
 10
191.457092045008
 20
13.89331229351865
 10
191.170345528289
 20
13.82882671672409
 10
190.8592055599717
 20
13.94230668192826
 10
190.8268737818787
 20
13.8312225992777
 10
190.7896178253318
 20
13.81196313850013
 10
190.7865737632753
 20
13.85874784087297
 10
190.7679892860608
 20
13.89806853919136
 10
190.7512436616777
 20
13.95765983478234
 10
190.7383730915753
 20
14.00201969871284
 10
190.7042327806429
 20
14.09106331120204
 10
190.9482714457753
 20
14.02181042943772
 10
191.1441394486671
 20
14.00030369057746
 10
191.2395426381277
 20
14.28226484478464
 10
191.2945135769598
 20
14.44363045421123
 10
191.5159619357156
 20
14.71391177589739
 10
191.3849239381217
 20
14.70548446853735
 10
191.3110026555854
 20
14.70779008496971
 10
191.1977459876244
 20
14.70671378321659
 10
191.0694251807485
 20
14.7070763907651
 10
190.9404252030415
 20
14.70697724466087
 10
190.8287840946292
 20
14.70699932712573
 10
190.7514663970025
 20
14.70699579189671
 10
190.713287653201
 20
14.70699595845082
 10
190.7027885008196
 20
14.70699600701773
 97
        1
330
B9
 75
     1
 76
     2
 52
45.0
 41
0.1
 77
     0
 78
     1
 53
45.0
 43
0.0
 44
0.0
 45
-0.282842712474619
 46
0.0
 79
     0
 98
        1
 10
0.0
 20
0.0
  0
HATCH
  5
D7
330
48
100
AcDbEntity
  8
1
  6
Continuous
 62
     2
100
AcDbHatch
 10
0.0
 20
0.0
 30
0.0
210
0.0
220
0.0
230
1.0
  2
CUSTOM5
 70
     0
 71
     1
 91
        1
 92
        1
 93
        1
 72
     4
 94
        3
 73
     0
 74
     0
 95
       35
 96
       31
 40
0.0
 40
0.0
 40
0.0
 40
0.0
 40
0.033523103662059
 40
0.0713218571712022
 40
0.4278866681486986
 40
0.8116865841963985
 40
1.198190238000058
 40
1.561379546812686
 40
1.659983174622055
 40
1.75931557380719
 40
2.132719617231051
 40
2.525233363588778
 40
2.910815397779686
 40
3.26524436430327
 40
3.592606723581969
 40
3.964386154603914
 40
4.359942131737759
 40
4.758154118639294
 40
4.8438465386999
 40
4.936650065543171
 40
5.256616602537224
 40
5.581707404415912
 40
5.899719158308051
 40
6.198363494280653
 40
6.466301046615719
 40
6.493895311537041
 40
6.559697020196777
 40
6.638234543442352
 40
6.704036252154077
 40
6.731630508422854
 40
6.731630508422854
 40
6.731630508422854
 40
6.731630508422854
 10
191.9736010568669
 20
16.23463843719135
 10
191.9676006097788
 20
16.22480690542324
 10
191.9548344099157
 20
16.203889885798
 10
191.7949362006551
 20
16.17127126532686
 10
192.2322025842338
 20
15.88206680336705
 10
192.4345394828262
 20
15.6804113835844
 10
192.6819564267973
 20
15.43749387603278
 10
193.1831513624606
 20
15.36047662757778
 10
193.012556219897
 20
15.21876939174658
 10
192.9383299463201
 20
15.0171036620911
 10
192.6131432248188
 20
15.36956287174727
 10
192.3277741670664
 20
15.53175212559566
 10
192.0337604077658
 20
15.73687130053047
 10
191.8084452691134
 20
16.21827488595456
 10
191.5993085055522
 20
15.75343046609223
 10
191.3207873674835
 20
15.54350952252914
 10
191.037138317721
 20
15.37424456359987
 10
190.707863952783
 20
15.00142360907939
 10
190.6277012318224
 20
15.19708014459
 10
190.4759724909746
 20
15.32491104190603
 10
190.9083395826795
 20
15.40454031765933
 10
191.0962565329766
 20
15.60026634915479
 10
191.3468477420503
 20
15.81632996916755
 10
191.5714350470161
 20
15.98190992300061
 10
191.6259775409713
 20
16.26133964636829
 10
191.7494661029012
 20
16.24737950408079
 10
191.8060273344521
 20
16.24521268867649
 10
191.8761870984945
 20
16.24046859881361
 10
191.9333414022105
 20
16.23709429350543
 10
191.9644190320839
 20
16.2351985471112
 10
191.9736010568669
 20
16.23463843719135
 97
        1
330
BA
 75
     1
 76
     2
 52
45.0
 41
0.1
 77
     0
 78
     1
 53
45.0
 43
0.0
 44
0.0
 45
-0.282842712474619
 46
0.0
 79
     0
 98
        1
 10
0.0
 20
0.0
  0
HATCH
  5
D8
330
48
100
AcDbEntity
  8
1
  6
Continuous
 62
     2
100
AcDbHatch
 10
0.0
 20
0.0
 30
0.0
210
0.0
220
0.0
230
1.0
  2
CUSTOM6
 70
     0
 71
     1
 91
        1
 92
        1
 93
        1
 72
     4
 94
        3
 73
     0
 74
     0
 95
       15
 96
       11
 40
0.0
 40
0.0
 40
0.0
 40
0.0
 40
0.2785535985096117
 40
0.5215624748198844
 40
0.6076917376040858
 40
0.6938210001741751
 40
0.9405019146455489
 40
1.221691403489183
 40
1.300471877081122
 40
1.37925234168493
 40
1.37925234168493
 40
1.37925234168493
 40
1.37925234168493
 10
189.5681493631
 20
16.22930267330382
 10
189.6296017794178
 20
16.17691646592717
 10
189.7446649974113
 20
16.0788287679822
 10
190.0397348497245
 20
15.9288978589722
 10
189.9025147631857
 20
15.84343227515016
 10
189.8041227843778
 20
15.71085785201558
 10
189.7130033590649
 20
16.0161698578142
 10
189.3636839480655
 20
16.07967869465378
 10
189.511925837657
 20
16.1789650988088
 10
189.5494081874237
 20
16.21252348402384
 10
189.5681493631
 20
16.22930267330382
 97
        1
330
BB
 75
     1
 76
     2
 52
45.0
 41
0.1
 77
     0
 78
     1
 53
45.0
 43
0.0
 44
0.0
 45
-0.282842712474619
 46
0.0
 79
     0
 98
        1
 10
0.0
 20
0.0
  0
HATCH
  5
D9
330
48
100
AcDbEntity
  8
1
  6
Continuous
 62
     2
100
AcDbHatch
 10
0.0
 20
0.0
 30
0.0
210
0.0
220
0.0
230
1.0
  2
CUSTOM7
 70
     0
 71
     1
 91
        1
 92
        1
 93
        1
 72
     4
 94
        3
 73
     0
 74
     0
 95
       75
 96
       71
 40
0.0
 40
0.0
 40
0.0
 40
0.0
 40
0.0342546099129691
 40
0.1245622414432364
 40
0.2522385480897572
 40
0.3985991922940715
 40
0.544959836498091
 40
0.6726361431438905
 40
0.7629437746737031
 40
0.7971983935298061
 40
1.101723623449672
 40
1.408591244036676
 40
1.43333247169038
 40
1.487763172450179
 40
1.542193873082008
 40
1.566935100592557
 40
1.92352393182187
 40
2.271755704953671
 40
2.590579755100914
 40
2.858943305581174
 40
2.889120339309165
 40
2.91830585519108
 40
2.941366645531203
 40
2.996357760973105
 40
3.061992318140669
 40
3.116983433626867
 40
3.140044223997546
 40
3.411273122936521
 40
3.732441619741129
 40
3.761068217532829
 40
3.837787499630389
 40
3.948858699126031
 40
4.08054104910441
 40
4.219093782625793
 40
4.350776132722345
 40
4.46184733240568
 40
4.538566614678414
 40
4.567193212544661
 40
4.594907573998919
 40
4.666381453557458
 40
4.76411104401104
 40
4.870592538125843
 40
4.968322128642237
 40
5.039796008286951
 40
5.067510369784381
 40
5.094263603185597
 40
5.153120716668232
 40
5.211977830150678
 40
5.238731063551684
 40
5.272290535138952
 40
5.363380529444756
 40
5.497618415781462
 40
5.660621563453676
 40
5.838007341749377
 40
6.015393119910756
 40
6.178396267038353
 40
6.312634151842333
 40
6.403724143059323
 40
6.437283612672418
 40
6.464036846261036
 40
6.522893960004652
 40
6.581751071483916
 40
6.608504301590864
 40
6.637253941281012
 40
6.711397748902892
 40
6.812778057283504
 40
6.92323719924928
 40
7.024617507623924
 40
7.098761315207634
 40
7.127510946007584
 40
7.127510946007584
 40
7.127510946007584
 40
7.127510946007584
 10
188.4418622390564
 20
14.95849128473266
 10
188.4418622819707
 20
14.94707313408722
 10
188.4418624481128
 20
14.9055525784263
 10
188.4418593081787
 20
14.82146922003774
 10
188.44187882798
 20
14.70004497322329
 10
188.4417912187738
 20
14.55980494047449
 10
188.442111623523
 20
14.42006556794577
 10
188.4411605909741
 20
14.2974503889493
 10
188.4431978595967
 20
14.21587074438044
 10
188.4349433178746
 20
14.06271267077699
 10
188.7430797940901
 20
14.22560236054723
 10
189.0350645173735
 20
14.39482938688005
 10
189.0408354448708
 20
14.25973235781913
 10
189.045547171989
 20
14.21617221160446
 10
189.0482535411919
 20
14.17211249350547
 10
189.0672545672956
 20
14.02272590363134
 10
188.6583942247304
 20
14.08681172241262
 10
188.3793710348832
 20
13.97296341411019
 10
188.1018081587167
 20
13.87364095811138
 10
187.8099837184399
 20
13.91630687596364
 10
187.7869144678658
 20
13.8132167974454
 10
187.7537474383334
 20
13.78691091244473
 10
187.748065396274
 20
13.83455309036307
 10
187.7284214559045
 20
13.87180336115072
 10
187.7095089485623
 20
13.93007387847565
 10
187.6942849867707
 20
13.97385201007807
 10
187.6477246372936
 20
14.08759421046314
 10
187.9890897312451
 20
14.05576301120049
 10
188.2679649367383
 20
14.02161435106481
 10
188.2617753034908
 20
14.16913976479653
 10
188.2630935452773
 20
14.24013150908833
 10
188.2624831689948
 20
14.34719767958663
 10
188.2625871570725
 20
14.47398529785999
 10
188.2629987964055
 20
14.60849243496051
 10
188.2613907841968
 20
14.73395549951186
 10
188.2659902567925
 20
14.84505246719119
 10
188.256418650221
 20
14.9076188680069
 10
188.2704001783691
 20
14.96595388295003
 10
188.2147384386705
 20
14.95289710582239
 10
188.1575655197822
 20
14.96136307749501
 10
188.0616048925647
 20
14.95729976080638
 10
187.9633767522822
 20
14.95970889852476
 10
187.8672582457561
 20
14.9555160061339
 10
187.8104648525812
 20
14.96429346441165
 10
187.7550356873385
 20
14.95094936850124
 10
187.7670679427918
 20
15.00036910959259
 10
187.7592003173938
 20
15.04393988030397
 10
187.7666295563831
 20
15.08830469118528
 10
187.7551930564144
 20
15.13902297763993
 10
187.8232102370134
 20
15.12162460757745
 10
187.8968496879747
 20
15.13417450237191
 10
188.0325064058211
 20
15.12799677011099
 10
188.1884909024526
 20
15.13029203093086
 10
188.3615926358144
 20
15.12940968262532
 10
188.5346942964182
 20
15.1302920714241
 10
188.6906789811218
 20
15.12799662955552
 10
188.8263351889798
 20
15.13417486262433
 10
188.8999756705653
 20
15.12162394218337
 10
188.9679914174724
 20
15.13902373012145
 10
188.9565590885923
 20
15.08830130414557
 10
188.9639539458297
 20
15.0439706081111
 10
188.9562039912272
 20
15.00028307550198
 10
188.9681203741877
 20
14.95063590098478
 10
188.9108170223618
 20
14.96461411338428
 10
188.8520145789773
 20
14.95539755673255
 10
188.75252936332
 20
14.95952268164932
 10
188.649428009835
 20
14.95822760025889
 10
188.5537846354574
 20
14.95854077077643
 10
188.4857467971617
 20
14.95848776697146
 10
188.4514462213443
 20
14.95849051871658
 10
188.4418622390564
 20
14.95849128473266
 97
        1
330
BC
 75
     1
 76
     2
 52
45.0
 41
0.1
 77
     0
 78
     1
 53
45.0
 43
0.0
 44
0.0
 45
-0.282842712474619
 46
0.0
 79
     0
 98
        1
 10
0.0
 20
0.0
  0
HATCH
  5
DA
330
48
100
AcDbEntity
  8
1
  6
Continuous
 62
     2
100
AcDbHatch
 10
0.0
 20
0.0
 30
0.0
210
0.0
220
0.0
230
1.0
  2
CUSTOM8
 70
     0
 71
     1
 91
        1
 92
        1
 93
        1
 72
     4
 94
        3
 73
     0
 74
     0
 95
       91
 96
       87
 40
0.0
 40
0.0
 40
0.0
 40
0.0
 40
0.0345987051695718
 40
0.1258134969461369
 40
0.2547723404888987
 40
0.4026032099154125
 40
0.5504340793416704
 40
0.679392922883608
 40
0.7706077146571035
 40
0.8052064287780925
 40
1.124852390615283
 40
1.427402236308882
 40
1.706356627453523
 40
1.955541417875206
 40
2.16948593856635
 40
2.344350786664816
 40
2.480568411561946
 40
2.590440557428941
 40
2.649189927151094
 40
2.749320643306316
 40
2.912632739880014
 40
3.147745656000208
 40
3.244827496385099
 40
3.338490056946691
 40
3.583815413207118
 40
3.76142394323848
 40
3.886956104362642
 40
3.985855451886803
 40
4.091766255337688
 40
4.250186473811882
 40
4.422734315084527
 40
4.628285684838621
 40
4.872093227758455
 40
5.152549652145568
 40
5.464967135837545
 40
5.803201477852458
 40
6.16036298881393
 40
6.193449448276013
 40
6.284170385501668
 40
6.419718138764509
 40
6.587285046385787
 40
6.774063446723673
 40
6.967245678113656
 40
7.15402407881767
 40
7.321590987026028
 40
7.457138740890386
 40
7.547859678556122
 40
7.580946138182682
 40
7.608533084714734
 40
7.669224367077708
 40
7.729915649429927
 40
7.757502595949978
 40
7.79027806255346
 40
7.88014627743093
 40
8.014419963180364
 40
8.180411842397865
 40
8.365434637679334
 40
8.556801071622607
 40
8.741823866830691
 40
8.907815745916258
 40
9.042089431507355
 40
9.13195764624948
 40
9.164733112797057
 40
9.415425063139983
 40
9.667986180958442
 40
9.69416980746261
 40
9.756607686047568
 40
9.831130315322374
 40
9.893568193899839
 40
9.919751820398655
 40
9.95096796469049
 40
9.9964216312106
 40
10.22087981037448
 40
10.44341866197536
 40
10.47847970788849
 40
10.57091337438749
 40
10.70159545461224
 40
10.85140174170355
 40
11.00120802880472
 40
11.13189010907377
 40
11.22432377583005
 40
11.25938480938951
 40
11.28697175596139
 40
11.34766303835913
 40
11.40835432042064
 40
11.43594125892098
 40
11.43594125892098
 40
11.43594125892098
 40
11.43594125892098
 10
190.0818114333289
 20
15.55242795125079
 10
190.0702785844941
 20
15.55242790287917
 10
190.0283409444998
 20
15.55242773704166
 10
189.9434129719026
 20
15.55243125800911
 10
189.8207688553128
 20
15.5524092643588
 10
189.6791206916993
 20
15.55250801177056
 10
189.537975369849
 20
15.55214686232423
 10
189.4141351317905
 20
15.55321883609091
 10
189.3317217825381
 20
15.5509224909127
 10
189.1727791229692
 20
15.56048569373421
 10
189.3503402353375
 20
15.19785394311372
 10
189.3379739205453
 20
14.95243127723116
 10
189.4064519473864
 20
14.66862501324836
 10
189.469302432097
 20
14.43250999939037
 10
189.5452253431728
 20
14.2332674039613
 10
189.6303189577017
 20
14.07745347451377
 10
189.7244607592936
 20
13.97657857781395
 10
189.8282648207727
 20
13.92465852638967
 10
189.9125872030774
 20
13.9760648437962
 10
189.9351322179453
 20
14.09144544037517
 10
189.9745730975371
 20
14.21885149702382
 10
189.9202919734942
 20
14.53622328086757
 10
190.0451218072473
 20
14.38982180140907
 10
190.2019291513602
 20
14.35795300331172
 10
190.0947720007057
 20
14.12421357767628
 10
190.0808711209867
 20
13.95972776583658
 10
190.0234709467225
 20
13.83130869122484
 10
189.9335020145008
 20
13.76018802352828
 10
189.8095274657877
 20
13.74432324142255
 10
189.663427319686
 20
13.77993797554172
 10
189.5243894320284
 20
13.90000570500279
 10
189.4102003962144
 20
14.07435682550321
 10
189.3146141301486
 20
14.29946603111242
 10
189.2318652572626
 20
14.56388246006444
 10
189.1807179256412
 20
14.88187933098545
 10
189.0770189207339
 20
15.15543728488915
 10
189.204284120852
 20
15.56005818612869
 10
189.0357890623019
 20
15.5511236784968
 10
188.9511995787077
 20
15.55315961418365
 10
188.8189876387628
 20
15.55213937388408
 10
188.6560505094104
 20
15.55253230318431
 10
188.4733759170534
 20
15.5523569631337
 10
188.2847057373383
 20
15.5526010530747
 10
188.101446902019
 20
15.55185657906238
 10
187.9404746832719
 20
15.55416360522428
 10
187.8029808335276
 20
15.54799804883664
 10
187.7289590372312
 20
15.56032838458213
 10
187.6613215186857
 20
15.54329323723558
 10
187.6732373719271
 20
15.59524438447529
 10
187.6655677285694
 20
15.6407142496653
 10
187.6732592225117
 20
15.68614453703706
 10
187.6613141797762
 20
15.73802395984572
 10
187.7283588305868
 20
15.72119143490265
 10
187.8017375665677
 20
15.73335409092672
 10
187.9379128305273
 20
15.72727231074959
 10
188.0973811801513
 20
15.72954834315059
 10
188.2789173085837
 20
15.72881233998963
 10
188.4658034862179
 20
15.72905954196135
 10
188.6468012316836
 20
15.72886400799255
 10
188.8080802578879
 20
15.7293223471484
 10
188.9393882124887
 20
15.72812673751207
 10
189.0225051322597
 20
15.73051347319743
 10
189.1556236547814
 20
15.72230605725465
 10
189.064589350266
 20
15.97752868952656
 10
188.9789633074419
 20
16.24164358328248
 10
189.0990589003455
 20
16.22904442969166
 10
189.1514264948544
 20
16.22694235763076
 10
189.2214497569715
 20
16.22535399889658
 10
189.2671922337817
 20
16.21602567538113
 10
189.3220812646934
 20
16.22545966915428
 10
189.296357478568
 20
16.17733028655173
 10
189.1825397571453
 20
16.18266829744168
 10
189.3159346621136
 20
15.95449174576777
 10
189.1943658735471
 20
15.72156856595924
 10
189.3223188769413
 20
15.7308725888444
 10
189.4049048406461
 20
15.72801001754682
 10
189.5307214850824
 20
15.72923437412303
 10
189.6741469838058
 20
15.72932431888965
 10
189.8157420951728
 20
15.72746163183854
 10
189.9459127249968
 20
15.73333075937163
 10
190.019345228619
 20
15.72070340823204
 10
190.0891112922096
 20
15.73877563110413
 10
190.0775772605396
 20
15.68612850546327
 10
190.0833184346682
 20
15.64221317686549
 10
190.0816615770911
 20
15.59089982676551
 10
190.0817757561669
 20
15.56158792021636
 10
190.0818114333289
 20
15.55242795125079
 97
        1
330
BD
 75
     1
 76
     2
 52
45.0
 41
0.1
 77
     0
 78
     1
 53
45.0
 43
0.0
 44
0.0
 45
-0.282842712474619
 46
0.0
 79
     0
 98
        1
 10
0.0
 20
0.0
  0
HATCH
  5
DB
330
48
100
AcDbEntity
  8
1
  6
Continuous
 62
     2
100
AcDbHatch
 10
0.0
 20
0.0
 30
0.0
210
0.0
220
0.0
230
1.0
  2
CUSTOM9
 70
     0
 71
     1
 91
        1
 92
        1
 93
        1
 72
     4
 94
        3
 73
     0
 74
     0
 95
      118
 96
      114
 40
0.0
 40
0.0
 40
0.0
 40
0.0
 40
0.105470816297341
 40
0.2466098270051896
 40
0.3965912874591219
 40
0.528552506975399
 40
0.6156245055642275
 40
0.643143410579742
 40
0.7036850037985956
 40
0.7642265984504016
 40
0.7917455052354321
 40
0.928740431998983
 40
1.106572819088036
 40
1.287544879681033
 40
1.317578308030552
 40
1.399928030857189
 40
1.522968204799963
 40
1.675072986590584
 40
1.84461653318066
 40
2.019973001638728
 40
2.18951654888004
 40
2.341621331585377
 40
2.464661506320513
 40
2.547011229647077
 40
2.577044658168043
 40
2.603797890893085
 40
2.662655002908772
 40
2.721512114949555
 40
2.748265347702707
 40
2.774215307344783
 40
2.845959313407112
 40
2.954338556588312
 40
3.090194227585489
 40
3.244367517100456
 40
3.407699615844215
 40
3.571031714539363
 40
3.725205003920039
 40
3.861060674729539
 40
3.969439917716232
 40
4.041183923628906
 40
4.067133883212899
 40
4.311886746012095
 40
4.54789725833547
 40
4.764747083043923
 40
4.952749679951719
 40
5.045772974195811
 40
5.137862019644925
 40
5.33054316979298
 40
5.553448265243977
 40
5.795083855888159
 40
6.043293412177221
 40
6.285761695541171
 40
6.313902908752683
 40
6.384255941793273
 40
6.475714884766862
 40
6.567173827758952
 40
6.637526860839759
 40
6.665668074074122
 40
6.692018920328096
 40
6.749990782071161
 40
6.807962643790526
 40
6.834313490017998
 40
6.856393084245277
 40
6.913335195649901
 40
6.991194817302593
 40
7.076026942283883
 40
7.153886563725401
 40
7.210828674844955
 40
7.232908268931319
 40
7.25819933492384
 40
7.32487578159249
 40
7.419142481925145
 40
7.527204308842088
 40
7.635266135230665
 40
7.72953283416865
 40
7.796209279292973
 40
7.821500344594919
 40
7.844652988850989
 40
7.89986314054174
 40
7.965759128053878
 40
8.020969279771133
 40
8.0441219240466
 40
8.06935661016067
 40
8.109134395441469
 40
8.13223810019118
 40
8.193147867786543
 40
8.279261678876718
 40
8.377977512673933
 40
8.476693347146718
 40
8.562807160411769
 40
8.623716930826555
 40
8.646820636853509
 40
8.671988793774322
 40
8.734909185828233
 40
8.816705695188947
 40
8.898502204815518
 40
8.961422597377979
 40
8.986590754551091
 40
9.012941600733244
 40
9.070913462380327
 40
9.128885324081818
 40
9.155236170325137
 40
9.18040432792918
 40
9.243324721948253
 40
9.325121234212046
 40
9.406917746637701
 40
9.469838141978157
 40
9.49500628827093
 40
9.517811184379074
 40
9.572192090487073
 40
9.637098333281301
 40
9.691479239515502
 40
9.714284125643541
 40
9.714284125643541
 40
9.714284125643541
 40
9.714284125643541
 10
185.2874469028653
 20
15.26889163187721
 10
185.3090990569037
 20
15.24111869242813
 10
185.3597257109473
 20
15.17618054561238
 10
185.4349383202592
 20
15.068910603129
 10
185.5248482274345
 20
14.95377438266627
 10
185.5709169676674
 20
14.85357045748321
 10
185.6655825294655
 20
14.78434006814946
 10
185.6204439320412
 20
14.73771639678274
 10
185.5947047785791
 20
14.69660308866042
 10
185.5645196708012
 20
14.66065971727939
 10
185.5193684730563
 20
14.58579782596093
 10
185.4710504458561
 20
14.80782524253602
 10
185.3968539713074
 20
14.84510677337713
 10
185.2836047324605
 20
15.116102021306
 10
185.288513357817
 20
15.0009532844623
 10
185.2868486556306
 20
14.92836675781628
 10
185.2876830076713
 20
14.80625588483987
 10
185.2873609540265
 20
14.65913800810462
 10
185.2875076912455
 20
14.49307063956557
 10
185.2872950092722
 20
14.32187554608603
 10
185.2879497252034
 20
14.15552828635499
 10
185.2859192461139
 20
14.00935173055694
 10
185.291346039993
 20
13.88471047474611
 10
185.2804930868707
 20
13.81718656540627
 10
185.2956739155555
 20
13.75549061417024
 10
185.2457895108134
 20
13.76727503897002
 10
185.2017150342522
 20
13.75943822779971
 10
185.1582371630201
 20
13.76760441372703
 10
185.1092346786489
 20
13.75538056738469
 10
185.1218731234826
 20
13.80960667249314
 10
185.113018296845
 20
13.86936918907558
 10
185.1175058770314
 20
13.9792202904437
 10
185.1157960135992
 20
14.1102997540568
 10
185.1163550915987
 20
14.26198011444329
 10
185.1161928768694
 20
14.42211074929954
 10
185.1162269924676
 20
14.58236865674567
 10
185.1162514960127
 20
14.7337024752044
 10
185.1161453543226
 20
14.86582156338601
 10
185.1164299141932
 20
14.97294802533195
 10
185.1158675547568
 20
15.03808619579475
 10
185.1180765083691
 20
15.16618957858677
 10
185.0319435998603
 20
14.79097610391576
 10
184.9555140818499
 20
14.63918193123396
 10
184.8660040767834
 20
14.4776620644631
 10
184.7640413217325
 20
14.20471848820172
 10
184.7187976491039
 20
14.36717346596516
 10
184.610235594167
 20
14.45605432058118
 10
184.7995791751753
 20
14.60549794961412
 10
184.85653405457
 20
14.79749136974928
 10
184.9717520993353
 20
15.02899622906758
 10
184.9940151630133
 20
15.21797259759066
 10
185.177190515214
 20
15.49454089325933
 10
185.0538033597553
 20
15.48698978832096
 10
184.9925684166834
 20
15.4885677236612
 10
184.9081999617065
 20
15.48882592573674
 10
184.8204235085965
 20
15.48544845751207
 10
184.7656768696123
 20
15.49394814982022
 10
184.7104703026025
 20
15.4804856104979
 10
184.7222823035536
 20
15.52931442126765
 10
184.7142496151794
 20
15.5726900489671
 10
184.7228186104679
 20
15.61509438309574
 10
184.7102943409156
 20
15.66267796552119
 10
184.7555101538735
 20
15.6526721299511
 10
184.8014815562723
 20
15.65894105174062
 10
184.877722204771
 20
15.65593561405873
 10
184.9561296131994
 20
15.65770448278542
 10
185.0323992648933
 20
15.65464793981661
 10
185.0783009459475
 20
15.66103971376178
 10
185.1231733965401
 20
15.65093822978897
 10
185.1105552275635
 20
15.70157201581899
 10
185.1191936582707
 20
15.75501261882071
 10
185.1152361595444
 20
15.84863255131681
 10
185.1162325068335
 20
15.95112606688924
 10
185.1171927413075
 20
16.05353270248165
 10
185.1133211458005
 20
16.14735929609321
 10
185.1217789814366
 20
16.20036542840354
 10
185.1093075932836
 20
16.25211435651189
 10
185.1542106389851
 20
16.23850747226759
 10
185.1955083836772
 20
16.24100480320586
 10
185.259534428105
 20
16.23648060574489
 10
185.2986111148786
 20
16.22781003043309
 10
185.3476543498742
 20
16.23515102070688
 10
185.322508003059
 20
16.19602896051758
 10
185.2815901333723
 20
16.2056384245581
 10
185.2910109616604
 20
16.15540148169779
 10
185.2855647318746
 20
16.10385945639491
 10
185.2881699601804
 20
16.01959707584522
 10
185.2870102202154
 20
15.92559135583409
 10
185.2883591064231
 20
15.83196865395527
 10
185.2849970101509
 20
15.74679517552224
 10
185.2920959917769
 20
15.69716856072045
 10
185.2812569154545
 20
15.6499369496999
 10
185.3304010225245
 20
15.66201674936852
 10
185.3794877630146
 20
15.65447393363012
 10
185.4573714280641
 20
15.65686070361433
 10
185.5350365172895
 20
15.65899381905415
 10
185.5845393931355
 20
15.65193391922456
 10
185.6344594750639
 20
15.66360151936215
 10
185.6223198516881
 20
15.61540235371394
 10
185.6305838229143
 20
15.57249219801237
 10
185.6223198650783
 20
15.52958201851387
 10
185.6344594549854
 20
15.48138288754867
 10
185.5845395158746
 20
15.49305034471512
 10
185.5350350651202
 20
15.48599202435047
 10
185.4573784382973
 20
15.48811665228606
 10
185.379464386576
 20
15.49053389365762
 10
185.3304500352716
 20
15.48291848194487
 10
185.2813246108943
 20
15.49507952557594
 10
185.2915559988571
 20
15.4507301342416
 10
185.2856677678053
 20
15.40925436202913
 10
185.2878788305569
 20
15.34915394315305
 10
185.2874109346146
 20
15.30225782762891
 10
185.2874386992913
 20
15.27650146418198
 10
185.2874469028653
 20
15.26889163187721
 97
        1
330
BE
 75
     1
 76
     2
 52
45.0
 41
0.1
 77
     0
 78
     1
 53
45.0
 43
0.0
 44
0.0
 45
-0.282842712474619
 46
0.0
 79
     0
 98
        1
 10
0.0
 20
0.0
  0
HATCH
  5
DC
330
48
100
AcDbEntity
  8
1
  6
Continuous
 62
     2
100
AcDbHatch
 10
0.0
 20
0.0
 30
0.0
210
0.0
220
0.0
230
1.0
  2
CUSTOM10
 70
     0
 71
     1
 91
        1
 92
        1
 93
        1
 72
     4
 94
        3
 73
     0
 74
     0
 95
       47
 96
       43
 40
0.0
 40
0.0
 40
0.0
 40
0.0
 40
0.2207912809957272
 40
0.4459404186303171
 40
0.4902387190458276
 40
0.5327473892722079
 40
0.5742260451224551
 40
0.6155432630559843
 40
0.6568164066314759
 40
0.6982511618779683
 40
0.7407663929316197
 40
0.7851366743174273
 40
1.010288833836237
 40
1.231080507002094
 40
1.451765243652312
 40
1.67663820589161
 40
1.720461045359579
 40
1.830018144043445
 40
1.972442372353076
 40
2.114866600677445
 40
2.22442369939507
 40
2.268246538883311
 40
2.493628801207129
 40
2.71560283028652
 40
2.934211330706284
 40
3.149502369855278
 40
3.231387784850867
 40
3.318231873853959
 40
3.405143198197919
 40
3.48697030172027
 40
3.702258172493711
 40
3.920866283533949
 40
4.14283932593173
 40
4.368221903865179
 40
4.412044743359659
 40
4.521601842095675
 40
4.664026070452155
 40
4.806450298808865
 40
4.916007397546557
 40
4.959830237042879
 40
5.184703515846922
 40
5.405387250767289
 40
5.405387250767289
 40
5.405387250767289
 40
5.405387250767289
 10
182.6507427258645
 20
15.73406440953873
 10
182.6568139420002
 20
15.7975848250121
 10
182.6690762107243
 20
15.92587938689625
 10
182.5604706879413
 20
16.20166220174082
 10
182.6761985896604
 20
16.17188133432053
 10
182.7171842509015
 20
16.16765556262823
 10
182.7591205797518
 20
16.16310446389607
 10
182.800419662571
 20
16.16201982929487
 10
182.8417032115555
 20
16.16310338195228
 10
182.8836148270647
 20
16.16766112711345
 10
182.9245983549019
 20
16.1718743020973
 10
183.0404922843489
 20
16.20177611317539
 10
182.9295652727456
 20
15.9233980660989
 10
182.9574856365267
 20
15.74283140824955
 10
182.9404267346969
 20
15.50961042346473
 10
182.9414637282103
 20
15.34906622543147
 10
182.9414099399404
 20
15.22284817558723
 10
182.941427737248
 20
15.12428963336242
 10
182.941418858108
 20
14.99280702442964
 10
182.9414263928033
 20
14.86132844968651
 10
182.9414129405128
 20
14.76276222694091
 10
182.9414531717492
 20
14.63639735624154
 10
182.9406746403817
 20
14.47482068822872
 10
182.9565958319267
 20
14.24361821892917
 10
182.9333468885407
 20
14.05874351972004
 10
183.0360183444366
 20
13.78935602770058
 10
182.8820238362836
 20
13.82660112685819
 10
182.8004129802832
 20
13.82137994680536
 10
182.7188192292583
 20
13.82660620378353
 10
182.5648513666844
 20
13.7893706988539
 10
182.6674183421917
 20
14.05875129862884
 10
182.6442045316088
 20
14.24361585325416
 10
182.6600444655139
 20
14.4748221856564
 10
182.6593296313426
 20
14.63639712308504
 10
182.6593664569907
 20
14.76276231210521
 10
182.659354900027
 20
14.86132756635982
 10
182.6593575019214
 20
14.99281127417221
 10
182.6593648531779
 20
15.124275480312
 10
182.6593442541351
 20
15.22287786275327
 10
182.6594082192028
 20
15.34896149354428
 10
182.658173394759
 20
15.51210091383772
 10
182.6532040396745
 20
15.66054183777551
 10
182.6507427258645
 20
15.73406440953873
 97
        1
330
BF
 75
     1
 76
     2
 52
45.0
 41
0.1
 77
     0
 78
     1
 53
45.0
 43
0.0
 44
0.0
 45
-0.282842712474619
 46
0.0
 79
     0
 98
        1
 10
0.0
 20
0.0
  0
HATCH
  5
DD
330
48
100
AcDbEntity
  8
1
  6
Continuous
 62
     2
100
AcDbHatch
 10
0.0
 20
0.0
 30
0.0
210
0.0
220
0.0
230
1.0
  2
CUSTOM11
 70
     0
 71
     1
 91
        1
 92
        1
 93
        1
 72
     4
 94
        3
 73
     0
 74
     0
 95
      110
 96
      106
 40
0.0
 40
0.0
 40
0.0
 40
0.0
 40
0.220340625727759
 40
0.4407808782838075
 40
0.5952494494615057
 40
0.7488431659393062
 40
0.902358183130933
 40
1.056801968670403
 40
1.210736449099932
 40
1.363041386539867
 40
1.515315729683153
 40
1.669377239148076
 40
1.721611652756567
 40
1.773199502942964
 40
1.824933793210014
 40
1.877110426487986
 40
1.982682281206749
 40
2.078781667087558
 40
2.172809640822279
 40
2.271937807378933
 40
2.378349933379326
 40
2.494131557736516
 40
2.62668168394362
 40
2.783145050795991
 40
2.890701232940848
 40
2.993130312454742
 40
3.099869730691726
 40
3.220237816691224
 40
3.352695482737513
 40
3.481732806389764
 40
3.59349947369029
 40
3.674323013331811
 40
3.81795171195276
 40
3.946167120793758
 40
4.061405053453472
 40
4.166480796003084
 40
4.262478775059206
 40
4.350736673551191
 40
4.433071991253991
 40
4.511216293814564
 40
4.564262454117876
 40
4.618474415571492
 40
4.670128488754096
 40
4.72229687912627
 40
4.819540945314137
 40
4.931194984127993
 40
5.049996040257635
 40
5.168643755415181
 40
5.283970811762392
 40
5.392260784910218
 40
5.486512254876264
 40
5.559178233949692
 40
5.59142585285336
 40
5.626215969637736
 40
5.667155838674281
 40
5.717449290214089
 40
5.738402360944703
 40
5.784499116553673
 40
5.830595872164646
 40
5.851548942897506
 40
5.873019280661619
 40
5.924217778408161
 40
5.985325662817536
 40
6.036524160567549
 40
6.057994498334076
 40
6.236847789607332
 40
6.38140992894551
 40
6.493190424178535
 40
6.574067534230342
 40
6.691018086205379
 40
6.814881554220354
 40
6.944307823240221
 40
7.071266716065844
 40
7.193488604461689
 40
7.309042773127917
 40
7.414007203170542
 40
7.505140441886382
 40
7.531150360599566
 40
7.559221645322153
 40
7.587202218920814
 40
7.612569159499023
 40
7.662550809480893
 40
7.702878875764038
 40
7.857328205230853
 40
8.010799568088583
 40
8.165256399657476
 40
8.322232698713872
 40
8.479564855016502
 40
8.635216230290762
 40
8.79088255092568
 40
8.948305154947246
 40
9.16827183903294
 40
9.387358980987209
 40
9.608047961033451
 40
9.832914234792645
 40
9.85833869496298
 40
9.925366817229987
 40
10.02013071422757
 40
10.12876249858996
 40
10.23739428295246
 40
10.33215817995188
 40
10.39918630222391
 40
10.4246107623978
 40
10.6499201933694
 40
10.87188524531187
 40
10.87188524531187
 40
10.87188524531187
 40
10.87188524531187
 10
179.9057788376618
 20
15.73923260398193
 10
179.9092864933541
 20
15.80616462073807
 10
179.9163033987663
 20
15.94005891915861
 10
179.8198027599072
 20
16.22548554971473
 10
180.0510134726108
 20
16.16284386190285
 10
180.1919290057157
 20
16.17001554055992
 10
180.3490417757588
 20
16.16235883078246
 10
180.5025913427288
 20
16.16252752283042
 10
180.6545104935081
 20
16.16182040535433
 10
180.8142214813232
 20
16.17210158351641
 10
180.9408972601118
 20
16.15496511080753
 10
181.1370821122081
 20
16.22727260107148
 10
181.1034395279078
 20
16.12640699080119
 10
181.1052011317184
 20
16.07619253947671
 10
181.1027342073457
 20
16.02712335586467
 10
181.1347076966011
 20
15.94063490847001
 10
181.0010399903256
 20
15.98997438608338
 10
180.9172208688056
 20
15.98430634314169
 10
180.8173861139324
 20
15.99465516706299
 10
180.7186576720145
 20
16.00086450411087
 10
180.6121532771111
 20
16.00697763816779
 10
180.4910511698059
 20
16.01588883484589
 10
180.3703381502454
 20
16.00521605912384
 10
180.1812553843438
 20
16.06468503080366
 10
180.2129028505311
 20
15.9055832007754
 10
180.1995563316834
 20
15.80839128339906
 10
180.197495842645
 20
15.69634065110104
 10
180.195818804467
 20
15.57699685629352
 10
180.1973336794232
 20
15.45032592155111
 10
180.195658247867
 20
15.32301588016118
 10
180.2058844271657
 20
15.22451566404465
 10
180.1779006596582
 20
15.08388702625631
 10
180.3508029999305
 20
15.13989551134095
 10
180.4645020202772
 20
15.127199514785
 10
180.5840151672239
 20
15.13448377051255
 10
180.6888491425072
 20
15.13878017056757
 10
180.7843084898613
 20
15.14330568258977
 10
180.8763823507032
 20
15.15149201146203
 10
180.947655178244
 20
15.14643850638114
 10
181.0544931705684
 20
15.18536425031674
 10
181.0226603598037
 20
15.1051712200588
 10
181.0266164503928
 20
15.05562936846034
 10
181.0234502392014
 20
15.00557478039822
 10
181.0550791490583
 20
14.92128847612024
 10
180.9210133677691
 20
14.97425365495159
 10
180.82923227932
 20
14.96540080890442
 10
180.7079729189602
 20
14.97570049965155
 10
180.5914113119771
 20
14.97748911767503
 10
180.4783375745879
 20
14.97787017109696
 10
180.3679246308471
 20
14.98415449472182
 10
180.2898124067841
 20
14.97189133255366
 10
180.1913625833643
 20
15.00453887616128
 10
180.2012355173562
 20
14.94769748054208
 10
180.1973923244402
 20
14.91392130557985
 10
180.1966789884269
 20
14.87119604709413
 10
180.1963369642975
 20
14.83401607262154
 10
180.1963834255345
 20
14.79487237370772
 10
180.1963649429927
 20
14.75716849497687
 10
180.1963703431807
 20
14.71944955232404
 10
180.19636972142
 20
14.68994324745151
 10
180.1963698151545
 20
14.65873577699302
 10
180.1963704287921
 20
14.61414424908086
 10
180.1963671499337
 20
14.55963956508852
 10
180.1963759623481
 20
14.5150554020145
 10
180.1963359653417
 20
14.43117808585741
 10
180.1976024270255
 20
14.31737520677679
 10
180.1950274117842
 20
14.16830395933711
 10
180.2065009381719
 20
14.06597203813907
 10
180.1823506222265
 20
13.93338903885838
 10
180.3332993946476
 20
13.97895732272023
 10
180.4428436671556
 20
13.96427012162351
 10
180.5733970473921
 20
13.96920435125065
 10
180.6990312209514
 20
13.97257705323363
 10
180.8188730625601
 20
13.97711497498775
 10
180.9391362611426
 20
13.99048536182007
 10
181.0222761663514
 20
13.98068712782599
 10
181.1456080421077
 20
14.04126214623322
 10
181.1244269203956
 20
13.98532460134023
 10
181.1235950270117
 20
13.95939249372347
 10
181.1218963707559
 20
13.9319725619094
 10
181.1217974888829
 20
13.89738195206386
 10
181.1203659301329
 20
13.86050408220768
 10
181.1532804192192
 20
13.76846841021811
 10
180.9551306988107
 20
13.84132015974834
 10
180.8300548294892
 20
13.81825726508609
 10
180.6673071295156
 20
13.82454021985788
 10
180.5129366450001
 20
13.82260943909927
 10
180.3566670436943
 20
13.82393762599269
 10
180.1970544465282
 20
13.82059872487864
 10
180.0540326342237
 20
13.83265795728243
 10
179.8197144881628
 20
13.7695200197692
 10
179.9173810751197
 20
14.0562052746632
 10
179.9006868780059
 20
14.24988308142663
 10
179.9146296709685
 20
14.47848242880296
 10
179.9142987846633
 20
14.6338459395505
 10
179.9143078119264
 20
14.73966336444126
 10
179.9143055876316
 20
14.80205784124215
 10
179.914306555189
 20
14.89220425248328
 10
179.9143065473262
 20
14.99621167157439
 10
179.9143053861104
 20
15.10022131375298
 10
179.9143090971502
 20
15.19036243688768
 10
179.9143011051052
 20
15.25276803097216
 10
179.9143334275019
 20
15.3586883596112
 10
179.913144078832
 20
15.51626716544742
 10
179.9082216489256
 20
15.66528219822068
 10
179.9057788376618
 20
15.73923260398193
 97
        1
330
C0
 75
     1
 76
     2
 52
45.0
 41
0.1
 77
     0
 78
     1
 53
45.0
 43
0.0
 44
0.0
 45
-0.282842712474619
 46
0.0
 79
     0
 98
        1
 10
0.0
 20
0.0
  0
HATCH
  5
DE
330
48
100
AcDbEntity
  8
1
  6
Continuous
 62
     2
100
AcDbHatch
 10
0.0
 20
0.0
 30
0.0
210
0.0
220
0.0
230
1.0
  2
CUSTOM12
 70
     0
 71
     1
 91
        1
 92
        1
 93
        1
 72
     4
 94
        3
 73
     0
 74
     0
 95
       95
 96
       91
 40
0.0
 40
0.0
 40
0.0
 40
0.0
 40
0.6550406656911534
 40
1.308087289031932
 40
1.420803739835794
 40
1.5661307597708
 40
1.757067341888458
 40
2.006513545026452
 40
2.087328263121557
 40
2.185328872295634
 40
2.294612454748367
 40
2.408936380534817
 40
2.526802767798559
 40
2.646360524615613
 40
2.762535723971582
 40
2.870057342870154
 40
2.96688344843164
 40
3.0508032435183
 40
3.1158182224366
 40
3.156030057150239
 40
3.213914225080141
 40
3.276689026450541
 40
3.34296032098129
 40
3.404230667150483
 40
3.453822809493277
 40
3.532499827188337
 40
3.634775188507068
 40
3.754909333008062
 40
3.889736761660564
 40
4.035769602175127
 40
4.187256681197522
 40
4.338733685675857
 40
4.488478734676026
 40
4.634708317831488
 40
4.77149318992118
 40
4.892686571561113
 40
5.199775528944356
 40
5.460353566929538
 40
5.667603142345419
 40
5.814722905404396
 40
5.828990806219694
 40
5.855488336304391
 40
5.869756237118723
 40
6.189796507762747
 40
6.531890469872972
 40
6.883053637016901
 40
7.230512024911381
 40
7.566966656764484
 40
7.885203559707392
 40
8.17288743971915
 40
8.418011594062667
 40
8.44392672119059
 40
8.510760470613079
 40
8.60214539379559
 40
8.701714041647032
 40
8.793098965075265
 40
8.859932715057841
 40
8.88584784260349
 40
9.242301256612699
 40
9.589275455016649
 40
9.92180854316406
 40
10.23479624298458
 40
10.29968150889169
 40
10.35323493887757
 40
10.40154625355144
 40
10.46482922477817
 40
10.559739006684
 40
10.69239545985611
 40
10.84920353475666
 40
11.01626328594774
 40
11.18672024367437
 40
11.35372582577205
 40
11.50257442292421
 40
11.61866495023285
 40
11.71329869152869
 40
11.82511050573902
 40
11.9446488084571
 40
12.069292426425
 40
12.1970729043517
 40
12.32562632860523
 40
12.45034565331274
 40
12.56646595170322
 40
12.6709900741463
 40
12.76077625936777
 40
12.82703233506689
 40
12.87429132785988
 40
12.89831990323327
 40
12.92234847860015
 40
13.53984767410315
 40
14.18294284359361
 40
14.18294284359361
 40
14.18294284359361
 40
14.18294284359361
 10
177.3067935648021
 20
14.70898038201726
 10
177.175201975855
 20
14.82265058603233
 10
176.9124193802728
 20
15.04964496316158
 10
176.399739344102
 20
15.89214462956289
 10
176.4106654595362
 20
15.53423377577021
 10
176.4041226527993
 20
15.39267392272134
 10
176.4028026631773
 20
15.19421305299283
 10
176.4018117602537
 20
15.02150296045983
 10
176.4024101751975
 20
14.87865373257582
 10
176.4038994301882
 20
14.78265005413359
 10
176.4055683588472
 20
14.67545503263142
 10
176.4071934954618
 20
14.56164211517584
 10
176.4092429501685
 20
14.4444157260459
 10
176.4123165501927
 20
14.32656411232971
 10
176.4156339697043
 20
14.21228087320621
 10
176.4193605340281
 20
14.10521401867279
 10
176.4217338161424
 20
14.01007408766922
 10
176.4278718888357
 20
13.92558557205697
 10
176.4239784495946
 20
13.86923087298143
 10
176.4455230443078
 20
13.79825022472357
 10
176.3680940058618
 20
13.82902677604485
 10
176.3116353240191
 20
13.82011242517615
 10
176.2540495896807
 20
13.82896218398277
 10
176.1690163478474
 20
13.79738225225948
 10
176.2009714146383
 20
13.88095155992193
 10
176.1990705282539
 20
13.94882608968311
 10
176.21079600473
 20
14.0523325676442
 10
176.2164241053
 20
14.17002125616696
 10
176.2237902178941
 20
14.30388609164424
 10
176.232075970161
 20
14.44764152872633
 10
176.2398851897426
 20
14.59714022843447
 10
176.2457571222657
 20
14.74792549402079
 10
176.2503667817969
 20
14.89699943878439
 10
176.2542632117542
 20
15.04122913163024
 10
176.2570715126564
 20
15.17583905213018
 10
176.2576698755021
 20
15.36469614347355
 10
176.2616023867151
 20
15.58975494313154
 10
176.2442175378497
 20
15.86367091125708
 10
176.2850417342584
 20
16.02787112098598
 10
176.1995153256002
 20
16.22749661465097
 10
176.2660558907688
 20
16.22385458403979
 10
176.283872427323
 20
16.22413447160855
 10
176.4056801797504
 20
16.22632927398615
 10
176.5080770335461
 20
15.94675118721513
 10
176.7580021509358
 20
15.74563008536008
 10
176.987003533111
 20
15.47792614987915
 10
177.2245151213109
 20
15.22646413862378
 10
177.4486090740772
 20
14.98969974061356
 10
177.675071628301
 20
14.73218692583085
 10
177.8325687886515
 20
14.61649335056922
 10
178.0472129612673
 20
14.27997152538796
 10
178.0422645974619
 20
14.40464754091605
 10
178.0433931602546
 20
14.46327691935738
 10
178.0428877841517
 20
14.55043662371978
 10
178.0430475158113
 20
14.64416143182874
 10
178.0430054891318
 20
14.73018971297037
 10
178.0430202040372
 20
14.79153891945497
 10
178.0429706255985
 20
14.94135231520995
 10
178.045881152281
 20
15.17989612510105
 10
178.0259521041163
 20
15.54486509868702
 10
178.0750433936248
 20
15.80799631993413
 10
177.917795150918
 20
16.21928904947757
 10
178.0762112872421
 20
16.16398282551749
 10
178.1311680478629
 20
16.16199686500178
 10
178.182788776674
 20
16.16264778248252
 10
178.2713198965366
 20
16.20369527738249
 10
178.2204898303168
 20
16.05696326622987
 10
178.2313389930284
 20
15.95019971954435
 10
178.2166036994847
 20
15.79085705414113
 10
178.2099976446204
 20
15.62853061652876
 10
178.2014961399915
 20
15.45992521892396
 10
178.1943227202199
 20
15.29814814703543
 10
178.188906321539
 20
15.15422331457933
 10
178.1871713967648
 20
15.03437493466927
 10
178.1875440672319
 20
14.92686101590516
 10
178.1873656126263
 20
14.81820024645587
 10
178.187701086314
 20
14.69953570165531
 10
178.1890040622184
 20
14.57555163512742
 10
178.1908887351575
 20
14.44858294171106
 10
178.192500445485
 20
14.32153861551033
 10
178.1941403137429
 20
14.19854884492178
 10
178.1962570745751
 20
14.0830093138376
 10
178.1963848422363
 20
13.98090903955837
 10
178.2006514396554
 20
13.89009848838158
 10
178.1908440085289
 20
13.83213621208787
 10
178.2118474771689
 20
13.7651713013203
 10
178.1725639739897
 20
13.77291153966689
 10
177.9595307117746
 20
13.75755254145195
 10
177.7636297943186
 20
14.3140305809447
 10
177.4611197631544
 20
14.57556035348512
 10
177.3067935648021
 20
14.70898038201726
 97
        1
330
C1
 75
     1
 76
     2
 52
45.0
 41
0.1
 77
     0
 78
     1
 53
45.0
 43
0.0
 44
0.0
 45
-0.282842712474619
 46
0.0
 79
     0
 98
        1
 10
0.0
 20
0.0
  0
HATCH
  5
DF
330
48
100
AcDbEntity
  8
1
  6
Continuous
 62
     2
100
AcDbHatch
 10
0.0
 20
0.0
 30
0.0
210
0.0
220
0.0
230
1.0
  2
CUSTOM13
 70
     0
 71
     1
 91
        2
 92
        1
 93
        1
 72
     4
 94
        3
 73
     0
 74
     0
 95
       57
 96
       53
 40
0.0
 40
0.0
 40
0.0
 40
0.0
 40
0.0471632082809235
 40
0.0914861054632153
 40
0.1357762519702105
 40
0.1826527001609831
 40
0.2295203288572308
 40
0.2737751972220762
 40
0.3181310461542788
 40
0.3652607198398513
 40
0.4571007286314417
 40
0.5671851029165195
 40
0.6894623283868331
 40
0.8181758272545984
 40
0.951008722927399
 40
1.085852229674048
 40
1.218126164475306
 40
1.343545131142386
 40
1.454537202956802
 40
1.567187607530725
 40
1.680710966642344
 40
1.794226869736794
 40
1.900009184247536
 40
2.004085860447873
 40
2.108162674451761
 40
2.214000150155305
 40
2.496038577352146
 40
2.76235074547929
 40
2.997275353279421
 40
3.185110082137736
 40
3.246407890063935
 40
3.312607550212694
 40
3.378877742711568
 40
3.440140399651451
 40
4.100501696006495
 40
4.754913085563527
 40
5.41133169342393
 40
6.077890432568705
 40
6.110575292670984
 40
6.143260152775764
 40
6.367989363395154
 40
6.610525374951544
 40
6.863389136467318
 40
7.119380025547635
 40
7.376036605091104
 40
7.631164770966285
 40
7.87672242545641
 40
8.104953735855954
 40
8.312916685924291
 40
8.497730294941304
 40
8.651018984313863
 40
8.764738853624582
 40
8.764738853624582
 40
8.764738853624582
 40
8.764738853624582
 10
174.7922649500513
 20
13.81626739612929
 10
174.7766616726931
 20
13.8182623107908
 10
174.7463947960302
 20
13.82213201360301
 10
174.7010994202252
 20
13.8234198496727
 10
174.6559553129349
 20
13.82308683554053
 10
174.60990171234
 20
13.82314658674226
 10
174.5640496172096
 20
13.82325813650002
 10
174.5183711648165
 20
13.82277833456593
 10
174.4750811541608
 20
13.82461109618723
 10
174.4039947951514
 20
13.80049556814658
 10
174.4057477261441
 20
13.92184693977253
 10
174.358619637057
 20
14.00726239751235
 10
174.3191478251762
 20
14.12486929345137
 10
174.2706635532645
 20
14.2423275254044
 10
174.2201017402522
 20
14.36405935761512
 10
174.1718634610477
 20
14.49075967862467
 10
174.1135232947595
 20
14.59933687784953
 10
174.0980892667261
 20
14.75620657134412
 10
173.9566586330636
 20
14.72373446548323
 10
173.8508397414904
 20
14.7351288868218
 10
173.7358569725222
 20
14.73392591514616
 10
173.6253142252141
 20
14.73506945347409
 10
173.5176583522783
 20
14.73418350037527
 10
173.4121322529242
 20
14.7341660239052
 10
173.3109192682012
 20
14.72714032472416
 10
173.1266804827753
 20
14.7513585985987
 10
173.1157393685411
 20
14.44741691121886
 10
173.008769163475
 20
14.22353177253398
 10
172.9098148604347
 20
14.03895314292499
 10
172.9225090524007
 20
13.79530204804209
 10
172.8050091716397
 20
13.825080467532
 10
172.742205586831
 20
13.82258089509605
 10
172.67858720934
 20
13.82344075102807
 10
172.3946014194076
 20
13.78098039941947
 10
173.0251638499381
 20
14.50081952444784
 10
173.1087645289071
 20
15.01276539435733
 10
173.4929252789338
 20
15.53353743550044
 10
173.4777208288567
 20
16.23519626253216
 10
173.7239265722696
 20
16.22345633081257
 10
173.8256346157561
 20
16.23225004452774
 10
173.8249752035817
 20
15.98059650730347
 10
173.9428317155828
 20
15.79818020733959
 10
174.0315515260485
 20
15.55563740662866
 10
174.132229248526
 20
15.32340030530133
 10
174.2311142712243
 20
15.08674644566912
 10
174.3299676990669
 20
14.85461739170094
 10
174.4256166390925
 20
14.6312222278879
 10
174.5159904573272
 20
14.42272549049319
 10
174.5989944568188
 20
14.23308448529321
 10
174.6726088582799
 20
14.066631060681
 10
174.7342815895546
 20
13.929176996261
 10
174.7749458885604
 20
13.84999239430036
 10
174.7922649500513
 20
13.81626739612929
 97
        1
330
C3
 92
       16
 93
        1
 72
     4
 94
        3
 73
     0
 74
     0
 95
       25
 96
       21
 40
0.0
 40
0.0
 40
0.0
 40
0.0
 40
0.0911479969065106
 40
0.1858117896205804
 40
0.2804128399735061
 40
0.3715889190714511
 40
0.4679080494218993
 40
0.564268380922923
 40
0.6605683222644992
 40
0.7569653015810262
 40
0.8561348172522713
 40
1.092615965104286
 40
1.374867658141868
 40
1.611348812011585
 40
1.710518328425232
 40
1.809403163726545
 40
2.045205463294045
 40
2.326646917622102
 40
2.562449217190559
 40
2.661334043833877
 40
2.661334043833877
 40
2.661334043833877
 40
2.661334043833877
 10
173.2683700567199
 20
14.88614538197295
 10
173.2987525917922
 20
14.88598079714557
 10
173.3606895889112
 20
14.88564528689924
 10
173.454135696033
 20
14.88269055452002
 10
173.5475095236358
 20
14.87977752877152
 10
173.6417760753477
 20
14.87894201643419
 10
173.7354964790966
 20
14.87996644658049
 10
173.8352040303205
 20
14.87916977470972
 10
173.9188949546312
 20
14.88921410235221
 10
174.0637996315045
 20
14.86234617674168
 10
173.9396132444801
 20
15.03665530280051
 10
173.8965867286282
 20
15.19651711006094
 10
173.7808922142209
 20
15.45518458550217
 10
173.7017565431256
 20
15.5923105286186
 10
173.6431576621816
 20
15.80937033134077
 10
173.5864803939438
 20
15.5926613421343
 10
173.5052809900477
 20
15.45327012438238
 10
173.4063701281488
 20
15.20406969370197
 10
173.3253625094259
 20
15.01925830226076
 10
173.2813683325838
 20
14.91650446856119
 10
173.2683700567199
 20
14.88614538197295
 97
        1
330
C2
 75
     1
 76
     2
 52
45.0
 41
0.1
 77
     0
 78
     1
 53
45.0
 43
0.0
 44
0.0
 45
-0.282842712474619
 46
0.0
 79
     0
 98
        1
 10
0.0
 20
0.0
  0
HATCH
  5
E0
330
48
100
AcDbEntity
  8
1
  6
Continuous
 62
     2
100
AcDbHatch
 10
0.0
 20
0.0
 30
0.0
210
0.0
220
0.0
230
1.0
  2
CUSTOM14
 70
     0
 71
     1
 91
        1
 92
        1
 93
        1
 72
     4
 94
        3
 73
     0
 74
     0
 95
       99
 96
       95
 40
0.0
 40
0.0
 40
0.0
 40
0.0
 40
0.0796417172272575
 40
0.1621768542356748
 40
0.2486489160958344
 40
0.3404969668525346
 40
0.438191251116535
 40
0.5434463660245658
 40
0.6518115192847411
 40
0.7530190937886712
 40
0.8492196919724999
 40
0.9419290312998099
 40
1.034249663570033
 40
1.129078600620176
 40
1.226697027573242
 40
1.327220425421712
 40
1.470572134938031
 40
1.595489863371248
 40
1.719934125348407
 40
1.850576620127447
 40
1.989059629987313
 40
2.134139054226961
 40
2.280698007207244
 40
2.424529739039509
 40
2.565929576985881
 40
2.708239260773515
 40
2.861717887443667
 40
3.045168540347388
 40
3.183798301138628
 40
3.314813961455465
 40
3.442083470447314
 40
3.569912708372974
 40
3.702177512509415
 40
3.842307559659531
 40
3.992872223245935
 40
4.156750662218324
 40
4.310981861107602
 40
4.445859909322675
 40
4.572393936131616
 40
4.701656719781985
 40
4.768279086008476
 40
4.835960697898419
 40
4.912788918729338
 40
5.00628520848155
 40
5.026909478751627
 40
5.047533749021191
 40
5.101808031471248
 40
5.162325165538548
 40
5.226919745995869
 40
5.29423180659674
 40
5.364544852554865
 40
5.438319055467936
 40
5.517877651324271
 40
5.607647714861583
 40
5.70044964254443
 40
5.788251142364161
 40
5.87271470603979
 40
5.955167292575308
 40
6.037192395190393
 40
6.120669181469123
 40
6.206848616686346
 40
6.296680855416748
 40
6.442558392872579
 40
6.568190371608255
 40
6.692904567360337
 40
6.824220446557114
 40
6.963121850329349
 40
7.107843738851139
 40
7.253431663907249
 40
7.395187468036669
 40
7.533140753237752
 40
7.670550457175222
 40
7.816236511769263
 40
7.987691657359221
 40
8.14227742196925
 40
8.293662615415021
 40
8.442962460879272
 40
8.59159831618532
 40
8.743678992361792
 40
8.903725323699181
 40
9.076307008890472
 40
9.265578604680584
 40
9.45920379536073
 40
9.617619810273434
 40
9.753609671361874
 40
9.874873300004065
 40
9.954520184977767
 40
10.02416413719244
 40
10.09769764405444
 40
10.18909955924971
 40
10.20974586420138
 40
10.23039218263386
 40
10.3005710188127
 40
10.37632012987546
 40
10.37632012987546
 40
10.37632012987546
 40
10.37632012987546
 10
170.1465954835851
 20
14.13795663215996
 10
170.1632217851219
 20
14.11720608845314
 10
170.1970784206577
 20
14.074951117119
 10
170.2599822541037
 20
14.02029811392076
 10
170.3332500940394
 20
13.97299025121052
 10
170.4175969238637
 20
13.93527231437936
 10
170.513224061546
 20
13.91040619731953
 10
170.6171853775347
 20
13.90309559345938
 10
170.7224020220405
 20
13.91142322794054
 10
170.8206626371334
 20
13.9414917965153
 10
170.9058986427548
 20
13.98848822971877
 10
170.9779220206103
 20
14.0495299125086
 10
171.0350917709096
 20
14.12412969578585
 10
171.076786874744
 20
14.21002464660176
 10
171.1026952846293
 20
14.30485850432211
 10
171.1118037332654
 20
14.41854979038369
 10
171.0986864796487
 20
14.5433258777078
 10
171.0325330334414
 20
14.66014719171893
 10
170.9369370919569
 20
14.74512539577377
 10
170.8249681022369
 20
14.81416684459161
 10
170.699365958327
 20
14.87204142045893
 10
170.5656691620856
 20
14.92373723284343
 10
170.431312281883
 20
14.97899092397183
 10
170.3051983986877
 20
15.04939770641651
 10
170.1926579987535
 20
15.13785540731249
 10
170.0969963064459
 20
15.24981067868478
 10
170.0334157151825
 20
15.39949910101381
 10
170.0200706505016
 20
15.55932794385144
 10
170.0320510987448
 20
15.71048405306846
 10
170.071229892884
 20
15.8380924459154
 10
170.135498775091
 20
15.95080874030845
 10
170.223820499974
 20
16.04648609268689
 10
170.3338091207628
 20
16.1235421498575
 10
170.4632284401264
 20
16.1815139693628
 10
170.6111838967793
 20
16.21739177588823
 10
170.7682069455487
 20
16.22746719050565
 10
170.9174940466431
 20
16.21863637762591
 10
171.059625361417
 20
16.19074899340355
 10
171.1595922609625
 20
16.13413314701138
 10
171.3125074736185
 20
16.08674602105508
 10
171.2455131717168
 20
16.00197553001186
 10
171.2296479120269
 20
15.93438901873486
 10
171.1978750531297
 20
15.8692609279319
 10
171.2150202209571
 20
15.76723453256954
 10
171.1666427208232
 20
15.77493211681903
 10
171.1315789440766
 20
15.76806771724808
 10
171.1296697985718
 20
15.832638311582
 10
171.0985692931989
 20
15.87825639621395
 10
171.0664551628455
 20
15.93561036628456
 10
171.0208038475168
 20
15.98540462692559
 10
170.9658508218387
 20
16.02994813718998
 10
170.9010841173008
 20
16.0676398883655
 10
170.8232377310596
 20
16.09283375791353
 10
170.7355160553352
 20
16.09931230998111
 10
170.6452903277806
 20
16.09235709285608
 10
170.5594594694065
 20
16.06909190460922
 10
170.4828343638596
 20
16.03131644107546
 10
170.41652656362
 20
15.98051641089575
 10
170.3622560536964
 20
15.91731143407212
 10
170.3224925345458
 20
15.8427645571037
 10
170.2976775510589
 20
15.75917313997764
 10
170.2892124262871
 20
15.65192948382288
 10
170.3019697987103
 20
15.52965457267561
 10
170.3681548409273
 20
15.41149724291212
 10
170.4640977399832
 20
15.32606325709529
 10
170.5757914963182
 20
15.25583362306723
 10
170.7010863668702
 20
15.19659162305305
 10
170.8349823941447
 20
15.14616708086132
 10
170.968993033315
 20
15.09322516984383
 10
171.0950885316915
 20
15.02750170625176
 10
171.2076216638417
 20
14.94480352537324
 10
171.3031370284232
 20
14.83996006310072
 10
171.3672706486964
 20
14.69937117251573
 10
171.3811103725278
 20
14.54065409451592
 10
171.367395471223
 20
14.38153155217876
 10
171.3244739153985
 20
14.23483828819212
 10
171.2545906329065
 20
14.10119796587143
 10
171.1574592213829
 20
13.98532387699293
 10
171.0347806023657
 20
13.8908998177009
 10
170.8874408413168
 20
13.82179270651983
 10
170.7177132497125
 20
13.77953210858853
 10
170.5317404979597
 20
13.76781736230409
 10
170.3528955926183
 20
13.77809486683436
 10
170.1881733753744
 20
13.81966573769158
 10
170.0834410841057
 20
13.88797642883942
 10
169.9350960790366
 20
13.93675219032107
 10
169.9980378194729
 20
14.02976591290842
 10
170.007227443006
 20
14.10296536248281
 10
170.0303711301232
 20
14.16936294501348
 10
170.0034588335317
 20
14.26974809527583
 10
170.0521338956339
 20
14.26234033517379
 10
170.0916530580697
 20
14.26894063620896
 10
170.0996204944702
 20
14.19078703218934
 10
170.1305436967923
 20
14.15600927375859
 10
170.1465954835851
 20
14.13795663215996
 97
        1
330
C4
 75
     1
 76
     2
 52
45.0
 41
0.1
 77
     0
 78
     1
 53
45.0
 43
0.0
 44
0.0
 45
-0.282842712474619
 46
0.0
 79
     0
 98
        1
 10
0.0
 20
0.0
  0
ENDBLK
  5
4A
330
48
100
AcDbEntity
  8
0
100
AcDbBlockEnd
  0
BLOCK
  5
4D
330
4B
100
AcDbEntity
  8
0
100
AcDbBlockBegin
  2
開示A4枠
 70
     0
 10
0.0
 20
0.00000000000001
 30
0.0
  3
開示A4枠
  1

  0
INSERT
  5
4C
330
4B
100
AcDbEntity
  8
1
100
AcDbBlockReference
  2
開示A4
 10
0.0
 20
0.00000000000001
 30
0.0
  0
ENDBLK
  5
4E
330
4B
100
AcDbEntity
  8
0
100
AcDbBlockEnd
  0
BLOCK
  5
50
330
4F
100
AcDbEntity
  8
0
100
AcDbBlockBegin
  2
78-100
 70
     0
 10
110.0444090238759
 20
142.6429089977911
 30
0.0
  3
78-100
  1

  0
LINE
  5
E1
330
4F
100
AcDbEntity
  8
0
  6
Continuous
 62
     7
100
AcDbLine
 10
110.4444090238759
 20
143.4429089977911
 30
0.0
 11
115.3444090238759
 21
143.4429089977911
 31
0.0
  0
LINE
  5
E2
330
4F
100
AcDbEntity
  8
0
  6
Continuous
 62
     7
100
AcDbLine
 10
110.4444090238759
 20
142.6429089977911
 30
0.0
 11
115.3444090238759
 21
142.6429089977911
 31
0.0
  0
ARC
  5
E3
330
4F
100
AcDbEntity
  8
0
  6
Continuous
 62
     7
100
AcDbCircle
 10
115.3444090238759
 20
143.0429089977911
 30
0.0
 40
0.4000000000000057
100
AcDbArc
 50
0.0
 51
90.0
  0
ARC
  5
E4
330
4F
100
AcDbEntity
  8
0
  6
Continuous
 62
     7
100
AcDbCircle
 10
115.3444090238759
 20
143.0429089977911
 30
0.0
 40
0.4000000000000057
100
AcDbArc
 50
270.0
 51
0.0
  0
ARC
  5
E5
330
4F
100
AcDbEntity
  8
0
  6
Continuous
 62
     7
100
AcDbCircle
 10
110.4444090238759
 20
143.0429089977911
 30
0.0
 40
0.4000000000000057
100
AcDbArc
 50
90.0
 51
180.0
  0
ARC
  5
E6
330
4F
100
AcDbEntity
  8
0
  6
Continuous
 62
     7
100
AcDbCircle
 10
110.4444090238759
 20
143.0429089977911
 30
0.0
 40
0.4000000000000057
100
AcDbArc
 50
180.0
 51
270.0
  0
CIRCLE
  5
E7
330
4F
100
AcDbEntity
  8
0
  6
Continuous
 62
     7
100
AcDbCircle
 10
112.8944090238759
 20
192.4929089977911
 30
0.0
 40
2.850000000000009
  0
ENDBLK
  5
51
330
4F
100
AcDbEntity
  8
0
100
AcDbBlockEnd
  0
BLOCK
  5
53
330
52
100
AcDbEntity
  8
0
100
AcDbBlockBegin
  2
32-88
 70
     0
 10
141.9841020635813
 20
23.99743342999106
 30
0.0
  3
32-88
  1

  0
LINE
  5
E8
330
52
100
AcDbEntity
  8
1
  6
Continuous
 62
     7
100
AcDbLine
 10
115.8944090238759
 20
125.9929089977911
 30
0.0
 11
115.52935265961
 21
125.9929089977911
 31
0.0
  0
LINE
  5
E9
330
52
100
AcDbEntity
  8
1
  6
Continuous
 62
     7
100
AcDbLine
 10
114.6264598314448
 20
126.4570106129289
 30
0.0
 11
114.6264598314448
 21
128.4929089977911
 31
0.0
  0
LINE
  5
EA
330
52
100
AcDbEntity
  8
1
  6
Continuous
 62
     7
100
AcDbLine
 10
115.8944090238759
 20
125.9929089977911
 30
0.0
 11
116.3585106390136
 21
126.4570106129289
 31
0.0
  0
LINE
  5
EB
330
52
100
AcDbEntity
  8
1
  6
Continuous
 62
     7
100
AcDbLine
 10
116.3585106390136
 20
126.4570106129289
 30
0.0
 11
116.3585106390136
 21
128.4929089977911
 31
0.0
  0
LINE
  5
EC
330
52
100
AcDbEntity
  8
1
  6
Continuous
 62
     7
100
AcDbLine
 10
112.8944090238759
 20
125.9929089977911
 30
0.0
 11
115.4853477101028
 21
125.9929089977911
 31
0.0
  0
LINE
  5
ED
330
52
100
AcDbEntity
  8
1
  6
Continuous
 62
     7
100
AcDbLine
 10
110.303470337649
 20
125.9929089977911
 30
0.0
 11
112.8944090238759
 21
125.9929089977911
 31
0.0
  0
LINE
  5
EE
330
52
100
AcDbEntity
  8
1
  6
Continuous
 62
     7
100
AcDbLine
 10
109.4303074087381
 20
128.4929089977911
 30
0.0
 11
109.4303074087381
 21
126.4570106129289
 31
0.0
  0
LINE
  5
EF
330
52
100
AcDbEntity
  8
1
  6
Continuous
 62
     7
100
AcDbLine
 10
109.4303074087381
 20
126.4570106129289
 30
0.0
 11
109.8944090238759
 21
125.9929089977911
 31
0.0
  0
LINE
  5
F0
330
52
100
AcDbEntity
  8
1
  6
Continuous
 62
     7
100
AcDbLine
 10
111.162358216307
 20
128.4929089977911
 30
0.0
 11
111.162358216307
 21
126.4570106129289
 31
0.0
  0
LINE
  5
F1
330
52
100
AcDbEntity
  8
1
  6
Continuous
 62
     7
100
AcDbLine
 10
110.2594653881417
 20
125.9929089977911
 30
0.0
 11
109.8944090238759
 21
125.9929089977911
 31
0.0
  0
ARC
  5
F2
330
52
100
AcDbEntity
  8
1
  6
Continuous
 62
     7
100
AcDbCircle
 10
115.4924852352292
 20
127.0329176224347
 30
0.0
 40
1.040033116587077
100
AcDbArc
 50
213.6239114679666
 51
303.6239114679635
  0
ARC
  5
F3
330
52
100
AcDbEntity
  8
1
  6
Continuous
 62
     7
100
AcDbCircle
 10
112.9499344276603
 20
129.2497869848946
 30
0.0
 40
3.257351269566229
100
AcDbArc
 50
269.0232783881102
 51
300.9767216118914
  0
ARC
  5
F4
330
52
100
AcDbEntity
  8
1
  6
Continuous
 62
     7
100
AcDbCircle
 10
112.8388836200914
 20
129.2497869848946
 30
0.0
 40
3.257351269566169
100
AcDbArc
 50
239.0232783881102
 51
270.9767216118915
  0
ARC
  5
F5
330
52
100
AcDbEntity
  8
1
  6
Continuous
 62
     7
100
AcDbCircle
 10
110.2963328125226
 20
127.0329176224347
 30
0.0
 40
1.040033116587168
100
AcDbArc
 50
236.3760885320358
 51
326.3760885320334
  0
ENDBLK
  5
54
330
52
100
AcDbEntity
  8
0
100
AcDbBlockEnd
  0
BLOCK
  5
56
330
55
100
AcDbEntity
  8
0
100
AcDbBlockBegin
  2
P82AT-2-15
 70
     0
 10
117.7706260078183
 20
-35.79473712069535
 30
0.0
  3
P82AT-2-15
  1

  0
LINE
  5
F6
330
55
100
AcDbEntity
  8
1
  6
Continuous
 62
     7
100
AcDbLine
 10
110.3944090238759
 20
134.4929089977911
 30
0.0
 11
106.1444090238759
 21
134.4929089977911
 31
0.0
  0
LINE
  5
F7
330
55
100
AcDbEntity
  8
1
  6
Continuous
 62
     7
100
AcDbLine
 10
105.3944090238759
 20
131.4929089977911
 30
0.0
 11
105.8944090238759
 21
131.4929089977911
 31
0.0
  0
LINE
  5
F8
330
55
100
AcDbEntity
  8
1
  6
Continuous
 62
     7
100
AcDbLine
 10
120.3944090238759
 20
131.4929089977911
 30
0.0
 11
119.8944090238759
 21
131.4929089977911
 31
0.0
  0
LINE
  5
F9
330
55
100
AcDbEntity
  8
1
  6
Continuous
 62
     7
100
AcDbLine
 10
110.3944090238759
 20
134.4929089977911
 30
0.0
 11
115.3944090238759
 21
134.4929089977911
 31
0.0
  0
LINE
  5
FA
330
55
100
AcDbEntity
  8
1
  6
Continuous
 62
     7
100
AcDbLine
 10
120.3944090238759
 20
133.7429089977911
 30
0.0
 11
105.3944090238759
 21
133.7429089977911
 31
0.0
  0
LINE
  5
FB
330
55
100
AcDbEntity
  8
1
  6
Continuous
 62
     7
100
AcDbLine
 10
106.1444090238759
 20
134.4929089977911
 30
0.0
 11
105.3944090238759
 21
133.7429089977911
 31
0.0
  0
LINE
  5
FC
330
55
100
AcDbEntity
  8
1
  6
Continuous
 62
     7
100
AcDbLine
 10
120.3944090238759
 20
133.7429089977911
 30
0.0
 11
119.6444090238759
 21
134.4929089977911
 31
0.0
  0
LINE
  5
FD
330
55
100
AcDbEntity
  8
1
  6
Continuous
 62
     7
100
AcDbLine
 10
110.3944090238759
 20
134.4929089977911
 30
0.0
 11
110.3944090238759
 21
142.4929089977911
 31
0.0
  0
LINE
  5
FE
330
55
100
AcDbEntity
  8
1
  6
Continuous
 62
     7
100
AcDbLine
 10
105.3944090238759
 20
131.4929089977911
 30
0.0
 11
105.3944090238759
 21
133.7429089977911
 31
0.0
  0
LINE
  5
FF
330
55
100
AcDbEntity
  8
1
  6
Continuous
 62
     2
100
AcDbLine
 10
111.2734090238759
 20
124.4929089977911
 30
0.0
 11
111.2734090238759
 21
125.9929089977911
 31
0.0
  0
LINE
  5
100
330
55
100
AcDbEntity
  8
1
  6
Continuous
 62
     7
100
AcDbLine
 10
112.8944090238759
 20
124.4929089977911
 30
0.0
 11
111.2734090238759
 21
124.4929089977911
 31
0.0
  0
LINE
  5
101
330
55
100
AcDbEntity
  8
1
  6
Continuous
 62
     7
100
AcDbLine
 10
110.8944090238759
 20
124.8719089977911
 30
0.0
 11
110.8944090238759
 21
125.9929089977911
 31
0.0
  0
LINE
  5
102
330
55
100
AcDbEntity
  8
1
  6
Continuous
 62
     7
100
AcDbLine
 10
111.2734090238759
 20
124.4929089977911
 30
0.0
 11
110.8944090238759
 21
124.8719089977911
 31
0.0
  0
LINE
  5
103
330
55
100
AcDbEntity
  8
1
  6
Continuous
 62
     7
100
AcDbLine
 10
112.8944090238759
 20
124.8719089977911
 30
0.0
 11
110.8944090238759
 21
124.8719089977911
 31
0.0
  0
LINE
  5
104
330
55
100
AcDbEntity
  8
1
  6
Continuous
 62
     7
100
AcDbLine
 10
110.3944090238759
 20
148.4929089977911
 30
0.0
 11
112.8944090238759
 21
148.4929089977911
 31
0.0
  0
LINE
  5
105
330
55
100
AcDbEntity
  8
1
  6
Continuous
 62
     7
100
AcDbLine
 10
112.8944090238759
 20
148.4929089977911
 30
0.0
 11
115.3944090238759
 21
148.4929089977911
 31
0.0
  0
LINE
  5
106
330
55
100
AcDbEntity
  8
1
  6
Continuous
 62
     7
100
AcDbLine
 10
114.8944090238759
 20
124.8719089977911
 30
0.0
 11
112.8944090238759
 21
124.8719089977911
 31
0.0
  0
LINE
  5
107
330
55
100
AcDbEntity
  8
1
  6
Continuous
 62
     7
100
AcDbLine
 10
114.8944090238759
 20
124.8719089977911
 30
0.0
 11
114.5154090238759
 21
124.4929089977911
 31
0.0
  0
LINE
  5
108
330
55
100
AcDbEntity
  8
1
  6
Continuous
 62
     7
100
AcDbLine
 10
114.5154090238759
 20
124.4929089977911
 30
0.0
 11
112.8944090238759
 21
124.4929089977911
 31
0.0
  0
LINE
  5
109
330
55
100
AcDbEntity
  8
1
  6
Continuous
 62
     7
100
AcDbLine
 10
120.3944090238759
 20
131.4929089977911
 30
0.0
 11
120.3944090238759
 21
133.7429089977911
 31
0.0
  0
LINE
  5
10A
330
55
100
AcDbEntity
  8
1
  6
Continuous
 62
     7
100
AcDbLine
 10
115.3944090238759
 20
134.4929089977911
 30
0.0
 11
119.6444090238759
 21
134.4929089977911
 31
0.0
  0
LINE
  5
10B
330
55
100
AcDbEntity
  8
1
  6
Continuous
 62
     7
100
AcDbLine
 10
115.3944090238759
 20
148.4929089977911
 30
0.0
 11
115.3944090238759
 21
143.5929089977911
 31
0.0
  0
LINE
  5
10C
330
55
100
AcDbEntity
  8
1
  6
Continuous
 62
     7
100
AcDbLine
 10
114.8944090238759
 20
125.9929089977911
 30
0.0
 11
114.8944090238759
 21
124.8719089977911
 31
0.0
  0
LINE
  5
10D
330
55
100
AcDbEntity
  8
1
  6
Continuous
 62
     2
100
AcDbLine
 10
114.5154090238759
 20
125.9929089977911
 30
0.0
 11
114.5154090238759
 21
124.4929089977911
 31
0.0
  0
LINE
  5
10E
330
55
100
AcDbEntity
  8
0
  6
Continuous
 62
     7
100
AcDbLine
 10
114.5444090238759
 20
143.5929089977911
 30
0.0
 11
114.5444090238759
 21
143.4429089977911
 31
0.0
  0
LINE
  5
10F
330
55
100
AcDbEntity
  8
0
  6
Continuous
 62
     7
100
AcDbLine
 10
111.2444090238759
 20
143.5929089977911
 30
0.0
 11
111.2444090238759
 21
143.4429089977911
 31
0.0
  0
LINE
  5
110
330
55
100
AcDbEntity
  8
0
  6
Continuous
 62
     7
100
AcDbLine
 10
110.3944090238759
 20
143.5929089977911
 30
0.0
 11
115.3944090238759
 21
143.5929089977911
 31
0.0
  0
LINE
  5
111
330
55
100
AcDbEntity
  8
1
  6
Continuous
 62
     7
100
AcDbLine
 10
110.3944090238759
 20
143.5929089977911
 30
0.0
 11
110.3944090238759
 21
148.4929089977911
 31
0.0
  0
LINE
  5
112
330
55
100
AcDbEntity
  8
0
  6
Continuous
 62
     7
100
AcDbLine
 10
110.3944090238759
 20
142.4929089977911
 30
0.0
 11
115.3944090238759
 21
142.4929089977911
 31
0.0
  0
LINE
  5
113
330
55
100
AcDbEntity
  8
1
  6
Continuous
 62
     7
100
AcDbLine
 10
115.3944090238759
 20
142.4929089977911
 30
0.0
 11
115.3944090238759
 21
134.4929089977911
 31
0.0
  0
LINE
  5
114
330
55
100
AcDbEntity
  8
0
  6
Continuous
 62
     7
100
AcDbLine
 10
114.5444090238759
 20
142.6429089977911
 30
0.0
 11
114.5444090238759
 21
142.4929089977911
 31
0.0
  0
LINE
  5
115
330
55
100
AcDbEntity
  8
0
  6
Continuous
 62
     7
100
AcDbLine
 10
111.2444090238759
 20
142.6429089977911
 30
0.0
 11
111.2444090238759
 21
142.4929089977911
 31
0.0
  0
ARC
  5
116
330
55
100
AcDbEntity
  8
1
  6
Continuous
 62
     7
100
AcDbCircle
 10
113.0433002103962
 20
145.4956810314904
 30
0.0
 40
3.99999999999998
100
AcDbArc
 50
92.13320194698775
 51
131.4696170257164
  0
ARC
  5
117
330
55
100
AcDbEntity
  8
1
  6
Continuous
 62
     7
100
AcDbCircle
 10
112.7455178373556
 20
145.4956810314904
 30
0.0
 40
3.999999999999985
100
AcDbArc
 50
48.53038297428372
 51
87.86679805301245
  0
CIRCLE
  5
118
330
55
100
AcDbEntity
  8
0
  6
Continuous
 62
     7
100
AcDbCircle
 10
112.8944090238759
 20
192.4929089977911
 30
0.0
 40
7.5
  0
CIRCLE
  5
119
330
55
100
AcDbEntity
  8
0
  6
Continuous
 62
     7
100
AcDbCircle
 10
112.8944090238759
 20
192.4929089977911
 30
0.0
 40
6.75
  0
CIRCLE
  5
11A
330
55
100
AcDbEntity
  8
0
  6
Continuous
 62
     7
100
AcDbCircle
 10
112.8944090238759
 20
192.4929089977911
 30
0.0
 40
2.5
  0
ENDBLK
  5
57
330
55
100
AcDbEntity
  8
0
100
AcDbBlockEnd
  0
BLOCK
  5
59
330
58
100
AcDbEntity
  8
0
100
AcDbBlockBegin
  2
91-1
 70
     0
 10
151.9659214150335
 20
-40.85332674993694
 30
0.0
  3
91-1
  1

  0
LINE
  5
11B
330
58
100
AcDbEntity
  8
1
  6
Continuous
 62
     7
100
AcDbLine
 10
119.8944090238759
 20
128.4929089977911
 30
0.0
 11
119.8944090238759
 21
131.4929089977911
 31
0.0
  0
LINE
  5
11C
330
58
100
AcDbEntity
  8
1
  6
Continuous
 62
     7
100
AcDbLine
 10
119.8944090238759
 20
131.4929089977911
 30
0.0
 11
112.8944090238759
 21
131.4929089977911
 31
0.0
  0
LINE
  5
11D
330
58
100
AcDbEntity
  8
1
  6
Continuous
 62
     7
100
AcDbLine
 10
112.8944090238759
 20
128.4929089977911
 30
0.0
 11
119.8944090238759
 21
128.4929089977911
 31
0.0
  0
LINE
  5
11E
330
58
100
AcDbEntity
  8
1
  6
Continuous
 62
     7
100
AcDbLine
 10
105.8944090238759
 20
131.4929089977911
 30
0.0
 11
105.8944090238759
 21
128.4929089977911
 31
0.0
  0
LINE
  5
11F
330
58
100
AcDbEntity
  8
1
  6
Continuous
 62
     7
100
AcDbLine
 10
105.8944090238759
 20
128.4929089977911
 30
0.0
 11
112.8944090238759
 21
128.4929089977911
 31
0.0
  0
LINE
  5
120
330
58
100
AcDbEntity
  8
1
  6
Continuous
 62
     7
100
AcDbLine
 10
112.8944090238759
 20
131.4929089977911
 30
0.0
 11
105.8944090238759
 21
131.4929089977911
 31
0.0
  0
ENDBLK
  5
5A
330
58
100
AcDbEntity
  8
0
100
AcDbBlockEnd
  0
BLOCK
  5
5F
330
5B
100
AcDbEntity
  8
0
100
AcDbBlockBegin
  2
P82A-1S-15
 70
     0
 10
41.39440902387589
 20
19.49290899779109
 30
0.0
  3
P82A-1S-15
  1

  0
INSERT
  5
5C
330
5B
100
AcDbEntity
  8
0
100
AcDbBlockReference
  2
32-88
 10
141.9841020635813
 20
23.99743342999106
 30
0.0
  0
INSERT
  5
5D
330
5B
100
AcDbEntity
  8
0
100
AcDbBlockReference
  2
P82AT-2-15
 10
117.7706260078183
 20
-35.79473712069535
 30
0.0
  0
INSERT
  5
5E
330
5B
100
AcDbEntity
  8
0
100
AcDbBlockReference
  2
91-1
 10
151.9659214150335
 20
-40.85332674993694
 30
0.0
  0
ENDBLK
  5
60
330
5B
100
AcDbEntity
  8
0
100
AcDbBlockEnd
  0
BLOCK
  5
13B
330
132
100
AcDbEntity
  8
0
100
AcDbBlockBegin
  2
*D8
 70
     1
 10
0.0
 20
0.0
 30
0.0
  3
*D8
  1

  0
LINE
  5
133
330
132
100
AcDbEntity
  8
1
  6
Continuous
 62
     2
100
AcDbLine
 10
115.3944090238759
 20
159.2493576017301
 30
0.0
 11
122.3944090238759
 21
159.2493576017301
 31
0.0
  0
LINE
  5
134
330
132
100
AcDbEntity
  8
1
  6
Continuous
 62
     2
100
AcDbLine
 10
110.3944090238759
 20
159.2493576017301
 30
0.0
 11
115.3944090238759
 21
159.2493576017301
 31
0.0
  0
LINE
  5
135
330
132
100
AcDbEntity
  8
1
  6
Continuous
 62
     2
100
AcDbLine
 10
103.3944090238759
 20
159.2493576017301
 30
0.0
 11
110.3944090238759
 21
159.2493576017301
 31
0.0
  0
LINE
  5
136
330
132
100
AcDbEntity
  8
1
  6
Continuous
 62
     2
100
AcDbLine
 10
115.3944090238759
 20
148.4929089977911
 30
0.0
 11
115.3944090238759
 21
160.2493576017301
 31
0.0
  0
LINE
  5
137
330
132
100
AcDbEntity
  8
1
  6
Continuous
 62
     2
100
AcDbLine
 10
110.3944090238759
 20
148.4929089977911
 30
0.0
 11
110.3944090238759
 21
160.2493576017301
 31
0.0
  0
SOLID
  5
138
330
132
100
AcDbEntity
  8
1
 62
     2
100
AcDbTrace
 10
106.8944090238759
 20
158.7885738601742
 30
0.0
 11
106.8944090238759
 21
159.710141343286
 31
0.0
 12
110.3944090238759
 22
159.2493576017301
 32
0.0
 13
110.3944090238759
 23
159.2493576017301
 33
0.0
  0
SOLID
  5
139
330
132
100
AcDbEntity
  8
1
 62
     2
100
AcDbTrace
 10
118.8944090238759
 20
159.710141343286
 30
0.0
 11
118.8944090238759
 21
158.7885738601742
 31
0.0
 12
115.3944090238759
 22
159.2493576017301
 32
0.0
 13
115.3944090238759
 23
159.2493576017301
 33
0.0
  0
MTEXT
  5
13A
330
132
100
AcDbEntity
  8
1
 62
     7
100
AcDbMText
 10
111.0071938406673
 20
160.2493506446538
 30
0.0
 40
3.5
 41
0.0
 71
     7
 72
     1
  1
\C7;{\Fgdt;n}\C7;5
  7
CONVERTER_12
 11
0.9999999999970619
 21
2.424068405545306E-6
 31
0.0
 73
     1
 44
0.60024009603842
  0
ENDBLK
  5
13C
330
132
100
AcDbEntity
  8
0
100
AcDbBlockEnd
  0
BLOCK
  5
146
330
13F
100
AcDbEntity
  8
0
100
AcDbBlockBegin
  2
*D9
 70
     1
 10
0.0
 20
0.0
 30
0.0
  3
*D9
  1

  0
LINE
  5
140
330
13F
100
AcDbEntity
  8
0
  6
Continuous
 62
     2
100
AcDbLine
 10
94.40764666273878
 20
149.4929089977911
 30
0.0
 11
94.40764666273878
 21
134.4929089977911
 31
0.0
  0
LINE
  5
141
330
13F
100
AcDbEntity
  8
0
  6
Continuous
 62
     2
100
AcDbLine
 10
106.1444090238759
 20
134.4929089977911
 30
0.0
 11
93.40764666273878
 21
134.4929089977911
 31
0.0
  0
LINE
  5
142
330
13F
100
AcDbEntity
  8
0
  6
Continuous
 62
     2
100
AcDbLine
 10
112.8944090238759
 20
149.4929089977911
 30
0.0
 11
93.40764666273878
 21
149.4929089977911
 31
0.0
  0
SOLID
  5
143
330
13F
100
AcDbEntity
  8
0
 62
     2
100
AcDbTrace
 10
94.86843040429467
 20
145.9929089977911
 30
0.0
 11
93.9468629211829
 21
145.9929089977911
 31
0.0
 12
94.40764666273878
 22
149.4929089977911
 32
0.0
 13
94.40764666273878
 23
149.4929089977911
 33
0.0
  0
SOLID
  5
144
330
13F
100
AcDbEntity
  8
0
 62
     2
100
AcDbTrace
 10
93.9468629211829
 20
137.9929089977911
 30
0.0
 11
94.86843040429467
 21
137.9929089977911
 31
0.0
 12
94.40764666273878
 22
134.4929089977911
 32
0.0
 13
94.40764666273878
 23
134.4929089977911
 33
0.0
  0
MTEXT
  5
145
330
13F
100
AcDbEntity
  8
0
 62
     7
100
AcDbMText
 10
93.40764666273878
 20
140.2842325281271
 30
0.0
 40
3.5
 41
0.0
 71
     7
 72
     1
  1
15
  7
CONVERTER_12
 11
0.0
 21
1.0
 31
0.0
 73
     1
 44
0.60024009603842
  0
ENDBLK
  5
147
330
13F
100
AcDbEntity
  8
0
100
AcDbBlockEnd
  0
BLOCK
  5
151
330
14A
100
AcDbEntity
  8
0
100
AcDbBlockBegin
  2
*D10
 70
     1
 10
0.0
 20
0.0
 30
0.0
  3
*D10
  1

  0
LINE
  5
14B
330
14A
100
AcDbEntity
  8
0
  6
Continuous
 62
     2
100
AcDbLine
 10
86.34471424964228
 20
149.4929089977911
 30
0.0
 11
86.34471424964228
 21
124.4929089977911
 31
0.0
  0
LINE
  5
14C
330
14A
100
AcDbEntity
  8
0
  6
Continuous
 62
     2
100
AcDbLine
 10
111.2734090238759
 20
124.4929089977911
 30
0.0
 11
85.34471424964228
 21
124.4929089977911
 31
0.0
  0
LINE
  5
14D
330
14A
100
AcDbEntity
  8
0
  6
Continuous
 62
     2
100
AcDbLine
 10
112.8944090238759
 20
149.4929089977911
 30
0.0
 11
85.34471424964228
 21
149.4929089977911
 31
0.0
  0
SOLID
  5
14E
330
14A
100
AcDbEntity
  8
0
 62
     2
100
AcDbTrace
 10
86.80549799119817
 20
145.9929089977911
 30
0.0
 11
85.8839305080864
 21
145.9929089977911
 31
0.0
 12
86.34471424964228
 22
149.4929089977911
 32
0.0
 13
86.34471424964228
 23
149.4929089977911
 33
0.0
  0
SOLID
  5
14F
330
14A
100
AcDbEntity
  8
0
 62
     2
100
AcDbTrace
 10
85.8839305080864
 20
127.9929089977911
 30
0.0
 11
86.80549799119817
 21
127.9929089977911
 31
0.0
 12
86.34471424964228
 22
124.4929089977911
 32
0.0
 13
86.34471424964228
 23
124.4929089977911
 33
0.0
  0
MTEXT
  5
150
330
14A
100
AcDbEntity
  8
0
 62
     7
100
AcDbMText
 10
85.34471424964228
 20
134.3839442527291
 30
0.0
 40
3.5
 41
0.0
 71
     7
 72
     1
  1
25
  7
CONVERTER_12
 11
0.0
 21
1.0
 31
0.0
 73
     1
 44
0.60024009603842
  0
ENDBLK
  5
152
330
14A
100
AcDbEntity
  8
0
100
AcDbBlockEnd
  0
BLOCK
  5
15A
330
155
100
AcDbEntity
  8
0
100
AcDbBlockBegin
  2
*D11
 70
     1
 10
0.0
 20
0.0
 30
0.0
  3
*D11
  1

  0
LINE
  5
156
330
155
100
AcDbEntity
  8
1
  6
Continuous
 62
     2
100
AcDbLine
 10
119.5234933756857
 20
197.147502498473
 30
0.0
 11
99.84052578103284
 21
183.3271604756426
 31
0.0
  0
SOLID
  5
157
330
155
100
AcDbEntity
  8
1
 62
     2
100
AcDbTrace
 10
107.9623195639591
 20
188.4668296126002
 30
0.0
 11
107.4327489445354
 21
189.2210454868511
 31
0.0
 12
110.5619534186095
 22
190.8551816549586
 32
0.0
 13
110.5619534186095
 23
190.8551816549586
 33
0.0
  0
SOLID
  5
158
330
155
100
AcDbEntity
  8
1
 62
     2
100
AcDbTrace
 10
117.8264984837927
 20
196.518988382982
 30
0.0
 11
118.3560691032164
 21
195.7647725087311
 31
0.0
 12
115.2268646291423
 22
194.1306363406236
 32
0.0
 13
115.2268646291423
 23
194.1306363406236
 33
0.0
  0
MTEXT
  5
159
330
155
100
AcDbEntity
  8
1
 62
     7
100
AcDbMText
 10
100.3543638905668
 20
184.9098387111631
 30
0.0
 40
3.5
 41
0.0
 71
     7
 72
     1
  1
\C7;{\Fgdt;n}\C7;6
  7
CONVERTER_12
 11
0.8184054755320718
 21
0.5746411729236983
 31
0.0
 73
     1
 44
0.60024009603842
  0
ENDBLK
  5
15B
330
155
100
AcDbEntity
  8
0
100
AcDbBlockEnd
  0
BLOCK
  5
164
330
15D
100
AcDbEntity
  8
0
100
AcDbBlockBegin
  2
*D12
 70
     1
 10
0.0
 20
0.0
 30
0.0
  3
*D12
  1

  0
LINE
  5
15E
330
15D
100
AcDbEntity
  8
0
  6
Continuous
 62
     2
100
AcDbLine
 10
120.3944090238759
 20
210.9655794966761
 30
0.0
 11
105.3944090238759
 21
210.9655794966761
 31
0.0
  0
LINE
  5
15F
330
15D
100
AcDbEntity
  8
0
  6
Continuous
 62
     2
100
AcDbLine
 10
105.3944090238759
 20
192.4929089977911
 30
0.0
 11
105.3944090238759
 21
211.9655794966761
 31
0.0
  0
LINE
  5
160
330
15D
100
AcDbEntity
  8
0
  6
Continuous
 62
     2
100
AcDbLine
 10
120.3944090238759
 20
192.4929089977911
 30
0.0
 11
120.3944090238759
 21
211.9655794966761
 31
0.0
  0
SOLID
  5
161
330
15D
100
AcDbEntity
  8
0
 62
     2
100
AcDbTrace
 10
116.8944090238759
 20
210.5047957551202
 30
0.0
 11
116.8944090238759
 21
211.426363238232
 31
0.0
 12
120.3944090238759
 22
210.9655794966761
 32
0.0
 13
120.3944090238759
 23
210.9655794966761
 33
0.0
  0
SOLID
  5
162
330
15D
100
AcDbEntity
  8
0
 62
     2
100
AcDbTrace
 10
108.8944090238759
 20
211.426363238232
 30
0.0
 11
108.8944090238759
 21
210.5047957551202
 31
0.0
 12
105.3944090238759
 22
210.9655794966761
 32
0.0
 13
105.3944090238759
 23
210.9655794966761
 33
0.0
  0
MTEXT
  5
163
330
15D
100
AcDbEntity
  8
0
 62
     7
100
AcDbMText
 10
110.1222607524703
 20
211.9655725395998
 30
0.0
 40
3.5
 41
0.0
 71
     7
 72
     1
  1
\C7;{\Fgdt;n}\C7;15
  7
CONVERTER_12
 11
0.9999999999970619
 21
2.424068405545306E-6
 31
0.0
 73
     1
 44
0.60024009603842
  0
ENDBLK
  5
165
330
15D
100
AcDbEntity
  8
0
100
AcDbBlockEnd
  0
ENDSEC
  0
SECTION
  2
ENTITIES
  0
INSERT
  5
61
330
1F
100
AcDbEntity
  8
0
100
AcDbBlockReference
  2
開示A4枠
 10
0.0
 20
0.00000000000001
 30
0.0
  0
INSERT
  5
62
330
1F
100
AcDbEntity
  8
0
100
AcDbBlockReference
  2
78-100
 10
110.0444090238759
 20
142.6429089977911
 30
0.0
  0
INSERT
  5
63
330
1F
100
AcDbEntity
  8
0
100
AcDbBlockReference
  2
P82A-1S-15
 10
41.39440902387589
 20
19.49290899779109
 30
0.0
  0
LINE
  5
121
330
1F
100
AcDbEntity
  8
0
  6
DASH_CENTER
 62
     2
100
AcDbLine
 10
112.8944090238759
 20
202.9929089977911
 30
0.0
 11
112.8944090238759
 21
181.9929089977911
 31
0.0
  0
LINE
  5
122
330
1F
100
AcDbEntity
  8
0
  6
DASH_CENTER
 62
     2
100
AcDbLine
 10
102.6144119166443
 20
192.4929089977911
 30
0.0
 11
123.3944090238759
 21
192.4929089977911
 31
0.0
  0
LINE
  5
123
330
1F
100
AcDbEntity
  8
1
  6
DASH_CENTER
 62
     2
100
AcDbLine
 10
112.8944090238759
 20
121.4548537411481
 30
0.0
 11
112.8944090238759
 21
152.4929089977911
 31
0.0
  0
MTEXT
  5
125
330
1F
100
AcDbEntity
  8
1
 62
     7
100
AcDbMText
 10
157.5
 20
12.50000000000001
 30
0.0
 40
2.5
 41
0.0
 71
     5
 72
     1
  1
2
  7
CONVERTER_12
 73
     1
 44
0.7202881152461
  0
MTEXT
  5
126
330
1F
100
AcDbEntity
  8
1
 62
     7
100
AcDbMText
 10
151.75
 20
12.50000000000001
 30
0.0
 40
2.5
 41
0.0
 71
     5
 72
     1
  1
04
  7
CONVERTER_12
 73
     1
 44
0.7202881152461
  0
MTEXT
  5
127
330
1F
100
AcDbEntity
  8
1
 62
     7
100
AcDbMText
 10
140.5
 20
12.50000000000001
 30
0.0
 40
2.5
 41
0.0
 71
     5
 72
     1
  1
2
  7
CONVERTER_12
 73
     1
 44
0.7202881152461
  0
MTEXT
  5
128
330
1F
100
AcDbEntity
  8
1
 62
     7
100
AcDbMText
 10
134.75
 20
12.50000000000001
 30
0.0
 40
2.5
 41
0.0
 71
     5
 72
     1
  1
04
  7
CONVERTER_12
 73
     1
 44
0.7202881152461
  0
MTEXT
  5
129
330
1F
100
AcDbEntity
  8
1
 62
     7
100
AcDbMText
 10
123.5
 20
12.50000000000001
 30
0.0
 40
2.5
 41
0.0
 71
     5
 72
     1
  1
2
  7
CONVERTER_12
 73
     1
 44
0.7202881152461
  0
MTEXT
  5
12A
330
1F
100
AcDbEntity
  8
1
 62
     7
100
AcDbMText
 10
117.75
 20
12.50000000000001
 30
0.0
 40
2.5
 41
0.0
 71
     5
 72
     1
  1
04
  7
CONVERTER_12
 73
     1
 44
0.7202881152461
  0
MTEXT
  5
12B
330
1F
100
AcDbEntity
  8
1
 62
     7
100
AcDbMText
 10
100.75
 20
12.50000000000001
 30
0.0
 40
2.5
 41
0.0
 71
     5
 72
     1
  1
04
  7
CONVERTER_12
 73
     1
 44
0.7202881152461
  0
MTEXT
  5
12C
330
1F
100
AcDbEntity
  8
1
 62
     7
100
AcDbMText
 10
106.5
 20
12.50000000000001
 30
0.0
 40
2.5
 41
0.0
 71
     5
 72
     1
  1
2
  7
CONVERTER_12
 73
     1
 44
0.7202881152461
  0
MTEXT
  5
12D
330
1F
100
AcDbEntity
  8
1
 62
     7
100
AcDbMText
 10
35.73262237098128
 20
33.75000000000001
 30
0.0
 40
3.5
 41
0.0
 71
     4
 72
     1
  1
3個入
  7
CONVERTER_11
 73
     1
 44
0.54545454545455
  0
MTEXT
  5
12E
330
1F
100
AcDbEntity
  8
1
 62
     7
100
AcDbMText
 10
85.25000000000003
 20
17.00000000000001
 30
0.0
 40
3.5
 41
0.0
 71
     5
 72
     1
  1
1
  7
CONVERTER_12
 73
     1
 44
0.7202881152461
  0
MTEXT
  5
12F
330
1F
100
AcDbEntity
  8
1
 62
     7
100
AcDbMText
 10
57.00000000000003
 20
22.75000000000003
 30
0.0
 40
3.5
 41
0.0
 71
     5
 72
     1
  1
水栓吊コマ
  7
CONVERTER_11
 73
     1
 44
0.54545454545455
  0
MTEXT
  5
130
330
1F
100
AcDbEntity
  8
1
 62
     7
100
AcDbMText
 10
57.00000000000003
 20
14.25000000000001
 30
0.0
 40
3.5
 41
0.0
 71
     5
 72
     1
  1
P82AT-2S-15
  7
CONVERTER_12
 73
     1
 44
0.7202881152461
  0
MTEXT
  5
131
330
1F
100
AcDbEntity
  8
1
 62
     7
100
AcDbMText
 10
93.75000000000003
 20
17.00000000000001
 30
0.0
 40
3.5
 41
0.0
 71
     5
 72
     1
  1
1
  7
CONVERTER_12
 73
     1
 44
0.7202881152461
  0
DIMENSION
  5
13E
330
1F
100
AcDbEntity
  8
1
100
AcDbDimension
  2
*D8
 10
110.3944090238759
 20
159.2493576017301
 30
0.0
 11
112.8271938406589
 21
161.9993576017301
 31
0.0
 70
    33
  1
<>
 71
     5
 42
-1.0
 53
0.00013888888889
  3
ME10_DIM_10
100
AcDbAlignedDimension
 13
115.3944090238759
 23
148.4929089977911
 33
0.0
 14
110.3944090238759
 24
148.4929089977911
 34
0.0
  0
DIMENSION
  5
149
330
1F
100
AcDbEntity
  8
0
100
AcDbDimension
  2
*D9
 10
94.40764666273878
 20
149.4929089977911
 30
0.0
 11
91.65764666273878
 21
142.3842325281271
 31
0.0
 70
    32
  1
<>
 71
     5
 42
-1.0
 53
90.0
  3
ME10_DIM_11
100
AcDbAlignedDimension
 13
106.1444090238759
 23
134.4929089977911
 33
0.0
 14
112.8944090238759
 24
149.4929089977911
 34
0.0
 50
90.0
100
AcDbRotatedDimension
  0
DIMENSION
  5
154
330
1F
100
AcDbEntity
  8
0
100
AcDbDimension
  2
*D10
 10
86.34471424964228
 20
149.4929089977911
 30
0.0
 11
83.59471424964228
 21
137.0089442527291
 31
0.0
 70
    32
  1
<>
 71
     5
 42
-1.0
 53
90.0
  3
ME10_DIM_12
100
AcDbAlignedDimension
 13
111.2734090238759
 23
124.4929089977911
 33
0.0
 14
112.8944090238759
 24
149.4929089977911
 34
0.0
 50
90.0
100
AcDbRotatedDimension
  0
INSERT
  5
15C
330
1F
100
AcDbEntity
  8
1
100
AcDbBlockReference
  2
*D11
 10
0.0
 20
0.0
 30
0.0
  0
INSERT
  5
166
330
1F
100
AcDbEntity
  8
0
100
AcDbBlockReference
  2
*D12
 10
0.0
 20
0.0
 30
0.0
  0
ENDSEC
  0
SECTION
  2
OBJECTS
  0
DICTIONARY
  5
C
330
0
100
AcDbDictionary
281
     1
  3
ACAD_GROUP
350
D
  3
ACAD_LAYOUT
350
1A
  3
ACAD_MATERIAL
350
3B
  3
ACAD_MLEADERSTYLE
350
169
  3
ACAD_MLINESTYLE
350
17
  3
ACAD_PLOTSETTINGS
350
19
  3
ACAD_PLOTSTYLENAME
350
E
  3
ACAD_VISUALSTYLE
350
2A
  3
AcDbVariableDictionary
350
167
  0
DICTIONARY
  5
D
102
{ACAD_REACTORS
330
C
102
}
330
C
100
AcDbDictionary
281
     1
  0
DICTIONARY
  5
1A
102
{ACAD_REACTORS
330
C
102
}
330
C
100
AcDbDictionary
281
     1
  3
Layout1
350
1E
  3
Layout2
350
26
  3
Model
350
22
  0
DICTIONARY
  5
3B
102
{ACAD_REACTORS
330
C
102
}
330
C
100
AcDbDictionary
281
     1
  3
ByBlock
350
3D
  3
ByLayer
350
3C
  3
Global
350
3E
  0
DICTIONARY
  5
169
102
{ACAD_REACTORS
330
C
102
}
330
C
100
AcDbDictionary
281
     1
  0
DICTIONARY
  5
17
102
{ACAD_REACTORS
330
C
102
}
330
C
100
AcDbDictionary
281
     1
  3
Standard
350
18
  0
DICTIONARY
  5
19
102
{ACAD_REACTORS
330
C
102
}
330
C
100
AcDbDictionary
281
     1
  0
ACDBDICTIONARYWDFLT
  5
E
102
{ACAD_REACTORS
330
C
102
}
330
C
100
AcDbDictionary
281
     1
  3
Normal
350
F
100
AcDbDictionaryWithDefault
340
F
  0
DICTIONARY
  5
2A
102
{ACAD_REACTORS
330
C
102
}
330
C
100
AcDbDictionary
281
     1
  3
2dWireframe
350
2F
  3
3D Hidden
350
31
  3
3dWireframe
350
30
  3
Basic
350
32
  3
Brighten
350
36
  3
ColorChange
350
3A
  3
Conceptual
350
34
  3
Dim
350
35
  3
Facepattern
350
39
  3
Flat
350
2B
  3
FlatWithEdges
350
2C
  3
Gouraud
350
2D
  3
GouraudWithEdges
350
2E
  3
Linepattern
350
38
  3
Realistic
350
33
  3
Thicken
350
37
  0
DICTIONARY
  5
167
102
{ACAD_REACTORS
330
C
102
}
330
C
100
AcDbDictionary
281
     1
  3
DIMASSOC
350
16A
  3
HIDETEXT
350
16B
  0
LAYOUT
  5
1E
102
{ACAD_REACTORS
330
1A
102
}
330
1A
100
AcDbPlotSettings
  1

  2
none_device
  4

  6

 40
0.0
 41
0.0
 42
0.0
 43
0.0
 44
0.0
 45
0.0
 46
0.0
 47
0.0
 48
0.0
 49
0.0
140
0.0
141
0.0
142
1.0
143
1.0
 70
   688
 72
     0
 73
     0
 74
     5
  7

 75
    16
147
1.0
148
0.0
149
0.0
100
AcDbLayout
  1
Layout1
 70
     1
 71
     1
 10
0.0
 20
0.0
 11
12.0
 21
9.0
 12
0.0
 22
0.0
 32
0.0
 14
1.00000000000000E+20
 24
1.00000000000000E+20
 34
1.00000000000000E+20
 15
-1.00000000000000E+20
 25
-1.00000000000000E+20
 35
-1.00000000000000E+20
146
0.0
 13
0.0
 23
0.0
 33
0.0
 16
1.0
 26
0.0
 36
0.0
 17
0.0
 27
1.0
 37
0.0
 76
     0
330
1B
  0
LAYOUT
  5
26
102
{ACAD_REACTORS
330
1A
102
}
330
1A
100
AcDbPlotSettings
  1

  2
none_device
  4

  6

 40
0.0
 41
0.0
 42
0.0
 43
0.0
 44
0.0
 45
0.0
 46
0.0
 47
0.0
 48
0.0
 49
0.0
140
0.0
141
0.0
142
1.0
143
1.0
 70
   688
 72
     0
 73
     0
 74
     5
  7

 75
    16
147
1.0
148
0.0
149
0.0
100
AcDbLayout
  1
Layout2
 70
     1
 71
     2
 10
0.0
 20
0.0
 11
0.0
 21
0.0
 12
0.0
 22
0.0
 32
0.0
 14
0.0
 24
0.0
 34
0.0
 15
0.0
 25
0.0
 35
0.0
146
0.0
 13
0.0
 23
0.0
 33
0.0
 16
1.0
 26
0.0
 36
0.0
 17
0.0
 27
1.0
 37
0.0
 76
     0
330
23
  0
LAYOUT
  5
22
102
{ACAD_REACTORS
330
1A
102
}
330
1A
100
AcDbPlotSettings
  1

  2
none_device
  4

  6

 40
0.0
 41
0.0
 42
0.0
 43
0.0
 44
0.0
 45
0.0
 46
0.0
 47
0.0
 48
0.0
 49
0.0
140
0.0
141
0.0
142
1.0
143
1.0
 70
  1712
 72
     0
 73
     0
 74
     0
  7

 75
     0
147
1.0
148
0.0
149
0.0
100
AcDbLayout
  1
Model
 70
     1
 71
     0
 10
0.0
 20
0.0
 11
12.0
 21
9.0
 12
0.0
 22
0.0
 32
0.0
 14
0.0
 24
0.00000000000001
 34
0.0
 15
210.0000000000001
 25
297.0000000000001
 35
0.0
146
0.0
 13
0.0
 23
0.0
 33
0.0
 16
1.0
 26
0.0
 36
0.0
 17
0.0
 27
1.0
 37
0.0
 76
     0
330
1F
331
29
  0
MATERIAL
  5
3D
102
{ACAD_REACTORS
330
3B
102
}
102
{ACAD_XDICTIONARY
360
18E
102
}
330
3B
100
AcDbMaterial
  1
ByBlock
  0
MATERIAL
  5
3C
102
{ACAD_REACTORS
330
3B
102
}
102
{ACAD_XDICTIONARY
360
18C
102
}
330
3B
100
AcDbMaterial
  1
ByLayer
  0
MATERIAL
  5
3E
102
{ACAD_REACTORS
330
3B
102
}
102
{ACAD_XDICTIONARY
360
190
102
}
330
3B
100
AcDbMaterial
  1
Global
  0
MLINESTYLE
  5
18
102
{ACAD_REACTORS
330
17
102
}
330
17
100
AcDbMlineStyle
  2
Standard
 70
     0
  3

 62
   256
 51
90.0
 52
90.0
 71
     2
 49
0.5
 62
   256
  6
BYLAYER
 49
-0.5
 62
   256
  6
BYLAYER
  0
ACDBPLACEHOLDER
  5
F
102
{ACAD_REACTORS
330
E
102
}
330
E
  0
VISUALSTYLE
  5
2F
102
{ACAD_REACTORS
330
2A
102
}
102
{ACAD_XDICTIONARY
360
174
102
}
330
2A
100
AcDbVisualStyle
  2
2dWireframe
 70
     4
 71
     0
 72
     2
 73
     0
 90
        0
 40
-0.6
 41
-30.0
 62
     5
 63
     7
 74
     1
 91
        4
 64
     7
 65
   257
 75
     1
175
     1
 42
1.0
 92
        0
 66
   257
 43
1.0
 76
     1
 77
     6
 78
     2
 67
     7
 79
     5
170
     0
171
     0
290
     0
174
     0
 93
        1
 44
0.0
173
     0
291
     0
 45
0.0
1001
ACAD
1000
AcDbSavedByObjectVersion
1070
     0
  0
VISUALSTYLE
  5
31
102
{ACAD_REACTORS
330
2A
102
}
102
{ACAD_XDICTIONARY
360
178
102
}
330
2A
100
AcDbVisualStyle
  2
3D Hidden
 70
     6
 71
     1
 72
     2
 73
     2
 90
        0
 40
-0.6
 41
-30.0
 62
     5
 63
     7
 74
     2
 91
        2
 64
     7
 65
   257
 75
     2
175
     1
 42
40.0
 92
        0
 66
   257
 43
1.0
 76
     1
 77
     6
 78
     2
 67
     7
 79
     3
170
     0
171
     0
290
     0
174
     0
 93
        1
 44
0.0
173
     0
291
     0
 45
0.0
1001
ACAD
1000
AcDbSavedByObjectVersion
1070
     0
  0
VISUALSTYLE
  5
30
102
{ACAD_REACTORS
330
2A
102
}
102
{ACAD_XDICTIONARY
360
176
102
}
330
2A
100
AcDbVisualStyle
  2
3dWireframe
 70
     5
 71
     0
 72
     2
 73
     0
 90
        0
 40
-0.6
 41
-30.0
 62
     5
 63
     7
 74
     1
 91
        4
 64
     7
 65
   257
 75
     1
175
     1
 42
1.0
 92
        0
 66
   257
 43
1.0
 76
     1
 77
     6
 78
     2
 67
     7
 79
     5
170
     0
171
     0
290
     0
174
     0
 93
        1
 44
0.0
173
     0
291
     0
 45
0.0
1001
ACAD
1000
AcDbSavedByObjectVersion
1070
     0
  0
VISUALSTYLE
  5
32
102
{ACAD_REACTORS
330
2A
102
}
102
{ACAD_XDICTIONARY
360
17A
102
}
330
2A
100
AcDbVisualStyle
  2
Basic
 70
     7
 71
     1
 72
     0
 73
     1
 90
        0
 40
-0.6
 41
-30.0
 62
     5
 63
     7
 74
     0
 91
        4
 64
     7
 65
   257
 75
     1
175
     1
 42
1.0
 92
        8
 66
     7
 43
1.0
 76
     1
 77
     6
 78
     2
 67
     7
 79
     5
170
     0
171
     0
290
     0
174
     0
 93
        1
 44
0.0
173
     0
291
     1
 45
0.0
1001
ACAD
1000
AcDbSavedByObjectVersion
1070
     0
  0
VISUALSTYLE
  5
36
102
{ACAD_REACTORS
330
2A
102
}
102
{ACAD_XDICTIONARY
360
182
102
}
330
2A
100
AcDbVisualStyle
  2
Brighten
 70
    12
 71
     2
 72
     2
 73
     0
 90
        0
 40
-0.6
 41
-30.0
 62
     5
 63
     7
 74
     1
 91
        4
 64
     7
 65
   257
 75
     1
175
     1
 42
1.0
 92
        8
 66
     7
 43
1.0
 76
     1
 77
     6
 78
     2
 67
     7
 79
     5
170
     0
171
     0
290
     0
174
     0
 93
        1
 44
50.0
173
     0
291
     1
 45
0.0
1001
ACAD
1000
AcDbSavedByObjectVersion
1070
     0
  0
VISUALSTYLE
  5
3A
102
{ACAD_REACTORS
330
2A
102
}
102
{ACAD_XDICTIONARY
360
18A
102
}
330
2A
100
AcDbVisualStyle
  2
ColorChange
 70
    16
 71
     2
 72
     2
 73
     3
 90
        0
 40
-0.6
 41
-30.0
 62
     5
 63
     8
 74
     1
 91
        4
 64
     7
 65
   257
 75
     1
175
     1
 42
1.0
 92
        8
 66
     8
 43
1.0
 76
     1
 77
     6
 78
     2
 67
     7
 79
     5
170
     0
171
     0
290
     0
174
     0
 93
        1
 44
0.0
173
     0
291
     1
 45
0.0
1001
ACAD
1000
AcDbSavedByObjectVersion
1070
     0
  0
VISUALSTYLE
  5
34
102
{ACAD_REACTORS
330
2A
102
}
102
{ACAD_XDICTIONARY
360
17E
102
}
330
2A
100
AcDbVisualStyle
  2
Conceptual
 70
     9
 71
     3
 72
     2
 73
     0
 90
        0
 40
-0.6
 41
-30.0
 62
     5
 63
     7
 74
     2
 91
        2
 64
     7
 65
   257
 75
     1
175
     1
 42
40.0
 92
        8
 66
     7
 43
1.0
 76
     1
 77
     6
 78
     2
 67
     7
 79
     3
170
     0
171
     0
290
     0
174
     0
 93
        1
 44
0.0
173
     0
291
     0
 45
0.0
1001
ACAD
1000
AcDbSavedByObjectVersion
1070
     0
  0
VISUALSTYLE
  5
35
102
{ACAD_REACTORS
330
2A
102
}
102
{ACAD_XDICTIONARY
360
180
102
}
330
2A
100
AcDbVisualStyle
  2
Dim
 70
    11
 71
     2
 72
     2
 73
     0
 90
        0
 40
-0.6
 41
-30.0
 62
     5
 63
     7
 74
     1
 91
        4
 64
     7
 65
   257
 75
     1
175
     1
 42
1.0
 92
        8
 66
     7
 43
1.0
 76
     1
 77
     6
 78
     2
 67
     7
 79
     5
170
     0
171
     0
290
     0
174
     0
 93
        1
 44
-50.0
173
     0
291
     1
 45
0.0
1001
ACAD
1000
AcDbSavedByObjectVersion
1070
     0
  0
VISUALSTYLE
  5
39
102
{ACAD_REACTORS
330
2A
102
}
102
{ACAD_XDICTIONARY
360
188
102
}
330
2A
100
AcDbVisualStyle
  2
Facepattern
 70
    15
 71
     2
 72
     2
 73
     0
 90
        0
 40
-0.6
 41
-30.0
 62
     5
 63
     7
 74
     1
 91
        4
 64
     7
 65
   257
 75
     1
175
     1
 42
1.0
 92
        8
 66
     7
 43
1.0
 76
     1
 77
     6
 78
     2
 67
     7
 79
     5
170
     0
171
     0
290
     0
174
     0
 93
        1
 44
0.0
173
     0
291
     1
 45
0.0
1001
ACAD
1000
AcDbSavedByObjectVersion
1070
     0
  0
VISUALSTYLE
  5
2B
102
{ACAD_REACTORS
330
2A
102
}
102
{ACAD_XDICTIONARY
360
16C
102
}
330
2A
100
AcDbVisualStyle
  2
Flat
 70
     0
 71
     2
 72
     1
 73
     1
 90
        2
 40
-0.6
 41
30.0
 62
     5
 63
     7
 74
     0
 91
        4
 64
     7
 65
   257
 75
     1
175
     1
 42
1.0
 92
        8
 66
     7
 43
1.0
 76
     1
 77
     6
 78
     2
 67
     7
 79
     5
170
     0
171
     0
290
     0
174
     0
 93
       13
 44
0.0
173
     0
291
     1
 45
0.0
1001
ACAD
1000
AcDbSavedByObjectVersion
1070
     0
  0
VISUALSTYLE
  5
2C
102
{ACAD_REACTORS
330
2A
102
}
102
{ACAD_XDICTIONARY
360
16E
102
}
330
2A
100
AcDbVisualStyle
  2
FlatWithEdges
 70
     1
 71
     2
 72
     1
 73
     1
 90
        2
 40
-0.6
 41
30.0
 62
     5
 63
     7
 74
     1
 91
        4
 64
     7
 65
   257
 75
     1
175
     1
 42
1.0
 92
        0
 66
   257
 43
1.0
 76
     1
 77
     6
 78
     2
 67
     7
 79
     5
170
     0
171
     0
290
     0
174
     0
 93
       13
 44
0.0
173
     0
291
     1
 45
0.0
1001
ACAD
1000
AcDbSavedByObjectVersion
1070
     0
  0
VISUALSTYLE
  5
2D
102
{ACAD_REACTORS
330
2A
102
}
102
{ACAD_XDICTIONARY
360
170
102
}
330
2A
100
AcDbVisualStyle
  2
Gouraud
 70
     2
 71
     2
 72
     2
 73
     1
 90
        2
 40
-0.6
 41
30.0
 62
     5
 63
     7
 74
     0
 91
        4
 64
     7
 65
   257
 75
     1
175
     1
 42
1.0
 92
        0
 66
     7
 43
1.0
 76
     1
 77
     6
 78
     2
 67
     7
 79
     5
170
     0
171
     0
290
     0
174
     0
 93
       13
 44
0.0
173
     0
291
     1
 45
0.0
1001
ACAD
1000
AcDbSavedByObjectVersion
1070
     0
  0
VISUALSTYLE
  5
2E
102
{ACAD_REACTORS
330
2A
102
}
102
{ACAD_XDICTIONARY
360
172
102
}
330
2A
100
AcDbVisualStyle
  2
GouraudWithEdges
 70
     3
 71
     2
 72
     2
 73
     1
 90
        2
 40
-0.6
 41
30.0
 62
     5
 63
     7
 74
     1
 91
        4
 64
     7
 65
   257
 75
     1
175
     1
 42
1.0
 92
        0
 66
   257
 43
1.0
 76
     1
 77
     6
 78
     2
 67
     7
 79
     5
170
     0
171
     0
290
     0
174
     0
 93
       13
 44
0.0
173
     0
291
     1
 45
0.0
1001
ACAD
1000
AcDbSavedByObjectVersion
1070
     0
  0
VISUALSTYLE
  5
38
102
{ACAD_REACTORS
330
2A
102
}
102
{ACAD_XDICTIONARY
360
186
102
}
330
2A
100
AcDbVisualStyle
  2
Linepattern
 70
    14
 71
     2
 72
     2
 73
     0
 90
        0
 40
-0.6
 41
-30.0
 62
     5
 63
     7
 74
     1
 91
        4
 64
     7
 65
   257
 75
     7
175
     7
 42
1.0
 92
        8
 66
     7
 43
1.0
 76
     1
 77
     6
 78
     2
 67
     7
 79
     5
170
     0
171
     0
290
     0
174
     0
 93
        1
 44
0.0
173
     0
291
     1
 45
0.0
1001
ACAD
1000
AcDbSavedByObjectVersion
1070
     0
  0
VISUALSTYLE
  5
33
102
{ACAD_REACTORS
330
2A
102
}
102
{ACAD_XDICTIONARY
360
17C
102
}
330
2A
100
AcDbVisualStyle
  2
Realistic
 70
     8
 71
     2
 72
     2
 73
     0
 90
        0
 40
-0.6
 41
-30.0
 62
     5
 63
     7
 74
     1
 91
        0
 64
     7
 65
   257
 75
     1
175
     1
 42
1.0
 92
        8
 66
     8
 43
1.0
 76
     1
 77
     6
 78
     2
 67
     7
 79
     5
170
     0
171
     0
290
     0
174
     0
 93
       13
 44
0.0
173
     0
291
     0
 45
0.0
1001
ACAD
1000
AcDbSavedByObjectVersion
1070
     0
  0
VISUALSTYLE
  5
37
102
{ACAD_REACTORS
330
2A
102
}
102
{ACAD_XDICTIONARY
360
184
102
}
330
2A
100
AcDbVisualStyle
  2
Thicken
 70
    13
 71
     2
 72
     2
 73
     0
 90
        0
 40
-0.6
 41
-30.0
 62
     5
 63
     7
 74
     1
 91
        4
 64
     7
 65
   257
 75
     1
175
     1
 42
1.0
 92
       12
 66
     7
 43
1.0
 76
     1
 77
     6
 78
     2
 67
     7
 79
     5
170
     0
171
     0
290
     0
174
     0
 93
        1
 44
0.0
173
     0
291
     1
 45
0.0
1001
ACAD
1000
AcDbSavedByObjectVersion
1070
     0
  0
DICTIONARYVAR
  5
16A
102
{ACAD_REACTORS
330
167
102
}
330
167
100
DictionaryVariables
280
     0
  1
2
  0
DICTIONARYVAR
  5
16B
102
{ACAD_REACTORS
330
167
102
}
330
167
100
DictionaryVariables
280
     0
  1
1
  0
DICTIONARY
  5
18E
330
3D
100
AcDbDictionary
280
     1
281
     1
  3
ACAD_XREC_ROUNDTRIP
360
18F
  0
DICTIONARY
  5
18C
330
3C
100
AcDbDictionary
280
     1
281
     1
  3
ACAD_XREC_ROUNDTRIP
360
18D
  0
DICTIONARY
  5
190
330
3E
100
AcDbDictionary
280
     1
281
     1
  3
ACAD_XREC_ROUNDTRIP
360
191
  0
DICTIONARY
  5
174
330
2F
100
AcDbDictionary
280
     1
281
     1
  3
ACAD_XREC_ROUNDTRIP
360
175
  0
DICTIONARY
  5
178
330
31
100
AcDbDictionary
280
     1
281
     1
  3
ACAD_XREC_ROUNDTRIP
360
179
  0
DICTIONARY
  5
176
330
30
100
AcDbDictionary
280
     1
281
     1
  3
ACAD_XREC_ROUNDTRIP
360
177
  0
DICTIONARY
  5
17A
330
32
100
AcDbDictionary
280
     1
281
     1
  3
ACAD_XREC_ROUNDTRIP
360
17B
  0
DICTIONARY
  5
182
330
36
100
AcDbDictionary
280
     1
281
     1
  3
ACAD_XREC_ROUNDTRIP
360
183
  0
DICTIONARY
  5
18A
330
3A
100
AcDbDictionary
280
     1
281
     1
  3
ACAD_XREC_ROUNDTRIP
360
18B
  0
DICTIONARY
  5
17E
330
34
100
AcDbDictionary
280
     1
281
     1
  3
ACAD_XREC_ROUNDTRIP
360
17F
  0
DICTIONARY
  5
180
330
35
100
AcDbDictionary
280
     1
281
     1
  3
ACAD_XREC_ROUNDTRIP
360
181
  0
DICTIONARY
  5
188
330
39
100
AcDbDictionary
280
     1
281
     1
  3
ACAD_XREC_ROUNDTRIP
360
189
  0
DICTIONARY
  5
16C
330
2B
100
AcDbDictionary
280
     1
281
     1
  3
ACAD_XREC_ROUNDTRIP
360
16D
  0
DICTIONARY
  5
16E
330
2C
100
AcDbDictionary
280
     1
281
     1
  3
ACAD_XREC_ROUNDTRIP
360
16F
  0
DICTIONARY
  5
170
330
2D
100
AcDbDictionary
280
     1
281
     1
  3
ACAD_XREC_ROUNDTRIP
360
171
  0
DICTIONARY
  5
172
330
2E
100
AcDbDictionary
280
     1
281
     1
  3
ACAD_XREC_ROUNDTRIP
360
173
  0
DICTIONARY
  5
186
330
38
100
AcDbDictionary
280
     1
281
     1
  3
ACAD_XREC_ROUNDTRIP
360
187
  0
DICTIONARY
  5
17C
330
33
100
AcDbDictionary
280
     1
281
     1
  3
ACAD_XREC_ROUNDTRIP
360
17D
  0
DICTIONARY
  5
184
330
37
100
AcDbDictionary
280
     1
281
     1
  3
ACAD_XREC_ROUNDTRIP
360
185
  0
XRECORD
  5
18F
102
{ACAD_REACTORS
330
18E
102
}
330
18E
100
AcDbXrecord
280
     1
102
MATERIAL
148
0.0
149
0.0
149
0.0
 93
        0
 94
      127
282
     0
 72
     1
 77
     1
171
     1
175
     1
179
     1
273
     0
  0
XRECORD
  5
18D
102
{ACAD_REACTORS
330
18C
102
}
330
18C
100
AcDbXrecord
280
     1
102
MATERIAL
148
0.0
149
0.0
149
0.0
 93
        0
 94
      127
282
     0
 72
     1
 77
     1
171
     1
175
     1
179
     1
273
     0
  0
XRECORD
  5
191
102
{ACAD_REACTORS
330
190
102
}
330
190
100
AcDbXrecord
280
     1
102
MATERIAL
148
0.0
149
0.0
149
0.0
 93
        0
 94
      127
282
     0
 72
     1
 77
     1
171
     1
175
     1
179
     1
273
     0
  0
XRECORD
  5
175
102
{ACAD_REACTORS
330
174
102
}
330
174
100
AcDbXrecord
280
     1
102
RTVSPropertyOp0
 70
     1
102
RTVSPropertyOp1
 70
     1
102
RTVSPropertyOp2
 70
     1
102
RTVSPropertyOp3
 70
     1
102
RTVSPropertyOp4
 70
     1
102
RTVSPropertyOp5
 70
     1
102
RTVSPropertyOp6
 70
     1
102
RTVSPropertyOp7
 70
     1
102
RTVSPropertyOp8
 70
     1
102
RTVSPropertyOp9
 70
     1
102
RTVSPropertyOp10
 70
     1
102
RTVSPropertyOp11
 70
     1
102
RTVSPropertyOp12
 70
     1
102
RTVSPropertyOp13
 70
     1
102
RTVSPropertyOp14
 70
     1
102
RTVSPropertyOp15
 70
     1
102
RTVSPropertyOp16
 70
     1
102
RTVSPropertyOp17
 70
     1
102
RTVSPropertyOp18
 70
     1
102
RTVSPropertyOp19
 70
     1
102
RTVSPropertyOp20
 70
     1
102
RTVSPropertyOp21
 70
     1
102
RTVSPropertyOp22
 70
     1
102
RTVSPropertyOp23
 70
     1
102
RTVSPropertyOp24
 70
     1
102
RTVSPropertyOp25
 70
     1
102
RTVSPropertyOp26
 70
     1
102
RTVSPropertyOp27
 70
     1
102
RTVSPropertyOp28
 70
     1
102
RTVSPropertyOp29
 70
     1
102
RTVSPropertyOp30
 70
     1
102
RTVSPropertyOp31
 70
     1
102
RTVSPropertyOp32
 70
     1
  0
XRECORD
  5
179
102
{ACAD_REACTORS
330
178
102
}
330
178
100
AcDbXrecord
280
     1
102
RTVSPropertyOp0
 70
     1
102
RTVSPropertyOp1
 70
     1
102
RTVSPropertyOp2
 70
     1
102
RTVSPropertyOp3
 70
     1
102
RTVSPropertyOp4
 70
     1
102
RTVSPropertyOp5
 70
     1
102
RTVSPropertyOp6
 70
     1
102
RTVSPropertyOp7
 70
     1
102
RTVSPropertyOp8
 70
     1
102
RTVSPropertyOp9
 70
     1
102
RTVSPropertyOp10
 70
     1
102
RTVSPropertyOp11
 70
     1
102
RTVSPropertyOp12
 70
     1
102
RTVSPropertyOp13
 70
     1
102
RTVSPropertyOp14
 70
     1
102
RTVSPropertyOp15
 70
     1
102
RTVSPropertyOp16
 70
     1
102
RTVSPropertyOp17
 70
     1
102
RTVSPropertyOp18
 70
     1
102
RTVSPropertyOp19
 70
     1
102
RTVSPropertyOp20
 70
     1
102
RTVSPropertyOp21
 70
     1
102
RTVSPropertyOp22
 70
     1
102
RTVSPropertyOp23
 70
     1
102
RTVSPropertyOp24
 70
     1
102
RTVSPropertyOp25
 70
     1
102
RTVSPropertyOp26
 70
     1
102
RTVSPropertyOp27
 70
     1
102
RTVSPropertyOp28
 70
     1
102
RTVSPropertyOp29
 70
     1
102
RTVSPropertyOp30
 70
     1
102
RTVSPropertyOp31
 70
     1
102
RTVSPropertyOp32
 70
     1
  0
XRECORD
  5
177
102
{ACAD_REACTORS
330
176
102
}
330
176
100
AcDbXrecord
280
     1
102
RTVSPropertyOp0
 70
     1
102
RTVSPropertyOp1
 70
     1
102
RTVSPropertyOp2
 70
     1
102
RTVSPropertyOp3
 70
     1
102
RTVSPropertyOp4
 70
     1
102
RTVSPropertyOp5
 70
     1
102
RTVSPropertyOp6
 70
     1
102
RTVSPropertyOp7
 70
     1
102
RTVSPropertyOp8
 70
     1
102
RTVSPropertyOp9
 70
     1
102
RTVSPropertyOp10
 70
     1
102
RTVSPropertyOp11
 70
     1
102
RTVSPropertyOp12
 70
     1
102
RTVSPropertyOp13
 70
     1
102
RTVSPropertyOp14
 70
     1
102
RTVSPropertyOp15
 70
     1
102
RTVSPropertyOp16
 70
     1
102
RTVSPropertyOp17
 70
     1
102
RTVSPropertyOp18
 70
     1
102
RTVSPropertyOp19
 70
     1
102
RTVSPropertyOp20
 70
     1
102
RTVSPropertyOp21
 70
     1
102
RTVSPropertyOp22
 70
     1
102
RTVSPropertyOp23
 70
     1
102
RTVSPropertyOp24
 70
     1
102
RTVSPropertyOp25
 70
     1
102
RTVSPropertyOp26
 70
     1
102
RTVSPropertyOp27
 70
     1
102
RTVSPropertyOp28
 70
     1
102
RTVSPropertyOp29
 70
     1
102
RTVSPropertyOp30
 70
     1
102
RTVSPropertyOp31
 70
     1
102
RTVSPropertyOp32
 70
     1
  0
XRECORD
  5
17B
102
{ACAD_REACTORS
330
17A
102
}
330
17A
100
AcDbXrecord
280
     1
102
RTVSPropertyOp0
 70
     1
102
RTVSPropertyOp1
 70
     1
102
RTVSPropertyOp2
 70
     1
102
RTVSPropertyOp3
 70
     1
102
RTVSPropertyOp4
 70
     1
102
RTVSPropertyOp5
 70
     1
102
RTVSPropertyOp6
 70
     1
102
RTVSPropertyOp7
 70
     1
102
RTVSPropertyOp8
 70
     1
102
RTVSPropertyOp9
 70
     1
102
RTVSPropertyOp10
 70
     1
102
RTVSPropertyOp11
 70
     1
102
RTVSPropertyOp12
 70
     1
102
RTVSPropertyOp13
 70
     1
102
RTVSPropertyOp14
 70
     1
102
RTVSPropertyOp15
 70
     1
102
RTVSPropertyOp16
 70
     1
102
RTVSPropertyOp17
 70
     1
102
RTVSPropertyOp18
 70
     1
102
RTVSPropertyOp19
 70
     1
102
RTVSPropertyOp20
 70
     1
102
RTVSPropertyOp21
 70
     1
102
RTVSPropertyOp22
 70
     1
102
RTVSPropertyOp23
 70
     1
102
RTVSPropertyOp24
 70
     1
102
RTVSPropertyOp25
 70
     1
102
RTVSPropertyOp26
 70
     1
102
RTVSPropertyOp27
 70
     1
102
RTVSPropertyOp28
 70
     1
102
RTVSPropertyOp29
 70
     1
102
RTVSPropertyOp30
 70
     1
102
RTVSPropertyOp31
 70
     1
102
RTVSPropertyOp32
 70
     1
  0
XRECORD
  5
183
102
{ACAD_REACTORS
330
182
102
}
330
182
100
AcDbXrecord
280
     1
102
RTVSPropertyOp0
 70
     1
102
RTVSPropertyOp1
 70
     1
102
RTVSPropertyOp2
 70
     1
102
RTVSPropertyOp3
 70
     1
102
RTVSPropertyOp4
 70
     1
102
RTVSPropertyOp5
 70
     1
102
RTVSPropertyOp6
 70
     1
102
RTVSPropertyOp7
 70
     1
102
RTVSPropertyOp8
 70
     1
102
RTVSPropertyOp9
 70
     1
102
RTVSPropertyOp10
 70
     1
102
RTVSPropertyOp11
 70
     1
102
RTVSPropertyOp12
 70
     1
102
RTVSPropertyOp13
 70
     1
102
RTVSPropertyOp14
 70
     1
102
RTVSPropertyOp15
 70
     1
102
RTVSPropertyOp16
 70
     1
102
RTVSPropertyOp17
 70
     1
102
RTVSPropertyOp18
 70
     1
102
RTVSPropertyOp19
 70
     1
102
RTVSPropertyOp20
 70
     1
102
RTVSPropertyOp21
 70
     1
102
RTVSPropertyOp22
 70
     1
102
RTVSPropertyOp23
 70
     1
102
RTVSPropertyOp24
 70
     1
102
RTVSPropertyOp25
 70
     1
102
RTVSPropertyOp26
 70
     1
102
RTVSPropertyOp27
 70
     1
102
RTVSPropertyOp28
 70
     1
102
RTVSPropertyOp29
 70
     1
102
RTVSPropertyOp30
 70
     1
102
RTVSPropertyOp31
 70
     1
102
RTVSPropertyOp32
 70
     1
  0
XRECORD
  5
18B
102
{ACAD_REACTORS
330
18A
102
}
330
18A
100
AcDbXrecord
280
     1
102
RTVSPropertyOp0
 70
     1
102
RTVSPropertyOp1
 70
     1
102
RTVSPropertyOp2
 70
     1
102
RTVSPropertyOp3
 70
     1
102
RTVSPropertyOp4
 70
     1
102
RTVSPropertyOp5
 70
     1
102
RTVSPropertyOp6
 70
     1
102
RTVSPropertyOp7
 70
     1
102
RTVSPropertyOp8
 70
     1
102
RTVSPropertyOp9
 70
     1
102
RTVSPropertyOp10
 70
     1
102
RTVSPropertyOp11
 70
     1
102
RTVSPropertyOp12
 70
     1
102
RTVSPropertyOp13
 70
     1
102
RTVSPropertyOp14
 70
     1
102
RTVSPropertyOp15
 70
     1
102
RTVSPropertyOp16
 70
     1
102
RTVSPropertyOp17
 70
     1
102
RTVSPropertyOp18
 70
     1
102
RTVSPropertyOp19
 70
     1
102
RTVSPropertyOp20
 70
     1
102
RTVSPropertyOp21
 70
     1
102
RTVSPropertyOp22
 70
     1
102
RTVSPropertyOp23
 70
     1
102
RTVSPropertyOp24
 70
     1
102
RTVSPropertyOp25
 70
     1
102
RTVSPropertyOp26
 70
     1
102
RTVSPropertyOp27
 70
     1
102
RTVSPropertyOp28
 70
     1
102
RTVSPropertyOp29
 70
     1
102
RTVSPropertyOp30
 70
     1
102
RTVSPropertyOp31
 70
     1
102
RTVSPropertyOp32
 70
     1
  0
XRECORD
  5
17F
102
{ACAD_REACTORS
330
17E
102
}
330
17E
100
AcDbXrecord
280
     1
102
RTVSPropertyOp0
 70
     1
102
RTVSPropertyOp1
 70
     1
102
RTVSPropertyOp2
 70
     1
102
RTVSPropertyOp3
 70
     1
102
RTVSPropertyOp4
 70
     1
102
RTVSPropertyOp5
 70
     1
102
RTVSPropertyOp6
 70
     1
102
RTVSPropertyOp7
 70
     1
102
RTVSPropertyOp8
 70
     1
102
RTVSPropertyOp9
 70
     1
102
RTVSPropertyOp10
 70
     1
102
RTVSPropertyOp11
 70
     1
102
RTVSPropertyOp12
 70
     1
102
RTVSPropertyOp13
 70
     1
102
RTVSPropertyOp14
 70
     1
102
RTVSPropertyOp15
 70
     1
102
RTVSPropertyOp16
 70
     1
102
RTVSPropertyOp17
 70
     1
102
RTVSPropertyOp18
 70
     1
102
RTVSPropertyOp19
 70
     1
102
RTVSPropertyOp20
 70
     1
102
RTVSPropertyOp21
 70
     1
102
RTVSPropertyOp22
 70
     1
102
RTVSPropertyOp23
 70
     1
102
RTVSPropertyOp24
 70
     1
102
RTVSPropertyOp25
 70
     1
102
RTVSPropertyOp26
 70
     1
102
RTVSPropertyOp27
 70
     1
102
RTVSPropertyOp28
 70
     1
102
RTVSPropertyOp29
 70
     1
102
RTVSPropertyOp30
 70
     1
102
RTVSPropertyOp31
 70
     1
102
RTVSPropertyOp32
 70
     1
  0
XRECORD
  5
181
102
{ACAD_REACTORS
330
180
102
}
330
180
100
AcDbXrecord
280
     1
102
RTVSPropertyOp0
 70
     1
102
RTVSPropertyOp1
 70
     1
102
RTVSPropertyOp2
 70
     1
102
RTVSPropertyOp3
 70
     1
102
RTVSPropertyOp4
 70
     1
102
RTVSPropertyOp5
 70
     1
102
RTVSPropertyOp6
 70
     1
102
RTVSPropertyOp7
 70
     1
102
RTVSPropertyOp8
 70
     1
102
RTVSPropertyOp9
 70
     1
102
RTVSPropertyOp10
 70
     1
102
RTVSPropertyOp11
 70
     1
102
RTVSPropertyOp12
 70
     1
102
RTVSPropertyOp13
 70
     1
102
RTVSPropertyOp14
 70
     1
102
RTVSPropertyOp15
 70
     1
102
RTVSPropertyOp16
 70
     1
102
RTVSPropertyOp17
 70
     1
102
RTVSPropertyOp18
 70
     1
102
RTVSPropertyOp19
 70
     1
102
RTVSPropertyOp20
 70
     1
102
RTVSPropertyOp21
 70
     1
102
RTVSPropertyOp22
 70
     1
102
RTVSPropertyOp23
 70
     1
102
RTVSPropertyOp24
 70
     1
102
RTVSPropertyOp25
 70
     1
102
RTVSPropertyOp26
 70
     1
102
RTVSPropertyOp27
 70
     1
102
RTVSPropertyOp28
 70
     1
102
RTVSPropertyOp29
 70
     1
102
RTVSPropertyOp30
 70
     1
102
RTVSPropertyOp31
 70
     1
102
RTVSPropertyOp32
 70
     1
  0
XRECORD
  5
189
102
{ACAD_REACTORS
330
188
102
}
330
188
100
AcDbXrecord
280
     1
102
RTVSPropertyOp0
 70
     1
102
RTVSPropertyOp1
 70
     1
102
RTVSPropertyOp2
 70
     1
102
RTVSPropertyOp3
 70
     1
102
RTVSPropertyOp4
 70
     1
102
RTVSPropertyOp5
 70
     1
102
RTVSPropertyOp6
 70
     1
102
RTVSPropertyOp7
 70
     1
102
RTVSPropertyOp8
 70
     1
102
RTVSPropertyOp9
 70
     1
102
RTVSPropertyOp10
 70
     1
102
RTVSPropertyOp11
 70
     1
102
RTVSPropertyOp12
 70
     1
102
RTVSPropertyOp13
 70
     1
102
RTVSPropertyOp14
 70
     1
102
RTVSPropertyOp15
 70
     1
102
RTVSPropertyOp16
 70
     1
102
RTVSPropertyOp17
 70
     1
102
RTVSPropertyOp18
 70
     1
102
RTVSPropertyOp19
 70
     1
102
RTVSPropertyOp20
 70
     1
102
RTVSPropertyOp21
 70
     1
102
RTVSPropertyOp22
 70
     1
102
RTVSPropertyOp23
 70
     1
102
RTVSPropertyOp24
 70
     1
102
RTVSPropertyOp25
 70
     1
102
RTVSPropertyOp26
 70
     1
102
RTVSPropertyOp27
 70
     1
102
RTVSPropertyOp28
 70
     1
102
RTVSPropertyOp29
 70
     1
102
RTVSPropertyOp30
 70
     1
102
RTVSPropertyOp31
 70
     1
102
RTVSPropertyOp32
 70
     1
  0
XRECORD
  5
16D
102
{ACAD_REACTORS
330
16C
102
}
330
16C
100
AcDbXrecord
280
     1
102
RTVSPropertyOp0
 70
     1
102
RTVSPropertyOp1
 70
     1
102
RTVSPropertyOp2
 70
     1
102
RTVSPropertyOp3
 70
     1
102
RTVSPropertyOp4
 70
     1
102
RTVSPropertyOp5
 70
     1
102
RTVSPropertyOp6
 70
     1
102
RTVSPropertyOp7
 70
     1
102
RTVSPropertyOp8
 70
     1
102
RTVSPropertyOp9
 70
     1
102
RTVSPropertyOp10
 70
     1
102
RTVSPropertyOp11
 70
     1
102
RTVSPropertyOp12
 70
     1
102
RTVSPropertyOp13
 70
     1
102
RTVSPropertyOp14
 70
     1
102
RTVSPropertyOp15
 70
     1
102
RTVSPropertyOp16
 70
     1
102
RTVSPropertyOp17
 70
     1
102
RTVSPropertyOp18
 70
     1
102
RTVSPropertyOp19
 70
     1
102
RTVSPropertyOp20
 70
     1
102
RTVSPropertyOp21
 70
     1
102
RTVSPropertyOp22
 70
     1
102
RTVSPropertyOp23
 70
     1
102
RTVSPropertyOp24
 70
     1
102
RTVSPropertyOp25
 70
     1
102
RTVSPropertyOp26
 70
     1
102
RTVSPropertyOp27
 70
     1
102
RTVSPropertyOp28
 70
     1
102
RTVSPropertyOp29
 70
     1
102
RTVSPropertyOp30
 70
     1
102
RTVSPropertyOp31
 70
     1
102
RTVSPropertyOp32
 70
     1
  0
XRECORD
  5
16F
102
{ACAD_REACTORS
330
16E
102
}
330
16E
100
AcDbXrecord
280
     1
102
RTVSPropertyOp0
 70
     1
102
RTVSPropertyOp1
 70
     1
102
RTVSPropertyOp2
 70
     1
102
RTVSPropertyOp3
 70
     1
102
RTVSPropertyOp4
 70
     1
102
RTVSPropertyOp5
 70
     1
102
RTVSPropertyOp6
 70
     1
102
RTVSPropertyOp7
 70
     1
102
RTVSPropertyOp8
 70
     1
102
RTVSPropertyOp9
 70
     1
102
RTVSPropertyOp10
 70
     1
102
RTVSPropertyOp11
 70
     1
102
RTVSPropertyOp12
 70
     1
102
RTVSPropertyOp13
 70
     1
102
RTVSPropertyOp14
 70
     1
102
RTVSPropertyOp15
 70
     1
102
RTVSPropertyOp16
 70
     1
102
RTVSPropertyOp17
 70
     1
102
RTVSPropertyOp18
 70
     1
102
RTVSPropertyOp19
 70
     1
102
RTVSPropertyOp20
 70
     1
102
RTVSPropertyOp21
 70
     1
102
RTVSPropertyOp22
 70
     1
102
RTVSPropertyOp23
 70
     1
102
RTVSPropertyOp24
 70
     1
102
RTVSPropertyOp25
 70
     1
102
RTVSPropertyOp26
 70
     1
102
RTVSPropertyOp27
 70
     1
102
RTVSPropertyOp28
 70
     1
102
RTVSPropertyOp29
 70
     1
102
RTVSPropertyOp30
 70
     1
102
RTVSPropertyOp31
 70
     1
102
RTVSPropertyOp32
 70
     1
  0
XRECORD
  5
171
102
{ACAD_REACTORS
330
170
102
}
330
170
100
AcDbXrecord
280
     1
102
RTVSPropertyOp0
 70
     1
102
RTVSPropertyOp1
 70
     1
102
RTVSPropertyOp2
 70
     1
102
RTVSPropertyOp3
 70
     1
102
RTVSPropertyOp4
 70
     1
102
RTVSPropertyOp5
 70
     1
102
RTVSPropertyOp6
 70
     1
102
RTVSPropertyOp7
 70
     1
102
RTVSPropertyOp8
 70
     1
102
RTVSPropertyOp9
 70
     1
102
RTVSPropertyOp10
 70
     1
102
RTVSPropertyOp11
 70
     1
102
RTVSPropertyOp12
 70
     1
102
RTVSPropertyOp13
 70
     1
102
RTVSPropertyOp14
 70
     1
102
RTVSPropertyOp15
 70
     1
102
RTVSPropertyOp16
 70
     1
102
RTVSPropertyOp17
 70
     1
102
RTVSPropertyOp18
 70
     1
102
RTVSPropertyOp19
 70
     1
102
RTVSPropertyOp20
 70
     1
102
RTVSPropertyOp21
 70
     1
102
RTVSPropertyOp22
 70
     1
102
RTVSPropertyOp23
 70
     1
102
RTVSPropertyOp24
 70
     1
102
RTVSPropertyOp25
 70
     1
102
RTVSPropertyOp26
 70
     1
102
RTVSPropertyOp27
 70
     1
102
RTVSPropertyOp28
 70
     1
102
RTVSPropertyOp29
 70
     1
102
RTVSPropertyOp30
 70
     1
102
RTVSPropertyOp31
 70
     1
102
RTVSPropertyOp32
 70
     1
  0
XRECORD
  5
173
102
{ACAD_REACTORS
330
172
102
}
330
172
100
AcDbXrecord
280
     1
102
RTVSPropertyOp0
 70
     1
102
RTVSPropertyOp1
 70
     1
102
RTVSPropertyOp2
 70
     1
102
RTVSPropertyOp3
 70
     1
102
RTVSPropertyOp4
 70
     1
102
RTVSPropertyOp5
 70
     1
102
RTVSPropertyOp6
 70
     1
102
RTVSPropertyOp7
 70
     1
102
RTVSPropertyOp8
 70
     1
102
RTVSPropertyOp9
 70
     1
102
RTVSPropertyOp10
 70
     1
102
RTVSPropertyOp11
 70
     1
102
RTVSPropertyOp12
 70
     1
102
RTVSPropertyOp13
 70
     1
102
RTVSPropertyOp14
 70
     1
102
RTVSPropertyOp15
 70
     1
102
RTVSPropertyOp16
 70
     1
102
RTVSPropertyOp17
 70
     1
102
RTVSPropertyOp18
 70
     1
102
RTVSPropertyOp19
 70
     1
102
RTVSPropertyOp20
 70
     1
102
RTVSPropertyOp21
 70
     1
102
RTVSPropertyOp22
 70
     1
102
RTVSPropertyOp23
 70
     1
102
RTVSPropertyOp24
 70
     1
102
RTVSPropertyOp25
 70
     1
102
RTVSPropertyOp26
 70
     1
102
RTVSPropertyOp27
 70
     1
102
RTVSPropertyOp28
 70
     1
102
RTVSPropertyOp29
 70
     1
102
RTVSPropertyOp30
 70
     1
102
RTVSPropertyOp31
 70
     1
102
RTVSPropertyOp32
 70
     1
  0
XRECORD
  5
187
102
{ACAD_REACTORS
330
186
102
}
330
186
100
AcDbXrecord
280
     1
102
RTVSPropertyOp0
 70
     1
102
RTVSPropertyOp1
 70
     1
102
RTVSPropertyOp2
 70
     1
102
RTVSPropertyOp3
 70
     1
102
RTVSPropertyOp4
 70
     1
102
RTVSPropertyOp5
 70
     1
102
RTVSPropertyOp6
 70
     1
102
RTVSPropertyOp7
 70
     1
102
RTVSPropertyOp8
 70
     1
102
RTVSPropertyOp9
 70
     1
102
RTVSPropertyOp10
 70
     1
102
RTVSPropertyOp11
 70
     1
102
RTVSPropertyOp12
 70
     1
102
RTVSPropertyOp13
 70
     1
102
RTVSPropertyOp14
 70
     1
102
RTVSPropertyOp15
 70
     1
102
RTVSPropertyOp16
 70
     1
102
RTVSPropertyOp17
 70
     1
102
RTVSPropertyOp18
 70
     1
102
RTVSPropertyOp19
 70
     1
102
RTVSPropertyOp20
 70
     1
102
RTVSPropertyOp21
 70
     1
102
RTVSPropertyOp22
 70
     1
102
RTVSPropertyOp23
 70
     1
102
RTVSPropertyOp24
 70
     1
102
RTVSPropertyOp25
 70
     1
102
RTVSPropertyOp26
 70
     1
102
RTVSPropertyOp27
 70
     1
102
RTVSPropertyOp28
 70
     1
102
RTVSPropertyOp29
 70
     1
102
RTVSPropertyOp30
 70
     1
102
RTVSPropertyOp31
 70
     1
102
RTVSPropertyOp32
 70
     1
  0
XRECORD
  5
17D
102
{ACAD_REACTORS
330
17C
102
}
330
17C
100
AcDbXrecord
280
     1
102
RTVSPropertyOp0
 70
     1
102
RTVSPropertyOp1
 70
     1
102
RTVSPropertyOp2
 70
     1
102
RTVSPropertyOp3
 70
     1
102
RTVSPropertyOp4
 70
     1
102
RTVSPropertyOp5
 70
     1
102
RTVSPropertyOp6
 70
     1
102
RTVSPropertyOp7
 70
     1
102
RTVSPropertyOp8
 70
     1
102
RTVSPropertyOp9
 70
     1
102
RTVSPropertyOp10
 70
     1
102
RTVSPropertyOp11
 70
     1
102
RTVSPropertyOp12
 70
     1
102
RTVSPropertyOp13
 70
     1
102
RTVSPropertyOp14
 70
     1
102
RTVSPropertyOp15
 70
     1
102
RTVSPropertyOp16
 70
     1
102
RTVSPropertyOp17
 70
     1
102
RTVSPropertyOp18
 70
     1
102
RTVSPropertyOp19
 70
     1
102
RTVSPropertyOp20
 70
     1
102
RTVSPropertyOp21
 70
     1
102
RTVSPropertyOp22
 70
     1
102
RTVSPropertyOp23
 70
     1
102
RTVSPropertyOp24
 70
     1
102
RTVSPropertyOp25
 70
     1
102
RTVSPropertyOp26
 70
     1
102
RTVSPropertyOp27
 70
     1
102
RTVSPropertyOp28
 70
     1
102
RTVSPropertyOp29
 70
     1
102
RTVSPropertyOp30
 70
     1
102
RTVSPropertyOp31
 70
     1
102
RTVSPropertyOp32
 70
     1
  0
XRECORD
  5
185
102
{ACAD_REACTORS
330
184
102
}
330
184
100
AcDbXrecord
280
     1
102
RTVSPropertyOp0
 70
     1
102
RTVSPropertyOp1
 70
     1
102
RTVSPropertyOp2
 70
     1
102
RTVSPropertyOp3
 70
     1
102
RTVSPropertyOp4
 70
     1
102
RTVSPropertyOp5
 70
     1
102
RTVSPropertyOp6
 70
     1
102
RTVSPropertyOp7
 70
     1
102
RTVSPropertyOp8
 70
     1
102
RTVSPropertyOp9
 70
     1
102
RTVSPropertyOp10
 70
     1
102
RTVSPropertyOp11
 70
     1
102
RTVSPropertyOp12
 70
     1
102
RTVSPropertyOp13
 70
     1
102
RTVSPropertyOp14
 70
     1
102
RTVSPropertyOp15
 70
     1
102
RTVSPropertyOp16
 70
     1
102
RTVSPropertyOp17
 70
     1
102
RTVSPropertyOp18
 70
     1
102
RTVSPropertyOp19
 70
     1
102
RTVSPropertyOp20
 70
     1
102
RTVSPropertyOp21
 70
     1
102
RTVSPropertyOp22
 70
     1
102
RTVSPropertyOp23
 70
     1
102
RTVSPropertyOp24
 70
     1
102
RTVSPropertyOp25
 70
     1
102
RTVSPropertyOp26
 70
     1
102
RTVSPropertyOp27
 70
     1
102
RTVSPropertyOp28
 70
     1
102
RTVSPropertyOp29
 70
     1
102
RTVSPropertyOp30
 70
     1
102
RTVSPropertyOp31
 70
     1
102
RTVSPropertyOp32
 70
     1
  0
ENDSEC
  0
EOF
